  0
SECTION
  2
HEADER
  9
$ACADVER
  1
AC1015
  9
$ACADMAINTVER
 70
     6
  9
$DWGCODEPAGE
  3
ANSI_932
  9
$INSBASE
 10
0.0
 20
0.0
 30
0.0
  9
$EXTMIN
 10
0.0
 20
0.0
 30
0.0
  9
$EXTMAX
 10
210.0
 20
297.0
 30
0.0
  9
$LIMMIN
 10
0.0
 20
0.0
  9
$LIMMAX
 10
12.0
 20
9.0
  9
$ORTHOMODE
 70
     0
  9
$REGENMODE
 70
     1
  9
$FILLMODE
 70
     1
  9
$QTEXTMODE
 70
     0
  9
$MIRRTEXT
 70
     1
  9
$LTSCALE
 40
1.0
  9
$ATTMODE
 70
     1
  9
$TEXTSIZE
 40
0.2
  9
$TRACEWID
 40
0.05
  9
$TEXTSTYLE
  7
Standard
  9
$CLAYER
  8
0
  9
$CELTYPE
  6
ByLayer
  9
$CECOLOR
 62
   256
  9
$CELTSCALE
 40
1.0
  9
$DISPSILH
 70
     0
  9
$DIMSCALE
 40
1.0
  9
$DIMASZ
 40
0.18
  9
$DIMEXO
 40
0.0625
  9
$DIMDLI
 40
0.38
  9
$DIMRND
 40
0.0
  9
$DIMDLE
 40
0.0
  9
$DIMEXE
 40
0.18
  9
$DIMTP
 40
0.0
  9
$DIMTM
 40
0.0
  9
$DIMTXT
 40
0.18
  9
$DIMCEN
 40
0.09
  9
$DIMTSZ
 40
0.0
  9
$DIMTOL
 70
     0
  9
$DIMLIM
 70
     0
  9
$DIMTIH
 70
     1
  9
$DIMTOH
 70
     1
  9
$DIMSE1
 70
     0
  9
$DIMSE2
 70
     0
  9
$DIMTAD
 70
     0
  9
$DIMZIN
 70
     0
  9
$DIMBLK
  1

  9
$DIMASO
 70
     1
  9
$DIMSHO
 70
     1
  9
$DIMPOST
  1

  9
$DIMAPOST
  1

  9
$DIMALT
 70
     0
  9
$DIMALTD
 70
     2
  9
$DIMALTF
 40
25.4
  9
$DIMLFAC
 40
1.0
  9
$DIMTOFL
 70
     0
  9
$DIMTVP
 40
0.0
  9
$DIMTIX
 70
     0
  9
$DIMSOXD
 70
     0
  9
$DIMSAH
 70
     0
  9
$DIMBLK1
  1

  9
$DIMBLK2
  1

  9
$DIMSTYLE
  2
Standard
  9
$DIMCLRD
 70
     0
  9
$DIMCLRE
 70
     0
  9
$DIMCLRT
 70
     0
  9
$DIMTFAC
 40
1.0
  9
$DIMGAP
 40
0.09
  9
$DIMJUST
 70
     0
  9
$DIMSD1
 70
     0
  9
$DIMSD2
 70
     0
  9
$DIMTOLJ
 70
     1
  9
$DIMTZIN
 70
     0
  9
$DIMALTZ
 70
     0
  9
$DIMALTTZ
 70
     0
  9
$DIMUPT
 70
     0
  9
$DIMDEC
 70
     4
  9
$DIMTDEC
 70
     4
  9
$DIMALTU
 70
     2
  9
$DIMALTTD
 70
     2
  9
$DIMTXSTY
  7
Standard
  9
$DIMAUNIT
 70
     0
  9
$DIMADEC
 70
     0
  9
$DIMALTRND
 40
0.0
  9
$DIMAZIN
 70
     0
  9
$DIMDSEP
 70
    46
  9
$DIMATFIT
 70
     3
  9
$DIMFRAC
 70
     0
  9
$DIMLDRBLK
  1

  9
$DIMLUNIT
 70
     2
  9
$DIMLWD
 70
    -2
  9
$DIMLWE
 70
    -2
  9
$DIMTMOVE
 70
     0
  9
$LUNITS
 70
     2
  9
$LUPREC
 70
     4
  9
$SKETCHINC
 40
0.1
  9
$FILLETRAD
 40
0.5
  9
$AUNITS
 70
     0
  9
$AUPREC
 70
     0
  9
$MENU
  1
.
  9
$ELEVATION
 40
0.0
  9
$PELEVATION
 40
0.0
  9
$THICKNESS
 40
0.0
  9
$LIMCHECK
 70
     0
  9
$CHAMFERA
 40
0.5
  9
$CHAMFERB
 40
0.5
  9
$CHAMFERC
 40
1.0
  9
$CHAMFERD
 40
0.0
  9
$SKPOLY
 70
     0
  9
$TDCREATE
 40
2459747.587480451
  9
$TDUCREATE
 40
2459747.212480451
  9
$TDUPDATE
 40
2459747.587481725
  9
$TDUUPDATE
 40
2459747.212481725
  9
$TDINDWG
 40
0.0000000116
  9
$TDUSRTIMER
 40
0.0000000116
  9
$USRTIMER
 70
     1
  9
$ANGBASE
 50
0.0
  9
$ANGDIR
 70
     0
  9
$PDMODE
 70
     0
  9
$PDSIZE
 40
0.0
  9
$PLINEWID
 40
0.0
  9
$SPLFRAME
 70
     0
  9
$SPLINETYPE
 70
     6
  9
$SPLINESEGS
 70
     8
  9
$HANDSEED
  5
138
  9
$SURFTAB1
 70
     6
  9
$SURFTAB2
 70
     6
  9
$SURFTYPE
 70
     6
  9
$SURFU
 70
     6
  9
$SURFV
 70
     6
  9
$UCSBASE
  2

  9
$UCSNAME
  2

  9
$UCSORG
 10
0.0
 20
0.0
 30
0.0
  9
$UCSXDIR
 10
1.0
 20
0.0
 30
0.0
  9
$UCSYDIR
 10
0.0
 20
1.0
 30
0.0
  9
$UCSORTHOREF
  2

  9
$UCSORTHOVIEW
 70
     0
  9
$UCSORGTOP
 10
0.0
 20
0.0
 30
0.0
  9
$UCSORGBOTTOM
 10
0.0
 20
0.0
 30
0.0
  9
$UCSORGLEFT
 10
0.0
 20
0.0
 30
0.0
  9
$UCSORGRIGHT
 10
0.0
 20
0.0
 30
0.0
  9
$UCSORGFRONT
 10
0.0
 20
0.0
 30
0.0
  9
$UCSORGBACK
 10
0.0
 20
0.0
 30
0.0
  9
$PUCSBASE
  2

  9
$PUCSNAME
  2

  9
$PUCSORG
 10
0.0
 20
0.0
 30
0.0
  9
$PUCSXDIR
 10
1.0
 20
0.0
 30
0.0
  9
$PUCSYDIR
 10
0.0
 20
1.0
 30
0.0
  9
$PUCSORTHOREF
  2

  9
$PUCSORTHOVIEW
 70
     0
  9
$PUCSORGTOP
 10
0.0
 20
0.0
 30
0.0
  9
$PUCSORGBOTTOM
 10
0.0
 20
0.0
 30
0.0
  9
$PUCSORGLEFT
 10
0.0
 20
0.0
 30
0.0
  9
$PUCSORGRIGHT
 10
0.0
 20
0.0
 30
0.0
  9
$PUCSORGFRONT
 10
0.0
 20
0.0
 30
0.0
  9
$PUCSORGBACK
 10
0.0
 20
0.0
 30
0.0
  9
$USERI1
 70
     0
  9
$USERI2
 70
     0
  9
$USERI3
 70
     0
  9
$USERI4
 70
     0
  9
$USERI5
 70
     0
  9
$USERR1
 40
18.1
  9
$USERR2
 40
0.0
  9
$USERR3
 40
0.0
  9
$USERR4
 40
0.0
  9
$USERR5
 40
0.0
  9
$WORLDVIEW
 70
     1
  9
$SHADEDGE
 70
     3
  9
$SHADEDIF
 70
    70
  9
$TILEMODE
 70
     1
  9
$MAXACTVP
 70
    64
  9
$PINSBASE
 10
0.0
 20
0.0
 30
0.0
  9
$PLIMCHECK
 70
     0
  9
$PEXTMIN
 10
1.00000000000000E+20
 20
1.00000000000000E+20
 30
1.00000000000000E+20
  9
$PEXTMAX
 10
-1.00000000000000E+20
 20
-1.00000000000000E+20
 30
-1.00000000000000E+20
  9
$PLIMMIN
 10
0.0
 20
0.0
  9
$PLIMMAX
 10
12.0
 20
9.0
  9
$UNITMODE
 70
     0
  9
$VISRETAIN
 70
     1
  9
$PLINEGEN
 70
     0
  9
$PSLTSCALE
 70
     1
  9
$TREEDEPTH
 70
  3020
  9
$CMLSTYLE
  2
Standard
  9
$CMLJUST
 70
     0
  9
$CMLSCALE
 40
1.0
  9
$PROXYGRAPHICS
 70
     1
  9
$MEASUREMENT
 70
     1
  9
$CELWEIGHT
370
    -1
  9
$ENDCAPS
280
     0
  9
$JOINSTYLE
280
     0
  9
$LWDISPLAY
290
     0
  9
$INSUNITS
 70
     4
  9
$HYPERLINKBASE
  1

  9
$STYLESHEET
  1

  9
$XEDIT
290
     1
  9
$CEPSNTYPE
380
     0
  9
$PSTYLEMODE
290
     1
  9
$FINGERPRINTGUID
  2
{88BD0F6B-FF86-4A5F-BD91-E7CC4E6ED781}
  9
$VERSIONGUID
  2
{FAEB1C32-E019-11D5-929B-00C0DF256EC4}
  9
$EXTNAMES
290
     1
  9
$PSVPSCALE
 40
0.0
  9
$OLESTARTUP
290
     0
  0
ENDSEC
  0
SECTION
  2
CLASSES
  0
CLASS
  1
ACDBDICTIONARYWDFLT
  2
AcDbDictionaryWithDefault
  3
ObjectDBX Classes
 90
        0
280
     0
281
     0
  0
CLASS
  1
VISUALSTYLE
  2
AcDbVisualStyle
  3
ObjectDBX Classes
 90
     4095
280
     0
281
     0
  0
CLASS
  1
MATERIAL
  2
AcDbMaterial
  3
ObjectDBX Classes
 90
     1153
280
     0
281
     0
  0
CLASS
  1
DICTIONARYVAR
  2
AcDbDictionaryVar
  3
ObjectDBX Classes
 90
        0
280
     0
281
     0
  0
CLASS
  1
ACDBPLACEHOLDER
  2
AcDbPlaceHolder
  3
ObjectDBX Classes
 90
        0
280
     0
281
     0
  0
CLASS
  1
LAYOUT
  2
AcDbLayout
  3
ObjectDBX Classes
 90
        0
280
     0
281
     0
  0
ENDSEC
  0
SECTION
  2
TABLES
  0
TABLE
  2
VPORT
  5
8
330
0
100
AcDbSymbolTable
 70
     1
  0
VPORT
  5
29
330
8
100
AcDbSymbolTableRecord
100
AcDbViewportTableRecord
  2
*Active
 70
     0
 10
0.0
 20
0.0
 11
1.0
 21
1.0
 12
105.0
 22
148.5
 13
0.0
 23
0.0
 14
0.5
 24
0.5
 15
0.5
 25
0.5
 16
0.0
 26
0.0
 36
1.0
 17
0.0
 27
0.0
 37
0.0
 40
326.7
 41
1.60267857142857
 42
50.0
 43
0.0
 44
0.0
 50
0.0
 51
0.0
 71
     0
 72
   100
 73
     1
 74
     3
 75
     0
 76
     0
 77
     0
 78
     0
281
     0
 65
     1
110
0.0
120
0.0
130
0.0
111
1.0
121
0.0
131
0.0
112
0.0
122
1.0
132
0.0
 79
     0
146
0.0
  0
ENDTAB
  0
TABLE
  2
LTYPE
  5
5
330
0
100
AcDbSymbolTable
 70
     8
  0
LTYPE
  5
14
330
5
100
AcDbSymbolTableRecord
100
AcDbLinetypeTableRecord
  2
ByBlock
 70
     0
  3

 72
    65
 73
     0
 40
0.0
  0
LTYPE
  5
15
330
5
100
AcDbSymbolTableRecord
100
AcDbLinetypeTableRecord
  2
ByLayer
 70
     0
  3

 72
    65
 73
     0
 40
0.0
  0
LTYPE
  5
16
330
5
100
AcDbSymbolTableRecord
100
AcDbLinetypeTableRecord
  2
Continuous
 70
     0
  3
Solid line
 72
    65
 73
     0
 40
0.0
  0
LTYPE
  5
3F
330
5
100
AcDbSymbolTableRecord
100
AcDbLinetypeTableRecord
  2
DASHED
 70
     0
  3
Dashed
 72
    65
 73
     2
 40
15.0
 49
7.0
 74
     0
 49
-8.0
 74
     0
  0
LTYPE
  5
40
330
5
100
AcDbSymbolTableRecord
100
AcDbLinetypeTableRecord
  2
DOTTED
 70
     0
  3
Dotted
 72
    65
 73
     2
 40
1.0
 49
0.0
 74
     0
 49
-1.0
 74
     0
  0
LTYPE
  5
41
330
5
100
AcDbSymbolTableRecord
100
AcDbLinetypeTableRecord
  2
DOT_CENTER
 70
     0
  3
Dot_Center
 72
    65
 73
     4
 40
14.0
 49
12.0
 74
     0
 49
-1.0
 74
     0
 49
0.0
 74
     0
 49
-1.0
 74
     0
  0
LTYPE
  5
42
330
5
100
AcDbSymbolTableRecord
100
AcDbLinetypeTableRecord
  2
LONG_DASHED
 70
     0
  3
Long_Dashed
 72
    65
 73
     2
 40
15.0
 49
10.0
 74
     0
 49
-5.0
 74
     0
  0
LTYPE
  5
43
330
5
100
AcDbSymbolTableRecord
100
AcDbLinetypeTableRecord
  2
DASH_CENTER
 70
     0
  3
Dash_Center
 72
    65
 73
     4
 40
14.0
 49
11.0
 74
     0
 49
-1.0
 74
     0
 49
1.0
 74
     0
 49
-1.0
 74
     0
  0
LTYPE
  5
44
330
5
100
AcDbSymbolTableRecord
100
AcDbLinetypeTableRecord
  2
PHANTOM
 70
     0
  3
Phantom
 72
    65
 73
     6
 40
13.0
 49
10.0
 74
     0
 49
-1.0
 74
     0
 49
0.0
 74
     0
 49
-1.0
 74
     0
 49
0.0
 74
     0
 49
-1.0
 74
     0
  0
LTYPE
  5
45
330
5
100
AcDbSymbolTableRecord
100
AcDbLinetypeTableRecord
  2
CENTER_DASH_DASH
 70
     0
  3
Center_Dash_Dash
 72
    65
 73
     6
 40
14.0
 49
9.0
 74
     0
 49
-1.0
 74
     0
 49
1.0
 74
     0
 49
-1.0
 74
     0
 49
1.0
 74
     0
 49
-1.0
 74
     0
  0
ENDTAB
  0
TABLE
  2
LAYER
  5
2
330
0
100
AcDbSymbolTable
 70
     3
  0
LAYER
  5
10
330
2
100
AcDbSymbolTableRecord
100
AcDbLayerTableRecord
  2
0
 70
     0
 62
     7
  6
Continuous
370
    -3
390
F
  0
LAYER
  5
46
330
2
100
AcDbSymbolTableRecord
100
AcDbLayerTableRecord
  2
1
 70
     0
 62
     7
  6
Continuous
370
    -3
390
F
  0
LAYER
  5
47
330
2
100
AcDbSymbolTableRecord
100
AcDbLayerTableRecord
  2
_U_30EC_U_30A4_U_30E4_U_30FC_1
 70
     0
 62
     7
  6
Continuous
370
    -3
390
F
  0
ENDTAB
  0
TABLE
  2
STYLE
  5
3
330
0
100
AcDbSymbolTable
 70
     3
  0
STYLE
  5
11
330
3
100
AcDbSymbolTableRecord
100
AcDbTextStyleTableRecord
  2
Standard
 70
     0
 40
0.0
 41
1.0
 50
0.0
 71
     0
 42
0.2
  3
txt
  4

  0
STYLE
  5
B6
330
3
100
AcDbSymbolTableRecord
100
AcDbTextStyleTableRecord
  2
CONVERTER_11
 70
     0
 40
0.0
 41
0.89
 50
0.0
 71
     0
 42
0.2
  3
MS Mincho.ttf
  4

1001
ACAD
1000
MS Mincho
1071
    32785
  0
STYLE
  5
E2
330
3
100
AcDbSymbolTableRecord
100
AcDbTextStyleTableRecord
  2
CONVERTER_12
 70
     0
 40
0.0
 41
0.9
 50
0.0
 71
     0
 42
0.2
  3
txt.shx
  4

  0
ENDTAB
  0
TABLE
  2
VIEW
  5
6
330
0
100
AcDbSymbolTable
 70
     0
  0
ENDTAB
  0
TABLE
  2
UCS
  5
7
330
0
100
AcDbSymbolTable
 70
     0
  0
ENDTAB
  0
TABLE
  2
APPID
  5
9
330
0
100
AcDbSymbolTable
 70
     1
  0
APPID
  5
12
330
9
100
AcDbSymbolTableRecord
100
AcDbRegAppTableRecord
  2
ACAD
 70
     0
  0
ENDTAB
  0
TABLE
  2
DIMSTYLE
  5
A
330
0
100
AcDbSymbolTable
 70
     3
100
AcDbDimStyleTable
  0
DIMSTYLE
105
27
330
A
100
AcDbSymbolTableRecord
100
AcDbDimStyleTableRecord
  2
Standard
 70
     0
178
     0
340
11
  0
DIMSTYLE
105
F8
102
{ACAD_REACTORS
330
F9
102
}
330
A
100
AcDbSymbolTableRecord
100
AcDbDimStyleTableRecord
  2
ME10_DIM_10
 70
     0
  3
{\Fgdt;n}<>
 41
3.0
 42
0.0
 44
2.0
 73
     0
 74
     0
 77
     1
 78
     8
140
3.0
147
2.0
172
     1
173
     1
174
     1
175
     1
176
     2
177
     2
271
     2
178
     7
271
     2
340
E2
  0
DIMSTYLE
105
103
102
{ACAD_REACTORS
330
104
102
}
330
A
100
AcDbSymbolTableRecord
100
AcDbDimStyleTableRecord
  2
ME10_DIM_11
 70
     0
 41
3.5
 42
0.0
 44
2.0
 73
     0
 74
     0
 77
     1
 78
     8
140
3.0
147
2.0
172
     1
173
     1
174
     1
175
     1
176
     2
177
     2
271
     2
178
     7
271
     2
340
E2
  0
ENDTAB
  0
TABLE
  2
BLOCK_RECORD
  5
1
330
0
100
AcDbSymbolTable
 70
     7
  0
BLOCK_RECORD
  5
1F
330
1
100
AcDbSymbolTableRecord
100
AcDbBlockTableRecord
  2
*Model_Space
340
22
  0
BLOCK_RECORD
  5
1B
330
1
100
AcDbSymbolTableRecord
100
AcDbBlockTableRecord
  2
*Paper_Space
340
1E
  0
BLOCK_RECORD
  5
23
330
1
100
AcDbSymbolTableRecord
100
AcDbBlockTableRecord
  2
*Paper_Space0
340
26
  0
BLOCK_RECORD
  5
48
330
1
100
AcDbSymbolTableRecord
100
AcDbBlockTableRecord
  2
開示A4
340
0
102
{BLKREFS
331
4C
102
}
  0
BLOCK_RECORD
  5
4B
330
1
100
AcDbSymbolTableRecord
100
AcDbBlockTableRecord
  2
開示A4枠
340
0
102
{BLKREFS
331
52
102
}
  0
BLOCK_RECORD
  5
4F
330
1
100
AcDbSymbolTableRecord
100
AcDbBlockTableRecord
  2
tugite
340
0
102
{BLKREFS
331
53
102
}
  0
BLOCK_RECORD
  5
EF
330
1
100
AcDbSymbolTableRecord
100
AcDbBlockTableRecord
  2
*D4
340
0
  0
BLOCK_RECORD
  5
FA
330
1
100
AcDbSymbolTableRecord
100
AcDbBlockTableRecord
  2
*D5
340
0
  0
BLOCK_RECORD
  5
105
330
1
100
AcDbSymbolTableRecord
100
AcDbBlockTableRecord
  2
*D6
340
0
102
{BLKREFS
331
10C
102
}
  0
ENDTAB
  0
ENDSEC
  0
SECTION
  2
BLOCKS
  0
BLOCK
  5
20
330
1F
100
AcDbEntity
  8
0
100
AcDbBlockBegin
  2
*Model_Space
 70
     0
 10
0.0
 20
0.0
 30
0.0
  3
*Model_Space
  1

  0
ENDBLK
  5
21
330
1F
100
AcDbEntity
  8
0
100
AcDbBlockEnd
  0
BLOCK
  5
1C
330
1B
100
AcDbEntity
 67
     1
  8
0
100
AcDbBlockBegin
  2
*Paper_Space
 70
     0
 10
0.0
 20
0.0
 30
0.0
  3
*Paper_Space
  1

  0
ENDBLK
  5
1D
330
1B
100
AcDbEntity
 67
     1
  8
0
100
AcDbBlockEnd
  0
BLOCK
  5
24
330
23
100
AcDbEntity
  8
0
100
AcDbBlockBegin
  2
*Paper_Space0
 70
     0
 10
0.0
 20
0.0
 30
0.0
  3
*Paper_Space0
  1

  0
ENDBLK
  5
25
330
23
100
AcDbEntity
  8
0
100
AcDbBlockEnd
  0
BLOCK
  5
49
330
48
100
AcDbEntity
  8
0
100
AcDbBlockBegin
  2
開示A4
 70
     0
 10
0.0
 20
0.0
 30
0.0
  3
開示A4
  1

  0
POINT
  5
54
330
48
100
AcDbEntity
  8
1
 62
     4
100
AcDbPoint
 10
34.00000000000001
 20
34.0
 30
0.0
  0
POINT
  5
55
330
48
100
AcDbEntity
  8
1
 62
     4
100
AcDbPoint
 10
57.00000000000001
 20
12.25
 30
0.0
  0
POINT
  5
56
330
48
100
AcDbEntity
  8
1
 62
     4
100
AcDbPoint
 10
57.00000000000001
 20
20.75
 30
0.0
  0
POINT
  5
57
330
48
100
AcDbEntity
  8
1
 62
     4
100
AcDbPoint
 10
57.00000000000001
 20
24.75
 30
0.0
  0
POINT
  5
58
330
48
100
AcDbEntity
  8
1
 62
     4
100
AcDbPoint
 10
57.00000000000001
 20
16.25
 30
0.0
  0
POINT
  5
59
330
48
100
AcDbEntity
  8
1
 62
     4
100
AcDbPoint
 10
157.5
 20
19.0
 30
0.0
  0
POINT
  5
5A
330
48
100
AcDbEntity
  8
1
 62
     4
100
AcDbPoint
 10
47.50000000000001
 20
282.0000000000003
 30
0.0
  0
POINT
  5
5B
330
48
100
AcDbEntity
  8
1
 62
     4
100
AcDbPoint
 10
57.00000000000001
 20
22.75
 30
0.0
  0
POINT
  5
5C
330
48
100
AcDbEntity
  8
1
 62
     4
100
AcDbPoint
 10
57.00000000000001
 20
14.25
 30
0.0
  0
POINT
  5
5D
330
48
100
AcDbEntity
  8
1
 62
     4
100
AcDbPoint
 10
157.5
 20
12.5
 30
0.0
  0
POINT
  5
5E
330
48
100
AcDbEntity
  8
1
 62
     4
100
AcDbPoint
 10
163.25
 20
12.5
 30
0.0
  0
POINT
  5
5F
330
48
100
AcDbEntity
  8
1
 62
     4
100
AcDbPoint
 10
151.75
 20
12.5
 30
0.0
  0
POINT
  5
60
330
48
100
AcDbEntity
  8
1
 62
     4
100
AcDbPoint
 10
134.75
 20
12.5
 30
0.0
  0
POINT
  5
61
330
48
100
AcDbEntity
  8
1
 62
     4
100
AcDbPoint
 10
146.25
 20
12.5
 30
0.0
  0
POINT
  5
62
330
48
100
AcDbEntity
  8
1
 62
     4
100
AcDbPoint
 10
140.5
 20
12.5
 30
0.0
  0
POINT
  5
63
330
48
100
AcDbEntity
  8
1
 62
     4
100
AcDbPoint
 10
140.5
 20
19.0
 30
0.0
  0
POINT
  5
64
330
48
100
AcDbEntity
  8
1
 62
     4
100
AcDbPoint
 10
117.75
 20
12.5
 30
0.0
  0
POINT
  5
65
330
48
100
AcDbEntity
  8
1
 62
     4
100
AcDbPoint
 10
129.25
 20
12.5
 30
0.0
  0
POINT
  5
66
330
48
100
AcDbEntity
  8
1
 62
     4
100
AcDbPoint
 10
123.5
 20
12.5
 30
0.0
  0
POINT
  5
67
330
48
100
AcDbEntity
  8
1
 62
     4
100
AcDbPoint
 10
123.5
 20
19.0
 30
0.0
  0
POINT
  5
68
330
48
100
AcDbEntity
  8
1
 62
     4
100
AcDbPoint
 10
100.75
 20
12.5
 30
0.0
  0
POINT
  5
69
330
48
100
AcDbEntity
  8
1
 62
     4
100
AcDbPoint
 10
112.25
 20
12.5
 30
0.0
  0
POINT
  5
6A
330
48
100
AcDbEntity
  8
1
 62
     4
100
AcDbPoint
 10
106.5
 20
12.5
 30
0.0
  0
POINT
  5
6B
330
48
100
AcDbEntity
  8
1
 62
     4
100
AcDbPoint
 10
106.5
 20
19.0
 30
0.0
  0
POINT
  5
6C
330
48
100
AcDbEntity
  8
1
 62
     4
100
AcDbPoint
 10
85.25000000000001
 20
17.0
 30
0.0
  0
POINT
  5
6D
330
48
100
AcDbEntity
  8
1
 62
     4
100
AcDbPoint
 10
93.75000000000001
 20
17.0
 30
0.0
  0
POINT
  5
6E
330
48
100
AcDbEntity
  8
1
 62
     4
100
AcDbPoint
 10
183.0
 20
15.0
 30
0.0
  0
LINE
  5
6F
330
48
100
AcDbEntity
  8
1
  6
Continuous
 62
     2
100
AcDbLine
 10
81.00000000000001
 20
27.0
 30
0.0
 11
81.00000000000001
 21
10.0
 31
0.0
  0
LINE
  5
70
330
48
100
AcDbEntity
  8
1
  6
DOT_CENTER
 62
     2
100
AcDbLine
 10
187.0
 20
26.5
 30
0.0
 11
187.0
 21
20.5
 31
0.0
  0
LINE
  5
71
330
48
100
AcDbEntity
  8
1
  6
DOT_CENTER
 62
     2
100
AcDbLine
 10
184.0
 20
23.5
 30
0.0
 11
197.0
 21
23.5
 31
0.0
  0
LINE
  5
72
330
48
100
AcDbEntity
  8
1
  6
Continuous
 62
     7
100
AcDbLine
 10
196.0
 20
21.5
 30
0.0
 11
191.0
 21
22.3
 31
0.0
  0
LINE
  5
73
330
48
100
AcDbEntity
  8
1
  6
Continuous
 62
     7
100
AcDbLine
 10
196.0
 20
25.5
 30
0.0
 11
196.0
 21
21.5
 31
0.0
  0
LINE
  5
74
330
48
100
AcDbEntity
  8
1
  6
Continuous
 62
     7
100
AcDbLine
 10
191.0
 20
24.7
 30
0.0
 11
196.0
 21
25.5
 31
0.0
  0
LINE
  5
75
330
48
100
AcDbEntity
  8
1
  6
Continuous
 62
     7
100
AcDbLine
 10
191.0
 20
24.7
 30
0.0
 11
191.0
 21
22.3
 31
0.0
  0
LINE
  5
76
330
48
100
AcDbEntity
  8
1
  6
Continuous
 62
     2
100
AcDbLine
 10
33.00000000000001
 20
27.0
 30
0.0
 11
33.00000000000001
 21
10.0
 31
0.0
  0
LINE
  5
77
330
48
100
AcDbEntity
  8
1
  6
Continuous
 62
     2
100
AcDbLine
 10
25.00000000000001
 20
18.5
 30
0.0
 11
81.00000000000001
 21
18.5
 31
0.0
  0
LINE
  5
78
330
48
100
AcDbEntity
  8
1
  6
Continuous
 62
     7
100
AcDbLine
 10
200.0
 20
287.0000000000003
 30
0.0
 11
105.0
 21
287.0000000000003
 31
0.0
  0
LINE
  5
79
330
48
100
AcDbEntity
  8
1
  6
Continuous
 62
     7
100
AcDbLine
 10
200.0
 20
10.0
 30
0.0
 11
200.0
 21
148.5
 31
0.0
  0
LINE
  5
7A
330
48
100
AcDbEntity
  8
1
  6
Continuous
 62
     7
100
AcDbLine
 10
25.00000000000001
 20
10.0
 30
0.0
 11
105.0
 21
10.0
 31
0.0
  0
LINE
  5
7B
330
48
100
AcDbEntity
  8
1
  6
PHANTOM
 62
     4
100
AcDbLine
 10
0.0
 20
297.0
 30
0.0
 11
0.0
 21
0.0
 31
0.0
  0
LINE
  5
7C
330
48
100
AcDbEntity
  8
1
  6
PHANTOM
 62
     4
100
AcDbLine
 10
210.0
 20
297.0
 30
0.0
 11
0.0
 21
297.0
 31
0.0
  0
LINE
  5
7D
330
48
100
AcDbEntity
  8
1
  6
PHANTOM
 62
     4
100
AcDbLine
 10
210.0
 20
0.0
 30
0.0
 11
210.0
 21
297.0
 31
0.0
  0
LINE
  5
7E
330
48
100
AcDbEntity
  8
1
  6
PHANTOM
 62
     4
100
AcDbLine
 10
0.0
 20
0.0
 30
0.0
 11
210.0
 21
0.0
 31
0.0
  0
LINE
  5
7F
330
48
100
AcDbEntity
  8
1
  6
Continuous
 62
     7
100
AcDbLine
 10
25.00000000000001
 20
41.0
 30
0.0
 11
200.0
 21
41.0
 31
0.0
  0
LINE
  5
80
330
48
100
AcDbEntity
  8
1
  6
Continuous
 62
     7
100
AcDbLine
 10
200.0
 20
27.0
 30
0.0
 11
25.00000000000001
 21
27.0
 31
0.0
  0
LINE
  5
81
330
48
100
AcDbEntity
  8
1
  6
Continuous
 62
     2
100
AcDbLine
 10
33.00000000000001
 20
41.0
 30
0.0
 11
33.00000000000001
 21
27.0
 31
0.0
  0
LINE
  5
82
330
48
100
AcDbEntity
  8
1
  6
Continuous
 62
     2
100
AcDbLine
 10
55.00000000000001
 20
287.0000000000003
 30
0.0
 11
55.00000000000001
 21
277.0000000000003
 31
0.0
  0
LINE
  5
83
330
48
100
AcDbEntity
  8
1
  6
Continuous
 62
     2
100
AcDbLine
 10
40.00000000000001
 20
287.0000000000003
 30
0.0
 11
40.00000000000001
 21
277.0000000000003
 31
0.0
  0
LINE
  5
84
330
48
100
AcDbEntity
  8
1
  6
Continuous
 62
     7
100
AcDbLine
 10
25.00000000000001
 20
10.0
 30
0.0
 11
25.00000000000001
 21
148.5
 31
0.0
  0
LINE
  5
85
330
48
100
AcDbEntity
  8
1
  6
Continuous
 62
     2
100
AcDbLine
 10
55.00000000000001
 20
277.0000000000003
 30
0.0
 11
25.00000000000001
 21
277.0000000000003
 31
0.0
  0
LINE
  5
86
330
48
100
AcDbEntity
  8
1
  6
Continuous
 62
     2
100
AcDbLine
 10
166.0
 20
27.0
 30
0.0
 11
166.0
 21
10.0
 31
0.0
  0
LINE
  5
87
330
48
100
AcDbEntity
  8
1
  6
Continuous
 62
     2
100
AcDbLine
 10
132.0
 20
27.0
 30
0.0
 11
132.0
 21
10.0
 31
0.0
  0
LINE
  5
88
330
48
100
AcDbEntity
  8
1
  6
Continuous
 62
     2
100
AcDbLine
 10
149.0
 20
27.0
 30
0.0
 11
149.0
 21
10.0
 31
0.0
  0
LINE
  5
89
330
48
100
AcDbEntity
  8
1
  6
Continuous
 62
     2
100
AcDbLine
 10
115.0
 20
27.0
 30
0.0
 11
115.0
 21
10.0
 31
0.0
  0
LINE
  5
8A
330
48
100
AcDbEntity
  8
1
  6
Continuous
 62
     2
100
AcDbLine
 10
98.00000000000001
 20
27.0
 30
0.0
 11
98.00000000000001
 21
10.0
 31
0.0
  0
LINE
  5
8B
330
48
100
AcDbEntity
  8
1
  6
Continuous
 62
     2
100
AcDbLine
 10
166.0
 20
20.0
 30
0.0
 11
200.0
 21
20.0
 31
0.0
  0
LINE
  5
8C
330
48
100
AcDbEntity
  8
1
  6
Continuous
 62
     2
100
AcDbLine
 10
105.0
 20
287.0000000000003
 30
0.0
 11
105.0
 21
292.0000000000003
 31
0.0
  0
LINE
  5
8D
330
48
100
AcDbEntity
  8
1
  6
Continuous
 62
     7
100
AcDbLine
 10
105.0
 20
287.0000000000003
 30
0.0
 11
25.00000000000001
 21
287.0000000000003
 31
0.0
  0
LINE
  5
8E
330
48
100
AcDbEntity
  8
1
  6
Continuous
 62
     2
100
AcDbLine
 10
25.00000000000001
 20
148.5
 30
0.0
 11
20.00000000000001
 21
148.5
 31
0.0
  0
LINE
  5
8F
330
48
100
AcDbEntity
  8
1
  6
Continuous
 62
     7
100
AcDbLine
 10
25.00000000000001
 20
148.5
 30
0.0
 11
25.00000000000001
 21
287.0000000000003
 31
0.0
  0
LINE
  5
90
330
48
100
AcDbEntity
  8
1
  6
Continuous
 62
     2
100
AcDbLine
 10
200.0
 20
148.5
 30
0.0
 11
205.0
 21
148.5
 31
0.0
  0
LINE
  5
91
330
48
100
AcDbEntity
  8
1
  6
Continuous
 62
     7
100
AcDbLine
 10
200.0
 20
148.5
 30
0.0
 11
200.0
 21
287.0000000000003
 31
0.0
  0
LINE
  5
92
330
48
100
AcDbEntity
  8
1
  6
Continuous
 62
     2
100
AcDbLine
 10
105.0
 20
10.0
 30
0.0
 11
105.0
 21
5.0
 31
0.0
  0
LINE
  5
93
330
48
100
AcDbEntity
  8
1
  6
Continuous
 62
     7
100
AcDbLine
 10
105.0
 20
10.0
 30
0.0
 11
200.0
 21
10.0
 31
0.0
  0
CIRCLE
  5
98
330
48
100
AcDbEntity
  8
1
  6
DOT_CENTER
 62
     7
100
AcDbCircle
 10
89.50000000000001
 20
18.0
 30
0.0
 40
0.1000000000000227
  0
CIRCLE
  5
99
330
48
100
AcDbEntity
  8
1
  6
DOT_CENTER
 62
     7
100
AcDbCircle
 10
89.50000000000001
 20
16.0
 30
0.0
 40
0.1000000000000227
  0
CIRCLE
  5
9A
330
48
100
AcDbEntity
  8
1
  6
Continuous
 62
     7
100
AcDbCircle
 10
187.0
 20
23.5
 30
0.0
 40
2.0
  0
CIRCLE
  5
9B
330
48
100
AcDbEntity
  8
1
  6
Continuous
 62
     7
100
AcDbCircle
 10
187.0
 20
23.5
 30
0.0
 40
1.200000000000102
  0
CIRCLE
  5
9C
330
48
100
AcDbEntity
  8
1
  6
Continuous
 62
     7
100
AcDbCircle
 10
154.5
 20
12.5
 30
0.0
 40
0.3000000000000114
  0
CIRCLE
  5
9D
330
48
100
AcDbEntity
  8
1
  6
Continuous
 62
     7
100
AcDbCircle
 10
160.5
 20
12.5
 30
0.0
 40
0.3000000000000114
  0
CIRCLE
  5
9E
330
48
100
AcDbEntity
  8
1
  6
Continuous
 62
     7
100
AcDbCircle
 10
143.5
 20
12.5
 30
0.0
 40
0.3000000000000114
  0
CIRCLE
  5
9F
330
48
100
AcDbEntity
  8
1
  6
Continuous
 62
     7
100
AcDbCircle
 10
137.5
 20
12.5
 30
0.0
 40
0.3000000000000114
  0
CIRCLE
  5
A0
330
48
100
AcDbEntity
  8
1
  6
Continuous
 62
     7
100
AcDbCircle
 10
126.5
 20
12.5
 30
0.0
 40
0.2999999999999972
  0
CIRCLE
  5
A1
330
48
100
AcDbEntity
  8
1
  6
Continuous
 62
     7
100
AcDbCircle
 10
120.5
 20
12.5
 30
0.0
 40
0.2999999999999972
  0
CIRCLE
  5
A2
330
48
100
AcDbEntity
  8
1
  6
Continuous
 62
     7
100
AcDbCircle
 10
109.5
 20
12.5
 30
0.0
 40
0.2999999999999972
  0
CIRCLE
  5
A3
330
48
100
AcDbEntity
  8
1
  6
Continuous
 62
     7
100
AcDbCircle
 10
103.5
 20
12.5
 30
0.0
 40
0.2999999999999972
  0
SPLINE
  5
A4
102
{ACAD_REACTORS
330
C2
102
}
330
48
100
AcDbEntity
  8
_U_30EC_U_30A4_U_30E4_U_30FC_1
  6
Continuous
 62
     2
100
AcDbSpline
210
0.0
220
0.0
230
1.0
 70
    11
 71
     3
 72
    99
 73
    95
 74
    93
 42
0.000000001
 43
0.0000000001
 44
0.00000001
 40
0.0
 40
0.0
 40
0.0
 40
0.0
 40
0.0796417172271993
 40
0.1621768542355633
 40
0.2486489160957354
 40
0.3404969668524181
 40
0.4381912511164329
 40
0.5434463660244624
 40
0.651811519284696
 40
0.7530190937886455
 40
0.8492196919724855
 40
0.9419290312997931
 40
1.034249663570006
 40
1.129078600620143
 40
1.226697027573225
 40
1.32722042542167
 40
1.470572134937979
 40
1.595489863371219
 40
1.719934125348386
 40
1.850576620127365
 40
1.989059629987279
 40
2.134139054226895
 40
2.28069800720718
 40
2.424529739039443
 40
2.565929576985812
 40
2.708239260773551
 40
2.861717887443605
 40
3.045168540347316
 40
3.183798301138562
 40
3.314813961455441
 40
3.442083470447295
 40
3.569912708372938
 40
3.702177512509341
 40
3.842307559659518
 40
3.992872223245914
 40
4.156750662218302
 40
4.310981861107522
 40
4.445859909322558
 40
4.572393936131578
 40
4.701656719781945
 40
4.768279086008442
 40
4.835960697898378
 40
4.912788918729322
 40
5.00628520848151
 40
5.026909478751587
 40
5.047533749021151
 40
5.101808031471199
 40
5.162325165538494
 40
5.226919745995811
 40
5.294231806596678
 40
5.364544852554817
 40
5.438319055467869
 40
5.517877651324201
 40
5.607647714861512
 40
5.700449642544361
 40
5.788251142364097
 40
5.872714706039703
 40
5.955167292575227
 40
6.037192395190309
 40
6.120669181469006
 40
6.206848616686246
 40
6.296680855416708
 40
6.442558392872551
 40
6.568190371608175
 40
6.692904567360261
 40
6.824220446557078
 40
6.963121850329307
 40
7.107843738851087
 40
7.253431663907197
 40
7.395187468036622
 40
7.533140753237673
 40
7.670550457175182
 40
7.816236511769185
 40
7.987691657359125
 40
8.142277421969187
 40
8.293662615414908
 40
8.44296246087919
 40
8.591598316185229
 40
8.743678992361714
 40
8.903725323699103
 40
9.076307008890447
 40
9.265578604680503
 40
9.45920379536068
 40
9.617619810273464
 40
9.753609671361838
 40
9.874873300004014
 40
9.954520184977692
 40
10.02416413719234
 40
10.09769764405434
 40
10.18909955924963
 40
10.20974586420125
 40
10.2303921826337
 40
10.30057101881257
 40
10.3763201298754
 40
10.3763201298754
 40
10.3763201298754
 40
10.3763201298754
 10
170.1465954835851
 20
14.1379566321599
 30
0.0
 10
170.1632217851219
 20
14.11720608845311
 30
0.0
 10
170.1970784206577
 20
14.07495111711903
 30
0.0
 10
170.2599822541036
 20
14.02029811392074
 30
0.0
 10
170.3332500940392
 20
13.97299025121048
 30
0.0
 10
170.4175969238636
 20
13.9352723143794
 30
0.0
 10
170.5132240615459
 20
13.91040619731947
 30
0.0
 10
170.6171853775346
 20
13.90309559345936
 30
0.0
 10
170.7224020220405
 20
13.91142322794055
 30
0.0
 10
170.8206626371334
 20
13.94149179651525
 30
0.0
 10
170.9058986427548
 20
13.98848822971877
 30
0.0
 10
170.9779220206103
 20
14.04952991250858
 30
0.0
 10
171.0350917709096
 20
14.12412969578583
 30
0.0
 10
171.0767868747439
 20
14.21002464660173
 30
0.0
 10
171.1026952846292
 20
14.30485850432211
 30
0.0
 10
171.1118037332653
 20
14.41854979038367
 30
0.0
 10
171.0986864796487
 20
14.54332587770779
 30
0.0
 10
171.0325330334414
 20
14.66014719171896
 30
0.0
 10
170.9369370919569
 20
14.74512539577376
 30
0.0
 10
170.8249681022368
 20
14.81416684459153
 30
0.0
 10
170.6993659583269
 20
14.87204142045893
 30
0.0
 10
170.5656691620856
 20
14.92373723284339
 30
0.0
 10
170.4313122818831
 20
14.9789909239718
 30
0.0
 10
170.3051983986877
 20
15.04939770641647
 30
0.0
 10
170.1926579987535
 20
15.13785540731248
 30
0.0
 10
170.0969963064458
 20
15.24981067868475
 30
0.0
 10
170.0334157151825
 20
15.39949910101381
 30
0.0
 10
170.0200706505016
 20
15.55932794385139
 30
0.0
 10
170.0320510987449
 20
15.71048405306844
 30
0.0
 10
170.071229892884
 20
15.83809244591538
 30
0.0
 10
170.1354987750911
 20
15.95080874030846
 30
0.0
 10
170.223820499974
 20
16.04648609268685
 30
0.0
 10
170.3338091207627
 20
16.12354214985752
 30
0.0
 10
170.4632284401264
 20
16.18151396936282
 30
0.0
 10
170.6111838967793
 20
16.2173917758882
 30
0.0
 10
170.7682069455486
 20
16.22746719050561
 30
0.0
 10
170.917494046643
 20
16.21863637762589
 30
0.0
 10
171.059625361417
 20
16.1907489934036
 30
0.0
 10
171.1595922609625
 20
16.13413314701133
 30
0.0
 10
171.3125074736185
 20
16.0867460210551
 30
0.0
 10
171.2455131717168
 20
16.00197553001187
 30
0.0
 10
171.2296479120268
 20
15.93438901873486
 30
0.0
 10
171.1978750531297
 20
15.86926092793192
 30
0.0
 10
171.215020220957
 20
15.76723453256956
 30
0.0
 10
171.1666427208232
 20
15.77493211681904
 30
0.0
 10
171.1315789440766
 20
15.7680677172481
 30
0.0
 10
171.1296697985717
 20
15.83263831158196
 30
0.0
 10
171.0985692931989
 20
15.87825639621396
 30
0.0
 10
171.0664551628456
 20
15.93561036628455
 30
0.0
 10
171.0208038475168
 20
15.98540462692559
 30
0.0
 10
170.9658508218386
 20
16.02994813718993
 30
0.0
 10
170.9010841173008
 20
16.06763988836551
 30
0.0
 10
170.8232377310597
 20
16.0928337579135
 30
0.0
 10
170.7355160553352
 20
16.09931230998109
 30
0.0
 10
170.6452903277806
 20
16.09235709285604
 30
0.0
 10
170.5594594694064
 20
16.06909190460913
 30
0.0
 10
170.4828343638596
 20
16.03131644107545
 30
0.0
 10
170.4165265636201
 20
15.98051641089572
 30
0.0
 10
170.3622560536964
 20
15.9173114340721
 30
0.0
 10
170.3224925345459
 20
15.84276455710369
 30
0.0
 10
170.2976775510588
 20
15.75917313997765
 30
0.0
 10
170.2892124262869
 20
15.65192948382284
 30
0.0
 10
170.3019697987103
 20
15.52965457267558
 30
0.0
 10
170.3681548409273
 20
15.41149724291214
 30
0.0
 10
170.4640977399832
 20
15.32606325709532
 30
0.0
 10
170.5757914963182
 20
15.25583362306716
 30
0.0
 10
170.7010863668702
 20
15.19659162305302
 30
0.0
 10
170.8349823941448
 20
15.14616708086132
 30
0.0
 10
170.9689930333149
 20
15.09322516984383
 30
0.0
 10
171.0950885316915
 20
15.02750170625175
 30
0.0
 10
171.2076216638417
 20
14.94480352537322
 30
0.0
 10
171.3031370284232
 20
14.83996006310072
 30
0.0
 10
171.3672706486962
 20
14.69937117251569
 30
0.0
 10
171.3811103725279
 20
14.54065409451592
 30
0.0
 10
171.3673954712229
 20
14.38153155217876
 30
0.0
 10
171.3244739153985
 20
14.23483828819213
 30
0.0
 10
171.2545906329066
 20
14.10119796587143
 30
0.0
 10
171.1574592213829
 20
13.98532387699294
 30
0.0
 10
171.0347806023657
 20
13.89089981770088
 30
0.0
 10
170.8874408413168
 20
13.82179270651981
 30
0.0
 10
170.7177132497125
 20
13.77953210858855
 30
0.0
 10
170.5317404979596
 20
13.76781736230406
 30
0.0
 10
170.3528955926184
 20
13.77809486683439
 30
0.0
 10
170.1881733753743
 20
13.81966573769152
 30
0.0
 10
170.0834410841057
 20
13.88797642883945
 30
0.0
 10
169.9350960790365
 20
13.93675219032109
 30
0.0
 10
169.9980378194729
 20
14.02976591290842
 30
0.0
 10
170.0072274430059
 20
14.10296536248279
 30
0.0
 10
170.0303711301232
 20
14.16936294501346
 30
0.0
 10
170.0034588335316
 20
14.26974809527581
 30
0.0
 10
170.0521338956339
 20
14.26234033517379
 30
0.0
 10
170.0916530580697
 20
14.26894063620896
 30
0.0
 10
170.0996204944702
 20
14.19078703218931
 30
0.0
 10
170.1305436967922
 20
14.15600927375854
 30
0.0
 10
170.1465954835851
 20
14.1379566321599
 30
0.0
 11
170.1465954835851
 21
14.1379566321599
 31
0.0
 11
170.1982038075864
 21
14.07729869814738
 31
0.0
 11
170.2601105501335
 21
14.02271295163321
 31
0.0
 11
170.3327764009802
 21
13.97583980928383
 31
0.0
 11
170.4166468655843
 21
13.9383990627654
 31
0.0
 11
170.511221073241
 21
13.91390636311876
 31
0.0
 11
170.6161603327165
 21
13.90575829888471
 31
0.0
 11
170.7240739497552
 21
13.91564048638223
 31
0.0
 11
170.8208419941616
 21
13.9452870488748
 31
0.0
 11
170.9050776083319
 21
13.99175118948819
 31
0.0
 11
170.9756144207686
 21
14.05191413218151
 31
0.0
 11
171.031944210998
 21
14.12505819466319
 31
0.0
 11
171.0736690016003
 21
14.2102143404752
 31
0.0
 11
171.0994680808032
 21
14.30436190989614
 31
0.0
 11
171.1080824729446
 21
14.4045155209822
 31
0.0
 11
171.0878517703357
 21
14.54643250879397
 31
0.0
 11
171.0272522666731
 21
14.65566684036391
 31
0.0
 11
170.9364971286285
 21
14.74081306430096
 31
0.0
 11
170.826010188474
 21
14.81052746532511
 31
0.0
 11
170.7008523531254
 21
14.86979854169923
 31
0.0
 11
170.5662951950998
 21
14.9240425347412
 31
0.0
 11
170.4316884277007
 21
14.98201274306003
 31
0.0
 11
170.3065802017258
 21
15.0529739930423
 31
0.0
 11
170.196027609828
 21
15.14113315968692
 31
0.0
 11
170.1053381235265
 21
15.25080295132621
 31
0.0
 11
170.0447055469484
 21
15.39179720476312
 31
0.0
 11
170.0245079172553
 21
15.57413260402311
 31
0.0
 11
170.0374030471347
 21
15.71216131926639
 31
0.0
 11
170.0761016659391
 21
15.8373312845129
 31
0.0
 11
170.1393141731506
 21
15.94779262129085
 31
0.0
 11
170.2257499954545
 21
16.0419688539062
 31
0.0
 11
170.3336492808962
 21
16.11846540770651
 31
0.0
 11
170.4613526283328
 21
16.1761567010949
 31
0.0
 11
170.6075393259923
 21
16.21220066809973
 31
0.0
 11
170.770976856545
 21
16.2242138538606
 31
0.0
 11
170.9248918431289
 21
16.21434269066864
 31
0.0
 11
171.0564887242607
 21
16.18477329831501
 31
0.0
 11
171.172563634494
 21
16.1343999389525
 31
0.0
 11
171.2800792741122
 21
16.0626416316788
 31
0.0
 11
171.2516994050444
 21
16.00236624106888
 31
0.0
 11
171.2284855254283
 21
15.9387901733765
 31
0.0
 11
171.2078381040801
 21
15.8647884199227
 31
0.0
 11
171.1871840681487
 21
15.7736019789733
 31
0.0
 11
171.1665597978415
 21
15.7736019789733
 31
0.0
 11
171.1459355275343
 21
15.7736019789733
 31
0.0
 11
171.1256706495791
 21
15.82395108486347
 31
0.0
 11
171.0994658759421
 21
15.8785004511693
 31
0.0
 11
171.0650468924451
 21
15.93316116296115
 31
0.0
 11
171.0203554612937
 21
15.98349593725411
 31
0.0
 11
170.9657333359511
 21
16.02777175321527
 31
0.0
 11
170.9016722004326
 21
16.06436142334501
 31
0.0
 11
170.825968296114
 21
16.08882545979726
 31
0.0
 11
170.7365722046449
 21
16.0970110066702
 31
0.0
 11
170.6440937174207
 21
16.08926973931097
 31
0.0
 11
170.5594072091645
 21
16.0660900344556
 31
0.0
 11
170.483702448884
 21
16.02863495634008
 31
0.0
 11
170.4183754766516
 21
15.978327742811
 31
0.0
 11
170.3650487887664
 21
15.91600293379879
 31
0.0
 11
170.3254809233901
 21
15.8424994789561
 31
0.0
 11
170.3009523754711
 21
15.75988443557394
 31
0.0
 11
170.2927954104108
 21
15.67042329844351
 31
0.0
 11
170.3130095765617
 21
15.5259530814657
 31
0.0
 11
170.373625616682
 21
15.41591177072941
 31
0.0
 11
170.4643479320758
 21
15.33033670130635
 31
0.0
 11
170.5748676948813
 21
15.25941954854621
 31
0.0
 11
170.7000089937719
 21
15.19914305550577
 31
0.0
 11
170.8345826882553
 21
15.14590447913021
 31
0.0
 11
170.9691729191968
 21
15.09039489581074
 31
0.0
 11
171.0942976816297
 21
15.0237728124941
 31
0.0
 11
171.204800907977
 21
14.9411886371675
 31
0.0
 11
171.2955397598288
 21
14.8380000347627
 31
0.0
 11
171.3561557999489
 21
14.70552315979584
 31
0.0
 11
171.3763699660998
 21
14.53526378483841
 31
0.0
 11
171.3621839747998
 21
14.38133030397411
 31
0.0
 11
171.3196087009193
 21
14.23605531269101
 31
0.0
 11
171.2499752884265
 21
14.10398854189069
 31
0.0
 11
171.1544992078713
 21
13.9900721877525
 31
0.0
 11
171.0341060772624
 21
13.89715272597018
 31
0.0
 11
170.8896160201846
 21
13.8283235766818
 31
0.0
 11
170.7223519532713
 21
13.78581275203968
 31
0.0
 11
170.5336103348226
 21
13.77165864614041
 31
0.0
 11
170.3405031726387
 21
13.78581275203968
 31
0.0
 11
170.1878975900911
 21
13.8283235766818
 31
0.0
 11
170.0661897942203
 21
13.88899033013893
 31
0.0
 11
169.9660261826363
 21
13.95734322942741
 31
0.0
 11
169.9922320587039
 21
14.03255545163078
 31
0.0
 11
170.0090121537618
 21
14.10014767383611
 31
0.0
 11
170.0206196447852
 21
14.17275926235961
 31
0.0
 11
170.0313606254139
 21
14.2635278821286
 31
0.0
 11
170.0520069443315
 21
14.2635278821286
 31
0.0
 11
170.0726532632492
 21
14.2635278821286
 31
0.0
 11
170.1048916391629
 21
14.20119204881083
 31
0.0
 11
170.1465954835851
 21
14.1379566321599
 31
0.0
  0
SPLINE
  5
A5
102
{ACAD_REACTORS
330
C3
102
}
330
48
100
AcDbEntity
  8
_U_30EC_U_30A4_U_30E4_U_30FC_1
  6
Continuous
 62
     2
100
AcDbSpline
210
0.0
220
0.0
230
1.0
 70
    11
 71
     3
 72
    57
 73
    53
 74
    51
 42
0.000000001
 43
0.0000000001
 44
0.00000001
 40
0.0
 40
0.0
 40
0.0
 40
0.0
 40
0.0471632082809162
 40
0.0914861054632082
 40
0.1357762519702318
 40
0.1826527001610613
 40
0.2295203288572522
 40
0.2737751972220691
 40
0.3181310461543003
 40
0.3652607198398371
 40
0.4571007286314123
 40
0.567185102916485
 40
0.6894623283867904
 40
0.818175827254564
 40
0.9510087229273514
 40
1.08585222967404
 40
1.218126164475276
 40
1.343545131142359
 40
1.454537202956774
 40
1.567187607530784
 40
1.680710966642402
 40
1.794226869736766
 40
1.900009184247566
 40
2.004085860447845
 40
2.108162674451733
 40
2.214000150155277
 40
2.496038577352133
 40
2.76235074547927
 40
2.997275353279409
 40
3.185110082137696
 40
3.246407890063918
 40
3.312607550212649
 40
3.378877742711551
 40
3.4401403996514
 40
4.100501696006376
 40
4.754913085563394
 40
5.411331693423825
 40
6.077890432568609
 40
6.110575292670888
 40
6.143260152775668
 40
6.367989363395025
 40
6.610525374951413
 40
6.863389136467206
 40
7.119380025547533
 40
7.376036605090984
 40
7.631164770966172
 40
7.8767224254563
 40
8.104953735855831
 40
8.312916685924202
 40
8.497730294941155
 40
8.651018984313737
 40
8.764738853624442
 40
8.764738853624442
 40
8.764738853624442
 40
8.764738853624442
 10
174.7922649500513
 20
13.81626739612931
 30
0.0
 10
174.7766616726931
 20
13.81826231079079
 30
0.0
 10
174.7463947960302
 20
13.82213201360295
 30
0.0
 10
174.7010994202253
 20
13.82341984967267
 30
0.0
 10
174.6559553129349
 20
13.82308683554048
 30
0.0
 10
174.6099017123399
 20
13.82314658674222
 30
0.0
 10
174.5640496172096
 20
13.82325813649999
 30
0.0
 10
174.5183711648165
 20
13.82277833456589
 30
0.0
 10
174.4750811541608
 20
13.82461109618716
 30
0.0
 10
174.4039947951513
 20
13.80049556814666
 30
0.0
 10
174.4057477261441
 20
13.92184693977251
 30
0.0
 10
174.358619637057
 20
14.00726239751235
 30
0.0
 10
174.3191478251761
 20
14.12486929345136
 30
0.0
 10
174.2706635532646
 20
14.2423275254044
 30
0.0
 10
174.2201017402522
 20
14.36405935761511
 30
0.0
 10
174.1718634610477
 20
14.49075967862468
 30
0.0
 10
174.1135232947594
 20
14.59933687784954
 30
0.0
 10
174.0980892667261
 20
14.75620657134414
 30
0.0
 10
173.9566586330636
 20
14.7237344654832
 30
0.0
 10
173.8508397414904
 20
14.7351288868218
 30
0.0
 10
173.7358569725222
 20
14.73392591514614
 30
0.0
 10
173.625314225214
 20
14.73506945347406
 30
0.0
 10
173.5176583522784
 20
14.73418350037525
 30
0.0
 10
173.4121322529242
 20
14.73416602390519
 30
0.0
 10
173.3109192682013
 20
14.72714032472413
 30
0.0
 10
173.1266804827753
 20
14.75135859859874
 30
0.0
 10
173.1157393685411
 20
14.44741691121884
 30
0.0
 10
173.008769163475
 20
14.22353177253399
 30
0.0
 10
172.9098148604347
 20
14.03895314292495
 30
0.0
 10
172.9225090524007
 20
13.79530204804218
 30
0.0
 10
172.8050091716397
 20
13.82508046753192
 30
0.0
 10
172.742205586831
 20
13.82258089509602
 30
0.0
 10
172.6785872093399
 20
13.823440751028
 30
0.0
 10
172.3946014194075
 20
13.78098039941981
 30
0.0
 10
173.0251638499381
 20
14.50081952444772
 30
0.0
 10
173.1087645289072
 20
15.0127653943573
 30
0.0
 10
173.4929252789337
 20
15.53353743550038
 30
0.0
 10
173.4777208288567
 20
16.23519626253213
 30
0.0
 10
173.7239265722696
 20
16.22345633081255
 30
0.0
 10
173.8256346157562
 20
16.23225004452772
 30
0.0
 10
173.8249752035817
 20
15.98059650730348
 30
0.0
 10
173.9428317155828
 20
15.7981802073396
 30
0.0
 10
174.0315515260484
 20
15.55563740662865
 30
0.0
 10
174.1322292485259
 20
15.32340030530125
 30
0.0
 10
174.2311142712243
 20
15.08674644566912
 30
0.0
 10
174.3299676990669
 20
14.85461739170094
 30
0.0
 10
174.4256166390925
 20
14.63122222788789
 30
0.0
 10
174.5159904573272
 20
14.42272549049317
 30
0.0
 10
174.5989944568188
 20
14.2330844852932
 30
0.0
 10
174.6726088582799
 20
14.06663106068101
 30
0.0
 10
174.7342815895545
 20
13.92917699626099
 30
0.0
 10
174.7749458885604
 20
13.84999239430037
 30
0.0
 10
174.7922649500513
 20
13.81626739612931
 30
0.0
 11
174.7922649500513
 21
13.81626739612931
 31
0.0
 11
174.7453878317448
 21
13.82145433189183
 31
0.0
 11
174.7010975896125
 21
13.8231553822386
 31
0.0
 11
174.6568074431729
 21
13.8231553822386
 31
0.0
 11
174.6099309947159
 21
13.8231553822386
 31
0.0
 11
174.5630633657033
 21
13.8231553822386
 31
0.0
 11
174.5188084970408
 21
13.8231553822386
 31
0.0
 11
174.4744852776854
 21
13.82145433189183
 31
0.0
 11
174.4276419021443
 21
13.81626739612931
 31
0.0
 11
174.3992532136325
 21
13.90360966173246
 31
0.0
 11
174.3622721815898
 21
14.00729656274821
 31
0.0
 11
174.3188386236701
 21
14.12159987001128
 31
0.0
 11
174.2711055866936
 21
14.24113531268971
 31
0.0
 11
174.2208160133237
 21
14.36408057307566
 31
0.0
 11
174.1696467003932
 21
14.4888382292945
 31
0.0
 11
174.1197531801326
 21
14.61134141502773
 31
0.0
 11
174.0733119111841
 21
14.7278451736792
 31
0.0
 11
173.9623611907589
 21
14.73087465284505
 31
0.0
 11
173.8497309225089
 21
14.7330045486779
 31
0.0
 11
173.7362152069449
 21
14.73432195319139
 31
0.0
 11
173.62270004768
 21
14.73473315978851
 31
0.0
 11
173.5169185312816
 21
14.73432195319139
 31
0.0
 11
173.4128501919225
 21
14.7330045486779
 31
0.0
 11
173.3087951724045
 21
14.73087465284505
 31
0.0
 11
173.2030010615596
 21
14.7278451736792
 31
0.0
 11
173.0980914750139
 21
14.46604437513351
 31
0.0
 11
173.0034868690331
 21
14.21710232658461
 31
0.0
 11
172.9252231210298
 21
13.99559756969557
 31
0.0
 11
172.8693431224555
 21
13.81626739612931
 31
0.0
 11
172.8082651639442
 21
13.82145433189183
 31
0.0
 11
172.742087361813
 21
13.8231553822386
 31
0.0
 11
172.6758390041282
 21
13.82145433189183
 31
0.0
 11
172.6147963233938
 21
13.81626739612931
 31
0.0
 11
172.889968495193
 21
14.41656508695141
 31
0.0
 11
173.158294573417
 21
15.0134364236077
 31
0.0
 11
173.4240277350405
 21
15.61366245644379
 31
0.0
 11
173.6914740737033
 21
16.2242138538606
 31
0.0
 11
173.7241589339806
 21
16.2242138538606
 31
0.0
 11
173.7568437942579
 21
16.2242138538606
 31
0.0
 11
173.8428300681057
 21
16.01658539037086
 31
0.0
 11
173.9357285813609
 21
15.7925461456352
 31
0.0
 11
174.0328714521463
 21
15.55908663180468
 31
0.0
 11
174.1317936458031
 21
15.3229812846414
 31
0.0
 11
174.2315341249927
 21
15.08649780379783
 31
0.0
 11
174.3313071129353
 21
14.85168781253711
 31
0.0
 11
174.4280608257448
 21
14.62599492196851
 31
0.0
 11
174.5188084970408
 21
14.41658052097921
 31
0.0
 11
174.6022150834546
 21
14.22607611130459
 31
0.0
 11
174.6770293263377
 21
14.05708232662471
 31
0.0
 11
174.7410729186603
 21
13.91781337700668
 31
0.0
 11
174.7922649500513
 21
13.81626739612931
 31
0.0
  0
SPLINE
  5
A6
102
{ACAD_REACTORS
330
C3
102
}
330
48
100
AcDbEntity
  8
_U_30EC_U_30A4_U_30E4_U_30FC_1
  6
Continuous
 62
     2
100
AcDbSpline
210
0.0
220
0.0
230
1.0
 70
    11
 71
     3
 72
    25
 73
    21
 74
    19
 42
0.000000001
 43
0.0000000001
 44
0.00000001
 40
0.0
 40
0.0
 40
0.0
 40
0.0
 40
0.0911479969064819
 40
0.1858117896204665
 40
0.2804128399734488
 40
0.3715889190714509
 40
0.4679080494218707
 40
0.5642683809229229
 40
0.6605683222644988
 40
0.756965301581025
 40
0.8561348172522701
 40
1.092615965104282
 40
1.374867658141858
 40
1.611348812011576
 40
1.710518328425221
 40
1.809403163726534
 40
2.045205463294032
 40
2.326646917622084
 40
2.562449217190539
 40
2.661334043833855
 40
2.661334043833855
 40
2.661334043833855
 40
2.661334043833855
 10
173.2683700567199
 20
14.88614538197291
 30
0.0
 10
173.2987525917923
 20
14.88598079714555
 30
0.0
 10
173.3606895889111
 20
14.88564528689924
 30
0.0
 10
173.4541356960331
 20
14.88269055452
 30
0.0
 10
173.5475095236357
 20
14.87977752877153
 30
0.0
 10
173.6417760753476
 20
14.87894201643415
 30
0.0
 10
173.7354964790967
 20
14.87996644658048
 30
0.0
 10
173.8352040303204
 20
14.87916977470971
 30
0.0
 10
173.9188949546312
 20
14.8892141023522
 30
0.0
 10
174.0637996315045
 20
14.86234617674164
 30
0.0
 10
173.93961324448
 20
15.03665530280047
 30
0.0
 10
173.8965867286283
 20
15.1965171100609
 30
0.0
 10
173.7808922142209
 20
15.45518458550213
 30
0.0
 10
173.7017565431257
 20
15.59231052861854
 30
0.0
 10
173.6431576621816
 20
15.80937033134073
 30
0.0
 10
173.5864803939438
 20
15.59266134213424
 30
0.0
 10
173.5052809900477
 20
15.45327012438233
 30
0.0
 10
173.4063701281488
 20
15.20406969370192
 30
0.0
 10
173.325362509426
 20
15.01925830226072
 30
0.0
 10
173.2813683325838
 20
14.91650446856115
 30
0.0
 10
173.2683700567199
 20
14.88614538197291
 30
0.0
 11
173.2683700567199
 21
14.88614538197291
 31
0.0
 11
173.359513773782
 21
14.88526123266761
 31
0.0
 11
173.4541428297581
 21
14.882696979196
 31
0.0
 11
173.5487082179706
 21
14.88009965280779
 31
0.0
 11
173.6398803250196
 21
14.8792485764191
 31
0.0
 11
173.7361985777706
 21
14.87965978301622
 31
0.0
 11
173.8325499034376
 21
14.88097718752971
 31
0.0
 11
173.9288262638286
 21
14.88310818579312
 31
0.0
 11
174.0251753846343
 21
14.88614538197291
 31
0.0
 11
173.9854633323141
 21
14.97701642195019
 31
0.0
 11
173.8907653613968
 21
15.193708901896
 31
0.0
 11
173.7777387509471
 21
15.45234186183132
 31
0.0
 11
173.6830407800297
 21
15.66903434177713
 31
0.0
 11
173.6433287277095
 21
15.75990538175441
 31
0.0
 11
173.6043330259266
 21
15.66903434177713
 31
0.0
 11
173.5113432755212
 21
15.45234186183132
 31
0.0
 11
173.4003555089082
 21
15.193708901896
 31
0.0
 11
173.3073657585028
 21
14.97701642195019
 31
0.0
 11
173.2683700567199
 21
14.88614538197291
 31
0.0
  0
SPLINE
  5
A7
102
{ACAD_REACTORS
330
C4
102
}
330
48
100
AcDbEntity
  8
_U_30EC_U_30A4_U_30E4_U_30FC_1
  6
Continuous
 62
     2
100
AcDbSpline
210
0.0
220
0.0
230
1.0
 70
    11
 71
     3
 72
    95
 73
    91
 74
    89
 42
0.000000001
 43
0.0000000001
 44
0.00000001
 40
0.0
 40
0.0
 40
0.0
 40
0.0
 40
0.6550406656911703
 40
1.308087289031968
 40
1.420803739835845
 40
1.566130759770828
 40
1.757067341888483
 40
2.006513545026459
 40
2.087328263121565
 40
2.18532887229567
 40
2.294612454748421
 40
2.408936380534844
 40
2.526802767798594
 40
2.64636052461563
 40
2.762535723971611
 40
2.870057342870179
 40
2.966883448431716
 40
3.050803243518347
 40
3.115818222436642
 40
3.156030057150245
 40
3.213914225080142
 40
3.276689026450542
 40
3.342960320981319
 40
3.404230667150563
 40
3.453822809493344
 40
3.532499827188337
 40
3.634775188507117
 40
3.754909333008113
 40
3.889736761660636
 40
4.035769602175146
 40
4.187256681197581
 40
4.338733685675878
 40
4.488478734676077
 40
4.634708317831528
 40
4.771493189921203
 40
4.892686571561173
 40
5.199775528944397
 40
5.460353566929558
 40
5.667603142345463
 40
5.814722905404436
 40
5.828990806219734
 40
5.855488336304431
 40
5.869756237118763
 40
6.189796507762772
 40
6.531890469872955
 40
6.883053637016942
 40
7.230512024911392
 40
7.566966656764526
 40
7.885203559707312
 40
8.172887439719124
 40
8.418011594062687
 40
8.443926721190609
 40
8.510760470613098
 40
8.60214539379561
 40
8.701714041647051
 40
8.793098965075284
 40
8.85993271505786
 40
8.885847842603509
 40
9.242301256612697
 40
9.589275455016608
 40
9.921808543164069
 40
10.23479624298459
 40
10.29968150889169
 40
10.35323493887758
 40
10.40154625355142
 40
10.46482922477818
 40
10.55973900668402
 40
10.69239545985617
 40
10.84920353475667
 40
11.01626328594774
 40
11.18672024367436
 40
11.35372582577206
 40
11.50257442292426
 40
11.61866495023287
 40
11.71329869152872
 40
11.82511050573899
 40
11.9446488084571
 40
12.069292426425
 40
12.19707290435173
 40
12.32562632860522
 40
12.45034565331276
 40
12.56646595170322
 40
12.67099007414628
 40
12.76077625936779
 40
12.82703233506689
 40
12.87429132785988
 40
12.89831990323328
 40
12.92234847860016
 40
13.53984767410317
 40
14.18294284359358
 40
14.18294284359358
 40
14.18294284359358
 40
14.18294284359358
 10
177.3067935648021
 20
14.7089803820172
 30
0.0
 10
177.1752019758551
 20
14.82265058603228
 30
0.0
 10
176.9124193802729
 20
15.04964496316155
 30
0.0
 10
176.399739344102
 20
15.89214462956287
 30
0.0
 10
176.4106654595363
 20
15.5342337757702
 30
0.0
 10
176.404122652799
 20
15.39267392272133
 30
0.0
 10
176.4028026631773
 20
15.19421305299283
 30
0.0
 10
176.4018117602539
 20
15.02150296045986
 30
0.0
 10
176.4024101751974
 20
14.87865373257582
 30
0.0
 10
176.4038994301882
 20
14.78265005413358
 30
0.0
 10
176.4055683588472
 20
14.67545503263142
 30
0.0
 10
176.4071934954618
 20
14.56164211517582
 30
0.0
 10
176.4092429501685
 20
14.44441572604589
 30
0.0
 10
176.4123165501927
 20
14.32656411232971
 30
0.0
 10
176.4156339697042
 20
14.21228087320621
 30
0.0
 10
176.419360534028
 20
14.10521401867277
 30
0.0
 10
176.4217338161424
 20
14.01007408766921
 30
0.0
 10
176.4278718888357
 20
13.92558557205694
 30
0.0
 10
176.4239784495946
 20
13.86923087298142
 30
0.0
 10
176.4455230443077
 20
13.79825022472361
 30
0.0
 10
176.3680940058618
 20
13.82902677604477
 30
0.0
 10
176.3116353240191
 20
13.82011242517613
 30
0.0
 10
176.2540495896807
 20
13.82896218398269
 30
0.0
 10
176.1690163478472
 20
13.7973822522595
 30
0.0
 10
176.2009714146382
 20
13.88095155992189
 30
0.0
 10
176.1990705282539
 20
13.94882608968307
 30
0.0
 10
176.21079600473
 20
14.05233256764416
 30
0.0
 10
176.2164241053
 20
14.17002125616695
 30
0.0
 10
176.2237902178941
 20
14.30388609164422
 30
0.0
 10
176.2320759701611
 20
14.44764152872631
 30
0.0
 10
176.2398851897426
 20
14.59714022843442
 30
0.0
 10
176.2457571222658
 20
14.74792549402077
 30
0.0
 10
176.2503667817968
 20
14.89699943878436
 30
0.0
 10
176.2542632117542
 20
15.0412291316302
 30
0.0
 10
176.2570715126564
 20
15.17583905213016
 30
0.0
 10
176.2576698755022
 20
15.36469614347353
 30
0.0
 10
176.261602386715
 20
15.58975494313151
 30
0.0
 10
176.2442175378498
 20
15.86367091125706
 30
0.0
 10
176.2850417342582
 20
16.02787112098591
 30
0.0
 10
176.1995153256004
 20
16.227496614651
 30
0.0
 10
176.2660558907687
 20
16.22385458403975
 30
0.0
 10
176.283872427323
 20
16.22413447160852
 30
0.0
 10
176.4056801797505
 20
16.22632927398611
 30
0.0
 10
176.508077033546
 20
15.94675118721512
 30
0.0
 10
176.7580021509356
 20
15.74563008536001
 30
0.0
 10
176.987003533111
 20
15.47792614987915
 30
0.0
 10
177.2245151213109
 20
15.22646413862378
 30
0.0
 10
177.4486090740772
 20
14.98969974061357
 30
0.0
 10
177.675071628301
 20
14.73218692583084
 30
0.0
 10
177.8325687886513
 20
14.61649335056923
 30
0.0
 10
178.0472129612676
 20
14.27997152538795
 30
0.0
 10
178.0422645974618
 20
14.40464754091604
 30
0.0
 10
178.0433931602547
 20
14.46327691935739
 30
0.0
 10
178.0428877841517
 20
14.55043662371978
 30
0.0
 10
178.0430475158113
 20
14.64416143182874
 30
0.0
 10
178.0430054891318
 20
14.73018971297036
 30
0.0
 10
178.0430202040372
 20
14.79153891945497
 30
0.0
 10
178.0429706255984
 20
14.94135231520994
 30
0.0
 10
178.045881152281
 20
15.17989612510103
 30
0.0
 10
178.0259521041162
 20
15.54486509868699
 30
0.0
 10
178.0750433936248
 20
15.80799631993411
 30
0.0
 10
177.9177951509179
 20
16.21928904947752
 30
0.0
 10
178.0762112872421
 20
16.16398282551751
 30
0.0
 10
178.1311680478628
 20
16.16199686500178
 30
0.0
 10
178.182788776674
 20
16.16264778248255
 30
0.0
 10
178.2713198965366
 20
16.20369527738248
 30
0.0
 10
178.2204898303168
 20
16.05696326622985
 30
0.0
 10
178.2313389930283
 20
15.95019971954431
 30
0.0
 10
178.2166036994847
 20
15.79085705414111
 30
0.0
 10
178.2099976446205
 20
15.62853061652875
 30
0.0
 10
178.2014961399913
 20
15.45992521892395
 30
0.0
 10
178.1943227202199
 20
15.2981481470354
 30
0.0
 10
178.1889063215389
 20
15.1542233145793
 30
0.0
 10
178.1871713967648
 20
15.03437493466922
 30
0.0
 10
178.1875440672319
 20
14.92686101590515
 30
0.0
 10
178.1873656126262
 20
14.81820024645587
 30
0.0
 10
178.187701086314
 20
14.69953570165532
 30
0.0
 10
178.1890040622184
 20
14.57555163512741
 30
0.0
 10
178.1908887351574
 20
14.44858294171105
 30
0.0
 10
178.192500445485
 20
14.32153861551031
 30
0.0
 10
178.194140313743
 20
14.19854884492178
 30
0.0
 10
178.1962570745751
 20
14.0830093138376
 30
0.0
 10
178.1963848422364
 20
13.98090903955838
 30
0.0
 10
178.2006514396554
 20
13.89009848838156
 30
0.0
 10
178.1908440085289
 20
13.83213621208786
 30
0.0
 10
178.2118474771689
 20
13.76517130132028
 30
0.0
 10
178.1725639739897
 20
13.77291153966688
 30
0.0
 10
177.9595307117745
 20
13.75755254145191
 30
0.0
 10
177.7636297943186
 20
14.3140305809447
 30
0.0
 10
177.4611197631544
 20
14.57556035348508
 30
0.0
 10
177.3067935648021
 20
14.7089803820172
 30
0.0
 11
177.3067935648021
 21
14.7089803820172
 31
0.0
 11
176.8595529338511
 21
15.18757635411975
 31
0.0
 11
176.4124049070643
 21
15.6635264928897
 31
0.0
 11
176.4089664262494
 21
15.55086249986232
 31
0.0
 11
176.40556101835
 21
15.40557538184311
 31
0.0
 11
176.4029636920274
 21
15.2146564582797
 31
0.0
 11
176.4021126156603
 21
14.96521170139761
 31
0.0
 11
176.4025239230289
 21
14.88439802954283
 31
0.0
 11
176.4038420329817
 21
14.78640628477561
 31
0.0
 11
176.4055192267718
 21
14.67713557299738
 31
0.0
 11
176.4072367127518
 21
14.5628245487204
 31
0.0
 11
176.4094007838772
 21
14.44497802965266
 31
0.0
 11
176.4124049070643
 21
14.32545802100201
 31
0.0
 11
176.4158359733138
 21
14.20933349846157
 31
0.0
 11
176.4192928929998
 21
14.10186746550231
 31
0.0
 11
176.4227085253088
 21
14.00510162351262
 31
0.0
 11
176.4261896983793
 21
13.92125406276971
 31
0.0
 11
176.4296006184313
 21
13.8563286200776
 31
0.0
 11
176.4330776843148
 21
13.81626739612931
 31
0.0
 11
176.3754263821571
 21
13.82145433189183
 31
0.0
 11
176.3126746318309
 21
13.8231553822386
 31
0.0
 11
176.2464251717157
 21
13.82145433189183
 31
0.0
 11
176.1853747739675
 21
13.81626739612931
 31
0.0
 11
176.1926772737812
 21
13.86531894125591
 31
0.0
 11
176.2008793569054
 21
13.9435672572085
 31
0.0
 11
176.2090098822348
 21
14.04551893253028
 31
0.0
 11
176.2163406441397
 21
14.16542920159751
 31
0.0
 11
176.2236358280421
 21
14.30005912343891
 31
0.0
 11
176.2318444255596
 21
14.44586107652741
 31
0.0
 11
176.2395504149465
 21
14.59715203135074
 31
0.0
 11
176.2455763002093
 21
14.7485091320073
 31
0.0
 11
176.2503046247416
 21
14.89817951391435
 31
0.0
 11
176.254192897212
 21
15.0443573958222
 31
0.0
 11
176.2567527408965
 21
15.18111831592693
 31
0.0
 11
176.2576324804574
 21
15.3023085068689
 31
0.0
 11
176.257192610677
 21
15.60939715262543
 31
0.0
 11
176.2559126888347
 21
15.86997204839361
 31
0.0
 11
176.2528658717893
 21
16.07719922716124
 31
0.0
 11
176.2473049112763
 21
16.2242138538606
 31
0.0
 11
176.2615728121469
 21
16.2242138538606
 31
0.0
 11
176.2880703423352
 21
16.2242138538606
 31
0.0
 11
176.3023382432058
 21
16.2242138538606
 31
0.0
 11
176.5194743650277
 21
15.9891017966277
 31
0.0
 11
176.7512744123079
 21
15.7375128123156
 31
0.0
 11
176.9894816018839
 21
15.47949555543569
 31
0.0
 11
177.2260074557521
 21
15.22497079855491
 31
0.0
 11
177.4555698717705
 21
14.97899759549136
 31
0.0
 11
177.6731797360103
 21
14.74678934034111
 31
0.0
 11
177.8713724913707
 21
14.53826680567102
 31
0.0
 11
178.0430143099086
 21
14.3632669793259
 31
0.0
 11
178.0430143099086
 21
14.38918210687044
 31
0.0
 11
178.0430143099086
 21
14.45601585685372
 31
0.0
 11
178.0430143099086
 21
14.54740078030026
 31
0.0
 11
178.0430143099086
 21
14.64696942823455
 31
0.0
 11
178.0430143099086
 21
14.73835435168108
 31
0.0
 11
178.0430143099086
 21
14.80518810166437
 31
0.0
 11
178.0430143099086
 21
14.83110322920891
 31
0.0
 11
178.0417233637609
 21
15.18755430550866
 31
0.0
 11
178.0378461155958
 21
15.5345068401441
 31
0.0
 11
178.0296197790002
 21
15.86693815950552
 31
0.0
 11
178.0154535467228
 21
16.17960510387181
 31
0.0
 11
178.0790351249618
 21
16.16666367158337
 31
0.0
 11
178.1324170159611
 21
16.1623807288761
 31
0.0
 11
178.1805381084833
 21
16.16666367158337
 31
0.0
 11
178.2424836798197
 21
16.17960510387181
 31
0.0
 11
178.2351216487575
 21
16.08498128445099
 31
0.0
 11
178.2269790968818
 21
15.9525749650396
 31
0.0
 11
178.2183705364004
 21
15.79600336785655
 31
0.0
 11
178.2097547223215
 21
15.62916593734271
 31
0.0
 11
178.2016187850288
 21
15.45890325509363
 31
0.0
 11
178.1942501393835
 21
15.292060312427
 31
0.0
 11
178.1891406931522
 21
15.14329943572805
 31
0.0
 11
178.1874503478904
 21
15.027221215271
 31
0.0
 11
178.1874503478904
 21
14.93258747397516
 31
0.0
 11
178.1874503478904
 21
14.82077565976711
 31
0.0
 11
178.1878461204497
 21
14.70123801222749
 31
0.0
 11
178.1890819450708
 21
14.57660052093921
 31
0.0
 11
178.1908392193317
 21
14.44883212687389
 31
0.0
 11
178.1925303477608
 21
14.32028982655881
 31
0.0
 11
178.1942876220214
 21
14.19558288214553
 31
0.0
 11
178.1959787504505
 21
14.0794748960635
 31
0.0
 11
178.1972884379172
 21
13.9749589672702
 31
0.0
 11
178.1976985420735
 21
13.88517371555651
 31
0.0
 11
178.1976985420735
 21
13.81891763918417
 31
0.0
 11
178.1976985420735
 21
13.77165864614041
 31
0.0
 11
178.1736699662976
 21
13.77165864614041
 31
0.0
 11
178.1496413905217
 21
13.77165864614041
 31
0.0
 11
177.7410729200423
 21
14.23466735262191
 31
0.0
 11
177.3067935648021
 21
14.7089803820172
 31
0.0
  0
SPLINE
  5
A8
102
{ACAD_REACTORS
330
C5
102
}
330
48
100
AcDbEntity
  8
_U_30EC_U_30A4_U_30E4_U_30FC_1
  6
Continuous
 62
     2
100
AcDbSpline
210
0.0
220
0.0
230
1.0
 70
    11
 71
     3
 72
   110
 73
   106
 74
   104
 42
0.000000001
 43
0.0000000001
 44
0.00000001
 40
0.0
 40
0.0
 40
0.0
 40
0.0
 40
0.2203406257277631
 40
0.4407808782838304
 40
0.5952494494615292
 40
0.7488431659393312
 40
0.9023581831309282
 40
1.056801968670427
 40
1.210736449099927
 40
1.363041386539804
 40
1.515315729683148
 40
1.6693772391481
 40
1.721611652756619
 40
1.773199502943031
 40
1.824933793210077
 40
1.877110426488063
 40
1.98268228120683
 40
2.07878166708764
 40
2.17280964082236
 40
2.271937807379013
 40
2.378349933379404
 40
2.494131557736592
 40
2.626681683943727
 40
2.783145050796154
 40
2.890701232940995
 40
2.993130312454933
 40
3.09986973069188
 40
3.220237816691366
 40
3.352695482737634
 40
3.481732806389956
 40
3.593499473690444
 40
3.674323013331981
 40
3.817951711952931
 40
3.94616712079393
 40
4.061405053453614
 40
4.166480796003256
 40
4.262478775059291
 40
4.350736673551249
 40
4.433071991254131
 40
4.511216293814732
 40
4.564262454118021
 40
4.618474415571614
 40
4.670128488754234
 40
4.722296879126448
 40
4.819540945314318
 40
4.931194984128173
 40
5.049996040257815
 40
5.168643755415361
 40
5.283970811762573
 40
5.392260784910399
 40
5.486512254876473
 40
5.559178233949872
 40
5.591425852853516
 40
5.626215969637896
 40
5.667155838674453
 40
5.717449290214299
 40
5.73840236094491
 40
5.784499116553873
 40
5.830595872164841
 40
5.851548942897695
 40
5.87301928066181
 40
5.924217778408352
 40
5.985325662817731
 40
6.036524160567748
 40
6.057994498334276
 40
6.236847789607523
 40
6.38140992894572
 40
6.493190424178731
 40
6.57406753423059
 40
6.691018086205684
 40
6.814881554220602
 40
6.944307823240554
 40
7.071266716066178
 40
7.193488604462024
 40
7.309042773128251
 40
7.414007203170875
 40
7.505140441886633
 40
7.531150360599789
 40
7.559221645322386
 40
7.587202218921032
 40
7.612569159499247
 40
7.662550809481098
 40
7.702878875764203
 40
7.857328205231015
 40
8.010799568088661
 40
8.165256399657611
 40
8.32223269871395
 40
8.479564855016637
 40
8.63521623029084
 40
8.790882550925758
 40
8.948305154947322
 40
9.168271839033002
 40
9.387358980987234
 40
9.608047961033462
 40
9.832914234792646
 40
9.858338694962981
 40
9.925366817229996
 40
10.02013071422759
 40
10.12876249858998
 40
10.23739428295249
 40
10.33215817995191
 40
10.39918630222395
 40
10.42461076239784
 40
10.64992019336942
 40
10.87188524531189
 40
10.87188524531189
 40
10.87188524531189
 40
10.87188524531189
 10
179.9057788376618
 20
15.7392326039819
 30
0.0
 10
179.9092864933541
 20
15.80616462073803
 30
0.0
 10
179.9163033987662
 20
15.94005891915859
 30
0.0
 10
179.8198027599072
 20
16.22548554971472
 30
0.0
 10
180.0510134726108
 20
16.16284386190284
 30
0.0
 10
180.1919290057156
 20
16.17001554055983
 30
0.0
 10
180.3490417757588
 20
16.16235883078247
 30
0.0
 10
180.5025913427287
 20
16.16252752283043
 30
0.0
 10
180.6545104935081
 20
16.16182040535434
 30
0.0
 10
180.814221481323
 20
16.17210158351631
 30
0.0
 10
180.9408972601118
 20
16.15496511080752
 30
0.0
 10
181.137082112208
 20
16.22727260107148
 30
0.0
 10
181.1034395279078
 20
16.12640699080116
 30
0.0
 10
181.1052011317184
 20
16.07619253947668
 30
0.0
 10
181.1027342073458
 20
16.02712335586462
 30
0.0
 10
181.1347076966011
 20
15.94063490846993
 30
0.0
 10
181.0010399903255
 20
15.9899743860834
 30
0.0
 10
180.9172208688057
 20
15.98430634314171
 30
0.0
 10
180.8173861139324
 20
15.99465516706299
 30
0.0
 10
180.7186576720146
 20
16.00086450411088
 30
0.0
 10
180.612153277111
 20
16.00697763816776
 30
0.0
 10
180.491051169806
 20
16.0158888348458
 30
0.0
 10
180.3703381502454
 20
16.00521605912386
 30
0.0
 10
180.1812553843436
 20
16.06468503080364
 30
0.0
 10
180.2129028505311
 20
15.90558320077537
 30
0.0
 10
180.1995563316834
 20
15.80839128339902
 30
0.0
 10
180.197495842645
 20
15.69634065110101
 30
0.0
 10
180.1958188044671
 20
15.57699685629351
 30
0.0
 10
180.1973336794233
 20
15.45032592155109
 30
0.0
 10
180.195658247867
 20
15.32301588016116
 30
0.0
 10
180.2058844271657
 20
15.2245156640446
 30
0.0
 10
180.1779006596582
 20
15.08388702625627
 30
0.0
 10
180.3508029999305
 20
15.13989551134089
 30
0.0
 10
180.4645020202771
 20
15.12719951478506
 30
0.0
 10
180.584015167224
 20
15.13448377051252
 30
0.0
 10
180.6888491425071
 20
15.13878017056762
 30
0.0
 10
180.7843084898612
 20
15.14330568258974
 30
0.0
 10
180.8763823507032
 20
15.15149201146205
 30
0.0
 10
180.9476551782438
 20
15.14643850638108
 30
0.0
 10
181.0544931705685
 20
15.18536425031671
 30
0.0
 10
181.0226603598035
 20
15.1051712200588
 30
0.0
 10
181.026616450393
 20
15.05562936846034
 30
0.0
 10
181.0234502392012
 20
15.0055747803982
 30
0.0
 10
181.0550791490585
 20
14.92128847612021
 30
0.0
 10
180.9210133677691
 20
14.97425365495158
 30
0.0
 10
180.82923227932
 20
14.96540080890438
 30
0.0
 10
180.7079729189603
 20
14.97570049965153
 30
0.0
 10
180.5914113119772
 20
14.97748911767501
 30
0.0
 10
180.4783375745878
 20
14.97787017109695
 30
0.0
 10
180.3679246308471
 20
14.98415449472185
 30
0.0
 10
180.2898124067841
 20
14.97189133255364
 30
0.0
 10
180.1913625833643
 20
15.00453887616127
 30
0.0
 10
180.2012355173561
 20
14.94769748054209
 30
0.0
 10
180.1973923244402
 20
14.91392130557987
 30
0.0
 10
180.1966789884268
 20
14.87119604709412
 30
0.0
 10
180.1963369642975
 20
14.83401607262153
 30
0.0
 10
180.1963834255345
 20
14.79487237370769
 30
0.0
 10
180.1963649429926
 20
14.75716849497685
 30
0.0
 10
180.1963703431807
 20
14.71944955232402
 30
0.0
 10
180.19636972142
 20
14.6899432474515
 30
0.0
 10
180.1963698151545
 20
14.65873577699301
 30
0.0
 10
180.196370428792
 20
14.61414424908084
 30
0.0
 10
180.1963671499336
 20
14.55963956508851
 30
0.0
 10
180.1963759623481
 20
14.51505540201448
 30
0.0
 10
180.1963359653416
 20
14.4311780858574
 30
0.0
 10
180.1976024270255
 20
14.31737520677678
 30
0.0
 10
180.1950274117841
 20
14.16830395933708
 30
0.0
 10
180.206500938172
 20
14.06597203813903
 30
0.0
 10
180.1823506222263
 20
13.93338903885829
 30
0.0
 10
180.3332993946477
 20
13.97895732272016
 30
0.0
 10
180.4428436671555
 20
13.96427012162343
 30
0.0
 10
180.5733970473921
 20
13.9692043512506
 30
0.0
 10
180.6990312209513
 20
13.97257705323359
 30
0.0
 10
180.8188730625601
 20
13.97711497498772
 30
0.0
 10
180.9391362611426
 20
13.99048536182004
 30
0.0
 10
181.0222761663515
 20
13.98068712782593
 30
0.0
 10
181.1456080421075
 20
14.04126214623319
 30
0.0
 10
181.1244269203956
 20
13.9853246013402
 30
0.0
 10
181.1235950270116
 20
13.95939249372345
 30
0.0
 10
181.1218963707558
 20
13.93197256190938
 30
0.0
 10
181.1217974888829
 20
13.89738195206384
 30
0.0
 10
181.120365930133
 20
13.86050408220769
 30
0.0
 10
181.153280419219
 20
13.7684684102181
 30
0.0
 10
180.9551306988107
 20
13.84132015974826
 30
0.0
 10
180.8300548294891
 20
13.81825726508605
 30
0.0
 10
180.6673071295156
 20
13.82454021985783
 30
0.0
 10
180.5129366450001
 20
13.82260943909924
 30
0.0
 10
180.3566670436943
 20
13.82393762599265
 30
0.0
 10
180.1970544465281
 20
13.82059872487861
 30
0.0
 10
180.0540326342237
 20
13.83265795728236
 30
0.0
 10
179.8197144881628
 20
13.76952001976925
 30
0.0
 10
179.9173810751197
 20
14.05620527466318
 30
0.0
 10
179.9006868780058
 20
14.2498830814266
 30
0.0
 10
179.9146296709685
 20
14.47848242880293
 30
0.0
 10
179.9142987846632
 20
14.63384593955044
 30
0.0
 10
179.9143078119264
 20
14.73966336444122
 30
0.0
 10
179.9143055876316
 20
14.80205784124211
 30
0.0
 10
179.9143065551889
 20
14.89220425248324
 30
0.0
 10
179.9143065473262
 20
14.99621167157436
 30
0.0
 10
179.9143053861102
 20
15.10022131375294
 30
0.0
 10
179.9143090971502
 20
15.19036243688767
 30
0.0
 10
179.9143011051051
 20
15.25276803097215
 30
0.0
 10
179.9143334275019
 20
15.35868835961119
 30
0.0
 10
179.9131440788318
 20
15.51626716544738
 30
0.0
 10
179.9082216489256
 20
15.66528219822065
 30
0.0
 10
179.9057788376618
 20
15.7392326039819
 30
0.0
 11
179.9057788376618
 21
15.7392326039819
 31
0.0
 11
179.896691822374
 21
15.95938578101017
 31
0.0
 11
179.8868249573133
 21
16.17960510387181
 31
0.0
 11
180.04115751414
 21
16.17312391463728
 31
0.0
 11
180.1946500189046
 21
16.1675489233192
 31
0.0
 11
180.3481160653366
 21
16.16367167505632
 31
0.0
 11
180.5025544554939
 21
16.1623807288761
 31
0.0
 11
180.6564835227473
 21
16.16367167505632
 31
0.0
 11
180.80873910046
 21
16.1675489233192
 31
0.0
 11
180.9609113551074
 21
16.17312391463728
 31
0.0
 11
181.1148364762483
 21
16.17960510387181
 31
0.0
 11
181.1070811703123
 21
16.12794961777357
 31
0.0
 11
181.1044991623591
 21
16.076426423342
 31
0.0
 11
181.1070811703123
 21
16.02475660564656
 31
0.0
 11
181.1148364762483
 21
15.9731595483678
 31
0.0
 11
181.0094874054411
 21
15.98001446156059
 31
0.0
 11
180.913637570006
 21
15.9869355205866
 31
0.0
 11
180.8198593171903
 21
15.99378381919601
 31
0.0
 11
180.7209679915881
 21
16.00063211780541
 31
0.0
 11
180.6147532199924
 21
16.00710999974822
 31
0.0
 11
180.4991060528038
 21
16.0126882983579
 31
0.0
 11
180.3666126447258
 21
16.01656554662087
 31
0.0
 11
180.2101546018423
 21
16.0178564928011
 31
0.0
 11
180.2062663293721
 21
15.91037061609186
 31
0.0
 11
180.20153800484
 21
15.8080507289646
 31
0.0
 11
180.1976607566749
 21
15.70138175329686
 31
0.0
 11
180.1963698105272
 21
15.5810205901325
 31
0.0
 11
180.1967799146836
 21
15.44856355891567
 31
0.0
 11
180.1980896021502
 21
15.3195328818645
 31
0.0
 11
180.1994074577049
 21
15.20777398432308
 31
0.0
 11
180.199819115366
 21
15.12695149302381
 31
0.0
 11
180.3434452935874
 21
15.12780256941247
 31
0.0
 11
180.4716343930758
 21
15.13039989580081
 31
0.0
 11
180.5868078221795
 21
15.13425509545254
 31
0.0
 11
180.691775631222
 21
15.1390164930208
 31
0.0
 11
180.7876346289421
 21
15.14418027774176
 31
0.0
 11
180.8757413374193
 21
15.1493440624627
 31
0.0
 11
180.9578881438496
 21
15.15491243919738
 31
0.0
 11
181.0357692335571
 21
15.16132086801521
 31
0.0
 11
181.0280180445186
 21
15.10884407115337
 31
0.0
 11
181.0254328449317
 21
15.0546937847086
 31
0.0
 11
181.0280180445186
 21
15.00310444444367
 31
0.0
 11
181.0357692335571
 21
14.95151510417881
 31
0.0
 11
180.9389813454014
 21
14.96092324653757
 31
0.0
 11
180.8275950722015
 21
14.9686512847301
 31
0.0
 11
180.7089261429373
 21
14.97425273438144
 31
0.0
 11
180.5903167449213
 21
14.9772678819501
 31
0.0
 11
180.4750025117521
 21
14.9789876736164
 31
0.0
 11
180.36672619507
 21
14.98070746528261
 31
0.0
 11
180.2724839317708
 21
14.98202486979618
 31
0.0
 11
180.199819115366
 21
14.9824360763933
 31
0.0
 11
180.199407457705
 21
14.95019108508194
 31
0.0
 11
180.1980896021502
 21
14.91542593752121
 31
0.0
 11
180.1967799146836
 21
14.87450702260087
 31
0.0
 11
180.1963698105272
 21
14.8242152430995
 31
0.0
 11
180.1963698105272
 21
14.8032621723582
 31
0.0
 11
180.1963698105272
 21
14.75716541672736
 31
0.0
 11
180.1963698105272
 21
14.7110686610965
 31
0.0
 11
180.1963698105272
 21
14.69011559035521
 31
0.0
 11
180.1963698105272
 21
14.6686452525828
 31
0.0
 11
180.1963698105272
 21
14.61744675481784
 31
0.0
 11
180.1963698105272
 21
14.55633887038868
 31
0.0
 11
180.1963698105272
 21
14.50514037262371
 31
0.0
 11
180.1963698105272
 21
14.4836700348513
 31
0.0
 11
180.1967799146836
 21
14.30481721371548
 31
0.0
 11
180.1980896021502
 21
14.1602610071544
 31
0.0
 11
180.2002868589709
 21
14.04850210961289
 31
0.0
 11
180.2032586986985
 21
13.9676796183136
 31
0.0
 11
180.3202092517447
 21
13.9676796183136
 31
0.0
 11
180.4440727208746
 21
13.9676796183136
 31
0.0
 11
180.5734925526422
 21
13.96897056449386
 31
0.0
 11
180.7003922282244
 21
13.9728478127568
 31
0.0
 11
180.8224658067973
 21
13.97886708358864
 31
0.0
 11
180.9377587499463
 21
13.98663260442001
 31
0.0
 11
181.0421754573518
 21
13.997341614834
 31
0.0
 11
181.1320599255448
 21
14.01237656274691
 31
0.0
 11
181.1264254031191
 21
13.98698427976714
 31
0.0
 11
181.1234433285423
 21
13.959071840538
 31
0.0
 11
181.12213398812
 21
13.93112191867001
 31
0.0
 11
181.1217235369195
 21
13.90575829888471
 31
0.0
 11
181.1243087365064
 21
13.85584355063327
 31
0.0
 11
181.1320599255448
 21
13.81626739612931
 31
0.0
 11
180.9776977178344
 21
13.82145433189183
 31
0.0
 11
180.8242357818765
 21
13.8231553822386
 31
0.0
 11
180.6697789496483
 21
13.8231553822386
 31
0.0
 11
180.5128026496768
 21
13.8231553822386
 31
0.0
 11
180.3554704921536
 21
13.8231553822386
 31
0.0
 11
180.199819115366
 21
13.8231553822386
 31
0.0
 11
180.0441620874241
 21
13.82145433189183
 31
0.0
 11
179.8868249573133
 21
13.81626739612931
 31
0.0
 11
179.896691822374
 21
14.03601267385213
 31
0.0
 11
179.9057788376618
 21
14.2549112849085
 31
0.0
 11
179.91217215184
 21
14.47550763902
 31
0.0
 11
179.9143063455009
 21
14.70036378479711
 31
0.0
 11
179.9143063455009
 21
14.7257882449687
 31
0.0
 11
179.9143063455009
 21
14.79281636723928
 31
0.0
 11
179.9143063455009
 21
14.88758026424251
 31
0.0
 11
179.9143063455009
 21
14.99621204861205
 31
0.0
 11
179.9143063455009
 21
15.1048438329816
 31
0.0
 11
179.9143063455009
 21
15.19960772998483
 31
0.0
 11
179.9143063455009
 21
15.2666358522554
 31
0.0
 11
179.9143063455009
 21
15.292060312427
 31
0.0
 11
179.91217215184
 21
15.51735963528733
 31
0.0
 11
179.9057788376618
 21
15.7392326039819
 31
0.0
  0
SPLINE
  5
A9
102
{ACAD_REACTORS
330
C6
102
}
330
48
100
AcDbEntity
  8
_U_30EC_U_30A4_U_30E4_U_30FC_1
  6
Continuous
 62
     2
100
AcDbSpline
210
0.0
220
0.0
230
1.0
 70
    11
 71
     3
 72
    47
 73
    43
 74
    41
 42
0.000000001
 43
0.0000000001
 44
0.00000001
 40
0.0
 40
0.0
 40
0.0
 40
0.0
 40
0.2207912809957319
 40
0.4459404186303451
 40
0.4902387190459702
 40
0.532747389272271
 40
0.5742260451225982
 40
0.6155432630561268
 40
0.656816406631618
 40
0.6982511618781051
 40
0.7407663929317616
 40
0.7851366743175713
 40
1.0102888338364
 40
1.231080507002261
 40
1.451765243652467
 40
1.676638205891726
 40
1.720461045359697
 40
1.830018144043558
 40
1.972442372353187
 40
2.114866600677553
 40
2.224423699395178
 40
2.268246538883417
 40
2.493628801207294
 40
2.715602830286687
 40
2.934211330706433
 40
3.149502369855394
 40
3.231387784851035
 40
3.31823187385407
 40
3.405143198198059
 40
3.486970301720491
 40
3.7022581724939
 40
3.920866283534123
 40
4.142839325931907
 40
4.368221903865415
 40
4.412044743359894
 40
4.521601842095906
 40
4.664026070452385
 40
4.806450298809091
 40
4.916007397546784
 40
4.959830237043105
 40
5.184703515847113
 40
5.405387250767464
 40
5.405387250767464
 40
5.405387250767464
 40
5.405387250767464
 10
182.6507427258645
 20
15.7340644095387
 30
0.0
 10
182.6568139420002
 20
15.79758482501208
 30
0.0
 10
182.6690762107242
 20
15.92587938689626
 30
0.0
 10
182.5604706879412
 20
16.2016622017408
 30
0.0
 10
182.6761985896604
 20
16.17188133432055
 30
0.0
 10
182.7171842509015
 20
16.16765556262813
 30
0.0
 10
182.7591205797518
 20
16.16310446389609
 30
0.0
 10
182.800419662571
 20
16.16201982929488
 30
0.0
 10
182.8417032115556
 20
16.1631033819523
 30
0.0
 10
182.8836148270647
 20
16.16766112711336
 30
0.0
 10
182.9245983549019
 20
16.17187430209729
 30
0.0
 10
183.040492284349
 20
16.20177611317538
 30
0.0
 10
182.9295652727456
 20
15.92339806609888
 30
0.0
 10
182.9574856365267
 20
15.74283140824952
 30
0.0
 10
182.9404267346969
 20
15.50961042346472
 30
0.0
 10
182.9414637282102
 20
15.34906622543148
 30
0.0
 10
182.9414099399405
 20
15.22284817558725
 30
0.0
 10
182.941427737248
 20
15.12428963336244
 30
0.0
 10
182.941418858108
 20
14.99280702442966
 30
0.0
 10
182.9414263928034
 20
14.86132844968654
 30
0.0
 10
182.9414129405129
 20
14.76276222694094
 30
0.0
 10
182.9414531717492
 20
14.63639735624154
 30
0.0
 10
182.9406746403817
 20
14.47482068822871
 30
0.0
 10
182.9565958319267
 20
14.24361821892915
 30
0.0
 10
182.9333468885407
 20
14.05874351972
 30
0.0
 10
183.0360183444365
 20
13.78935602770066
 30
0.0
 10
182.8820238362836
 20
13.82660112685812
 30
0.0
 10
182.8004129802832
 20
13.82137994680534
 30
0.0
 10
182.7188192292583
 20
13.82660620378345
 30
0.0
 10
182.5648513666842
 20
13.78937069885397
 30
0.0
 10
182.6674183421917
 20
14.05875129862878
 30
0.0
 10
182.6442045316088
 20
14.24361585325415
 30
0.0
 10
182.6600444655138
 20
14.47482218565639
 30
0.0
 10
182.6593296313428
 20
14.63639712308505
 30
0.0
 10
182.6593664569907
 20
14.76276231210524
 30
0.0
 10
182.659354900027
 20
14.86132756635985
 30
0.0
 10
182.6593575019214
 20
14.99281127417223
 30
0.0
 10
182.6593648531779
 20
15.12427548031203
 30
0.0
 10
182.6593442541351
 20
15.22287786275329
 30
0.0
 10
182.6594082192028
 20
15.34896149354429
 30
0.0
 10
182.6581733947591
 20
15.51210091383772
 30
0.0
 10
182.6532040396744
 20
15.66054183777548
 30
0.0
 10
182.6507427258645
 20
15.7340644095387
 30
0.0
 11
182.6507427258645
 21
15.7340644095387
 31
0.0
 11
182.6417328200379
 21
15.95467178795576
 31
0.0
 11
182.6318769706146
 21
16.17960510387181
 31
0.0
 11
182.6756985840801
 21
16.17312391463728
 31
0.0
 11
182.7178400934215
 21
16.1675489233192
 31
0.0
 11
182.759137140979
 21
16.16367167505632
 31
0.0
 11
182.8004341885365
 21
16.1623807288761
 31
0.0
 11
182.841687138873
 21
16.16367167505632
 31
0.0
 11
182.8829400892097
 21
16.1675489233192
 31
0.0
 11
182.9250882131343
 21
16.17312391463728
 31
0.0
 11
182.9689825870145
 21
16.17960510387181
 31
0.0
 11
182.9590577693891
 21
15.95467178795576
 31
0.0
 11
182.950038420831
 21
15.7340644095387
 31
0.0
 11
182.9435638463435
 21
15.51347467001055
 31
0.0
 11
182.9414218238286
 21
15.2886119096501
 31
0.0
 11
182.9414218238286
 21
15.24478907015489
 31
0.0
 11
182.9414218238286
 21
15.13523197141685
 31
0.0
 11
182.9414218238286
 21
14.9928077430574
 31
0.0
 11
182.9414218238286
 21
14.85038351469796
 31
0.0
 11
182.9414218238286
 21
14.74082641595992
 31
0.0
 11
182.9414218238286
 21
14.69700357646471
 31
0.0
 11
182.9435638463435
 21
14.47163149318765
 31
0.0
 11
182.950038420831
 21
14.2497519099098
 31
0.0
 11
182.9590577693891
 21
14.0313295488533
 31
0.0
 11
182.9689825870145
 21
13.81626739612931
 31
0.0
 11
182.887261616877
 21
13.82145433189183
 31
0.0
 11
182.8004341885365
 21
13.8231553822386
 31
0.0
 11
182.7135395119339
 21
13.82145433189183
 31
0.0
 11
182.6318769706146
 21
13.81626739612931
 31
0.0
 11
182.6417328200379
 21
14.0313295488533
 31
0.0
 11
182.6507427258645
 21
14.2497519099098
 31
0.0
 11
182.6571833838798
 21
14.47163149318765
 31
0.0
 11
182.6593583588023
 21
14.69700357646471
 31
0.0
 11
182.6593583588023
 21
14.74082641595992
 31
0.0
 11
182.6593583588023
 21
14.85038351469796
 31
0.0
 11
182.6593583588023
 21
14.9928077430574
 31
0.0
 11
182.6593583588023
 21
15.13523197141685
 31
0.0
 11
182.6593583588023
 21
15.24478907015489
 31
0.0
 11
182.6593583588023
 21
15.2886119096501
 31
0.0
 11
182.6571833838798
 21
15.51347467001055
 31
0.0
 11
182.6507427258645
 21
15.7340644095387
 31
0.0
  0
SPLINE
  5
AA
102
{ACAD_REACTORS
330
C7
102
}
330
48
100
AcDbEntity
  8
_U_30EC_U_30A4_U_30E4_U_30FC_1
  6
Continuous
 62
     2
100
AcDbSpline
210
0.0
220
0.0
230
1.0
 70
    11
 71
     3
 72
   118
 73
   114
 74
   112
 42
0.000000001
 43
0.0000000001
 44
0.00000001
 40
0.0
 40
0.0
 40
0.0
 40
0.0
 40
0.1054708162973396
 40
0.2466098270051939
 40
0.396591287459132
 40
0.528552506975412
 40
0.6156245055642361
 40
0.6431434105797659
 40
0.703685003798632
 40
0.7642265984504689
 40
0.7917455052354994
 40
0.9287404319989836
 40
1.106572819088018
 40
1.287544879681028
 40
1.317578308030545
 40
1.399928030857181
 40
1.522968204799956
 40
1.675072986590577
 40
1.844616533180658
 40
2.019973001638718
 40
2.189516548880031
 40
2.341621331585371
 40
2.464661506320507
 40
2.547011229647071
 40
2.577044658168035
 40
2.603797890893106
 40
2.662655002908793
 40
2.721512114949605
 40
2.748265347702784
 40
2.774215307344857
 40
2.845959313407189
 40
2.954338556588386
 40
3.090194227585558
 40
3.244367517100522
 40
3.407699615844276
 40
3.571031714539421
 40
3.725205003920094
 40
3.861060674729594
 40
3.969439917716283
 40
4.041183923628953
 40
4.067133883212946
 40
4.311886746012116
 40
4.547897258335476
 40
4.764747083043918
 40
4.952749679951723
 40
5.045772974195881
 40
5.137862019644952
 40
5.330543169793003
 40
5.553448265243998
 40
5.795083855888152
 40
6.043293412177201
 40
6.285761695541114
 40
6.313902908752597
 40
6.384255941793187
 40
6.475714884766775
 40
6.567173827758838
 40
6.637526860839616
 40
6.665668074073979
 40
6.692018920327957
 40
6.749990782071038
 40
6.807962643790416
 40
6.834313490017895
 40
6.856393084245173
 40
6.913335195649797
 40
6.991194817302461
 40
7.076026942283722
 40
7.153886563725212
 40
7.210828674844795
 40
7.23290826893113
 40
7.258199334923649
 40
7.324875781592294
 40
7.419142481924945
 40
7.527204308841878
 40
7.635266135230449
 40
7.729532834168431
 40
7.796209279292746
 40
7.821500344594689
 40
7.844652988850759
 40
7.899863140541537
 40
7.965759128053702
 40
8.020969279770986
 40
8.044121924046452
 40
8.069356610160545
 40
8.10913439544131
 40
8.132238100191026
 40
8.193147867786392
 40
8.279261678876571
 40
8.37797751267379
 40
8.47669334714658
 40
8.562807160411637
 40
8.623716930826426
 40
8.64682063685338
 40
8.671988793774194
 40
8.734909185828105
 40
8.81670569518882
 40
8.89850220481539
 40
8.961422597377851
 40
8.986590754550964
 40
9.012941600733123
 40
9.070913462380219
 40
9.128885324081722
 40
9.155236170325049
 40
9.180404327929091
 40
9.243324721948165
 40
9.325121234211958
 40
9.406917746637612
 40
9.469838141978068
 40
9.495006288270842
 40
9.517811184378978
 40
9.57219209048696
 40
9.637098333281166
 40
9.69147923951535
 40
9.714284125643383
 40
9.714284125643383
 40
9.714284125643383
 40
9.714284125643383
 10
185.2874469028653
 20
15.26889163187721
 30
0.0
 10
185.3090990569038
 20
15.24111869242813
 30
0.0
 10
185.3597257109474
 20
15.17618054561238
 30
0.0
 10
185.4349383202592
 20
15.06891060312899
 30
0.0
 10
185.5248482274347
 20
14.95377438266626
 30
0.0
 10
185.5709169676673
 20
14.8535704574832
 30
0.0
 10
185.6655825294655
 20
14.78434006814942
 30
0.0
 10
185.6204439320412
 20
14.73771639678274
 30
0.0
 10
185.5947047785789
 20
14.69660308866039
 30
0.0
 10
185.5645196708012
 20
14.6606597172794
 30
0.0
 10
185.5193684730562
 20
14.58579782596094
 30
0.0
 10
185.4710504458563
 20
14.80782524253605
 30
0.0
 10
185.3968539713072
 20
14.84510677337708
 30
0.0
 10
185.2836047324608
 20
15.116102021306
 30
0.0
 10
185.2885133578169
 20
15.00095328446228
 30
0.0
 10
185.2868486556306
 20
14.92836675781626
 30
0.0
 10
185.2876830076713
 20
14.80625588483985
 30
0.0
 10
185.2873609540264
 20
14.65913800810459
 30
0.0
 10
185.2875076912455
 20
14.49307063956556
 30
0.0
 10
185.2872950092723
 20
14.32187554608601
 30
0.0
 10
185.2879497252034
 20
14.15552828635497
 30
0.0
 10
185.2859192461139
 20
14.00935173055692
 30
0.0
 10
185.291346039993
 20
13.88471047474609
 30
0.0
 10
185.2804930868708
 20
13.81718656540625
 30
0.0
 10
185.2956739155555
 20
13.75549061417021
 30
0.0
 10
185.2457895108133
 20
13.76727503897001
 30
0.0
 10
185.2017150342522
 20
13.75943822779968
 30
0.0
 10
185.1582371630201
 20
13.76760441372702
 30
0.0
 10
185.1092346786488
 20
13.75538056738467
 30
0.0
 10
185.1218731234825
 20
13.80960667249312
 30
0.0
 10
185.1130182968449
 20
13.86936918907556
 30
0.0
 10
185.1175058770314
 20
13.97922029044369
 30
0.0
 10
185.1157960135991
 20
14.11029975405676
 30
0.0
 10
185.1163550915986
 20
14.26198011444326
 30
0.0
 10
185.1161928768694
 20
14.42211074929951
 30
0.0
 10
185.1162269924674
 20
14.58236865674563
 30
0.0
 10
185.1162514960127
 20
14.73370247520436
 30
0.0
 10
185.1161453543224
 20
14.86582156338597
 30
0.0
 10
185.1164299141931
 20
14.97294802533189
 30
0.0
 10
185.1158675547568
 20
15.0380861957947
 30
0.0
 10
185.1180765083688
 20
15.1661895785867
 30
0.0
 10
185.0319435998602
 20
14.79097610391573
 30
0.0
 10
184.95551408185
 20
14.63918193123393
 30
0.0
 10
184.8660040767833
 20
14.47766206446304
 30
0.0
 10
184.7640413217326
 20
14.20471848820168
 30
0.0
 10
184.7187976491039
 20
14.36717346596512
 30
0.0
 10
184.610235594167
 20
14.45605432058119
 30
0.0
 10
184.7995791751752
 20
14.60549794961409
 30
0.0
 10
184.85653405457
 20
14.79749136974925
 30
0.0
 10
184.9717520993352
 20
15.02899622906756
 30
0.0
 10
184.9940151630132
 20
15.21797259759062
 30
0.0
 10
185.1771905152139
 20
15.49454089325923
 30
0.0
 10
185.0538033597552
 20
15.4869897883209
 30
0.0
 10
184.9925684166834
 20
15.48856772366114
 30
0.0
 10
184.9081999617064
 20
15.48882592573667
 30
0.0
 10
184.8204235085966
 20
15.48544845751201
 30
0.0
 10
184.7656768696122
 20
15.49394814982015
 30
0.0
 10
184.7104703026025
 20
15.48048561049783
 30
0.0
 10
184.7222823035536
 20
15.52931442126759
 30
0.0
 10
184.7142496151794
 20
15.57269004896705
 30
0.0
 10
184.7228186104679
 20
15.6150943830957
 30
0.0
 10
184.7102943409156
 20
15.66267796552116
 30
0.0
 10
184.7555101538736
 20
15.65267212995107
 30
0.0
 10
184.8014815562723
 20
15.65894105174059
 30
0.0
 10
184.877722204771
 20
15.6559356140587
 30
0.0
 10
184.9561296131993
 20
15.65770448278539
 30
0.0
 10
185.0323992648932
 20
15.65464793981658
 30
0.0
 10
185.0783009459475
 20
15.66103971376176
 30
0.0
 10
185.12317339654
 20
15.65093822978894
 30
0.0
 10
185.1105552275634
 20
15.70157201581896
 30
0.0
 10
185.1191936582707
 20
15.75501261882067
 30
0.0
 10
185.1152361595443
 20
15.84863255131677
 30
0.0
 10
185.1162325068335
 20
15.9511260668892
 30
0.0
 10
185.1171927413073
 20
16.05353270248158
 30
0.0
 10
185.1133211458005
 20
16.14735929609316
 30
0.0
 10
185.1217789814365
 20
16.20036542840347
 30
0.0
 10
185.1093075932835
 20
16.25211435651182
 30
0.0
 10
185.154210638985
 20
16.23850747226752
 30
0.0
 10
185.1955083836771
 20
16.24100480320581
 30
0.0
 10
185.259534428105
 20
16.23648060574485
 30
0.0
 10
185.2986111148786
 20
16.22781003043308
 30
0.0
 10
185.3476543498742
 20
16.23515102070687
 30
0.0
 10
185.3225080030591
 20
16.19602896051758
 30
0.0
 10
185.2815901333723
 20
16.20563842455809
 30
0.0
 10
185.2910109616604
 20
16.15540148169779
 30
0.0
 10
185.2855647318746
 20
16.10385945639491
 30
0.0
 10
185.2881699601804
 20
16.0195970758452
 30
0.0
 10
185.2870102202154
 20
15.92559135583408
 30
0.0
 10
185.2883591064231
 20
15.83196865395524
 30
0.0
 10
185.284997010151
 20
15.74679517552222
 30
0.0
 10
185.2920959917768
 20
15.69716856072042
 30
0.0
 10
185.2812569154546
 20
15.64993694969987
 30
0.0
 10
185.3304010225245
 20
15.6620167493685
 30
0.0
 10
185.3794877630147
 20
15.65447393363009
 30
0.0
 10
185.4573714280641
 20
15.65686070361431
 30
0.0
 10
185.5350365172895
 20
15.65899381905412
 30
0.0
 10
185.5845393931355
 20
15.65193391922453
 30
0.0
 10
185.6344594750638
 20
15.66360151936212
 30
0.0
 10
185.6223198516881
 20
15.6154023537139
 30
0.0
 10
185.6305838229144
 20
15.57249219801232
 30
0.0
 10
185.6223198650783
 20
15.5295820185138
 30
0.0
 10
185.6344594549854
 20
15.4813828875486
 30
0.0
 10
185.5845395158746
 20
15.49305034471505
 30
0.0
 10
185.5350350651202
 20
15.48599202435041
 30
0.0
 10
185.4573784382973
 20
15.48811665228598
 30
0.0
 10
185.379464386576
 20
15.49053389365755
 30
0.0
 10
185.3304500352716
 20
15.4829184819448
 30
0.0
 10
185.2813246108943
 20
15.49507952557587
 30
0.0
 10
185.2915559988571
 20
15.45073013424154
 30
0.0
 10
185.2856677678053
 20
15.40925436202909
 30
0.0
 10
185.2878788305569
 20
15.34915394315302
 30
0.0
 10
185.2874109346145
 20
15.30225782762889
 30
0.0
 10
185.2874386992913
 20
15.27650146418198
 30
0.0
 10
185.2874469028653
 20
15.26889163187721
 30
0.0
 11
185.2874469028653
 21
15.26889163187721
 31
0.0
 11
185.3516977534484
 21
15.18524999634258
 31
0.0
 11
185.4348258835499
 21
15.07118889748222
 31
0.0
 11
185.5216831568896
 21
14.94891767195724
 31
0.0
 11
185.5971214371872
 21
14.84064565642876
 31
0.0
 11
185.6459925881626
 21
14.7685821875579
 31
0.0
 11
185.6296821285093
 21
14.74641782124399
 31
0.0
 11
185.5937991172719
 21
14.6976562153534
 31
0.0
 11
185.5579161060346
 21
14.64889460946281
 31
0.0
 11
185.5416056463813
 21
14.6267302431489
 31
0.0
 11
185.4763067109446
 21
14.74716139023813
 31
0.0
 11
185.3848434243234
 21
14.89966983670205
 31
0.0
 11
185.2874469028653
 21
15.05219788193141
 31
0.0
 11
185.2874469028653
 21
15.02216445328252
 31
0.0
 11
185.2874469028653
 21
14.93981472956782
 31
0.0
 11
185.2874469028653
 21
14.81677455413527
 31
0.0
 11
185.2874469028653
 21
14.66466977033282
 31
0.0
 11
185.2874469028653
 21
14.49512622150844
 31
0.0
 11
185.2874469028653
 21
14.31976975101008
 31
0.0
 11
185.2874469028653
 21
14.1502262021857
 31
0.0
 11
185.2874469028653
 21
13.99812141838325
 31
0.0
 11
185.2874469028653
 21
13.8750812429507
 31
0.0
 11
185.2874469028653
 21
13.792731519236
 31
0.0
 11
185.2874469028653
 21
13.76269809058711
 31
0.0
 11
185.2606936700409
 21
13.76269809058711
 31
0.0
 11
185.2018365578272
 21
13.76269809058711
 31
0.0
 11
185.1429794456134
 21
13.76269809058711
 31
0.0
 11
185.116226212789
 21
13.76269809058711
 31
0.0
 11
185.116226212789
 21
13.78864805031249
 31
0.0
 11
185.116226212789
 21
13.86039205661207
 31
0.0
 11
185.116226212789
 21
13.968771300171
 31
0.0
 11
185.116226212789
 21
14.10462697167445
 31
0.0
 11
185.116226212789
 21
14.25880026180759
 31
0.0
 11
185.116226212789
 21
14.42213236125556
 31
0.0
 11
185.116226212789
 21
14.58546446070353
 31
0.0
 11
185.116226212789
 21
14.73963775083667
 31
0.0
 11
185.116226212789
 21
14.87549342234012
 31
0.0
 11
185.116226212789
 21
14.98387266589905
 31
0.0
 11
185.116226212789
 21
15.05561667219863
 31
0.0
 11
185.116226212789
 21
15.08156663192401
 31
0.0
 11
185.0379865861721
 21
14.8496560330237
 31
0.0
 11
184.9497110789303
 21
14.63077616328676
 31
0.0
 11
184.8544106930045
 21
14.43598991333545
 31
0.0
 11
184.7550964303356
 21
14.276360173792
 31
0.0
 11
184.7109198342406
 21
14.358224461966
 31
0.0
 11
184.658805738348
 21
14.43414885430811
 31
0.0
 11
184.7627302590299
 21
14.59640087926757
 31
0.0
 11
184.8629319864735
 21
14.79551465421781
 31
0.0
 11
184.9550446607901
 21
15.01890447916196
 31
0.0
 11
185.0347020220912
 21
15.25398465410318
 31
0.0
 11
185.097537810488
 21
15.4881694790446
 31
0.0
 11
185.0693965972142
 21
15.4881694790446
 31
0.0
 11
184.9990435640297
 21
15.4881694790446
 31
0.0
 11
184.9075846208898
 21
15.4881694790446
 31
0.0
 11
184.8161256777499
 21
15.4881694790446
 31
0.0
 11
184.7457726445654
 21
15.4881694790446
 31
0.0
 11
184.7176314312916
 21
15.4881694790446
 31
0.0
 11
184.7176314312916
 21
15.51452032539218
 31
0.0
 11
184.7176314312916
 21
15.57249218735685
 31
0.0
 11
184.7176314312916
 21
15.63046404932152
 31
0.0
 11
184.7176314312916
 21
15.6568148956691
 31
0.0
 11
184.739711025602
 21
15.6568148956691
 31
0.0
 11
184.7966531372444
 21
15.6568148956691
 31
0.0
 11
184.8745127592862
 21
15.6568148956691
 31
0.0
 11
184.9593448847944
 21
15.6568148956691
 31
0.0
 11
185.0372045068361
 21
15.6568148956691
 31
0.0
 11
185.0941466184786
 21
15.6568148956691
 31
0.0
 11
185.116226212789
 21
15.6568148956691
 31
0.0
 11
185.116226212789
 21
15.68210596174351
 31
0.0
 11
185.116226212789
 21
15.74878240866694
 31
0.0
 11
185.116226212789
 21
15.84304910948974
 31
0.0
 11
185.116226212789
 21
15.9511109372622
 31
0.0
 11
185.116226212789
 21
16.05917276503467
 31
0.0
 11
185.116226212789
 21
16.15343946585746
 31
0.0
 11
185.116226212789
 21
16.22011591278089
 31
0.0
 11
185.116226212789
 21
16.2454069788553
 31
0.0
 11
185.1393181988665
 21
16.24373213107795
 31
0.0
 11
185.1943837041284
 21
16.23973826330118
 31
0.0
 11
185.2601070491184
 21
16.23497138885794
 31
0.0
 11
185.3151725543802
 21
16.23097752108117
 31
0.0
 11
185.3382645404578
 21
16.22930267330381
 31
0.0
 11
185.3249012644362
 21
16.20789677921191
 31
0.0
 11
185.2874469028653
 21
16.1945011455347
 31
0.0
 11
185.2874469028653
 21
16.17139743948579
 31
0.0
 11
185.2874469028653
 21
16.1104876689932
 31
0.0
 11
185.2874469028653
 21
16.02437385553816
 31
0.0
 11
185.2874469028653
 21
15.9256580206019
 31
0.0
 11
185.2874469028653
 21
15.82694218566564
 31
0.0
 11
185.2874469028653
 21
15.7408283722106
 31
0.0
 11
185.2874469028653
 21
15.67991860171801
 31
0.0
 11
185.2874469028653
 21
15.6568148956691
 31
0.0
 11
185.3126150604809
 21
15.6568148956691
 31
0.0
 11
185.3755354545199
 21
15.6568148956691
 31
0.0
 11
185.4573319667706
 21
15.6568148956691
 31
0.0
 11
185.5391284790212
 21
15.6568148956691
 31
0.0
 11
185.6020488730602
 21
15.6568148956691
 31
0.0
 11
185.6272170306758
 21
15.6568148956691
 31
0.0
 11
185.6272170306758
 21
15.63046404932152
 31
0.0
 11
185.6272170306758
 21
15.57249218735685
 31
0.0
 11
185.6272170306758
 21
15.51452032539218
 31
0.0
 11
185.6272170306758
 21
15.4881694790446
 31
0.0
 11
185.6020488730602
 21
15.4881694790446
 31
0.0
 11
185.5391284790212
 21
15.4881694790446
 31
0.0
 11
185.4573319667705
 21
15.4881694790446
 31
0.0
 11
185.3755354545199
 21
15.4881694790446
 31
0.0
 11
185.3126150604809
 21
15.4881694790446
 31
0.0
 11
185.2874469028653
 21
15.4881694790446
 31
0.0
 11
185.2874469028653
 21
15.46536458293919
 31
0.0
 11
185.2874469028653
 21
15.41098367684168
 31
0.0
 11
185.2874469028653
 21
15.34607743408013
 31
0.0
 11
185.2874469028653
 21
15.29169652798262
 31
0.0
 11
185.2874469028653
 21
15.26889163187721
 31
0.0
  0
SPLINE
  5
AB
102
{ACAD_REACTORS
330
C8
102
}
330
48
100
AcDbEntity
  8
_U_30EC_U_30A4_U_30E4_U_30FC_1
  6
Continuous
 62
     2
100
AcDbSpline
210
0.0
220
0.0
230
1.0
 70
    11
 71
     3
 72
    91
 73
    87
 74
    85
 42
0.000000001
 43
0.0000000001
 44
0.00000001
 40
0.0
 40
0.0
 40
0.0
 40
0.0
 40
0.0345987051695718
 40
0.1258134969461369
 40
0.2547723404888987
 40
0.4026032099154125
 40
0.5504340793416704
 40
0.679392922883608
 40
0.7706077146571035
 40
0.8052064287780925
 40
1.124852390615283
 40
1.427402236308885
 40
1.706356627453533
 40
1.955541417875225
 40
2.169485938566378
 40
2.344350786664837
 40
2.480568411561991
 40
2.590440557429013
 40
2.649189927151165
 40
2.749320643306366
 40
2.912632739880066
 40
3.147745656000266
 40
3.24482749638514
 40
3.338490056946736
 40
3.583815413207149
 40
3.7614239432385
 40
3.886956104362658
 40
3.985855451886819
 40
4.091766255337703
 40
4.250186473811897
 40
4.422734315084541
 40
4.628285684838638
 40
4.87209322775847
 40
5.152549652145582
 40
5.464967135837563
 40
5.803201477852482
 40
6.160362988813956
 40
6.193449448276011
 40
6.284170385501666
 40
6.419718138764535
 40
6.587285046385785
 40
6.7740634467237
 40
6.967245678113683
 40
7.154024078817669
 40
7.321590987026054
 40
7.457138740890413
 40
7.547859678556149
 40
7.580946138182709
 40
7.608533084714759
 40
7.669224367077732
 40
7.729915649429946
 40
7.757502595949996
 40
7.790278062553449
 40
7.880146277430947
 40
8.01441996318041
 40
8.18041184239791
 40
8.36543463767938
 40
8.556801071622681
 40
8.741823866830794
 40
8.907815745916304
 40
9.042089431507458
 40
9.131957646249584
 40
9.16473311279716
 40
9.41542506314007
 40
9.667986180958524
 40
9.694169807462691
 40
9.75660768604765
 40
9.831130315322456
 40
9.89356819389992
 40
9.919751820398737
 40
9.950967964690584
 40
9.996421631210703
 40
10.22087981037454
 40
10.44341866197542
 40
10.47847970788854
 40
10.57091337438755
 40
10.70159545461229
 40
10.8514017417036
 40
11.00120802880477
 40
11.13189010907382
 40
11.2243237758301
 40
11.25938480938956
 40
11.28697175596145
 40
11.34766303835918
 40
11.40835432042068
 40
11.43594125892103
 40
11.43594125892103
 40
11.43594125892103
 40
11.43594125892103
 10
190.0818114333289
 20
15.55242795125081
 30
0.0
 10
190.0702785844941
 20
15.55242790287919
 30
0.0
 10
190.0283409444998
 20
15.55242773704168
 30
0.0
 10
189.9434129719026
 20
15.55243125800913
 30
0.0
 10
189.8207688553128
 20
15.55240926435882
 30
0.0
 10
189.6791206916993
 20
15.55250801177058
 30
0.0
 10
189.537975369849
 20
15.55214686232425
 30
0.0
 10
189.4141351317905
 20
15.55321883609093
 30
0.0
 10
189.3317217825381
 20
15.55092249091272
 30
0.0
 10
189.1727791229692
 20
15.56048569373424
 30
0.0
 10
189.3503402353375
 20
15.19785394311374
 30
0.0
 10
189.3379739205453
 20
14.95243127723116
 30
0.0
 10
189.4064519473864
 20
14.66862501324837
 30
0.0
 10
189.469302432097
 20
14.43250999939037
 30
0.0
 10
189.5452253431729
 20
14.2332674039613
 30
0.0
 10
189.6303189577015
 20
14.07745347451373
 30
0.0
 10
189.7244607592936
 20
13.97657857781392
 30
0.0
 10
189.8282648207727
 20
13.92465852638964
 30
0.0
 10
189.9125872030774
 20
13.97606484379615
 30
0.0
 10
189.9351322179452
 20
14.09144544037516
 30
0.0
 10
189.9745730975371
 20
14.21885149702378
 30
0.0
 10
189.9202919734942
 20
14.53622328086751
 30
0.0
 10
190.0451218072473
 20
14.38982180140907
 30
0.0
 10
190.2019291513603
 20
14.3579530033117
 30
0.0
 10
190.0947720007057
 20
14.1242135776763
 30
0.0
 10
190.0808711209866
 20
13.95972776583658
 30
0.0
 10
190.0234709467226
 20
13.83130869122486
 30
0.0
 10
189.9335020145008
 20
13.76018802352829
 30
0.0
 10
189.8095274657877
 20
13.74432324142257
 30
0.0
 10
189.663427319686
 20
13.77993797554175
 30
0.0
 10
189.5243894320284
 20
13.9000057050028
 30
0.0
 10
189.4102003962144
 20
14.07435682550323
 30
0.0
 10
189.3146141301485
 20
14.29946603111244
 30
0.0
 10
189.2318652572627
 20
14.56388246006446
 30
0.0
 10
189.1807179256411
 20
14.88187933098546
 30
0.0
 10
189.0770189207339
 20
15.15543728488917
 30
0.0
 10
189.204284120852
 20
15.56005818612871
 30
0.0
 10
189.0357890623018
 20
15.55112367849682
 30
0.0
 10
188.9511995787077
 20
15.55315961418367
 30
0.0
 10
188.8189876387627
 20
15.5521393738841
 30
0.0
 10
188.6560505094104
 20
15.55253230318434
 30
0.0
 10
188.4733759170532
 20
15.55235696313372
 30
0.0
 10
188.2847057373383
 20
15.55260105307472
 30
0.0
 10
188.1014469020189
 20
15.5518565790624
 30
0.0
 10
187.9404746832718
 20
15.55416360522429
 30
0.0
 10
187.8029808335276
 20
15.54799804883666
 30
0.0
 10
187.7289590372311
 20
15.56032838458215
 30
0.0
 10
187.6613215186856
 20
15.5432932372356
 30
0.0
 10
187.673237371927
 20
15.59524438447531
 30
0.0
 10
187.6655677285694
 20
15.64071424966532
 30
0.0
 10
187.6732592225115
 20
15.68614453703708
 30
0.0
 10
187.6613141797762
 20
15.73802395984572
 30
0.0
 10
187.7283588305866
 20
15.72119143490266
 30
0.0
 10
187.8017375665677
 20
15.73335409092673
 30
0.0
 10
187.9379128305271
 20
15.7272723107496
 30
0.0
 10
188.0973811801513
 20
15.7295483431506
 30
0.0
 10
188.2789173085836
 20
15.72881233998964
 30
0.0
 10
188.4658034862179
 20
15.72905954196136
 30
0.0
 10
188.6468012316836
 20
15.72886400799256
 30
0.0
 10
188.8080802578878
 20
15.72932234714841
 30
0.0
 10
188.9393882124887
 20
15.72812673751208
 30
0.0
 10
189.0225051322597
 20
15.73051347319744
 30
0.0
 10
189.1556236547813
 20
15.72230605725466
 30
0.0
 10
189.0645893502659
 20
15.97752868952656
 30
0.0
 10
188.9789633074419
 20
16.24164358328245
 30
0.0
 10
189.0990589003455
 20
16.22904442969165
 30
0.0
 10
189.1514264948544
 20
16.22694235763075
 30
0.0
 10
189.2214497569715
 20
16.22535399889657
 30
0.0
 10
189.2671922337817
 20
16.21602567538113
 30
0.0
 10
189.3220812646933
 20
16.22545966915428
 30
0.0
 10
189.2963574785681
 20
16.17733028655172
 30
0.0
 10
189.1825397571453
 20
16.18266829744161
 30
0.0
 10
189.3159346621136
 20
15.95449174576778
 30
0.0
 10
189.1943658735471
 20
15.72156856595925
 30
0.0
 10
189.3223188769413
 20
15.73087258884441
 30
0.0
 10
189.4049048406461
 20
15.72801001754682
 30
0.0
 10
189.5307214850824
 20
15.72923437412305
 30
0.0
 10
189.6741469838057
 20
15.72932431888966
 30
0.0
 10
189.8157420951728
 20
15.72746163183855
 30
0.0
 10
189.9459127249967
 20
15.73333075937165
 30
0.0
 10
190.0193452286191
 20
15.72070340823206
 30
0.0
 10
190.0891112922097
 20
15.73877563110415
 30
0.0
 10
190.0775772605396
 20
15.68612850546328
 30
0.0
 10
190.0833184346682
 20
15.6422131768655
 30
0.0
 10
190.0816615770911
 20
15.59089982676553
 30
0.0
 10
190.0817757561669
 20
15.56158792021638
 30
0.0
 10
190.0818114333289
 20
15.55242795125081
 30
0.0
 11
190.0818114333289
 21
15.55242795125081
 31
0.0
 11
190.0472127192051
 21
15.55242795125081
 31
0.0
 11
189.9559979274241
 21
15.55242795125081
 31
0.0
 11
189.8270390838717
 21
15.55242795125081
 31
0.0
 11
189.6792082144335
 21
15.55242795125081
 31
0.0
 11
189.5313773449954
 21
15.55242795125081
 31
0.0
 11
189.402418501443
 21
15.55242795125081
 31
0.0
 11
189.311203709662
 21
15.55242795125081
 31
0.0
 11
189.2766049955382
 21
15.55242795125081
 31
0.0
 11
189.3083140497693
 21
15.23435864930124
 31
0.0
 11
189.3527866656865
 21
14.93509522788083
 31
0.0
 11
189.4092389118319
 21
14.66191269512578
 31
0.0
 11
189.4768868567478
 21
14.42208605917228
 31
0.0
 11
189.5549465689761
 21
14.22289032815655
 31
0.0
 11
189.6426341170591
 21
14.07160051021477
 31
0.0
 11
189.7391655695388
 21
13.97549161348316
 31
0.0
 11
189.8437569949575
 21
13.94183864609791
 31
0.0
 11
189.8943077302786
 21
13.97177376978834
 31
0.0
 11
189.9310588991551
 21
14.06491619815046
 31
0.0
 11
189.9562640977528
 21
14.22627151712052
 31
0.0
 11
189.9721769222368
 21
14.4608453126348
 31
0.0
 11
190.0494082682583
 21
14.40202182306619
 31
0.0
 11
190.1327184184385
 21
14.3592188543269
 31
0.0
 11
190.1066365811217
 21
14.11528388661011
 31
0.0
 11
190.0673317805105
 21
13.94207902887564
 31
0.0
 11
190.0105702596765
 21
13.8301127244592
 31
0.0
 11
189.932118261691
 21
13.76989341669649
 31
0.0
 11
189.8277420296256
 21
13.7519295489232
 31
0.0
 11
189.6738595065097
 21
13.78957440012364
 31
0.0
 11
189.5388902376747
 21
13.89707348877406
 31
0.0
 11
189.4221739916163
 21
14.06627361744812
 31
0.0
 11
189.32305053683
 21
14.28902158871947
 31
0.0
 11
189.2408596418113
 21
14.55716420516176
 31
0.0
 11
189.1749410750559
 21
14.86254826934864
 31
0.0
 11
189.1246346050593
 21
15.19702058385377
 31
0.0
 11
189.0892800003171
 21
15.55242795125081
 31
0.0
 11
189.0561935405844
 21
15.55242795125081
 31
0.0
 11
188.9654726026075
 21
15.55242795125081
 31
0.0
 11
188.8299248482185
 21
15.55242795125081
 31
0.0
 11
188.6623579392495
 21
15.55242795125081
 31
0.0
 11
188.4755795375324
 21
15.55242795125081
 31
0.0
 11
188.2823973048992
 21
15.55242795125081
 31
0.0
 11
188.0956189031822
 21
15.55242795125081
 31
0.0
 11
187.9280519942131
 21
15.55242795125081
 31
0.0
 11
187.7925042398241
 21
15.55242795125081
 31
0.0
 11
187.7017833018473
 21
15.55242795125081
 31
0.0
 11
187.6686968421145
 21
15.55242795125081
 31
0.0
 11
187.6686968421145
 21
15.5800148978585
 31
0.0
 11
187.6686968421145
 21
15.64070618039541
 31
0.0
 11
187.6686968421145
 21
15.70139746293231
 31
0.0
 11
187.6686968421145
 21
15.72898440954
 31
0.0
 11
187.7014723087631
 21
15.72898440954
 31
0.0
 11
187.7913405237673
 21
15.72898440954
 31
0.0
 11
187.9256142097148
 21
15.72898440954
 31
0.0
 11
188.0916060891932
 21
15.72898440954
 31
0.0
 11
188.2766288847901
 21
15.72898440954
 31
0.0
 11
188.4679953190932
 21
15.72898440954
 31
0.0
 11
188.6530181146902
 21
15.72898440954
 31
0.0
 11
188.8190099941685
 21
15.72898440954
 31
0.0
 11
188.953283680116
 21
15.72898440954
 31
0.0
 11
189.0431518951202
 21
15.72898440954
 31
0.0
 11
189.0759273617688
 21
15.72898440954
 31
0.0
 11
189.0659183950103
 21
15.97947647544959
 31
0.0
 11
189.0599112510663
 21
16.23196614552531
 31
0.0
 11
189.0860575870659
 21
16.23056921608122
 31
0.0
 11
189.1484065421419
 21
16.22723807663761
 31
0.0
 11
189.2228230369099
 21
16.2232622005275
 31
0.0
 11
189.2851719919859
 21
16.21993106108389
 31
0.0
 11
189.3113183279855
 21
16.2185341316398
 31
0.0
 11
189.298293111304
 21
16.19016528616079
 31
0.0
 11
189.2551649266405
 21
16.17581274276161
 31
0.0
 11
189.2574991961821
 21
15.9513667011511
 31
0.0
 11
189.2658452735903
 21
15.72898440954
 31
0.0
 11
189.3009063195165
 21
15.72898440954
 31
0.0
 11
189.3933399860495
 21
15.72898440954
 31
0.0
 11
189.5240220663201
 21
15.72898440954
 31
0.0
 11
189.6738283534596
 21
15.72898440954
 31
0.0
 11
189.8236346405991
 21
15.72898440954
 31
0.0
 11
189.9543167208697
 21
15.72898440954
 31
0.0
 11
190.0467503874027
 21
15.72898440954
 31
0.0
 11
190.0818114333289
 21
15.72898440954
 31
0.0
 11
190.0818114333289
 21
15.70139746293231
 31
0.0
 11
190.0818114333289
 21
15.64070618039541
 31
0.0
 11
190.0818114333289
 21
15.5800148978585
 31
0.0
 11
190.0818114333289
 21
15.55242795125081
 31
0.0
  0
SPLINE
  5
AC
102
{ACAD_REACTORS
330
C9
102
}
330
48
100
AcDbEntity
  8
_U_30EC_U_30A4_U_30E4_U_30FC_1
  6
Continuous
 62
     2
100
AcDbSpline
210
0.0
220
0.0
230
1.0
 70
    11
 71
     3
 72
    75
 73
    71
 74
    69
 42
0.000000001
 43
0.0000000001
 44
0.00000001
 40
0.0
 40
0.0
 40
0.0
 40
0.0
 40
0.0342546099129673
 40
0.1245622414432364
 40
0.2522385480897554
 40
0.3985991922940715
 40
0.544959836498091
 40
0.6726361431438941
 40
0.7629437746737031
 40
0.7971983935298079
 40
1.101723623449676
 40
1.408591244036685
 40
1.433332471690383
 40
1.487763172450167
 40
1.542193873081982
 40
1.566935100592527
 40
1.923523931821846
 40
2.271755704953649
 40
2.590579755100893
 40
2.858943305581148
 40
2.889120339309192
 40
2.918305855191141
 40
2.941366645531267
 40
2.996357760973162
 40
3.061992318140713
 40
3.116983433626915
 40
3.140044223997596
 40
3.411273122936525
 40
3.732441619741187
 40
3.761068217532885
 40
3.83778749963044
 40
3.948858699126075
 40
4.080541049104443
 40
4.219093782625817
 40
4.350776132722361
 40
4.461847332405688
 40
4.538566614678416
 40
4.567193212544661
 40
4.594907573998919
 40
4.666381453557458
 40
4.764111044011068
 40
4.870592538125871
 40
4.968322128642322
 40
5.039796008287007
 40
5.067510369784467
 40
5.094263603185681
 40
5.153120716668315
 40
5.211977830150762
 40
5.238731063551768
 40
5.272290535139007
 40
5.363380529444868
 40
5.497618415781545
 40
5.660621563453788
 40
5.838007341749488
 40
6.01539311991084
 40
6.178396267038465
 40
6.312634151842417
 40
6.403724143059407
 40
6.437283612672502
 40
6.464036846261116
 40
6.522893960004735
 40
6.581751071484
 40
6.608504301590946
 40
6.637253941281093
 40
6.711397748902945
 40
6.812778057283557
 40
6.923237199249334
 40
7.024617507623978
 40
7.09876131520763
 40
7.127510946007581
 40
7.127510946007581
 40
7.127510946007581
 40
7.127510946007581
 10
188.4418622390564
 20
14.9584912847326
 30
0.0
 10
188.4418622819707
 20
14.94707313408716
 30
0.0
 10
188.4418624481128
 20
14.90555257842625
 30
0.0
 10
188.4418593081787
 20
14.82146922003767
 30
0.0
 10
188.44187882798
 20
14.70004497322324
 30
0.0
 10
188.4417912187738
 20
14.55980494047443
 30
0.0
 10
188.442111623523
 20
14.42006556794572
 30
0.0
 10
188.441160590974
 20
14.29745038894923
 30
0.0
 10
188.4431978595968
 20
14.21587074438038
 30
0.0
 10
188.4349433178745
 20
14.06271267077692
 30
0.0
 10
188.7430797940901
 20
14.22560236054718
 30
0.0
 10
189.0350645173737
 20
14.39482938688003
 30
0.0
 10
189.0408354448707
 20
14.25973235781911
 30
0.0
 10
189.0455471719891
 20
14.21617221160445
 30
0.0
 10
189.0482535411918
 20
14.17211249350547
 30
0.0
 10
189.0672545672957
 20
14.02272590363135
 30
0.0
 10
188.6583942247303
 20
14.08681172241261
 30
0.0
 10
188.3793710348832
 20
13.97296341411015
 30
0.0
 10
188.1018081587166
 20
13.87364095811138
 30
0.0
 10
187.8099837184401
 20
13.91630687596356
 30
0.0
 10
187.7869144678658
 20
13.81321679744538
 30
0.0
 10
187.7537474383333
 20
13.78691091244465
 30
0.0
 10
187.7480653962738
 20
13.834553090363
 30
0.0
 10
187.7284214559045
 20
13.87180336115066
 30
0.0
 10
187.7095089485623
 20
13.93007387847561
 30
0.0
 10
187.6942849867707
 20
13.97385201007802
 30
0.0
 10
187.6477246372937
 20
14.0875942104631
 30
0.0
 10
187.9890897312449
 20
14.05576301120052
 30
0.0
 10
188.2679649367385
 20
14.02161435106478
 30
0.0
 10
188.2617753034907
 20
14.16913976479653
 30
0.0
 10
188.2630935452773
 20
14.24013150908832
 30
0.0
 10
188.2624831689948
 20
14.34719767958662
 30
0.0
 10
188.2625871570725
 20
14.47398529785996
 30
0.0
 10
188.2629987964055
 20
14.60849243496048
 30
0.0
 10
188.2613907841969
 20
14.73395549951181
 30
0.0
 10
188.2659902567924
 20
14.84505246719113
 30
0.0
 10
188.256418650221
 20
14.90761886800685
 30
0.0
 10
188.2704001783691
 20
14.96595388294997
 30
0.0
 10
188.2147384386705
 20
14.95289710582233
 30
0.0
 10
188.1575655197821
 20
14.96136307749495
 30
0.0
 10
188.0616048925648
 20
14.95729976080632
 30
0.0
 10
187.963376752282
 20
14.9597088985247
 30
0.0
 10
187.8672582457561
 20
14.95551600613384
 30
0.0
 10
187.810464852581
 20
14.96429346441158
 30
0.0
 10
187.7550356873384
 20
14.95094936850117
 30
0.0
 10
187.7670679427917
 20
15.00036910959253
 30
0.0
 10
187.7592003173938
 20
15.04393988030391
 30
0.0
 10
187.7666295563828
 20
15.08830469118521
 30
0.0
 10
187.7551930564144
 20
15.13902297763987
 30
0.0
 10
187.8232102370133
 20
15.12162460757739
 30
0.0
 10
187.8968496879747
 20
15.13417450237185
 30
0.0
 10
188.0325064058211
 20
15.12799677011093
 30
0.0
 10
188.1884909024525
 20
15.1302920309308
 30
0.0
 10
188.3615926358143
 20
15.12940968262525
 30
0.0
 10
188.5346942964181
 20
15.13029207142404
 30
0.0
 10
188.6906789811216
 20
15.12799662955546
 30
0.0
 10
188.8263351889797
 20
15.13417486262427
 30
0.0
 10
188.8999756705652
 20
15.12162394218331
 30
0.0
 10
188.9679914174724
 20
15.13902373012138
 30
0.0
 10
188.9565590885922
 20
15.08830130414551
 30
0.0
 10
188.9639539458298
 20
15.04397060811104
 30
0.0
 10
188.956203991227
 20
15.00028307550192
 30
0.0
 10
188.9681203741877
 20
14.95063590098473
 30
0.0
 10
188.9108170223617
 20
14.96461411338421
 30
0.0
 10
188.8520145789772
 20
14.9553975567325
 30
0.0
 10
188.7525293633199
 20
14.95952268164925
 30
0.0
 10
188.649428009835
 20
14.95822760025884
 30
0.0
 10
188.5537846354573
 20
14.95854077077636
 30
0.0
 10
188.4857467971617
 20
14.95848776697141
 30
0.0
 10
188.4514462213443
 20
14.95849051871652
 30
0.0
 10
188.4418622390564
 20
14.9584912847326
 30
0.0
 11
188.4418622390564
 21
14.9584912847326
 31
0.0
 11
188.4418622390564
 21
14.92423666587181
 31
0.0
 11
188.4418622390564
 21
14.83392903432971
 31
0.0
 11
188.4418622390564
 21
14.70625272766675
 31
0.0
 11
188.4418622390564
 21
14.55989208344335
 31
0.0
 11
188.4418622390564
 21
14.41353143921995
 31
0.0
 11
188.4418622390564
 21
14.28585513255699
 31
0.0
 11
188.4418622390564
 21
14.1955475010149
 31
0.0
 11
188.4418622390564
 21
14.1612928821541
 31
0.0
 11
188.7391932644567
 21
14.22709475713765
 31
0.0
 11
189.0384623627245
 21
14.29496038212071
 31
0.0
 11
189.0405487124976
 21
14.27030727882827
 31
0.0
 11
189.0451386819987
 21
14.2160704515849
 31
0.0
 11
189.0497286514996
 21
14.16183362434154
 31
0.0
 11
189.0518150012728
 21
14.1371805210491
 31
0.0
 11
188.705639688924
 21
14.05163370140897
 31
0.0
 11
188.3669653138838
 21
13.97060877629899
 31
0.0
 11
188.0563731516688
 21
13.89862764024926
 31
0.0
 11
187.7944444777955
 21
13.8402121877899
 31
0.0
 11
187.7817515029292
 21
13.81283442738009
 31
0.0
 11
187.7569794787513
 21
13.79740260446731
 31
0.0
 11
187.7491867589501
 21
13.81910683390633
 31
0.0
 11
187.7306041194242
 21
13.87086307333783
 31
0.0
 11
187.70842483999
 21
13.93263664943349
 31
0.0
 11
187.689842200464
 21
13.98439288886498
 31
0.0
 11
187.6820494806628
 21
14.006097118304
 31
0.0
 11
187.9482776335931
 21
14.05794001759668
 31
0.0
 11
188.2626334936289
 21
14.12373968771911
 31
0.0
 11
188.2626334936289
 21
14.15236628569625
 31
0.0
 11
188.2626334936289
 21
14.22908556827499
 31
0.0
 11
188.2626334936289
 21
14.34015676842631
 31
0.0
 11
188.2626334936289
 21
14.47183911912117
 31
0.0
 11
188.2626334936289
 21
14.61039185333054
 31
0.0
 11
188.2626334936289
 21
14.7420742040254
 31
0.0
 11
188.2626334936289
 21
14.85314540417671
 31
0.0
 11
188.2626334936289
 21
14.92986468675546
 31
0.0
 11
188.2626334936289
 21
14.9584912847326
 31
0.0
 11
188.2349191321108
 21
14.9584912847326
 31
0.0
 11
188.1634452524063
 21
14.9584912847326
 31
0.0
 11
188.06571566179
 21
14.9584912847326
 31
0.0
 11
187.9592341675364
 21
14.9584912847326
 31
0.0
 11
187.8615045769201
 21
14.9584912847326
 31
0.0
 11
187.7900306972156
 21
14.9584912847326
 31
0.0
 11
187.7623163356975
 21
14.9584912847326
 31
0.0
 11
187.7623163356975
 21
14.98524451823285
 31
0.0
 11
187.7623163356975
 21
15.0441016319334
 31
0.0
 11
187.7623163356975
 21
15.10295874563395
 31
0.0
 11
187.7623163356975
 21
15.1297119791342
 31
0.0
 11
187.7958758072874
 21
15.1297119791342
 31
0.0
 11
187.8869658016031
 21
15.1297119791342
 31
0.0
 11
188.0212036879629
 21
15.1297119791342
 31
0.0
 11
188.1842068356856
 21
15.1297119791342
 31
0.0
 11
188.3615926140897
 21
15.1297119791342
 31
0.0
 11
188.5389783924938
 21
15.1297119791342
 31
0.0
 11
188.7019815402164
 21
15.1297119791342
 31
0.0
 11
188.8362194265763
 21
15.1297119791342
 31
0.0
 11
188.9273094208918
 21
15.1297119791342
 31
0.0
 11
188.9608688924818
 21
15.1297119791342
 31
0.0
 11
188.9608688924818
 21
15.10295874563395
 31
0.0
 11
188.9608688924818
 21
15.0441016319334
 31
0.0
 11
188.9608688924818
 21
14.98524451823285
 31
0.0
 11
188.9608688924818
 21
14.9584912847326
 31
0.0
 11
188.9321192527877
 21
14.9584912847326
 31
0.0
 11
188.8579754451555
 21
14.9584912847326
 31
0.0
 11
188.7565951367604
 21
14.9584912847326
 31
0.0
 11
188.6461359947778
 21
14.9584912847326
 31
0.0
 11
188.5447556863827
 21
14.9584912847326
 31
0.0
 11
188.4706118787505
 21
14.9584912847326
 31
0.0
 11
188.4418622390564
 21
14.9584912847326
 31
0.0
  0
SPLINE
  5
AD
102
{ACAD_REACTORS
330
CA
102
}
330
48
100
AcDbEntity
  8
_U_30EC_U_30A4_U_30E4_U_30FC_1
  6
Continuous
 62
     2
100
AcDbSpline
210
0.0
220
0.0
230
1.0
 70
    11
 71
     3
 72
    15
 73
    11
 74
     9
 42
0.000000001
 43
0.0000000001
 44
0.00000001
 40
0.0
 40
0.0
 40
0.0
 40
0.0
 40
0.2785535985096468
 40
0.5215624748199168
 40
0.6076917376040658
 40
0.6938210001741258
 40
0.9405019146455047
 40
1.221691403489124
 40
1.30047187708105
 40
1.379252341684824
 40
1.379252341684824
 40
1.379252341684824
 40
1.379252341684824
 10
189.5681493630999
 20
16.22930267330381
 30
0.0
 10
189.6296017794178
 20
16.17691646592717
 30
0.0
 10
189.7446649974114
 20
16.07882876798226
 30
0.0
 10
190.0397348497244
 20
15.92889785897217
 30
0.0
 10
189.9025147631856
 20
15.84343227515012
 30
0.0
 10
189.8041227843778
 20
15.71085785201555
 30
0.0
 10
189.7130033590649
 20
16.0161698578142
 30
0.0
 10
189.3636839480655
 20
16.07967869465371
 30
0.0
 10
189.511925837657
 20
16.17896509880877
 30
0.0
 10
189.5494081874236
 20
16.21252348402382
 30
0.0
 10
189.5681493630999
 20
16.22930267330381
 30
0.0
 11
189.5681493630999
 21
16.22930267330381
 31
0.0
 11
189.7919222440596
 21
16.06341774278974
 31
0.0
 11
189.9695046306383
 21
15.8975328122756
 31
0.0
 11
189.9066308127979
 21
15.8386674303459
 31
0.0
 11
189.8437569949575
 21
15.7798020484162
 31
0.0
 11
189.6688535117725
 21
15.95375677059491
 31
0.0
 11
189.447825685614
 21
16.127579201107
 31
0.0
 11
189.507987524357
 21
16.1784409372054
 31
0.0
 11
189.5681493630999
 21
16.22930267330381
 31
0.0
  0
SPLINE
  5
AE
102
{ACAD_REACTORS
330
CB
102
}
330
48
100
AcDbEntity
  8
_U_30EC_U_30A4_U_30E4_U_30FC_1
  6
Continuous
 62
     2
100
AcDbSpline
210
0.0
220
0.0
230
1.0
 70
    11
 71
     3
 72
    35
 73
    31
 74
    29
 42
0.000000001
 43
0.0000000001
 44
0.00000001
 40
0.0
 40
0.0
 40
0.0
 40
0.0
 40
0.0335231036620479
 40
0.0713218571711819
 40
0.4278866681487079
 40
0.8116865841964124
 40
1.19819023800006
 40
1.561379546812668
 40
1.659983174622078
 40
1.759315573807235
 40
2.132719617231122
 40
2.525233363588879
 40
2.910815397779746
 40
3.265244364303311
 40
3.592606723582036
 40
3.964386154603971
 40
4.359942131737792
 40
4.758154118639318
 40
4.843846538699938
 40
4.936650065543251
 40
5.256616602537333
 40
5.581707404416072
 40
5.899719158308178
 40
6.198363494280798
 40
6.46630104661586
 40
6.493895311537182
 40
6.559697020196976
 40
6.638234543442552
 40
6.704036252154306
 40
6.731630508423113
 40
6.731630508423113
 40
6.731630508423113
 40
6.731630508423113
 10
191.9736010568669
 20
16.23463843719131
 30
0.0
 10
191.9676006097789
 20
16.22480690542321
 30
0.0
 10
191.9548344099157
 20
16.20388988579797
 30
0.0
 10
191.7949362006553
 20
16.17127126532694
 30
0.0
 10
192.2322025842337
 20
15.88206680336697
 30
0.0
 10
192.4345394828261
 20
15.68041138358436
 30
0.0
 10
192.6819564267973
 20
15.43749387603274
 30
0.0
 10
193.1831513624606
 20
15.36047662757782
 30
0.0
 10
193.012556219897
 20
15.21876939174655
 30
0.0
 10
192.9383299463201
 20
15.01710366209103
 30
0.0
 10
192.6131432248188
 20
15.36956287174722
 30
0.0
 10
192.3277741670664
 20
15.53175212559559
 30
0.0
 10
192.0337604077658
 20
15.73687130053046
 30
0.0
 10
191.8084452691134
 20
16.21827488595447
 30
0.0
 10
191.5993085055522
 20
15.75343046609219
 30
0.0
 10
191.3207873674834
 20
15.54350952252909
 30
0.0
 10
191.0371383177209
 20
15.37424456359983
 30
0.0
 10
190.707863952783
 20
15.00142360907929
 30
0.0
 10
190.6277012318224
 20
15.19708014458997
 30
0.0
 10
190.4759724909744
 20
15.32491104190589
 30
0.0
 10
190.9083395826795
 20
15.40454031765931
 30
0.0
 10
191.0962565329766
 20
15.60026634915468
 30
0.0
 10
191.3468477420503
 20
15.81632996916754
 30
0.0
 10
191.5714350470162
 20
15.98190992300057
 30
0.0
 10
191.6259775409711
 20
16.26133964636831
 30
0.0
 10
191.7494661029011
 20
16.2473795040808
 30
0.0
 10
191.806027334452
 20
16.24521268867648
 30
0.0
 10
191.8761870984945
 20
16.2404685988136
 30
0.0
 10
191.9333414022105
 20
16.23709429350539
 30
0.0
 10
191.9644190320839
 20
16.23519854711116
 30
0.0
 10
191.9736010568669
 20
16.23463843719131
 30
0.0
 11
191.9736010568669
 21
16.23463843719131
 31
0.0
 11
191.9525319069884
 21
16.20856374969784
 31
0.0
 11
191.9174464559425
 21
16.1945011455347
 31
0.0
 11
192.1512374769094
 21
15.9252796113138
 31
0.0
 11
192.4414585957566
 21
15.67413407969257
 31
0.0
 11
192.7612797483684
 21
15.45710987618783
 31
0.0
 11
193.0838708706289
 21
15.29025232631641
 31
0.0
 11
193.0213299868076
 21
15.21402035584926
 31
0.0
 11
192.9688035818975
 21
15.1297119791342
 31
0.0
 11
192.6436279095814
 21
15.31326404831576
 31
0.0
 11
192.3237227768436
 21
15.54070139743425
 31
0.0
 11
192.0354200158608
 21
15.79673855123307
 31
0.0
 11
191.8050514588095
 21
16.0660900344556
 31
0.0
 11
191.5995531719516
 21
15.81126348721032
 31
0.0
 11
191.3288301341535
 21
15.55645182277753
 31
0.0
 11
191.0119538423246
 21
15.31969466354854
 31
0.0
 11
190.6679957933741
 21
15.11903163191461
 31
0.0
 11
190.6218855341338
 21
15.19126067703549
 31
0.0
 11
190.5636970460348
 21
15.26355586798961
 31
0.0
 11
190.8433040489015
 21
15.41911456961739
 31
0.0
 11
191.1093004621154
 21
15.60601009790401
 31
0.0
 11
191.3499997459746
 21
15.81384496285206
 31
0.0
 11
191.5537153607774
 21
16.03222167446415
 31
0.0
 11
191.7087607668218
 21
16.2507427427429
 31
0.0
 11
191.7363041569865
 21
16.24906789496553
 31
0.0
 11
191.8019845489177
 21
16.24507402718874
 31
0.0
 11
191.880377274771
 21
16.24030715274547
 31
0.0
 11
191.9460576667022
 21
16.23631328496867
 31
0.0
 11
191.9736010568669
 21
16.23463843719131
 31
0.0
  0
SPLINE
  5
AF
102
{ACAD_REACTORS
330
CC
102
}
330
48
100
AcDbEntity
  8
_U_30EC_U_30A4_U_30E4_U_30FC_1
  6
Continuous
 62
     2
100
AcDbSpline
210
0.0
220
0.0
230
1.0
 70
    11
 71
     3
 72
    91
 73
    87
 74
    85
 42
0.000000001
 43
0.0000000001
 44
0.00000001
 40
0.0
 40
0.0
 40
0.0
 40
0.0
 40
0.0267532254356648
 40
0.0856103386463942
 40
0.144467452199639
 40
0.171220685661823
 40
0.2039416005642252
 40
0.29556019716522
 40
0.4362601844616634
 40
0.6162252844506966
 40
0.8256392189704413
 40
1.054685709844382
 40
1.293548478893503
 40
1.532411247938275
 40
1.76145773879954
 40
1.970871673298508
 40
2.150836773256704
 40
2.291536760495565
 40
2.383155356836672
 40
2.415876284101292
 40
2.442629517487931
 40
2.501486630949052
 40
2.56034374442419
 40
2.587096977826458
 40
2.617068194440885
 40
2.699247336756026
 40
2.822032643466339
 40
2.973822353257868
 40
3.143014704823311
 40
3.31800793687989
 40
3.487200288186723
 40
3.638989997548204
 40
3.761775303794702
 40
3.843954445753037
 40
3.873925662229733
 40
3.890812773500431
 40
3.9076998847716
 40
3.937960767857218
 40
3.980983618142257
 40
4.199085915228409
 40
4.439444339237209
 40
4.677588241260837
 40
5.050698317837723
 40
5.448212454763109
 40
5.855291218044633
 40
6.138575438885289
 40
6.417434507584137
 40
6.444551104393822
 40
6.504207617363124
 40
6.56386413031445
 40
6.590980727104045
 40
6.848609460381431
 40
7.109611990668389
 40
7.352910904446047
 40
7.557830220705405
 40
7.587518925913328
 40
7.652834077375761
 40
7.718149228845711
 40
7.747837934062021
 40
7.854880190301009
 40
7.976511257403555
 40
8.369487896592357
 40
8.75751495922365
 40
9.126072419331113
 40
9.460639380392175
 40
9.746695593035916
 40
9.777569943118701
 40
9.807050320931811
 40
9.83037733612895
 40
9.886003295436037
 40
9.952395569429967
 40
10.00802152870633
 40
10.03134854388226
 40
10.21356951009597
 40
10.42203479292879
 40
10.66154556731074
 40
10.91693789564316
 40
11.15832906556574
 40
11.18982674596632
 40
11.27286608520416
 40
11.39026653033358
 40
11.52484752840894
 40
11.65942852648456
 40
11.77682897161492
 40
11.85986831085691
 40
11.89136598230437
 40
11.89136598230437
 40
11.89136598230437
 40
11.89136598230437
 10
190.7027885008196
 20
14.70699600701771
 30
0.0
 10
190.7028237765288
 20
14.71587847311984
 30
0.0
 10
190.7029366710797
 20
14.74430237047345
 30
0.0
 10
190.7012984568489
 20
14.794096391698
 30
0.0
 10
190.7069750292911
 20
14.83657564478151
 30
0.0
 10
190.6956928731706
 20
14.88730154856843
 30
0.0
 10
190.7632296979032
 20
14.87012900740105
 30
0.0
 10
190.83880292107
 20
14.88290227165992
 30
0.0
 10
190.9828357056
 20
14.87629729457377
 30
0.0
 10
191.1569419185427
 20
14.87888462206462
 30
0.0
 10
191.3639599611003
 20
14.87800591955549
 30
0.0
 10
191.5894688172378
 20
14.87828207920023
 30
0.0
 10
191.8251162293406
 20
14.87818339658658
 30
0.0
 10
192.0607640531348
 20
14.87828184412763
 30
0.0
 10
192.2862717580626
 20
14.87800678190785
 30
0.0
 10
192.4932934632805
 20
14.87888186270731
 30
0.0
 10
192.6673888915288
 20
14.87630522678442
 30
0.0
 10
192.8114492071986
 20
14.8828829044921
 30
0.0
 10
192.8869691915293
 20
14.870162434056
 30
0.0
 10
192.954577603703
 20
14.88726400191682
 30
0.0
 10
192.9430840140676
 20
14.83674785802937
 30
0.0
 10
192.9505104581733
 20
14.79253252226499
 30
0.0
 10
192.9428838927986
 20
14.74867966503608
 30
0.0
 10
192.9546489459425
 20
14.69878374479327
 30
0.0
 10
192.8930788491983
 20
14.71393227712511
 30
0.0
 10
192.8256791738671
 20
14.70310665350672
 30
0.0
 10
192.7013004056222
 20
14.70852031626235
 30
0.0
 10
192.555442823657
 20
14.70649205390784
 30
0.0
 10
192.3893576440086
 20
14.70715777578385
 30
0.0
 10
192.2188412621724
 20
14.70689643521241
 30
0.0
 10
192.0519790855388
 20
14.70721553391093
 30
0.0
 10
191.9087346827105
 20
14.70635302590761
 30
0.0
 10
191.7773313869834
 20
14.70863300482986
 30
0.0
 10
191.7239859134657
 20
14.70407704374202
 30
0.0
 10
191.6485188456912
 20
14.70999914992875
 30
0.0
 10
191.6769075779233
 20
14.70094169343355
 30
0.0
 10
191.7033652409542
 20
14.69725912268935
 30
0.0
 10
191.6633522907701
 20
14.66654271968276
 30
0.0
 10
191.5713663691869
 20
14.67667591174632
 30
0.0
 10
191.5439396207069
 20
14.43032502247785
 30
0.0
 10
191.4478793967234
 20
14.27499558764373
 30
0.0
 10
191.1917277964474
 20
13.94525417931569
 30
0.0
 10
191.7627537732761
 20
14.08430022210451
 30
0.0
 10
192.0173656320516
 20
14.08291779973364
 30
0.0
 10
192.6279647048617
 20
13.99790569242084
 30
0.0
 10
192.3340698578083
 20
14.29685417558201
 30
0.0
 10
192.0133304286517
 20
14.44330856901778
 30
0.0
 10
192.1313543360434
 20
14.50025540818286
 30
0.0
 10
192.1724716466261
 20
14.52420099873347
 30
0.0
 10
192.2156812394411
 20
14.5459975881123
 30
0.0
 10
192.317457409445
 20
14.60928721253904
 30
0.0
 10
192.4328867625248
 20
14.35147151408779
 30
0.0
 10
192.6329591642277
 20
14.21616041113682
 30
0.0
 10
192.7269077387228
 20
14.03792795138882
 30
0.0
 10
192.9558829746392
 20
13.87997821027051
 30
0.0
 10
192.8596031846708
 20
13.82915972576301
 30
0.0
 10
192.8167959763779
 20
13.79881292523053
 30
0.0
 10
192.7718243528779
 20
13.77466130281455
 30
0.0
 10
192.7121720925213
 20
13.72552146747561
 30
0.0
 10
192.6789731061325
 20
13.85997475673608
 30
0.0
 10
192.5582013350796
 20
14.01594265286579
 30
0.0
 10
192.1970976005978
 20
13.88569928059555
 30
0.0
 10
191.8385061955541
 20
13.90224694409482
 30
0.0
 10
191.4570920450081
 20
13.89331229351863
 30
0.0
 10
191.170345528289
 20
13.82882671672407
 30
0.0
 10
190.8592055599715
 20
13.94230668192824
 30
0.0
 10
190.8268737818787
 20
13.83122259927767
 30
0.0
 10
190.7896178253318
 20
13.81196313850007
 30
0.0
 10
190.7865737632753
 20
13.85874784087294
 30
0.0
 10
190.7679892860607
 20
13.89806853919133
 30
0.0
 10
190.7512436616777
 20
13.95765983478232
 30
0.0
 10
190.7383730915753
 20
14.00201969871284
 30
0.0
 10
190.7042327806428
 20
14.09106331120201
 30
0.0
 10
190.9482714457753
 20
14.02181042943769
 30
0.0
 10
191.1441394486671
 20
14.00030369057742
 30
0.0
 10
191.2395426381277
 20
14.28226484478463
 30
0.0
 10
191.2945135769597
 20
14.44363045421124
 30
0.0
 10
191.5159619357156
 20
14.71391177589737
 30
0.0
 10
191.3849239381216
 20
14.70548446853734
 30
0.0
 10
191.3110026555854
 20
14.70779008496969
 30
0.0
 10
191.1977459876244
 20
14.70671378321657
 30
0.0
 10
191.0694251807484
 20
14.70707639076509
 30
0.0
 10
190.9404252030415
 20
14.70697724466084
 30
0.0
 10
190.828784094629
 20
14.70699932712571
 30
0.0
 10
190.7514663970026
 20
14.70699579189669
 30
0.0
 10
190.713287653201
 20
14.7069959584508
 30
0.0
 10
190.7027885008196
 20
14.70699600701771
 30
0.0
 11
190.7027885008196
 21
14.70699600701771
 31
0.0
 11
190.7027885008196
 21
14.73374924051796
 31
0.0
 11
190.7027885008196
 21
14.79260635421851
 31
0.0
 11
190.7027885008196
 21
14.85146346791906
 31
0.0
 11
190.7027885008196
 21
14.87821670141931
 31
0.0
 11
190.7355094280989
 21
14.87821670141931
 31
0.0
 11
190.8271280244809
 21
14.87821670141931
 31
0.0
 11
190.9678280117818
 21
14.87821670141931
 31
0.0
 11
191.1477931118179
 21
14.87821670141931
 31
0.0
 11
191.3572070464054
 21
14.87821670141931
 31
0.0
 11
191.5862535373604
 21
14.87821670141931
 31
0.0
 11
191.8251163064992
 21
14.87821670141931
 31
0.0
 11
192.0639790756381
 21
14.87821670141931
 31
0.0
 11
192.2930255665931
 21
14.87821670141931
 31
0.0
 11
192.5024395011806
 21
14.87821670141931
 31
0.0
 11
192.6824046012167
 21
14.87821670141931
 31
0.0
 11
192.8231045885176
 21
14.87821670141931
 31
0.0
 11
192.9147231848996
 21
14.87821670141931
 31
0.0
 11
192.9474441121789
 21
14.87821670141931
 31
0.0
 11
192.9474441121789
 21
14.85146346791906
 31
0.0
 11
192.9474441121789
 21
14.79260635421851
 31
0.0
 11
192.9474441121789
 21
14.73374924051796
 31
0.0
 11
192.9474441121789
 21
14.70699600701771
 31
0.0
 11
192.9174728954758
 21
14.70699600701771
 31
0.0
 11
192.8352937529027
 21
14.70699600701771
 31
0.0
 11
192.7125084457639
 21
14.70699600701771
 31
0.0
 11
192.5607187353642
 21
14.70699600701771
 31
0.0
 11
192.3915263830077
 21
14.70699600701771
 31
0.0
 11
192.2165331499991
 21
14.70699600701771
 31
0.0
 11
192.0473407976426
 21
14.70699600701771
 31
0.0
 11
191.8955510872428
 21
14.70699600701771
 31
0.0
 11
191.7727657801042
 21
14.70699600701771
 31
0.0
 11
191.690586637531
 21
14.70699600701771
 31
0.0
 11
191.6606154208279
 21
14.70699600701771
 31
0.0
 11
191.6766359412525
 21
14.70165583340795
 31
0.0
 11
191.6926564616771
 21
14.6963156597982
 31
0.0
 11
191.670615568142
 21
14.67558114591446
 31
0.0
 11
191.6284861855363
 21
14.6668587153611
 31
0.0
 11
191.5365235541377
 21
14.46909247312656
 31
0.0
 11
191.4279078521763
 21
14.25467511978507
 31
0.0
 11
191.3127500824807
 21
14.0462255905162
 31
0.0
 11
191.685736667502
 21
14.05582441253029
 31
0.0
 11
192.083070003615
 21
14.06781232404995
 31
0.0
 11
192.4899342191145
 21
14.08102711828531
 31
0.0
 11
192.2983119496978
 21
14.28966761302478
 31
0.0
 11
192.0966752013698
 21
14.4822942015183
 31
0.0
 11
192.1204947794749
 21
14.49525327269563
 31
0.0
 11
192.1728978513061
 21
14.52376322928575
 31
0.0
 11
192.2253009231374
 21
14.55227318587587
 31
0.0
 11
192.2491205012425
 21
14.5652322570532
 31
0.0
 11
192.4387101558627
 21
14.39079508370267
 31
0.0
 11
192.6200310940435
 21
14.20305846374091
 31
0.0
 11
192.7777729231147
 21
14.01782380992437
 31
0.0
 11
192.8966252504058
 21
13.85089253500951
 31
0.0
 11
192.8715408217923
 21
13.8350120228607
 31
0.0
 11
192.8163550788425
 21
13.8000748961333
 31
0.0
 11
192.7611693358928
 21
13.76513776940591
 31
0.0
 11
192.7360849072793
 21
13.7492572572571
 31
0.0
 11
192.6775518151612
 21
13.83887824681808
 31
0.0
 11
192.6050015078457
 21
13.93650288221031
 31
0.0
 11
192.2125412924095
 21
13.91636286943758
 31
0.0
 11
191.824947406956
 21
13.89803302999772
 31
0.0
 11
191.4567378976213
 21
13.88202178722394
 31
0.0
 11
191.1224308105412
 21
13.86883756444947
 31
0.0
 11
190.8365441918518
 21
13.8589887850075
 31
0.0
 11
190.821186232174
 21
13.83220523466694
 31
0.0
 11
190.7937434290546
 21
13.82143559057241
 31
0.0
 11
190.7867927192319
 21
13.84370299445574
 31
0.0
 11
190.7702179496548
 21
13.89680218833136
 31
0.0
 11
190.7504351601596
 21
13.96017864553776
 31
0.0
 11
190.7338603905825
 21
14.01327783941338
 31
0.0
 11
190.7269096807598
 21
14.03554524329671
 31
0.0
 11
190.9091199859153
 21
14.03751638912952
 31
0.0
 11
191.1174975848588
 21
14.0435621182947
 31
0.0
 11
191.2303203127216
 21
14.25483550301554
 31
0.0
 11
191.3407936722035
 21
14.48509813155881
 31
0.0
 11
191.4358254265627
 21
14.70699600701771
 31
0.0
 11
191.4043277461597
 21
14.70699600701771
 31
0.0
 11
191.3212884069153
 21
14.70699600701771
 31
0.0
 11
191.2038879617768
 21
14.70699600701771
 31
0.0
 11
191.0693069636912
 21
14.70699600701771
 31
0.0
 11
190.9347259656055
 21
14.70699600701771
 31
0.0
 11
190.817325520467
 21
14.70699600701771
 31
0.0
 11
190.7342861812226
 21
14.70699600701771
 31
0.0
 11
190.7027885008196
 21
14.70699600701771
 31
0.0
  0
SPLINE
  5
B0
102
{ACAD_REACTORS
330
CD
102
}
330
48
100
AcDbEntity
  8
_U_30EC_U_30A4_U_30E4_U_30FC_1
  6
Continuous
 62
     2
100
AcDbSpline
210
0.0
220
0.0
230
1.0
 70
    11
 71
     3
 72
   131
 73
   127
 74
   125
 42
0.000000001
 43
0.0000000001
 44
0.00000001
 40
0.0
 40
0.0
 40
0.0
 40
0.0
 40
0.019557702982645
 40
0.0426490537461527
 40
0.2863607575856922
 40
0.5344948436189647
 40
0.7842238845573516
 40
0.8737315789467631
 40
0.9803832810313117
 40
1.092842274517059
 40
1.199761146656824
 40
1.289788768186541
 40
1.351573580786253
 40
1.370727117561478
 40
1.416400936017885
 40
1.470914848356019
 40
1.516588666791805
 40
1.535742203552882
 40
1.634216592293227
 40
1.760283341175074
 40
1.897966686682152
 40
2.031216387368985
 40
2.049689751137981
 40
2.101115601646919
 40
2.179502577740041
 40
2.278859318314163
 40
2.393194462258824
 40
2.516516648383945
 40
2.642834515406077
 40
2.76615670198359
 40
2.88049184675471
 40
2.979848588358756
 40
3.058235565443936
 40
3.109661416669094
 40
3.128134780704272
 40
3.146783742386588
 40
3.191254343315449
 40
3.244332157316108
 40
3.288802758226012
 40
3.307451719895254
 40
3.327717853844866
 40
3.383747753580229
 40
3.468388665924623
 40
3.574487837698932
 40
3.694892515729042
 40
3.822449946852183
 40
3.950007377920577
 40
4.070412055800672
 40
4.176511227368229
 40
4.261152139501679
 40
4.317182039076872
 40
4.337448172964793
 40
4.620011002696398
 40
4.885096638397678
 40
4.945373043518506
 40
5.014107710488828
 40
5.070481727652242
 40
5.319246955636747
 40
5.58481216450621
 40
5.859000912057052
 40
6.133746937542223
 40
6.401732212969004
 40
6.420736683995595
 40
6.472845717451245
 40
6.550702743894173
 40
6.646951193874382
 40
6.754234497930706
 40
6.865196086587484
 40
6.972479390357942
 40
7.068727839772104
 40
7.146584865451113
 40
7.198693898189343
 40
7.217698368905483
 40
7.234950401630964
 40
7.27608986427001
 40
7.325191803516122
 40
7.366331266090511
 40
7.383583298769863
 40
7.40277916349224
 40
7.453386443254671
 40
7.524934666445673
 40
7.606953361406013
 40
7.688972056429164
 40
7.760520279784415
 40
7.811127559734657
 40
7.830323424546278
 40
7.847844055299906
 40
7.894799345666953
 40
7.962779392744646
 40
8.0433742935607
 40
8.128174145149613
 40
8.208769044817425
 40
8.276749090377129
 40
8.323704379669694
 40
8.341225010056428
 40
8.358497614800577
 40
8.401679126686782
 40
8.45781509218584
 40
8.513951057728244
 40
8.5571325697082
 40
8.574405174505243
 40
8.602340668616616
 40
8.64345566054016
 40
8.663225271966832
 40
8.71534515656448
 40
8.789031889628818
 40
8.873502045520551
 40
8.957972194324178
 40
9.031658925568072
 40
9.083778811234763
 40
9.103548423003227
 40
9.119550083123764
 40
9.160817522380066
 40
9.217244429110432
 40
9.278724491644917
 40
9.335151398295702
 40
9.376418837357997
 40
9.392420497300785
 40
9.401196302735004
 40
9.417494229384479
 40
9.426270027749752
 40
9.44087507547778
 40
9.475702496998952
 40
9.517270709866105
 40
9.552098131994265
 40
9.56670316988447
 40
9.56670316988447
 40
9.56670316988447
 40
9.56670316988447
 10
194.6170254148479
 20
15.6701587151103
 30
0.0
 10
194.6134345093371
 20
15.6645369070216
 30
0.0
 10
194.6056039123625
 20
15.65227754419111
 30
0.0
 10
194.5129968974545
 20
15.61601916040991
 30
0.0
 10
194.4887622233247
 20
15.40148444212708
 30
0.0
 10
194.3858709845939
 20
15.22197284509711
 30
0.0
 10
194.1220492364304
 20
15.03615573798145
 30
0.0
 10
194.284547156918
 20
14.95959336566084
 30
0.0
 10
194.3607225760838
 20
14.89856693195444
 30
0.0
 10
194.4492171072758
 20
14.83515804544762
 30
0.0
 10
194.5389930233111
 20
14.77525634219562
 30
0.0
 10
194.5883817636046
 20
14.72102154849207
 30
0.0
 10
194.6745708157381
 20
14.6928624054183
 30
0.0
 10
194.641126067423
 20
14.65713309652808
 30
0.0
 10
194.621467116631
 20
14.62550387991903
 30
0.0
 10
194.5919888217883
 20
14.58475872796068
 30
0.0
 10
194.5688989446031
 20
14.55504663489642
 30
0.0
 10
194.5380205968357
 20
14.50211422668493
 30
0.0
 10
194.472919336574
 20
14.627403349389
 30
0.0
 10
194.3796000122415
 20
14.68213900233934
 30
0.0
 10
194.2950636285139
 20
14.73916423939345
 30
0.0
 10
194.1722498125741
 20
14.89675287427527
 30
0.0
 10
194.1764450847301
 20
14.8203580676684
 30
0.0
 10
194.1751478652676
 20
14.77361280161299
 30
0.0
 10
194.1758126448077
 20
14.69584785812604
 30
0.0
 10
194.1755549986956
 20
14.59902068324425
 30
0.0
 10
194.1756431239921
 20
14.4865027907881
 30
0.0
 10
194.1756077302281
 20
14.36524085945701
 30
0.0
 10
194.1756511758278
 20
14.24086897858962
 30
0.0
 10
194.1755199942407
 20
14.11967683631337
 30
0.0
 10
194.1759477562045
 20
14.00691148919742
 30
0.0
 10
194.1746678202311
 20
13.91082913768743
 30
0.0
 10
194.1779759851044
 20
13.83113826468698
 30
0.0
 10
194.1715197740086
 20
13.78815175788782
 30
0.0
 10
194.1806208705555
 20
13.7495543237204
 30
0.0
 10
194.1447910339935
 20
13.75810887724068
 30
0.0
 10
194.1115223815252
 20
13.75342519985445
 30
0.0
 10
194.0604562576041
 20
13.75351298759782
 30
0.0
 10
194.0269723972812
 20
13.75794430283818
 30
0.0
 10
193.9907585408754
 20
13.74960793842508
 30
0.0
 10
194.0009782568666
 20
13.79145277179282
 30
0.0
 10
193.9936487887773
 20
13.83778560820172
 30
0.0
 10
193.9973633136102
 20
13.92374831106013
 30
0.0
 10
193.9959480554897
 20
14.02605142704848
 30
0.0
 10
193.9964105554638
 20
14.14453223931511
 30
0.0
 10
193.996277368623
 20
14.26957683153355
 30
0.0
 10
193.9963015910045
 20
14.3947582810705
 30
0.0
 10
193.9963354925551
 20
14.51286645379058
 30
0.0
 10
193.9962060293132
 20
14.61628748709516
 30
0.0
 10
193.9965507549081
 20
14.69932036153667
 30
0.0
 10
193.9958698278689
 20
14.75143368521244
 30
0.0
 10
193.9994586600624
 20
14.87912907821361
 30
0.0
 10
193.7826171386436
 20
14.58048716819622
 30
0.0
 10
193.6021354921951
 20
14.35263981511515
 30
0.0
 10
193.5490322295611
 20
14.49373443289815
 30
0.0
 10
193.5200429133149
 20
14.54325767560946
 30
0.0
 10
193.419664806282
 20
14.64641779790112
 30
0.0
 10
193.7405127723261
 20
14.72695035023779
 30
0.0
 10
193.868989700543
 20
14.91066283036434
 30
0.0
 10
194.0906454325358
 20
15.11931995771761
 30
0.0
 10
194.1770224894069
 20
15.29339211228342
 30
0.0
 10
194.4549394229074
 20
15.56967051342505
 30
0.0
 10
194.3346247839284
 20
15.56534559551109
 30
0.0
 10
194.2863197351348
 20
15.56614856202547
 30
0.0
 10
194.2102377454905
 20
15.56574582146579
 30
0.0
 10
194.116701000975
 20
15.56590275611604
 30
0.0
 10
194.0117594788557
 20
15.56582502576219
 30
0.0
 10
193.9033887738717
 20
15.56595464378549
 30
0.0
 10
193.7981454235897
 20
15.56554393490687
 30
0.0
 10
193.7056237819412
 20
15.56682073671586
 30
0.0
 10
193.6268130800707
 20
15.56340766534845
 30
0.0
 10
193.5839674565379
 20
15.57023350036315
 30
0.0
 10
193.5449499586515
 20
15.56065064201118
 30
0.0
 10
193.5526365271864
 20
15.59420779565538
 30
0.0
 10
193.5485464404312
 20
15.62523550322229
 30
0.0
 10
193.5485531368815
 20
15.67236529270895
 30
0.0
 10
193.5526239724911
 20
15.70340941646774
 30
0.0
 10
193.5449495574583
 20
15.73701861635898
 30
0.0
 10
193.5834819405494
 20
15.72748410420868
 30
0.0
 10
193.624122801448
 20
15.73397435498066
 30
0.0
 10
193.6951471850463
 20
15.7310015065025
 30
0.0
 10
193.7729318149633
 20
15.73174761399153
 30
0.0
 10
193.8507292246474
 20
15.73247814044522
 30
0.0
 10
193.9217232089908
 20
15.72954235514156
 30
0.0
 10
193.9624279791819
 20
15.73595468772947
 30
0.0
 10
194.000985348991
 20
15.72650524176
 30
0.0
 10
193.9927342754927
 20
15.76264692158781
 30
0.0
 10
193.9982346669359
 20
15.80129837613223
 30
0.0
 10
193.9955754206163
 20
15.86913528561836
 30
0.0
 10
193.9965815471533
 20
15.94591641538737
 30
0.0
 10
193.9960178018319
 20
16.02849393582756
 30
0.0
 10
193.9970714526592
 20
16.10517329229877
 30
0.0
 10
193.994267586313
 20
16.17331990776699
 30
0.0
 10
194.0000702721304
 20
16.21132399809346
 30
0.0
 10
193.9915654551158
 20
16.24758448077646
 30
0.0
 10
194.0255610233125
 20
16.23755723771853
 30
0.0
 10
194.05945756831
 20
16.24073266813706
 30
0.0
 10
194.1126669060346
 20
16.2350896564061
 30
0.0
 10
194.1660768574483
 20
16.23434774436425
 30
0.0
 10
194.199591464949
 20
16.2281922348298
 30
0.0
 10
194.2388086183039
 20
16.23346029773593
 30
0.0
 10
194.2120263698492
 20
16.19253380793488
 30
0.0
 10
194.1708111001724
 20
16.20371204538109
 30
0.0
 10
194.1782641540874
 20
16.15867056192121
 30
0.0
 10
194.1742227952184
 20
16.11412278028141
 30
0.0
 10
194.176171404964
 20
16.042235726217
 30
0.0
 10
194.1752364849759
 20
15.96168630588768
 30
0.0
 10
194.176510719003
 20
15.88173995404991
 30
0.0
 10
194.1732043793863
 20
15.80841837083179
 30
0.0
 10
194.1802106179962
 20
15.76688643002564
 30
0.0
 10
194.1701440380125
 20
15.72752418568109
 30
0.0
 10
194.2029814803922
 20
15.73468063430977
 30
0.0
 10
194.236457729648
 20
15.7302724313794
 30
0.0
 10
194.2915053476019
 20
15.73217943347893
 30
0.0
 10
194.3489502595314
 20
15.73185366407284
 30
0.0
 10
194.4023026248309
 20
15.73106308733077
 30
0.0
 10
194.4398540896638
 20
15.7331395911807
 30
0.0
 10
194.4623172523237
 20
15.73022338167105
 30
0.0
 10
194.4751678073731
 20
15.73572552644052
 30
0.0
 10
194.4858255685888
 20
15.73801118197786
 30
0.0
 10
194.4986635650143
 20
15.74494972588048
 30
0.0
 10
194.514599103307
 20
15.72853046313669
 30
0.0
 10
194.5410623920891
 20
15.71709122319446
 30
0.0
 10
194.5726805253757
 20
15.69644687835191
 30
0.0
 10
194.5987255892152
 20
15.68116869628296
 30
0.0
 10
194.6128517723972
 20
15.67266976323186
 30
0.0
 10
194.6170254148479
 20
15.6701587151103
 30
0.0
 11
194.6170254148479
 21
15.6701587151103
 31
0.0
 11
194.6049990002243
 21
15.65473571164187
 31
0.0
 11
194.5848961795565
 21
15.64337406233921
 31
0.0
 11
194.4778986355813
 21
15.4244062023116
 31
0.0
 11
194.3477039934324
 21
15.21317201512161
 31
0.0
 11
194.1996540366071
 21
15.0120605902748
 31
0.0
 11
194.2734958253735
 21
14.96147384935381
 31
0.0
 11
194.36056643118
 21
14.89988411653741
 31
0.0
 11
194.4518003750404
 21
14.83413160594428
 31
0.0
 11
194.5381321779687
 21
14.77105653169306
 31
0.0
 11
194.6104963609787
 21
14.71749910790241
 31
0.0
 11
194.6598274450843
 21
14.680299548691
 31
0.0
 11
194.6486940702213
 21
14.6647141086949
 31
0.0
 11
194.6221452532403
 21
14.6275488287042
 31
0.0
 11
194.5904579555533
 21
14.58319026871531
 31
0.0
 11
194.5639091385723
 21
14.54602498872461
 31
0.0
 11
194.5527757637093
 21
14.53043954872851
 31
0.0
 11
194.4807013362947
 21
14.59754008690616
 31
0.0
 11
194.385285698538
 21
14.67993354174669
 31
0.0
 11
194.279326415217
 21
14.76785017366918
 31
0.0
 11
194.175621051109
 21
14.85152024309271
 31
0.0
 11
194.175621051109
 21
14.83304687900867
 31
0.0
 11
194.175621051109
 21
14.78162102763959
 31
0.0
 11
194.175621051109
 21
14.70323405031002
 31
0.0
 11
194.175621051109
 21
14.60387730834451
 31
0.0
 11
194.175621051109
 21
14.48954216306762
 31
0.0
 11
194.175621051109
 21
14.3662199758039
 31
0.0
 11
194.175621051109
 21
14.23990210787791
 31
0.0
 11
194.175621051109
 21
14.11657992061419
 31
0.0
 11
194.175621051109
 21
14.0022447753373
 31
0.0
 11
194.175621051109
 21
13.90288803337179
 31
0.0
 11
194.175621051109
 21
13.82450105604222
 31
0.0
 11
194.175621051109
 21
13.77307520467314
 31
0.0
 11
194.175621051109
 21
13.7546018405891
 31
0.0
 11
194.1569720893626
 21
13.7546018405891
 31
0.0
 11
194.1125014882749
 21
13.7546018405891
 31
0.0
 11
194.0594236740736
 21
13.7546018405891
 31
0.0
 11
194.0149530729859
 21
13.7546018405891
 31
0.0
 11
193.9963041112395
 21
13.7546018405891
 31
0.0
 11
193.9963041112395
 21
13.77486797460217
 31
0.0
 11
193.9963041112395
 21
13.83089787452065
 31
0.0
 11
193.9963041112395
 21
13.91553878716346
 31
0.0
 11
193.9963041112395
 21
14.02163795934952
 31
0.0
 11
193.9963041112395
 21
14.14204263789775
 31
0.0
 11
193.9963041112395
 21
14.26960006962705
 31
0.0
 11
193.9963041112395
 21
14.39715750135636
 31
0.0
 11
193.9963041112395
 21
14.51756217990458
 31
0.0
 11
193.9963041112395
 21
14.62366135209064
 31
0.0
 11
193.9963041112395
 21
14.70830226473345
 31
0.0
 11
193.9963041112395
 21
14.76433216465193
 31
0.0
 11
193.9963041112395
 21
14.784598298665
 31
0.0
 11
193.7883272849481
 21
14.59331998274058
 31
0.0
 11
193.5763486358425
 21
14.43414885430811
 31
0.0
 11
193.5495629014482
 21
14.48814671952096
 31
0.0
 11
193.5138765415024
 21
14.54689140572028
 31
0.0
 11
193.4799697494124
 21
14.59192871537981
 31
0.0
 11
193.6830287742319
 21
14.73563387201055
 31
0.0
 11
193.881853195826
 21
14.91168423529988
 31
0.0
 11
194.0677041444178
 21
15.11327514524949
 31
0.0
 11
194.2318427502303
 21
15.33360194186106
 31
0.0
 11
194.3655301434864
 21
15.5658599651363
 31
0.0
 11
194.3465256724482
 21
15.5658599651363
 31
0.0
 11
194.2944166389562
 21
15.5658599651363
 31
0.0
 11
194.2165596124447
 21
15.5658599651363
 31
0.0
 11
194.1203111623478
 21
15.5658599651363
 31
0.0
 11
194.0130278580997
 21
15.5658599651363
 31
0.0
 11
193.9020662691345
 21
15.5658599651363
 31
0.0
 11
193.7947829648864
 21
15.5658599651363
 31
0.0
 11
193.6985345147895
 21
15.5658599651363
 31
0.0
 11
193.620677488278
 21
15.5658599651363
 31
0.0
 11
193.568568454786
 21
15.5658599651363
 31
0.0
 11
193.5495639837478
 21
15.5658599651363
 31
0.0
 11
193.5495639837478
 21
15.58311199790977
 31
0.0
 11
193.5495639837478
 21
15.62425146067727
 31
0.0
 11
193.5495639837478
 21
15.67335340010944
 31
0.0
 11
193.5495639837478
 21
15.71449286287694
 31
0.0
 11
193.5495639837478
 21
15.73174489565041
 31
0.0
 11
193.5687598486009
 21
15.73174489565041
 31
0.0
 11
193.6193671286684
 21
15.73174489565041
 31
0.0
 11
193.690915352212
 21
15.73174489565041
 31
0.0
 11
193.7729340474937
 21
15.73174489565041
 31
0.0
 11
193.8549527427753
 21
15.73174489565041
 31
0.0
 11
193.9265009663189
 21
15.73174489565041
 31
0.0
 11
193.9771082463864
 21
15.73174489565041
 31
0.0
 11
193.9963041112395
 21
15.73174489565041
 31
0.0
 11
193.9963041112395
 21
15.74926552655214
 31
0.0
 11
193.9963041112395
 21
15.79622081736878
 31
0.0
 11
193.9963041112395
 21
15.8642008652675
 31
0.0
 11
193.9963041112395
 21
15.94479576741546
 31
0.0
 11
193.9963041112395
 21
16.02959562097984
 31
0.0
 11
193.9963041112395
 21
16.11019052312781
 31
0.0
 11
193.9963041112395
 21
16.17817057102653
 31
0.0
 11
193.9963041112395
 21
16.22512586184317
 31
0.0
 11
193.9963041112395
 21
16.2426464927449
 31
0.0
 11
194.0135484112111
 21
16.24165806167519
 31
0.0
 11
194.0566591611401
 21
16.23918698400091
 31
0.0
 11
194.1127031360477
 21
16.23597458302435
 31
0.0
 11
194.1687471109553
 21
16.2327621820478
 31
0.0
 11
194.2118578608843
 21
16.23029110437352
 31
0.0
 11
194.2291021608559
 21
16.22930267330381
 31
0.0
 11
194.2143774674851
 21
16.20556293372639
 31
0.0
 11
194.175621051109
 21
16.1918376733131
 31
0.0
 11
194.175621051109
 21
16.1720680617729
 31
0.0
 11
194.175621051109
 21
16.1199481768033
 31
0.0
 11
194.175621051109
 21
16.04626144288076
 31
0.0
 11
194.175621051109
 21
15.96179128448175
 31
0.0
 11
194.175621051109
 21
15.87732112608274
 31
0.0
 11
194.175621051109
 21
15.80363439216021
 31
0.0
 11
194.175621051109
 21
15.7515145071906
 31
0.0
 11
194.175621051109
 21
15.73174489565041
 31
0.0
 11
194.1916227112935
 21
15.73174489565041
 31
0.0
 11
194.232890150717
 21
15.73174489565041
 31
0.0
 11
194.2893170576837
 21
15.73174489565041
 31
0.0
 11
194.3507971204981
 21
15.73174489565041
 31
0.0
 11
194.4072240274648
 21
15.73174489565041
 31
0.0
 11
194.4484914668882
 21
15.73174489565041
 31
0.0
 11
194.4644931270728
 21
15.73174489565041
 31
0.0
 11
194.4728206422924
 21
15.73451387455917
 31
0.0
 11
194.4882860277004
 21
15.73965626396114
 31
0.0
 11
194.49661354292
 21
15.7424252428699
 31
0.0
 11
194.5091363776005
 21
15.7349095239829
 31
0.0
 11
194.5389985218386
 21
15.71698742509852
 31
0.0
 11
194.5746404359293
 21
15.69559653288168
 31
0.0
 11
194.6045025801674
 21
15.6776744339973
 31
0.0
 11
194.6170254148479
 21
15.6701587151103
 31
0.0
  0
SPLINE
  5
B1
102
{ACAD_REACTORS
330
CE
102
}
330
48
100
AcDbEntity
  8
_U_30EC_U_30A4_U_30E4_U_30FC_1
  6
Continuous
 62
     2
100
AcDbSpline
210
0.0
220
0.0
230
1.0
 70
    11
 71
     3
 72
   124
 73
   120
 74
   118
 42
0.000000001
 43
0.0000000001
 44
0.00000001
 40
0.0
 40
0.0
 40
0.0
 40
0.0
 40
0.027818722962451
 40
0.1011590162384269
 40
0.2048470170590239
 40
0.3237088716559245
 40
0.4425707262522
 40
0.5462587270699547
 40
0.6195990203311798
 40
0.647417752257866
 40
0.6750060736115242
 40
0.7357003855242759
 40
0.7963946998054456
 40
0.8239830245571766
 40
0.854093381110286
 40
0.937339662940954
 40
1.063094687343235
 40
1.220731268638073
 40
1.399622220914748
 40
1.589140358637732
 40
1.778658496423898
 40
1.957549448940509
 40
2.115186030873159
 40
2.240941056914463
 40
2.324187341760532
 40
2.354297700109382
 40
2.38188602467189
 40
2.442580338710475
 40
2.503274652750497
 40
2.530862977314606
 40
2.560983949278559
 40
2.640393784452905
 40
2.752662861759128
 40
2.881361560118145
 40
3.010060258455192
 40
3.122329335705339
 40
3.201739170817953
 40
3.231860142753313
 40
3.26429802403037
 40
3.352343701778238
 40
3.482095226868759
 40
3.639650650173016
 40
3.811108022565468
 40
3.982565394927973
 40
4.140120818152551
 40
4.269872343141258
 40
4.357918020802319
 40
4.390355902043946
 40
4.423256253992515
 40
4.508104530073036
 40
4.624121560636804
 40
4.750528176031561
 40
4.866545206602008
 40
4.951393482691965
 40
4.984293834645366
 40
5.01145083324228
 40
5.071196230152062
 40
5.130941627057136
 40
5.1580986256488
 40
5.190998977601491
 40
5.275847253689316
 40
5.391864284256751
 40
5.518270899648296
 40
5.634287930209335
 40
5.719136206288009
 40
5.752036558235896
 40
5.782130946282924
 40
5.8627839062291
 40
5.979550131774972
 40
6.11798431664038
 40
6.263641154587931
 40
6.40207533941414
 40
6.51884156490794
 40
6.599494524815525
 40
6.629588912848763
 40
6.65440302822634
 40
6.713575149488107
 40
6.784199939329425
 40
6.843372060493527
 40
6.868186175802773
 40
6.896246243201871
 40
6.939586233758275
 40
6.967846564564903
 40
7.043584251089838
 40
7.153234334451692
 40
7.283231855734439
 40
7.420011856035465
 40
7.550009376579814
 40
7.659659458835209
 40
7.735397144417199
 40
7.763657474851371
 40
7.796409728011028
 40
7.880876065096302
 40
7.996370852465688
 40
8.122208446418583
 40
8.237703224799176
 40
8.32216956201087
 40
8.354921815205884
 40
8.382078813307665
 40
8.441824209206967
 40
8.501569605240114
 40
8.52872660348569
 40
8.56147885669574
 40
8.64594519387779
 40
8.761439980865301
 40
8.887277580764444
 40
9.002772362000965
 40
9.087238696661185
 40
9.119990949235639
 40
9.152428830613339
 40
9.24047450863855
 40
9.3702260341495
 40
9.52778145798438
 40
9.699238830981365
 40
9.870696203978552
 40
10.02825162781397
 40
10.15800315332559
 40
10.24604883135113
 40
10.27848670378516
 40
10.27848670378516
 40
10.27848670378516
 40
10.27848670378516
 10
195.3821827564383
 20
14.0141051738576
 30
0.0
 10
195.3914554737523
 20
14.01410498511277
 30
0.0
 10
195.4251744536861
 20
14.01410430876717
 30
0.0
 10
195.4934706812465
 20
14.01411807243307
 30
0.0
 10
195.592014171158
 20
14.01403224219548
 30
0.0
 10
195.7062066464812
 20
14.01441755612253
 30
0.0
 10
195.818589441707
 20
14.01300835897548
 30
0.0
 10
195.9214376600118
 20
14.01719117422245
 30
0.0
 10
195.9806839874849
 20
14.00823089251985
 30
0.0
 10
196.0371265937033
 20
14.02164434526064
 30
0.0
 10
196.0246255586954
 20
13.97087198613364
 30
0.0
 10
196.0329549635703
 20
13.9258932093907
 30
0.0
 10
196.024817084112
 20
13.88056752990491
 30
0.0
 10
196.0370529214457
 20
13.82931932408469
 30
0.0
 10
195.9747773490333
 20
13.84447955365279
 30
0.0
 10
195.9060513026868
 20
13.83359750710746
 30
0.0
 10
195.7782756749592
 20
13.83911304747975
 30
0.0
 10
195.6262984511643
 20
13.83700851253701
 30
0.0
 10
195.4502695972523
 20
13.83771002588476
 30
0.0
 10
195.2644431934287
 20
13.83745237531295
 30
0.0
 10
195.0786167437175
 20
13.83771005144606
 30
0.0
 10
194.9025880142168
 20
13.83700841847734
 30
0.0
 10
194.7506104154195
 20
13.83911332229992
 30
0.0
 10
194.6228357664554
 20
13.83359680767643
 30
0.0
 10
194.5541077836581
 20
13.84448077125945
 30
0.0
 10
194.4918349042883
 20
13.82931786684212
 30
0.0
 10
194.5040616290017
 20
13.88057510805175
 30
0.0
 10
194.4960004462597
 20
13.92582473272428
 30
0.0
 10
194.5040675809893
 20
13.97106357955326
 30
0.0
 10
194.4918238487083
 20
14.02234176909961
 30
0.0
 10
194.5525017120697
 20
14.00749577363138
 30
0.0
 10
194.6162810745736
 20
14.01756448170738
 30
0.0
 10
194.7277314353502
 20
14.01294644212002
 30
0.0
 10
194.8497533443824
 20
14.01413328905472
 30
0.0
 10
194.9719538137823
 20
14.01515863900637
 30
0.0
 10
195.0829794287392
 20
14.01092475623404
 30
0.0
 10
195.1476517413958
 20
14.02018584521742
 30
0.0
 10
195.2091162810501
 20
14.00604423049685
 30
0.0
 10
195.1930065601337
 20
14.0723552788452
 30
0.0
 10
195.2042980327358
 20
14.14447790121978
 30
0.0
 10
195.1987400822561
 20
14.27513760888288
 30
0.0
 10
195.2008035061691
 20
14.42607323708243
 30
0.0
 10
195.2000167127295
 20
14.59335873107888
 30
0.0
 10
195.2007845215627
 20
14.76061110332304
 30
0.0
 10
195.1988038785628
 20
14.91163289269915
 30
0.0
 10
195.204130615662
 20
15.04206069552996
 30
0.0
 10
195.1933101388425
 20
15.114654426059
 30
0.0
 10
195.2090326429875
 20
15.18150469436799
 30
0.0
 10
195.143270813249
 20
15.16580512490825
 30
0.0
 10
195.0756367830763
 20
15.17609243083996
 30
0.0
 10
194.9615885293809
 20
15.17113786847123
 30
0.0
 10
194.8451242674902
 20
15.17414128030475
 30
0.0
 10
194.7306554121477
 20
15.16880303143389
 30
0.0
 10
194.6640324657812
 20
15.18001268074826
 30
0.0
 10
194.5990769715185
 20
15.16349132665012
 30
0.0
 10
194.6107989758708
 20
15.2147372047706
 30
0.0
 10
194.6032830189121
 20
15.25950333784091
 30
0.0
 10
194.6107989878835
 20
15.30426944897962
 30
0.0
 10
194.5990769505347
 20
15.35551536129741
 30
0.0
 10
194.66403263392
 20
15.33899381766815
 30
0.0
 10
194.7306533339821
 20
15.35020571373944
 30
0.0
 10
194.8451352858063
 20
15.34485436710664
 30
0.0
 10
194.9615454436962
 20
15.34791188771117
 30
0.0
 10
195.0757660174641
 20
15.34278499010708
 30
0.0
 10
195.1430150439226
 20
15.35345733355598
 30
0.0
 10
195.2083325941438
 20
15.33742082669077
 30
0.0
 10
195.1941391448552
 20
15.39949685750054
 30
0.0
 10
195.2036059462995
 20
15.46586761628763
 30
0.0
 10
195.1990269004085
 20
15.58239972741967
 30
0.0
 10
195.2007696555948
 20
15.71426685022377
 30
0.0
 10
195.1997551495392
 20
15.85615960150275
 30
0.0
 10
195.2017191344372
 20
15.98769050702582
 30
0.0
 10
195.1964668553851
 20
16.10524577283004
 30
0.0
 10
195.2073408763475
 20
16.16947789001587
 30
0.0
 10
195.1919536641853
 20
16.2310880254505
 30
0.0
 10
195.24075915378
 20
16.21702407382113
 30
0.0
 10
195.2853995564725
 20
16.21954742075317
 30
0.0
 10
195.3538643946742
 20
16.21512797401711
 30
0.0
 10
195.3959106169102
 20
16.20613025544037
 30
0.0
 10
195.4487544758775
 20
16.21411714866512
 30
0.0
 10
195.4207035002014
 20
16.17113917611673
 30
0.0
 10
195.3749142248594
 20
16.18259552043834
 30
0.0
 10
195.3869539073264
 20
16.12173520005134
 30
0.0
 10
195.3796086070641
 20
16.05769299468771
 30
0.0
 10
195.3831195826161
 20
15.94909368863908
 30
0.0
 10
195.3819806760173
 20
15.82494319144751
 30
0.0
 10
195.3819174780262
 20
15.69189719829876
 30
0.0
 10
195.3832872966867
 20
15.56797381249555
 30
0.0
 10
195.3791638801314
 20
15.45868337849338
 30
0.0
 10
195.3877763103563
 20
15.39608580094169
 30
0.0
 10
195.3746757454402
 20
15.33740133296366
 30
0.0
 10
195.4393884328198
 20
15.35362113810902
 30
0.0
 10
195.5060405953156
 20
15.34270260383311
 30
0.0
 10
195.6198779541102
 20
15.34793740173756
 30
0.0
 10
195.7357259122097
 20
15.34485547516913
 30
0.0
 10
195.849692426328
 20
15.35018259812512
 30
0.0
 10
195.91603410181
 20
15.33904208166543
 30
0.0
 10
195.9807188525479
 20
15.35546979593178
 30
0.0
 10
195.9689820772722
 20
15.30425925210051
 30
0.0
 10
195.9765168063041
 20
15.25950334121001
 30
0.0
 10
195.9689820992258
 20
15.21474739010028
 30
0.0
 10
195.9807188140737
 20
15.16353690871041
 30
0.0
 10
195.9160344075252
 20
15.17996427794221
 30
0.0
 10
195.8496886430824
 20
15.1688278444727
 30
0.0
 10
195.7357459487012
 20
15.17413115893121
 30
0.0
 10
195.6197995623054
 20
15.17114764593544
 30
0.0
 10
195.5062756882122
 20
15.17606892268395
 30
0.0
 10
195.4389231318804
 20
15.1658508751352
 30
0.0
 10
195.3734285122495
 20
15.18145996138816
 30
0.0
 10
195.3891713619218
 20
15.11463851827412
 30
0.0
 10
195.3783275998213
 20
15.0420705781588
 30
0.0
 10
195.3836581629793
 20
14.91162247614417
 30
0.0
 10
195.3817136151855
 20
14.76064558185227
 30
0.0
 10
195.3823133683214
 20
14.5932224393416
 30
0.0
 10
195.3821506559605
 20
14.42656176118374
 30
0.0
 10
195.3821895488136
 20
14.27360142921638
 30
0.0
 10
195.3821816413098
 20
14.14849178985707
 30
0.0
 10
195.3821828382744
 20
14.06507890991423
 30
0.0
 10
195.3821827716208
 20
14.02491778281978
 30
0.0
 10
195.3821827564383
 20
14.0141051738576
 30
0.0
 11
195.3821827564383
 21
14.0141051738576
 31
0.0
 11
195.4100014883675
 21
14.0141051738576
 31
0.0
 11
195.4833417816353
 21
14.0141051738576
 31
0.0
 11
195.5870297824622
 21
14.0141051738576
 31
0.0
 11
195.7058916370687
 21
14.0141051738576
 31
0.0
 11
195.8247534916751
 21
14.0141051738576
 31
0.0
 11
195.928441492502
 21
14.0141051738576
 31
0.0
 11
196.0017817857698
 21
14.0141051738576
 31
0.0
 11
196.029600517699
 21
14.0141051738576
 31
0.0
 11
196.029600517699
 21
13.98651684921172
 31
0.0
 11
196.029600517699
 21
13.9258225349908
 31
0.0
 11
196.029600517699
 21
13.86512822076988
 31
0.0
 11
196.029600517699
 21
13.837539896124
 31
0.0
 11
195.9994901593494
 21
13.837539896124
 31
0.0
 11
195.9162438745004
 21
13.837539896124
 31
0.0
 11
195.7904888484521
 21
13.837539896124
 31
0.0
 11
195.6328522665041
 21
13.837539896124
 31
0.0
 11
195.4539613139564
 21
13.837539896124
 31
0.0
 11
195.2644431761089
 21
13.837539896124
 31
0.0
 11
195.0749250382613
 21
13.837539896124
 31
0.0
 11
194.8960340857136
 21
13.837539896124
 31
0.0
 11
194.7383975037656
 21
13.837539896124
 31
0.0
 11
194.6126424777172
 21
13.837539896124
 31
0.0
 11
194.5293961928683
 21
13.837539896124
 31
0.0
 11
194.4992858345187
 21
13.837539896124
 31
0.0
 11
194.4992858345187
 21
13.86512822076988
 31
0.0
 11
194.4992858345187
 21
13.9258225349908
 31
0.0
 11
194.4992858345187
 21
13.98651684921172
 31
0.0
 11
194.4992858345187
 21
14.0141051738576
 31
0.0
 11
194.5294068064947
 21
14.0141051738576
 31
0.0
 11
194.608816641704
 21
14.0141051738576
 31
0.0
 11
194.721085719069
 21
14.0141051738576
 31
0.0
 11
194.8497844175118
 21
14.0141051738576
 31
0.0
 11
194.9784831159545
 21
14.0141051738576
 31
0.0
 11
195.0907521933195
 21
14.0141051738576
 31
0.0
 11
195.1701620285289
 21
14.0141051738576
 31
0.0
 11
195.2002830005048
 21
14.0141051738576
 31
0.0
 11
195.2002830005048
 21
14.04654305523838
 31
0.0
 11
195.2002830005048
 21
14.13458873327193
 31
0.0
 11
195.2002830005048
 21
14.26434025879505
 31
0.0
 11
195.2002830005048
 21
14.42189568264456
 31
0.0
 11
195.2002830005048
 21
14.59335305565725
 31
0.0
 11
195.2002830005048
 21
14.76481042866995
 31
0.0
 11
195.2002830005048
 21
14.92236585251946
 31
0.0
 11
195.2002830005048
 21
15.05211737804258
 31
0.0
 11
195.2002830005048
 21
15.14016305607613
 31
0.0
 11
195.2002830005048
 21
15.17260093745691
 31
0.0
 11
195.1673826485529
 21
15.17260093745691
 31
0.0
 11
195.0825343724662
 21
15.17260093745691
 31
0.0
 11
194.9665173418988
 21
15.17260093745691
 31
0.0
 11
194.8401107265044
 21
15.17260093745691
 31
0.0
 11
194.724093695937
 21
15.17260093745691
 31
0.0
 11
194.6392454198503
 21
15.17260093745691
 31
0.0
 11
194.6063450678984
 21
15.17260093745691
 31
0.0
 11
194.6063450678984
 21
15.19975793614803
 31
0.0
 11
194.6063450678984
 21
15.2595033332685
 31
0.0
 11
194.6063450678984
 21
15.31924873038898
 31
0.0
 11
194.6063450678984
 21
15.3464057290801
 31
0.0
 11
194.6392454198504
 21
15.3464057290801
 31
0.0
 11
194.724093695937
 21
15.3464057290801
 31
0.0
 11
194.8401107265044
 21
15.3464057290801
 31
0.0
 11
194.9665173418988
 21
15.3464057290801
 31
0.0
 11
195.0825343724662
 21
15.3464057290801
 31
0.0
 11
195.1673826485529
 21
15.3464057290801
 31
0.0
 11
195.2002830005048
 21
15.3464057290801
 31
0.0
 11
195.2002830005048
 21
15.3765001173137
 31
0.0
 11
195.2002830005048
 21
15.45715307777974
 31
0.0
 11
195.2002830005048
 21
15.5739193041261
 31
0.0
 11
195.2002830005048
 21
15.71235349000064
 31
0.0
 11
195.2002830005048
 21
15.85801032905125
 31
0.0
 11
195.2002830005048
 21
15.9964445149258
 31
0.0
 11
195.2002830005048
 21
16.11321074127216
 31
0.0
 11
195.2002830005048
 21
16.1938637017382
 31
0.0
 11
195.2002830005048
 21
16.2239580899718
 31
0.0
 11
195.2250405288618
 21
16.22228324219444
 31
0.0
 11
195.2840777118669
 21
16.21828937441768
 31
0.0
 11
195.3545414464214
 21
16.21352249997443
 31
0.0
 11
195.4135786294265
 21
16.20952863219766
 31
0.0
 11
195.4383361577835
 21
16.20785378442031
 31
0.0
 11
195.423306722403
 21
16.18415814206509
 31
0.0
 11
195.3821827564383
 21
16.17047697887401
 31
0.0
 11
195.3821827564383
 21
16.1422166479483
 31
0.0
 11
195.3821827564383
 21
16.06647896106737
 31
0.0
 11
195.3821827564383
 21
15.95682887707559
 31
0.0
 11
195.3821827564383
 21
15.82683135481729
 31
0.0
 11
195.3821827564383
 21
15.69005135313682
 31
0.0
 11
195.3821827564383
 21
15.56005383087852
 31
0.0
 11
195.3821827564383
 21
15.45040374688674
 31
0.0
 11
195.3821827564383
 21
15.37466606000582
 31
0.0
 11
195.3821827564383
 21
15.3464057290801
 31
0.0
 11
195.4149350096115
 21
15.3464057290801
 31
0.0
 11
195.4994013467422
 21
15.3464057290801
 31
0.0
 11
195.6148961342476
 21
15.3464057290801
 31
0.0
 11
195.7407337385445
 21
15.3464057290801
 31
0.0
 11
195.8562285260498
 21
15.3464057290801
 31
0.0
 11
195.9406948631806
 21
15.3464057290801
 31
0.0
 11
195.9734471163538
 21
15.3464057290801
 31
0.0
 11
195.9734471163538
 21
15.31924873038898
 31
0.0
 11
195.9734471163538
 21
15.2595033332685
 31
0.0
 11
195.9734471163538
 21
15.19975793614803
 31
0.0
 11
195.9734471163538
 21
15.17260093745691
 31
0.0
 11
195.9406948631806
 21
15.17260093745691
 31
0.0
 11
195.8562285260498
 21
15.17260093745691
 31
0.0
 11
195.7407337385445
 21
15.17260093745691
 31
0.0
 11
195.6148961342476
 21
15.17260093745691
 31
0.0
 11
195.4994013467422
 21
15.17260093745691
 31
0.0
 11
195.4149350096114
 21
15.17260093745691
 31
0.0
 11
195.3821827564383
 21
15.17260093745691
 31
0.0
 11
195.3821827564383
 21
15.14016305607613
 31
0.0
 11
195.3821827564383
 21
15.05211737804258
 31
0.0
 11
195.3821827564383
 21
14.92236585251946
 31
0.0
 11
195.3821827564383
 21
14.76481042866995
 31
0.0
 11
195.3821827564383
 21
14.59335305565726
 31
0.0
 11
195.3821827564383
 21
14.42189568264456
 31
0.0
 11
195.3821827564383
 21
14.26434025879505
 31
0.0
 11
195.3821827564383
 21
14.13458873327193
 31
0.0
 11
195.3821827564383
 21
14.04654305523838
 31
0.0
 11
195.3821827564383
 21
14.0141051738576
 31
0.0
  0
SPLINE
  5
B2
102
{ACAD_REACTORS
330
CF
102
}
330
48
100
AcDbEntity
  8
_U_30EC_U_30A4_U_30E4_U_30FC_1
  6
Continuous
 62
     2
100
AcDbSpline
210
0.0
220
0.0
230
1.0
 70
     8
 71
     3
 72
    62
 73
    58
 74
    56
 42
0.000000001
 43
0.0000000001
 44
0.00000001
 40
0.0
 40
0.0
 40
0.0
 40
0.0
 40
0.0598250028308485
 40
0.2024846486897331
 40
0.3727558389221031
 40
0.515415484793607
 40
0.5752404975785339
 40
0.9332326775487276
 40
1.290451762839471
 40
1.602077253145857
 40
1.699931634112132
 40
1.799359756425055
 40
2.270120149657113
 40
2.804661928461543
 40
2.882342287383254
 40
3.076543185719107
 40
3.329004354835568
 40
3.581465524568396
 40
3.77566642454368
 40
3.853346784558299
 40
3.899120679595045
 40
3.984129341792043
 40
4.029903236817391
 40
4.105797496059543
 40
4.295533144152499
 40
4.542189486611734
 40
4.788845828875676
 40
4.978581476410055
 40
5.054475735244296
 40
5.621734664339291
 40
6.130867242037307
 40
6.225249780948584
 40
6.318913039727247
 40
6.663579954558871
 40
7.047498900224734
 40
7.435230791575679
 40
7.498943906668091
 40
7.650875181210084
 40
7.832212509001595
 40
7.984143783696981
 40
8.047856898903108
 40
8.091554632732619
 40
8.172707566964286
 40
8.216405300768013
 40
8.289021782160898
 40
8.462184160757271
 40
8.668861838005352
 40
8.842024215263944
 40
8.91464069547514
 40
8.989881580861335
 40
9.155411528827223
 40
9.320941477743986
 40
9.396182352487228
 40
9.454709011143775
 40
9.58346766017071
 40
9.712226309012989
 40
9.770752957989442
 40
9.770752957989442
 40
9.770752957989442
 40
9.770752957989442
 10
187.1521871691833
 20
14.93980288195951
 30
0.0
 10
187.1322348171623
 20
14.93980875568673
 30
0.0
 10
187.0647037716466
 20
14.93982863806158
 30
0.0
 10
186.9410612161788
 20
14.93949362520326
 30
0.0
 10
186.7863180150056
 20
14.94107673750513
 30
0.0
 10
186.669734948248
 20
14.93686078860496
 30
0.0
 10
186.4550942634239
 20
14.95215205331627
 30
0.0
 10
186.8518948407229
 20
14.59198721286193
 30
0.0
 10
186.8945656069268
 20
14.37510503397167
 30
0.0
 10
187.3189162146611
 20
14.19325062511452
 30
0.0
 10
187.1439821496074
 20
14.08985196568073
 30
0.0
 10
187.0194523925084
 20
13.87831523212724
 30
0.0
 10
186.7666277235943
 20
14.34806081001563
 30
0.0
 10
186.4797602893627
 20
14.9951151698452
 30
0.0
 10
186.4906335926659
 20
14.68782672154693
 30
0.0
 10
186.488289277796
 20
14.52288616971778
 30
0.0
 10
186.4861096126411
 20
14.28879670711692
 30
0.0
 10
186.4980774396346
 20
14.04498072421782
 30
0.0
 10
186.4687984740631
 20
13.89855796860983
 30
0.0
 10
186.511452262547
 20
13.75113490174537
 30
0.0
 10
186.4239814005639
 20
13.76685797306219
 30
0.0
 10
186.3768527606745
 20
13.76694303543453
 30
0.0
 10
186.2898973207712
 20
13.75109425482908
 30
0.0
 10
186.3313474021723
 20
13.89527771422761
 30
0.0
 10
186.3029875004285
 20
14.03855052698453
 30
0.0
 10
186.31459737753
 20
14.27674947365262
 30
0.0
 10
186.3124175648271
 20
14.50517235240343
 30
0.0
 10
186.3103111127994
 20
14.66705729375992
 30
0.0
 10
186.3208035438322
 20
14.98153709333746
 30
0.0
 10
186.0128963252893
 20
14.29229470872436
 30
0.0
 10
185.7055258267455
 20
13.81476750243045
 30
0.0
 10
185.5851367066275
 20
14.03741112637428
 30
0.0
 10
185.4074607910721
 20
14.15011034955561
 30
0.0
 10
185.8853326362894
 20
14.32548143465461
 30
0.0
 10
185.9353959057207
 20
14.5609192925203
 30
0.0
 10
186.3583799621716
 20
14.95322989344607
 30
0.0
 10
186.127675427354
 20
14.93655307029067
 30
0.0
 10
186.004968585934
 20
14.94269518948772
 30
0.0
 10
185.8325483095662
 20
14.93312822699574
 30
0.0
 10
185.7213224694449
 20
14.95448818489667
 30
0.0
 10
185.6025779627448
 20
14.92136265357421
 30
0.0
 10
185.6183169706686
 20
15.00203900606886
 30
0.0
 10
185.6178550933762
 20
15.04645414290856
 30
0.0
 10
185.6027881889931
 20
15.12967081778536
 30
0.0
 10
185.7372380935444
 20
15.09062651983886
 30
0.0
 10
185.8619755545747
 20
15.11739729328425
 30
0.0
 10
186.062875523728
 20
15.10063949044055
 30
0.0
 10
186.1921540949352
 20
15.12204225913007
 30
0.0
 10
186.3328419928295
 20
15.08868778853424
 30
0.0
 10
186.2980927452615
 20
15.22651875785069
 30
0.0
 10
186.3222185666713
 20
15.34963257349481
 30
0.0
 10
186.2967086182392
 20
15.47024055670334
 30
0.0
 10
186.3333251146685
 20
15.60539865141492
 30
0.0
 10
186.2211417027769
 20
15.58094545781888
 30
0.0
 10
186.1280356457136
 20
15.59307749842019
 30
0.0
 10
186.0191547579819
 20
15.58957630069991
 30
0.0
 10
185.9569697640964
 20
15.589817559516
 30
0.0
 10
185.9375369557246
 20
15.58989295124141
 30
0.0
 11
187.1521871691833
 21
14.93980288195951
 31
0.0
 11
187.0923621563982
 21
14.93980288195951
 31
0.0
 11
186.949702510526
 21
14.93980288195951
 31
0.0
 11
186.7794313202913
 21
14.93980288195951
 31
0.0
 11
186.6367716744191
 21
14.93980288195951
 31
0.0
 11
186.576946661634
 21
14.93980288195951
 31
0.0
 11
186.7679960754842
 21
14.63705127966892
 31
0.0
 11
186.994127278563
 21
14.36051890576686
 31
0.0
 11
187.2244526173371
 21
14.15061253493461
 31
0.0
 11
187.1521596330704
 21
14.08466403668717
 31
0.0
 11
187.0879364402643
 21
14.0087605905256
 31
0.0
 11
186.7732818215558
 21
14.35891458349365
 31
0.0
 11
186.4886640249976
 21
14.811382951436
 31
0.0
 11
186.4886640249976
 21
14.73370259137312
 31
0.0
 11
186.4886640249976
 21
14.53950169121592
 31
0.0
 11
186.4886640249976
 21
14.28704052101155
 31
0.0
 11
186.4886640249976
 21
14.03457935080719
 31
0.0
 11
186.4886640249976
 21
13.84037845064999
 31
0.0
 11
186.4886640249976
 21
13.76269809058711
 31
0.0
 11
186.4428901295605
 21
13.76269809058711
 31
0.0
 11
186.3578814666058
 21
13.76269809058711
 31
0.0
 11
186.3121075711687
 21
13.76269809058711
 31
0.0
 11
186.3121075711687
 21
13.83859234982739
 31
0.0
 11
186.3121075711687
 21
14.02832799792809
 31
0.0
 11
186.3121075711687
 21
14.27498434045901
 31
0.0
 11
186.3121075711687
 21
14.52164068298993
 31
0.0
 11
186.3121075711687
 21
14.71137633109063
 31
0.0
 11
186.3121075711687
 21
14.78727059033091
 31
0.0
 11
185.9987626399266
 21
14.31440946197692
 31
0.0
 11
185.6352328662148
 21
13.9579517710938
 31
0.0
 11
185.5773927461627
 21
14.03253450545024
 31
0.0
 11
185.5094852305341
 21
14.0970432293924
 31
0.0
 11
185.7750721898319
 21
14.31672219795888
 31
0.0
 11
186.0233764972061
 21
14.60953395971697
 31
0.0
 11
186.226498280526
 21
14.93980288195951
 31
0.0
 11
186.1627851652721
 21
14.93980288195951
 31
0.0
 11
186.0108538904359
 21
14.93980288195951
 31
0.0
 11
185.8295165624055
 21
14.93980288195951
 31
0.0
 11
185.6775852875693
 21
14.93980288195951
 31
0.0
 11
185.6138721723154
 21
14.93980288195951
 31
0.0
 11
185.6138721723154
 21
14.9835006160021
 31
0.0
 11
185.6138721723154
 21
15.06465355065261
 31
0.0
 11
185.6138721723154
 21
15.1083512846952
 31
0.0
 11
185.6864886537961
 21
15.1083512846952
 31
0.0
 11
185.8596510327118
 21
15.1083512846952
 31
0.0
 11
186.0663287107723
 21
15.1083512846952
 31
0.0
 11
186.239491089688
 21
15.1083512846952
 31
0.0
 11
186.3121075711687
 21
15.1083512846952
 31
0.0
 11
186.3121075711687
 21
15.18359217009304
 31
0.0
 11
186.3121075711687
 21
15.3491221179683
 31
0.0
 11
186.3121075711687
 21
15.51465206584357
 31
0.0
 11
186.3121075711687
 21
15.58989295124141
 31
0.0
 11
186.2535809125055
 21
15.58989295124141
 31
0.0
 11
186.1248222634467
 21
15.58989295124141
 31
0.0
 11
185.9960636143877
 21
15.58989295124141
 31
0.0
 11
185.9375369557246
 21
15.58989295124141
 31
0.0
  0
SPLINE
  5
B3
102
{ACAD_REACTORS
330
CF
102
}
330
48
100
AcDbEntity
  8
_U_30EC_U_30A4_U_30E4_U_30FC_1
  6
Continuous
 62
     2
100
AcDbSpline
210
0.0
220
0.0
230
1.0
 70
     8
 71
     3
 72
    70
 73
    66
 74
    64
 42
0.000000001
 43
0.0000000001
 44
0.00000001
 40
0.0
 40
0.0
 40
0.0
 40
0.0
 40
0.0241731073021472
 40
0.0846058988987013
 40
0.1631685280353284
 40
0.2417311571789756
 40
0.3021639488292751
 40
0.3263370654895541
 40
0.3533118254248881
 40
0.4228783438922058
 40
0.5179999095313313
 40
0.621639823946596
 40
0.7167613891499528
 40
0.7863279069649686
 40
0.8133026791761623
 40
0.8372943998771456
 40
0.8945054261372639
 40
0.9627895541962399
 40
1.020000580349049
 40
1.043992300975147
 40
1.071934345522889
 40
1.113121768772904
 40
1.145225199332229
 40
1.225483775412767
 40
1.329819923771483
 40
1.434156071994376
 40
1.514414647795801
 40
1.546518078208409
 40
1.578974764260183
 40
1.662678849314178
 40
1.777131373668398
 40
1.901833377474789
 40
2.016285900500579
 40
2.099989982527946
 40
2.132446666570305
 40
2.158782354486029
 40
2.216720867907812
 40
2.274659381334232
 40
2.300995069256166
 40
2.333451754066138
 40
2.417155836543818
 40
2.531608358985258
 40
2.656310362283753
 40
2.770762886388885
 40
2.854466971340051
 40
2.886923657363857
 40
2.913597976833287
 40
2.982389642875081
 40
3.076451716946936
 40
3.178937260458538
 40
3.272999334739929
 40
3.341791001059145
 40
3.368465320663452
 40
3.396976080738673
 40
3.472140811845909
 40
3.578408190308599
 40
3.700226892456035
 40
3.822045594634252
 40
3.928312973256359
 40
4.003477705314756
 40
4.031988456866822
 40
4.058324144797623
 40
4.11626265823679
 40
4.174201171400597
 40
4.200536849608532
 40
4.200536849608532
 40
4.200536849608532
 40
4.200536849608532
 10
185.9857704961609
 20
15.75844135397701
 30
0.0
 10
185.9938259544679
 20
15.75844359811683
 30
0.0
 10
186.0220200663241
 20
15.75845146032793
 30
0.0
 10
186.0765534803672
 20
15.75830754828368
 30
0.0
 10
186.1482891808604
 20
15.75909120499894
 30
0.0
 10
186.2236240137062
 20
15.75627570463807
 30
0.0
 10
186.2713052366438
 20
15.76298403400953
 30
0.0
 10
186.3195071245616
 20
15.75197563692429
 30
0.0
 10
186.3062571799873
 20
15.80546402997029
 30
0.0
 10
186.3151093964539
 20
15.86049583543087
 30
0.0
 10
186.3108698036285
 20
15.95419908726104
 30
0.0
 10
186.313348348128
 20
16.04959482218527
 30
0.0
 10
186.3090938706059
 20
16.14356821983381
 30
0.0
 10
186.3179818665847
 20
16.19795062438007
 30
0.0
 10
186.3046977409945
 20
16.25233997691454
 30
0.0
 10
186.3514119277108
 20
16.23842216335353
 30
0.0
 10
186.3943254545737
 20
16.2410387737404
 30
0.0
 10
186.4605443456684
 20
16.23648422450752
 30
0.0
 10
186.5013342271799
 20
16.22778162134161
 30
0.0
 10
186.5525145690819
 20
16.23531799890195
 30
0.0
 10
186.52537204872
 20
16.19349970223284
 30
0.0
 10
186.4803096055706
 20
16.20284992072594
 30
0.0
 10
186.4942065045051
 20
16.13841207371835
 30
0.0
 10
186.4858414431653
 20
16.07378219627396
 30
0.0
 10
186.4903632178398
 20
15.97529141193884
 30
0.0
 10
186.4854741311167
 20
15.87595932842567
 30
0.0
 10
186.4950258992082
 20
15.81293115552964
 30
0.0
 10
186.4799761455201
 20
15.74964011499785
 30
0.0
 10
186.5449159457208
 20
15.76515072944265
 30
0.0
 10
186.6116246399497
 20
15.75499387697808
 30
0.0
 10
186.7241435470827
 20
15.75988800099363
 30
0.0
 10
186.8390235448954
 20
15.7569120473278
 30
0.0
 10
186.9519871999746
 20
15.76221664184986
 30
0.0
 10
187.0176267597678
 20
15.75107306472085
 30
0.0
 10
187.0816276691053
 20
15.76744532319853
 30
0.0
 10
187.0703142889189
 20
15.71761689905271
 30
0.0
 10
187.077533987151
 20
15.67416715212119
 30
0.0
 10
187.0703142611269
 20
15.63071745587441
 30
0.0
 10
187.0816277175994
 20
15.58088895196874
 30
0.0
 10
187.0176263598971
 20
15.59726166091359
 30
0.0
 10
186.951992124046
 20
15.58611271661585
 30
0.0
 10
186.838997431733
 20
15.59144857206851
 30
0.0
 10
186.7242456548644
 20
15.58834345663819
 30
0.0
 10
186.611318368686
 20
15.59364894682585
 30
0.0
 10
186.5455220903584
 20
15.58257300019591
 30
0.0
 10
186.4816097975358
 20
15.59887597847614
 30
0.0
 10
186.4936015165126
 20
15.54423524395739
 30
0.0
 10
186.4862104613005
 20
15.4885429504784
 30
0.0
 10
186.4892684841983
 20
15.39649689140569
 30
0.0
 10
186.4893422785683
 20
15.30179109873102
 30
0.0
 10
186.486031357836
 20
15.20952782902267
 30
0.0
 10
186.4939505989903
 20
15.15435768736141
 30
0.0
 10
186.4815076611617
 20
15.10058169100139
 30
0.0
 10
186.5389116551631
 20
15.11453768862784
 30
0.0
 10
186.5994708140383
 20
15.1051145788423
 30
0.0
 10
186.7048680855081
 20
15.10942885928707
 30
0.0
 10
186.8204294070622
 20
15.10835504612034
 30
0.0
 10
186.9359688877797
 20
15.10725965900998
 30
0.0
 10
187.0414181130841
 20
15.11162525770635
 30
0.0
 10
187.1018680471804
 20
15.10209426030673
 30
0.0
 10
187.159283773911
 20
15.11617289606382
 30
0.0
 10
187.1477773876708
 20
15.06707153265684
 30
0.0
 10
187.153756678175
 20
15.02564658018651
 30
0.0
 10
187.1520311050801
 20
14.97651677966697
 30
0.0
 10
187.1521500122971
 20
14.94854428447609
 30
0.0
 10
187.1521871691833
 20
14.93980288195951
 30
0.0
 11
185.9857704961609
 21
15.75844135397701
 31
0.0
 11
186.0099436128282
 21
15.75844135397701
 31
0.0
 11
186.0703764044962
 21
15.75844135397701
 31
0.0
 11
186.1489390336648
 21
15.75844135397701
 31
0.0
 11
186.2275016628334
 21
15.75844135397701
 31
0.0
 11
186.2879344545015
 21
15.75844135397701
 31
0.0
 11
186.3121075711687
 21
15.75844135397701
 31
0.0
 11
186.3121075711687
 21
15.78541612620059
 31
0.0
 11
186.3121075711687
 21
15.85498264404034
 31
0.0
 11
186.3121075711687
 21
15.9501042092498
 31
0.0
 11
186.3121075711687
 21
16.0537441235825
 31
0.0
 11
186.3121075711687
 21
16.14886568879196
 31
0.0
 11
186.3121075711687
 21
16.21843220663172
 31
0.0
 11
186.3121075711687
 21
16.2454069788553
 31
0.0
 11
186.3360407604892
 21
16.24373213107795
 31
0.0
 11
186.3931122119458
 21
16.23973826330118
 31
0.0
 11
186.461229750781
 21
16.23497138885793
 31
0.0
 11
186.5183012022376
 21
16.23097752108117
 31
0.0
 11
186.5422343915581
 21
16.22930267330381
 31
0.0
 11
186.5274972731229
 21
16.20556293372639
 31
0.0
 11
186.4886640249976
 21
16.1918376733131
 31
0.0
 11
186.4886640249976
 21
16.15973424225117
 31
0.0
 11
186.4886640249976
 21
16.07947566459634
 31
0.0
 11
186.4886640249976
 21
15.97513951364505
 31
0.0
 11
186.4886640249976
 21
15.87080336269377
 31
0.0
 11
186.4886640249976
 21
15.79054478503894
 31
0.0
 11
186.4886640249976
 21
15.75844135397701
 31
0.0
 11
186.5211207110824
 21
15.75844135397701
 31
0.0
 11
186.6048247962486
 21
15.75844135397701
 31
0.0
 11
186.7192773208634
 21
15.75844135397701
 31
0.0
 11
186.8439793252946
 21
15.75844135397701
 31
0.0
 11
186.9584318499095
 21
15.75844135397701
 31
0.0
 11
187.0421359350756
 21
15.75844135397701
 31
0.0
 11
187.0745926211604
 21
15.75844135397701
 31
0.0
 11
187.0745926211604
 21
15.73210566604957
 31
0.0
 11
187.0745926211604
 21
15.67416715260921
 31
0.0
 11
187.0745926211604
 21
15.61622863916885
 31
0.0
 11
187.0745926211604
 21
15.58989295124141
 31
0.0
 11
187.0421359350756
 21
15.58989295124141
 31
0.0
 11
186.9584318499095
 21
15.58989295124141
 31
0.0
 11
186.8439793252946
 21
15.58989295124141
 31
0.0
 11
186.7192773208634
 21
15.58989295124141
 31
0.0
 11
186.6048247962485
 21
15.58989295124141
 31
0.0
 11
186.5211207110824
 21
15.58989295124141
 31
0.0
 11
186.4886640249976
 21
15.58989295124141
 31
0.0
 11
186.4886640249976
 21
15.56321863152019
 31
0.0
 11
186.4886640249976
 21
15.49442696487073
 31
0.0
 11
186.4886640249976
 21
15.40036489006433
 31
0.0
 11
186.4886640249976
 21
15.29787934587228
 31
0.0
 11
186.4886640249976
 21
15.20381727106588
 31
0.0
 11
186.4886640249976
 21
15.13502560441642
 31
0.0
 11
186.4886640249976
 21
15.1083512846952
 31
0.0
 11
186.5171747850993
 21
15.1083512846952
 31
0.0
 11
186.5923395162766
 21
15.1083512846952
 31
0.0
 11
186.6986068948376
 21
15.1083512846952
 31
0.0
 11
186.8204255970904
 21
15.1083512846952
 31
0.0
 11
186.9422442993433
 21
15.1083512846952
 31
0.0
 11
187.0485116779043
 21
15.1083512846952
 31
0.0
 11
187.1236764090816
 21
15.1083512846952
 31
0.0
 11
187.1521871691833
 21
15.1083512846952
 31
0.0
 11
187.1521871691833
 21
15.08201559676775
 31
0.0
 11
187.1521871691833
 21
15.02407708332736
 31
0.0
 11
187.1521871691833
 21
14.96613856988696
 31
0.0
 11
187.1521871691833
 21
14.93980288195951
 31
0.0
  0
SPLINE
  5
B4
102
{ACAD_REACTORS
330
CF
102
}
330
48
100
AcDbEntity
  8
_U_30EC_U_30A4_U_30E4_U_30FC_1
  6
Continuous
 62
     2
100
AcDbSpline
210
0.0
220
0.0
230
1.0
 70
     8
 71
     3
 72
    24
 73
    20
 74
    18
 42
0.000000001
 43
0.0000000001
 44
0.00000001
 40
0.0
 40
0.0
 40
0.0
 40
0.0
 40
0.2211075008754687
 40
0.4273218586245927
 40
0.5080174679239972
 40
0.5914835907870943
 40
0.8143265690193523
 40
1.054651302686667
 40
1.295452694023238
 40
1.518109231328848
 40
1.540864321905461
 40
1.595126460622719
 40
1.659890947896029
 40
1.714153085187384
 40
1.736908174961682
 40
1.764951100735388
 40
1.801562291220974
 40
1.953914424543697
 40
2.126104167379796
 40
2.126104167379796
 40
2.126104167379796
 40
2.126104167379796
 10
185.9375369556889
 20
15.58989295113021
 30
0.0
 10
185.9112579081812
 20
15.53097628234377
 30
0.0
 10
185.8604698894425
 20
15.41711139679257
 30
0.0
 10
185.8131784839112
 20
15.14441958233116
 30
0.0
 10
185.7043482802617
 20
15.24445482575453
 30
0.0
 10
185.5514800279637
 20
15.27118593367334
 30
0.0
 10
185.7686155181199
 20
15.48518135017634
 30
0.0
 10
185.7838483674381
 20
15.70332117782489
 30
0.0
 10
185.8906889492
 20
15.88451579066427
 30
0.0
 10
185.8305380947077
 20
16.16913226311396
 30
0.0
 10
185.9334317395402
 20
16.14114089222449
 30
0.0
 10
185.9779933468149
 20
16.13243251602299
 30
0.0
 10
186.0380842395396
 20
16.12139654183355
 30
0.0
 10
186.0756619587439
 20
16.10767523055561
 30
0.0
 10
186.1252466928605
 20
16.10756076160226
 30
0.0
 10
186.0930158919325
 20
16.07306592398623
 30
0.0
 10
186.0171802221881
 20
16.08404104537971
 30
0.0
 10
186.0429447159694
 20
15.89858969582446
 30
0.0
 10
186.0055896763849
 20
15.80702313549585
 30
0.0
 10
185.9857704961609
 20
15.75844135397701
 30
0.0
 11
185.9375369556889
 21
15.58989295113021
 31
0.0
 11
185.8616471328552
 21
15.38221708318556
 31
0.0
 11
185.7717402238433
 21
15.19663392356191
 31
0.0
 11
185.701149392311
 21
15.2357327256355
 31
0.0
 11
185.6245525192651
 21
15.26889163187721
 31
0.0
 11
185.7214026947455
 21
15.46958801203541
 31
0.0
 11
185.7994641467471
 21
15.69688163177027
 31
0.0
 11
185.858971692972
 21
15.93021436608693
 31
0.0
 11
185.9001601511226
 21
16.14902808999051
 31
0.0
 11
185.9224183822214
 21
16.14429889221392
 31
0.0
 11
185.975495702534
 21
16.13302157443898
 31
0.0
 11
186.0388460525844
 21
16.11956154999793
 31
0.0
 11
186.091923372897
 21
16.10828423222299
 31
0.0
 11
186.1141816039958
 21
16.1035550344464
 31
0.0
 11
186.096409715746
 21
16.0818625084101
 31
0.0
 11
186.0606122998071
 21
16.0741862844537
 31
0.0
 11
186.028195330148
 21
15.92532288171311
 31
0.0
 11
185.9857704961609
 21
15.75844135397701
 31
0.0
  0
LWPOLYLINE
  5
B5
102
{ACAD_REACTORS
330
D0
102
}
330
48
100
AcDbEntity
  8
_U_30EC_U_30A4_U_30E4_U_30FC_1
  6
Continuous
 62
     2
100
AcDbPolyline
 90
        5
 70
     1
 43
0.0
 10
191.1602971697031
 20
15.3972233679562
 10
192.4578138032672
 20
15.3972233679562
 10
192.4578138032672
 20
15.2287543402206
 10
191.1602971697031
 20
15.2287543402206
 10
191.1602971697031
 20
15.3972233679562
  0
MTEXT
  5
B7
330
48
100
AcDbEntity
  8
1
 62
   250
100
AcDbMText
 10
25.00000000000001
 20
5.0
 30
0.0
 40
3.5
 41
0.0
 71
     4
 72
     1
  1
備考欄の文字列 原点位置=4
  7
CONVERTER_11
 73
     1
 44
0.54545454545455
  0
MTEXT
  5
B8
330
48
100
AcDbEntity
  8
1
 62
     2
100
AcDbMText
 10
89.50000000000001
 20
24.0
 30
0.0
 40
3.5
 41
0.0
 71
     5
 72
     1
  1
尺度
  7
CONVERTER_11
 73
     1
 44
0.54545454545455
  0
MTEXT
  5
B9
330
48
100
AcDbEntity
  8
1
 62
     2
100
AcDbMText
 10
135.5
 20
25.0
 30
0.0
 40
3.0
 41
0.0
 71
     5
 72
     1
  1
製図
  7
CONVERTER_11
 73
     1
 44
0.59090909090909
  0
MTEXT
  5
BA
330
48
100
AcDbEntity
  8
1
 62
     2
100
AcDbMText
 10
152.5
 20
25.0
 30
0.0
 40
3.0
 41
0.0
 71
     5
 72
     1
  1
設計
  7
CONVERTER_11
 73
     1
 44
0.59090909090909
  0
MTEXT
  5
BB
330
48
100
AcDbEntity
  8
1
 62
     2
100
AcDbMText
 10
118.5
 20
25.0
 30
0.0
 40
3.0
 41
0.0
 71
     5
 72
     1
  1
検図
  7
CONVERTER_11
 73
     1
 44
0.59090909090909
  0
MTEXT
  5
BC
330
48
100
AcDbEntity
  8
1
 62
     2
100
AcDbMText
 10
175.0
 20
23.5
 30
0.0
 40
3.5
 41
0.0
 71
     5
 72
     1
  1
第三角法
  7
CONVERTER_11
 73
     1
 44
0.54545454545455
  0
MTEXT
  5
BD
330
48
100
AcDbEntity
  8
1
 62
     2
100
AcDbMText
 10
101.5
 20
25.0
 30
0.0
 40
3.0
 41
0.0
 71
     5
 72
     1
  1
承認
  7
CONVERTER_11
 73
     1
 44
0.59090909090909
  0
MTEXT
  5
BE
330
48
100
AcDbEntity
  8
1
 62
     2
100
AcDbMText
 10
29.00000000000001
 20
14.25
 30
0.0
 40
3.5
 41
0.0
 71
     5
 72
     1
  1
品番
  7
CONVERTER_11
 73
     1
 44
0.72727272727273
  0
MTEXT
  5
BF
330
48
100
AcDbEntity
  8
1
 62
     2
100
AcDbMText
 10
29.00000000000001
 20
22.75
 30
0.0
 40
3.5
 41
0.0
 71
     5
 72
     1
  1
品名
  7
CONVERTER_11
 73
     1
 44
0.72727272727273
  0
MTEXT
  5
C0
330
48
100
AcDbEntity
  8
1
 62
     2
100
AcDbMText
 10
29.00000000000001
 20
34.0
 30
0.0
 40
3.5
 41
0.0
 71
     5
 72
     1
  1
備考
  7
CONVERTER_11
 73
     1
 44
0.45454545454545
  0
MTEXT
  5
C1
330
48
100
AcDbEntity
  8
1
 62
     2
100
AcDbMText
 10
32.50000000000001
 20
282.0000000000003
 30
0.0
 40
5.0
 41
0.0
 71
     5
 72
     1
  1
図番
  7
CONVERTER_11
 73
     1
 44
0.45454545454545
  0
HATCH
  5
C2
330
48
100
AcDbEntity
  8
1
  6
Continuous
 62
     2
100
AcDbHatch
 10
0.0
 20
0.0
 30
0.0
210
0.0
220
0.0
230
1.0
  2
CUSTOM0
 70
     0
 71
     1
 91
        1
 92
        1
 93
        1
 72
     4
 94
        3
 73
     0
 74
     0
 95
       99
 96
       95
 40
0.0
 40
0.0
 40
0.0
 40
0.0
 40
0.0796417172271993
 40
0.1621768542355633
 40
0.2486489160957354
 40
0.3404969668524181
 40
0.4381912511164329
 40
0.5434463660244624
 40
0.651811519284696
 40
0.7530190937886455
 40
0.8492196919724855
 40
0.9419290312997931
 40
1.034249663570006
 40
1.129078600620143
 40
1.226697027573225
 40
1.32722042542167
 40
1.470572134937979
 40
1.595489863371219
 40
1.719934125348386
 40
1.850576620127365
 40
1.989059629987279
 40
2.134139054226895
 40
2.28069800720718
 40
2.424529739039443
 40
2.565929576985812
 40
2.708239260773551
 40
2.861717887443605
 40
3.045168540347316
 40
3.183798301138562
 40
3.314813961455441
 40
3.442083470447295
 40
3.569912708372938
 40
3.702177512509341
 40
3.842307559659518
 40
3.992872223245914
 40
4.156750662218302
 40
4.310981861107522
 40
4.445859909322558
 40
4.572393936131578
 40
4.701656719781945
 40
4.768279086008442
 40
4.835960697898378
 40
4.912788918729322
 40
5.00628520848151
 40
5.026909478751587
 40
5.047533749021151
 40
5.101808031471199
 40
5.162325165538494
 40
5.226919745995811
 40
5.294231806596678
 40
5.364544852554817
 40
5.438319055467869
 40
5.517877651324201
 40
5.607647714861512
 40
5.700449642544361
 40
5.788251142364097
 40
5.872714706039703
 40
5.955167292575227
 40
6.037192395190309
 40
6.120669181469006
 40
6.206848616686246
 40
6.296680855416708
 40
6.442558392872551
 40
6.568190371608175
 40
6.692904567360261
 40
6.824220446557078
 40
6.963121850329307
 40
7.107843738851087
 40
7.253431663907197
 40
7.395187468036622
 40
7.533140753237673
 40
7.670550457175182
 40
7.816236511769185
 40
7.987691657359125
 40
8.142277421969187
 40
8.293662615414908
 40
8.44296246087919
 40
8.591598316185229
 40
8.743678992361714
 40
8.903725323699103
 40
9.076307008890447
 40
9.265578604680503
 40
9.45920379536068
 40
9.617619810273464
 40
9.753609671361838
 40
9.874873300004014
 40
9.954520184977692
 40
10.02416413719234
 40
10.09769764405434
 40
10.18909955924963
 40
10.20974586420125
 40
10.2303921826337
 40
10.30057101881257
 40
10.3763201298754
 40
10.3763201298754
 40
10.3763201298754
 40
10.3763201298754
 10
170.1465954835851
 20
14.1379566321599
 10
170.1632217851219
 20
14.11720608845311
 10
170.1970784206577
 20
14.07495111711903
 10
170.2599822541036
 20
14.02029811392074
 10
170.3332500940392
 20
13.97299025121048
 10
170.4175969238636
 20
13.9352723143794
 10
170.5132240615459
 20
13.91040619731947
 10
170.6171853775346
 20
13.90309559345936
 10
170.7224020220405
 20
13.91142322794055
 10
170.8206626371334
 20
13.94149179651525
 10
170.9058986427548
 20
13.98848822971877
 10
170.9779220206103
 20
14.04952991250858
 10
171.0350917709096
 20
14.12412969578583
 10
171.0767868747439
 20
14.21002464660173
 10
171.1026952846292
 20
14.30485850432211
 10
171.1118037332653
 20
14.41854979038367
 10
171.0986864796487
 20
14.54332587770779
 10
171.0325330334414
 20
14.66014719171896
 10
170.9369370919569
 20
14.74512539577376
 10
170.8249681022368
 20
14.81416684459153
 10
170.6993659583269
 20
14.87204142045893
 10
170.5656691620856
 20
14.92373723284339
 10
170.4313122818831
 20
14.9789909239718
 10
170.3051983986877
 20
15.04939770641647
 10
170.1926579987535
 20
15.13785540731248
 10
170.0969963064458
 20
15.24981067868475
 10
170.0334157151825
 20
15.39949910101381
 10
170.0200706505016
 20
15.55932794385139
 10
170.0320510987449
 20
15.71048405306844
 10
170.071229892884
 20
15.83809244591538
 10
170.1354987750911
 20
15.95080874030846
 10
170.223820499974
 20
16.04648609268685
 10
170.3338091207627
 20
16.12354214985752
 10
170.4632284401264
 20
16.18151396936282
 10
170.6111838967793
 20
16.2173917758882
 10
170.7682069455486
 20
16.22746719050561
 10
170.917494046643
 20
16.21863637762589
 10
171.059625361417
 20
16.1907489934036
 10
171.1595922609625
 20
16.13413314701133
 10
171.3125074736185
 20
16.0867460210551
 10
171.2455131717168
 20
16.00197553001187
 10
171.2296479120268
 20
15.93438901873486
 10
171.1978750531297
 20
15.86926092793192
 10
171.215020220957
 20
15.76723453256956
 10
171.1666427208232
 20
15.77493211681904
 10
171.1315789440766
 20
15.7680677172481
 10
171.1296697985717
 20
15.83263831158196
 10
171.0985692931989
 20
15.87825639621396
 10
171.0664551628456
 20
15.93561036628455
 10
171.0208038475168
 20
15.98540462692559
 10
170.9658508218386
 20
16.02994813718993
 10
170.9010841173008
 20
16.06763988836551
 10
170.8232377310597
 20
16.0928337579135
 10
170.7355160553352
 20
16.09931230998109
 10
170.6452903277806
 20
16.09235709285604
 10
170.5594594694064
 20
16.06909190460913
 10
170.4828343638596
 20
16.03131644107545
 10
170.4165265636201
 20
15.98051641089572
 10
170.3622560536964
 20
15.9173114340721
 10
170.3224925345459
 20
15.84276455710369
 10
170.2976775510588
 20
15.75917313997765
 10
170.2892124262869
 20
15.65192948382284
 10
170.3019697987103
 20
15.52965457267558
 10
170.3681548409273
 20
15.41149724291214
 10
170.4640977399832
 20
15.32606325709532
 10
170.5757914963182
 20
15.25583362306716
 10
170.7010863668702
 20
15.19659162305302
 10
170.8349823941448
 20
15.14616708086132
 10
170.9689930333149
 20
15.09322516984383
 10
171.0950885316915
 20
15.02750170625175
 10
171.2076216638417
 20
14.94480352537322
 10
171.3031370284232
 20
14.83996006310072
 10
171.3672706486962
 20
14.69937117251569
 10
171.3811103725279
 20
14.54065409451592
 10
171.3673954712229
 20
14.38153155217876
 10
171.3244739153985
 20
14.23483828819213
 10
171.2545906329066
 20
14.10119796587143
 10
171.1574592213829
 20
13.98532387699294
 10
171.0347806023657
 20
13.89089981770088
 10
170.8874408413168
 20
13.82179270651981
 10
170.7177132497125
 20
13.77953210858855
 10
170.5317404979596
 20
13.76781736230406
 10
170.3528955926184
 20
13.77809486683439
 10
170.1881733753743
 20
13.81966573769152
 10
170.0834410841057
 20
13.88797642883945
 10
169.9350960790365
 20
13.93675219032109
 10
169.9980378194729
 20
14.02976591290842
 10
170.0072274430059
 20
14.10296536248279
 10
170.0303711301232
 20
14.16936294501346
 10
170.0034588335316
 20
14.26974809527581
 10
170.0521338956339
 20
14.26234033517379
 10
170.0916530580697
 20
14.26894063620896
 10
170.0996204944702
 20
14.19078703218931
 10
170.1305436967922
 20
14.15600927375854
 10
170.1465954835851
 20
14.1379566321599
 97
        1
330
A4
 75
     1
 76
     2
 52
45.0
 41
0.1
 77
     0
 78
     1
 53
45.0
 43
0.0
 44
0.0
 45
-0.282842712474619
 46
0.0
 79
     0
 98
        1
 10
0.0
 20
0.0
  0
HATCH
  5
C3
330
48
100
AcDbEntity
  8
1
  6
Continuous
 62
     2
100
AcDbHatch
 10
0.0
 20
0.0
 30
0.0
210
0.0
220
0.0
230
1.0
  2
CUSTOM1
 70
     0
 71
     1
 91
        2
 92
        1
 93
        1
 72
     4
 94
        3
 73
     0
 74
     0
 95
       57
 96
       53
 40
0.0
 40
0.0
 40
0.0
 40
0.0
 40
0.0471632082809162
 40
0.0914861054632082
 40
0.1357762519702318
 40
0.1826527001610613
 40
0.2295203288572522
 40
0.2737751972220691
 40
0.3181310461543003
 40
0.3652607198398371
 40
0.4571007286314123
 40
0.567185102916485
 40
0.6894623283867904
 40
0.818175827254564
 40
0.9510087229273514
 40
1.08585222967404
 40
1.218126164475276
 40
1.343545131142359
 40
1.454537202956774
 40
1.567187607530784
 40
1.680710966642402
 40
1.794226869736766
 40
1.900009184247566
 40
2.004085860447845
 40
2.108162674451733
 40
2.214000150155277
 40
2.496038577352133
 40
2.76235074547927
 40
2.997275353279409
 40
3.185110082137696
 40
3.246407890063918
 40
3.312607550212649
 40
3.378877742711551
 40
3.4401403996514
 40
4.100501696006376
 40
4.754913085563394
 40
5.411331693423825
 40
6.077890432568609
 40
6.110575292670888
 40
6.143260152775668
 40
6.367989363395025
 40
6.610525374951413
 40
6.863389136467206
 40
7.119380025547533
 40
7.376036605090984
 40
7.631164770966172
 40
7.8767224254563
 40
8.104953735855831
 40
8.312916685924202
 40
8.497730294941155
 40
8.651018984313737
 40
8.764738853624442
 40
8.764738853624442
 40
8.764738853624442
 40
8.764738853624442
 10
174.7922649500513
 20
13.81626739612931
 10
174.7766616726931
 20
13.81826231079079
 10
174.7463947960302
 20
13.82213201360295
 10
174.7010994202253
 20
13.82341984967267
 10
174.6559553129349
 20
13.82308683554048
 10
174.6099017123399
 20
13.82314658674222
 10
174.5640496172096
 20
13.82325813649999
 10
174.5183711648165
 20
13.82277833456589
 10
174.4750811541608
 20
13.82461109618716
 10
174.4039947951513
 20
13.80049556814666
 10
174.4057477261441
 20
13.92184693977251
 10
174.358619637057
 20
14.00726239751235
 10
174.3191478251761
 20
14.12486929345136
 10
174.2706635532646
 20
14.2423275254044
 10
174.2201017402522
 20
14.36405935761511
 10
174.1718634610477
 20
14.49075967862468
 10
174.1135232947594
 20
14.59933687784954
 10
174.0980892667261
 20
14.75620657134414
 10
173.9566586330636
 20
14.7237344654832
 10
173.8508397414904
 20
14.7351288868218
 10
173.7358569725222
 20
14.73392591514614
 10
173.625314225214
 20
14.73506945347406
 10
173.5176583522784
 20
14.73418350037525
 10
173.4121322529242
 20
14.73416602390519
 10
173.3109192682013
 20
14.72714032472413
 10
173.1266804827753
 20
14.75135859859874
 10
173.1157393685411
 20
14.44741691121884
 10
173.008769163475
 20
14.22353177253399
 10
172.9098148604347
 20
14.03895314292495
 10
172.9225090524007
 20
13.79530204804218
 10
172.8050091716397
 20
13.82508046753192
 10
172.742205586831
 20
13.82258089509602
 10
172.6785872093399
 20
13.823440751028
 10
172.3946014194075
 20
13.78098039941981
 10
173.0251638499381
 20
14.50081952444772
 10
173.1087645289072
 20
15.0127653943573
 10
173.4929252789337
 20
15.53353743550038
 10
173.4777208288567
 20
16.23519626253213
 10
173.7239265722696
 20
16.22345633081255
 10
173.8256346157562
 20
16.23225004452772
 10
173.8249752035817
 20
15.98059650730348
 10
173.9428317155828
 20
15.7981802073396
 10
174.0315515260484
 20
15.55563740662865
 10
174.1322292485259
 20
15.32340030530125
 10
174.2311142712243
 20
15.08674644566912
 10
174.3299676990669
 20
14.85461739170094
 10
174.4256166390925
 20
14.63122222788789
 10
174.5159904573272
 20
14.42272549049317
 10
174.5989944568188
 20
14.2330844852932
 10
174.6726088582799
 20
14.06663106068101
 10
174.7342815895545
 20
13.92917699626099
 10
174.7749458885604
 20
13.84999239430037
 10
174.7922649500513
 20
13.81626739612931
 97
        1
330
A5
 92
       16
 93
        1
 72
     4
 94
        3
 73
     0
 74
     0
 95
       25
 96
       21
 40
0.0
 40
0.0
 40
0.0
 40
0.0
 40
0.0911479969064819
 40
0.1858117896204665
 40
0.2804128399734488
 40
0.3715889190714509
 40
0.4679080494218707
 40
0.5642683809229229
 40
0.6605683222644988
 40
0.756965301581025
 40
0.8561348172522701
 40
1.092615965104282
 40
1.374867658141858
 40
1.611348812011576
 40
1.710518328425221
 40
1.809403163726534
 40
2.045205463294032
 40
2.326646917622084
 40
2.562449217190539
 40
2.661334043833855
 40
2.661334043833855
 40
2.661334043833855
 40
2.661334043833855
 10
173.2683700567199
 20
14.88614538197291
 10
173.2987525917923
 20
14.88598079714555
 10
173.3606895889111
 20
14.88564528689924
 10
173.4541356960331
 20
14.88269055452
 10
173.5475095236357
 20
14.87977752877153
 10
173.6417760753476
 20
14.87894201643415
 10
173.7354964790967
 20
14.87996644658048
 10
173.8352040303204
 20
14.87916977470971
 10
173.9188949546312
 20
14.8892141023522
 10
174.0637996315045
 20
14.86234617674164
 10
173.93961324448
 20
15.03665530280047
 10
173.8965867286283
 20
15.1965171100609
 10
173.7808922142209
 20
15.45518458550213
 10
173.7017565431257
 20
15.59231052861854
 10
173.6431576621816
 20
15.80937033134073
 10
173.5864803939438
 20
15.59266134213424
 10
173.5052809900477
 20
15.45327012438233
 10
173.4063701281488
 20
15.20406969370192
 10
173.325362509426
 20
15.01925830226072
 10
173.2813683325838
 20
14.91650446856115
 10
173.2683700567199
 20
14.88614538197291
 97
        1
330
A6
 75
     1
 76
     2
 52
45.0
 41
0.1
 77
     0
 78
     1
 53
45.0
 43
0.0
 44
0.0
 45
-0.282842712474619
 46
0.0
 79
     0
 98
        1
 10
0.0
 20
0.0
  0
HATCH
  5
C4
330
48
100
AcDbEntity
  8
1
  6
Continuous
 62
     2
100
AcDbHatch
 10
0.0
 20
0.0
 30
0.0
210
0.0
220
0.0
230
1.0
  2
CUSTOM2
 70
     0
 71
     1
 91
        1
 92
        1
 93
        1
 72
     4
 94
        3
 73
     0
 74
     0
 95
       95
 96
       91
 40
0.0
 40
0.0
 40
0.0
 40
0.0
 40
0.6550406656911703
 40
1.308087289031968
 40
1.420803739835845
 40
1.566130759770828
 40
1.757067341888483
 40
2.006513545026459
 40
2.087328263121565
 40
2.18532887229567
 40
2.294612454748421
 40
2.408936380534844
 40
2.526802767798594
 40
2.64636052461563
 40
2.762535723971611
 40
2.870057342870179
 40
2.966883448431716
 40
3.050803243518347
 40
3.115818222436642
 40
3.156030057150245
 40
3.213914225080142
 40
3.276689026450542
 40
3.342960320981319
 40
3.404230667150563
 40
3.453822809493344
 40
3.532499827188337
 40
3.634775188507117
 40
3.754909333008113
 40
3.889736761660636
 40
4.035769602175146
 40
4.187256681197581
 40
4.338733685675878
 40
4.488478734676077
 40
4.634708317831528
 40
4.771493189921203
 40
4.892686571561173
 40
5.199775528944397
 40
5.460353566929558
 40
5.667603142345463
 40
5.814722905404436
 40
5.828990806219734
 40
5.855488336304431
 40
5.869756237118763
 40
6.189796507762772
 40
6.531890469872955
 40
6.883053637016942
 40
7.230512024911392
 40
7.566966656764526
 40
7.885203559707312
 40
8.172887439719124
 40
8.418011594062687
 40
8.443926721190609
 40
8.510760470613098
 40
8.60214539379561
 40
8.701714041647051
 40
8.793098965075284
 40
8.85993271505786
 40
8.885847842603509
 40
9.242301256612697
 40
9.589275455016608
 40
9.921808543164069
 40
10.23479624298459
 40
10.29968150889169
 40
10.35323493887758
 40
10.40154625355142
 40
10.46482922477818
 40
10.55973900668402
 40
10.69239545985617
 40
10.84920353475667
 40
11.01626328594774
 40
11.18672024367436
 40
11.35372582577206
 40
11.50257442292426
 40
11.61866495023287
 40
11.71329869152872
 40
11.82511050573899
 40
11.9446488084571
 40
12.069292426425
 40
12.19707290435173
 40
12.32562632860522
 40
12.45034565331276
 40
12.56646595170322
 40
12.67099007414628
 40
12.76077625936779
 40
12.82703233506689
 40
12.87429132785988
 40
12.89831990323328
 40
12.92234847860016
 40
13.53984767410317
 40
14.18294284359358
 40
14.18294284359358
 40
14.18294284359358
 40
14.18294284359358
 10
177.3067935648021
 20
14.7089803820172
 10
177.1752019758551
 20
14.82265058603228
 10
176.9124193802729
 20
15.04964496316155
 10
176.399739344102
 20
15.89214462956287
 10
176.4106654595363
 20
15.5342337757702
 10
176.404122652799
 20
15.39267392272133
 10
176.4028026631773
 20
15.19421305299283
 10
176.4018117602539
 20
15.02150296045986
 10
176.4024101751974
 20
14.87865373257582
 10
176.4038994301882
 20
14.78265005413358
 10
176.4055683588472
 20
14.67545503263142
 10
176.4071934954618
 20
14.56164211517582
 10
176.4092429501685
 20
14.44441572604589
 10
176.4123165501927
 20
14.32656411232971
 10
176.4156339697042
 20
14.21228087320621
 10
176.419360534028
 20
14.10521401867277
 10
176.4217338161424
 20
14.01007408766921
 10
176.4278718888357
 20
13.92558557205694
 10
176.4239784495946
 20
13.86923087298142
 10
176.4455230443077
 20
13.79825022472361
 10
176.3680940058618
 20
13.82902677604477
 10
176.3116353240191
 20
13.82011242517613
 10
176.2540495896807
 20
13.82896218398269
 10
176.1690163478472
 20
13.7973822522595
 10
176.2009714146382
 20
13.88095155992189
 10
176.1990705282539
 20
13.94882608968307
 10
176.21079600473
 20
14.05233256764416
 10
176.2164241053
 20
14.17002125616695
 10
176.2237902178941
 20
14.30388609164422
 10
176.2320759701611
 20
14.44764152872631
 10
176.2398851897426
 20
14.59714022843442
 10
176.2457571222658
 20
14.74792549402077
 10
176.2503667817968
 20
14.89699943878436
 10
176.2542632117542
 20
15.0412291316302
 10
176.2570715126564
 20
15.17583905213016
 10
176.2576698755022
 20
15.36469614347353
 10
176.261602386715
 20
15.58975494313151
 10
176.2442175378498
 20
15.86367091125706
 10
176.2850417342582
 20
16.02787112098591
 10
176.1995153256004
 20
16.227496614651
 10
176.2660558907687
 20
16.22385458403975
 10
176.283872427323
 20
16.22413447160852
 10
176.4056801797505
 20
16.22632927398611
 10
176.508077033546
 20
15.94675118721512
 10
176.7580021509356
 20
15.74563008536001
 10
176.987003533111
 20
15.47792614987915
 10
177.2245151213109
 20
15.22646413862378
 10
177.4486090740772
 20
14.98969974061357
 10
177.675071628301
 20
14.73218692583084
 10
177.8325687886513
 20
14.61649335056923
 10
178.0472129612676
 20
14.27997152538795
 10
178.0422645974618
 20
14.40464754091604
 10
178.0433931602547
 20
14.46327691935739
 10
178.0428877841517
 20
14.55043662371978
 10
178.0430475158113
 20
14.64416143182874
 10
178.0430054891318
 20
14.73018971297036
 10
178.0430202040372
 20
14.79153891945497
 10
178.0429706255984
 20
14.94135231520994
 10
178.045881152281
 20
15.17989612510103
 10
178.0259521041162
 20
15.54486509868699
 10
178.0750433936248
 20
15.80799631993411
 10
177.9177951509179
 20
16.21928904947752
 10
178.0762112872421
 20
16.16398282551751
 10
178.1311680478628
 20
16.16199686500178
 10
178.182788776674
 20
16.16264778248255
 10
178.2713198965366
 20
16.20369527738248
 10
178.2204898303168
 20
16.05696326622985
 10
178.2313389930283
 20
15.95019971954431
 10
178.2166036994847
 20
15.79085705414111
 10
178.2099976446205
 20
15.62853061652875
 10
178.2014961399913
 20
15.45992521892395
 10
178.1943227202199
 20
15.2981481470354
 10
178.1889063215389
 20
15.1542233145793
 10
178.1871713967648
 20
15.03437493466922
 10
178.1875440672319
 20
14.92686101590515
 10
178.1873656126262
 20
14.81820024645587
 10
178.187701086314
 20
14.69953570165532
 10
178.1890040622184
 20
14.57555163512741
 10
178.1908887351574
 20
14.44858294171105
 10
178.192500445485
 20
14.32153861551031
 10
178.194140313743
 20
14.19854884492178
 10
178.1962570745751
 20
14.0830093138376
 10
178.1963848422364
 20
13.98090903955838
 10
178.2006514396554
 20
13.89009848838156
 10
178.1908440085289
 20
13.83213621208786
 10
178.2118474771689
 20
13.76517130132028
 10
178.1725639739897
 20
13.77291153966688
 10
177.9595307117745
 20
13.75755254145191
 10
177.7636297943186
 20
14.3140305809447
 10
177.4611197631544
 20
14.57556035348508
 10
177.3067935648021
 20
14.7089803820172
 97
        1
330
A7
 75
     1
 76
     2
 52
45.0
 41
0.1
 77
     0
 78
     1
 53
45.0
 43
0.0
 44
0.0
 45
-0.282842712474619
 46
0.0
 79
     0
 98
        1
 10
0.0
 20
0.0
  0
HATCH
  5
C5
330
48
100
AcDbEntity
  8
1
  6
Continuous
 62
     2
100
AcDbHatch
 10
0.0
 20
0.0
 30
0.0
210
0.0
220
0.0
230
1.0
  2
CUSTOM3
 70
     0
 71
     1
 91
        1
 92
        1
 93
        1
 72
     4
 94
        3
 73
     0
 74
     0
 95
      110
 96
      106
 40
0.0
 40
0.0
 40
0.0
 40
0.0
 40
0.2203406257277631
 40
0.4407808782838304
 40
0.5952494494615292
 40
0.7488431659393312
 40
0.9023581831309282
 40
1.056801968670427
 40
1.210736449099927
 40
1.363041386539804
 40
1.515315729683148
 40
1.6693772391481
 40
1.721611652756619
 40
1.773199502943031
 40
1.824933793210077
 40
1.877110426488063
 40
1.98268228120683
 40
2.07878166708764
 40
2.17280964082236
 40
2.271937807379013
 40
2.378349933379404
 40
2.494131557736592
 40
2.626681683943727
 40
2.783145050796154
 40
2.890701232940995
 40
2.993130312454933
 40
3.09986973069188
 40
3.220237816691366
 40
3.352695482737634
 40
3.481732806389956
 40
3.593499473690444
 40
3.674323013331981
 40
3.817951711952931
 40
3.94616712079393
 40
4.061405053453614
 40
4.166480796003256
 40
4.262478775059291
 40
4.350736673551249
 40
4.433071991254131
 40
4.511216293814732
 40
4.564262454118021
 40
4.618474415571614
 40
4.670128488754234
 40
4.722296879126448
 40
4.819540945314318
 40
4.931194984128173
 40
5.049996040257815
 40
5.168643755415361
 40
5.283970811762573
 40
5.392260784910399
 40
5.486512254876473
 40
5.559178233949872
 40
5.591425852853516
 40
5.626215969637896
 40
5.667155838674453
 40
5.717449290214299
 40
5.73840236094491
 40
5.784499116553873
 40
5.830595872164841
 40
5.851548942897695
 40
5.87301928066181
 40
5.924217778408352
 40
5.985325662817731
 40
6.036524160567748
 40
6.057994498334276
 40
6.236847789607523
 40
6.38140992894572
 40
6.493190424178731
 40
6.57406753423059
 40
6.691018086205684
 40
6.814881554220602
 40
6.944307823240554
 40
7.071266716066178
 40
7.193488604462024
 40
7.309042773128251
 40
7.414007203170875
 40
7.505140441886633
 40
7.531150360599789
 40
7.559221645322386
 40
7.587202218921032
 40
7.612569159499247
 40
7.662550809481098
 40
7.702878875764203
 40
7.857328205231015
 40
8.010799568088661
 40
8.165256399657611
 40
8.32223269871395
 40
8.479564855016637
 40
8.63521623029084
 40
8.790882550925758
 40
8.948305154947322
 40
9.168271839033002
 40
9.387358980987234
 40
9.608047961033462
 40
9.832914234792646
 40
9.858338694962981
 40
9.925366817229996
 40
10.02013071422759
 40
10.12876249858998
 40
10.23739428295249
 40
10.33215817995191
 40
10.39918630222395
 40
10.42461076239784
 40
10.64992019336942
 40
10.87188524531189
 40
10.87188524531189
 40
10.87188524531189
 40
10.87188524531189
 10
179.9057788376618
 20
15.7392326039819
 10
179.9092864933541
 20
15.80616462073803
 10
179.9163033987662
 20
15.94005891915859
 10
179.8198027599072
 20
16.22548554971472
 10
180.0510134726108
 20
16.16284386190284
 10
180.1919290057156
 20
16.17001554055983
 10
180.3490417757588
 20
16.16235883078247
 10
180.5025913427287
 20
16.16252752283043
 10
180.6545104935081
 20
16.16182040535434
 10
180.814221481323
 20
16.17210158351631
 10
180.9408972601118
 20
16.15496511080752
 10
181.137082112208
 20
16.22727260107148
 10
181.1034395279078
 20
16.12640699080116
 10
181.1052011317184
 20
16.07619253947668
 10
181.1027342073458
 20
16.02712335586462
 10
181.1347076966011
 20
15.94063490846993
 10
181.0010399903255
 20
15.9899743860834
 10
180.9172208688057
 20
15.98430634314171
 10
180.8173861139324
 20
15.99465516706299
 10
180.7186576720146
 20
16.00086450411088
 10
180.612153277111
 20
16.00697763816776
 10
180.491051169806
 20
16.0158888348458
 10
180.3703381502454
 20
16.00521605912386
 10
180.1812553843436
 20
16.06468503080364
 10
180.2129028505311
 20
15.90558320077537
 10
180.1995563316834
 20
15.80839128339902
 10
180.197495842645
 20
15.69634065110101
 10
180.1958188044671
 20
15.57699685629351
 10
180.1973336794233
 20
15.45032592155109
 10
180.195658247867
 20
15.32301588016116
 10
180.2058844271657
 20
15.2245156640446
 10
180.1779006596582
 20
15.08388702625627
 10
180.3508029999305
 20
15.13989551134089
 10
180.4645020202771
 20
15.12719951478506
 10
180.584015167224
 20
15.13448377051252
 10
180.6888491425071
 20
15.13878017056762
 10
180.7843084898612
 20
15.14330568258974
 10
180.8763823507032
 20
15.15149201146205
 10
180.9476551782438
 20
15.14643850638108
 10
181.0544931705685
 20
15.18536425031671
 10
181.0226603598035
 20
15.1051712200588
 10
181.026616450393
 20
15.05562936846034
 10
181.0234502392012
 20
15.0055747803982
 10
181.0550791490585
 20
14.92128847612021
 10
180.9210133677691
 20
14.97425365495158
 10
180.82923227932
 20
14.96540080890438
 10
180.7079729189603
 20
14.97570049965153
 10
180.5914113119772
 20
14.97748911767501
 10
180.4783375745878
 20
14.97787017109695
 10
180.3679246308471
 20
14.98415449472185
 10
180.2898124067841
 20
14.97189133255364
 10
180.1913625833643
 20
15.00453887616127
 10
180.2012355173561
 20
14.94769748054209
 10
180.1973923244402
 20
14.91392130557987
 10
180.1966789884268
 20
14.87119604709412
 10
180.1963369642975
 20
14.83401607262153
 10
180.1963834255345
 20
14.79487237370769
 10
180.1963649429926
 20
14.75716849497685
 10
180.1963703431807
 20
14.71944955232402
 10
180.19636972142
 20
14.6899432474515
 10
180.1963698151545
 20
14.65873577699301
 10
180.196370428792
 20
14.61414424908084
 10
180.1963671499336
 20
14.55963956508851
 10
180.1963759623481
 20
14.51505540201448
 10
180.1963359653416
 20
14.4311780858574
 10
180.1976024270255
 20
14.31737520677678
 10
180.1950274117841
 20
14.16830395933708
 10
180.206500938172
 20
14.06597203813903
 10
180.1823506222263
 20
13.93338903885829
 10
180.3332993946477
 20
13.97895732272016
 10
180.4428436671555
 20
13.96427012162343
 10
180.5733970473921
 20
13.9692043512506
 10
180.6990312209513
 20
13.97257705323359
 10
180.8188730625601
 20
13.97711497498772
 10
180.9391362611426
 20
13.99048536182004
 10
181.0222761663515
 20
13.98068712782593
 10
181.1456080421075
 20
14.04126214623319
 10
181.1244269203956
 20
13.9853246013402
 10
181.1235950270116
 20
13.95939249372345
 10
181.1218963707558
 20
13.93197256190938
 10
181.1217974888829
 20
13.89738195206384
 10
181.120365930133
 20
13.86050408220769
 10
181.153280419219
 20
13.7684684102181
 10
180.9551306988107
 20
13.84132015974826
 10
180.8300548294891
 20
13.81825726508605
 10
180.6673071295156
 20
13.82454021985783
 10
180.5129366450001
 20
13.82260943909924
 10
180.3566670436943
 20
13.82393762599265
 10
180.1970544465281
 20
13.82059872487861
 10
180.0540326342237
 20
13.83265795728236
 10
179.8197144881628
 20
13.76952001976925
 10
179.9173810751197
 20
14.05620527466318
 10
179.9006868780058
 20
14.2498830814266
 10
179.9146296709685
 20
14.47848242880293
 10
179.9142987846632
 20
14.63384593955044
 10
179.9143078119264
 20
14.73966336444122
 10
179.9143055876316
 20
14.80205784124211
 10
179.9143065551889
 20
14.89220425248324
 10
179.9143065473262
 20
14.99621167157436
 10
179.9143053861102
 20
15.10022131375294
 10
179.9143090971502
 20
15.19036243688767
 10
179.9143011051051
 20
15.25276803097215
 10
179.9143334275019
 20
15.35868835961119
 10
179.9131440788318
 20
15.51626716544738
 10
179.9082216489256
 20
15.66528219822065
 10
179.9057788376618
 20
15.7392326039819
 97
        1
330
A8
 75
     1
 76
     2
 52
45.0
 41
0.1
 77
     0
 78
     1
 53
45.0
 43
0.0
 44
0.0
 45
-0.282842712474619
 46
0.0
 79
     0
 98
        1
 10
0.0
 20
0.0
  0
HATCH
  5
C6
330
48
100
AcDbEntity
  8
1
  6
Continuous
 62
     2
100
AcDbHatch
 10
0.0
 20
0.0
 30
0.0
210
0.0
220
0.0
230
1.0
  2
CUSTOM4
 70
     0
 71
     1
 91
        1
 92
        1
 93
        1
 72
     4
 94
        3
 73
     0
 74
     0
 95
       47
 96
       43
 40
0.0
 40
0.0
 40
0.0
 40
0.0
 40
0.2207912809957319
 40
0.4459404186303451
 40
0.4902387190459702
 40
0.532747389272271
 40
0.5742260451225982
 40
0.6155432630561268
 40
0.656816406631618
 40
0.6982511618781051
 40
0.7407663929317616
 40
0.7851366743175713
 40
1.0102888338364
 40
1.231080507002261
 40
1.451765243652467
 40
1.676638205891726
 40
1.720461045359697
 40
1.830018144043558
 40
1.972442372353187
 40
2.114866600677553
 40
2.224423699395178
 40
2.268246538883417
 40
2.493628801207294
 40
2.715602830286687
 40
2.934211330706433
 40
3.149502369855394
 40
3.231387784851035
 40
3.31823187385407
 40
3.405143198198059
 40
3.486970301720491
 40
3.7022581724939
 40
3.920866283534123
 40
4.142839325931907
 40
4.368221903865415
 40
4.412044743359894
 40
4.521601842095906
 40
4.664026070452385
 40
4.806450298809091
 40
4.916007397546784
 40
4.959830237043105
 40
5.184703515847113
 40
5.405387250767464
 40
5.405387250767464
 40
5.405387250767464
 40
5.405387250767464
 10
182.6507427258645
 20
15.7340644095387
 10
182.6568139420002
 20
15.79758482501208
 10
182.6690762107242
 20
15.92587938689626
 10
182.5604706879412
 20
16.2016622017408
 10
182.6761985896604
 20
16.17188133432055
 10
182.7171842509015
 20
16.16765556262813
 10
182.7591205797518
 20
16.16310446389609
 10
182.800419662571
 20
16.16201982929488
 10
182.8417032115556
 20
16.1631033819523
 10
182.8836148270647
 20
16.16766112711336
 10
182.9245983549019
 20
16.17187430209729
 10
183.040492284349
 20
16.20177611317538
 10
182.9295652727456
 20
15.92339806609888
 10
182.9574856365267
 20
15.74283140824952
 10
182.9404267346969
 20
15.50961042346472
 10
182.9414637282102
 20
15.34906622543148
 10
182.9414099399405
 20
15.22284817558725
 10
182.941427737248
 20
15.12428963336244
 10
182.941418858108
 20
14.99280702442966
 10
182.9414263928034
 20
14.86132844968654
 10
182.9414129405129
 20
14.76276222694094
 10
182.9414531717492
 20
14.63639735624154
 10
182.9406746403817
 20
14.47482068822871
 10
182.9565958319267
 20
14.24361821892915
 10
182.9333468885407
 20
14.05874351972
 10
183.0360183444365
 20
13.78935602770066
 10
182.8820238362836
 20
13.82660112685812
 10
182.8004129802832
 20
13.82137994680534
 10
182.7188192292583
 20
13.82660620378345
 10
182.5648513666842
 20
13.78937069885397
 10
182.6674183421917
 20
14.05875129862878
 10
182.6442045316088
 20
14.24361585325415
 10
182.6600444655138
 20
14.47482218565639
 10
182.6593296313428
 20
14.63639712308505
 10
182.6593664569907
 20
14.76276231210524
 10
182.659354900027
 20
14.86132756635985
 10
182.6593575019214
 20
14.99281127417223
 10
182.6593648531779
 20
15.12427548031203
 10
182.6593442541351
 20
15.22287786275329
 10
182.6594082192028
 20
15.34896149354429
 10
182.6581733947591
 20
15.51210091383772
 10
182.6532040396744
 20
15.66054183777548
 10
182.6507427258645
 20
15.7340644095387
 97
        1
330
A9
 75
     1
 76
     2
 52
45.0
 41
0.1
 77
     0
 78
     1
 53
45.0
 43
0.0
 44
0.0
 45
-0.282842712474619
 46
0.0
 79
     0
 98
        1
 10
0.0
 20
0.0
  0
HATCH
  5
C7
330
48
100
AcDbEntity
  8
1
  6
Continuous
 62
     2
100
AcDbHatch
 10
0.0
 20
0.0
 30
0.0
210
0.0
220
0.0
230
1.0
  2
CUSTOM5
 70
     0
 71
     1
 91
        1
 92
        1
 93
        1
 72
     4
 94
        3
 73
     0
 74
     0
 95
      118
 96
      114
 40
0.0
 40
0.0
 40
0.0
 40
0.0
 40
0.1054708162973396
 40
0.2466098270051939
 40
0.396591287459132
 40
0.528552506975412
 40
0.6156245055642361
 40
0.6431434105797659
 40
0.703685003798632
 40
0.7642265984504689
 40
0.7917455052354994
 40
0.9287404319989836
 40
1.106572819088018
 40
1.287544879681028
 40
1.317578308030545
 40
1.399928030857181
 40
1.522968204799956
 40
1.675072986590577
 40
1.844616533180658
 40
2.019973001638718
 40
2.189516548880031
 40
2.341621331585371
 40
2.464661506320507
 40
2.547011229647071
 40
2.577044658168035
 40
2.603797890893106
 40
2.662655002908793
 40
2.721512114949605
 40
2.748265347702784
 40
2.774215307344857
 40
2.845959313407189
 40
2.954338556588386
 40
3.090194227585558
 40
3.244367517100522
 40
3.407699615844276
 40
3.571031714539421
 40
3.725205003920094
 40
3.861060674729594
 40
3.969439917716283
 40
4.041183923628953
 40
4.067133883212946
 40
4.311886746012116
 40
4.547897258335476
 40
4.764747083043918
 40
4.952749679951723
 40
5.045772974195881
 40
5.137862019644952
 40
5.330543169793003
 40
5.553448265243998
 40
5.795083855888152
 40
6.043293412177201
 40
6.285761695541114
 40
6.313902908752597
 40
6.384255941793187
 40
6.475714884766775
 40
6.567173827758838
 40
6.637526860839616
 40
6.665668074073979
 40
6.692018920327957
 40
6.749990782071038
 40
6.807962643790416
 40
6.834313490017895
 40
6.856393084245173
 40
6.913335195649797
 40
6.991194817302461
 40
7.076026942283722
 40
7.153886563725212
 40
7.210828674844795
 40
7.23290826893113
 40
7.258199334923649
 40
7.324875781592294
 40
7.419142481924945
 40
7.527204308841878
 40
7.635266135230449
 40
7.729532834168431
 40
7.796209279292746
 40
7.821500344594689
 40
7.844652988850759
 40
7.899863140541537
 40
7.965759128053702
 40
8.020969279770986
 40
8.044121924046452
 40
8.069356610160545
 40
8.10913439544131
 40
8.132238100191026
 40
8.193147867786392
 40
8.279261678876571
 40
8.37797751267379
 40
8.47669334714658
 40
8.562807160411637
 40
8.623716930826426
 40
8.64682063685338
 40
8.671988793774194
 40
8.734909185828105
 40
8.81670569518882
 40
8.89850220481539
 40
8.961422597377851
 40
8.986590754550964
 40
9.012941600733123
 40
9.070913462380219
 40
9.128885324081722
 40
9.155236170325049
 40
9.180404327929091
 40
9.243324721948165
 40
9.325121234211958
 40
9.406917746637612
 40
9.469838141978068
 40
9.495006288270842
 40
9.517811184378978
 40
9.57219209048696
 40
9.637098333281166
 40
9.69147923951535
 40
9.714284125643383
 40
9.714284125643383
 40
9.714284125643383
 40
9.714284125643383
 10
185.2874469028653
 20
15.26889163187721
 10
185.3090990569038
 20
15.24111869242813
 10
185.3597257109474
 20
15.17618054561238
 10
185.4349383202592
 20
15.06891060312899
 10
185.5248482274347
 20
14.95377438266626
 10
185.5709169676673
 20
14.8535704574832
 10
185.6655825294655
 20
14.78434006814942
 10
185.6204439320412
 20
14.73771639678274
 10
185.5947047785789
 20
14.69660308866039
 10
185.5645196708012
 20
14.6606597172794
 10
185.5193684730562
 20
14.58579782596094
 10
185.4710504458563
 20
14.80782524253605
 10
185.3968539713072
 20
14.84510677337708
 10
185.2836047324608
 20
15.116102021306
 10
185.2885133578169
 20
15.00095328446228
 10
185.2868486556306
 20
14.92836675781626
 10
185.2876830076713
 20
14.80625588483985
 10
185.2873609540264
 20
14.65913800810459
 10
185.2875076912455
 20
14.49307063956556
 10
185.2872950092723
 20
14.32187554608601
 10
185.2879497252034
 20
14.15552828635497
 10
185.2859192461139
 20
14.00935173055692
 10
185.291346039993
 20
13.88471047474609
 10
185.2804930868708
 20
13.81718656540625
 10
185.2956739155555
 20
13.75549061417021
 10
185.2457895108133
 20
13.76727503897001
 10
185.2017150342522
 20
13.75943822779968
 10
185.1582371630201
 20
13.76760441372702
 10
185.1092346786488
 20
13.75538056738467
 10
185.1218731234825
 20
13.80960667249312
 10
185.1130182968449
 20
13.86936918907556
 10
185.1175058770314
 20
13.97922029044369
 10
185.1157960135991
 20
14.11029975405676
 10
185.1163550915986
 20
14.26198011444326
 10
185.1161928768694
 20
14.42211074929951
 10
185.1162269924674
 20
14.58236865674563
 10
185.1162514960127
 20
14.73370247520436
 10
185.1161453543224
 20
14.86582156338597
 10
185.1164299141931
 20
14.97294802533189
 10
185.1158675547568
 20
15.0380861957947
 10
185.1180765083688
 20
15.1661895785867
 10
185.0319435998602
 20
14.79097610391573
 10
184.95551408185
 20
14.63918193123393
 10
184.8660040767833
 20
14.47766206446304
 10
184.7640413217326
 20
14.20471848820168
 10
184.7187976491039
 20
14.36717346596512
 10
184.610235594167
 20
14.45605432058119
 10
184.7995791751752
 20
14.60549794961409
 10
184.85653405457
 20
14.79749136974925
 10
184.9717520993352
 20
15.02899622906756
 10
184.9940151630132
 20
15.21797259759062
 10
185.1771905152139
 20
15.49454089325923
 10
185.0538033597552
 20
15.4869897883209
 10
184.9925684166834
 20
15.48856772366114
 10
184.9081999617064
 20
15.48882592573667
 10
184.8204235085966
 20
15.48544845751201
 10
184.7656768696122
 20
15.49394814982015
 10
184.7104703026025
 20
15.48048561049783
 10
184.7222823035536
 20
15.52931442126759
 10
184.7142496151794
 20
15.57269004896705
 10
184.7228186104679
 20
15.6150943830957
 10
184.7102943409156
 20
15.66267796552116
 10
184.7555101538736
 20
15.65267212995107
 10
184.8014815562723
 20
15.65894105174059
 10
184.877722204771
 20
15.6559356140587
 10
184.9561296131993
 20
15.65770448278539
 10
185.0323992648932
 20
15.65464793981658
 10
185.0783009459475
 20
15.66103971376176
 10
185.12317339654
 20
15.65093822978894
 10
185.1105552275634
 20
15.70157201581896
 10
185.1191936582707
 20
15.75501261882067
 10
185.1152361595443
 20
15.84863255131677
 10
185.1162325068335
 20
15.9511260668892
 10
185.1171927413073
 20
16.05353270248158
 10
185.1133211458005
 20
16.14735929609316
 10
185.1217789814365
 20
16.20036542840347
 10
185.1093075932835
 20
16.25211435651182
 10
185.154210638985
 20
16.23850747226752
 10
185.1955083836771
 20
16.24100480320581
 10
185.259534428105
 20
16.23648060574485
 10
185.2986111148786
 20
16.22781003043308
 10
185.3476543498742
 20
16.23515102070687
 10
185.3225080030591
 20
16.19602896051758
 10
185.2815901333723
 20
16.20563842455809
 10
185.2910109616604
 20
16.15540148169779
 10
185.2855647318746
 20
16.10385945639491
 10
185.2881699601804
 20
16.0195970758452
 10
185.2870102202154
 20
15.92559135583408
 10
185.2883591064231
 20
15.83196865395524
 10
185.284997010151
 20
15.74679517552222
 10
185.2920959917768
 20
15.69716856072042
 10
185.2812569154546
 20
15.64993694969987
 10
185.3304010225245
 20
15.6620167493685
 10
185.3794877630147
 20
15.65447393363009
 10
185.4573714280641
 20
15.65686070361431
 10
185.5350365172895
 20
15.65899381905412
 10
185.5845393931355
 20
15.65193391922453
 10
185.6344594750638
 20
15.66360151936212
 10
185.6223198516881
 20
15.6154023537139
 10
185.6305838229144
 20
15.57249219801232
 10
185.6223198650783
 20
15.5295820185138
 10
185.6344594549854
 20
15.4813828875486
 10
185.5845395158746
 20
15.49305034471505
 10
185.5350350651202
 20
15.48599202435041
 10
185.4573784382973
 20
15.48811665228598
 10
185.379464386576
 20
15.49053389365755
 10
185.3304500352716
 20
15.4829184819448
 10
185.2813246108943
 20
15.49507952557587
 10
185.2915559988571
 20
15.45073013424154
 10
185.2856677678053
 20
15.40925436202909
 10
185.2878788305569
 20
15.34915394315302
 10
185.2874109346145
 20
15.30225782762889
 10
185.2874386992913
 20
15.27650146418198
 10
185.2874469028653
 20
15.26889163187721
 97
        1
330
AA
 75
     1
 76
     2
 52
45.0
 41
0.1
 77
     0
 78
     1
 53
45.0
 43
0.0
 44
0.0
 45
-0.282842712474619
 46
0.0
 79
     0
 98
        1
 10
0.0
 20
0.0
  0
HATCH
  5
C8
330
48
100
AcDbEntity
  8
1
  6
Continuous
 62
     2
100
AcDbHatch
 10
0.0
 20
0.0
 30
0.0
210
0.0
220
0.0
230
1.0
  2
CUSTOM6
 70
     0
 71
     1
 91
        1
 92
        1
 93
        1
 72
     4
 94
        3
 73
     0
 74
     0
 95
       91
 96
       87
 40
0.0
 40
0.0
 40
0.0
 40
0.0
 40
0.0345987051695718
 40
0.1258134969461369
 40
0.2547723404888987
 40
0.4026032099154125
 40
0.5504340793416704
 40
0.679392922883608
 40
0.7706077146571035
 40
0.8052064287780925
 40
1.124852390615283
 40
1.427402236308885
 40
1.706356627453533
 40
1.955541417875225
 40
2.169485938566378
 40
2.344350786664837
 40
2.480568411561991
 40
2.590440557429013
 40
2.649189927151165
 40
2.749320643306366
 40
2.912632739880066
 40
3.147745656000266
 40
3.24482749638514
 40
3.338490056946736
 40
3.583815413207149
 40
3.7614239432385
 40
3.886956104362658
 40
3.985855451886819
 40
4.091766255337703
 40
4.250186473811897
 40
4.422734315084541
 40
4.628285684838638
 40
4.87209322775847
 40
5.152549652145582
 40
5.464967135837563
 40
5.803201477852482
 40
6.160362988813956
 40
6.193449448276011
 40
6.284170385501666
 40
6.419718138764535
 40
6.587285046385785
 40
6.7740634467237
 40
6.967245678113683
 40
7.154024078817669
 40
7.321590987026054
 40
7.457138740890413
 40
7.547859678556149
 40
7.580946138182709
 40
7.608533084714759
 40
7.669224367077732
 40
7.729915649429946
 40
7.757502595949996
 40
7.790278062553449
 40
7.880146277430947
 40
8.01441996318041
 40
8.18041184239791
 40
8.36543463767938
 40
8.556801071622681
 40
8.741823866830794
 40
8.907815745916304
 40
9.042089431507458
 40
9.131957646249584
 40
9.16473311279716
 40
9.41542506314007
 40
9.667986180958524
 40
9.694169807462691
 40
9.75660768604765
 40
9.831130315322456
 40
9.89356819389992
 40
9.919751820398737
 40
9.950967964690584
 40
9.996421631210703
 40
10.22087981037454
 40
10.44341866197542
 40
10.47847970788854
 40
10.57091337438755
 40
10.70159545461229
 40
10.8514017417036
 40
11.00120802880477
 40
11.13189010907382
 40
11.2243237758301
 40
11.25938480938956
 40
11.28697175596145
 40
11.34766303835918
 40
11.40835432042068
 40
11.43594125892103
 40
11.43594125892103
 40
11.43594125892103
 40
11.43594125892103
 10
190.0818114333289
 20
15.55242795125081
 10
190.0702785844941
 20
15.55242790287919
 10
190.0283409444998
 20
15.55242773704168
 10
189.9434129719026
 20
15.55243125800913
 10
189.8207688553128
 20
15.55240926435882
 10
189.6791206916993
 20
15.55250801177058
 10
189.537975369849
 20
15.55214686232425
 10
189.4141351317905
 20
15.55321883609093
 10
189.3317217825381
 20
15.55092249091272
 10
189.1727791229692
 20
15.56048569373424
 10
189.3503402353375
 20
15.19785394311374
 10
189.3379739205453
 20
14.95243127723116
 10
189.4064519473864
 20
14.66862501324837
 10
189.469302432097
 20
14.43250999939037
 10
189.5452253431729
 20
14.2332674039613
 10
189.6303189577015
 20
14.07745347451373
 10
189.7244607592936
 20
13.97657857781392
 10
189.8282648207727
 20
13.92465852638964
 10
189.9125872030774
 20
13.97606484379615
 10
189.9351322179452
 20
14.09144544037516
 10
189.9745730975371
 20
14.21885149702378
 10
189.9202919734942
 20
14.53622328086751
 10
190.0451218072473
 20
14.38982180140907
 10
190.2019291513603
 20
14.3579530033117
 10
190.0947720007057
 20
14.1242135776763
 10
190.0808711209866
 20
13.95972776583658
 10
190.0234709467226
 20
13.83130869122486
 10
189.9335020145008
 20
13.76018802352829
 10
189.8095274657877
 20
13.74432324142257
 10
189.663427319686
 20
13.77993797554175
 10
189.5243894320284
 20
13.9000057050028
 10
189.4102003962144
 20
14.07435682550323
 10
189.3146141301485
 20
14.29946603111244
 10
189.2318652572627
 20
14.56388246006446
 10
189.1807179256411
 20
14.88187933098546
 10
189.0770189207339
 20
15.15543728488917
 10
189.204284120852
 20
15.56005818612871
 10
189.0357890623018
 20
15.55112367849682
 10
188.9511995787077
 20
15.55315961418367
 10
188.8189876387627
 20
15.5521393738841
 10
188.6560505094104
 20
15.55253230318434
 10
188.4733759170532
 20
15.55235696313372
 10
188.2847057373383
 20
15.55260105307472
 10
188.1014469020189
 20
15.5518565790624
 10
187.9404746832718
 20
15.55416360522429
 10
187.8029808335276
 20
15.54799804883666
 10
187.7289590372311
 20
15.56032838458215
 10
187.6613215186856
 20
15.5432932372356
 10
187.673237371927
 20
15.59524438447531
 10
187.6655677285694
 20
15.64071424966532
 10
187.6732592225115
 20
15.68614453703708
 10
187.6613141797762
 20
15.73802395984572
 10
187.7283588305866
 20
15.72119143490266
 10
187.8017375665677
 20
15.73335409092673
 10
187.9379128305271
 20
15.7272723107496
 10
188.0973811801513
 20
15.7295483431506
 10
188.2789173085836
 20
15.72881233998964
 10
188.4658034862179
 20
15.72905954196136
 10
188.6468012316836
 20
15.72886400799256
 10
188.8080802578878
 20
15.72932234714841
 10
188.9393882124887
 20
15.72812673751208
 10
189.0225051322597
 20
15.73051347319744
 10
189.1556236547813
 20
15.72230605725466
 10
189.0645893502659
 20
15.97752868952656
 10
188.9789633074419
 20
16.24164358328245
 10
189.0990589003455
 20
16.22904442969165
 10
189.1514264948544
 20
16.22694235763075
 10
189.2214497569715
 20
16.22535399889657
 10
189.2671922337817
 20
16.21602567538113
 10
189.3220812646933
 20
16.22545966915428
 10
189.2963574785681
 20
16.17733028655172
 10
189.1825397571453
 20
16.18266829744161
 10
189.3159346621136
 20
15.95449174576778
 10
189.1943658735471
 20
15.72156856595925
 10
189.3223188769413
 20
15.73087258884441
 10
189.4049048406461
 20
15.72801001754682
 10
189.5307214850824
 20
15.72923437412305
 10
189.6741469838057
 20
15.72932431888966
 10
189.8157420951728
 20
15.72746163183855
 10
189.9459127249967
 20
15.73333075937165
 10
190.0193452286191
 20
15.72070340823206
 10
190.0891112922097
 20
15.73877563110415
 10
190.0775772605396
 20
15.68612850546328
 10
190.0833184346682
 20
15.6422131768655
 10
190.0816615770911
 20
15.59089982676553
 10
190.0817757561669
 20
15.56158792021638
 10
190.0818114333289
 20
15.55242795125081
 97
        1
330
AB
 75
     1
 76
     2
 52
45.0
 41
0.1
 77
     0
 78
     1
 53
45.0
 43
0.0
 44
0.0
 45
-0.282842712474619
 46
0.0
 79
     0
 98
        1
 10
0.0
 20
0.0
  0
HATCH
  5
C9
330
48
100
AcDbEntity
  8
1
  6
Continuous
 62
     2
100
AcDbHatch
 10
0.0
 20
0.0
 30
0.0
210
0.0
220
0.0
230
1.0
  2
CUSTOM7
 70
     0
 71
     1
 91
        1
 92
        1
 93
        1
 72
     4
 94
        3
 73
     0
 74
     0
 95
       75
 96
       71
 40
0.0
 40
0.0
 40
0.0
 40
0.0
 40
0.0342546099129673
 40
0.1245622414432364
 40
0.2522385480897554
 40
0.3985991922940715
 40
0.544959836498091
 40
0.6726361431438941
 40
0.7629437746737031
 40
0.7971983935298079
 40
1.101723623449676
 40
1.408591244036685
 40
1.433332471690383
 40
1.487763172450167
 40
1.542193873081982
 40
1.566935100592527
 40
1.923523931821846
 40
2.271755704953649
 40
2.590579755100893
 40
2.858943305581148
 40
2.889120339309192
 40
2.918305855191141
 40
2.941366645531267
 40
2.996357760973162
 40
3.061992318140713
 40
3.116983433626915
 40
3.140044223997596
 40
3.411273122936525
 40
3.732441619741187
 40
3.761068217532885
 40
3.83778749963044
 40
3.948858699126075
 40
4.080541049104443
 40
4.219093782625817
 40
4.350776132722361
 40
4.461847332405688
 40
4.538566614678416
 40
4.567193212544661
 40
4.594907573998919
 40
4.666381453557458
 40
4.764111044011068
 40
4.870592538125871
 40
4.968322128642322
 40
5.039796008287007
 40
5.067510369784467
 40
5.094263603185681
 40
5.153120716668315
 40
5.211977830150762
 40
5.238731063551768
 40
5.272290535139007
 40
5.363380529444868
 40
5.497618415781545
 40
5.660621563453788
 40
5.838007341749488
 40
6.01539311991084
 40
6.178396267038465
 40
6.312634151842417
 40
6.403724143059407
 40
6.437283612672502
 40
6.464036846261116
 40
6.522893960004735
 40
6.581751071484
 40
6.608504301590946
 40
6.637253941281093
 40
6.711397748902945
 40
6.812778057283557
 40
6.923237199249334
 40
7.024617507623978
 40
7.09876131520763
 40
7.127510946007581
 40
7.127510946007581
 40
7.127510946007581
 40
7.127510946007581
 10
188.4418622390564
 20
14.9584912847326
 10
188.4418622819707
 20
14.94707313408716
 10
188.4418624481128
 20
14.90555257842625
 10
188.4418593081787
 20
14.82146922003767
 10
188.44187882798
 20
14.70004497322324
 10
188.4417912187738
 20
14.55980494047443
 10
188.442111623523
 20
14.42006556794572
 10
188.441160590974
 20
14.29745038894923
 10
188.4431978595968
 20
14.21587074438038
 10
188.4349433178745
 20
14.06271267077692
 10
188.7430797940901
 20
14.22560236054718
 10
189.0350645173737
 20
14.39482938688003
 10
189.0408354448707
 20
14.25973235781911
 10
189.0455471719891
 20
14.21617221160445
 10
189.0482535411918
 20
14.17211249350547
 10
189.0672545672957
 20
14.02272590363135
 10
188.6583942247303
 20
14.08681172241261
 10
188.3793710348832
 20
13.97296341411015
 10
188.1018081587166
 20
13.87364095811138
 10
187.8099837184401
 20
13.91630687596356
 10
187.7869144678658
 20
13.81321679744538
 10
187.7537474383333
 20
13.78691091244465
 10
187.7480653962738
 20
13.834553090363
 10
187.7284214559045
 20
13.87180336115066
 10
187.7095089485623
 20
13.93007387847561
 10
187.6942849867707
 20
13.97385201007802
 10
187.6477246372937
 20
14.0875942104631
 10
187.9890897312449
 20
14.05576301120052
 10
188.2679649367385
 20
14.02161435106478
 10
188.2617753034907
 20
14.16913976479653
 10
188.2630935452773
 20
14.24013150908832
 10
188.2624831689948
 20
14.34719767958662
 10
188.2625871570725
 20
14.47398529785996
 10
188.2629987964055
 20
14.60849243496048
 10
188.2613907841969
 20
14.73395549951181
 10
188.2659902567924
 20
14.84505246719113
 10
188.256418650221
 20
14.90761886800685
 10
188.2704001783691
 20
14.96595388294997
 10
188.2147384386705
 20
14.95289710582233
 10
188.1575655197821
 20
14.96136307749495
 10
188.0616048925648
 20
14.95729976080632
 10
187.963376752282
 20
14.9597088985247
 10
187.8672582457561
 20
14.95551600613384
 10
187.810464852581
 20
14.96429346441158
 10
187.7550356873384
 20
14.95094936850117
 10
187.7670679427917
 20
15.00036910959253
 10
187.7592003173938
 20
15.04393988030391
 10
187.7666295563828
 20
15.08830469118521
 10
187.7551930564144
 20
15.13902297763987
 10
187.8232102370133
 20
15.12162460757739
 10
187.8968496879747
 20
15.13417450237185
 10
188.0325064058211
 20
15.12799677011093
 10
188.1884909024525
 20
15.1302920309308
 10
188.3615926358143
 20
15.12940968262525
 10
188.5346942964181
 20
15.13029207142404
 10
188.6906789811216
 20
15.12799662955546
 10
188.8263351889797
 20
15.13417486262427
 10
188.8999756705652
 20
15.12162394218331
 10
188.9679914174724
 20
15.13902373012138
 10
188.9565590885922
 20
15.08830130414551
 10
188.9639539458298
 20
15.04397060811104
 10
188.956203991227
 20
15.00028307550192
 10
188.9681203741877
 20
14.95063590098473
 10
188.9108170223617
 20
14.96461411338421
 10
188.8520145789772
 20
14.9553975567325
 10
188.7525293633199
 20
14.95952268164925
 10
188.649428009835
 20
14.95822760025884
 10
188.5537846354573
 20
14.95854077077636
 10
188.4857467971617
 20
14.95848776697141
 10
188.4514462213443
 20
14.95849051871652
 10
188.4418622390564
 20
14.9584912847326
 97
        1
330
AC
 75
     1
 76
     2
 52
45.0
 41
0.1
 77
     0
 78
     1
 53
45.0
 43
0.0
 44
0.0
 45
-0.282842712474619
 46
0.0
 79
     0
 98
        1
 10
0.0
 20
0.0
  0
HATCH
  5
CA
330
48
100
AcDbEntity
  8
1
  6
Continuous
 62
     2
100
AcDbHatch
 10
0.0
 20
0.0
 30
0.0
210
0.0
220
0.0
230
1.0
  2
CUSTOM8
 70
     0
 71
     1
 91
        1
 92
        1
 93
        1
 72
     4
 94
        3
 73
     0
 74
     0
 95
       15
 96
       11
 40
0.0
 40
0.0
 40
0.0
 40
0.0
 40
0.2785535985096468
 40
0.5215624748199168
 40
0.6076917376040658
 40
0.6938210001741258
 40
0.9405019146455047
 40
1.221691403489124
 40
1.30047187708105
 40
1.379252341684824
 40
1.379252341684824
 40
1.379252341684824
 40
1.379252341684824
 10
189.5681493630999
 20
16.22930267330381
 10
189.6296017794178
 20
16.17691646592717
 10
189.7446649974114
 20
16.07882876798226
 10
190.0397348497244
 20
15.92889785897217
 10
189.9025147631856
 20
15.84343227515012
 10
189.8041227843778
 20
15.71085785201555
 10
189.7130033590649
 20
16.0161698578142
 10
189.3636839480655
 20
16.07967869465371
 10
189.511925837657
 20
16.17896509880877
 10
189.5494081874236
 20
16.21252348402382
 10
189.5681493630999
 20
16.22930267330381
 97
        1
330
AD
 75
     1
 76
     2
 52
45.0
 41
0.1
 77
     0
 78
     1
 53
45.0
 43
0.0
 44
0.0
 45
-0.282842712474619
 46
0.0
 79
     0
 98
        1
 10
0.0
 20
0.0
  0
HATCH
  5
CB
330
48
100
AcDbEntity
  8
1
  6
Continuous
 62
     2
100
AcDbHatch
 10
0.0
 20
0.0
 30
0.0
210
0.0
220
0.0
230
1.0
  2
CUSTOM9
 70
     0
 71
     1
 91
        1
 92
        1
 93
        1
 72
     4
 94
        3
 73
     0
 74
     0
 95
       35
 96
       31
 40
0.0
 40
0.0
 40
0.0
 40
0.0
 40
0.0335231036620479
 40
0.0713218571711819
 40
0.4278866681487079
 40
0.8116865841964124
 40
1.19819023800006
 40
1.561379546812668
 40
1.659983174622078
 40
1.759315573807235
 40
2.132719617231122
 40
2.525233363588879
 40
2.910815397779746
 40
3.265244364303311
 40
3.592606723582036
 40
3.964386154603971
 40
4.359942131737792
 40
4.758154118639318
 40
4.843846538699938
 40
4.936650065543251
 40
5.256616602537333
 40
5.581707404416072
 40
5.899719158308178
 40
6.198363494280798
 40
6.46630104661586
 40
6.493895311537182
 40
6.559697020196976
 40
6.638234543442552
 40
6.704036252154306
 40
6.731630508423113
 40
6.731630508423113
 40
6.731630508423113
 40
6.731630508423113
 10
191.9736010568669
 20
16.23463843719131
 10
191.9676006097789
 20
16.22480690542321
 10
191.9548344099157
 20
16.20388988579797
 10
191.7949362006553
 20
16.17127126532694
 10
192.2322025842337
 20
15.88206680336697
 10
192.4345394828261
 20
15.68041138358436
 10
192.6819564267973
 20
15.43749387603274
 10
193.1831513624606
 20
15.36047662757782
 10
193.012556219897
 20
15.21876939174655
 10
192.9383299463201
 20
15.01710366209103
 10
192.6131432248188
 20
15.36956287174722
 10
192.3277741670664
 20
15.53175212559559
 10
192.0337604077658
 20
15.73687130053046
 10
191.8084452691134
 20
16.21827488595447
 10
191.5993085055522
 20
15.75343046609219
 10
191.3207873674834
 20
15.54350952252909
 10
191.0371383177209
 20
15.37424456359983
 10
190.707863952783
 20
15.00142360907929
 10
190.6277012318224
 20
15.19708014458997
 10
190.4759724909744
 20
15.32491104190589
 10
190.9083395826795
 20
15.40454031765931
 10
191.0962565329766
 20
15.60026634915468
 10
191.3468477420503
 20
15.81632996916754
 10
191.5714350470162
 20
15.98190992300057
 10
191.6259775409711
 20
16.26133964636831
 10
191.7494661029011
 20
16.2473795040808
 10
191.806027334452
 20
16.24521268867648
 10
191.8761870984945
 20
16.2404685988136
 10
191.9333414022105
 20
16.23709429350539
 10
191.9644190320839
 20
16.23519854711116
 10
191.9736010568669
 20
16.23463843719131
 97
        1
330
AE
 75
     1
 76
     2
 52
45.0
 41
0.1
 77
     0
 78
     1
 53
45.0
 43
0.0
 44
0.0
 45
-0.282842712474619
 46
0.0
 79
     0
 98
        1
 10
0.0
 20
0.0
  0
HATCH
  5
CC
330
48
100
AcDbEntity
  8
1
  6
Continuous
 62
     2
100
AcDbHatch
 10
0.0
 20
0.0
 30
0.0
210
0.0
220
0.0
230
1.0
  2
CUSTOM10
 70
     0
 71
     1
 91
        1
 92
        1
 93
        1
 72
     4
 94
        3
 73
     0
 74
     0
 95
       91
 96
       87
 40
0.0
 40
0.0
 40
0.0
 40
0.0
 40
0.0267532254356648
 40
0.0856103386463942
 40
0.144467452199639
 40
0.171220685661823
 40
0.2039416005642252
 40
0.29556019716522
 40
0.4362601844616634
 40
0.6162252844506966
 40
0.8256392189704413
 40
1.054685709844382
 40
1.293548478893503
 40
1.532411247938275
 40
1.76145773879954
 40
1.970871673298508
 40
2.150836773256704
 40
2.291536760495565
 40
2.383155356836672
 40
2.415876284101292
 40
2.442629517487931
 40
2.501486630949052
 40
2.56034374442419
 40
2.587096977826458
 40
2.617068194440885
 40
2.699247336756026
 40
2.822032643466339
 40
2.973822353257868
 40
3.143014704823311
 40
3.31800793687989
 40
3.487200288186723
 40
3.638989997548204
 40
3.761775303794702
 40
3.843954445753037
 40
3.873925662229733
 40
3.890812773500431
 40
3.9076998847716
 40
3.937960767857218
 40
3.980983618142257
 40
4.199085915228409
 40
4.439444339237209
 40
4.677588241260837
 40
5.050698317837723
 40
5.448212454763109
 40
5.855291218044633
 40
6.138575438885289
 40
6.417434507584137
 40
6.444551104393822
 40
6.504207617363124
 40
6.56386413031445
 40
6.590980727104045
 40
6.848609460381431
 40
7.109611990668389
 40
7.352910904446047
 40
7.557830220705405
 40
7.587518925913328
 40
7.652834077375761
 40
7.718149228845711
 40
7.747837934062021
 40
7.854880190301009
 40
7.976511257403555
 40
8.369487896592357
 40
8.75751495922365
 40
9.126072419331113
 40
9.460639380392175
 40
9.746695593035916
 40
9.777569943118701
 40
9.807050320931811
 40
9.83037733612895
 40
9.886003295436037
 40
9.952395569429967
 40
10.00802152870633
 40
10.03134854388226
 40
10.21356951009597
 40
10.42203479292879
 40
10.66154556731074
 40
10.91693789564316
 40
11.15832906556574
 40
11.18982674596632
 40
11.27286608520416
 40
11.39026653033358
 40
11.52484752840894
 40
11.65942852648456
 40
11.77682897161492
 40
11.85986831085691
 40
11.89136598230437
 40
11.89136598230437
 40
11.89136598230437
 40
11.89136598230437
 10
190.7027885008196
 20
14.70699600701771
 10
190.7028237765288
 20
14.71587847311984
 10
190.7029366710797
 20
14.74430237047345
 10
190.7012984568489
 20
14.794096391698
 10
190.7069750292911
 20
14.83657564478151
 10
190.6956928731706
 20
14.88730154856843
 10
190.7632296979032
 20
14.87012900740105
 10
190.83880292107
 20
14.88290227165992
 10
190.9828357056
 20
14.87629729457377
 10
191.1569419185427
 20
14.87888462206462
 10
191.3639599611003
 20
14.87800591955549
 10
191.5894688172378
 20
14.87828207920023
 10
191.8251162293406
 20
14.87818339658658
 10
192.0607640531348
 20
14.87828184412763
 10
192.2862717580626
 20
14.87800678190785
 10
192.4932934632805
 20
14.87888186270731
 10
192.6673888915288
 20
14.87630522678442
 10
192.8114492071986
 20
14.8828829044921
 10
192.8869691915293
 20
14.870162434056
 10
192.954577603703
 20
14.88726400191682
 10
192.9430840140676
 20
14.83674785802937
 10
192.9505104581733
 20
14.79253252226499
 10
192.9428838927986
 20
14.74867966503608
 10
192.9546489459425
 20
14.69878374479327
 10
192.8930788491983
 20
14.71393227712511
 10
192.8256791738671
 20
14.70310665350672
 10
192.7013004056222
 20
14.70852031626235
 10
192.555442823657
 20
14.70649205390784
 10
192.3893576440086
 20
14.70715777578385
 10
192.2188412621724
 20
14.70689643521241
 10
192.0519790855388
 20
14.70721553391093
 10
191.9087346827105
 20
14.70635302590761
 10
191.7773313869834
 20
14.70863300482986
 10
191.7239859134657
 20
14.70407704374202
 10
191.6485188456912
 20
14.70999914992875
 10
191.6769075779233
 20
14.70094169343355
 10
191.7033652409542
 20
14.69725912268935
 10
191.6633522907701
 20
14.66654271968276
 10
191.5713663691869
 20
14.67667591174632
 10
191.5439396207069
 20
14.43032502247785
 10
191.4478793967234
 20
14.27499558764373
 10
191.1917277964474
 20
13.94525417931569
 10
191.7627537732761
 20
14.08430022210451
 10
192.0173656320516
 20
14.08291779973364
 10
192.6279647048617
 20
13.99790569242084
 10
192.3340698578083
 20
14.29685417558201
 10
192.0133304286517
 20
14.44330856901778
 10
192.1313543360434
 20
14.50025540818286
 10
192.1724716466261
 20
14.52420099873347
 10
192.2156812394411
 20
14.5459975881123
 10
192.317457409445
 20
14.60928721253904
 10
192.4328867625248
 20
14.35147151408779
 10
192.6329591642277
 20
14.21616041113682
 10
192.7269077387228
 20
14.03792795138882
 10
192.9558829746392
 20
13.87997821027051
 10
192.8596031846708
 20
13.82915972576301
 10
192.8167959763779
 20
13.79881292523053
 10
192.7718243528779
 20
13.77466130281455
 10
192.7121720925213
 20
13.72552146747561
 10
192.6789731061325
 20
13.85997475673608
 10
192.5582013350796
 20
14.01594265286579
 10
192.1970976005978
 20
13.88569928059555
 10
191.8385061955541
 20
13.90224694409482
 10
191.4570920450081
 20
13.89331229351863
 10
191.170345528289
 20
13.82882671672407
 10
190.8592055599715
 20
13.94230668192824
 10
190.8268737818787
 20
13.83122259927767
 10
190.7896178253318
 20
13.81196313850007
 10
190.7865737632753
 20
13.85874784087294
 10
190.7679892860607
 20
13.89806853919133
 10
190.7512436616777
 20
13.95765983478232
 10
190.7383730915753
 20
14.00201969871284
 10
190.7042327806428
 20
14.09106331120201
 10
190.9482714457753
 20
14.02181042943769
 10
191.1441394486671
 20
14.00030369057742
 10
191.2395426381277
 20
14.28226484478463
 10
191.2945135769597
 20
14.44363045421124
 10
191.5159619357156
 20
14.71391177589737
 10
191.3849239381216
 20
14.70548446853734
 10
191.3110026555854
 20
14.70779008496969
 10
191.1977459876244
 20
14.70671378321657
 10
191.0694251807484
 20
14.70707639076509
 10
190.9404252030415
 20
14.70697724466084
 10
190.828784094629
 20
14.70699932712571
 10
190.7514663970026
 20
14.70699579189669
 10
190.713287653201
 20
14.7069959584508
 10
190.7027885008196
 20
14.70699600701771
 97
        1
330
AF
 75
     1
 76
     2
 52
45.0
 41
0.1
 77
     0
 78
     1
 53
45.0
 43
0.0
 44
0.0
 45
-0.282842712474619
 46
0.0
 79
     0
 98
        1
 10
0.0
 20
0.0
  0
HATCH
  5
CD
330
48
100
AcDbEntity
  8
1
  6
Continuous
 62
     2
100
AcDbHatch
 10
0.0
 20
0.0
 30
0.0
210
0.0
220
0.0
230
1.0
  2
CUSTOM11
 70
     0
 71
     1
 91
        1
 92
        1
 93
        1
 72
     4
 94
        3
 73
     0
 74
     0
 95
      131
 96
      127
 40
0.0
 40
0.0
 40
0.0
 40
0.0
 40
0.019557702982645
 40
0.0426490537461527
 40
0.2863607575856922
 40
0.5344948436189647
 40
0.7842238845573516
 40
0.8737315789467631
 40
0.9803832810313117
 40
1.092842274517059
 40
1.199761146656824
 40
1.289788768186541
 40
1.351573580786253
 40
1.370727117561478
 40
1.416400936017885
 40
1.470914848356019
 40
1.516588666791805
 40
1.535742203552882
 40
1.634216592293227
 40
1.760283341175074
 40
1.897966686682152
 40
2.031216387368985
 40
2.049689751137981
 40
2.101115601646919
 40
2.179502577740041
 40
2.278859318314163
 40
2.393194462258824
 40
2.516516648383945
 40
2.642834515406077
 40
2.76615670198359
 40
2.88049184675471
 40
2.979848588358756
 40
3.058235565443936
 40
3.109661416669094
 40
3.128134780704272
 40
3.146783742386588
 40
3.191254343315449
 40
3.244332157316108
 40
3.288802758226012
 40
3.307451719895254
 40
3.327717853844866
 40
3.383747753580229
 40
3.468388665924623
 40
3.574487837698932
 40
3.694892515729042
 40
3.822449946852183
 40
3.950007377920577
 40
4.070412055800672
 40
4.176511227368229
 40
4.261152139501679
 40
4.317182039076872
 40
4.337448172964793
 40
4.620011002696398
 40
4.885096638397678
 40
4.945373043518506
 40
5.014107710488828
 40
5.070481727652242
 40
5.319246955636747
 40
5.58481216450621
 40
5.859000912057052
 40
6.133746937542223
 40
6.401732212969004
 40
6.420736683995595
 40
6.472845717451245
 40
6.550702743894173
 40
6.646951193874382
 40
6.754234497930706
 40
6.865196086587484
 40
6.972479390357942
 40
7.068727839772104
 40
7.146584865451113
 40
7.198693898189343
 40
7.217698368905483
 40
7.234950401630964
 40
7.27608986427001
 40
7.325191803516122
 40
7.366331266090511
 40
7.383583298769863
 40
7.40277916349224
 40
7.453386443254671
 40
7.524934666445673
 40
7.606953361406013
 40
7.688972056429164
 40
7.760520279784415
 40
7.811127559734657
 40
7.830323424546278
 40
7.847844055299906
 40
7.894799345666953
 40
7.962779392744646
 40
8.0433742935607
 40
8.128174145149613
 40
8.208769044817425
 40
8.276749090377129
 40
8.323704379669694
 40
8.341225010056428
 40
8.358497614800577
 40
8.401679126686782
 40
8.45781509218584
 40
8.513951057728244
 40
8.5571325697082
 40
8.574405174505243
 40
8.602340668616616
 40
8.64345566054016
 40
8.663225271966832
 40
8.71534515656448
 40
8.789031889628818
 40
8.873502045520551
 40
8.957972194324178
 40
9.031658925568072
 40
9.083778811234763
 40
9.103548423003227
 40
9.119550083123764
 40
9.160817522380066
 40
9.217244429110432
 40
9.278724491644917
 40
9.335151398295702
 40
9.376418837357997
 40
9.392420497300785
 40
9.401196302735004
 40
9.417494229384479
 40
9.426270027749752
 40
9.44087507547778
 40
9.475702496998952
 40
9.517270709866105
 40
9.552098131994265
 40
9.56670316988447
 40
9.56670316988447
 40
9.56670316988447
 40
9.56670316988447
 10
194.6170254148479
 20
15.6701587151103
 10
194.6134345093371
 20
15.6645369070216
 10
194.6056039123625
 20
15.65227754419111
 10
194.5129968974545
 20
15.61601916040991
 10
194.4887622233247
 20
15.40148444212708
 10
194.3858709845939
 20
15.22197284509711
 10
194.1220492364304
 20
15.03615573798145
 10
194.284547156918
 20
14.95959336566084
 10
194.3607225760838
 20
14.89856693195444
 10
194.4492171072758
 20
14.83515804544762
 10
194.5389930233111
 20
14.77525634219562
 10
194.5883817636046
 20
14.72102154849207
 10
194.6745708157381
 20
14.6928624054183
 10
194.641126067423
 20
14.65713309652808
 10
194.621467116631
 20
14.62550387991903
 10
194.5919888217883
 20
14.58475872796068
 10
194.5688989446031
 20
14.55504663489642
 10
194.5380205968357
 20
14.50211422668493
 10
194.472919336574
 20
14.627403349389
 10
194.3796000122415
 20
14.68213900233934
 10
194.2950636285139
 20
14.73916423939345
 10
194.1722498125741
 20
14.89675287427527
 10
194.1764450847301
 20
14.8203580676684
 10
194.1751478652676
 20
14.77361280161299
 10
194.1758126448077
 20
14.69584785812604
 10
194.1755549986956
 20
14.59902068324425
 10
194.1756431239921
 20
14.4865027907881
 10
194.1756077302281
 20
14.36524085945701
 10
194.1756511758278
 20
14.24086897858962
 10
194.1755199942407
 20
14.11967683631337
 10
194.1759477562045
 20
14.00691148919742
 10
194.1746678202311
 20
13.91082913768743
 10
194.1779759851044
 20
13.83113826468698
 10
194.1715197740086
 20
13.78815175788782
 10
194.1806208705555
 20
13.7495543237204
 10
194.1447910339935
 20
13.75810887724068
 10
194.1115223815252
 20
13.75342519985445
 10
194.0604562576041
 20
13.75351298759782
 10
194.0269723972812
 20
13.75794430283818
 10
193.9907585408754
 20
13.74960793842508
 10
194.0009782568666
 20
13.79145277179282
 10
193.9936487887773
 20
13.83778560820172
 10
193.9973633136102
 20
13.92374831106013
 10
193.9959480554897
 20
14.02605142704848
 10
193.9964105554638
 20
14.14453223931511
 10
193.996277368623
 20
14.26957683153355
 10
193.9963015910045
 20
14.3947582810705
 10
193.9963354925551
 20
14.51286645379058
 10
193.9962060293132
 20
14.61628748709516
 10
193.9965507549081
 20
14.69932036153667
 10
193.9958698278689
 20
14.75143368521244
 10
193.9994586600624
 20
14.87912907821361
 10
193.7826171386436
 20
14.58048716819622
 10
193.6021354921951
 20
14.35263981511515
 10
193.5490322295611
 20
14.49373443289815
 10
193.5200429133149
 20
14.54325767560946
 10
193.419664806282
 20
14.64641779790112
 10
193.7405127723261
 20
14.72695035023779
 10
193.868989700543
 20
14.91066283036434
 10
194.0906454325358
 20
15.11931995771761
 10
194.1770224894069
 20
15.29339211228342
 10
194.4549394229074
 20
15.56967051342505
 10
194.3346247839284
 20
15.56534559551109
 10
194.2863197351348
 20
15.56614856202547
 10
194.2102377454905
 20
15.56574582146579
 10
194.116701000975
 20
15.56590275611604
 10
194.0117594788557
 20
15.56582502576219
 10
193.9033887738717
 20
15.56595464378549
 10
193.7981454235897
 20
15.56554393490687
 10
193.7056237819412
 20
15.56682073671586
 10
193.6268130800707
 20
15.56340766534845
 10
193.5839674565379
 20
15.57023350036315
 10
193.5449499586515
 20
15.56065064201118
 10
193.5526365271864
 20
15.59420779565538
 10
193.5485464404312
 20
15.62523550322229
 10
193.5485531368815
 20
15.67236529270895
 10
193.5526239724911
 20
15.70340941646774
 10
193.5449495574583
 20
15.73701861635898
 10
193.5834819405494
 20
15.72748410420868
 10
193.624122801448
 20
15.73397435498066
 10
193.6951471850463
 20
15.7310015065025
 10
193.7729318149633
 20
15.73174761399153
 10
193.8507292246474
 20
15.73247814044522
 10
193.9217232089908
 20
15.72954235514156
 10
193.9624279791819
 20
15.73595468772947
 10
194.000985348991
 20
15.72650524176
 10
193.9927342754927
 20
15.76264692158781
 10
193.9982346669359
 20
15.80129837613223
 10
193.9955754206163
 20
15.86913528561836
 10
193.9965815471533
 20
15.94591641538737
 10
193.9960178018319
 20
16.02849393582756
 10
193.9970714526592
 20
16.10517329229877
 10
193.994267586313
 20
16.17331990776699
 10
194.0000702721304
 20
16.21132399809346
 10
193.9915654551158
 20
16.24758448077646
 10
194.0255610233125
 20
16.23755723771853
 10
194.05945756831
 20
16.24073266813706
 10
194.1126669060346
 20
16.2350896564061
 10
194.1660768574483
 20
16.23434774436425
 10
194.199591464949
 20
16.2281922348298
 10
194.2388086183039
 20
16.23346029773593
 10
194.2120263698492
 20
16.19253380793488
 10
194.1708111001724
 20
16.20371204538109
 10
194.1782641540874
 20
16.15867056192121
 10
194.1742227952184
 20
16.11412278028141
 10
194.176171404964
 20
16.042235726217
 10
194.1752364849759
 20
15.96168630588768
 10
194.176510719003
 20
15.88173995404991
 10
194.1732043793863
 20
15.80841837083179
 10
194.1802106179962
 20
15.76688643002564
 10
194.1701440380125
 20
15.72752418568109
 10
194.2029814803922
 20
15.73468063430977
 10
194.236457729648
 20
15.7302724313794
 10
194.2915053476019
 20
15.73217943347893
 10
194.3489502595314
 20
15.73185366407284
 10
194.4023026248309
 20
15.73106308733077
 10
194.4398540896638
 20
15.7331395911807
 10
194.4623172523237
 20
15.73022338167105
 10
194.4751678073731
 20
15.73572552644052
 10
194.4858255685888
 20
15.73801118197786
 10
194.4986635650143
 20
15.74494972588048
 10
194.514599103307
 20
15.72853046313669
 10
194.5410623920891
 20
15.71709122319446
 10
194.5726805253757
 20
15.69644687835191
 10
194.5987255892152
 20
15.68116869628296
 10
194.6128517723972
 20
15.67266976323186
 10
194.6170254148479
 20
15.6701587151103
 97
        1
330
B0
 75
     1
 76
     2
 52
45.0
 41
0.1
 77
     0
 78
     1
 53
45.0
 43
0.0
 44
0.0
 45
-0.282842712474619
 46
0.0
 79
     0
 98
        1
 10
0.0
 20
0.0
  0
HATCH
  5
CE
330
48
100
AcDbEntity
  8
1
  6
Continuous
 62
     2
100
AcDbHatch
 10
0.0
 20
0.0
 30
0.0
210
0.0
220
0.0
230
1.0
  2
CUSTOM12
 70
     0
 71
     1
 91
        1
 92
        1
 93
        1
 72
     4
 94
        3
 73
     0
 74
     0
 95
      124
 96
      120
 40
0.0
 40
0.0
 40
0.0
 40
0.0
 40
0.027818722962451
 40
0.1011590162384269
 40
0.2048470170590239
 40
0.3237088716559245
 40
0.4425707262522
 40
0.5462587270699547
 40
0.6195990203311798
 40
0.647417752257866
 40
0.6750060736115242
 40
0.7357003855242759
 40
0.7963946998054456
 40
0.8239830245571766
 40
0.854093381110286
 40
0.937339662940954
 40
1.063094687343235
 40
1.220731268638073
 40
1.399622220914748
 40
1.589140358637732
 40
1.778658496423898
 40
1.957549448940509
 40
2.115186030873159
 40
2.240941056914463
 40
2.324187341760532
 40
2.354297700109382
 40
2.38188602467189
 40
2.442580338710475
 40
2.503274652750497
 40
2.530862977314606
 40
2.560983949278559
 40
2.640393784452905
 40
2.752662861759128
 40
2.881361560118145
 40
3.010060258455192
 40
3.122329335705339
 40
3.201739170817953
 40
3.231860142753313
 40
3.26429802403037
 40
3.352343701778238
 40
3.482095226868759
 40
3.639650650173016
 40
3.811108022565468
 40
3.982565394927973
 40
4.140120818152551
 40
4.269872343141258
 40
4.357918020802319
 40
4.390355902043946
 40
4.423256253992515
 40
4.508104530073036
 40
4.624121560636804
 40
4.750528176031561
 40
4.866545206602008
 40
4.951393482691965
 40
4.984293834645366
 40
5.01145083324228
 40
5.071196230152062
 40
5.130941627057136
 40
5.1580986256488
 40
5.190998977601491
 40
5.275847253689316
 40
5.391864284256751
 40
5.518270899648296
 40
5.634287930209335
 40
5.719136206288009
 40
5.752036558235896
 40
5.782130946282924
 40
5.8627839062291
 40
5.979550131774972
 40
6.11798431664038
 40
6.263641154587931
 40
6.40207533941414
 40
6.51884156490794
 40
6.599494524815525
 40
6.629588912848763
 40
6.65440302822634
 40
6.713575149488107
 40
6.784199939329425
 40
6.843372060493527
 40
6.868186175802773
 40
6.896246243201871
 40
6.939586233758275
 40
6.967846564564903
 40
7.043584251089838
 40
7.153234334451692
 40
7.283231855734439
 40
7.420011856035465
 40
7.550009376579814
 40
7.659659458835209
 40
7.735397144417199
 40
7.763657474851371
 40
7.796409728011028
 40
7.880876065096302
 40
7.996370852465688
 40
8.122208446418583
 40
8.237703224799176
 40
8.32216956201087
 40
8.354921815205884
 40
8.382078813307665
 40
8.441824209206967
 40
8.501569605240114
 40
8.52872660348569
 40
8.56147885669574
 40
8.64594519387779
 40
8.761439980865301
 40
8.887277580764444
 40
9.002772362000965
 40
9.087238696661185
 40
9.119990949235639
 40
9.152428830613339
 40
9.24047450863855
 40
9.3702260341495
 40
9.52778145798438
 40
9.699238830981365
 40
9.870696203978552
 40
10.02825162781397
 40
10.15800315332559
 40
10.24604883135113
 40
10.27848670378516
 40
10.27848670378516
 40
10.27848670378516
 40
10.27848670378516
 10
195.3821827564383
 20
14.0141051738576
 10
195.3914554737523
 20
14.01410498511277
 10
195.4251744536861
 20
14.01410430876717
 10
195.4934706812465
 20
14.01411807243307
 10
195.592014171158
 20
14.01403224219548
 10
195.7062066464812
 20
14.01441755612253
 10
195.818589441707
 20
14.01300835897548
 10
195.9214376600118
 20
14.01719117422245
 10
195.9806839874849
 20
14.00823089251985
 10
196.0371265937033
 20
14.02164434526064
 10
196.0246255586954
 20
13.97087198613364
 10
196.0329549635703
 20
13.9258932093907
 10
196.024817084112
 20
13.88056752990491
 10
196.0370529214457
 20
13.82931932408469
 10
195.9747773490333
 20
13.84447955365279
 10
195.9060513026868
 20
13.83359750710746
 10
195.7782756749592
 20
13.83911304747975
 10
195.6262984511643
 20
13.83700851253701
 10
195.4502695972523
 20
13.83771002588476
 10
195.2644431934287
 20
13.83745237531295
 10
195.0786167437175
 20
13.83771005144606
 10
194.9025880142168
 20
13.83700841847734
 10
194.7506104154195
 20
13.83911332229992
 10
194.6228357664554
 20
13.83359680767643
 10
194.5541077836581
 20
13.84448077125945
 10
194.4918349042883
 20
13.82931786684212
 10
194.5040616290017
 20
13.88057510805175
 10
194.4960004462597
 20
13.92582473272428
 10
194.5040675809893
 20
13.97106357955326
 10
194.4918238487083
 20
14.02234176909961
 10
194.5525017120697
 20
14.00749577363138
 10
194.6162810745736
 20
14.01756448170738
 10
194.7277314353502
 20
14.01294644212002
 10
194.8497533443824
 20
14.01413328905472
 10
194.9719538137823
 20
14.01515863900637
 10
195.0829794287392
 20
14.01092475623404
 10
195.1476517413958
 20
14.02018584521742
 10
195.2091162810501
 20
14.00604423049685
 10
195.1930065601337
 20
14.0723552788452
 10
195.2042980327358
 20
14.14447790121978
 10
195.1987400822561
 20
14.27513760888288
 10
195.2008035061691
 20
14.42607323708243
 10
195.2000167127295
 20
14.59335873107888
 10
195.2007845215627
 20
14.76061110332304
 10
195.1988038785628
 20
14.91163289269915
 10
195.204130615662
 20
15.04206069552996
 10
195.1933101388425
 20
15.114654426059
 10
195.2090326429875
 20
15.18150469436799
 10
195.143270813249
 20
15.16580512490825
 10
195.0756367830763
 20
15.17609243083996
 10
194.9615885293809
 20
15.17113786847123
 10
194.8451242674902
 20
15.17414128030475
 10
194.7306554121477
 20
15.16880303143389
 10
194.6640324657812
 20
15.18001268074826
 10
194.5990769715185
 20
15.16349132665012
 10
194.6107989758708
 20
15.2147372047706
 10
194.6032830189121
 20
15.25950333784091
 10
194.6107989878835
 20
15.30426944897962
 10
194.5990769505347
 20
15.35551536129741
 10
194.66403263392
 20
15.33899381766815
 10
194.7306533339821
 20
15.35020571373944
 10
194.8451352858063
 20
15.34485436710664
 10
194.9615454436962
 20
15.34791188771117
 10
195.0757660174641
 20
15.34278499010708
 10
195.1430150439226
 20
15.35345733355598
 10
195.2083325941438
 20
15.33742082669077
 10
195.1941391448552
 20
15.39949685750054
 10
195.2036059462995
 20
15.46586761628763
 10
195.1990269004085
 20
15.58239972741967
 10
195.2007696555948
 20
15.71426685022377
 10
195.1997551495392
 20
15.85615960150275
 10
195.2017191344372
 20
15.98769050702582
 10
195.1964668553851
 20
16.10524577283004
 10
195.2073408763475
 20
16.16947789001587
 10
195.1919536641853
 20
16.2310880254505
 10
195.24075915378
 20
16.21702407382113
 10
195.2853995564725
 20
16.21954742075317
 10
195.3538643946742
 20
16.21512797401711
 10
195.3959106169102
 20
16.20613025544037
 10
195.4487544758775
 20
16.21411714866512
 10
195.4207035002014
 20
16.17113917611673
 10
195.3749142248594
 20
16.18259552043834
 10
195.3869539073264
 20
16.12173520005134
 10
195.3796086070641
 20
16.05769299468771
 10
195.3831195826161
 20
15.94909368863908
 10
195.3819806760173
 20
15.82494319144751
 10
195.3819174780262
 20
15.69189719829876
 10
195.3832872966867
 20
15.56797381249555
 10
195.3791638801314
 20
15.45868337849338
 10
195.3877763103563
 20
15.39608580094169
 10
195.3746757454402
 20
15.33740133296366
 10
195.4393884328198
 20
15.35362113810902
 10
195.5060405953156
 20
15.34270260383311
 10
195.6198779541102
 20
15.34793740173756
 10
195.7357259122097
 20
15.34485547516913
 10
195.849692426328
 20
15.35018259812512
 10
195.91603410181
 20
15.33904208166543
 10
195.9807188525479
 20
15.35546979593178
 10
195.9689820772722
 20
15.30425925210051
 10
195.9765168063041
 20
15.25950334121001
 10
195.9689820992258
 20
15.21474739010028
 10
195.9807188140737
 20
15.16353690871041
 10
195.9160344075252
 20
15.17996427794221
 10
195.8496886430824
 20
15.1688278444727
 10
195.7357459487012
 20
15.17413115893121
 10
195.6197995623054
 20
15.17114764593544
 10
195.5062756882122
 20
15.17606892268395
 10
195.4389231318804
 20
15.1658508751352
 10
195.3734285122495
 20
15.18145996138816
 10
195.3891713619218
 20
15.11463851827412
 10
195.3783275998213
 20
15.0420705781588
 10
195.3836581629793
 20
14.91162247614417
 10
195.3817136151855
 20
14.76064558185227
 10
195.3823133683214
 20
14.5932224393416
 10
195.3821506559605
 20
14.42656176118374
 10
195.3821895488136
 20
14.27360142921638
 10
195.3821816413098
 20
14.14849178985707
 10
195.3821828382744
 20
14.06507890991423
 10
195.3821827716208
 20
14.02491778281978
 10
195.3821827564383
 20
14.0141051738576
 97
        1
330
B1
 75
     1
 76
     2
 52
45.0
 41
0.1
 77
     0
 78
     1
 53
45.0
 43
0.0
 44
0.0
 45
-0.282842712474619
 46
0.0
 79
     0
 98
        1
 10
0.0
 20
0.0
  0
HATCH
  5
CF
330
48
100
AcDbEntity
  8
1
  6
Continuous
 62
     2
100
AcDbHatch
 10
0.0
 20
0.0
 30
0.0
210
0.0
220
0.0
230
1.0
  2
CUSTOM13
 70
     0
 71
     1
 91
        1
 92
        1
 93
        3
 72
     4
 94
        3
 73
     0
 74
     0
 95
       24
 96
       20
 40
0.0
 40
0.0
 40
0.0
 40
0.0
 40
0.2211075008754687
 40
0.4273218586245927
 40
0.5080174679239972
 40
0.5914835907870943
 40
0.8143265690193523
 40
1.054651302686667
 40
1.295452694023238
 40
1.518109231328848
 40
1.540864321905461
 40
1.595126460622719
 40
1.659890947896029
 40
1.714153085187384
 40
1.736908174961682
 40
1.764951100735388
 40
1.801562291220974
 40
1.953914424543697
 40
2.126104167379796
 40
2.126104167379796
 40
2.126104167379796
 40
2.126104167379796
 10
185.9375369556889
 20
15.58989295113021
 10
185.9112579081812
 20
15.53097628234377
 10
185.8604698894425
 20
15.41711139679257
 10
185.8131784839112
 20
15.14441958233116
 10
185.7043482802617
 20
15.24445482575453
 10
185.5514800279637
 20
15.27118593367334
 10
185.7686155181199
 20
15.48518135017634
 10
185.7838483674381
 20
15.70332117782489
 10
185.8906889492
 20
15.88451579066427
 10
185.8305380947077
 20
16.16913226311396
 10
185.9334317395402
 20
16.14114089222449
 10
185.9779933468149
 20
16.13243251602299
 10
186.0380842395396
 20
16.12139654183355
 10
186.0756619587439
 20
16.10767523055561
 10
186.1252466928605
 20
16.10756076160226
 10
186.0930158919325
 20
16.07306592398623
 10
186.0171802221881
 20
16.08404104537971
 10
186.0429447159694
 20
15.89858969582446
 10
186.0055896763849
 20
15.80702313549585
 10
185.9857704961609
 20
15.75844135397701
 72
     4
 94
        3
 73
     0
 74
     0
 95
       70
 96
       66
 40
0.0
 40
0.0
 40
0.0
 40
0.0
 40
0.0241731073021472
 40
0.0846058988987013
 40
0.1631685280353284
 40
0.2417311571789756
 40
0.3021639488292751
 40
0.3263370654895541
 40
0.3533118254248881
 40
0.4228783438922058
 40
0.5179999095313313
 40
0.621639823946596
 40
0.7167613891499528
 40
0.7863279069649686
 40
0.8133026791761623
 40
0.8372943998771456
 40
0.8945054261372639
 40
0.9627895541962399
 40
1.020000580349049
 40
1.043992300975147
 40
1.071934345522889
 40
1.113121768772904
 40
1.145225199332229
 40
1.225483775412767
 40
1.329819923771483
 40
1.434156071994376
 40
1.514414647795801
 40
1.546518078208409
 40
1.578974764260183
 40
1.662678849314178
 40
1.777131373668398
 40
1.901833377474789
 40
2.016285900500579
 40
2.099989982527946
 40
2.132446666570305
 40
2.158782354486029
 40
2.216720867907812
 40
2.274659381334232
 40
2.300995069256166
 40
2.333451754066138
 40
2.417155836543818
 40
2.531608358985258
 40
2.656310362283753
 40
2.770762886388885
 40
2.854466971340051
 40
2.886923657363857
 40
2.913597976833287
 40
2.982389642875081
 40
3.076451716946936
 40
3.178937260458538
 40
3.272999334739929
 40
3.341791001059145
 40
3.368465320663452
 40
3.396976080738673
 40
3.472140811845909
 40
3.578408190308599
 40
3.700226892456035
 40
3.822045594634252
 40
3.928312973256359
 40
4.003477705314756
 40
4.031988456866822
 40
4.058324144797623
 40
4.11626265823679
 40
4.174201171400597
 40
4.200536849608532
 40
4.200536849608532
 40
4.200536849608532
 40
4.200536849608532
 10
185.9857704961609
 20
15.75844135397701
 10
185.9938259544679
 20
15.75844359811683
 10
186.0220200663241
 20
15.75845146032793
 10
186.0765534803672
 20
15.75830754828368
 10
186.1482891808604
 20
15.75909120499894
 10
186.2236240137062
 20
15.75627570463807
 10
186.2713052366438
 20
15.76298403400953
 10
186.3195071245616
 20
15.75197563692429
 10
186.3062571799873
 20
15.80546402997029
 10
186.3151093964539
 20
15.86049583543087
 10
186.3108698036285
 20
15.95419908726104
 10
186.313348348128
 20
16.04959482218527
 10
186.3090938706059
 20
16.14356821983381
 10
186.3179818665847
 20
16.19795062438007
 10
186.3046977409945
 20
16.25233997691454
 10
186.3514119277108
 20
16.23842216335353
 10
186.3943254545737
 20
16.2410387737404
 10
186.4605443456684
 20
16.23648422450752
 10
186.5013342271799
 20
16.22778162134161
 10
186.5525145690819
 20
16.23531799890195
 10
186.52537204872
 20
16.19349970223284
 10
186.4803096055706
 20
16.20284992072594
 10
186.4942065045051
 20
16.13841207371835
 10
186.4858414431653
 20
16.07378219627396
 10
186.4903632178398
 20
15.97529141193884
 10
186.4854741311167
 20
15.87595932842567
 10
186.4950258992082
 20
15.81293115552964
 10
186.4799761455201
 20
15.74964011499785
 10
186.5449159457208
 20
15.76515072944265
 10
186.6116246399497
 20
15.75499387697808
 10
186.7241435470827
 20
15.75988800099363
 10
186.8390235448954
 20
15.7569120473278
 10
186.9519871999746
 20
15.76221664184986
 10
187.0176267597678
 20
15.75107306472085
 10
187.0816276691053
 20
15.76744532319853
 10
187.0703142889189
 20
15.71761689905271
 10
187.077533987151
 20
15.67416715212119
 10
187.0703142611269
 20
15.63071745587441
 10
187.0816277175994
 20
15.58088895196874
 10
187.0176263598971
 20
15.59726166091359
 10
186.951992124046
 20
15.58611271661585
 10
186.838997431733
 20
15.59144857206851
 10
186.7242456548644
 20
15.58834345663819
 10
186.611318368686
 20
15.59364894682585
 10
186.5455220903584
 20
15.58257300019591
 10
186.4816097975358
 20
15.59887597847614
 10
186.4936015165126
 20
15.54423524395739
 10
186.4862104613005
 20
15.4885429504784
 10
186.4892684841983
 20
15.39649689140569
 10
186.4893422785683
 20
15.30179109873102
 10
186.486031357836
 20
15.20952782902267
 10
186.4939505989903
 20
15.15435768736141
 10
186.4815076611617
 20
15.10058169100139
 10
186.5389116551631
 20
15.11453768862784
 10
186.5994708140383
 20
15.1051145788423
 10
186.7048680855081
 20
15.10942885928707
 10
186.8204294070622
 20
15.10835504612034
 10
186.9359688877797
 20
15.10725965900998
 10
187.0414181130841
 20
15.11162525770635
 10
187.1018680471804
 20
15.10209426030673
 10
187.159283773911
 20
15.11617289606382
 10
187.1477773876708
 20
15.06707153265684
 10
187.153756678175
 20
15.02564658018651
 10
187.1520311050801
 20
14.97651677966697
 10
187.1521500122971
 20
14.94854428447609
 10
187.1521871691833
 20
14.93980288195951
 72
     4
 94
        3
 73
     0
 74
     0
 95
       62
 96
       58
 40
0.0
 40
0.0
 40
0.0
 40
0.0
 40
0.0598250028308485
 40
0.2024846486897331
 40
0.3727558389221031
 40
0.515415484793607
 40
0.5752404975785339
 40
0.9332326775487276
 40
1.290451762839471
 40
1.602077253145857
 40
1.699931634112132
 40
1.799359756425055
 40
2.270120149657113
 40
2.804661928461543
 40
2.882342287383254
 40
3.076543185719107
 40
3.329004354835568
 40
3.581465524568396
 40
3.77566642454368
 40
3.853346784558299
 40
3.899120679595045
 40
3.984129341792043
 40
4.029903236817391
 40
4.105797496059543
 40
4.295533144152499
 40
4.542189486611734
 40
4.788845828875676
 40
4.978581476410055
 40
5.054475735244296
 40
5.621734664339291
 40
6.130867242037307
 40
6.225249780948584
 40
6.318913039727247
 40
6.663579954558871
 40
7.047498900224734
 40
7.435230791575679
 40
7.498943906668091
 40
7.650875181210084
 40
7.832212509001595
 40
7.984143783696981
 40
8.047856898903108
 40
8.091554632732619
 40
8.172707566964286
 40
8.216405300768013
 40
8.289021782160898
 40
8.462184160757271
 40
8.668861838005352
 40
8.842024215263944
 40
8.91464069547514
 40
8.989881580861335
 40
9.155411528827223
 40
9.320941477743986
 40
9.396182352487228
 40
9.454709011143775
 40
9.58346766017071
 40
9.712226309012989
 40
9.770752957989442
 40
9.770752957989442
 40
9.770752957989442
 40
9.770752957989442
 10
187.1521871691833
 20
14.93980288195951
 10
187.1322348171623
 20
14.93980875568673
 10
187.0647037716466
 20
14.93982863806158
 10
186.9410612161788
 20
14.93949362520326
 10
186.7863180150056
 20
14.94107673750513
 10
186.669734948248
 20
14.93686078860496
 10
186.4550942634239
 20
14.95215205331627
 10
186.8518948407229
 20
14.59198721286193
 10
186.8945656069268
 20
14.37510503397167
 10
187.3189162146611
 20
14.19325062511452
 10
187.1439821496074
 20
14.08985196568073
 10
187.0194523925084
 20
13.87831523212724
 10
186.7666277235943
 20
14.34806081001563
 10
186.4797602893627
 20
14.9951151698452
 10
186.4906335926659
 20
14.68782672154693
 10
186.488289277796
 20
14.52288616971778
 10
186.4861096126411
 20
14.28879670711692
 10
186.4980774396346
 20
14.04498072421782
 10
186.4687984740631
 20
13.89855796860983
 10
186.511452262547
 20
13.75113490174537
 10
186.4239814005639
 20
13.76685797306219
 10
186.3768527606745
 20
13.76694303543453
 10
186.2898973207712
 20
13.75109425482908
 10
186.3313474021723
 20
13.89527771422761
 10
186.3029875004285
 20
14.03855052698453
 10
186.31459737753
 20
14.27674947365262
 10
186.3124175648271
 20
14.50517235240343
 10
186.3103111127994
 20
14.66705729375992
 10
186.3208035438322
 20
14.98153709333746
 10
186.0128963252893
 20
14.29229470872436
 10
185.7055258267455
 20
13.81476750243045
 10
185.5851367066275
 20
14.03741112637428
 10
185.4074607910721
 20
14.15011034955561
 10
185.8853326362894
 20
14.32548143465461
 10
185.9353959057207
 20
14.5609192925203
 10
186.3583799621716
 20
14.95322989344607
 10
186.127675427354
 20
14.93655307029067
 10
186.004968585934
 20
14.94269518948772
 10
185.8325483095662
 20
14.93312822699574
 10
185.7213224694449
 20
14.95448818489667
 10
185.6025779627448
 20
14.92136265357421
 10
185.6183169706686
 20
15.00203900606886
 10
185.6178550933762
 20
15.04645414290856
 10
185.6027881889931
 20
15.12967081778536
 10
185.7372380935444
 20
15.09062651983886
 10
185.8619755545747
 20
15.11739729328425
 10
186.062875523728
 20
15.10063949044055
 10
186.1921540949352
 20
15.12204225913007
 10
186.3328419928295
 20
15.08868778853424
 10
186.2980927452615
 20
15.22651875785069
 10
186.3222185666713
 20
15.34963257349481
 10
186.2967086182392
 20
15.47024055670334
 10
186.3333251146685
 20
15.60539865141492
 10
186.2211417027769
 20
15.58094545781888
 10
186.1280356457136
 20
15.59307749842019
 10
186.0191547579819
 20
15.58957630069991
 10
185.9569697640964
 20
15.589817559516
 10
185.9375369557246
 20
15.58989295124141
 97
        3
330
B3
330
B4
330
B2
 75
     1
 76
     2
 52
45.0
 41
0.1
 77
     0
 78
     1
 53
45.0
 43
0.0
 44
0.0
 45
-0.282842712474619
 46
0.0
 79
     0
 98
        1
 10
0.0
 20
0.0
  0
HATCH
  5
D0
330
48
100
AcDbEntity
  8
1
  6
Continuous
 62
     2
100
AcDbHatch
 10
0.0
 20
0.0
 30
0.0
210
0.0
220
0.0
230
1.0
  2
CUSTOM14
 70
     0
 71
     1
 91
        1
 92
        1
 93
        4
 72
     1
 10
192.4578138032672
 20
15.2287543402206
 11
191.1602971697031
 21
15.2287543402206
 72
     1
 10
191.1602971697031
 20
15.2287543402206
 11
191.1602971697031
 21
15.3972233679562
 72
     1
 10
191.1602971697031
 20
15.3972233679562
 11
192.4578138032672
 21
15.3972233679562
 72
     1
 10
192.4578138032672
 20
15.3972233679562
 11
192.4578138032672
 21
15.2287543402206
 97
        1
330
B5
 75
     1
 76
     2
 52
45.0
 41
0.1
 77
     0
 78
     1
 53
45.0
 43
0.0
 44
0.0
 45
-0.282842712474619
 46
0.0
 79
     0
 98
        1
 10
0.0
 20
0.0
  0
ENDBLK
  5
4A
330
48
100
AcDbEntity
  8
0
100
AcDbBlockEnd
  0
BLOCK
  5
4D
330
4B
100
AcDbEntity
  8
0
100
AcDbBlockBegin
  2
開示A4枠
 70
     0
 10
0.0
 20
0.0
 30
0.0
  3
開示A4枠
  1

  0
INSERT
  5
4C
330
4B
100
AcDbEntity
  8
1
100
AcDbBlockReference
  2
開示A4
 10
0.0
 20
0.0
 30
0.0
  0
ENDBLK
  5
4E
330
4B
100
AcDbEntity
  8
0
100
AcDbBlockEnd
  0
BLOCK
  5
50
330
4F
100
AcDbEntity
  8
0
100
AcDbBlockBegin
  2
tugite
 70
     0
 10
83.73472822498661
 20
85.8947483588619
 30
0.0
  3
tugite
  1

  0
LINE
  5
D1
330
4F
100
AcDbEntity
  8
1
  6
Continuous
 62
     7
100
AcDbLine
 10
94.021070462102
 20
144.3947483588619
 30
0.0
 11
94.021070462102
 21
87.3947483588619
 31
0.0
  0
LINE
  5
D2
330
4F
100
AcDbEntity
  8
1
  6
Continuous
 62
     7
100
AcDbLine
 10
125.021070462102
 20
144.3947483588619
 30
0.0
 11
125.021070462102
 21
87.3947483588619
 31
0.0
  0
LINE
  5
D3
330
4F
100
AcDbEntity
  8
1
  6
Continuous
 62
     7
100
AcDbLine
 10
95.521070462102
 20
145.8947483588619
 30
0.0
 11
95.821070462102
 21
145.8947483588619
 31
0.0
  0
LINE
  5
D4
330
4F
100
AcDbEntity
  8
1
  6
Continuous
 62
     7
100
AcDbLine
 10
95.821070462102
 20
145.8947483588619
 30
0.0
 11
123.521070462102
 21
145.8947483588619
 31
0.0
  0
LINE
  5
D5
330
4F
100
AcDbEntity
  8
1
  6
Continuous
 62
     7
100
AcDbLine
 10
95.521070462102
 20
85.8947483588619
 30
0.0
 11
123.521070462102
 21
85.8947483588619
 31
0.0
  0
LINE
  5
D6
330
4F
100
AcDbEntity
  8
1
  6
Continuous
 62
     7
100
AcDbLine
 10
123.521070462102
 20
145.8947483588619
 30
0.0
 11
125.021070462102
 21
144.3947483588619
 31
0.0
  0
LINE
  5
D7
330
4F
100
AcDbEntity
  8
1
  6
Continuous
 62
     7
100
AcDbLine
 10
95.521070462102
 20
145.8947483588619
 30
0.0
 11
94.021070462102
 21
144.3947483588619
 31
0.0
  0
LINE
  5
D8
330
4F
100
AcDbEntity
  8
1
  6
Continuous
 62
     7
100
AcDbLine
 10
94.021070462102
 20
87.3947483588619
 30
0.0
 11
95.521070462102
 21
85.8947483588619
 31
0.0
  0
LINE
  5
D9
330
4F
100
AcDbEntity
  8
1
  6
Continuous
 62
     7
100
AcDbLine
 10
123.521070462102
 20
85.8947483588619
 30
0.0
 11
125.021070462102
 21
87.3947483588619
 31
0.0
  0
LINE
  5
DA
330
4F
100
AcDbEntity
  8
0
  6
Continuous
 62
     7
100
AcDbLine
 10
94.021070462102
 20
87.3947483588619
 30
0.0
 11
125.021070462102
 21
87.3947483588619
 31
0.0
  0
LINE
  5
DB
330
4F
100
AcDbEntity
  8
0
  6
Continuous
 62
     7
100
AcDbLine
 10
94.021070462102
 20
144.3947483588619
 30
0.0
 11
125.021070462102
 21
144.3947483588619
 31
0.0
  0
CIRCLE
  5
DC
330
4F
100
AcDbEntity
  8
0
  6
Continuous
 62
     7
100
AcDbCircle
 10
109.521070462102
 20
202.3486209382526
 30
0.0
 40
13.7
  0
CIRCLE
  5
DD
330
4F
100
AcDbEntity
  8
0
  6
Continuous
 62
     7
100
AcDbCircle
 10
109.521070462102
 20
202.3486209382526
 30
0.0
 40
14.0
  0
CIRCLE
  5
DE
330
4F
100
AcDbEntity
  8
0
  6
Continuous
 62
     7
100
AcDbCircle
 10
109.521070462102
 20
202.3486209382526
 30
0.0
 40
15.5
  0
ENDBLK
  5
51
330
4F
100
AcDbEntity
  8
0
100
AcDbBlockEnd
  0
BLOCK
  5
F6
330
EF
100
AcDbEntity
  8
0
100
AcDbBlockBegin
  2
*D4
 70
     1
 10
0.0
 20
0.0
 30
0.0
  3
*D4
  1

  0
LINE
  5
F0
330
EF
100
AcDbEntity
  8
1
  6
Continuous
 62
     2
100
AcDbLine
 10
94.021070462102
 20
155.8947483588619
 30
0.0
 11
125.021070462102
 21
155.8947483588619
 31
0.0
  0
LINE
  5
F1
330
EF
100
AcDbEntity
  8
1
  6
Continuous
 62
     2
100
AcDbLine
 10
94.021070462102
 20
144.3947483588619
 30
0.0
 11
94.021070462102
 21
157.8947483588619
 31
0.0
  0
LINE
  5
F2
330
EF
100
AcDbEntity
  8
1
  6
Continuous
 62
     2
100
AcDbLine
 10
125.021070462102
 20
144.3947483588619
 30
0.0
 11
125.021070462102
 21
157.8947483588619
 31
0.0
  0
SOLID
  5
F3
330
EF
100
AcDbEntity
  8
1
 62
     2
100
AcDbTrace
 10
97.021070462102
 20
156.2897058516241
 30
0.0
 11
97.021070462102
 21
155.4997908660997
 31
0.0
 12
94.021070462102
 22
155.8947483588619
 32
0.0
 13
94.021070462102
 23
155.8947483588619
 33
0.0
  0
SOLID
  5
F4
330
EF
100
AcDbEntity
  8
1
 62
     2
100
AcDbTrace
 10
122.021070462102
 20
155.4997908660997
 30
0.0
 11
122.021070462102
 21
156.2897058516241
 31
0.0
 12
125.021070462102
 22
155.8947483588619
 32
0.0
 13
125.021070462102
 23
155.8947483588619
 33
0.0
  0
MTEXT
  5
F5
330
EF
100
AcDbEntity
  8
1
 62
     7
100
AcDbMText
 10
107.0610704621092
 20
157.8947423956536
 30
0.0
 40
3.0
 41
0.0
 71
     7
 72
     1
  1
\C7;{\Fgdt;n}\C7;31
  7
CONVERTER_12
 11
0.9999999999970619
 21
2.424068405545306E-6
 31
0.0
 73
     1
 44
0.60024009603842
  0
ENDBLK
  5
F7
330
EF
100
AcDbEntity
  8
0
100
AcDbBlockEnd
  0
BLOCK
  5
101
330
FA
100
AcDbEntity
  8
0
100
AcDbBlockBegin
  2
*D5
 70
     1
 10
0.0
 20
0.0
 30
0.0
  3
*D5
  1

  0
LINE
  5
FB
330
FA
100
AcDbEntity
  8
0
  6
Continuous
 62
     2
100
AcDbLine
 10
135.021070462102
 20
85.89474835886188
 30
0.0
 11
135.021070462102
 21
145.8947483588619
 31
0.0
  0
LINE
  5
FC
330
FA
100
AcDbEntity
  8
0
  6
Continuous
 62
     2
100
AcDbLine
 10
123.521070462102
 20
85.89474835886188
 30
0.0
 11
137.021070462102
 21
85.89474835886188
 31
0.0
  0
LINE
  5
FD
330
FA
100
AcDbEntity
  8
0
  6
Continuous
 62
     2
100
AcDbLine
 10
123.521070462102
 20
145.8947483588619
 30
0.0
 11
137.021070462102
 21
145.8947483588619
 31
0.0
  0
SOLID
  5
FE
330
FA
100
AcDbEntity
  8
0
 62
     2
100
AcDbTrace
 10
134.5602867205461
 20
89.39474835886188
 30
0.0
 11
135.4818542036579
 21
89.39474835886188
 31
0.0
 12
135.021070462102
 22
85.89474835886188
 32
0.0
 13
135.021070462102
 23
85.89474835886188
 33
0.0
  0
SOLID
  5
FF
330
FA
100
AcDbEntity
  8
0
 62
     2
100
AcDbTrace
 10
135.4818542036579
 20
142.3947483588619
 30
0.0
 11
134.5602867205461
 21
142.3947483588619
 31
0.0
 12
135.021070462102
 22
145.8947483588619
 32
0.0
 13
135.021070462102
 23
145.8947483588619
 33
0.0
  0
MTEXT
  5
100
330
FA
100
AcDbEntity
  8
0
 62
     7
100
AcDbMText
 10
133.021070462102
 20
113.7807166543236
 30
0.0
 40
3.0
 41
0.0
 71
     7
 72
     1
  1
60
  7
CONVERTER_12
 11
0.0
 21
1.0
 31
0.0
 73
     1
 44
0.60024009603842
  0
ENDBLK
  5
102
330
FA
100
AcDbEntity
  8
0
100
AcDbBlockEnd
  0
BLOCK
  5
10A
330
105
100
AcDbEntity
  8
0
100
AcDbBlockBegin
  2
*D6
 70
     1
 10
0.0
 20
0.0
 30
0.0
  3
*D6
  1

  0
LINE
  5
106
330
105
100
AcDbEntity
  8
0
  6
Continuous
 62
     2
100
AcDbLine
 10
119.9270818492198
 20
211.2595651649424
 30
0.0
 11
85.67322172257242
 21
181.9270739939972
 31
0.0
  0
SOLID
  5
107
330
105
100
AcDbEntity
  8
0
 62
     2
100
AcDbTrace
 10
101.473819778148
 20
196.0641895330988
 30
0.0
 11
102.0732384966253
 21
195.3642010861457
 31
0.0
 12
99.11505907498426
 22
193.4376767115629
 32
0.0
 13
99.11505907498426
 23
193.4376767115629
 33
0.0
  0
SOLID
  5
108
330
105
100
AcDbEntity
  8
0
 62
     2
100
AcDbTrace
 10
117.5683211460561
 20
208.6330523434064
 30
0.0
 11
116.9689024275787
 21
209.3330407903596
 31
0.0
 12
119.9270818492198
 22
211.2595651649424
 32
0.0
 13
119.9270818492198
 23
211.2595651649424
 33
0.0
  0
MTEXT
  5
109
330
105
100
AcDbEntity
  8
0
 62
     7
100
AcDbMText
 10
85.04312546417299
 20
184.4155632355152
 30
0.0
 40
3.0
 41
0.0
 71
     7
 72
     1
  1
\C7;{\Fgdt;n}\C7;27,4
  7
CONVERTER_12
 11
0.7595628749720991
 21
0.6504338851598366
 31
0.0
 73
     1
 44
0.60024009603842
  0
ENDBLK
  5
10B
330
105
100
AcDbEntity
  8
0
100
AcDbBlockEnd
  0
ENDSEC
  0
SECTION
  2
ENTITIES
  0
INSERT
  5
52
330
1F
100
AcDbEntity
  8
0
100
AcDbBlockReference
  2
開示A4枠
 10
0.0
 20
0.0
 30
0.0
  0
INSERT
  5
53
330
1F
100
AcDbEntity
  8
1
100
AcDbBlockReference
  2
tugite
 10
83.73472822498661
 20
85.8947483588619
 30
0.0
  0
LINE
  5
DF
330
1F
100
AcDbEntity
  8
1
  6
DASH_CENTER
 62
     2
100
AcDbLine
 10
109.521070462102
 20
148.8947483588619
 30
0.0
 11
109.521070462102
 21
82.8947483588619
 31
0.0
  0
LINE
  5
E0
330
1F
100
AcDbEntity
  8
0
  6
DASH_CENTER
 62
     2
100
AcDbLine
 10
91.021070462102
 20
202.3486209382526
 30
0.0
 11
128.021070462102
 21
202.3486209382526
 31
0.0
  0
LINE
  5
E1
330
1F
100
AcDbEntity
  8
0
  6
DASH_CENTER
 62
     2
100
AcDbLine
 10
109.521070462102
 20
183.8486209382526
 30
0.0
 11
109.521070462102
 21
220.8486209382526
 31
0.0
  0
MTEXT
  5
E3
330
1F
100
AcDbEntity
  8
1
 62
     7
100
AcDbMText
 10
157.5
 20
12.5
 30
0.0
 40
2.5
 41
0.0
 71
     5
 72
     1
  1
6
  7
CONVERTER_12
 73
     1
 44
0.7202881152461
  0
MTEXT
  5
E4
330
1F
100
AcDbEntity
  8
1
 62
     7
100
AcDbMText
 10
151.75
 20
12.5
 30
0.0
 40
2.5
 41
0.0
 71
     5
 72
     1
  1
04
  7
CONVERTER_12
 73
     1
 44
0.7202881152461
  0
MTEXT
  5
E5
330
1F
100
AcDbEntity
  8
1
 62
     7
100
AcDbMText
 10
140.5
 20
12.5
 30
0.0
 40
2.5
 41
0.0
 71
     5
 72
     1
  1
6
  7
CONVERTER_12
 73
     1
 44
0.7202881152461
  0
MTEXT
  5
E6
330
1F
100
AcDbEntity
  8
1
 62
     7
100
AcDbMText
 10
134.75
 20
12.5
 30
0.0
 40
2.5
 41
0.0
 71
     5
 72
     1
  1
04
  7
CONVERTER_12
 73
     1
 44
0.7202881152461
  0
MTEXT
  5
E7
330
1F
100
AcDbEntity
  8
1
 62
     7
100
AcDbMText
 10
123.5
 20
12.5
 30
0.0
 40
2.5
 41
0.0
 71
     5
 72
     1
  1
6
  7
CONVERTER_12
 73
     1
 44
0.7202881152461
  0
MTEXT
  5
E8
330
1F
100
AcDbEntity
  8
1
 62
     7
100
AcDbMText
 10
117.75
 20
12.5
 30
0.0
 40
2.5
 41
0.0
 71
     5
 72
     1
  1
04
  7
CONVERTER_12
 73
     1
 44
0.7202881152461
  0
MTEXT
  5
E9
330
1F
100
AcDbEntity
  8
1
 62
     7
100
AcDbMText
 10
100.75
 20
12.5
 30
0.0
 40
2.5
 41
0.0
 71
     5
 72
     1
  1
04
  7
CONVERTER_12
 73
     1
 44
0.7202881152461
  0
MTEXT
  5
EA
330
1F
100
AcDbEntity
  8
1
 62
     7
100
AcDbMText
 10
106.5
 20
12.5
 30
0.0
 40
2.5
 41
0.0
 71
     5
 72
     1
  1
6
  7
CONVERTER_12
 73
     1
 44
0.7202881152461
  0
MTEXT
  5
EB
330
1F
100
AcDbEntity
  8
1
 62
     7
100
AcDbMText
 10
93.75000000000001
 20
17.0
 30
0.0
 40
3.5
 41
0.0
 71
     5
 72
     1
  1
1
  7
CONVERTER_12
 73
     1
 44
0.7202881152461
  0
MTEXT
  5
EC
330
1F
100
AcDbEntity
  8
1
 62
     7
100
AcDbMText
 10
57.00000000000001
 20
14.25
 30
0.0
 40
3.5
 41
0.0
 71
     5
 72
     1
  1
H62-15
  7
CONVERTER_12
 73
     1
 44
0.7202881152461
  0
MTEXT
  5
ED
330
1F
100
AcDbEntity
  8
1
 62
     7
100
AcDbMText
 10
57.00000000000001
 20
22.75
 30
0.0
 40
3.5
 41
0.0
 71
     5
 72
     1
  1
排水ホースツギテ
  7
CONVERTER_11
 73
     1
 44
0.54545454545455
  0
MTEXT
  5
EE
330
1F
100
AcDbEntity
  8
1
 62
     7
100
AcDbMText
 10
85.25000000000001
 20
17.0
 30
0.0
 40
3.5
 41
0.0
 71
     5
 72
     1
  1
1
  7
CONVERTER_12
 73
     1
 44
0.7202881152461
  0
DIMENSION
  5
F9
330
1F
100
AcDbEntity
  8
1
100
AcDbDimension
  2
*D4
 10
94.021070462102
 20
155.8947483588619
 30
0.0
 11
109.521070462102
 21
159.3947483588619
 31
0.0
 70
    32
  1
<>
 71
     5
 42
-1.0
 53
0.00013888888889
  3
ME10_DIM_10
100
AcDbAlignedDimension
 13
125.021070462102
 23
144.3947483588619
 33
0.0
 14
94.021070462102
 24
144.3947483588619
 34
0.0
100
AcDbRotatedDimension
  0
DIMENSION
  5
104
330
1F
100
AcDbEntity
  8
0
100
AcDbDimension
  2
*D5
 10
135.021070462102
 20
85.89474835886188
 30
0.0
 11
131.521070462102
 21
116.0307166543236
 31
0.0
 70
    32
  1
<>
 71
     5
 42
-1.0
 53
90.0
  3
ME10_DIM_11
100
AcDbAlignedDimension
 13
123.521070462102
 23
145.8947483588619
 33
0.0
 14
123.521070462102
 24
85.8947483588619
 34
0.0
 50
90.0
100
AcDbRotatedDimension
  0
INSERT
  5
10C
330
1F
100
AcDbEntity
  8
0
100
AcDbBlockReference
  2
*D6
 10
0.0
 20
0.0
 30
0.0
  0
ENDSEC
  0
SECTION
  2
OBJECTS
  0
DICTIONARY
  5
C
330
0
100
AcDbDictionary
281
     1
  3
ACAD_GROUP
350
D
  3
ACAD_LAYOUT
350
1A
  3
ACAD_MATERIAL
350
3B
  3
ACAD_MLEADERSTYLE
350
10F
  3
ACAD_MLINESTYLE
350
17
  3
ACAD_PLOTSETTINGS
350
19
  3
ACAD_PLOTSTYLENAME
350
E
  3
ACAD_VISUALSTYLE
350
2A
  3
AcDbVariableDictionary
350
10D
  0
DICTIONARY
  5
D
102
{ACAD_REACTORS
330
C
102
}
330
C
100
AcDbDictionary
281
     1
  0
DICTIONARY
  5
1A
102
{ACAD_REACTORS
330
C
102
}
330
C
100
AcDbDictionary
281
     1
  3
Layout1
350
1E
  3
Layout2
350
26
  3
Model
350
22
  0
DICTIONARY
  5
3B
102
{ACAD_REACTORS
330
C
102
}
330
C
100
AcDbDictionary
281
     1
  3
ByBlock
350
3D
  3
ByLayer
350
3C
  3
Global
350
3E
  0
DICTIONARY
  5
10F
102
{ACAD_REACTORS
330
C
102
}
330
C
100
AcDbDictionary
281
     1
  0
DICTIONARY
  5
17
102
{ACAD_REACTORS
330
C
102
}
330
C
100
AcDbDictionary
281
     1
  3
Standard
350
18
  0
DICTIONARY
  5
19
102
{ACAD_REACTORS
330
C
102
}
330
C
100
AcDbDictionary
281
     1
  0
ACDBDICTIONARYWDFLT
  5
E
102
{ACAD_REACTORS
330
C
102
}
330
C
100
AcDbDictionary
281
     1
  3
Normal
350
F
100
AcDbDictionaryWithDefault
340
F
  0
DICTIONARY
  5
2A
102
{ACAD_REACTORS
330
C
102
}
330
C
100
AcDbDictionary
281
     1
  3
2dWireframe
350
2F
  3
3D Hidden
350
31
  3
3dWireframe
350
30
  3
Basic
350
32
  3
Brighten
350
36
  3
ColorChange
350
3A
  3
Conceptual
350
34
  3
Dim
350
35
  3
Facepattern
350
39
  3
Flat
350
2B
  3
FlatWithEdges
350
2C
  3
Gouraud
350
2D
  3
GouraudWithEdges
350
2E
  3
Linepattern
350
38
  3
Realistic
350
33
  3
Thicken
350
37
  0
DICTIONARY
  5
10D
102
{ACAD_REACTORS
330
C
102
}
330
C
100
AcDbDictionary
281
     1
  3
DIMASSOC
350
110
  3
HIDETEXT
350
111
  0
LAYOUT
  5
1E
102
{ACAD_REACTORS
330
1A
102
}
330
1A
100
AcDbPlotSettings
  1

  2
none_device
  4

  6

 40
0.0
 41
0.0
 42
0.0
 43
0.0
 44
0.0
 45
0.0
 46
0.0
 47
0.0
 48
0.0
 49
0.0
140
0.0
141
0.0
142
1.0
143
1.0
 70
   688
 72
     0
 73
     0
 74
     5
  7

 75
    16
147
1.0
148
0.0
149
0.0
100
AcDbLayout
  1
Layout1
 70
     1
 71
     1
 10
0.0
 20
0.0
 11
12.0
 21
9.0
 12
0.0
 22
0.0
 32
0.0
 14
1.00000000000000E+20
 24
1.00000000000000E+20
 34
1.00000000000000E+20
 15
-1.00000000000000E+20
 25
-1.00000000000000E+20
 35
-1.00000000000000E+20
146
0.0
 13
0.0
 23
0.0
 33
0.0
 16
1.0
 26
0.0
 36
0.0
 17
0.0
 27
1.0
 37
0.0
 76
     0
330
1B
  0
LAYOUT
  5
26
102
{ACAD_REACTORS
330
1A
102
}
330
1A
100
AcDbPlotSettings
  1

  2
none_device
  4

  6

 40
0.0
 41
0.0
 42
0.0
 43
0.0
 44
0.0
 45
0.0
 46
0.0
 47
0.0
 48
0.0
 49
0.0
140
0.0
141
0.0
142
1.0
143
1.0
 70
   688
 72
     0
 73
     0
 74
     5
  7

 75
    16
147
1.0
148
0.0
149
0.0
100
AcDbLayout
  1
Layout2
 70
     1
 71
     2
 10
0.0
 20
0.0
 11
0.0
 21
0.0
 12
0.0
 22
0.0
 32
0.0
 14
0.0
 24
0.0
 34
0.0
 15
0.0
 25
0.0
 35
0.0
146
0.0
 13
0.0
 23
0.0
 33
0.0
 16
1.0
 26
0.0
 36
0.0
 17
0.0
 27
1.0
 37
0.0
 76
     0
330
23
  0
LAYOUT
  5
22
102
{ACAD_REACTORS
330
1A
102
}
330
1A
100
AcDbPlotSettings
  1

  2
none_device
  4

  6

 40
0.0
 41
0.0
 42
0.0
 43
0.0
 44
0.0
 45
0.0
 46
0.0
 47
0.0
 48
0.0
 49
0.0
140
0.0
141
0.0
142
1.0
143
1.0
 70
  1712
 72
     0
 73
     0
 74
     0
  7

 75
     0
147
1.0
148
0.0
149
0.0
100
AcDbLayout
  1
Model
 70
     1
 71
     0
 10
0.0
 20
0.0
 11
12.0
 21
9.0
 12
0.0
 22
0.0
 32
0.0
 14
0.0
 24
0.0
 34
0.0
 15
210.0
 25
297.0
 35
0.0
146
0.0
 13
0.0
 23
0.0
 33
0.0
 16
1.0
 26
0.0
 36
0.0
 17
0.0
 27
1.0
 37
0.0
 76
     0
330
1F
331
29
  0
MATERIAL
  5
3D
102
{ACAD_REACTORS
330
3B
102
}
102
{ACAD_XDICTIONARY
360
134
102
}
330
3B
100
AcDbMaterial
  1
ByBlock
  0
MATERIAL
  5
3C
102
{ACAD_REACTORS
330
3B
102
}
102
{ACAD_XDICTIONARY
360
132
102
}
330
3B
100
AcDbMaterial
  1
ByLayer
  0
MATERIAL
  5
3E
102
{ACAD_REACTORS
330
3B
102
}
102
{ACAD_XDICTIONARY
360
136
102
}
330
3B
100
AcDbMaterial
  1
Global
  0
MLINESTYLE
  5
18
102
{ACAD_REACTORS
330
17
102
}
330
17
100
AcDbMlineStyle
  2
Standard
 70
     0
  3

 62
   256
 51
90.0
 52
90.0
 71
     2
 49
0.5
 62
   256
  6
BYLAYER
 49
-0.5
 62
   256
  6
BYLAYER
  0
ACDBPLACEHOLDER
  5
F
102
{ACAD_REACTORS
330
E
102
}
330
E
  0
VISUALSTYLE
  5
2F
102
{ACAD_REACTORS
330
2A
102
}
102
{ACAD_XDICTIONARY
360
11A
102
}
330
2A
100
AcDbVisualStyle
  2
2dWireframe
 70
     4
 71
     0
 72
     2
 73
     0
 90
        0
 40
-0.6
 41
-30.0
 62
     5
 63
     7
 74
     1
 91
        4
 64
     7
 65
   257
 75
     1
175
     1
 42
1.0
 92
        0
 66
   257
 43
1.0
 76
     1
 77
     6
 78
     2
 67
     7
 79
     5
170
     0
171
     0
290
     0
174
     0
 93
        1
 44
0.0
173
     0
291
     0
 45
0.0
1001
ACAD
1000
AcDbSavedByObjectVersion
1070
     0
  0
VISUALSTYLE
  5
31
102
{ACAD_REACTORS
330
2A
102
}
102
{ACAD_XDICTIONARY
360
11E
102
}
330
2A
100
AcDbVisualStyle
  2
3D Hidden
 70
     6
 71
     1
 72
     2
 73
     2
 90
        0
 40
-0.6
 41
-30.0
 62
     5
 63
     7
 74
     2
 91
        2
 64
     7
 65
   257
 75
     2
175
     1
 42
40.0
 92
        0
 66
   257
 43
1.0
 76
     1
 77
     6
 78
     2
 67
     7
 79
     3
170
     0
171
     0
290
     0
174
     0
 93
        1
 44
0.0
173
     0
291
     0
 45
0.0
1001
ACAD
1000
AcDbSavedByObjectVersion
1070
     0
  0
VISUALSTYLE
  5
30
102
{ACAD_REACTORS
330
2A
102
}
102
{ACAD_XDICTIONARY
360
11C
102
}
330
2A
100
AcDbVisualStyle
  2
3dWireframe
 70
     5
 71
     0
 72
     2
 73
     0
 90
        0
 40
-0.6
 41
-30.0
 62
     5
 63
     7
 74
     1
 91
        4
 64
     7
 65
   257
 75
     1
175
     1
 42
1.0
 92
        0
 66
   257
 43
1.0
 76
     1
 77
     6
 78
     2
 67
     7
 79
     5
170
     0
171
     0
290
     0
174
     0
 93
        1
 44
0.0
173
     0
291
     0
 45
0.0
1001
ACAD
1000
AcDbSavedByObjectVersion
1070
     0
  0
VISUALSTYLE
  5
32
102
{ACAD_REACTORS
330
2A
102
}
102
{ACAD_XDICTIONARY
360
120
102
}
330
2A
100
AcDbVisualStyle
  2
Basic
 70
     7
 71
     1
 72
     0
 73
     1
 90
        0
 40
-0.6
 41
-30.0
 62
     5
 63
     7
 74
     0
 91
        4
 64
     7
 65
   257
 75
     1
175
     1
 42
1.0
 92
        8
 66
     7
 43
1.0
 76
     1
 77
     6
 78
     2
 67
     7
 79
     5
170
     0
171
     0
290
     0
174
     0
 93
        1
 44
0.0
173
     0
291
     1
 45
0.0
1001
ACAD
1000
AcDbSavedByObjectVersion
1070
     0
  0
VISUALSTYLE
  5
36
102
{ACAD_REACTORS
330
2A
102
}
102
{ACAD_XDICTIONARY
360
128
102
}
330
2A
100
AcDbVisualStyle
  2
Brighten
 70
    12
 71
     2
 72
     2
 73
     0
 90
        0
 40
-0.6
 41
-30.0
 62
     5
 63
     7
 74
     1
 91
        4
 64
     7
 65
   257
 75
     1
175
     1
 42
1.0
 92
        8
 66
     7
 43
1.0
 76
     1
 77
     6
 78
     2
 67
     7
 79
     5
170
     0
171
     0
290
     0
174
     0
 93
        1
 44
50.0
173
     0
291
     1
 45
0.0
1001
ACAD
1000
AcDbSavedByObjectVersion
1070
     0
  0
VISUALSTYLE
  5
3A
102
{ACAD_REACTORS
330
2A
102
}
102
{ACAD_XDICTIONARY
360
130
102
}
330
2A
100
AcDbVisualStyle
  2
ColorChange
 70
    16
 71
     2
 72
     2
 73
     3
 90
        0
 40
-0.6
 41
-30.0
 62
     5
 63
     8
 74
     1
 91
        4
 64
     7
 65
   257
 75
     1
175
     1
 42
1.0
 92
        8
 66
     8
 43
1.0
 76
     1
 77
     6
 78
     2
 67
     7
 79
     5
170
     0
171
     0
290
     0
174
     0
 93
        1
 44
0.0
173
     0
291
     1
 45
0.0
1001
ACAD
1000
AcDbSavedByObjectVersion
1070
     0
  0
VISUALSTYLE
  5
34
102
{ACAD_REACTORS
330
2A
102
}
102
{ACAD_XDICTIONARY
360
124
102
}
330
2A
100
AcDbVisualStyle
  2
Conceptual
 70
     9
 71
     3
 72
     2
 73
     0
 90
        0
 40
-0.6
 41
-30.0
 62
     5
 63
     7
 74
     2
 91
        2
 64
     7
 65
   257
 75
     1
175
     1
 42
40.0
 92
        8
 66
     7
 43
1.0
 76
     1
 77
     6
 78
     2
 67
     7
 79
     3
170
     0
171
     0
290
     0
174
     0
 93
        1
 44
0.0
173
     0
291
     0
 45
0.0
1001
ACAD
1000
AcDbSavedByObjectVersion
1070
     0
  0
VISUALSTYLE
  5
35
102
{ACAD_REACTORS
330
2A
102
}
102
{ACAD_XDICTIONARY
360
126
102
}
330
2A
100
AcDbVisualStyle
  2
Dim
 70
    11
 71
     2
 72
     2
 73
     0
 90
        0
 40
-0.6
 41
-30.0
 62
     5
 63
     7
 74
     1
 91
        4
 64
     7
 65
   257
 75
     1
175
     1
 42
1.0
 92
        8
 66
     7
 43
1.0
 76
     1
 77
     6
 78
     2
 67
     7
 79
     5
170
     0
171
     0
290
     0
174
     0
 93
        1
 44
-50.0
173
     0
291
     1
 45
0.0
1001
ACAD
1000
AcDbSavedByObjectVersion
1070
     0
  0
VISUALSTYLE
  5
39
102
{ACAD_REACTORS
330
2A
102
}
102
{ACAD_XDICTIONARY
360
12E
102
}
330
2A
100
AcDbVisualStyle
  2
Facepattern
 70
    15
 71
     2
 72
     2
 73
     0
 90
        0
 40
-0.6
 41
-30.0
 62
     5
 63
     7
 74
     1
 91
        4
 64
     7
 65
   257
 75
     1
175
     1
 42
1.0
 92
        8
 66
     7
 43
1.0
 76
     1
 77
     6
 78
     2
 67
     7
 79
     5
170
     0
171
     0
290
     0
174
     0
 93
        1
 44
0.0
173
     0
291
     1
 45
0.0
1001
ACAD
1000
AcDbSavedByObjectVersion
1070
     0
  0
VISUALSTYLE
  5
2B
102
{ACAD_REACTORS
330
2A
102
}
102
{ACAD_XDICTIONARY
360
112
102
}
330
2A
100
AcDbVisualStyle
  2
Flat
 70
     0
 71
     2
 72
     1
 73
     1
 90
        2
 40
-0.6
 41
30.0
 62
     5
 63
     7
 74
     0
 91
        4
 64
     7
 65
   257
 75
     1
175
     1
 42
1.0
 92
        8
 66
     7
 43
1.0
 76
     1
 77
     6
 78
     2
 67
     7
 79
     5
170
     0
171
     0
290
     0
174
     0
 93
       13
 44
0.0
173
     0
291
     1
 45
0.0
1001
ACAD
1000
AcDbSavedByObjectVersion
1070
     0
  0
VISUALSTYLE
  5
2C
102
{ACAD_REACTORS
330
2A
102
}
102
{ACAD_XDICTIONARY
360
114
102
}
330
2A
100
AcDbVisualStyle
  2
FlatWithEdges
 70
     1
 71
     2
 72
     1
 73
     1
 90
        2
 40
-0.6
 41
30.0
 62
     5
 63
     7
 74
     1
 91
        4
 64
     7
 65
   257
 75
     1
175
     1
 42
1.0
 92
        0
 66
   257
 43
1.0
 76
     1
 77
     6
 78
     2
 67
     7
 79
     5
170
     0
171
     0
290
     0
174
     0
 93
       13
 44
0.0
173
     0
291
     1
 45
0.0
1001
ACAD
1000
AcDbSavedByObjectVersion
1070
     0
  0
VISUALSTYLE
  5
2D
102
{ACAD_REACTORS
330
2A
102
}
102
{ACAD_XDICTIONARY
360
116
102
}
330
2A
100
AcDbVisualStyle
  2
Gouraud
 70
     2
 71
     2
 72
     2
 73
     1
 90
        2
 40
-0.6
 41
30.0
 62
     5
 63
     7
 74
     0
 91
        4
 64
     7
 65
   257
 75
     1
175
     1
 42
1.0
 92
        0
 66
     7
 43
1.0
 76
     1
 77
     6
 78
     2
 67
     7
 79
     5
170
     0
171
     0
290
     0
174
     0
 93
       13
 44
0.0
173
     0
291
     1
 45
0.0
1001
ACAD
1000
AcDbSavedByObjectVersion
1070
     0
  0
VISUALSTYLE
  5
2E
102
{ACAD_REACTORS
330
2A
102
}
102
{ACAD_XDICTIONARY
360
118
102
}
330
2A
100
AcDbVisualStyle
  2
GouraudWithEdges
 70
     3
 71
     2
 72
     2
 73
     1
 90
        2
 40
-0.6
 41
30.0
 62
     5
 63
     7
 74
     1
 91
        4
 64
     7
 65
   257
 75
     1
175
     1
 42
1.0
 92
        0
 66
   257
 43
1.0
 76
     1
 77
     6
 78
     2
 67
     7
 79
     5
170
     0
171
     0
290
     0
174
     0
 93
       13
 44
0.0
173
     0
291
     1
 45
0.0
1001
ACAD
1000
AcDbSavedByObjectVersion
1070
     0
  0
VISUALSTYLE
  5
38
102
{ACAD_REACTORS
330
2A
102
}
102
{ACAD_XDICTIONARY
360
12C
102
}
330
2A
100
AcDbVisualStyle
  2
Linepattern
 70
    14
 71
     2
 72
     2
 73
     0
 90
        0
 40
-0.6
 41
-30.0
 62
     5
 63
     7
 74
     1
 91
        4
 64
     7
 65
   257
 75
     7
175
     7
 42
1.0
 92
        8
 66
     7
 43
1.0
 76
     1
 77
     6
 78
     2
 67
     7
 79
     5
170
     0
171
     0
290
     0
174
     0
 93
        1
 44
0.0
173
     0
291
     1
 45
0.0
1001
ACAD
1000
AcDbSavedByObjectVersion
1070
     0
  0
VISUALSTYLE
  5
33
102
{ACAD_REACTORS
330
2A
102
}
102
{ACAD_XDICTIONARY
360
122
102
}
330
2A
100
AcDbVisualStyle
  2
Realistic
 70
     8
 71
     2
 72
     2
 73
     0
 90
        0
 40
-0.6
 41
-30.0
 62
     5
 63
     7
 74
     1
 91
        0
 64
     7
 65
   257
 75
     1
175
     1
 42
1.0
 92
        8
 66
     8
 43
1.0
 76
     1
 77
     6
 78
     2
 67
     7
 79
     5
170
     0
171
     0
290
     0
174
     0
 93
       13
 44
0.0
173
     0
291
     0
 45
0.0
1001
ACAD
1000
AcDbSavedByObjectVersion
1070
     0
  0
VISUALSTYLE
  5
37
102
{ACAD_REACTORS
330
2A
102
}
102
{ACAD_XDICTIONARY
360
12A
102
}
330
2A
100
AcDbVisualStyle
  2
Thicken
 70
    13
 71
     2
 72
     2
 73
     0
 90
        0
 40
-0.6
 41
-30.0
 62
     5
 63
     7
 74
     1
 91
        4
 64
     7
 65
   257
 75
     1
175
     1
 42
1.0
 92
       12
 66
     7
 43
1.0
 76
     1
 77
     6
 78
     2
 67
     7
 79
     5
170
     0
171
     0
290
     0
174
     0
 93
        1
 44
0.0
173
     0
291
     1
 45
0.0
1001
ACAD
1000
AcDbSavedByObjectVersion
1070
     0
  0
DICTIONARYVAR
  5
110
102
{ACAD_REACTORS
330
10D
102
}
330
10D
100
DictionaryVariables
280
     0
  1
2
  0
DICTIONARYVAR
  5
111
102
{ACAD_REACTORS
330
10D
102
}
330
10D
100
DictionaryVariables
280
     0
  1
1
  0
DICTIONARY
  5
134
330
3D
100
AcDbDictionary
280
     1
281
     1
  3
ACAD_XREC_ROUNDTRIP
360
135
  0
DICTIONARY
  5
132
330
3C
100
AcDbDictionary
280
     1
281
     1
  3
ACAD_XREC_ROUNDTRIP
360
133
  0
DICTIONARY
  5
136
330
3E
100
AcDbDictionary
280
     1
281
     1
  3
ACAD_XREC_ROUNDTRIP
360
137
  0
DICTIONARY
  5
11A
330
2F
100
AcDbDictionary
280
     1
281
     1
  3
ACAD_XREC_ROUNDTRIP
360
11B
  0
DICTIONARY
  5
11E
330
31
100
AcDbDictionary
280
     1
281
     1
  3
ACAD_XREC_ROUNDTRIP
360
11F
  0
DICTIONARY
  5
11C
330
30
100
AcDbDictionary
280
     1
281
     1
  3
ACAD_XREC_ROUNDTRIP
360
11D
  0
DICTIONARY
  5
120
330
32
100
AcDbDictionary
280
     1
281
     1
  3
ACAD_XREC_ROUNDTRIP
360
121
  0
DICTIONARY
  5
128
330
36
100
AcDbDictionary
280
     1
281
     1
  3
ACAD_XREC_ROUNDTRIP
360
129
  0
DICTIONARY
  5
130
330
3A
100
AcDbDictionary
280
     1
281
     1
  3
ACAD_XREC_ROUNDTRIP
360
131
  0
DICTIONARY
  5
124
330
34
100
AcDbDictionary
280
     1
281
     1
  3
ACAD_XREC_ROUNDTRIP
360
125
  0
DICTIONARY
  5
126
330
35
100
AcDbDictionary
280
     1
281
     1
  3
ACAD_XREC_ROUNDTRIP
360
127
  0
DICTIONARY
  5
12E
330
39
100
AcDbDictionary
280
     1
281
     1
  3
ACAD_XREC_ROUNDTRIP
360
12F
  0
DICTIONARY
  5
112
330
2B
100
AcDbDictionary
280
     1
281
     1
  3
ACAD_XREC_ROUNDTRIP
360
113
  0
DICTIONARY
  5
114
330
2C
100
AcDbDictionary
280
     1
281
     1
  3
ACAD_XREC_ROUNDTRIP
360
115
  0
DICTIONARY
  5
116
330
2D
100
AcDbDictionary
280
     1
281
     1
  3
ACAD_XREC_ROUNDTRIP
360
117
  0
DICTIONARY
  5
118
330
2E
100
AcDbDictionary
280
     1
281
     1
  3
ACAD_XREC_ROUNDTRIP
360
119
  0
DICTIONARY
  5
12C
330
38
100
AcDbDictionary
280
     1
281
     1
  3
ACAD_XREC_ROUNDTRIP
360
12D
  0
DICTIONARY
  5
122
330
33
100
AcDbDictionary
280
     1
281
     1
  3
ACAD_XREC_ROUNDTRIP
360
123
  0
DICTIONARY
  5
12A
330
37
100
AcDbDictionary
280
     1
281
     1
  3
ACAD_XREC_ROUNDTRIP
360
12B
  0
XRECORD
  5
135
102
{ACAD_REACTORS
330
134
102
}
330
134
100
AcDbXrecord
280
     1
102
MATERIAL
148
0.0
149
0.0
149
0.0
 93
        0
 94
      127
282
     0
 72
     1
 77
     1
171
     1
175
     1
179
     1
273
     0
  0
XRECORD
  5
133
102
{ACAD_REACTORS
330
132
102
}
330
132
100
AcDbXrecord
280
     1
102
MATERIAL
148
0.0
149
0.0
149
0.0
 93
        0
 94
      127
282
     0
 72
     1
 77
     1
171
     1
175
     1
179
     1
273
     0
  0
XRECORD
  5
137
102
{ACAD_REACTORS
330
136
102
}
330
136
100
AcDbXrecord
280
     1
102
MATERIAL
148
0.0
149
0.0
149
0.0
 93
        0
 94
      127
282
     0
 72
     1
 77
     1
171
     1
175
     1
179
     1
273
     0
  0
XRECORD
  5
11B
102
{ACAD_REACTORS
330
11A
102
}
330
11A
100
AcDbXrecord
280
     1
102
RTVSPropertyOp0
 70
     1
102
RTVSPropertyOp1
 70
     1
102
RTVSPropertyOp2
 70
     1
102
RTVSPropertyOp3
 70
     1
102
RTVSPropertyOp4
 70
     1
102
RTVSPropertyOp5
 70
     1
102
RTVSPropertyOp6
 70
     1
102
RTVSPropertyOp7
 70
     1
102
RTVSPropertyOp8
 70
     1
102
RTVSPropertyOp9
 70
     1
102
RTVSPropertyOp10
 70
     1
102
RTVSPropertyOp11
 70
     1
102
RTVSPropertyOp12
 70
     1
102
RTVSPropertyOp13
 70
     1
102
RTVSPropertyOp14
 70
     1
102
RTVSPropertyOp15
 70
     1
102
RTVSPropertyOp16
 70
     1
102
RTVSPropertyOp17
 70
     1
102
RTVSPropertyOp18
 70
     1
102
RTVSPropertyOp19
 70
     1
102
RTVSPropertyOp20
 70
     1
102
RTVSPropertyOp21
 70
     1
102
RTVSPropertyOp22
 70
     1
102
RTVSPropertyOp23
 70
     1
102
RTVSPropertyOp24
 70
     1
102
RTVSPropertyOp25
 70
     1
102
RTVSPropertyOp26
 70
     1
102
RTVSPropertyOp27
 70
     1
102
RTVSPropertyOp28
 70
     1
102
RTVSPropertyOp29
 70
     1
102
RTVSPropertyOp30
 70
     1
102
RTVSPropertyOp31
 70
     1
102
RTVSPropertyOp32
 70
     1
  0
XRECORD
  5
11F
102
{ACAD_REACTORS
330
11E
102
}
330
11E
100
AcDbXrecord
280
     1
102
RTVSPropertyOp0
 70
     1
102
RTVSPropertyOp1
 70
     1
102
RTVSPropertyOp2
 70
     1
102
RTVSPropertyOp3
 70
     1
102
RTVSPropertyOp4
 70
     1
102
RTVSPropertyOp5
 70
     1
102
RTVSPropertyOp6
 70
     1
102
RTVSPropertyOp7
 70
     1
102
RTVSPropertyOp8
 70
     1
102
RTVSPropertyOp9
 70
     1
102
RTVSPropertyOp10
 70
     1
102
RTVSPropertyOp11
 70
     1
102
RTVSPropertyOp12
 70
     1
102
RTVSPropertyOp13
 70
     1
102
RTVSPropertyOp14
 70
     1
102
RTVSPropertyOp15
 70
     1
102
RTVSPropertyOp16
 70
     1
102
RTVSPropertyOp17
 70
     1
102
RTVSPropertyOp18
 70
     1
102
RTVSPropertyOp19
 70
     1
102
RTVSPropertyOp20
 70
     1
102
RTVSPropertyOp21
 70
     1
102
RTVSPropertyOp22
 70
     1
102
RTVSPropertyOp23
 70
     1
102
RTVSPropertyOp24
 70
     1
102
RTVSPropertyOp25
 70
     1
102
RTVSPropertyOp26
 70
     1
102
RTVSPropertyOp27
 70
     1
102
RTVSPropertyOp28
 70
     1
102
RTVSPropertyOp29
 70
     1
102
RTVSPropertyOp30
 70
     1
102
RTVSPropertyOp31
 70
     1
102
RTVSPropertyOp32
 70
     1
  0
XRECORD
  5
11D
102
{ACAD_REACTORS
330
11C
102
}
330
11C
100
AcDbXrecord
280
     1
102
RTVSPropertyOp0
 70
     1
102
RTVSPropertyOp1
 70
     1
102
RTVSPropertyOp2
 70
     1
102
RTVSPropertyOp3
 70
     1
102
RTVSPropertyOp4
 70
     1
102
RTVSPropertyOp5
 70
     1
102
RTVSPropertyOp6
 70
     1
102
RTVSPropertyOp7
 70
     1
102
RTVSPropertyOp8
 70
     1
102
RTVSPropertyOp9
 70
     1
102
RTVSPropertyOp10
 70
     1
102
RTVSPropertyOp11
 70
     1
102
RTVSPropertyOp12
 70
     1
102
RTVSPropertyOp13
 70
     1
102
RTVSPropertyOp14
 70
     1
102
RTVSPropertyOp15
 70
     1
102
RTVSPropertyOp16
 70
     1
102
RTVSPropertyOp17
 70
     1
102
RTVSPropertyOp18
 70
     1
102
RTVSPropertyOp19
 70
     1
102
RTVSPropertyOp20
 70
     1
102
RTVSPropertyOp21
 70
     1
102
RTVSPropertyOp22
 70
     1
102
RTVSPropertyOp23
 70
     1
102
RTVSPropertyOp24
 70
     1
102
RTVSPropertyOp25
 70
     1
102
RTVSPropertyOp26
 70
     1
102
RTVSPropertyOp27
 70
     1
102
RTVSPropertyOp28
 70
     1
102
RTVSPropertyOp29
 70
     1
102
RTVSPropertyOp30
 70
     1
102
RTVSPropertyOp31
 70
     1
102
RTVSPropertyOp32
 70
     1
  0
XRECORD
  5
121
102
{ACAD_REACTORS
330
120
102
}
330
120
100
AcDbXrecord
280
     1
102
RTVSPropertyOp0
 70
     1
102
RTVSPropertyOp1
 70
     1
102
RTVSPropertyOp2
 70
     1
102
RTVSPropertyOp3
 70
     1
102
RTVSPropertyOp4
 70
     1
102
RTVSPropertyOp5
 70
     1
102
RTVSPropertyOp6
 70
     1
102
RTVSPropertyOp7
 70
     1
102
RTVSPropertyOp8
 70
     1
102
RTVSPropertyOp9
 70
     1
102
RTVSPropertyOp10
 70
     1
102
RTVSPropertyOp11
 70
     1
102
RTVSPropertyOp12
 70
     1
102
RTVSPropertyOp13
 70
     1
102
RTVSPropertyOp14
 70
     1
102
RTVSPropertyOp15
 70
     1
102
RTVSPropertyOp16
 70
     1
102
RTVSPropertyOp17
 70
     1
102
RTVSPropertyOp18
 70
     1
102
RTVSPropertyOp19
 70
     1
102
RTVSPropertyOp20
 70
     1
102
RTVSPropertyOp21
 70
     1
102
RTVSPropertyOp22
 70
     1
102
RTVSPropertyOp23
 70
     1
102
RTVSPropertyOp24
 70
     1
102
RTVSPropertyOp25
 70
     1
102
RTVSPropertyOp26
 70
     1
102
RTVSPropertyOp27
 70
     1
102
RTVSPropertyOp28
 70
     1
102
RTVSPropertyOp29
 70
     1
102
RTVSPropertyOp30
 70
     1
102
RTVSPropertyOp31
 70
     1
102
RTVSPropertyOp32
 70
     1
  0
XRECORD
  5
129
102
{ACAD_REACTORS
330
128
102
}
330
128
100
AcDbXrecord
280
     1
102
RTVSPropertyOp0
 70
     1
102
RTVSPropertyOp1
 70
     1
102
RTVSPropertyOp2
 70
     1
102
RTVSPropertyOp3
 70
     1
102
RTVSPropertyOp4
 70
     1
102
RTVSPropertyOp5
 70
     1
102
RTVSPropertyOp6
 70
     1
102
RTVSPropertyOp7
 70
     1
102
RTVSPropertyOp8
 70
     1
102
RTVSPropertyOp9
 70
     1
102
RTVSPropertyOp10
 70
     1
102
RTVSPropertyOp11
 70
     1
102
RTVSPropertyOp12
 70
     1
102
RTVSPropertyOp13
 70
     1
102
RTVSPropertyOp14
 70
     1
102
RTVSPropertyOp15
 70
     1
102
RTVSPropertyOp16
 70
     1
102
RTVSPropertyOp17
 70
     1
102
RTVSPropertyOp18
 70
     1
102
RTVSPropertyOp19
 70
     1
102
RTVSPropertyOp20
 70
     1
102
RTVSPropertyOp21
 70
     1
102
RTVSPropertyOp22
 70
     1
102
RTVSPropertyOp23
 70
     1
102
RTVSPropertyOp24
 70
     1
102
RTVSPropertyOp25
 70
     1
102
RTVSPropertyOp26
 70
     1
102
RTVSPropertyOp27
 70
     1
102
RTVSPropertyOp28
 70
     1
102
RTVSPropertyOp29
 70
     1
102
RTVSPropertyOp30
 70
     1
102
RTVSPropertyOp31
 70
     1
102
RTVSPropertyOp32
 70
     1
  0
XRECORD
  5
131
102
{ACAD_REACTORS
330
130
102
}
330
130
100
AcDbXrecord
280
     1
102
RTVSPropertyOp0
 70
     1
102
RTVSPropertyOp1
 70
     1
102
RTVSPropertyOp2
 70
     1
102
RTVSPropertyOp3
 70
     1
102
RTVSPropertyOp4
 70
     1
102
RTVSPropertyOp5
 70
     1
102
RTVSPropertyOp6
 70
     1
102
RTVSPropertyOp7
 70
     1
102
RTVSPropertyOp8
 70
     1
102
RTVSPropertyOp9
 70
     1
102
RTVSPropertyOp10
 70
     1
102
RTVSPropertyOp11
 70
     1
102
RTVSPropertyOp12
 70
     1
102
RTVSPropertyOp13
 70
     1
102
RTVSPropertyOp14
 70
     1
102
RTVSPropertyOp15
 70
     1
102
RTVSPropertyOp16
 70
     1
102
RTVSPropertyOp17
 70
     1
102
RTVSPropertyOp18
 70
     1
102
RTVSPropertyOp19
 70
     1
102
RTVSPropertyOp20
 70
     1
102
RTVSPropertyOp21
 70
     1
102
RTVSPropertyOp22
 70
     1
102
RTVSPropertyOp23
 70
     1
102
RTVSPropertyOp24
 70
     1
102
RTVSPropertyOp25
 70
     1
102
RTVSPropertyOp26
 70
     1
102
RTVSPropertyOp27
 70
     1
102
RTVSPropertyOp28
 70
     1
102
RTVSPropertyOp29
 70
     1
102
RTVSPropertyOp30
 70
     1
102
RTVSPropertyOp31
 70
     1
102
RTVSPropertyOp32
 70
     1
  0
XRECORD
  5
125
102
{ACAD_REACTORS
330
124
102
}
330
124
100
AcDbXrecord
280
     1
102
RTVSPropertyOp0
 70
     1
102
RTVSPropertyOp1
 70
     1
102
RTVSPropertyOp2
 70
     1
102
RTVSPropertyOp3
 70
     1
102
RTVSPropertyOp4
 70
     1
102
RTVSPropertyOp5
 70
     1
102
RTVSPropertyOp6
 70
     1
102
RTVSPropertyOp7
 70
     1
102
RTVSPropertyOp8
 70
     1
102
RTVSPropertyOp9
 70
     1
102
RTVSPropertyOp10
 70
     1
102
RTVSPropertyOp11
 70
     1
102
RTVSPropertyOp12
 70
     1
102
RTVSPropertyOp13
 70
     1
102
RTVSPropertyOp14
 70
     1
102
RTVSPropertyOp15
 70
     1
102
RTVSPropertyOp16
 70
     1
102
RTVSPropertyOp17
 70
     1
102
RTVSPropertyOp18
 70
     1
102
RTVSPropertyOp19
 70
     1
102
RTVSPropertyOp20
 70
     1
102
RTVSPropertyOp21
 70
     1
102
RTVSPropertyOp22
 70
     1
102
RTVSPropertyOp23
 70
     1
102
RTVSPropertyOp24
 70
     1
102
RTVSPropertyOp25
 70
     1
102
RTVSPropertyOp26
 70
     1
102
RTVSPropertyOp27
 70
     1
102
RTVSPropertyOp28
 70
     1
102
RTVSPropertyOp29
 70
     1
102
RTVSPropertyOp30
 70
     1
102
RTVSPropertyOp31
 70
     1
102
RTVSPropertyOp32
 70
     1
  0
XRECORD
  5
127
102
{ACAD_REACTORS
330
126
102
}
330
126
100
AcDbXrecord
280
     1
102
RTVSPropertyOp0
 70
     1
102
RTVSPropertyOp1
 70
     1
102
RTVSPropertyOp2
 70
     1
102
RTVSPropertyOp3
 70
     1
102
RTVSPropertyOp4
 70
     1
102
RTVSPropertyOp5
 70
     1
102
RTVSPropertyOp6
 70
     1
102
RTVSPropertyOp7
 70
     1
102
RTVSPropertyOp8
 70
     1
102
RTVSPropertyOp9
 70
     1
102
RTVSPropertyOp10
 70
     1
102
RTVSPropertyOp11
 70
     1
102
RTVSPropertyOp12
 70
     1
102
RTVSPropertyOp13
 70
     1
102
RTVSPropertyOp14
 70
     1
102
RTVSPropertyOp15
 70
     1
102
RTVSPropertyOp16
 70
     1
102
RTVSPropertyOp17
 70
     1
102
RTVSPropertyOp18
 70
     1
102
RTVSPropertyOp19
 70
     1
102
RTVSPropertyOp20
 70
     1
102
RTVSPropertyOp21
 70
     1
102
RTVSPropertyOp22
 70
     1
102
RTVSPropertyOp23
 70
     1
102
RTVSPropertyOp24
 70
     1
102
RTVSPropertyOp25
 70
     1
102
RTVSPropertyOp26
 70
     1
102
RTVSPropertyOp27
 70
     1
102
RTVSPropertyOp28
 70
     1
102
RTVSPropertyOp29
 70
     1
102
RTVSPropertyOp30
 70
     1
102
RTVSPropertyOp31
 70
     1
102
RTVSPropertyOp32
 70
     1
  0
XRECORD
  5
12F
102
{ACAD_REACTORS
330
12E
102
}
330
12E
100
AcDbXrecord
280
     1
102
RTVSPropertyOp0
 70
     1
102
RTVSPropertyOp1
 70
     1
102
RTVSPropertyOp2
 70
     1
102
RTVSPropertyOp3
 70
     1
102
RTVSPropertyOp4
 70
     1
102
RTVSPropertyOp5
 70
     1
102
RTVSPropertyOp6
 70
     1
102
RTVSPropertyOp7
 70
     1
102
RTVSPropertyOp8
 70
     1
102
RTVSPropertyOp9
 70
     1
102
RTVSPropertyOp10
 70
     1
102
RTVSPropertyOp11
 70
     1
102
RTVSPropertyOp12
 70
     1
102
RTVSPropertyOp13
 70
     1
102
RTVSPropertyOp14
 70
     1
102
RTVSPropertyOp15
 70
     1
102
RTVSPropertyOp16
 70
     1
102
RTVSPropertyOp17
 70
     1
102
RTVSPropertyOp18
 70
     1
102
RTVSPropertyOp19
 70
     1
102
RTVSPropertyOp20
 70
     1
102
RTVSPropertyOp21
 70
     1
102
RTVSPropertyOp22
 70
     1
102
RTVSPropertyOp23
 70
     1
102
RTVSPropertyOp24
 70
     1
102
RTVSPropertyOp25
 70
     1
102
RTVSPropertyOp26
 70
     1
102
RTVSPropertyOp27
 70
     1
102
RTVSPropertyOp28
 70
     1
102
RTVSPropertyOp29
 70
     1
102
RTVSPropertyOp30
 70
     1
102
RTVSPropertyOp31
 70
     1
102
RTVSPropertyOp32
 70
     1
  0
XRECORD
  5
113
102
{ACAD_REACTORS
330
112
102
}
330
112
100
AcDbXrecord
280
     1
102
RTVSPropertyOp0
 70
     1
102
RTVSPropertyOp1
 70
     1
102
RTVSPropertyOp2
 70
     1
102
RTVSPropertyOp3
 70
     1
102
RTVSPropertyOp4
 70
     1
102
RTVSPropertyOp5
 70
     1
102
RTVSPropertyOp6
 70
     1
102
RTVSPropertyOp7
 70
     1
102
RTVSPropertyOp8
 70
     1
102
RTVSPropertyOp9
 70
     1
102
RTVSPropertyOp10
 70
     1
102
RTVSPropertyOp11
 70
     1
102
RTVSPropertyOp12
 70
     1
102
RTVSPropertyOp13
 70
     1
102
RTVSPropertyOp14
 70
     1
102
RTVSPropertyOp15
 70
     1
102
RTVSPropertyOp16
 70
     1
102
RTVSPropertyOp17
 70
     1
102
RTVSPropertyOp18
 70
     1
102
RTVSPropertyOp19
 70
     1
102
RTVSPropertyOp20
 70
     1
102
RTVSPropertyOp21
 70
     1
102
RTVSPropertyOp22
 70
     1
102
RTVSPropertyOp23
 70
     1
102
RTVSPropertyOp24
 70
     1
102
RTVSPropertyOp25
 70
     1
102
RTVSPropertyOp26
 70
     1
102
RTVSPropertyOp27
 70
     1
102
RTVSPropertyOp28
 70
     1
102
RTVSPropertyOp29
 70
     1
102
RTVSPropertyOp30
 70
     1
102
RTVSPropertyOp31
 70
     1
102
RTVSPropertyOp32
 70
     1
  0
XRECORD
  5
115
102
{ACAD_REACTORS
330
114
102
}
330
114
100
AcDbXrecord
280
     1
102
RTVSPropertyOp0
 70
     1
102
RTVSPropertyOp1
 70
     1
102
RTVSPropertyOp2
 70
     1
102
RTVSPropertyOp3
 70
     1
102
RTVSPropertyOp4
 70
     1
102
RTVSPropertyOp5
 70
     1
102
RTVSPropertyOp6
 70
     1
102
RTVSPropertyOp7
 70
     1
102
RTVSPropertyOp8
 70
     1
102
RTVSPropertyOp9
 70
     1
102
RTVSPropertyOp10
 70
     1
102
RTVSPropertyOp11
 70
     1
102
RTVSPropertyOp12
 70
     1
102
RTVSPropertyOp13
 70
     1
102
RTVSPropertyOp14
 70
     1
102
RTVSPropertyOp15
 70
     1
102
RTVSPropertyOp16
 70
     1
102
RTVSPropertyOp17
 70
     1
102
RTVSPropertyOp18
 70
     1
102
RTVSPropertyOp19
 70
     1
102
RTVSPropertyOp20
 70
     1
102
RTVSPropertyOp21
 70
     1
102
RTVSPropertyOp22
 70
     1
102
RTVSPropertyOp23
 70
     1
102
RTVSPropertyOp24
 70
     1
102
RTVSPropertyOp25
 70
     1
102
RTVSPropertyOp26
 70
     1
102
RTVSPropertyOp27
 70
     1
102
RTVSPropertyOp28
 70
     1
102
RTVSPropertyOp29
 70
     1
102
RTVSPropertyOp30
 70
     1
102
RTVSPropertyOp31
 70
     1
102
RTVSPropertyOp32
 70
     1
  0
XRECORD
  5
117
102
{ACAD_REACTORS
330
116
102
}
330
116
100
AcDbXrecord
280
     1
102
RTVSPropertyOp0
 70
     1
102
RTVSPropertyOp1
 70
     1
102
RTVSPropertyOp2
 70
     1
102
RTVSPropertyOp3
 70
     1
102
RTVSPropertyOp4
 70
     1
102
RTVSPropertyOp5
 70
     1
102
RTVSPropertyOp6
 70
     1
102
RTVSPropertyOp7
 70
     1
102
RTVSPropertyOp8
 70
     1
102
RTVSPropertyOp9
 70
     1
102
RTVSPropertyOp10
 70
     1
102
RTVSPropertyOp11
 70
     1
102
RTVSPropertyOp12
 70
     1
102
RTVSPropertyOp13
 70
     1
102
RTVSPropertyOp14
 70
     1
102
RTVSPropertyOp15
 70
     1
102
RTVSPropertyOp16
 70
     1
102
RTVSPropertyOp17
 70
     1
102
RTVSPropertyOp18
 70
     1
102
RTVSPropertyOp19
 70
     1
102
RTVSPropertyOp20
 70
     1
102
RTVSPropertyOp21
 70
     1
102
RTVSPropertyOp22
 70
     1
102
RTVSPropertyOp23
 70
     1
102
RTVSPropertyOp24
 70
     1
102
RTVSPropertyOp25
 70
     1
102
RTVSPropertyOp26
 70
     1
102
RTVSPropertyOp27
 70
     1
102
RTVSPropertyOp28
 70
     1
102
RTVSPropertyOp29
 70
     1
102
RTVSPropertyOp30
 70
     1
102
RTVSPropertyOp31
 70
     1
102
RTVSPropertyOp32
 70
     1
  0
XRECORD
  5
119
102
{ACAD_REACTORS
330
118
102
}
330
118
100
AcDbXrecord
280
     1
102
RTVSPropertyOp0
 70
     1
102
RTVSPropertyOp1
 70
     1
102
RTVSPropertyOp2
 70
     1
102
RTVSPropertyOp3
 70
     1
102
RTVSPropertyOp4
 70
     1
102
RTVSPropertyOp5
 70
     1
102
RTVSPropertyOp6
 70
     1
102
RTVSPropertyOp7
 70
     1
102
RTVSPropertyOp8
 70
     1
102
RTVSPropertyOp9
 70
     1
102
RTVSPropertyOp10
 70
     1
102
RTVSPropertyOp11
 70
     1
102
RTVSPropertyOp12
 70
     1
102
RTVSPropertyOp13
 70
     1
102
RTVSPropertyOp14
 70
     1
102
RTVSPropertyOp15
 70
     1
102
RTVSPropertyOp16
 70
     1
102
RTVSPropertyOp17
 70
     1
102
RTVSPropertyOp18
 70
     1
102
RTVSPropertyOp19
 70
     1
102
RTVSPropertyOp20
 70
     1
102
RTVSPropertyOp21
 70
     1
102
RTVSPropertyOp22
 70
     1
102
RTVSPropertyOp23
 70
     1
102
RTVSPropertyOp24
 70
     1
102
RTVSPropertyOp25
 70
     1
102
RTVSPropertyOp26
 70
     1
102
RTVSPropertyOp27
 70
     1
102
RTVSPropertyOp28
 70
     1
102
RTVSPropertyOp29
 70
     1
102
RTVSPropertyOp30
 70
     1
102
RTVSPropertyOp31
 70
     1
102
RTVSPropertyOp32
 70
     1
  0
XRECORD
  5
12D
102
{ACAD_REACTORS
330
12C
102
}
330
12C
100
AcDbXrecord
280
     1
102
RTVSPropertyOp0
 70
     1
102
RTVSPropertyOp1
 70
     1
102
RTVSPropertyOp2
 70
     1
102
RTVSPropertyOp3
 70
     1
102
RTVSPropertyOp4
 70
     1
102
RTVSPropertyOp5
 70
     1
102
RTVSPropertyOp6
 70
     1
102
RTVSPropertyOp7
 70
     1
102
RTVSPropertyOp8
 70
     1
102
RTVSPropertyOp9
 70
     1
102
RTVSPropertyOp10
 70
     1
102
RTVSPropertyOp11
 70
     1
102
RTVSPropertyOp12
 70
     1
102
RTVSPropertyOp13
 70
     1
102
RTVSPropertyOp14
 70
     1
102
RTVSPropertyOp15
 70
     1
102
RTVSPropertyOp16
 70
     1
102
RTVSPropertyOp17
 70
     1
102
RTVSPropertyOp18
 70
     1
102
RTVSPropertyOp19
 70
     1
102
RTVSPropertyOp20
 70
     1
102
RTVSPropertyOp21
 70
     1
102
RTVSPropertyOp22
 70
     1
102
RTVSPropertyOp23
 70
     1
102
RTVSPropertyOp24
 70
     1
102
RTVSPropertyOp25
 70
     1
102
RTVSPropertyOp26
 70
     1
102
RTVSPropertyOp27
 70
     1
102
RTVSPropertyOp28
 70
     1
102
RTVSPropertyOp29
 70
     1
102
RTVSPropertyOp30
 70
     1
102
RTVSPropertyOp31
 70
     1
102
RTVSPropertyOp32
 70
     1
  0
XRECORD
  5
123
102
{ACAD_REACTORS
330
122
102
}
330
122
100
AcDbXrecord
280
     1
102
RTVSPropertyOp0
 70
     1
102
RTVSPropertyOp1
 70
     1
102
RTVSPropertyOp2
 70
     1
102
RTVSPropertyOp3
 70
     1
102
RTVSPropertyOp4
 70
     1
102
RTVSPropertyOp5
 70
     1
102
RTVSPropertyOp6
 70
     1
102
RTVSPropertyOp7
 70
     1
102
RTVSPropertyOp8
 70
     1
102
RTVSPropertyOp9
 70
     1
102
RTVSPropertyOp10
 70
     1
102
RTVSPropertyOp11
 70
     1
102
RTVSPropertyOp12
 70
     1
102
RTVSPropertyOp13
 70
     1
102
RTVSPropertyOp14
 70
     1
102
RTVSPropertyOp15
 70
     1
102
RTVSPropertyOp16
 70
     1
102
RTVSPropertyOp17
 70
     1
102
RTVSPropertyOp18
 70
     1
102
RTVSPropertyOp19
 70
     1
102
RTVSPropertyOp20
 70
     1
102
RTVSPropertyOp21
 70
     1
102
RTVSPropertyOp22
 70
     1
102
RTVSPropertyOp23
 70
     1
102
RTVSPropertyOp24
 70
     1
102
RTVSPropertyOp25
 70
     1
102
RTVSPropertyOp26
 70
     1
102
RTVSPropertyOp27
 70
     1
102
RTVSPropertyOp28
 70
     1
102
RTVSPropertyOp29
 70
     1
102
RTVSPropertyOp30
 70
     1
102
RTVSPropertyOp31
 70
     1
102
RTVSPropertyOp32
 70
     1
  0
XRECORD
  5
12B
102
{ACAD_REACTORS
330
12A
102
}
330
12A
100
AcDbXrecord
280
     1
102
RTVSPropertyOp0
 70
     1
102
RTVSPropertyOp1
 70
     1
102
RTVSPropertyOp2
 70
     1
102
RTVSPropertyOp3
 70
     1
102
RTVSPropertyOp4
 70
     1
102
RTVSPropertyOp5
 70
     1
102
RTVSPropertyOp6
 70
     1
102
RTVSPropertyOp7
 70
     1
102
RTVSPropertyOp8
 70
     1
102
RTVSPropertyOp9
 70
     1
102
RTVSPropertyOp10
 70
     1
102
RTVSPropertyOp11
 70
     1
102
RTVSPropertyOp12
 70
     1
102
RTVSPropertyOp13
 70
     1
102
RTVSPropertyOp14
 70
     1
102
RTVSPropertyOp15
 70
     1
102
RTVSPropertyOp16
 70
     1
102
RTVSPropertyOp17
 70
     1
102
RTVSPropertyOp18
 70
     1
102
RTVSPropertyOp19
 70
     1
102
RTVSPropertyOp20
 70
     1
102
RTVSPropertyOp21
 70
     1
102
RTVSPropertyOp22
 70
     1
102
RTVSPropertyOp23
 70
     1
102
RTVSPropertyOp24
 70
     1
102
RTVSPropertyOp25
 70
     1
102
RTVSPropertyOp26
 70
     1
102
RTVSPropertyOp27
 70
     1
102
RTVSPropertyOp28
 70
     1
102
RTVSPropertyOp29
 70
     1
102
RTVSPropertyOp30
 70
     1
102
RTVSPropertyOp31
 70
     1
102
RTVSPropertyOp32
 70
     1
  0
ENDSEC
  0
EOF
