  0
SECTION
  2
HEADER
  9
$ACADVER
  1
AC1015
  9
$ACADMAINTVER
 70
     6
  9
$DWGCODEPAGE
  3
ANSI_932
  9
$INSBASE
 10
0.0
 20
0.0
 30
0.0
  9
$EXTMIN
 10
0.0
 20
0.0
 30
0.0
  9
$EXTMAX
 10
210.0
 20
297.0
 30
0.0
  9
$LIMMIN
 10
0.0
 20
0.0
  9
$LIMMAX
 10
12.0
 20
9.0
  9
$ORTHOMODE
 70
     0
  9
$REGENMODE
 70
     1
  9
$FILLMODE
 70
     1
  9
$QTEXTMODE
 70
     0
  9
$MIRRTEXT
 70
     1
  9
$LTSCALE
 40
1.0
  9
$ATTMODE
 70
     1
  9
$TEXTSIZE
 40
0.2
  9
$TRACEWID
 40
0.05
  9
$TEXTSTYLE
  7
Standard
  9
$CLAYER
  8
0
  9
$CELTYPE
  6
ByLayer
  9
$CECOLOR
 62
   256
  9
$CELTSCALE
 40
1.0
  9
$DISPSILH
 70
     0
  9
$DIMSCALE
 40
1.0
  9
$DIMASZ
 40
0.18
  9
$DIMEXO
 40
0.0625
  9
$DIMDLI
 40
0.38
  9
$DIMRND
 40
0.0
  9
$DIMDLE
 40
0.0
  9
$DIMEXE
 40
0.18
  9
$DIMTP
 40
0.0
  9
$DIMTM
 40
0.0
  9
$DIMTXT
 40
0.18
  9
$DIMCEN
 40
0.09
  9
$DIMTSZ
 40
0.0
  9
$DIMTOL
 70
     0
  9
$DIMLIM
 70
     0
  9
$DIMTIH
 70
     1
  9
$DIMTOH
 70
     1
  9
$DIMSE1
 70
     0
  9
$DIMSE2
 70
     0
  9
$DIMTAD
 70
     0
  9
$DIMZIN
 70
     0
  9
$DIMBLK
  1

  9
$DIMASO
 70
     1
  9
$DIMSHO
 70
     1
  9
$DIMPOST
  1

  9
$DIMAPOST
  1

  9
$DIMALT
 70
     0
  9
$DIMALTD
 70
     2
  9
$DIMALTF
 40
25.4
  9
$DIMLFAC
 40
1.0
  9
$DIMTOFL
 70
     0
  9
$DIMTVP
 40
0.0
  9
$DIMTIX
 70
     0
  9
$DIMSOXD
 70
     0
  9
$DIMSAH
 70
     0
  9
$DIMBLK1
  1

  9
$DIMBLK2
  1

  9
$DIMSTYLE
  2
Standard
  9
$DIMCLRD
 70
     0
  9
$DIMCLRE
 70
     0
  9
$DIMCLRT
 70
     0
  9
$DIMTFAC
 40
1.0
  9
$DIMGAP
 40
0.09
  9
$DIMJUST
 70
     0
  9
$DIMSD1
 70
     0
  9
$DIMSD2
 70
     0
  9
$DIMTOLJ
 70
     1
  9
$DIMTZIN
 70
     0
  9
$DIMALTZ
 70
     0
  9
$DIMALTTZ
 70
     0
  9
$DIMUPT
 70
     0
  9
$DIMDEC
 70
     4
  9
$DIMTDEC
 70
     4
  9
$DIMALTU
 70
     2
  9
$DIMALTTD
 70
     2
  9
$DIMTXSTY
  7
Standard
  9
$DIMAUNIT
 70
     0
  9
$DIMADEC
 70
     0
  9
$DIMALTRND
 40
0.0
  9
$DIMAZIN
 70
     0
  9
$DIMDSEP
 70
    46
  9
$DIMATFIT
 70
     3
  9
$DIMFRAC
 70
     0
  9
$DIMLDRBLK
  1

  9
$DIMLUNIT
 70
     2
  9
$DIMLWD
 70
    -2
  9
$DIMLWE
 70
    -2
  9
$DIMTMOVE
 70
     0
  9
$LUNITS
 70
     2
  9
$LUPREC
 70
     4
  9
$SKETCHINC
 40
0.1
  9
$FILLETRAD
 40
0.5
  9
$AUNITS
 70
     0
  9
$AUPREC
 70
     0
  9
$MENU
  1
.
  9
$ELEVATION
 40
0.0
  9
$PELEVATION
 40
0.0
  9
$THICKNESS
 40
0.0
  9
$LIMCHECK
 70
     0
  9
$CHAMFERA
 40
0.5
  9
$CHAMFERB
 40
0.5
  9
$CHAMFERC
 40
1.0
  9
$CHAMFERD
 40
0.0
  9
$SKPOLY
 70
     0
  9
$TDCREATE
 40
2459755.618682396
  9
$TDUCREATE
 40
2459755.243682396
  9
$TDUPDATE
 40
2459755.618683565
  9
$TDUUPDATE
 40
2459755.243683565
  9
$TDINDWG
 40
0.0000000116
  9
$TDUSRTIMER
 40
0.0000000116
  9
$USRTIMER
 70
     1
  9
$ANGBASE
 50
0.0
  9
$ANGDIR
 70
     0
  9
$PDMODE
 70
     0
  9
$PDSIZE
 40
0.0
  9
$PLINEWID
 40
0.0
  9
$SPLFRAME
 70
     0
  9
$SPLINETYPE
 70
     6
  9
$SPLINESEGS
 70
     8
  9
$HANDSEED
  5
149
  9
$SURFTAB1
 70
     6
  9
$SURFTAB2
 70
     6
  9
$SURFTYPE
 70
     6
  9
$SURFU
 70
     6
  9
$SURFV
 70
     6
  9
$UCSBASE
  2

  9
$UCSNAME
  2

  9
$UCSORG
 10
0.0
 20
0.0
 30
0.0
  9
$UCSXDIR
 10
1.0
 20
0.0
 30
0.0
  9
$UCSYDIR
 10
0.0
 20
1.0
 30
0.0
  9
$UCSORTHOREF
  2

  9
$UCSORTHOVIEW
 70
     0
  9
$UCSORGTOP
 10
0.0
 20
0.0
 30
0.0
  9
$UCSORGBOTTOM
 10
0.0
 20
0.0
 30
0.0
  9
$UCSORGLEFT
 10
0.0
 20
0.0
 30
0.0
  9
$UCSORGRIGHT
 10
0.0
 20
0.0
 30
0.0
  9
$UCSORGFRONT
 10
0.0
 20
0.0
 30
0.0
  9
$UCSORGBACK
 10
0.0
 20
0.0
 30
0.0
  9
$PUCSBASE
  2

  9
$PUCSNAME
  2

  9
$PUCSORG
 10
0.0
 20
0.0
 30
0.0
  9
$PUCSXDIR
 10
1.0
 20
0.0
 30
0.0
  9
$PUCSYDIR
 10
0.0
 20
1.0
 30
0.0
  9
$PUCSORTHOREF
  2

  9
$PUCSORTHOVIEW
 70
     0
  9
$PUCSORGTOP
 10
0.0
 20
0.0
 30
0.0
  9
$PUCSORGBOTTOM
 10
0.0
 20
0.0
 30
0.0
  9
$PUCSORGLEFT
 10
0.0
 20
0.0
 30
0.0
  9
$PUCSORGRIGHT
 10
0.0
 20
0.0
 30
0.0
  9
$PUCSORGFRONT
 10
0.0
 20
0.0
 30
0.0
  9
$PUCSORGBACK
 10
0.0
 20
0.0
 30
0.0
  9
$USERI1
 70
     0
  9
$USERI2
 70
     0
  9
$USERI3
 70
     0
  9
$USERI4
 70
     0
  9
$USERI5
 70
     0
  9
$USERR1
 40
18.1
  9
$USERR2
 40
0.0
  9
$USERR3
 40
0.0
  9
$USERR4
 40
0.0
  9
$USERR5
 40
0.0
  9
$WORLDVIEW
 70
     1
  9
$SHADEDGE
 70
     3
  9
$SHADEDIF
 70
    70
  9
$TILEMODE
 70
     1
  9
$MAXACTVP
 70
    64
  9
$PINSBASE
 10
0.0
 20
0.0
 30
0.0
  9
$PLIMCHECK
 70
     0
  9
$PEXTMIN
 10
1.00000000000000E+20
 20
1.00000000000000E+20
 30
1.00000000000000E+20
  9
$PEXTMAX
 10
-1.00000000000000E+20
 20
-1.00000000000000E+20
 30
-1.00000000000000E+20
  9
$PLIMMIN
 10
0.0
 20
0.0
  9
$PLIMMAX
 10
12.0
 20
9.0
  9
$UNITMODE
 70
     0
  9
$VISRETAIN
 70
     1
  9
$PLINEGEN
 70
     0
  9
$PSLTSCALE
 70
     1
  9
$TREEDEPTH
 70
  3020
  9
$CMLSTYLE
  2
Standard
  9
$CMLJUST
 70
     0
  9
$CMLSCALE
 40
1.0
  9
$PROXYGRAPHICS
 70
     1
  9
$MEASUREMENT
 70
     1
  9
$CELWEIGHT
370
    -1
  9
$ENDCAPS
280
     0
  9
$JOINSTYLE
280
     0
  9
$LWDISPLAY
290
     0
  9
$INSUNITS
 70
     4
  9
$HYPERLINKBASE
  1

  9
$STYLESHEET
  1

  9
$XEDIT
290
     1
  9
$CEPSNTYPE
380
     0
  9
$PSTYLEMODE
290
     1
  9
$FINGERPRINTGUID
  2
{6A4286CC-60C7-4C62-989E-B474A0E07CAD}
  9
$VERSIONGUID
  2
{FAEB1C32-E019-11D5-929B-00C0DF256EC4}
  9
$EXTNAMES
290
     1
  9
$PSVPSCALE
 40
0.0
  9
$OLESTARTUP
290
     0
  0
ENDSEC
  0
SECTION
  2
CLASSES
  0
CLASS
  1
ACDBDICTIONARYWDFLT
  2
AcDbDictionaryWithDefault
  3
ObjectDBX Classes
 90
        0
280
     0
281
     0
  0
CLASS
  1
VISUALSTYLE
  2
AcDbVisualStyle
  3
ObjectDBX Classes
 90
     4095
280
     0
281
     0
  0
CLASS
  1
MATERIAL
  2
AcDbMaterial
  3
ObjectDBX Classes
 90
     1153
280
     0
281
     0
  0
CLASS
  1
DICTIONARYVAR
  2
AcDbDictionaryVar
  3
ObjectDBX Classes
 90
        0
280
     0
281
     0
  0
CLASS
  1
ACDBPLACEHOLDER
  2
AcDbPlaceHolder
  3
ObjectDBX Classes
 90
        0
280
     0
281
     0
  0
CLASS
  1
LAYOUT
  2
AcDbLayout
  3
ObjectDBX Classes
 90
        0
280
     0
281
     0
  0
ENDSEC
  0
SECTION
  2
TABLES
  0
TABLE
  2
VPORT
  5
8
330
0
100
AcDbSymbolTable
 70
     1
  0
VPORT
  5
29
330
8
100
AcDbSymbolTableRecord
100
AcDbViewportTableRecord
  2
*Active
 70
     0
 10
0.0
 20
0.0
 11
1.0
 21
1.0
 12
105.0
 22
148.5
 13
0.0
 23
0.0
 14
0.5
 24
0.5
 15
0.5
 25
0.5
 16
0.0
 26
0.0
 36
1.0
 17
0.0
 27
0.0
 37
0.0
 40
326.7
 41
1.60267857142857
 42
50.0
 43
0.0
 44
0.0
 50
0.0
 51
0.0
 71
     0
 72
   100
 73
     1
 74
     3
 75
     0
 76
     0
 77
     0
 78
     0
281
     0
 65
     1
110
0.0
120
0.0
130
0.0
111
1.0
121
0.0
131
0.0
112
0.0
122
1.0
132
0.0
 79
     0
146
0.0
  0
ENDTAB
  0
TABLE
  2
LTYPE
  5
5
330
0
100
AcDbSymbolTable
 70
     8
  0
LTYPE
  5
14
330
5
100
AcDbSymbolTableRecord
100
AcDbLinetypeTableRecord
  2
ByBlock
 70
     0
  3

 72
    65
 73
     0
 40
0.0
  0
LTYPE
  5
15
330
5
100
AcDbSymbolTableRecord
100
AcDbLinetypeTableRecord
  2
ByLayer
 70
     0
  3

 72
    65
 73
     0
 40
0.0
  0
LTYPE
  5
16
330
5
100
AcDbSymbolTableRecord
100
AcDbLinetypeTableRecord
  2
Continuous
 70
     0
  3
Solid line
 72
    65
 73
     0
 40
0.0
  0
LTYPE
  5
3F
330
5
100
AcDbSymbolTableRecord
100
AcDbLinetypeTableRecord
  2
DASHED
 70
     0
  3
Dashed
 72
    65
 73
     2
 40
15.0
 49
7.0
 74
     0
 49
-8.0
 74
     0
  0
LTYPE
  5
40
330
5
100
AcDbSymbolTableRecord
100
AcDbLinetypeTableRecord
  2
DOTTED
 70
     0
  3
Dotted
 72
    65
 73
     2
 40
1.0
 49
0.0
 74
     0
 49
-1.0
 74
     0
  0
LTYPE
  5
41
330
5
100
AcDbSymbolTableRecord
100
AcDbLinetypeTableRecord
  2
DOT_CENTER
 70
     0
  3
Dot_Center
 72
    65
 73
     4
 40
14.0
 49
12.0
 74
     0
 49
-1.0
 74
     0
 49
0.0
 74
     0
 49
-1.0
 74
     0
  0
LTYPE
  5
42
330
5
100
AcDbSymbolTableRecord
100
AcDbLinetypeTableRecord
  2
LONG_DASHED
 70
     0
  3
Long_Dashed
 72
    65
 73
     2
 40
15.0
 49
10.0
 74
     0
 49
-5.0
 74
     0
  0
LTYPE
  5
43
330
5
100
AcDbSymbolTableRecord
100
AcDbLinetypeTableRecord
  2
DASH_CENTER
 70
     0
  3
Dash_Center
 72
    65
 73
     4
 40
14.0
 49
11.0
 74
     0
 49
-1.0
 74
     0
 49
1.0
 74
     0
 49
-1.0
 74
     0
  0
LTYPE
  5
44
330
5
100
AcDbSymbolTableRecord
100
AcDbLinetypeTableRecord
  2
PHANTOM
 70
     0
  3
Phantom
 72
    65
 73
     6
 40
13.0
 49
10.0
 74
     0
 49
-1.0
 74
     0
 49
0.0
 74
     0
 49
-1.0
 74
     0
 49
0.0
 74
     0
 49
-1.0
 74
     0
  0
LTYPE
  5
45
330
5
100
AcDbSymbolTableRecord
100
AcDbLinetypeTableRecord
  2
CENTER_DASH_DASH
 70
     0
  3
Center_Dash_Dash
 72
    65
 73
     6
 40
14.0
 49
9.0
 74
     0
 49
-1.0
 74
     0
 49
1.0
 74
     0
 49
-1.0
 74
     0
 49
1.0
 74
     0
 49
-1.0
 74
     0
  0
ENDTAB
  0
TABLE
  2
LAYER
  5
2
330
0
100
AcDbSymbolTable
 70
     3
  0
LAYER
  5
10
330
2
100
AcDbSymbolTableRecord
100
AcDbLayerTableRecord
  2
0
 70
     0
 62
     7
  6
Continuous
370
    -3
390
F
  0
LAYER
  5
46
330
2
100
AcDbSymbolTableRecord
100
AcDbLayerTableRecord
  2
1
 70
     0
 62
     7
  6
Continuous
370
    -3
390
F
  0
LAYER
  5
47
330
2
100
AcDbSymbolTableRecord
100
AcDbLayerTableRecord
  2
_U_30EC_U_30A4_U_30E4_U_30FC_1
 70
     0
 62
     7
  6
Continuous
370
    -3
390
F
  0
ENDTAB
  0
TABLE
  2
STYLE
  5
3
330
0
100
AcDbSymbolTable
 70
     3
  0
STYLE
  5
11
330
3
100
AcDbSymbolTableRecord
100
AcDbTextStyleTableRecord
  2
Standard
 70
     0
 40
0.0
 41
1.0
 50
0.0
 71
     0
 42
0.2
  3
txt
  4

  0
STYLE
  5
B6
330
3
100
AcDbSymbolTableRecord
100
AcDbTextStyleTableRecord
  2
CONVERTER_11
 70
     0
 40
0.0
 41
0.89
 50
0.0
 71
     0
 42
0.2
  3
MS Mincho.ttf
  4

1001
ACAD
1000
MS Mincho
1071
    32785
  0
STYLE
  5
FB
330
3
100
AcDbSymbolTableRecord
100
AcDbTextStyleTableRecord
  2
CONVERTER_12
 70
     0
 40
0.0
 41
0.9
 50
0.0
 71
     0
 42
0.2
  3
txt.shx
  4

  0
ENDTAB
  0
TABLE
  2
VIEW
  5
6
330
0
100
AcDbSymbolTable
 70
     0
  0
ENDTAB
  0
TABLE
  2
UCS
  5
7
330
0
100
AcDbSymbolTable
 70
     0
  0
ENDTAB
  0
TABLE
  2
APPID
  5
9
330
0
100
AcDbSymbolTable
 70
     1
  0
APPID
  5
12
330
9
100
AcDbSymbolTableRecord
100
AcDbRegAppTableRecord
  2
ACAD
 70
     0
  0
ENDTAB
  0
TABLE
  2
DIMSTYLE
  5
A
330
0
100
AcDbSymbolTable
 70
     3
100
AcDbDimStyleTable
  0
DIMSTYLE
105
27
330
A
100
AcDbSymbolTableRecord
100
AcDbDimStyleTableRecord
  2
Standard
 70
     0
178
     0
340
11
  0
DIMSTYLE
105
111
102
{ACAD_REACTORS
330
112
102
}
330
A
100
AcDbSymbolTableRecord
100
AcDbDimStyleTableRecord
  2
ME10_DIM_10
 70
     0
  3
{\Fgdt;n}<>
 41
3.5
 42
0.0
 44
1.0
 73
     0
 74
     0
 77
     1
 78
     8
140
3.5
147
1.0
172
     1
173
     1
174
     1
175
     1
176
     2
177
     2
271
     2
178
     7
271
     2
340
FB
  0
DIMSTYLE
105
11C
102
{ACAD_REACTORS
330
11D
102
}
330
A
100
AcDbSymbolTableRecord
100
AcDbDimStyleTableRecord
  2
ME10_DIM_11
 70
     0
 41
3.5
 42
0.0
 44
1.0
 73
     0
 74
     0
 77
     1
 78
     8
140
3.5
147
1.0
172
     1
173
     1
174
     1
175
     1
176
     2
177
     2
271
     2
178
     7
271
     2
340
FB
  0
ENDTAB
  0
TABLE
  2
BLOCK_RECORD
  5
1
330
0
100
AcDbSymbolTable
 70
     6
  0
BLOCK_RECORD
  5
1F
330
1
100
AcDbSymbolTableRecord
100
AcDbBlockTableRecord
  2
*Model_Space
340
22
  0
BLOCK_RECORD
  5
1B
330
1
100
AcDbSymbolTableRecord
100
AcDbBlockTableRecord
  2
*Paper_Space
340
1E
  0
BLOCK_RECORD
  5
23
330
1
100
AcDbSymbolTableRecord
100
AcDbBlockTableRecord
  2
*Paper_Space0
340
26
  0
BLOCK_RECORD
  5
48
330
1
100
AcDbSymbolTableRecord
100
AcDbBlockTableRecord
  2
開示A4
340
0
102
{BLKREFS
331
4C
102
}
  0
BLOCK_RECORD
  5
4B
330
1
100
AcDbSymbolTableRecord
100
AcDbBlockTableRecord
  2
開示A4枠
340
0
102
{BLKREFS
331
52
102
}
  0
BLOCK_RECORD
  5
4F
330
1
100
AcDbSymbolTableRecord
100
AcDbBlockTableRecord
  2
futa
340
0
102
{BLKREFS
331
53
102
}
  0
BLOCK_RECORD
  5
108
330
1
100
AcDbSymbolTableRecord
100
AcDbBlockTableRecord
  2
*D4
340
0
  0
BLOCK_RECORD
  5
113
330
1
100
AcDbSymbolTableRecord
100
AcDbBlockTableRecord
  2
*D5
340
0
  0
ENDTAB
  0
ENDSEC
  0
SECTION
  2
BLOCKS
  0
BLOCK
  5
20
330
1F
100
AcDbEntity
  8
0
100
AcDbBlockBegin
  2
*Model_Space
 70
     0
 10
0.0
 20
0.0
 30
0.0
  3
*Model_Space
  1

  0
ENDBLK
  5
21
330
1F
100
AcDbEntity
  8
0
100
AcDbBlockEnd
  0
BLOCK
  5
1C
330
1B
100
AcDbEntity
 67
     1
  8
0
100
AcDbBlockBegin
  2
*Paper_Space
 70
     0
 10
0.0
 20
0.0
 30
0.0
  3
*Paper_Space
  1

  0
ENDBLK
  5
1D
330
1B
100
AcDbEntity
 67
     1
  8
0
100
AcDbBlockEnd
  0
BLOCK
  5
24
330
23
100
AcDbEntity
  8
0
100
AcDbBlockBegin
  2
*Paper_Space0
 70
     0
 10
0.0
 20
0.0
 30
0.0
  3
*Paper_Space0
  1

  0
ENDBLK
  5
25
330
23
100
AcDbEntity
  8
0
100
AcDbBlockEnd
  0
BLOCK
  5
49
330
48
100
AcDbEntity
  8
0
100
AcDbBlockBegin
  2
開示A4
 70
     0
 10
0.0
 20
0.0
 30
0.0
  3
開示A4
  1

  0
POINT
  5
54
330
48
100
AcDbEntity
  8
1
 62
     4
100
AcDbPoint
 10
34.0
 20
34.00000000000001
 30
0.0
  0
POINT
  5
55
330
48
100
AcDbEntity
  8
1
 62
     4
100
AcDbPoint
 10
57.0
 20
12.25
 30
0.0
  0
POINT
  5
56
330
48
100
AcDbEntity
  8
1
 62
     4
100
AcDbPoint
 10
57.0
 20
20.75000000000001
 30
0.0
  0
POINT
  5
57
330
48
100
AcDbEntity
  8
1
 62
     4
100
AcDbPoint
 10
57.0
 20
24.75000000000001
 30
0.0
  0
POINT
  5
58
330
48
100
AcDbEntity
  8
1
 62
     4
100
AcDbPoint
 10
57.0
 20
16.25
 30
0.0
  0
POINT
  5
59
330
48
100
AcDbEntity
  8
1
 62
     4
100
AcDbPoint
 10
157.5
 20
19.00000000000001
 30
0.0
  0
POINT
  5
5A
330
48
100
AcDbEntity
  8
1
 62
     4
100
AcDbPoint
 10
47.5
 20
282.0000000000002
 30
0.0
  0
POINT
  5
5B
330
48
100
AcDbEntity
  8
1
 62
     4
100
AcDbPoint
 10
57.0
 20
22.75000000000001
 30
0.0
  0
POINT
  5
5C
330
48
100
AcDbEntity
  8
1
 62
     4
100
AcDbPoint
 10
57.0
 20
14.25
 30
0.0
  0
POINT
  5
5D
330
48
100
AcDbEntity
  8
1
 62
     4
100
AcDbPoint
 10
157.5
 20
12.5
 30
0.0
  0
POINT
  5
5E
330
48
100
AcDbEntity
  8
1
 62
     4
100
AcDbPoint
 10
163.25
 20
12.5
 30
0.0
  0
POINT
  5
5F
330
48
100
AcDbEntity
  8
1
 62
     4
100
AcDbPoint
 10
151.75
 20
12.5
 30
0.0
  0
POINT
  5
60
330
48
100
AcDbEntity
  8
1
 62
     4
100
AcDbPoint
 10
134.75
 20
12.5
 30
0.0
  0
POINT
  5
61
330
48
100
AcDbEntity
  8
1
 62
     4
100
AcDbPoint
 10
146.25
 20
12.5
 30
0.0
  0
POINT
  5
62
330
48
100
AcDbEntity
  8
1
 62
     4
100
AcDbPoint
 10
140.5
 20
12.5
 30
0.0
  0
POINT
  5
63
330
48
100
AcDbEntity
  8
1
 62
     4
100
AcDbPoint
 10
140.5
 20
19.00000000000001
 30
0.0
  0
POINT
  5
64
330
48
100
AcDbEntity
  8
1
 62
     4
100
AcDbPoint
 10
117.75
 20
12.5
 30
0.0
  0
POINT
  5
65
330
48
100
AcDbEntity
  8
1
 62
     4
100
AcDbPoint
 10
129.25
 20
12.5
 30
0.0
  0
POINT
  5
66
330
48
100
AcDbEntity
  8
1
 62
     4
100
AcDbPoint
 10
123.5
 20
12.5
 30
0.0
  0
POINT
  5
67
330
48
100
AcDbEntity
  8
1
 62
     4
100
AcDbPoint
 10
123.5
 20
19.00000000000001
 30
0.0
  0
POINT
  5
68
330
48
100
AcDbEntity
  8
1
 62
     4
100
AcDbPoint
 10
100.75
 20
12.5
 30
0.0
  0
POINT
  5
69
330
48
100
AcDbEntity
  8
1
 62
     4
100
AcDbPoint
 10
112.25
 20
12.5
 30
0.0
  0
POINT
  5
6A
330
48
100
AcDbEntity
  8
1
 62
     4
100
AcDbPoint
 10
106.5
 20
12.5
 30
0.0
  0
POINT
  5
6B
330
48
100
AcDbEntity
  8
1
 62
     4
100
AcDbPoint
 10
106.5
 20
19.00000000000001
 30
0.0
  0
POINT
  5
6C
330
48
100
AcDbEntity
  8
1
 62
     4
100
AcDbPoint
 10
85.25
 20
17.0
 30
0.0
  0
POINT
  5
6D
330
48
100
AcDbEntity
  8
1
 62
     4
100
AcDbPoint
 10
93.75
 20
17.0
 30
0.0
  0
POINT
  5
6E
330
48
100
AcDbEntity
  8
1
 62
     4
100
AcDbPoint
 10
183.0
 20
15.00000000000001
 30
0.0
  0
LINE
  5
6F
330
48
100
AcDbEntity
  8
1
  6
Continuous
 62
     2
100
AcDbLine
 10
81.0
 20
27.00000000000001
 30
0.0
 11
81.0
 21
10.0
 31
0.0
  0
LINE
  5
70
330
48
100
AcDbEntity
  8
1
  6
DOT_CENTER
 62
     2
100
AcDbLine
 10
187.0
 20
26.50000000000001
 30
0.0
 11
187.0
 21
20.50000000000001
 31
0.0
  0
LINE
  5
71
330
48
100
AcDbEntity
  8
1
  6
DOT_CENTER
 62
     2
100
AcDbLine
 10
184.0
 20
23.50000000000001
 30
0.0
 11
197.0
 21
23.50000000000001
 31
0.0
  0
LINE
  5
72
330
48
100
AcDbEntity
  8
1
  6
Continuous
 62
     7
100
AcDbLine
 10
196.0
 20
21.50000000000001
 30
0.0
 11
191.0
 21
22.30000000000001
 31
0.0
  0
LINE
  5
73
330
48
100
AcDbEntity
  8
1
  6
Continuous
 62
     7
100
AcDbLine
 10
196.0
 20
25.50000000000001
 30
0.0
 11
196.0
 21
21.50000000000001
 31
0.0
  0
LINE
  5
74
330
48
100
AcDbEntity
  8
1
  6
Continuous
 62
     7
100
AcDbLine
 10
191.0
 20
24.70000000000001
 30
0.0
 11
196.0
 21
25.50000000000001
 31
0.0
  0
LINE
  5
75
330
48
100
AcDbEntity
  8
1
  6
Continuous
 62
     7
100
AcDbLine
 10
191.0
 20
24.70000000000001
 30
0.0
 11
191.0
 21
22.30000000000001
 31
0.0
  0
LINE
  5
76
330
48
100
AcDbEntity
  8
1
  6
Continuous
 62
     2
100
AcDbLine
 10
33.0
 20
27.0
 30
0.0
 11
33.0
 21
10.0
 31
0.0
  0
LINE
  5
77
330
48
100
AcDbEntity
  8
1
  6
Continuous
 62
     2
100
AcDbLine
 10
25.0
 20
18.50000000000001
 30
0.0
 11
81.0
 21
18.50000000000001
 31
0.0
  0
LINE
  5
78
330
48
100
AcDbEntity
  8
1
  6
Continuous
 62
     7
100
AcDbLine
 10
200.0
 20
287.0000000000002
 30
0.0
 11
105.0
 21
287.0000000000002
 31
0.0
  0
LINE
  5
79
330
48
100
AcDbEntity
  8
1
  6
Continuous
 62
     7
100
AcDbLine
 10
200.0
 20
10.0
 30
0.0
 11
200.0
 21
148.5
 31
0.0
  0
LINE
  5
7A
330
48
100
AcDbEntity
  8
1
  6
Continuous
 62
     7
100
AcDbLine
 10
25.0
 20
10.0
 30
0.0
 11
105.0
 21
10.0
 31
0.0
  0
LINE
  5
7B
330
48
100
AcDbEntity
  8
1
  6
PHANTOM
 62
     4
100
AcDbLine
 10
0.0
 20
297.0
 30
0.0
 11
0.0
 21
0.0
 31
0.0
  0
LINE
  5
7C
330
48
100
AcDbEntity
  8
1
  6
PHANTOM
 62
     4
100
AcDbLine
 10
210.0
 20
297.0
 30
0.0
 11
0.0
 21
297.0
 31
0.0
  0
LINE
  5
7D
330
48
100
AcDbEntity
  8
1
  6
PHANTOM
 62
     4
100
AcDbLine
 10
210.0
 20
0.0
 30
0.0
 11
210.0
 21
297.0
 31
0.0
  0
LINE
  5
7E
330
48
100
AcDbEntity
  8
1
  6
PHANTOM
 62
     4
100
AcDbLine
 10
0.0
 20
0.0
 30
0.0
 11
210.0
 21
0.0
 31
0.0
  0
LINE
  5
7F
330
48
100
AcDbEntity
  8
1
  6
Continuous
 62
     7
100
AcDbLine
 10
25.0
 20
41.0
 30
0.0
 11
200.0
 21
41.0
 31
0.0
  0
LINE
  5
80
330
48
100
AcDbEntity
  8
1
  6
Continuous
 62
     7
100
AcDbLine
 10
200.0
 20
27.00000000000001
 30
0.0
 11
25.0
 21
27.00000000000001
 31
0.0
  0
LINE
  5
81
330
48
100
AcDbEntity
  8
1
  6
Continuous
 62
     2
100
AcDbLine
 10
33.0
 20
41.00000000000001
 30
0.0
 11
33.0
 21
27.0
 31
0.0
  0
LINE
  5
82
330
48
100
AcDbEntity
  8
1
  6
Continuous
 62
     2
100
AcDbLine
 10
55.0
 20
287.0000000000002
 30
0.0
 11
55.0
 21
277.0000000000002
 31
0.0
  0
LINE
  5
83
330
48
100
AcDbEntity
  8
1
  6
Continuous
 62
     2
100
AcDbLine
 10
40.0
 20
287.0000000000002
 30
0.0
 11
40.0
 21
277.0000000000002
 31
0.0
  0
LINE
  5
84
330
48
100
AcDbEntity
  8
1
  6
Continuous
 62
     7
100
AcDbLine
 10
25.0
 20
10.0
 30
0.0
 11
25.0
 21
148.5
 31
0.0
  0
LINE
  5
85
330
48
100
AcDbEntity
  8
1
  6
Continuous
 62
     2
100
AcDbLine
 10
55.0
 20
277.0000000000002
 30
0.0
 11
25.0
 21
277.0000000000002
 31
0.0
  0
LINE
  5
86
330
48
100
AcDbEntity
  8
1
  6
Continuous
 62
     2
100
AcDbLine
 10
166.0
 20
27.00000000000001
 30
0.0
 11
166.0
 21
10.0
 31
0.0
  0
LINE
  5
87
330
48
100
AcDbEntity
  8
1
  6
Continuous
 62
     2
100
AcDbLine
 10
132.0
 20
27.00000000000001
 30
0.0
 11
132.0
 21
9.99999999999999
 31
0.0
  0
LINE
  5
88
330
48
100
AcDbEntity
  8
1
  6
Continuous
 62
     2
100
AcDbLine
 10
149.0
 20
27.00000000000001
 30
0.0
 11
149.0
 21
10.0
 31
0.0
  0
LINE
  5
89
330
48
100
AcDbEntity
  8
1
  6
Continuous
 62
     2
100
AcDbLine
 10
115.0
 20
27.00000000000001
 30
0.0
 11
115.0
 21
9.99999999999999
 31
0.0
  0
LINE
  5
8A
330
48
100
AcDbEntity
  8
1
  6
Continuous
 62
     2
100
AcDbLine
 10
98.0
 20
27.00000000000001
 30
0.0
 11
98.0
 21
10.0
 31
0.0
  0
LINE
  5
8B
330
48
100
AcDbEntity
  8
1
  6
Continuous
 62
     2
100
AcDbLine
 10
166.0
 20
20.00000000000001
 30
0.0
 11
200.0
 21
20.00000000000001
 31
0.0
  0
LINE
  5
8C
330
48
100
AcDbEntity
  8
1
  6
Continuous
 62
     2
100
AcDbLine
 10
105.0
 20
287.0000000000002
 30
0.0
 11
105.0
 21
292.0000000000002
 31
0.0
  0
LINE
  5
8D
330
48
100
AcDbEntity
  8
1
  6
Continuous
 62
     7
100
AcDbLine
 10
105.0
 20
287.0000000000002
 30
0.0
 11
25.0
 21
287.0000000000002
 31
0.0
  0
LINE
  5
8E
330
48
100
AcDbEntity
  8
1
  6
Continuous
 62
     2
100
AcDbLine
 10
25.0
 20
148.5
 30
0.0
 11
20.0
 21
148.5
 31
0.0
  0
LINE
  5
8F
330
48
100
AcDbEntity
  8
1
  6
Continuous
 62
     7
100
AcDbLine
 10
25.0
 20
148.5
 30
0.0
 11
25.0
 21
287.0000000000002
 31
0.0
  0
LINE
  5
90
330
48
100
AcDbEntity
  8
1
  6
Continuous
 62
     2
100
AcDbLine
 10
200.0
 20
148.5
 30
0.0
 11
205.0
 21
148.5
 31
0.0
  0
LINE
  5
91
330
48
100
AcDbEntity
  8
1
  6
Continuous
 62
     7
100
AcDbLine
 10
200.0
 20
148.5
 30
0.0
 11
200.0
 21
287.0000000000002
 31
0.0
  0
LINE
  5
92
330
48
100
AcDbEntity
  8
1
  6
Continuous
 62
     2
100
AcDbLine
 10
105.0
 20
10.0
 30
0.0
 11
105.0
 21
5.0
 31
0.0
  0
LINE
  5
93
330
48
100
AcDbEntity
  8
1
  6
Continuous
 62
     7
100
AcDbLine
 10
105.0
 20
10.0
 30
0.0
 11
200.0
 21
10.0
 31
0.0
  0
CIRCLE
  5
98
330
48
100
AcDbEntity
  8
1
  6
DOT_CENTER
 62
     7
100
AcDbCircle
 10
89.5
 20
18.0
 30
0.0
 40
0.1000000000000227
  0
CIRCLE
  5
99
330
48
100
AcDbEntity
  8
1
  6
DOT_CENTER
 62
     7
100
AcDbCircle
 10
89.5
 20
16.0
 30
0.0
 40
0.1000000000000227
  0
CIRCLE
  5
9A
330
48
100
AcDbEntity
  8
1
  6
Continuous
 62
     7
100
AcDbCircle
 10
187.0
 20
23.50000000000001
 30
0.0
 40
2.0
  0
CIRCLE
  5
9B
330
48
100
AcDbEntity
  8
1
  6
Continuous
 62
     7
100
AcDbCircle
 10
187.0
 20
23.50000000000001
 30
0.0
 40
1.199999999999989
  0
CIRCLE
  5
9C
330
48
100
AcDbEntity
  8
1
  6
Continuous
 62
     7
100
AcDbCircle
 10
154.5
 20
12.5
 30
0.0
 40
0.2999999999998977
  0
CIRCLE
  5
9D
330
48
100
AcDbEntity
  8
1
  6
Continuous
 62
     7
100
AcDbCircle
 10
160.5
 20
12.5
 30
0.0
 40
0.2999999999998977
  0
CIRCLE
  5
9E
330
48
100
AcDbEntity
  8
1
  6
Continuous
 62
     7
100
AcDbCircle
 10
143.5
 20
12.5
 30
0.0
 40
0.2999999999998977
  0
CIRCLE
  5
9F
330
48
100
AcDbEntity
  8
1
  6
Continuous
 62
     7
100
AcDbCircle
 10
137.5
 20
12.5
 30
0.0
 40
0.2999999999998977
  0
CIRCLE
  5
A0
330
48
100
AcDbEntity
  8
1
  6
Continuous
 62
     7
100
AcDbCircle
 10
126.5
 20
12.5
 30
0.0
 40
0.2999999999998977
  0
CIRCLE
  5
A1
330
48
100
AcDbEntity
  8
1
  6
Continuous
 62
     7
100
AcDbCircle
 10
120.5
 20
12.5
 30
0.0
 40
0.2999999999998977
  0
CIRCLE
  5
A2
330
48
100
AcDbEntity
  8
1
  6
Continuous
 62
     7
100
AcDbCircle
 10
109.5
 20
12.5
 30
0.0
 40
0.2999999999998977
  0
CIRCLE
  5
A3
330
48
100
AcDbEntity
  8
1
  6
Continuous
 62
     7
100
AcDbCircle
 10
103.5
 20
12.5
 30
0.0
 40
0.2999999999998977
  0
SPLINE
  5
A4
102
{ACAD_REACTORS
330
C2
102
}
330
48
100
AcDbEntity
  8
_U_30EC_U_30A4_U_30E4_U_30FC_1
  6
Continuous
 62
     2
100
AcDbSpline
210
0.0
220
0.0
230
1.0
 70
    11
 71
     3
 72
    99
 73
    95
 74
    93
 42
0.000000001
 43
0.0000000001
 44
0.00000001
 40
0.0
 40
0.0
 40
0.0
 40
0.0
 40
0.0796417172272126
 40
0.1621768542356086
 40
0.2486489160957739
 40
0.3404969668524697
 40
0.438191251116472
 40
0.5434463660245021
 40
0.6518115192846775
 40
0.7530190937885805
 40
0.8492196919724093
 40
0.9419290312997065
 40
1.034249663569931
 40
1.12907860062014
 40
1.226697027573185
 40
1.327220425421648
 40
1.47057213493797
 40
1.595489863371176
 40
1.719934125348321
 40
1.85057662012732
 40
1.989059629987259
 40
2.134139054226902
 40
2.280698007207163
 40
2.424529739039383
 40
2.565929576985794
 40
2.708239260773452
 40
2.861717887443604
 40
3.04516854034732
 40
3.183798301138558
 40
3.314813961455416
 40
3.442083470447266
 40
3.569912708372981
 40
3.702177512509378
 40
3.842307559659545
 40
3.992872223245922
 40
4.156750662218254
 40
4.310981861107561
 40
4.445859909322608
 40
4.57239393613157
 40
4.701656719781993
 40
4.768279086008492
 40
4.835960697898428
 40
4.91278891872936
 40
5.006285208481581
 40
5.026909478751628
 40
5.047533749021136
 40
5.101808031471209
 40
5.162325165538498
 40
5.226919745995833
 40
5.294231806596744
 40
5.364544852554845
 40
5.438319055467963
 40
5.517877651324218
 40
5.607647714861586
 40
5.700449642544404
 40
5.788251142364081
 40
5.87271470603971
 40
5.955167292575224
 40
6.037192395190335
 40
6.12066918146905
 40
6.20684861668629
 40
6.296680855416711
 40
6.442558392872535
 40
6.568190371608228
 40
6.692904567360284
 40
6.824220446556989
 40
6.963121850329304
 40
7.107843738851117
 40
7.25343166390723
 40
7.395187468036651
 40
7.533140753237684
 40
7.670550457175115
 40
7.816236511769179
 40
7.987691657359143
 40
8.14227742196917
 40
8.29366261541497
 40
8.442962460879226
 40
8.591598316185198
 40
8.743678992361698
 40
8.90372532369916
 40
9.076307008890424
 40
9.265578604680565
 40
9.459203795360683
 40
9.617619810273414
 40
9.753609671361772
 40
9.874873300003944
 40
9.95452018497762
 40
10.02416413719228
 40
10.09769764405429
 40
10.18909955924956
 40
10.20974586420126
 40
10.23039218263371
 40
10.30057101881257
 40
10.37632012987537
 40
10.37632012987537
 40
10.37632012987537
 40
10.37632012987537
 10
170.1465954835851
 20
14.13795663215994
 30
0.0
 10
170.1632217851219
 20
14.11720608845312
 30
0.0
 10
170.1970784206576
 20
14.07495111711898
 30
0.0
 10
170.2599822541036
 20
14.02029811392074
 30
0.0
 10
170.3332500940393
 20
13.9729902512105
 30
0.0
 10
170.4175969238636
 20
13.93527231437934
 30
0.0
 10
170.513224061546
 20
13.91040619731951
 30
0.0
 10
170.6171853775346
 20
13.90309559345937
 30
0.0
 10
170.7224020220404
 20
13.91142322794052
 30
0.0
 10
170.8206626371332
 20
13.9414917965153
 30
0.0
 10
170.9058986427547
 20
13.98848822971876
 30
0.0
 10
170.9779220206102
 20
14.04952991250857
 30
0.0
 10
171.0350917709095
 20
14.12412969578585
 30
0.0
 10
171.076786874744
 20
14.21002464660171
 30
0.0
 10
171.1026952846292
 20
14.30485850432211
 30
0.0
 10
171.1118037332653
 20
14.41854979038367
 30
0.0
 10
171.0986864796486
 20
14.54332587770779
 30
0.0
 10
171.0325330334413
 20
14.66014719171889
 30
0.0
 10
170.9369370919568
 20
14.74512539577374
 30
0.0
 10
170.8249681022368
 20
14.81416684459164
 30
0.0
 10
170.6993659583269
 20
14.8720414204589
 30
0.0
 10
170.5656691620855
 20
14.92373723284339
 30
0.0
 10
170.431312281883
 20
14.9789909239718
 30
0.0
 10
170.3051983986877
 20
15.04939770641653
 30
0.0
 10
170.1926579987534
 20
15.13785540731245
 30
0.0
 10
170.0969963064458
 20
15.24981067868477
 30
0.0
 10
170.0334157151825
 20
15.3994991010138
 30
0.0
 10
170.0200706505015
 20
15.55932794385142
 30
0.0
 10
170.0320510987447
 20
15.71048405306846
 30
0.0
 10
170.071229892884
 20
15.83809244591538
 30
0.0
 10
170.1354987750909
 20
15.95080874030848
 30
0.0
 10
170.2238204999739
 20
16.04648609268683
 30
0.0
 10
170.3338091207628
 20
16.12354214985753
 30
0.0
 10
170.4632284401264
 20
16.18151396936276
 30
0.0
 10
170.6111838967792
 20
16.21739177588822
 30
0.0
 10
170.7682069455486
 20
16.22746719050564
 30
0.0
 10
170.917494046643
 20
16.21863637762592
 30
0.0
 10
171.059625361417
 20
16.19074899340351
 30
0.0
 10
171.1595922609625
 20
16.13413314701137
 30
0.0
 10
171.3125074736186
 20
16.08674602105506
 30
0.0
 10
171.2455131717167
 20
16.00197553001185
 30
0.0
 10
171.2296479120269
 20
15.93438901873483
 30
0.0
 10
171.1978750531296
 20
15.8692609279319
 30
0.0
 10
171.215020220957
 20
15.76723453256953
 30
0.0
 10
171.1666427208231
 20
15.77493211681901
 30
0.0
 10
171.1315789440765
 20
15.76806771724809
 30
0.0
 10
171.1296697985719
 20
15.83263831158196
 30
0.0
 10
171.0985692931989
 20
15.87825639621396
 30
0.0
 10
171.0664551628455
 20
15.93561036628456
 30
0.0
 10
171.0208038475167
 20
15.98540462692555
 30
0.0
 10
170.9658508218387
 20
16.02994813719
 30
0.0
 10
170.9010841173006
 20
16.06763988836544
 30
0.0
 10
170.8232377310596
 20
16.09283375791354
 30
0.0
 10
170.7355160553352
 20
16.09931230998109
 30
0.0
 10
170.6452903277805
 20
16.09235709285607
 30
0.0
 10
170.5594594694065
 20
16.06909190460919
 30
0.0
 10
170.4828343638596
 20
16.03131644107545
 30
0.0
 10
170.4165265636201
 20
15.98051641089572
 30
0.0
 10
170.3622560536963
 20
15.91731143407211
 30
0.0
 10
170.3224925345459
 20
15.84276455710366
 30
0.0
 10
170.2976775510587
 20
15.75917313997763
 30
0.0
 10
170.289212426287
 20
15.65192948382285
 30
0.0
 10
170.3019697987103
 20
15.52965457267559
 30
0.0
 10
170.3681548409273
 20
15.41149724291211
 30
0.0
 10
170.4640977399832
 20
15.32606325709529
 30
0.0
 10
170.5757914963181
 20
15.25583362306718
 30
0.0
 10
170.7010863668702
 20
15.19659162305305
 30
0.0
 10
170.8349823941447
 20
15.14616708086131
 30
0.0
 10
170.9689930333149
 20
15.09322516984382
 30
0.0
 10
171.0950885316915
 20
15.02750170625176
 30
0.0
 10
171.2076216638417
 20
14.94480352537323
 30
0.0
 10
171.3031370284231
 20
14.83996006310067
 30
0.0
 10
171.3672706486963
 20
14.69937117251574
 30
0.0
 10
171.3811103725279
 20
14.54065409451592
 30
0.0
 10
171.3673954712229
 20
14.38153155217874
 30
0.0
 10
171.3244739153983
 20
14.23483828819211
 30
0.0
 10
171.2545906329065
 20
14.10119796587146
 30
0.0
 10
171.1574592213829
 20
13.98532387699288
 30
0.0
 10
171.0347806023656
 20
13.89089981770086
 30
0.0
 10
170.8874408413167
 20
13.82179270651984
 30
0.0
 10
170.7177132497124
 20
13.77953210858851
 30
0.0
 10
170.5317404979597
 20
13.76781736230408
 30
0.0
 10
170.3528955926182
 20
13.77809486683436
 30
0.0
 10
170.1881733753743
 20
13.81966573769155
 30
0.0
 10
170.0834410841057
 20
13.88797642883942
 30
0.0
 10
169.9350960790366
 20
13.93675219032104
 30
0.0
 10
169.9980378194728
 20
14.02976591290842
 30
0.0
 10
170.0072274430059
 20
14.10296536248281
 30
0.0
 10
170.030371130123
 20
14.16936294501346
 30
0.0
 10
170.0034588335315
 20
14.26974809527584
 30
0.0
 10
170.0521338956339
 20
14.26234033517378
 30
0.0
 10
170.0916530580696
 20
14.26894063620895
 30
0.0
 10
170.0996204944702
 20
14.19078703218931
 30
0.0
 10
170.1305436967923
 20
14.15600927375856
 30
0.0
 10
170.1465954835851
 20
14.13795663215994
 30
0.0
 11
170.1465954835851
 21
14.13795663215994
 31
0.0
 11
170.1982038075863
 21
14.07729869814736
 31
0.0
 11
170.2601105501335
 21
14.0227129516332
 31
0.0
 11
170.3327764009802
 21
13.97583980928383
 31
0.0
 11
170.4166468655843
 21
13.93839906276537
 31
0.0
 11
170.511221073241
 21
13.91390636311877
 31
0.0
 11
170.6161603327165
 21
13.90575829888472
 31
0.0
 11
170.7240739497551
 21
13.91564048638223
 31
0.0
 11
170.8208419941615
 21
13.94528704887482
 31
0.0
 11
170.9050776083317
 21
13.99175118948819
 31
0.0
 11
170.9756144207685
 21
14.05191413218149
 31
0.0
 11
171.0319442109979
 21
14.12505819466319
 31
0.0
 11
171.0736690016003
 21
14.21021434047522
 31
0.0
 11
171.0994680808032
 21
14.30436190989612
 31
0.0
 11
171.1080824729446
 21
14.4045155209822
 31
0.0
 11
171.0878517703356
 21
14.54643250879397
 31
0.0
 11
171.027252266673
 21
14.65566684036386
 31
0.0
 11
170.9364971286285
 21
14.74081306430094
 31
0.0
 11
170.826010188474
 21
14.81052746532517
 31
0.0
 11
170.7008523531254
 21
14.86979854169923
 31
0.0
 11
170.5662951950997
 21
14.9240425347412
 31
0.0
 11
170.4316884277006
 21
14.98201274306004
 31
0.0
 11
170.3065802017258
 21
15.05297399304232
 31
0.0
 11
170.1960276098279
 21
15.14113315968694
 31
0.0
 11
170.1053381235265
 21
15.25080295132617
 31
0.0
 11
170.0447055469483
 21
15.39179720476315
 31
0.0
 11
170.0245079172552
 21
15.57413260402314
 31
0.0
 11
170.0374030471346
 21
15.71216131926641
 31
0.0
 11
170.076101665939
 21
15.83733128451289
 31
0.0
 11
170.1393141731506
 21
15.94779262129084
 31
0.0
 11
170.2257499954545
 21
16.04196885390621
 31
0.0
 11
170.3336492808962
 21
16.1184654077065
 31
0.0
 11
170.4613526283328
 21
16.17615670109487
 31
0.0
 11
170.6075393259922
 21
16.21220066809973
 31
0.0
 11
170.7709768565449
 21
16.22421385386062
 31
0.0
 11
170.9248918431289
 21
16.21434269066864
 31
0.0
 11
171.0564887242607
 21
16.18477329831496
 31
0.0
 11
171.1725636344939
 21
16.13439993895252
 31
0.0
 11
171.2800792741122
 21
16.06264163167877
 31
0.0
 11
171.2516994050444
 21
16.00236624106886
 31
0.0
 11
171.2284855254283
 21
15.93879017337647
 31
0.0
 11
171.20783810408
 21
15.86478841992269
 31
0.0
 11
171.1871840681486
 21
15.77360197897327
 31
0.0
 11
171.1665597978414
 21
15.77360197897327
 31
0.0
 11
171.1459355275343
 21
15.77360197897327
 31
0.0
 11
171.1256706495791
 21
15.82395108486346
 31
0.0
 11
171.0994658759421
 21
15.87850045116929
 31
0.0
 11
171.0650468924451
 21
15.93316116296115
 31
0.0
 11
171.0203554612936
 21
15.98349593725411
 31
0.0
 11
170.965733335951
 21
16.02777175321528
 31
0.0
 11
170.9016722004325
 21
16.064361423345
 31
0.0
 11
170.825968296114
 21
16.08882545979726
 31
0.0
 11
170.7365722046448
 21
16.09701100667021
 31
0.0
 11
170.6440937174207
 21
16.08926973931101
 31
0.0
 11
170.5594072091645
 21
16.06609003445565
 31
0.0
 11
170.483702448884
 21
16.02863495634008
 31
0.0
 11
170.4183754766516
 21
15.97832774281102
 31
0.0
 11
170.3650487887664
 21
15.91600293379879
 31
0.0
 11
170.3254809233901
 21
15.84249947895607
 31
0.0
 11
170.3009523754711
 21
15.75988443557391
 31
0.0
 11
170.2927954104108
 21
15.67042329844352
 31
0.0
 11
170.3130095765617
 21
15.52595308146573
 31
0.0
 11
170.373625616682
 21
15.41591177072936
 31
0.0
 11
170.4643479320758
 21
15.33033670130631
 31
0.0
 11
170.5748676948812
 21
15.25941954854625
 31
0.0
 11
170.7000089937719
 21
15.19914305550579
 31
0.0
 11
170.8345826882553
 21
15.14590447913021
 31
0.0
 11
170.9691729191968
 21
15.09039489581074
 31
0.0
 11
171.0942976816297
 21
15.0237728124941
 31
0.0
 11
171.204800907977
 21
14.94118863716749
 31
0.0
 11
171.2955397598287
 21
14.83800003476272
 31
0.0
 11
171.3561557999489
 21
14.70552315979584
 31
0.0
 11
171.3763699660998
 21
14.53526378483839
 31
0.0
 11
171.3621839747998
 21
14.38133030397413
 31
0.0
 11
171.3196087009192
 21
14.23605531269097
 31
0.0
 11
171.2499752884264
 21
14.10398854189068
 31
0.0
 11
171.1544992078713
 21
13.99007218775248
 31
0.0
 11
171.0341060772624
 21
13.89715272597017
 31
0.0
 11
170.8896160201845
 21
13.8283235766818
 31
0.0
 11
170.7223519532713
 21
13.78581275203967
 31
0.0
 11
170.5336103348225
 21
13.77165864614041
 31
0.0
 11
170.3405031726387
 21
13.78581275203967
 31
0.0
 11
170.1878975900911
 21
13.8283235766818
 31
0.0
 11
170.0661897942203
 21
13.88899033013889
 31
0.0
 11
169.9660261826363
 21
13.95734322942737
 31
0.0
 11
169.9922320587038
 21
14.03255545163076
 31
0.0
 11
170.0090121537617
 21
14.10014767383612
 31
0.0
 11
170.0206196447851
 21
14.17275926235962
 31
0.0
 11
170.0313606254138
 21
14.26352788212859
 31
0.0
 11
170.0520069443315
 21
14.26352788212859
 31
0.0
 11
170.0726532632492
 21
14.26352788212859
 31
0.0
 11
170.1048916391629
 21
14.20119204881083
 31
0.0
 11
170.1465954835851
 21
14.13795663215994
 31
0.0
  0
SPLINE
  5
A5
102
{ACAD_REACTORS
330
C3
102
}
330
48
100
AcDbEntity
  8
_U_30EC_U_30A4_U_30E4_U_30FC_1
  6
Continuous
 62
     2
100
AcDbSpline
210
0.0
220
0.0
230
1.0
 70
    11
 71
     3
 72
    57
 73
    53
 74
    51
 42
0.000000001
 43
0.0000000001
 44
0.00000001
 40
0.0
 40
0.0
 40
0.0
 40
0.0
 40
0.0471632082808403
 40
0.0914861054631891
 40
0.1357762519701842
 40
0.1826527001609569
 40
0.2295203288571477
 40
0.2737751972219647
 40
0.3181310461542242
 40
0.3652607198398548
 40
0.4571007286314462
 40
0.5671851029165049
 40
0.6894623283868238
 40
0.818175827254614
 40
0.9510087229273883
 40
1.085852229674074
 40
1.21812616447532
 40
1.343545131142401
 40
1.45453720295676
 40
1.567187607530713
 40
1.680710966642331
 40
1.794226869736696
 40
1.900009184247495
 40
2.004085860447775
 40
2.108162674451691
 40
2.214000150155321
 40
2.496038577352125
 40
2.762350745479254
 40
2.997275353279416
 40
3.185110082137747
 40
3.246407890063891
 40
3.312607550212622
 40
3.378877742711552
 40
3.440140399651464
 40
4.100501696006533
 40
4.754913085563584
 40
5.411331693423954
 40
6.077890432568736
 40
6.110575292671015
 40
6.143260152775795
 40
6.367989363395213
 40
6.610525374951574
 40
6.863389136467343
 40
7.119380025547663
 40
7.376036605091146
 40
7.631164770966349
 40
7.876722425456471
 40
8.104953735856016
 40
8.312916685924346
 40
8.497730294941324
 40
8.651018984313918
 40
8.764738853624612
 40
8.764738853624612
 40
8.764738853624612
 40
8.764738853624612
 10
174.7922649500512
 20
13.81626739612926
 30
0.0
 10
174.776661672693
 20
13.81826231079078
 30
0.0
 10
174.7463947960301
 20
13.822132013603
 30
0.0
 10
174.7010994202251
 20
13.82341984967269
 30
0.0
 10
174.6559553129349
 20
13.82308683554052
 30
0.0
 10
174.6099017123399
 20
13.82314658674225
 30
0.0
 10
174.5640496172097
 20
13.82325813650002
 30
0.0
 10
174.5183711648164
 20
13.82277833456591
 30
0.0
 10
174.4750811541608
 20
13.82461109618723
 30
0.0
 10
174.4039947951512
 20
13.80049556814653
 30
0.0
 10
174.4057477261441
 20
13.92184693977251
 30
0.0
 10
174.358619637057
 20
14.00726239751235
 30
0.0
 10
174.3191478251762
 20
14.12486929345137
 30
0.0
 10
174.2706635532643
 20
14.24232752540435
 30
0.0
 10
174.2201017402522
 20
14.36405935761512
 30
0.0
 10
174.1718634610476
 20
14.49075967862463
 30
0.0
 10
174.1135232947593
 20
14.59933687784953
 30
0.0
 10
174.098089266726
 20
14.75620657134408
 30
0.0
 10
173.9566586330635
 20
14.72373446548323
 30
0.0
 10
173.8508397414903
 20
14.7351288868218
 30
0.0
 10
173.7358569725222
 20
14.73392591514616
 30
0.0
 10
173.625314225214
 20
14.73506945347408
 30
0.0
 10
173.5176583522783
 20
14.73418350037526
 30
0.0
 10
173.4121322529242
 20
14.73416602390519
 30
0.0
 10
173.3109192682012
 20
14.72714032472414
 30
0.0
 10
173.1266804827752
 20
14.7513585985987
 30
0.0
 10
173.1157393685411
 20
14.44741691121885
 30
0.0
 10
173.008769163475
 20
14.22353177253393
 30
0.0
 10
172.9098148604345
 20
14.03895314292502
 30
0.0
 10
172.9225090524006
 20
13.79530204804205
 30
0.0
 10
172.8050091716397
 20
13.82508046753198
 30
0.0
 10
172.7422055868309
 20
13.82258089509604
 30
0.0
 10
172.6785872093399
 20
13.82344075102806
 30
0.0
 10
172.3946014194075
 20
13.78098039941939
 30
0.0
 10
173.025163849938
 20
14.50081952444785
 30
0.0
 10
173.1087645289072
 20
15.01276539435727
 30
0.0
 10
173.4929252789337
 20
15.53353743550045
 30
0.0
 10
173.4777208288565
 20
16.23519626253214
 30
0.0
 10
173.7239265722696
 20
16.22345633081256
 30
0.0
 10
173.8256346157561
 20
16.23225004452773
 30
0.0
 10
173.8249752035818
 20
15.9805965073035
 30
0.0
 10
173.9428317155827
 20
15.79818020733955
 30
0.0
 10
174.0315515260484
 20
15.55563740662865
 30
0.0
 10
174.132229248526
 20
15.3234003053013
 30
0.0
 10
174.2311142712242
 20
15.08674644566911
 30
0.0
 10
174.329967699067
 20
14.85461739170096
 30
0.0
 10
174.4256166390924
 20
14.63122222788786
 30
0.0
 10
174.5159904573271
 20
14.42272549049318
 30
0.0
 10
174.5989944568189
 20
14.23308448529322
 30
0.0
 10
174.6726088582797
 20
14.06663106068094
 30
0.0
 10
174.7342815895545
 20
13.92917699626102
 30
0.0
 10
174.7749458885604
 20
13.84999239430034
 30
0.0
 10
174.7922649500512
 20
13.81626739612926
 30
0.0
 11
174.7922649500512
 21
13.81626739612926
 31
0.0
 11
174.7453878317447
 21
13.82145433189186
 31
0.0
 11
174.7010975896124
 21
13.82315538223863
 31
0.0
 11
174.6568074431729
 21
13.82315538223863
 31
0.0
 11
174.6099309947159
 21
13.82315538223863
 31
0.0
 11
174.5630633657033
 21
13.82315538223863
 31
0.0
 11
174.5188084970408
 21
13.82315538223863
 31
0.0
 11
174.4744852776853
 21
13.82145433189186
 31
0.0
 11
174.4276419021442
 21
13.81626739612926
 31
0.0
 11
174.3992532136324
 21
13.90360966173245
 31
0.0
 11
174.3622721815898
 21
14.0072965627482
 31
0.0
 11
174.3188386236701
 21
14.12159987001127
 31
0.0
 11
174.2711055866935
 21
14.24113531268969
 31
0.0
 11
174.2208160133236
 21
14.36408057307564
 31
0.0
 11
174.1696467003931
 21
14.48883822929446
 31
0.0
 11
174.1197531801325
 21
14.61134141502772
 31
0.0
 11
174.073311911184
 21
14.72784517367917
 31
0.0
 11
173.9623611907588
 21
14.73087465284506
 31
0.0
 11
173.8497309225089
 21
14.7330045486779
 31
0.0
 11
173.7362152069449
 21
14.7343219531914
 31
0.0
 11
173.62270004768
 21
14.73473315978852
 31
0.0
 11
173.5169185312816
 21
14.7343219531914
 31
0.0
 11
173.4128501919225
 21
14.7330045486779
 31
0.0
 11
173.3087951724045
 21
14.73087465284506
 31
0.0
 11
173.2030010615595
 21
14.72784517367917
 31
0.0
 11
173.0980914750138
 21
14.4660443751335
 31
0.0
 11
173.0034868690331
 21
14.2171023265846
 31
0.0
 11
172.9252231210297
 21
13.99559756969557
 31
0.0
 11
172.8693431224554
 21
13.81626739612926
 31
0.0
 11
172.8082651639442
 21
13.82145433189186
 31
0.0
 11
172.742087361813
 21
13.82315538223863
 31
0.0
 11
172.6758390041282
 21
13.82145433189186
 31
0.0
 11
172.6147963233937
 21
13.81626739612926
 31
0.0
 11
172.889968495193
 21
14.41656508695143
 31
0.0
 11
173.158294573417
 21
15.01343642360775
 31
0.0
 11
173.4240277350404
 21
15.61366245644381
 31
0.0
 11
173.6914740737032
 21
16.22421385386062
 31
0.0
 11
173.7241589339805
 21
16.22421385386062
 31
0.0
 11
173.7568437942578
 21
16.22421385386062
 31
0.0
 11
173.8428300681057
 21
16.01658539037083
 31
0.0
 11
173.9357285813608
 21
15.79254614563517
 31
0.0
 11
174.0328714521463
 21
15.55908663180469
 31
0.0
 11
174.1317936458031
 21
15.32298128464145
 31
0.0
 11
174.2315341249926
 21
15.08649780379784
 31
0.0
 11
174.3313071129353
 21
14.85168781253711
 31
0.0
 11
174.4280608257448
 21
14.6259949219685
 31
0.0
 11
174.5188084970408
 21
14.4165805209792
 31
0.0
 11
174.6022150834546
 21
14.22607611130461
 31
0.0
 11
174.6770293263376
 21
14.05708232662467
 31
0.0
 11
174.7410729186603
 21
13.91781337700668
 31
0.0
 11
174.7922649500512
 21
13.81626739612926
 31
0.0
  0
SPLINE
  5
A6
102
{ACAD_REACTORS
330
C3
102
}
330
48
100
AcDbEntity
  8
_U_30EC_U_30A4_U_30E4_U_30FC_1
  6
Continuous
 62
     2
100
AcDbSpline
210
0.0
220
0.0
230
1.0
 70
    11
 71
     3
 72
    25
 73
    21
 74
    19
 42
0.000000001
 43
0.0000000001
 44
0.00000001
 40
0.0
 40
0.0
 40
0.0
 40
0.0
 40
0.0911479969064253
 40
0.1858117896204665
 40
0.280412839973449
 40
0.3715889190714509
 40
0.4679080494218707
 40
0.564268380922923
 40
0.6605683222644423
 40
0.7569653015809119
 40
0.8561348172521489
 40
1.092615965104156
 40
1.374867658141739
 40
1.611348812011442
 40
1.71051832842509
 40
1.809403163726408
 40
2.045205463293911
 40
2.326646917621971
 40
2.562449217190433
 40
2.661334043833752
 40
2.661334043833752
 40
2.661334043833752
 40
2.661334043833752
 10
173.2683700567199
 20
14.88614538197292
 30
0.0
 10
173.2987525917922
 20
14.88598079714554
 30
0.0
 10
173.3606895889111
 20
14.88564528689921
 30
0.0
 10
173.454135696033
 20
14.88269055452
 30
0.0
 10
173.5475095236357
 20
14.8797775287715
 30
0.0
 10
173.6417760753477
 20
14.87894201643417
 30
0.0
 10
173.7354964790967
 20
14.87996644658046
 30
0.0
 10
173.8352040303205
 20
14.87916977470972
 30
0.0
 10
173.9188949546312
 20
14.88921410235219
 30
0.0
 10
174.0637996315044
 20
14.86234617674166
 30
0.0
 10
173.93961324448
 20
15.0366553028005
 30
0.0
 10
173.8965867286281
 20
15.19651711006092
 30
0.0
 10
173.7808922142208
 20
15.45518458550214
 30
0.0
 10
173.7017565431257
 20
15.59231052861859
 30
0.0
 10
173.6431576621816
 20
15.80937033134077
 30
0.0
 10
173.5864803939438
 20
15.59266134213428
 30
0.0
 10
173.5052809900478
 20
15.45327012438236
 30
0.0
 10
173.4063701281488
 20
15.20406969370195
 30
0.0
 10
173.325362509426
 20
15.01925830226073
 30
0.0
 10
173.2813683325838
 20
14.91650446856116
 30
0.0
 10
173.2683700567199
 20
14.88614538197292
 30
0.0
 11
173.2683700567199
 21
14.88614538197292
 31
0.0
 11
173.3595137737819
 21
14.88526123266759
 31
0.0
 11
173.4541428297581
 21
14.88269697919599
 31
0.0
 11
173.5487082179706
 21
14.88009965280777
 31
0.0
 11
173.6398803250196
 21
14.8792485764191
 31
0.0
 11
173.7361985777706
 21
14.87965978301621
 31
0.0
 11
173.8325499034376
 21
14.88097718752971
 31
0.0
 11
173.9288262638285
 21
14.88310818579312
 31
0.0
 11
174.0251753846342
 21
14.88614538197292
 31
0.0
 11
173.9854633323141
 21
14.9770164219502
 31
0.0
 11
173.8907653613967
 21
15.19370890189602
 31
0.0
 11
173.777738750947
 21
15.45234186183135
 31
0.0
 11
173.6830407800297
 21
15.66903434177717
 31
0.0
 11
173.6433287277095
 21
15.75990538175445
 31
0.0
 11
173.6043330259266
 21
15.66903434177717
 31
0.0
 11
173.5113432755212
 21
15.45234186183135
 31
0.0
 11
173.4003555089082
 21
15.19370890189602
 31
0.0
 11
173.3073657585028
 21
14.9770164219502
 31
0.0
 11
173.2683700567199
 21
14.88614538197292
 31
0.0
  0
SPLINE
  5
A7
102
{ACAD_REACTORS
330
C4
102
}
330
48
100
AcDbEntity
  8
_U_30EC_U_30A4_U_30E4_U_30FC_1
  6
Continuous
 62
     2
100
AcDbSpline
210
0.0
220
0.0
230
1.0
 70
    11
 71
     3
 72
    95
 73
    91
 74
    89
 42
0.000000001
 43
0.0000000001
 44
0.00000001
 40
0.0
 40
0.0
 40
0.0
 40
0.0
 40
0.6550406656911676
 40
1.308087289031932
 40
1.420803739835808
 40
1.566130759770803
 40
1.757067341888469
 40
2.006513545026465
 40
2.087328263121559
 40
2.185328872295635
 40
2.29461245474837
 40
2.408936380534821
 40
2.526802767798567
 40
2.646360524615616
 40
2.762535723971585
 40
2.870057342870156
 40
2.966883448431654
 40
3.050803243518305
 40
3.115818222436612
 40
3.156030057150264
 40
3.213914225080224
 40
3.276689026450681
 40
3.342960320981345
 40
3.404230667150595
 40
3.453822809493404
 40
3.532499827188444
 40
3.634775188507194
 40
3.75490933300819
 40
3.889736761660695
 40
4.035769602175256
 40
4.187256681197643
 40
4.338733685675992
 40
4.488478734676153
 40
4.634708317831619
 40
4.771493189921308
 40
4.892686571561246
 40
5.199775528944485
 40
5.460353566929672
 40
5.667603142345548
 40
5.814722905404531
 40
5.828990806219886
 40
5.855488336304526
 40
5.869756237118858
 40
6.189796507762901
 40
6.531890469873127
 40
6.883053637017079
 40
7.230512024911592
 40
7.56696665676466
 40
7.885203559707526
 40
8.17288743971933
 40
8.418011594062802
 40
8.443926721190724
 40
8.510760470613212
 40
8.602145393795722
 40
8.701714041647163
 40
8.793098965075393
 40
8.859932715057965
 40
8.885847842603615
 40
9.24230125661283
 40
9.589275455016784
 40
9.92180854316419
 40
10.23479624298469
 40
10.2996815088918
 40
10.35323493887768
 40
10.4015462535515
 40
10.46482922477829
 40
10.55973900668409
 40
10.69239545985622
 40
10.84920353475676
 40
11.01626328594784
 40
11.18672024367447
 40
11.35372582577215
 40
11.50257442292431
 40
11.61866495023295
 40
11.71329869152879
 40
11.82511050573912
 40
11.9446488084572
 40
12.0692924264251
 40
12.19707290435181
 40
12.32562632860533
 40
12.45034565331284
 40
12.56646595170332
 40
12.6709900741464
 40
12.76077625936787
 40
12.82703233506699
 40
12.87429132785998
 40
12.89831990323337
 40
12.92234847860025
 40
13.53984767410331
 40
14.18294284359371
 40
14.18294284359371
 40
14.18294284359371
 40
14.18294284359371
 10
177.3067935648021
 20
14.70898038201725
 30
0.0
 10
177.175201975855
 20
14.82265058603232
 30
0.0
 10
176.9124193802728
 20
15.04964496316156
 30
0.0
 10
176.3997393441023
 20
15.89214462956286
 30
0.0
 10
176.4106654595361
 20
15.5342337757702
 30
0.0
 10
176.4041226527991
 20
15.39267392272132
 30
0.0
 10
176.4028026631771
 20
15.1942130529928
 30
0.0
 10
176.4018117602538
 20
15.02150296045983
 30
0.0
 10
176.4024101751973
 20
14.8786537325758
 30
0.0
 10
176.4038994301881
 20
14.78265005413358
 30
0.0
 10
176.4055683588472
 20
14.67545503263141
 30
0.0
 10
176.4071934954618
 20
14.56164211517582
 30
0.0
 10
176.4092429501685
 20
14.44441572604589
 30
0.0
 10
176.4123165501927
 20
14.3265641123297
 30
0.0
 10
176.4156339697043
 20
14.21228087320621
 30
0.0
 10
176.419360534028
 20
14.10521401867278
 30
0.0
 10
176.4217338161424
 20
14.01007408766922
 30
0.0
 10
176.4278718888357
 20
13.92558557205695
 30
0.0
 10
176.4239784495946
 20
13.8692308729814
 30
0.0
 10
176.4455230443078
 20
13.79825022472353
 30
0.0
 10
176.3680940058617
 20
13.82902677604485
 30
0.0
 10
176.3116353240191
 20
13.82011242517615
 30
0.0
 10
176.2540495896806
 20
13.82896218398275
 30
0.0
 10
176.1690163478472
 20
13.79738225225942
 30
0.0
 10
176.2009714146381
 20
13.8809515599219
 30
0.0
 10
176.1990705282538
 20
13.94882608968309
 30
0.0
 10
176.2107960047299
 20
14.05233256764418
 30
0.0
 10
176.2164241052998
 20
14.17002125616695
 30
0.0
 10
176.2237902178941
 20
14.30388609164422
 30
0.0
 10
176.2320759701609
 20
14.44764152872633
 30
0.0
 10
176.2398851897427
 20
14.59714022843444
 30
0.0
 10
176.2457571222658
 20
14.74792549402078
 30
0.0
 10
176.2503667817968
 20
14.89699943878438
 30
0.0
 10
176.2542632117541
 20
15.04122913163022
 30
0.0
 10
176.2570715126564
 20
15.17583905213017
 30
0.0
 10
176.2576698755022
 20
15.36469614347354
 30
0.0
 10
176.2616023867151
 20
15.58975494313155
 30
0.0
 10
176.2442175378498
 20
15.86367091125706
 30
0.0
 10
176.2850417342583
 20
16.027871120986
 30
0.0
 10
176.1995153256001
 20
16.22749661465095
 30
0.0
 10
176.2660558907687
 20
16.22385458403978
 30
0.0
 10
176.2838724273229
 20
16.22413447160854
 30
0.0
 10
176.4056801797501
 20
16.22632927398611
 30
0.0
 10
176.5080770335462
 20
15.94675118721515
 30
0.0
 10
176.7580021509356
 20
15.74563008536005
 30
0.0
 10
176.987003533111
 20
15.47792614987913
 30
0.0
 10
177.2245151213108
 20
15.2264641386238
 30
0.0
 10
177.4486090740771
 20
14.98969974061354
 30
0.0
 10
177.6750716283009
 20
14.7321869258308
 30
0.0
 10
177.8325687886514
 20
14.61649335056926
 30
0.0
 10
178.0472129612675
 20
14.27997152538796
 30
0.0
 10
178.0422645974617
 20
14.40464754091603
 30
0.0
 10
178.0433931602545
 20
14.46327691935737
 30
0.0
 10
178.0428877841515
 20
14.55043662371977
 30
0.0
 10
178.0430475158112
 20
14.64416143182872
 30
0.0
 10
178.0430054891317
 20
14.73018971297035
 30
0.0
 10
178.0430202040372
 20
14.79153891945496
 30
0.0
 10
178.0429706255981
 20
14.94135231520991
 30
0.0
 10
178.0458811522811
 20
15.17989612510105
 30
0.0
 10
178.0259521041161
 20
15.544865098687
 30
0.0
 10
178.0750433936246
 20
15.80799631993411
 30
0.0
 10
177.917795150918
 20
16.21928904947753
 30
0.0
 10
178.0762112872421
 20
16.16398282551747
 30
0.0
 10
178.1311680478628
 20
16.16199686500175
 30
0.0
 10
178.182788776674
 20
16.16264778248253
 30
0.0
 10
178.2713198965366
 20
16.20369527738246
 30
0.0
 10
178.2204898303168
 20
16.05696326622986
 30
0.0
 10
178.2313389930283
 20
15.95019971954433
 30
0.0
 10
178.2166036994847
 20
15.79085705414111
 30
0.0
 10
178.2099976446203
 20
15.62853061652874
 30
0.0
 10
178.2014961399915
 20
15.45992521892394
 30
0.0
 10
178.1943227202196
 20
15.29814814703541
 30
0.0
 10
178.1889063215388
 20
15.15422331457932
 30
0.0
 10
178.1871713967647
 20
15.03437493466924
 30
0.0
 10
178.1875440672317
 20
14.92686101590515
 30
0.0
 10
178.1873656126261
 20
14.81820024645586
 30
0.0
 10
178.1877010863139
 20
14.69953570165531
 30
0.0
 10
178.1890040622184
 20
14.57555163512741
 30
0.0
 10
178.1908887351574
 20
14.44858294171105
 30
0.0
 10
178.192500445485
 20
14.32153861551031
 30
0.0
 10
178.194140313743
 20
14.19854884492178
 30
0.0
 10
178.1962570745751
 20
14.08300931383759
 30
0.0
 10
178.1963848422364
 20
13.98090903955836
 30
0.0
 10
178.2006514396554
 20
13.89009848838156
 30
0.0
 10
178.1908440085289
 20
13.83213621208786
 30
0.0
 10
178.2118474771689
 20
13.76517130132029
 30
0.0
 10
178.1725639739896
 20
13.77291153966688
 30
0.0
 10
177.9595307117748
 20
13.75755254145193
 30
0.0
 10
177.7636297943184
 20
14.31403058094463
 30
0.0
 10
177.4611197631544
 20
14.57556035348509
 30
0.0
 10
177.3067935648021
 20
14.70898038201725
 30
0.0
 11
177.3067935648021
 21
14.70898038201725
 31
0.0
 11
176.859552933851
 21
15.18757635411977
 31
0.0
 11
176.4124049070643
 21
15.6635264928897
 31
0.0
 11
176.4089664262493
 21
15.55086249986232
 31
0.0
 11
176.40556101835
 21
15.4055753818431
 31
0.0
 11
176.4029636920274
 21
15.21465645827968
 31
0.0
 11
176.4021126156602
 21
14.96521170139757
 31
0.0
 11
176.4025239230288
 21
14.8843980295428
 31
0.0
 11
176.4038420329816
 21
14.78640628477561
 31
0.0
 11
176.4055192267717
 21
14.67713557299739
 31
0.0
 11
176.4072367127518
 21
14.56282454872039
 31
0.0
 11
176.4094007838772
 21
14.44497802965266
 31
0.0
 11
176.4124049070643
 21
14.32545802100199
 31
0.0
 11
176.4158359733138
 21
14.20933349846156
 31
0.0
 11
176.4192928929998
 21
14.1018674655023
 31
0.0
 11
176.4227085253088
 21
14.00510162351264
 31
0.0
 11
176.4261896983793
 21
13.92125406276972
 31
0.0
 11
176.4296006184312
 21
13.8563286200776
 31
0.0
 11
176.4330776843148
 21
13.81626739612926
 31
0.0
 11
176.3754263821571
 21
13.82145433189186
 31
0.0
 11
176.3126746318308
 21
13.82315538223863
 31
0.0
 11
176.2464251717157
 21
13.82145433189186
 31
0.0
 11
176.1853747739675
 21
13.81626739612926
 31
0.0
 11
176.1926772737812
 21
13.8653189412559
 31
0.0
 11
176.2008793569053
 21
13.94356725720854
 31
0.0
 11
176.2090098822347
 21
14.04551893253029
 31
0.0
 11
176.2163406441396
 21
14.16542920159752
 31
0.0
 11
176.2236358280421
 21
14.3000591234389
 31
0.0
 11
176.2318444255595
 21
14.44586107652745
 31
0.0
 11
176.2395504149465
 21
14.59715203135073
 31
0.0
 11
176.2455763002093
 21
14.74850913200734
 31
0.0
 11
176.2503046247415
 21
14.89817951391435
 31
0.0
 11
176.2541928972119
 21
15.04435739582222
 31
0.0
 11
176.2567527408965
 21
15.18111831592696
 31
0.0
 11
176.2576324804574
 21
15.3023085068689
 31
0.0
 11
176.257192610677
 21
15.60939715262544
 31
0.0
 11
176.2559126888347
 21
15.86997204839365
 31
0.0
 11
176.2528658717892
 21
16.07719922716125
 31
0.0
 11
176.2473049112762
 21
16.22421385386062
 31
0.0
 11
176.2615728121468
 21
16.22421385386062
 31
0.0
 11
176.2880703423351
 21
16.22421385386062
 31
0.0
 11
176.3023382432057
 21
16.22421385386062
 31
0.0
 11
176.5194743650276
 21
15.98910179662773
 31
0.0
 11
176.7512744123079
 21
15.73751281231562
 31
0.0
 11
176.9894816018839
 21
15.4794955554357
 31
0.0
 11
177.2260074557521
 21
15.22497079855489
 31
0.0
 11
177.4555698717705
 21
14.97899759549137
 31
0.0
 11
177.6731797360103
 21
14.74678934034107
 31
0.0
 11
177.8713724913707
 21
14.53826680567099
 31
0.0
 11
178.0430143099085
 21
14.36326697932589
 31
0.0
 11
178.0430143099085
 21
14.38918210687043
 31
0.0
 11
178.0430143099085
 21
14.45601585685371
 31
0.0
 11
178.0430143099085
 21
14.54740078030025
 31
0.0
 11
178.0430143099085
 21
14.64696942823453
 31
0.0
 11
178.0430143099085
 21
14.73835435168106
 31
0.0
 11
178.0430143099085
 21
14.80518810166435
 31
0.0
 11
178.0430143099085
 21
14.83110322920889
 31
0.0
 11
178.0417233637608
 21
15.18755430550867
 31
0.0
 11
178.0378461155958
 21
15.53450684014415
 31
0.0
 11
178.0296197790001
 21
15.86693815950551
 31
0.0
 11
178.0154535467228
 21
16.17960510387179
 31
0.0
 11
178.0790351249618
 21
16.16666367158334
 31
0.0
 11
178.1324170159611
 21
16.16238072887607
 31
0.0
 11
178.1805381084833
 21
16.16666367158334
 31
0.0
 11
178.2424836798197
 21
16.17960510387179
 31
0.0
 11
178.2351216487575
 21
16.084981284451
 31
0.0
 11
178.2269790968818
 21
15.95257496503964
 31
0.0
 11
178.2183705364004
 21
15.79600336785655
 31
0.0
 11
178.2097547223214
 21
15.6291659373427
 31
0.0
 11
178.2016187850288
 21
15.4589032550936
 31
0.0
 11
178.1942501393834
 21
15.292060312427
 31
0.0
 11
178.1891406931521
 21
15.14329943572809
 31
0.0
 11
178.1874503478903
 21
15.02722121527101
 31
0.0
 11
178.1874503478903
 21
14.93258747397519
 31
0.0
 11
178.1874503478903
 21
14.82077565976707
 31
0.0
 11
178.1878461204496
 21
14.70123801222749
 31
0.0
 11
178.1890819450708
 21
14.5766005209392
 31
0.0
 11
178.1908392193317
 21
14.44883212687391
 31
0.0
 11
178.1925303477608
 21
14.32028982655879
 31
0.0
 11
178.1942876220214
 21
14.19558288214555
 31
0.0
 11
178.1959787504505
 21
14.07947489606349
 31
0.0
 11
178.1972884379172
 21
13.97495896727017
 31
0.0
 11
178.1976985420735
 21
13.88517371555652
 31
0.0
 11
178.1976985420735
 21
13.81891763918416
 31
0.0
 11
178.1976985420735
 21
13.77165864614041
 31
0.0
 11
178.1736699662976
 21
13.77165864614041
 31
0.0
 11
178.1496413905217
 21
13.77165864614041
 31
0.0
 11
177.7410729200422
 21
14.2346673526219
 31
0.0
 11
177.3067935648021
 21
14.70898038201725
 31
0.0
  0
SPLINE
  5
A8
102
{ACAD_REACTORS
330
C5
102
}
330
48
100
AcDbEntity
  8
_U_30EC_U_30A4_U_30E4_U_30FC_1
  6
Continuous
 62
     2
100
AcDbSpline
210
0.0
220
0.0
230
1.0
 70
    11
 71
     3
 72
   110
 73
   106
 74
   104
 42
0.000000001
 43
0.0000000001
 44
0.00000001
 40
0.0
 40
0.0
 40
0.0
 40
0.0
 40
0.2203406257277749
 40
0.440780878283809
 40
0.5952494494615068
 40
0.7488431659393073
 40
0.9023581831308775
 40
1.056801968670404
 40
1.210736449099848
 40
1.363041386539783
 40
1.515315729683069
 40
1.669377239148077
 40
1.721611652756564
 40
1.773199502942947
 40
1.824933793209997
 40
1.877110426487978
 40
1.982682281206741
 40
2.07878166708755
 40
2.172809640822328
 40
2.271937807378924
 40
2.378349933379346
 40
2.494131557736591
 40
2.626681683943697
 40
2.783145050796068
 40
2.890701232940919
 40
2.993130312454814
 40
3.099869730691795
 40
3.220237816691288
 40
3.352695482737578
 40
3.481732806389829
 40
3.593499473690361
 40
3.674323013331874
 40
3.817951711952796
 40
3.946167120793736
 40
4.061405053453422
 40
4.166480796003063
 40
4.262478775059185
 40
4.350736673551141
 40
4.433071991253998
 40
4.511216293814543
 40
4.564262454117862
 40
4.618474415571483
 40
4.670128488754079
 40
4.722296879126273
 40
4.819540945314198
 40
4.931194984127998
 40
5.049996040257612
 40
5.168643755415101
 40
5.283970811762368
 40
5.392260784910137
 40
5.48651225487624
 40
5.559178233949611
 40
5.591425852853278
 40
5.626215969637665
 40
5.667155838674205
 40
5.717449290214009
 40
5.738402360944624
 40
5.784499116553594
 40
5.830595872164567
 40
5.851548942897425
 40
5.87301928066154
 40
5.924217778408082
 40
5.985325662817461
 40
6.036524160567478
 40
6.057994498334006
 40
6.236847789607255
 40
6.38140992894543
 40
6.493190424178462
 40
6.574067534230272
 40
6.691018086205366
 40
6.814881554220284
 40
6.944307823240208
 40
7.071266716065775
 40
7.19348860446162
 40
7.309042773127818
 40
7.414007203170501
 40
7.505140441886312
 40
7.531150360599471
 40
7.559221645322056
 40
7.587202218920715
 40
7.612569159498927
 40
7.662550809480798
 40
7.702878875763947
 40
7.857328205230761
 40
8.010799568088407
 40
8.165256399657357
 40
8.322232698713696
 40
8.479564855016383
 40
8.635216230290586
 40
8.790882550925504
 40
8.94830515494707
 40
9.16827183903276
 40
9.387358980987033
 40
9.60804796103328
 40
9.832914234792485
 40
9.85833869496282
 40
9.925366817229827
 40
10.02013071422741
 40
10.1287624985898
 40
10.2373942829523
 40
10.33215817995172
 40
10.39918630222375
 40
10.42461076239764
 40
10.64992019336924
 40
10.87188524531169
 40
10.87188524531169
 40
10.87188524531169
 40
10.87188524531169
 10
179.9057788376618
 20
15.7392326039819
 30
0.0
 10
179.9092864933541
 20
15.80616462073804
 30
0.0
 10
179.9163033987662
 20
15.94005891915859
 30
0.0
 10
179.8198027599072
 20
16.22548554971469
 30
0.0
 10
180.0510134726109
 20
16.16284386190284
 30
0.0
 10
180.1919290057156
 20
16.17001554055991
 30
0.0
 10
180.3490417757588
 20
16.16235883078243
 30
0.0
 10
180.5025913427287
 20
16.16252752283041
 30
0.0
 10
180.6545104935081
 20
16.16182040535431
 30
0.0
 10
180.814221481323
 20
16.17210158351639
 30
0.0
 10
180.9408972601117
 20
16.15496511080752
 30
0.0
 10
181.1370821122081
 20
16.22727260107148
 30
0.0
 10
181.1034395279078
 20
16.12640699080116
 30
0.0
 10
181.1052011317184
 20
16.07619253947671
 30
0.0
 10
181.1027342073457
 20
16.02712335586465
 30
0.0
 10
181.1347076966012
 20
15.94063490847
 30
0.0
 10
181.0010399903256
 20
15.98997438608336
 30
0.0
 10
180.9172208688056
 20
15.98430634314168
 30
0.0
 10
180.8173861139323
 20
15.99465516706297
 30
0.0
 10
180.7186576720145
 20
16.00086450411086
 30
0.0
 10
180.6121532771109
 20
16.00697763816777
 30
0.0
 10
180.4910511698059
 20
16.01588883484585
 30
0.0
 10
180.3703381502453
 20
16.00521605912384
 30
0.0
 10
180.1812553843437
 20
16.06468503080363
 30
0.0
 10
180.212902850531
 20
15.90558320077539
 30
0.0
 10
180.1995563316834
 20
15.80839128339904
 30
0.0
 10
180.1974958426449
 20
15.69634065110103
 30
0.0
 10
180.195818804467
 20
15.5769968562935
 30
0.0
 10
180.1973336794232
 20
15.4503259215511
 30
0.0
 10
180.1956582478668
 20
15.32301588016117
 30
0.0
 10
180.2058844271658
 20
15.22451566404464
 30
0.0
 10
180.1779006596582
 20
15.08388702625631
 30
0.0
 10
180.3508029999305
 20
15.13989551134094
 30
0.0
 10
180.4645020202771
 20
15.12719951478498
 30
0.0
 10
180.5840151672239
 20
15.13448377051255
 30
0.0
 10
180.6888491425071
 20
15.13878017056755
 30
0.0
 10
180.7843084898611
 20
15.14330568258977
 30
0.0
 10
180.8763823507032
 20
15.151492011462
 30
0.0
 10
180.9476551782438
 20
15.14643850638111
 30
0.0
 10
181.0544931705684
 20
15.18536425031672
 30
0.0
 10
181.0226603598035
 20
15.10517122005878
 30
0.0
 10
181.0266164503929
 20
15.05562936846033
 30
0.0
 10
181.0234502392012
 20
15.00557478039819
 30
0.0
 10
181.0550791490583
 20
14.9212884761202
 30
0.0
 10
180.9210133677691
 20
14.97425365495156
 30
0.0
 10
180.8292322793199
 20
14.96540080890441
 30
0.0
 10
180.7079729189602
 20
14.97570049965155
 30
0.0
 10
180.5914113119771
 20
14.97748911767503
 30
0.0
 10
180.4783375745878
 20
14.97787017109693
 30
0.0
 10
180.3679246308471
 20
14.9841544947218
 30
0.0
 10
180.289812406784
 20
14.97189133255362
 30
0.0
 10
180.1913625833644
 20
15.00453887616125
 30
0.0
 10
180.2012355173561
 20
14.94769748054206
 30
0.0
 10
180.1973923244402
 20
14.91392130557984
 30
0.0
 10
180.1966789884267
 20
14.87119604709411
 30
0.0
 10
180.1963369642975
 20
14.83401607262154
 30
0.0
 10
180.1963834255344
 20
14.79487237370771
 30
0.0
 10
180.1963649429927
 20
14.75716849497686
 30
0.0
 10
180.1963703431804
 20
14.71944955232402
 30
0.0
 10
180.19636972142
 20
14.6899432474515
 30
0.0
 10
180.1963698151544
 20
14.65873577699301
 30
0.0
 10
180.196370428792
 20
14.61414424908085
 30
0.0
 10
180.1963671499336
 20
14.5596395650885
 30
0.0
 10
180.196375962348
 20
14.51505540201448
 30
0.0
 10
180.1963359653416
 20
14.4311780858574
 30
0.0
 10
180.1976024270254
 20
14.31737520677678
 30
0.0
 10
180.1950274117841
 20
14.16830395933709
 30
0.0
 10
180.206500938172
 20
14.06597203813905
 30
0.0
 10
180.1823506222263
 20
13.93338903885834
 30
0.0
 10
180.3332993946476
 20
13.97895732272021
 30
0.0
 10
180.4428436671556
 20
13.9642701216235
 30
0.0
 10
180.573397047392
 20
13.96920435125062
 30
0.0
 10
180.6990312209512
 20
13.97257705323363
 30
0.0
 10
180.81887306256
 20
13.97711497498772
 30
0.0
 10
180.9391362611426
 20
13.99048536182005
 30
0.0
 10
181.0222761663514
 20
13.98068712782595
 30
0.0
 10
181.1456080421075
 20
14.04126214623322
 30
0.0
 10
181.1244269203956
 20
13.9853246013402
 30
0.0
 10
181.1235950270116
 20
13.95939249372346
 30
0.0
 10
181.1218963707558
 20
13.93197256190938
 30
0.0
 10
181.1217974888829
 20
13.89738195206385
 30
0.0
 10
181.1203659301329
 20
13.86050408220767
 30
0.0
 10
181.153280419219
 20
13.76846841021806
 30
0.0
 10
180.9551306988108
 20
13.84132015974832
 30
0.0
 10
180.830054829489
 20
13.81825726508606
 30
0.0
 10
180.6673071295156
 20
13.82454021985787
 30
0.0
 10
180.5129366450001
 20
13.82260943909927
 30
0.0
 10
180.3566670436943
 20
13.82393762599269
 30
0.0
 10
180.1970544465282
 20
13.82059872487863
 30
0.0
 10
180.0540326342236
 20
13.83265795728241
 30
0.0
 10
179.8197144881628
 20
13.76952001976916
 30
0.0
 10
179.9173810751197
 20
14.05620527466318
 30
0.0
 10
179.9006868780058
 20
14.24988308142659
 30
0.0
 10
179.9146296709683
 20
14.47848242880294
 30
0.0
 10
179.9142987846632
 20
14.63384593955048
 30
0.0
 10
179.9143078119264
 20
14.73966336444126
 30
0.0
 10
179.9143055876316
 20
14.80205784124214
 30
0.0
 10
179.9143065551888
 20
14.89220425248327
 30
0.0
 10
179.9143065473261
 20
14.99621167157438
 30
0.0
 10
179.9143053861102
 20
15.10022131375296
 30
0.0
 10
179.9143090971502
 20
15.19036243688768
 30
0.0
 10
179.9143011051051
 20
15.25276803097215
 30
0.0
 10
179.9143334275018
 20
15.35868835961119
 30
0.0
 10
179.9131440788319
 20
15.5162671654474
 30
0.0
 10
179.9082216489256
 20
15.66528219822065
 30
0.0
 10
179.9057788376618
 20
15.7392326039819
 30
0.0
 11
179.9057788376618
 21
15.7392326039819
 31
0.0
 11
179.896691822374
 21
15.95938578101018
 31
0.0
 11
179.8868249573133
 21
16.17960510387179
 31
0.0
 11
180.04115751414
 21
16.17312391463728
 31
0.0
 11
180.1946500189046
 21
16.16754892331924
 31
0.0
 11
180.3481160653366
 21
16.1636716750563
 31
0.0
 11
180.5025544554939
 21
16.16238072887607
 31
0.0
 11
180.6564835227472
 21
16.1636716750563
 31
0.0
 11
180.80873910046
 21
16.16754892331924
 31
0.0
 11
180.9609113551073
 21
16.17312391463728
 31
0.0
 11
181.1148364762483
 21
16.17960510387179
 31
0.0
 11
181.1070811703123
 21
16.12794961777358
 31
0.0
 11
181.1044991623591
 21
16.07642642334204
 31
0.0
 11
181.1070811703123
 21
16.0247566056466
 31
0.0
 11
181.1148364762483
 21
15.97315954836784
 31
0.0
 11
181.0094874054411
 21
15.98001446156057
 31
0.0
 11
180.913637570006
 21
15.98693552058657
 31
0.0
 11
180.8198593171903
 21
15.99378381919598
 31
0.0
 11
180.7209679915881
 21
16.00063211780539
 31
0.0
 11
180.6147532199923
 21
16.00710999974824
 31
0.0
 11
180.4991060528037
 21
16.01268829835794
 31
0.0
 11
180.3666126447257
 21
16.01656554662087
 31
0.0
 11
180.2101546018423
 21
16.01785649280111
 31
0.0
 11
180.206266329372
 21
15.91037061609186
 31
0.0
 11
180.20153800484
 21
15.80805072896464
 31
0.0
 11
180.1976607566748
 21
15.70138175329687
 31
0.0
 11
180.1963698105271
 21
15.5810205901325
 31
0.0
 11
180.1967799146835
 21
15.44856355891565
 31
0.0
 11
180.1980896021501
 21
15.31953288186455
 31
0.0
 11
180.1994074577049
 21
15.20777398432308
 31
0.0
 11
180.199819115366
 21
15.12695149302384
 31
0.0
 11
180.3434452935874
 21
15.1278025694125
 31
0.0
 11
180.4716343930757
 21
15.13039989580077
 31
0.0
 11
180.5868078221795
 21
15.13425509545254
 31
0.0
 11
180.6917756312219
 21
15.13901649302076
 31
0.0
 11
180.7876346289421
 21
15.14418027774175
 31
0.0
 11
180.8757413374193
 21
15.14934406246267
 31
0.0
 11
180.9578881438496
 21
15.15491243919739
 31
0.0
 11
181.035769233557
 21
15.16132086801524
 31
0.0
 11
181.0280180445185
 21
15.10884407115336
 31
0.0
 11
181.0254328449316
 21
15.05469378470857
 31
0.0
 11
181.0280180445185
 21
15.00310444444367
 31
0.0
 11
181.035769233557
 21
14.95151510417882
 31
0.0
 11
180.9389813454013
 21
14.96092324653757
 31
0.0
 11
180.8275950722014
 21
14.96865128473012
 31
0.0
 11
180.7089261429372
 21
14.97425273438145
 31
0.0
 11
180.5903167449213
 21
14.97726788195011
 31
0.0
 11
180.4750025117521
 21
14.97898767361638
 31
0.0
 11
180.36672619507
 21
14.98070746528257
 31
0.0
 11
180.2724839317708
 21
14.98202486979616
 31
0.0
 11
180.199819115366
 21
14.98243607639329
 31
0.0
 11
180.1994074577049
 21
14.95019108508191
 31
0.0
 11
180.1980896021501
 21
14.91542593752117
 31
0.0
 11
180.1967799146835
 21
14.87450702260084
 31
0.0
 11
180.1963698105271
 21
14.82421524309952
 31
0.0
 11
180.1963698105271
 21
14.80326217235822
 31
0.0
 11
180.1963698105271
 21
14.75716541672736
 31
0.0
 11
180.1963698105271
 21
14.71106866109651
 31
0.0
 11
180.1963698105271
 21
14.69011559035521
 31
0.0
 11
180.1963698105271
 21
14.6686452525828
 31
0.0
 11
180.1963698105271
 21
14.61744675481784
 31
0.0
 11
180.1963698105271
 21
14.55633887038868
 31
0.0
 11
180.1963698105271
 21
14.50514037262371
 31
0.0
 11
180.1963698105271
 21
14.4836700348513
 31
0.0
 11
180.1967799146835
 21
14.30481721371548
 31
0.0
 11
180.1980896021501
 21
14.16026100715442
 31
0.0
 11
180.2002868589709
 21
14.04850210961289
 31
0.0
 11
180.2032586986985
 21
13.96767961831365
 31
0.0
 11
180.3202092517447
 21
13.96767961831365
 31
0.0
 11
180.4440727208746
 21
13.96767961831365
 31
0.0
 11
180.5734925526422
 21
13.96897056449389
 31
0.0
 11
180.7003922282243
 21
13.97284781275683
 31
0.0
 11
180.8224658067973
 21
13.97886708358865
 31
0.0
 11
180.9377587499462
 21
13.98663260442002
 31
0.0
 11
181.0421754573518
 21
13.99734161483402
 31
0.0
 11
181.1320599255448
 21
14.01237656274692
 31
0.0
 11
181.1264254031191
 21
13.98698427976715
 31
0.0
 11
181.1234433285423
 21
13.95907184053802
 31
0.0
 11
181.12213398812
 21
13.93112191867002
 31
0.0
 11
181.1217235369195
 21
13.90575829888472
 31
0.0
 11
181.1243087365064
 21
13.85584355063326
 31
0.0
 11
181.1320599255448
 21
13.81626739612926
 31
0.0
 11
180.9776977178344
 21
13.82145433189186
 31
0.0
 11
180.8242357818765
 21
13.82315538223863
 31
0.0
 11
180.6697789496483
 21
13.82315538223863
 31
0.0
 11
180.5128026496768
 21
13.82315538223863
 31
0.0
 11
180.3554704921536
 21
13.82315538223863
 31
0.0
 11
180.199819115366
 21
13.82315538223863
 31
0.0
 11
180.0441620874241
 21
13.82145433189186
 31
0.0
 11
179.8868249573133
 21
13.81626739612926
 31
0.0
 11
179.896691822374
 21
14.03601267385209
 31
0.0
 11
179.9057788376618
 21
14.2549112849085
 31
0.0
 11
179.91217215184
 21
14.47550763902002
 31
0.0
 11
179.9143063455009
 21
14.70036378479715
 31
0.0
 11
179.9143063455009
 21
14.72578824496874
 31
0.0
 11
179.9143063455009
 21
14.79281636723931
 31
0.0
 11
179.9143063455009
 21
14.88758026424253
 31
0.0
 11
179.9143063455009
 21
14.99621204861207
 31
0.0
 11
179.9143063455009
 21
15.10484383298162
 31
0.0
 11
179.9143063455009
 21
15.19960772998484
 31
0.0
 11
179.9143063455009
 21
15.2666358522554
 31
0.0
 11
179.9143063455009
 21
15.292060312427
 31
0.0
 11
179.91217215184
 21
15.51735963528735
 31
0.0
 11
179.9057788376618
 21
15.7392326039819
 31
0.0
  0
SPLINE
  5
A9
102
{ACAD_REACTORS
330
C6
102
}
330
48
100
AcDbEntity
  8
_U_30EC_U_30A4_U_30E4_U_30FC_1
  6
Continuous
 62
     2
100
AcDbSpline
210
0.0
220
0.0
230
1.0
 70
    11
 71
     3
 72
    47
 73
    43
 74
    41
 42
0.000000001
 43
0.0000000001
 44
0.00000001
 40
0.0
 40
0.0
 40
0.0
 40
0.0
 40
0.2207912809957201
 40
0.4459404186303005
 40
0.4902387190458657
 40
0.5327473892722179
 40
0.5742260451224658
 40
0.6155432630560801
 40
0.656816406631515
 40
0.6982511618779511
 40
0.7407663929316306
 40
0.7851366743174366
 40
1.010288833836232
 40
1.231080507002082
 40
1.451765243652309
 40
1.676638205891596
 40
1.720461045359565
 40
1.830018144043431
 40
1.972442372353062
 40
2.114866600677431
 40
2.224423699395055
 40
2.268246538883297
 40
2.493628801207124
 40
2.715602830286528
 40
2.934211330706284
 40
3.14950236985528
 40
3.231387784850841
 40
3.318231873853876
 40
3.405143198197864
 40
3.486970301720302
 40
3.702258172493744
 40
3.92086628353398
 40
4.142839325931773
 40
4.368221903865233
 40
4.412044743359712
 40
4.521601842095728
 40
4.664026070452208
 40
4.806450298808916
 40
4.916007397546609
 40
4.959830237042932
 40
5.184703515846968
 40
5.405387250767341
 40
5.405387250767341
 40
5.405387250767341
 40
5.405387250767341
 10
182.6507427258644
 20
15.73406440953872
 30
0.0
 10
182.6568139420002
 20
15.7975848250121
 30
0.0
 10
182.6690762107242
 20
15.92587938689625
 30
0.0
 10
182.5604706879411
 20
16.20166220174076
 30
0.0
 10
182.6761985896604
 20
16.17188133432052
 30
0.0
 10
182.7171842509015
 20
16.16765556262821
 30
0.0
 10
182.7591205797518
 20
16.16310446389605
 30
0.0
 10
182.800419662571
 20
16.16201982929486
 30
0.0
 10
182.8417032115555
 20
16.16310338195225
 30
0.0
 10
182.8836148270646
 20
16.16766112711344
 30
0.0
 10
182.9245983549019
 20
16.17187430209728
 30
0.0
 10
183.0404922843487
 20
16.20177611317533
 30
0.0
 10
182.9295652727457
 20
15.92339806609889
 30
0.0
 10
182.9574856365267
 20
15.74283140824953
 30
0.0
 10
182.9404267346969
 20
15.50961042346471
 30
0.0
 10
182.9414637282103
 20
15.34906622543146
 30
0.0
 10
182.9414099399404
 20
15.22284817558722
 30
0.0
 10
182.9414277372481
 20
15.12428963336241
 30
0.0
 10
182.941418858108
 20
14.99280702442963
 30
0.0
 10
182.9414263928034
 20
14.8613284496865
 30
0.0
 10
182.9414129405129
 20
14.76276222694091
 30
0.0
 10
182.9414531717491
 20
14.63639735624152
 30
0.0
 10
182.9406746403817
 20
14.4748206882287
 30
0.0
 10
182.9565958319267
 20
14.24361821892914
 30
0.0
 10
182.9333468885406
 20
14.05874351972003
 30
0.0
 10
183.0360183444365
 20
13.78935602770054
 30
0.0
 10
182.8820238362836
 20
13.82660112685818
 30
0.0
 10
182.8004129802832
 20
13.82137994680535
 30
0.0
 10
182.7188192292582
 20
13.82660620378351
 30
0.0
 10
182.5648513666843
 20
13.78937069885384
 30
0.0
 10
182.6674183421916
 20
14.0587512986288
 30
0.0
 10
182.6442045316086
 20
14.24361585325414
 30
0.0
 10
182.6600444655138
 20
14.47482218565638
 30
0.0
 10
182.6593296313426
 20
14.63639712308503
 30
0.0
 10
182.6593664569907
 20
14.76276231210521
 30
0.0
 10
182.659354900027
 20
14.86132756635981
 30
0.0
 10
182.6593575019214
 20
14.9928112741722
 30
0.0
 10
182.6593648531779
 20
15.124275480312
 30
0.0
 10
182.6593442541351
 20
15.22287786275326
 30
0.0
 10
182.6594082192028
 20
15.34896149354426
 30
0.0
 10
182.6581733947589
 20
15.51210091383772
 30
0.0
 10
182.6532040396744
 20
15.6605418377755
 30
0.0
 10
182.6507427258644
 20
15.73406440953872
 30
0.0
 11
182.6507427258644
 21
15.73406440953872
 31
0.0
 11
182.6417328200378
 21
15.95467178795577
 31
0.0
 11
182.6318769706146
 21
16.17960510387179
 31
0.0
 11
182.67569858408
 21
16.17312391463728
 31
0.0
 11
182.7178400934215
 21
16.16754892331924
 31
0.0
 11
182.759137140979
 21
16.1636716750563
 31
0.0
 11
182.8004341885365
 21
16.16238072887607
 31
0.0
 11
182.841687138873
 21
16.1636716750563
 31
0.0
 11
182.8829400892096
 21
16.16754892331924
 31
0.0
 11
182.9250882131342
 21
16.17312391463728
 31
0.0
 11
182.9689825870144
 21
16.17960510387179
 31
0.0
 11
182.9590577693891
 21
15.95467178795577
 31
0.0
 11
182.950038420831
 21
15.73406440953872
 31
0.0
 11
182.9435638463435
 21
15.51347467001054
 31
0.0
 11
182.9414218238286
 21
15.28861190965007
 31
0.0
 11
182.9414218238286
 21
15.24478907015486
 31
0.0
 11
182.9414218238286
 21
15.13523197141682
 31
0.0
 11
182.9414218238286
 21
14.99280774305737
 31
0.0
 11
182.9414218238286
 21
14.85038351469792
 31
0.0
 11
182.9414218238286
 21
14.74082641595989
 31
0.0
 11
182.9414218238286
 21
14.69700357646467
 31
0.0
 11
182.9435638463435
 21
14.47163149318767
 31
0.0
 11
182.950038420831
 21
14.2497519099098
 31
0.0
 11
182.9590577693891
 21
14.03132954885329
 31
0.0
 11
182.9689825870144
 21
13.81626739612926
 31
0.0
 11
182.887261616877
 21
13.82145433189186
 31
0.0
 11
182.8004341885365
 21
13.82315538223863
 31
0.0
 11
182.7135395119339
 21
13.82145433189186
 31
0.0
 11
182.6318769706146
 21
13.81626739612926
 31
0.0
 11
182.6417328200378
 21
14.03132954885329
 31
0.0
 11
182.6507427258644
 21
14.2497519099098
 31
0.0
 11
182.6571833838797
 21
14.47163149318766
 31
0.0
 11
182.6593583588023
 21
14.69700357646467
 31
0.0
 11
182.6593583588023
 21
14.74082641595988
 31
0.0
 11
182.6593583588023
 21
14.85038351469792
 31
0.0
 11
182.6593583588023
 21
14.99280774305737
 31
0.0
 11
182.6593583588023
 21
15.13523197141682
 31
0.0
 11
182.6593583588023
 21
15.24478907015486
 31
0.0
 11
182.6593583588023
 21
15.28861190965007
 31
0.0
 11
182.6571833838797
 21
15.51347467001054
 31
0.0
 11
182.6507427258644
 21
15.73406440953872
 31
0.0
  0
SPLINE
  5
AA
102
{ACAD_REACTORS
330
C7
102
}
330
48
100
AcDbEntity
  8
_U_30EC_U_30A4_U_30E4_U_30FC_1
  6
Continuous
 62
     2
100
AcDbSpline
210
0.0
220
0.0
230
1.0
 70
    11
 71
     3
 72
   118
 73
   114
 74
   112
 42
0.000000001
 43
0.0000000001
 44
0.00000001
 40
0.0
 40
0.0
 40
0.0
 40
0.0
 40
0.1054708162973424
 40
0.2466098270051742
 40
0.396591287459108
 40
0.5285525069753659
 40
0.6156245055641552
 40
0.643143410579671
 40
0.7036850037985259
 40
0.7642265984503349
 40
0.7917455052353668
 40
0.9287404319988953
 40
1.106572819087934
 40
1.287544879680919
 40
1.317578308030436
 40
1.399928030857074
 40
1.522968204799849
 40
1.67507298659047
 40
1.844616533180547
 40
2.019973001638611
 40
2.189516548879924
 40
2.341621331585262
 40
2.464661506320398
 40
2.547011229646962
 40
2.577044658167926
 40
2.603797890892997
 40
2.662655002908684
 40
2.721512114949496
 40
2.748265347702675
 40
2.774215307344752
 40
2.845959313407082
 40
2.954338556588281
 40
3.090194227585458
 40
3.244367517100422
 40
3.407699615844182
 40
3.571031714539332
 40
3.725205003920008
 40
3.861060674729508
 40
3.969439917716201
 40
4.041183923628873
 40
4.067133883212867
 40
4.311886746012052
 40
4.547897258335429
 40
4.764747083043886
 40
4.952749679951723
 40
5.045772974195826
 40
5.137862019644882
 40
5.330543169792933
 40
5.553448265243926
 40
5.795083855888081
 40
6.043293412177145
 40
6.285761695541092
 40
6.313902908752576
 40
6.384255941793223
 40
6.475714884766839
 40
6.567173827758902
 40
6.637526860839708
 40
6.665668074074071
 40
6.692018920328044
 40
6.749990782071114
 40
6.807962643790482
 40
6.834313490017957
 40
6.856393084245235
 40
6.913335195649887
 40
6.99119481730258
 40
7.076026942283869
 40
7.153886563725388
 40
7.21082867484497
 40
7.232908268931306
 40
7.258199334923827
 40
7.324875781592477
 40
7.419142481925133
 40
7.527204308842073
 40
7.635266135230651
 40
7.729532834168637
 40
7.79620927929296
 40
7.821500344594906
 40
7.844652988850976
 40
7.899863140541727
 40
7.965759128053836
 40
8.020969279771093
 40
8.044121924046559
 40
8.06935661016062
 40
8.109134395441338
 40
8.13223810019105
 40
8.193147867786415
 40
8.279261678876587
 40
8.377977512673802
 40
8.476693347146584
 40
8.562807160411639
 40
8.623716930826426
 40
8.646820636853377
 40
8.67198879377419
 40
8.734909185828101
 40
8.816705695188816
 40
8.898502204815387
 40
8.961422597377847
 40
8.98659075455096
 40
9.012941600733114
 40
9.070913462380199
 40
9.128885324081695
 40
9.155236170325015
 40
9.180404327929057
 40
9.243324721948131
 40
9.325121234211924
 40
9.406917746637578
 40
9.469838141978034
 40
9.495006288270808
 40
9.517811184378951
 40
9.57219209048695
 40
9.63709833328118
 40
9.69147923951538
 40
9.714284125643418
 40
9.714284125643418
 40
9.714284125643418
 40
9.714284125643418
 10
185.2874469028653
 20
15.26889163187719
 30
0.0
 10
185.3090990569038
 20
15.24111869242811
 30
0.0
 10
185.3597257109474
 20
15.17618054561236
 30
0.0
 10
185.4349383202591
 20
15.06891060312897
 30
0.0
 10
185.5248482274345
 20
14.95377438266626
 30
0.0
 10
185.5709169676674
 20
14.8535704574832
 30
0.0
 10
185.6655825294652
 20
14.78434006814943
 30
0.0
 10
185.6204439320412
 20
14.73771639678273
 30
0.0
 10
185.5947047785789
 20
14.6966030886604
 30
0.0
 10
185.5645196708012
 20
14.66065971727937
 30
0.0
 10
185.5193684730561
 20
14.58579782596092
 30
0.0
 10
185.4710504458562
 20
14.80782524253602
 30
0.0
 10
185.3968539713072
 20
14.8451067733771
 30
0.0
 10
185.2836047324608
 20
15.116102021306
 30
0.0
 10
185.2885133578168
 20
15.00095328446228
 30
0.0
 10
185.2868486556307
 20
14.92836675781628
 30
0.0
 10
185.2876830076713
 20
14.80625588483986
 30
0.0
 10
185.2873609540264
 20
14.6591380081046
 30
0.0
 10
185.2875076912455
 20
14.49307063956557
 30
0.0
 10
185.2872950092723
 20
14.32187554608602
 30
0.0
 10
185.2879497252034
 20
14.15552828635498
 30
0.0
 10
185.2859192461139
 20
14.00935173055693
 30
0.0
 10
185.291346039993
 20
13.8847104747461
 30
0.0
 10
185.2804930868708
 20
13.81718656540626
 30
0.0
 10
185.2956739155555
 20
13.75549061417022
 30
0.0
 10
185.2457895108133
 20
13.76727503897002
 30
0.0
 10
185.2017150342522
 20
13.75943822779969
 30
0.0
 10
185.15823716302
 20
13.76760441372703
 30
0.0
 10
185.1092346786489
 20
13.75538056738468
 30
0.0
 10
185.1218731234824
 20
13.80960667249313
 30
0.0
 10
185.113018296845
 20
13.86936918907557
 30
0.0
 10
185.1175058770314
 20
13.97922029044371
 30
0.0
 10
185.1157960135991
 20
14.11029975405679
 30
0.0
 10
185.1163550915986
 20
14.26198011444328
 30
0.0
 10
185.1161928768694
 20
14.42211074929953
 30
0.0
 10
185.1162269924675
 20
14.58236865674566
 30
0.0
 10
185.1162514960127
 20
14.73370247520439
 30
0.0
 10
185.1161453543224
 20
14.86582156338601
 30
0.0
 10
185.1164299141932
 20
14.97294802533193
 30
0.0
 10
185.1158675547567
 20
15.03808619579473
 30
0.0
 10
185.118076508369
 20
15.16618957858676
 30
0.0
 10
185.0319435998602
 20
14.79097610391574
 30
0.0
 10
184.9555140818499
 20
14.63918193123395
 30
0.0
 10
184.8660040767833
 20
14.47766206446305
 30
0.0
 10
184.7640413217325
 20
14.2047184882017
 30
0.0
 10
184.7187976491038
 20
14.36717346596508
 30
0.0
 10
184.6102355941671
 20
14.45605432058123
 30
0.0
 10
184.7995791751752
 20
14.60549794961408
 30
0.0
 10
184.85653405457
 20
14.79749136974925
 30
0.0
 10
184.9717520993352
 20
15.02899622906757
 30
0.0
 10
184.9940151630132
 20
15.21797259759063
 30
0.0
 10
185.177190515214
 20
15.4945408932593
 30
0.0
 10
185.0538033597552
 20
15.48698978832094
 30
0.0
 10
184.9925684166833
 20
15.48856772366118
 30
0.0
 10
184.9081999617063
 20
15.48882592573672
 30
0.0
 10
184.8204235085965
 20
15.48544845751206
 30
0.0
 10
184.7656768696121
 20
15.4939481498202
 30
0.0
 10
184.7104703026023
 20
15.48048561049788
 30
0.0
 10
184.7222823035534
 20
15.52931442126763
 30
0.0
 10
184.7142496151793
 20
15.57269004896709
 30
0.0
 10
184.7228186104676
 20
15.61509438309572
 30
0.0
 10
184.7102943409156
 20
15.66267796552119
 30
0.0
 10
184.7555101538734
 20
15.65267212995109
 30
0.0
 10
184.8014815562723
 20
15.65894105174062
 30
0.0
 10
184.8777222047709
 20
15.65593561405871
 30
0.0
 10
184.9561296131994
 20
15.65770448278541
 30
0.0
 10
185.0323992648933
 20
15.6546479398166
 30
0.0
 10
185.0783009459474
 20
15.66103971376177
 30
0.0
 10
185.12317339654
 20
15.65093822978896
 30
0.0
 10
185.1105552275634
 20
15.70157201581898
 30
0.0
 10
185.1191936582707
 20
15.7550126188207
 30
0.0
 10
185.1152361595443
 20
15.8486325513168
 30
0.0
 10
185.1162325068335
 20
15.95112606688924
 30
0.0
 10
185.1171927413073
 20
16.05353270248163
 30
0.0
 10
185.1133211458005
 20
16.14735929609321
 30
0.0
 10
185.1217789814364
 20
16.20036542840353
 30
0.0
 10
185.1093075932835
 20
16.25211435651188
 30
0.0
 10
185.154210638985
 20
16.23850747226757
 30
0.0
 10
185.1955083836771
 20
16.24100480320585
 30
0.0
 10
185.259534428105
 20
16.23648060574488
 30
0.0
 10
185.2986111148785
 20
16.22781003043308
 30
0.0
 10
185.3476543498741
 20
16.23515102070687
 30
0.0
 10
185.322508003059
 20
16.19602896051759
 30
0.0
 10
185.2815901333723
 20
16.20563842455806
 30
0.0
 10
185.2910109616604
 20
16.15540148169778
 30
0.0
 10
185.2855647318746
 20
16.1038594563949
 30
0.0
 10
185.2881699601803
 20
16.0195970758452
 30
0.0
 10
185.2870102202154
 20
15.92559135583408
 30
0.0
 10
185.2883591064231
 20
15.83196865395525
 30
0.0
 10
185.2849970101508
 20
15.74679517552223
 30
0.0
 10
185.2920959917769
 20
15.69716856072044
 30
0.0
 10
185.2812569154545
 20
15.64993694969989
 30
0.0
 10
185.3304010225245
 20
15.66201674936851
 30
0.0
 10
185.3794877630147
 20
15.65447393363011
 30
0.0
 10
185.4573714280641
 20
15.65686070361432
 30
0.0
 10
185.5350365172897
 20
15.65899381905415
 30
0.0
 10
185.5845393931354
 20
15.65193391922455
 30
0.0
 10
185.6344594750639
 20
15.66360151936214
 30
0.0
 10
185.622319851688
 20
15.61540235371393
 30
0.0
 10
185.6305838229143
 20
15.57249219801236
 30
0.0
 10
185.6223198650783
 20
15.52958201851384
 30
0.0
 10
185.6344594549855
 20
15.48138288754865
 30
0.0
 10
185.5845395158746
 20
15.4930503447151
 30
0.0
 10
185.5350350651202
 20
15.48599202435046
 30
0.0
 10
185.4573784382973
 20
15.48811665228603
 30
0.0
 10
185.379464386576
 20
15.4905338936576
 30
0.0
 10
185.3304500352716
 20
15.48291848194485
 30
0.0
 10
185.2813246108943
 20
15.49507952557593
 30
0.0
 10
185.2915559988571
 20
15.45073013424158
 30
0.0
 10
185.2856677678053
 20
15.40925436202911
 30
0.0
 10
185.2878788305569
 20
15.34915394315302
 30
0.0
 10
185.2874109346146
 20
15.30225782762889
 30
0.0
 10
185.2874386992913
 20
15.27650146418196
 30
0.0
 10
185.2874469028653
 20
15.26889163187719
 30
0.0
 11
185.2874469028653
 21
15.26889163187719
 31
0.0
 11
185.3516977534484
 21
15.18524999634256
 31
0.0
 11
185.4348258835499
 21
15.07118889748221
 31
0.0
 11
185.5216831568895
 21
14.94891767195723
 31
0.0
 11
185.5971214371872
 21
14.84064565642876
 31
0.0
 11
185.6459925881625
 21
14.7685821875579
 31
0.0
 11
185.6296821285092
 21
14.74641782124399
 31
0.0
 11
185.5937991172719
 21
14.69765621535339
 31
0.0
 11
185.5579161060346
 21
14.64889460946279
 31
0.0
 11
185.5416056463813
 21
14.62673024314888
 31
0.0
 11
185.4763067109445
 21
14.74716139023813
 31
0.0
 11
185.3848434243234
 21
14.89966983670207
 31
0.0
 11
185.2874469028653
 21
15.05219788193142
 31
0.0
 11
185.2874469028653
 21
15.02216445328253
 31
0.0
 11
185.2874469028653
 21
14.93981472956783
 31
0.0
 11
185.2874469028653
 21
14.81677455413528
 31
0.0
 11
185.2874469028653
 21
14.66466977033283
 31
0.0
 11
185.2874469028653
 21
14.49512622150845
 31
0.0
 11
185.2874469028653
 21
14.31976975101009
 31
0.0
 11
185.2874469028653
 21
14.15022620218571
 31
0.0
 11
185.2874469028653
 21
13.99812141838326
 31
0.0
 11
185.2874469028653
 21
13.87508124295071
 31
0.0
 11
185.2874469028653
 21
13.79273151923601
 31
0.0
 11
185.2874469028653
 21
13.76269809058712
 31
0.0
 11
185.2606936700409
 21
13.76269809058712
 31
0.0
 11
185.2018365578272
 21
13.76269809058712
 31
0.0
 11
185.1429794456134
 21
13.76269809058712
 31
0.0
 11
185.116226212789
 21
13.76269809058712
 31
0.0
 11
185.116226212789
 21
13.7886480503125
 31
0.0
 11
185.116226212789
 21
13.86039205661208
 31
0.0
 11
185.116226212789
 21
13.96877130017102
 31
0.0
 11
185.116226212789
 21
14.10462697167447
 31
0.0
 11
185.116226212789
 21
14.25880026180761
 31
0.0
 11
185.116226212789
 21
14.42213236125558
 31
0.0
 11
185.116226212789
 21
14.58546446070356
 31
0.0
 11
185.116226212789
 21
14.7396377508367
 31
0.0
 11
185.116226212789
 21
14.87549342234015
 31
0.0
 11
185.116226212789
 21
14.98387266589909
 31
0.0
 11
185.116226212789
 21
15.05561667219867
 31
0.0
 11
185.116226212789
 21
15.08156663192405
 31
0.0
 11
185.0379865861721
 21
14.84965603302372
 31
0.0
 11
184.9497110789303
 21
14.63077616328678
 31
0.0
 11
184.8544106930045
 21
14.43598991333546
 31
0.0
 11
184.7550964303355
 21
14.27636017379201
 31
0.0
 11
184.7109198342405
 21
14.35822446196598
 31
0.0
 11
184.658805738348
 21
14.43414885430811
 31
0.0
 11
184.7627302590299
 21
14.59640087926757
 31
0.0
 11
184.8629319864735
 21
14.79551465421781
 31
0.0
 11
184.9550446607901
 21
15.01890447916196
 31
0.0
 11
185.0347020220912
 21
15.25398465410319
 31
0.0
 11
185.097537810488
 21
15.48816947904465
 31
0.0
 11
185.0693965972142
 21
15.48816947904465
 31
0.0
 11
184.9990435640296
 21
15.48816947904465
 31
0.0
 11
184.9075846208897
 21
15.48816947904465
 31
0.0
 11
184.8161256777499
 21
15.48816947904465
 31
0.0
 11
184.7457726445653
 21
15.48816947904465
 31
0.0
 11
184.7176314312915
 21
15.48816947904465
 31
0.0
 11
184.7176314312915
 21
15.51452032539222
 31
0.0
 11
184.7176314312915
 21
15.57249218735688
 31
0.0
 11
184.7176314312915
 21
15.63046404932155
 31
0.0
 11
184.7176314312915
 21
15.65681489566912
 31
0.0
 11
184.7397110256018
 21
15.65681489566912
 31
0.0
 11
184.7966531372443
 21
15.65681489566912
 31
0.0
 11
184.8745127592861
 21
15.65681489566912
 31
0.0
 11
184.9593448847944
 21
15.65681489566912
 31
0.0
 11
185.0372045068361
 21
15.65681489566912
 31
0.0
 11
185.0941466184786
 21
15.65681489566912
 31
0.0
 11
185.116226212789
 21
15.65681489566912
 31
0.0
 11
185.116226212789
 21
15.68210596174353
 31
0.0
 11
185.116226212789
 21
15.74878240866697
 31
0.0
 11
185.116226212789
 21
15.84304910948977
 31
0.0
 11
185.116226212789
 21
15.95111093726224
 31
0.0
 11
185.116226212789
 21
16.05917276503471
 31
0.0
 11
185.116226212789
 21
16.15343946585751
 31
0.0
 11
185.116226212789
 21
16.22011591278095
 31
0.0
 11
185.116226212789
 21
16.24540697885536
 31
0.0
 11
185.1393181988665
 21
16.243732131078
 31
0.0
 11
185.1943837041284
 21
16.23973826330122
 31
0.0
 11
185.2601070491183
 21
16.23497138885796
 31
0.0
 11
185.3151725543801
 21
16.23097752108117
 31
0.0
 11
185.3382645404577
 21
16.22930267330381
 31
0.0
 11
185.3249012644361
 21
16.20789677921191
 31
0.0
 11
185.2874469028653
 21
16.19450114553469
 31
0.0
 11
185.2874469028653
 21
16.17139743948578
 31
0.0
 11
185.2874469028653
 21
16.11048766899319
 31
0.0
 11
185.2874469028653
 21
16.02437385553816
 31
0.0
 11
185.2874469028653
 21
15.9256580206019
 31
0.0
 11
185.2874469028653
 21
15.82694218566565
 31
0.0
 11
185.2874469028653
 21
15.74082837221061
 31
0.0
 11
185.2874469028653
 21
15.67991860171803
 31
0.0
 11
185.2874469028653
 21
15.65681489566912
 31
0.0
 11
185.3126150604809
 21
15.65681489566912
 31
0.0
 11
185.3755354545199
 21
15.65681489566912
 31
0.0
 11
185.4573319667706
 21
15.65681489566912
 31
0.0
 11
185.5391284790212
 21
15.65681489566912
 31
0.0
 11
185.6020488730602
 21
15.65681489566912
 31
0.0
 11
185.6272170306758
 21
15.65681489566912
 31
0.0
 11
185.6272170306758
 21
15.63046404932155
 31
0.0
 11
185.6272170306758
 21
15.57249218735689
 31
0.0
 11
185.6272170306758
 21
15.51452032539222
 31
0.0
 11
185.6272170306758
 21
15.48816947904465
 31
0.0
 11
185.6020488730602
 21
15.48816947904465
 31
0.0
 11
185.5391284790212
 21
15.48816947904465
 31
0.0
 11
185.4573319667705
 21
15.48816947904465
 31
0.0
 11
185.3755354545199
 21
15.48816947904465
 31
0.0
 11
185.3126150604809
 21
15.48816947904465
 31
0.0
 11
185.2874469028653
 21
15.48816947904465
 31
0.0
 11
185.2874469028653
 21
15.46536458293923
 31
0.0
 11
185.2874469028653
 21
15.4109836768417
 31
0.0
 11
185.2874469028653
 21
15.34607743408013
 31
0.0
 11
185.2874469028653
 21
15.29169652798261
 31
0.0
 11
185.2874469028653
 21
15.26889163187719
 31
0.0
  0
SPLINE
  5
AB
102
{ACAD_REACTORS
330
C8
102
}
330
48
100
AcDbEntity
  8
_U_30EC_U_30A4_U_30E4_U_30FC_1
  6
Continuous
 62
     2
100
AcDbSpline
210
0.0
220
0.0
230
1.0
 70
    11
 71
     3
 72
    91
 73
    87
 74
    85
 42
0.000000001
 43
0.0000000001
 44
0.00000001
 40
0.0
 40
0.0
 40
0.0
 40
0.0
 40
0.0345987051695434
 40
0.1258134969461085
 40
0.2547723404888418
 40
0.4026032099153556
 40
0.5504340793415852
 40
0.6793929228835227
 40
0.7706077146570183
 40
0.8052064287779788
 40
1.124852390615166
 40
1.427402236308759
 40
1.7063566274534
 40
1.955541417875083
 40
2.169485938566227
 40
2.344350786664684
 40
2.480568411561832
 40
2.590440557428855
 40
2.649189927150984
 40
2.749320643306188
 40
2.912632739879893
 40
3.147745656000092
 40
3.244827496384874
 40
3.338490056946513
 40
3.583815413206938
 40
3.761423943238291
 40
3.886956104362442
 40
3.985855451886625
 40
4.091766255337482
 40
4.250186473811702
 40
4.422734315084369
 40
4.628285684838446
 40
4.872093227758288
 40
5.152549652145392
 40
5.464967135837371
 40
5.803201477852288
 40
6.160362988813763
 40
6.193449448275818
 40
6.284170385501473
 40
6.419718138764343
 40
6.587285046385593
 40
6.774063446723507
 40
6.96724567811349
 40
7.154024078817476
 40
7.321590987025862
 40
7.45713874089022
 40
7.547859678555956
 40
7.580946138182516
 40
7.608533084714566
 40
7.669224367077544
 40
7.729915649429759
 40
7.757502595949812
 40
7.790278062553265
 40
7.880146277430764
 40
8.014419963180199
 40
8.1804118423977
 40
8.36543463767914
 40
8.556801071622413
 40
8.741823866830497
 40
8.907815745916007
 40
9.042089431507161
 40
9.131957646249287
 40
9.164733112796863
 40
9.415425063139788
 40
9.667986180958243
 40
9.69416980746241
 40
9.756607686047369
 40
9.831130315322175
 40
9.89356819389964
 40
9.919751820398456
 40
9.950967964690284
 40
9.996421631210394
 40
10.22087981037428
 40
10.44341866197517
 40
10.47847970788829
 40
10.57091337438727
 40
10.70159545461204
 40
10.85140174170332
 40
11.00120802880452
 40
11.13189010907357
 40
11.22432377582982
 40
11.25938480938929
 40
11.28697175596117
 40
11.34766303835891
 40
11.40835432042041
 40
11.43594125892076
 40
11.43594125892076
 40
11.43594125892076
 40
11.43594125892076
 10
190.0818114333288
 20
15.55242795125077
 30
0.0
 10
190.070278584494
 20
15.55242790287916
 30
0.0
 10
190.0283409444997
 20
15.55242773704163
 30
0.0
 10
189.9434129719025
 20
15.55243125800909
 30
0.0
 10
189.8207688553128
 20
15.55240926435879
 30
0.0
 10
189.6791206916992
 20
15.55250801177054
 30
0.0
 10
189.537975369849
 20
15.55214686232422
 30
0.0
 10
189.4141351317904
 20
15.55321883609088
 30
0.0
 10
189.3317217825381
 20
15.55092249091268
 30
0.0
 10
189.1727791229692
 20
15.56048569373419
 30
0.0
 10
189.3503402353376
 20
15.1978539431137
 30
0.0
 10
189.3379739205452
 20
14.95243127723114
 30
0.0
 10
189.4064519473864
 20
14.66862501324835
 30
0.0
 10
189.469302432097
 20
14.43250999939035
 30
0.0
 10
189.5452253431729
 20
14.2332674039613
 30
0.0
 10
189.6303189577016
 20
14.07745347451373
 30
0.0
 10
189.7244607592935
 20
13.97657857781393
 30
0.0
 10
189.8282648207728
 20
13.92465852638965
 30
0.0
 10
189.9125872030773
 20
13.97606484379618
 30
0.0
 10
189.9351322179451
 20
14.09144544037518
 30
0.0
 10
189.9745730975371
 20
14.21885149702378
 30
0.0
 10
189.9202919734942
 20
14.5362232808676
 30
0.0
 10
190.0451218072472
 20
14.38982180140899
 30
0.0
 10
190.2019291513602
 20
14.35795300331178
 30
0.0
 10
190.0947720007057
 20
14.12421357767627
 30
0.0
 10
190.0808711209866
 20
13.95972776583658
 30
0.0
 10
190.0234709467225
 20
13.83130869122481
 30
0.0
 10
189.9335020145008
 20
13.76018802352828
 30
0.0
 10
189.8095274657877
 20
13.74432324142253
 30
0.0
 10
189.663427319686
 20
13.77993797554172
 30
0.0
 10
189.5243894320283
 20
13.90000570500275
 30
0.0
 10
189.4102003962143
 20
14.07435682550321
 30
0.0
 10
189.3146141301486
 20
14.29946603111239
 30
0.0
 10
189.2318652572626
 20
14.56388246006443
 30
0.0
 10
189.1807179256411
 20
14.88187933098543
 30
0.0
 10
189.0770189207337
 20
15.15543728488911
 30
0.0
 10
189.2042841208523
 20
15.56005818612869
 30
0.0
 10
189.0357890623017
 20
15.55112367849678
 30
0.0
 10
188.9511995787077
 20
15.55315961418363
 30
0.0
 10
188.8189876387627
 20
15.55213937388406
 30
0.0
 10
188.6560505094104
 20
15.55253230318429
 30
0.0
 10
188.4733759170532
 20
15.55235696313368
 30
0.0
 10
188.2847057373383
 20
15.55260105307468
 30
0.0
 10
188.1014469020189
 20
15.55185657906236
 30
0.0
 10
187.9404746832718
 20
15.55416360522425
 30
0.0
 10
187.8029808335276
 20
15.54799804883663
 30
0.0
 10
187.728959037231
 20
15.56032838458211
 30
0.0
 10
187.6613215186856
 20
15.54329323723556
 30
0.0
 10
187.673237371927
 20
15.59524438447527
 30
0.0
 10
187.6655677285693
 20
15.64071424966528
 30
0.0
 10
187.6732592225116
 20
15.68614453703705
 30
0.0
 10
187.6613141797761
 20
15.73802395984569
 30
0.0
 10
187.7283588305867
 20
15.72119143490263
 30
0.0
 10
187.8017375665676
 20
15.7333540909267
 30
0.0
 10
187.9379128305272
 20
15.72727231074958
 30
0.0
 10
188.0973811801511
 20
15.72954834315056
 30
0.0
 10
188.2789173085835
 20
15.72881233998962
 30
0.0
 10
188.4658034862178
 20
15.72905954196132
 30
0.0
 10
188.6468012316834
 20
15.72886400799253
 30
0.0
 10
188.8080802578877
 20
15.72932234714838
 30
0.0
 10
188.9393882124886
 20
15.72812673751205
 30
0.0
 10
189.0225051322595
 20
15.73051347319741
 30
0.0
 10
189.1556236547813
 20
15.72230605725464
 30
0.0
 10
189.0645893502658
 20
15.97752868952654
 30
0.0
 10
188.978963307442
 20
16.24164358328245
 30
0.0
 10
189.0990589003455
 20
16.22904442969164
 30
0.0
 10
189.1514264948544
 20
16.22694235763074
 30
0.0
 10
189.2214497569715
 20
16.22535399889654
 30
0.0
 10
189.2671922337817
 20
16.21602567538113
 30
0.0
 10
189.3220812646933
 20
16.22545966915425
 30
0.0
 10
189.296357478568
 20
16.17733028655172
 30
0.0
 10
189.1825397571453
 20
16.18266829744167
 30
0.0
 10
189.3159346621135
 20
15.95449174576775
 30
0.0
 10
189.194365873547
 20
15.72156856595922
 30
0.0
 10
189.3223188769412
 20
15.73087258884437
 30
0.0
 10
189.4049048406459
 20
15.72801001754679
 30
0.0
 10
189.5307214850823
 20
15.72923437412301
 30
0.0
 10
189.6741469838057
 20
15.72932431888963
 30
0.0
 10
189.8157420951727
 20
15.72746163183853
 30
0.0
 10
189.9459127249967
 20
15.73333075937161
 30
0.0
 10
190.019345228619
 20
15.72070340823203
 30
0.0
 10
190.0891112922095
 20
15.73877563110411
 30
0.0
 10
190.0775772605395
 20
15.68612850546326
 30
0.0
 10
190.0833184346681
 20
15.64221317686547
 30
0.0
 10
190.081661577091
 20
15.59089982676549
 30
0.0
 10
190.0817757561669
 20
15.56158792021635
 30
0.0
 10
190.0818114333288
 20
15.55242795125077
 30
0.0
 11
190.0818114333288
 21
15.55242795125077
 31
0.0
 11
190.047212719205
 21
15.55242795125077
 31
0.0
 11
189.955997927424
 21
15.55242795125077
 31
0.0
 11
189.8270390838716
 21
15.55242795125077
 31
0.0
 11
189.6792082144335
 21
15.55242795125077
 31
0.0
 11
189.5313773449954
 21
15.55242795125077
 31
0.0
 11
189.402418501443
 21
15.55242795125077
 31
0.0
 11
189.311203709662
 21
15.55242795125077
 31
0.0
 11
189.2766049955382
 21
15.55242795125077
 31
0.0
 11
189.3083140497693
 21
15.23435864930121
 31
0.0
 11
189.3527866656865
 21
14.9350952278808
 31
0.0
 11
189.4092389118319
 21
14.66191269512576
 31
0.0
 11
189.4768868567478
 21
14.42208605917227
 31
0.0
 11
189.5549465689761
 21
14.22289032815655
 31
0.0
 11
189.6426341170591
 21
14.07160051021477
 31
0.0
 11
189.7391655695388
 21
13.97549161348317
 31
0.0
 11
189.8437569949575
 21
13.94183864609792
 31
0.0
 11
189.8943077302785
 21
13.97177376978835
 31
0.0
 11
189.9310588991551
 21
14.06491619815047
 31
0.0
 11
189.9562640977527
 21
14.22627151712055
 31
0.0
 11
189.9721769222368
 21
14.46084531263482
 31
0.0
 11
190.0494082682582
 21
14.40202182306617
 31
0.0
 11
190.1327184184384
 21
14.3592188543269
 31
0.0
 11
190.1066365811216
 21
14.1152838866101
 31
0.0
 11
190.0673317805105
 21
13.94207902887562
 31
0.0
 11
190.0105702596765
 21
13.83011272445917
 31
0.0
 11
189.932118261691
 21
13.76989341669645
 31
0.0
 11
189.8277420296256
 21
13.75192954892317
 31
0.0
 11
189.6738595065096
 21
13.78957440012361
 31
0.0
 11
189.5388902376747
 21
13.89707348877403
 31
0.0
 11
189.4221739916162
 21
14.06627361744808
 31
0.0
 11
189.3230505368299
 21
14.28902158871943
 31
0.0
 11
189.2408596418113
 21
14.55716420516172
 31
0.0
 11
189.1749410750559
 21
14.8625482693486
 31
0.0
 11
189.1246346050593
 21
15.19702058385373
 31
0.0
 11
189.0892800003171
 21
15.55242795125077
 31
0.0
 11
189.0561935405844
 21
15.55242795125077
 31
0.0
 11
188.9654726026075
 21
15.55242795125077
 31
0.0
 11
188.8299248482185
 21
15.55242795125077
 31
0.0
 11
188.6623579392495
 21
15.55242795125077
 31
0.0
 11
188.4755795375324
 21
15.55242795125077
 31
0.0
 11
188.2823973048992
 21
15.55242795125077
 31
0.0
 11
188.0956189031822
 21
15.55242795125077
 31
0.0
 11
187.9280519942131
 21
15.55242795125077
 31
0.0
 11
187.7925042398241
 21
15.55242795125077
 31
0.0
 11
187.7017833018473
 21
15.55242795125077
 31
0.0
 11
187.6686968421145
 21
15.55242795125077
 31
0.0
 11
187.6686968421145
 21
15.58001489785846
 31
0.0
 11
187.6686968421145
 21
15.64070618039537
 31
0.0
 11
187.6686968421145
 21
15.70139746293228
 31
0.0
 11
187.6686968421145
 21
15.72898440953997
 31
0.0
 11
187.7014723087631
 21
15.72898440953997
 31
0.0
 11
187.7913405237673
 21
15.72898440953997
 31
0.0
 11
187.9256142097148
 21
15.72898440953997
 31
0.0
 11
188.0916060891932
 21
15.72898440953997
 31
0.0
 11
188.2766288847901
 21
15.72898440953997
 31
0.0
 11
188.4679953190931
 21
15.72898440953997
 31
0.0
 11
188.65301811469
 21
15.72898440953997
 31
0.0
 11
188.8190099941684
 21
15.72898440953997
 31
0.0
 11
188.9532836801159
 21
15.72898440953997
 31
0.0
 11
189.0431518951201
 21
15.72898440953997
 31
0.0
 11
189.0759273617687
 21
15.72898440953997
 31
0.0
 11
189.0659183950103
 21
15.97947647544958
 31
0.0
 11
189.0599112510663
 21
16.2319661455253
 31
0.0
 11
189.0860575870659
 21
16.23056921608121
 31
0.0
 11
189.1484065421419
 21
16.2272380766376
 31
0.0
 11
189.2228230369099
 21
16.22326220052748
 31
0.0
 11
189.2851719919859
 21
16.21993106108388
 31
0.0
 11
189.3113183279855
 21
16.21853413163978
 31
0.0
 11
189.298293111304
 21
16.19016528616079
 31
0.0
 11
189.2551649266405
 21
16.17581274276164
 31
0.0
 11
189.2574991961821
 21
15.95136670115108
 31
0.0
 11
189.2658452735902
 21
15.72898440953997
 31
0.0
 11
189.3009063195165
 21
15.72898440953997
 31
0.0
 11
189.3933399860493
 21
15.72898440953997
 31
0.0
 11
189.52402206632
 21
15.72898440953997
 31
0.0
 11
189.6738283534595
 21
15.72898440953997
 31
0.0
 11
189.823634640599
 21
15.72898440953997
 31
0.0
 11
189.9543167208697
 21
15.72898440953997
 31
0.0
 11
190.0467503874025
 21
15.72898440953997
 31
0.0
 11
190.0818114333288
 21
15.72898440953997
 31
0.0
 11
190.0818114333288
 21
15.70139746293228
 31
0.0
 11
190.0818114333288
 21
15.64070618039537
 31
0.0
 11
190.0818114333288
 21
15.58001489785846
 31
0.0
 11
190.0818114333288
 21
15.55242795125077
 31
0.0
  0
SPLINE
  5
AC
102
{ACAD_REACTORS
330
C9
102
}
330
48
100
AcDbEntity
  8
_U_30EC_U_30A4_U_30E4_U_30FC_1
  6
Continuous
 62
     2
100
AcDbSpline
210
0.0
220
0.0
230
1.0
 70
    11
 71
     3
 72
    75
 73
    71
 74
    69
 42
0.000000001
 43
0.0000000001
 44
0.00000001
 40
0.0
 40
0.0
 40
0.0
 40
0.0
 40
0.0342546099129691
 40
0.1245622414432346
 40
0.2522385480897483
 40
0.3985991922940609
 40
0.544959836498075
 40
0.6726361431438745
 40
0.7629437746736853
 40
0.7971983935297866
 40
1.101723623449731
 40
1.40859124403668
 40
1.433332471690387
 40
1.487763172450177
 40
1.542193873082005
 40
1.566935100592553
 40
1.923523931821811
 40
2.271755704953611
 40
2.590579755100825
 40
2.858943305581082
 40
2.88912033930911
 40
2.918305855191057
 40
2.941366645531178
 40
2.996357760973069
 40
3.061992318140613
 40
3.116983433626806
 40
3.140044223997484
 40
3.411273122936377
 40
3.732441619740987
 40
3.761068217532685
 40
3.837787499630247
 40
3.948858699125886
 40
4.080541049104262
 40
4.219093782625645
 40
4.350776132722196
 40
4.461847332405531
 40
4.538566614678262
 40
4.56719321254451
 40
4.594907573998768
 40
4.666381453557307
 40
4.764111044010889
 40
4.870592538125692
 40
4.968322128642114
 40
5.039796008286771
 40
5.06751036978423
 40
5.094263603185443
 40
5.153120716668081
 40
5.211977830150529
 40
5.238731063551533
 40
5.272290535138772
 40
5.363380529444633
 40
5.497618415781311
 40
5.660621563453553
 40
5.838007341749254
 40
6.015393119910605
 40
6.178396267038231
 40
6.312634151842182
 40
6.403724143059172
 40
6.437283612672267
 40
6.464036846260884
 40
6.522893960004501
 40
6.581751071483767
 40
6.608504301590713
 40
6.637253941280889
 40
6.711397748902741
 40
6.812778057283353
 40
6.92323719924913
 40
7.02461750762383
 40
7.098761315207511
 40
7.127510946007462
 40
7.127510946007462
 40
7.127510946007462
 40
7.127510946007462
 10
188.4418622390563
 20
14.95849128473264
 30
0.0
 10
188.4418622819705
 20
14.9470731340872
 30
0.0
 10
188.4418624481127
 20
14.90555257842629
 30
0.0
 10
188.4418593081786
 20
14.82146922003772
 30
0.0
 10
188.4418788279798
 20
14.70004497322328
 30
0.0
 10
188.4417912187736
 20
14.55980494047449
 30
0.0
 10
188.4421116235229
 20
14.42006556794576
 30
0.0
 10
188.4411605909738
 20
14.29745038894929
 30
0.0
 10
188.4431978595966
 20
14.21587074438043
 30
0.0
 10
188.4349433178744
 20
14.06271267077696
 30
0.0
 10
188.7430797940901
 20
14.22560236054716
 30
0.0
 10
189.0350645173733
 20
14.39482938688
 30
0.0
 10
189.0408354448707
 20
14.25973235781912
 30
0.0
 10
189.0455471719889
 20
14.21617221160444
 30
0.0
 10
189.0482535411917
 20
14.17211249350545
 30
0.0
 10
189.0672545672957
 20
14.02272590363136
 30
0.0
 10
188.6583942247302
 20
14.08681172241261
 30
0.0
 10
188.3793710348832
 20
13.97296341411018
 30
0.0
 10
188.1018081587165
 20
13.87364095811142
 30
0.0
 10
187.8099837184401
 20
13.91630687596357
 30
0.0
 10
187.7869144678657
 20
13.81321679744541
 30
0.0
 10
187.7537474383333
 20
13.78691091244469
 30
0.0
 10
187.7480653962738
 20
13.83455309036304
 30
0.0
 10
187.7284214559044
 20
13.87180336115069
 30
0.0
 10
187.7095089485623
 20
13.93007387847564
 30
0.0
 10
187.6942849867707
 20
13.97385201007804
 30
0.0
 10
187.6477246372935
 20
14.08759421046309
 30
0.0
 10
187.9890897312449
 20
14.05576301120047
 30
0.0
 10
188.2679649367386
 20
14.02161435106481
 30
0.0
 10
188.2617753034906
 20
14.16913976479652
 30
0.0
 10
188.2630935452772
 20
14.24013150908832
 30
0.0
 10
188.2624831689947
 20
14.34719767958661
 30
0.0
 10
188.2625871570725
 20
14.47398529785998
 30
0.0
 10
188.2629987964054
 20
14.6084924349605
 30
0.0
 10
188.2613907841968
 20
14.73395549951184
 30
0.0
 10
188.2659902567925
 20
14.84505246719117
 30
0.0
 10
188.2564186502208
 20
14.90761886800689
 30
0.0
 10
188.270400178369
 20
14.96595388295001
 30
0.0
 10
188.2147384386703
 20
14.95289710582238
 30
0.0
 10
188.1575655197821
 20
14.96136307749499
 30
0.0
 10
188.0616048925646
 20
14.95729976080636
 30
0.0
 10
187.9633767522821
 20
14.95970889852475
 30
0.0
 10
187.8672582457559
 20
14.95551600613387
 30
0.0
 10
187.8104648525812
 20
14.96429346441163
 30
0.0
 10
187.7550356873384
 20
14.9509493685012
 30
0.0
 10
187.7670679427917
 20
15.00036910959257
 30
0.0
 10
187.7592003173938
 20
15.04393988030396
 30
0.0
 10
187.7666295563829
 20
15.08830469118525
 30
0.0
 10
187.7551930564144
 20
15.13902297763991
 30
0.0
 10
187.8232102370133
 20
15.12162460757743
 30
0.0
 10
187.8968496879747
 20
15.13417450237189
 30
0.0
 10
188.0325064058211
 20
15.12799677011097
 30
0.0
 10
188.1884909024525
 20
15.13029203093084
 30
0.0
 10
188.3615926358143
 20
15.1294096826253
 30
0.0
 10
188.5346942964181
 20
15.13029207142408
 30
0.0
 10
188.6906789811216
 20
15.1279966295555
 30
0.0
 10
188.8263351889797
 20
15.13417486262432
 30
0.0
 10
188.8999756705652
 20
15.12162394218335
 30
0.0
 10
188.9679914174724
 20
15.13902373012142
 30
0.0
 10
188.9565590885922
 20
15.08830130414555
 30
0.0
 10
188.9639539458298
 20
15.04397060811108
 30
0.0
 10
188.9562039912271
 20
15.00028307550196
 30
0.0
 10
188.9681203741877
 20
14.95063590098476
 30
0.0
 10
188.9108170223616
 20
14.96461411338425
 30
0.0
 10
188.8520145789772
 20
14.95539755673254
 30
0.0
 10
188.7525293633199
 20
14.95952268164929
 30
0.0
 10
188.6494280098348
 20
14.95822760025887
 30
0.0
 10
188.5537846354573
 20
14.95854077077641
 30
0.0
 10
188.4857467971616
 20
14.95848776697145
 30
0.0
 10
188.4514462213442
 20
14.95849051871656
 30
0.0
 10
188.4418622390563
 20
14.95849128473264
 30
0.0
 11
188.4418622390563
 21
14.95849128473264
 31
0.0
 11
188.4418622390563
 21
14.92423666587185
 31
0.0
 11
188.4418622390563
 21
14.83392903432975
 31
0.0
 11
188.4418622390563
 21
14.70625272766679
 31
0.0
 11
188.4418622390563
 21
14.5598920834434
 31
0.0
 11
188.4418622390563
 21
14.41353143922001
 31
0.0
 11
188.4418622390563
 21
14.28585513255705
 31
0.0
 11
188.4418622390563
 21
14.19554750101495
 31
0.0
 11
188.4418622390563
 21
14.16129288215416
 31
0.0
 11
188.7391932644567
 21
14.22709475713768
 31
0.0
 11
189.0384623627244
 21
14.29496038212072
 31
0.0
 11
189.0405487124976
 21
14.27030727882828
 31
0.0
 11
189.0451386819985
 21
14.2160704515849
 31
0.0
 11
189.0497286514995
 21
14.16183362434152
 31
0.0
 11
189.0518150012727
 21
14.13718052104908
 31
0.0
 11
188.705639688924
 21
14.05163370140898
 31
0.0
 11
188.3669653138838
 21
13.97060877629901
 31
0.0
 11
188.0563731516688
 21
13.89862764024929
 31
0.0
 11
187.7944444777955
 21
13.84021218778992
 31
0.0
 11
187.7817515029292
 21
13.81283442738013
 31
0.0
 11
187.7569794787513
 21
13.79740260446735
 31
0.0
 11
187.7491867589501
 21
13.81910683390636
 31
0.0
 11
187.7306041194242
 21
13.87086307333786
 31
0.0
 11
187.70842483999
 21
13.93263664943351
 31
0.0
 11
187.689842200464
 21
13.984392888865
 31
0.0
 11
187.6820494806628
 21
14.00609711830401
 31
0.0
 11
187.9482776335931
 21
14.05794001759665
 31
0.0
 11
188.2626334936288
 21
14.1237396877191
 31
0.0
 11
188.2626334936288
 21
14.15236628569624
 31
0.0
 11
188.2626334936288
 21
14.22908556827499
 31
0.0
 11
188.2626334936288
 21
14.34015676842631
 31
0.0
 11
188.2626334936288
 21
14.47183911912118
 31
0.0
 11
188.2626334936288
 21
14.61039185333056
 31
0.0
 11
188.2626334936288
 21
14.74207420402542
 31
0.0
 11
188.2626334936288
 21
14.85314540417675
 31
0.0
 11
188.2626334936288
 21
14.92986468675549
 31
0.0
 11
188.2626334936288
 21
14.95849128473264
 31
0.0
 11
188.2349191321107
 21
14.95849128473264
 31
0.0
 11
188.1634452524063
 21
14.95849128473264
 31
0.0
 11
188.06571566179
 21
14.95849128473264
 31
0.0
 11
187.9592341675364
 21
14.95849128473264
 31
0.0
 11
187.86150457692
 21
14.95849128473264
 31
0.0
 11
187.7900306972156
 21
14.95849128473264
 31
0.0
 11
187.7623163356975
 21
14.95849128473264
 31
0.0
 11
187.7623163356975
 21
14.98524451823289
 31
0.0
 11
187.7623163356975
 21
15.04410163193344
 31
0.0
 11
187.7623163356975
 21
15.10295874563399
 31
0.0
 11
187.7623163356975
 21
15.12971197913424
 31
0.0
 11
187.7958758072874
 21
15.12971197913424
 31
0.0
 11
187.8869658016031
 21
15.12971197913424
 31
0.0
 11
188.0212036879629
 21
15.12971197913424
 31
0.0
 11
188.1842068356856
 21
15.12971197913424
 31
0.0
 11
188.3615926140897
 21
15.12971197913424
 31
0.0
 11
188.5389783924938
 21
15.12971197913424
 31
0.0
 11
188.7019815402164
 21
15.12971197913424
 31
0.0
 11
188.8362194265763
 21
15.12971197913424
 31
0.0
 11
188.9273094208918
 21
15.12971197913424
 31
0.0
 11
188.9608688924818
 21
15.12971197913424
 31
0.0
 11
188.9608688924818
 21
15.10295874563399
 31
0.0
 11
188.9608688924818
 21
15.04410163193344
 31
0.0
 11
188.9608688924818
 21
14.98524451823289
 31
0.0
 11
188.9608688924818
 21
14.95849128473264
 31
0.0
 11
188.9321192527877
 21
14.95849128473264
 31
0.0
 11
188.8579754451555
 21
14.95849128473264
 31
0.0
 11
188.7565951367604
 21
14.95849128473264
 31
0.0
 11
188.6461359947777
 21
14.95849128473264
 31
0.0
 11
188.5447556863826
 21
14.95849128473264
 31
0.0
 11
188.4706118787504
 21
14.95849128473264
 31
0.0
 11
188.4418622390563
 21
14.95849128473264
 31
0.0
  0
SPLINE
  5
AD
102
{ACAD_REACTORS
330
CA
102
}
330
48
100
AcDbEntity
  8
_U_30EC_U_30A4_U_30E4_U_30FC_1
  6
Continuous
 62
     2
100
AcDbSpline
210
0.0
220
0.0
230
1.0
 70
    11
 71
     3
 72
    15
 73
    11
 74
     9
 42
0.000000001
 43
0.0000000001
 44
0.00000001
 40
0.0
 40
0.0
 40
0.0
 40
0.0
 40
0.2785535985096574
 40
0.5215624748198874
 40
0.6076917376040509
 40
0.6938210001741243
 40
0.9405019146455421
 40
1.221691403489131
 40
1.30047187708105
 40
1.379252341684817
 40
1.379252341684817
 40
1.379252341684817
 40
1.379252341684817
 10
189.5681493630999
 20
16.22930267330381
 30
0.0
 10
189.6296017794178
 20
16.17691646592715
 30
0.0
 10
189.7446649974113
 20
16.07882876798222
 30
0.0
 10
190.0397348497243
 20
15.92889785897222
 30
0.0
 10
189.9025147631856
 20
15.84343227515014
 30
0.0
 10
189.8041227843779
 20
15.71085785201554
 30
0.0
 10
189.7130033590649
 20
16.01616985781414
 30
0.0
 10
189.3636839480655
 20
16.07967869465375
 30
0.0
 10
189.511925837657
 20
16.17896509880877
 30
0.0
 10
189.5494081874236
 20
16.21252348402382
 30
0.0
 10
189.5681493630999
 20
16.22930267330381
 30
0.0
 11
189.5681493630999
 21
16.22930267330381
 31
0.0
 11
189.7919222440596
 21
16.06341774278972
 31
0.0
 11
189.9695046306383
 21
15.89753281227564
 31
0.0
 11
189.9066308127979
 21
15.83866743034592
 31
0.0
 11
189.8437569949575
 21
15.7798020484162
 31
0.0
 11
189.6688535117724
 21
15.95375677059491
 31
0.0
 11
189.447825685614
 21
16.12757920110702
 31
0.0
 11
189.507987524357
 21
16.17844093720542
 31
0.0
 11
189.5681493630999
 21
16.22930267330381
 31
0.0
  0
SPLINE
  5
AE
102
{ACAD_REACTORS
330
CB
102
}
330
48
100
AcDbEntity
  8
_U_30EC_U_30A4_U_30E4_U_30FC_1
  6
Continuous
 62
     2
100
AcDbSpline
210
0.0
220
0.0
230
1.0
 70
    11
 71
     3
 72
    35
 73
    31
 74
    29
 42
0.000000001
 43
0.0000000001
 44
0.00000001
 40
0.0
 40
0.0
 40
0.0
 40
0.0
 40
0.0335231036620288
 40
0.0713218571712221
 40
0.4278866681487413
 40
0.811686584196466
 40
1.198190238000147
 40
1.561379546812776
 40
1.659983174622178
 40
1.759315573807286
 40
2.132719617231195
 40
2.525233363588924
 40
2.910815397779833
 40
3.265244364303436
 40
3.592606723582119
 40
3.964386154604064
 40
4.359942131737933
 40
4.758154118639492
 40
4.843846538700075
 40
4.936650065543358
 40
5.256616602537438
 40
5.581707404416172
 40
5.89971915830827
 40
6.198363494280873
 40
6.466301046615905
 40
6.49389531153717
 40
6.559697020196992
 40
6.638234543442538
 40
6.704036252154291
 40
6.731630508423068
 40
6.731630508423068
 40
6.731630508423068
 40
6.731630508423068
 10
191.9736010568668
 20
16.23463843719134
 30
0.0
 10
191.9676006097788
 20
16.22480690542323
 30
0.0
 10
191.9548344099156
 20
16.20388988579795
 30
0.0
 10
191.7949362006553
 20
16.17127126532703
 30
0.0
 10
192.2322025842336
 20
15.88206680336696
 30
0.0
 10
192.4345394828262
 20
15.68041138358439
 30
0.0
 10
192.6819564267973
 20
15.43749387603279
 30
0.0
 10
193.1831513624606
 20
15.3604766275777
 30
0.0
 10
193.0125562198969
 20
15.2187693917466
 30
0.0
 10
192.9383299463202
 20
15.01710366209103
 30
0.0
 10
192.6131432248187
 20
15.36956287174725
 30
0.0
 10
192.3277741670664
 20
15.53175212559564
 30
0.0
 10
192.0337604077657
 20
15.73687130053046
 30
0.0
 10
191.8084452691133
 20
16.21827488595455
 30
0.0
 10
191.5993085055521
 20
15.7534304660922
 30
0.0
 10
191.3207873674834
 20
15.5435095225291
 30
0.0
 10
191.0371383177208
 20
15.37424456359987
 30
0.0
 10
190.707863952783
 20
15.00142360907931
 30
0.0
 10
190.6277012318223
 20
15.19708014459001
 30
0.0
 10
190.4759724909745
 20
15.32491104190599
 30
0.0
 10
190.9083395826794
 20
15.40454031765934
 30
0.0
 10
191.0962565329766
 20
15.60026634915473
 30
0.0
 10
191.3468477420503
 20
15.81632996916756
 30
0.0
 10
191.5714350470161
 20
15.98190992300057
 30
0.0
 10
191.6259775409713
 20
16.26133964636827
 30
0.0
 10
191.7494661029011
 20
16.24737950408078
 30
0.0
 10
191.806027334452
 20
16.24521268867647
 30
0.0
 10
191.8761870984944
 20
16.2404685988136
 30
0.0
 10
191.9333414022105
 20
16.23709429350541
 30
0.0
 10
191.9644190320838
 20
16.23519854711119
 30
0.0
 10
191.9736010568668
 20
16.23463843719134
 30
0.0
 11
191.9736010568668
 21
16.23463843719134
 31
0.0
 11
191.9525319069884
 21
16.20856374969785
 31
0.0
 11
191.9174464559424
 21
16.19450114553469
 31
0.0
 11
192.1512374769094
 21
15.92527961131382
 31
0.0
 11
192.4414585957566
 21
15.67413407969259
 31
0.0
 11
192.7612797483684
 21
15.45710987618784
 31
0.0
 11
193.0838708706289
 21
15.29025232631637
 31
0.0
 11
193.0213299868076
 21
15.21402035584928
 31
0.0
 11
192.9688035818975
 21
15.12971197913424
 31
0.0
 11
192.6436279095813
 21
15.3132640483158
 31
0.0
 11
192.3237227768436
 21
15.54070139743428
 31
0.0
 11
192.0354200158607
 21
15.7967385512331
 31
0.0
 11
191.8050514588094
 21
16.06609003445565
 31
0.0
 11
191.5995531719516
 21
15.81126348721036
 31
0.0
 11
191.3288301341535
 21
15.55645182277756
 31
0.0
 11
191.0119538423246
 21
15.31969466354856
 31
0.0
 11
190.667995793374
 21
15.11903163191466
 31
0.0
 11
190.6218855341337
 21
15.19126067703553
 31
0.0
 11
190.5636970460348
 21
15.26355586798966
 31
0.0
 11
190.8433040489015
 21
15.41911456961744
 31
0.0
 11
191.1093004621154
 21
15.60601009790405
 31
0.0
 11
191.3499997459746
 21
15.81384496285209
 31
0.0
 11
191.5537153607774
 21
16.03222167446416
 31
0.0
 11
191.7087607668218
 21
16.25074274274287
 31
0.0
 11
191.7363041569864
 21
16.24906789496551
 31
0.0
 11
191.8019845489177
 21
16.24507402718873
 31
0.0
 11
191.880377274771
 21
16.24030715274548
 31
0.0
 11
191.9460576667021
 21
16.2363132849687
 31
0.0
 11
191.9736010568668
 21
16.23463843719134
 31
0.0
  0
SPLINE
  5
AF
102
{ACAD_REACTORS
330
CC
102
}
330
48
100
AcDbEntity
  8
_U_30EC_U_30A4_U_30E4_U_30FC_1
  6
Continuous
 62
     2
100
AcDbSpline
210
0.0
220
0.0
230
1.0
 70
    11
 71
     3
 72
    91
 73
    87
 74
    85
 42
0.000000001
 43
0.0000000001
 44
0.00000001
 40
0.0
 40
0.0
 40
0.0
 40
0.0
 40
0.0267532254356701
 40
0.0856103386464102
 40
0.1444674521996621
 40
0.1712206856618514
 40
0.2039416005642536
 40
0.2955601971652484
 40
0.4362601844617202
 40
0.6162252844507534
 40
0.8256392189704982
 40
1.054685709844496
 40
1.29354847889356
 40
1.53241124793836
 40
1.761457738799625
 40
1.970871673298593
 40
2.150836773256789
 40
2.29153676049565
 40
2.383155356836785
 40
2.415876284101405
 40
2.44262951748805
 40
2.50148663094918
 40
2.560343744424327
 40
2.5870969778266
 40
2.617068194441027
 40
2.699247336756168
 40
2.82203264346651
 40
2.973822353258039
 40
3.143014704823481
 40
3.31800793688006
 40
3.487200288186922
 40
3.638989997548403
 40
3.761775303794958
 40
3.843954445753265
 40
3.87392566222996
 40
3.890812773500668
 40
3.90769988477182
 40
3.937960767857363
 40
3.980983618142368
 40
4.199085915228549
 40
4.439444339237327
 40
4.677588241260944
 40
5.05069831783783
 40
5.448212454763215
 40
5.855291218044741
 40
6.138575438885423
 40
6.417434507584242
 40
6.444551104393926
 40
6.504207617363227
 40
6.563864130314552
 40
6.590980727104146
 40
6.848609460381529
 40
7.109611990668487
 40
7.352910904446152
 40
7.557830220705523
 40
7.58751892591344
 40
7.652834077375858
 40
7.718149228845793
 40
7.747837934062096
 40
7.854880190301044
 40
7.976511257403589
 40
8.36948789659239
 40
8.75751495922371
 40
9.126072419331173
 40
9.460639380392264
 40
9.746695593036062
 40
9.777569943118825
 40
9.807050320931925
 40
9.830377336129049
 40
9.886003295436124
 40
9.952395569430024
 40
10.00802152870638
 40
10.0313485438823
 40
10.21356951009598
 40
10.42203479292883
 40
10.66154556731075
 40
10.91693789564316
 40
11.15832906556577
 40
11.18982674596635
 40
11.27286608520422
 40
11.39026653033364
 40
11.52484752840903
 40
11.65942852648462
 40
11.77682897161507
 40
11.859868310857
 40
11.89136598230449
 40
11.89136598230449
 40
11.89136598230449
 40
11.89136598230449
 10
190.7027885008195
 20
14.70699600701772
 30
0.0
 10
190.7028237765287
 20
14.71587847311985
 30
0.0
 10
190.7029366710795
 20
14.74430237047346
 30
0.0
 10
190.7012984568487
 20
14.79409639169803
 30
0.0
 10
190.7069750292911
 20
14.83657564478154
 30
0.0
 10
190.6956928731705
 20
14.88730154856847
 30
0.0
 10
190.7632296979031
 20
14.87012900740109
 30
0.0
 10
190.83880292107
 20
14.88290227165996
 30
0.0
 10
190.9828357056
 20
14.87629729457382
 30
0.0
 10
191.1569419185426
 20
14.87888462206466
 30
0.0
 10
191.3639599611002
 20
14.87800591955552
 30
0.0
 10
191.5894688172376
 20
14.87828207920027
 30
0.0
 10
191.8251162293406
 20
14.87818339658663
 30
0.0
 10
192.0607640531347
 20
14.87828184412767
 30
0.0
 10
192.2862717580626
 20
14.87800678190789
 30
0.0
 10
192.4932934632805
 20
14.87888186270735
 30
0.0
 10
192.6673888915288
 20
14.87630522678446
 30
0.0
 10
192.8114492071985
 20
14.88288290449213
 30
0.0
 10
192.8869691915293
 20
14.87016243405604
 30
0.0
 10
192.9545776037029
 20
14.88726400191686
 30
0.0
 10
192.9430840140676
 20
14.83674785802941
 30
0.0
 10
192.9505104581733
 20
14.79253252226501
 30
0.0
 10
192.9428838927986
 20
14.7486796650361
 30
0.0
 10
192.9546489459425
 20
14.69878374479327
 30
0.0
 10
192.8930788491983
 20
14.71393227712512
 30
0.0
 10
192.8256791738671
 20
14.70310665350673
 30
0.0
 10
192.7013004056221
 20
14.70852031626236
 30
0.0
 10
192.555442823657
 20
14.70649205390784
 30
0.0
 10
192.3893576440086
 20
14.70715777578387
 30
0.0
 10
192.2188412621724
 20
14.70689643521241
 30
0.0
 10
192.0519790855388
 20
14.70721553391094
 30
0.0
 10
191.9087346827105
 20
14.70635302590762
 30
0.0
 10
191.7773313869832
 20
14.70863300482987
 30
0.0
 10
191.7239859134655
 20
14.70407704374202
 30
0.0
 10
191.6485188456912
 20
14.70999914992877
 30
0.0
 10
191.6769075779231
 20
14.70094169343353
 30
0.0
 10
191.7033652409541
 20
14.69725912268929
 30
0.0
 10
191.6633522907701
 20
14.66654271968273
 30
0.0
 10
191.5713663691868
 20
14.67667591174637
 30
0.0
 10
191.5439396207069
 20
14.43032502247786
 30
0.0
 10
191.4478793967234
 20
14.27499558764376
 30
0.0
 10
191.1917277964474
 20
13.94525417931567
 30
0.0
 10
191.7627537732762
 20
14.08430022210452
 30
0.0
 10
192.0173656320517
 20
14.08291779973363
 30
0.0
 10
192.6279647048616
 20
13.99790569242086
 30
0.0
 10
192.3340698578084
 20
14.29685417558202
 30
0.0
 10
192.0133304286516
 20
14.44330856901778
 30
0.0
 10
192.1313543360434
 20
14.50025540818287
 30
0.0
 10
192.1724716466261
 20
14.52420099873348
 30
0.0
 10
192.2156812394411
 20
14.5459975881123
 30
0.0
 10
192.3174574094449
 20
14.60928721253904
 30
0.0
 10
192.4328867625248
 20
14.3514715140878
 30
0.0
 10
192.6329591642277
 20
14.21616041113683
 30
0.0
 10
192.7269077387228
 20
14.03792795138882
 30
0.0
 10
192.9558829746392
 20
13.87997821027048
 30
0.0
 10
192.8596031846708
 20
13.829159725763
 30
0.0
 10
192.8167959763779
 20
13.79881292523055
 30
0.0
 10
192.7718243528779
 20
13.7746613028146
 30
0.0
 10
192.7121720925213
 20
13.72552146747568
 30
0.0
 10
192.6789731061325
 20
13.85997475673609
 30
0.0
 10
192.5582013350796
 20
14.01594265286581
 30
0.0
 10
192.1970976005979
 20
13.88569928059556
 30
0.0
 10
191.838506195554
 20
13.90224694409483
 30
0.0
 10
191.4570920450079
 20
13.89331229351865
 30
0.0
 10
191.1703455282891
 20
13.82882671672405
 30
0.0
 10
190.8592055599711
 20
13.94230668192832
 30
0.0
 10
190.8268737818787
 20
13.83122259927767
 30
0.0
 10
190.7896178253317
 20
13.81196313850013
 30
0.0
 10
190.7865737632753
 20
13.85874784087297
 30
0.0
 10
190.7679892860607
 20
13.89806853919134
 30
0.0
 10
190.7512436616778
 20
13.95765983478235
 30
0.0
 10
190.7383730915753
 20
14.00201969871282
 30
0.0
 10
190.704232780643
 20
14.09106331120202
 30
0.0
 10
190.9482714457753
 20
14.02181042943768
 30
0.0
 10
191.1441394486671
 20
14.00030369057744
 30
0.0
 10
191.2395426381277
 20
14.28226484478463
 30
0.0
 10
191.2945135769596
 20
14.44363045421122
 30
0.0
 10
191.5159619357157
 20
14.71391177589739
 30
0.0
 10
191.3849239381216
 20
14.70548446853734
 30
0.0
 10
191.3110026555854
 20
14.7077900849697
 30
0.0
 10
191.1977459876243
 20
14.70671378321658
 30
0.0
 10
191.0694251807484
 20
14.7070763907651
 30
0.0
 10
190.9404252030414
 20
14.70697724466086
 30
0.0
 10
190.828784094629
 20
14.70699932712572
 30
0.0
 10
190.7514663970025
 20
14.7069957918967
 30
0.0
 10
190.7132876532009
 20
14.70699595845081
 30
0.0
 10
190.7027885008195
 20
14.70699600701772
 30
0.0
 11
190.7027885008195
 21
14.70699600701772
 31
0.0
 11
190.7027885008195
 21
14.73374924051797
 31
0.0
 11
190.7027885008195
 21
14.79260635421853
 31
0.0
 11
190.7027885008195
 21
14.85146346791909
 31
0.0
 11
190.7027885008195
 21
14.87821670141935
 31
0.0
 11
190.7355094280988
 21
14.87821670141935
 31
0.0
 11
190.8271280244808
 21
14.87821670141935
 31
0.0
 11
190.9678280117818
 21
14.87821670141935
 31
0.0
 11
191.1477931118179
 21
14.87821670141935
 31
0.0
 11
191.3572070464053
 21
14.87821670141935
 31
0.0
 11
191.5862535373604
 21
14.87821670141935
 31
0.0
 11
191.8251163064992
 21
14.87821670141935
 31
0.0
 11
192.0639790756381
 21
14.87821670141935
 31
0.0
 11
192.2930255665931
 21
14.87821670141935
 31
0.0
 11
192.5024395011805
 21
14.87821670141935
 31
0.0
 11
192.6824046012167
 21
14.87821670141935
 31
0.0
 11
192.8231045885176
 21
14.87821670141935
 31
0.0
 11
192.9147231848996
 21
14.87821670141935
 31
0.0
 11
192.9474441121789
 21
14.87821670141935
 31
0.0
 11
192.9474441121789
 21
14.85146346791909
 31
0.0
 11
192.9474441121789
 21
14.79260635421853
 31
0.0
 11
192.9474441121789
 21
14.73374924051797
 31
0.0
 11
192.9474441121789
 21
14.70699600701772
 31
0.0
 11
192.9174728954758
 21
14.70699600701772
 31
0.0
 11
192.8352937529027
 21
14.70699600701772
 31
0.0
 11
192.7125084457639
 21
14.70699600701772
 31
0.0
 11
192.5607187353642
 21
14.70699600701772
 31
0.0
 11
192.3915263830077
 21
14.70699600701772
 31
0.0
 11
192.216533149999
 21
14.70699600701772
 31
0.0
 11
192.0473407976426
 21
14.70699600701772
 31
0.0
 11
191.8955510872428
 21
14.70699600701772
 31
0.0
 11
191.7727657801041
 21
14.70699600701772
 31
0.0
 11
191.6905866375309
 21
14.70699600701772
 31
0.0
 11
191.6606154208278
 21
14.70699600701772
 31
0.0
 11
191.6766359412524
 21
14.70165583340794
 31
0.0
 11
191.692656461677
 21
14.69631565979815
 31
0.0
 11
191.670615568142
 21
14.67558114591443
 31
0.0
 11
191.6284861855363
 21
14.6668587153611
 31
0.0
 11
191.5365235541377
 21
14.46909247312657
 31
0.0
 11
191.4279078521763
 21
14.25467511978509
 31
0.0
 11
191.3127500824807
 21
14.0462255905162
 31
0.0
 11
191.685736667502
 21
14.05582441253029
 31
0.0
 11
192.083070003615
 21
14.06781232404995
 31
0.0
 11
192.4899342191145
 21
14.08102711828532
 31
0.0
 11
192.2983119496978
 21
14.2896676130248
 31
0.0
 11
192.0966752013698
 21
14.48229420151831
 31
0.0
 11
192.1204947794749
 21
14.49525327269564
 31
0.0
 11
192.1728978513061
 21
14.52376322928576
 31
0.0
 11
192.2253009231374
 21
14.55227318587587
 31
0.0
 11
192.2491205012425
 21
14.5652322570532
 31
0.0
 11
192.4387101558627
 21
14.39079508370268
 31
0.0
 11
192.6200310940435
 21
14.20305846374091
 31
0.0
 11
192.7777729231147
 21
14.01782380992436
 31
0.0
 11
192.8966252504058
 21
13.85089253500949
 31
0.0
 11
192.8715408217923
 21
13.83501202286069
 31
0.0
 11
192.8163550788425
 21
13.80007489613332
 31
0.0
 11
192.7611693358928
 21
13.76513776940596
 31
0.0
 11
192.7360849072793
 21
13.74925725725716
 31
0.0
 11
192.6775518151612
 21
13.83887824681809
 31
0.0
 11
192.6050015078457
 21
13.93650288221032
 31
0.0
 11
192.2125412924095
 21
13.91636286943759
 31
0.0
 11
191.824947406956
 21
13.89803302999773
 31
0.0
 11
191.4567378976213
 21
13.88202178722395
 31
0.0
 11
191.1224308105412
 21
13.86883756444947
 31
0.0
 11
190.8365441918517
 21
13.8589887850075
 31
0.0
 11
190.8211862321739
 21
13.83220523466695
 31
0.0
 11
190.7937434290545
 21
13.82143559057245
 31
0.0
 11
190.7867927192319
 21
13.84370299445577
 31
0.0
 11
190.7702179496548
 21
13.89680218833139
 31
0.0
 11
190.7504351601596
 21
13.96017864553777
 31
0.0
 11
190.7338603905825
 21
14.01327783941338
 31
0.0
 11
190.7269096807598
 21
14.0355452432967
 31
0.0
 11
190.9091199859153
 21
14.03751638912953
 31
0.0
 11
191.1174975848588
 21
14.04356211829472
 31
0.0
 11
191.2303203127216
 21
14.25483550301553
 31
0.0
 11
191.3407936722035
 21
14.48509813155879
 31
0.0
 11
191.4358254265627
 21
14.70699600701772
 31
0.0
 11
191.4043277461597
 21
14.70699600701772
 31
0.0
 11
191.3212884069153
 21
14.70699600701772
 31
0.0
 11
191.2038879617768
 21
14.70699600701772
 31
0.0
 11
191.0693069636911
 21
14.70699600701772
 31
0.0
 11
190.9347259656055
 21
14.70699600701772
 31
0.0
 11
190.8173255204669
 21
14.70699600701772
 31
0.0
 11
190.7342861812226
 21
14.70699600701772
 31
0.0
 11
190.7027885008195
 21
14.70699600701772
 31
0.0
  0
SPLINE
  5
B0
102
{ACAD_REACTORS
330
CD
102
}
330
48
100
AcDbEntity
  8
_U_30EC_U_30A4_U_30E4_U_30FC_1
  6
Continuous
 62
     2
100
AcDbSpline
210
0.0
220
0.0
230
1.0
 70
    11
 71
     3
 72
   131
 73
   127
 74
   125
 42
0.000000001
 43
0.0000000001
 44
0.00000001
 40
0.0
 40
0.0
 40
0.0
 40
0.0
 40
0.0195577029826316
 40
0.0426490537460649
 40
0.2863607575855898
 40
0.5344948436188726
 40
0.7842238845572792
 40
0.8737315789467213
 40
0.9803832810312941
 40
1.092842274517016
 40
1.199761146656799
 40
1.289788768186481
 40
1.351573580786152
 40
1.370727117561381
 40
1.416400936017774
 40
1.470914848355918
 40
1.516588666791674
 40
1.535742203552755
 40
1.634216592293107
 40
1.760283341174943
 40
1.897966686682004
 40
2.031216387368827
 40
2.049689751137821
 40
2.101115601646757
 40
2.179502577739874
 40
2.278859318313989
 40
2.393194462258646
 40
2.51651664838376
 40
2.642834515405889
 40
2.766156701983391
 40
2.880491846754505
 40
2.979848588358548
 40
3.058235565443725
 40
3.109661416668879
 40
3.128134780704055
 40
3.146783742386372
 40
3.191254343315233
 40
3.244332157315891
 40
3.288802758225795
 40
3.307451719895038
 40
3.327717853844651
 40
3.38374775358001
 40
3.468388665924401
 40
3.574487837698709
 40
3.694892515728813
 40
3.822449946851952
 40
3.950007377920341
 40
4.070412055800434
 40
4.176511227367989
 40
4.261152139501435
 40
4.317182039076629
 40
4.337448172964548
 40
4.620011002696184
 40
4.885096638397495
 40
4.945373043518285
 40
5.014107710488616
 40
5.070481727652033
 40
5.31924695563658
 40
5.584812164506093
 40
5.859000912056941
 40
6.133746937542121
 40
6.401732212968923
 40
6.420736683995514
 40
6.472845717451165
 40
6.550702743894092
 40
6.646951193874301
 40
6.754234497930625
 40
6.865196086587403
 40
6.972479390357861
 40
7.068727839772023
 40
7.146584865451032
 40
7.198693898189262
 40
7.217698368905403
 40
7.234950401630881
 40
7.276089864269926
 40
7.325191803516034
 40
7.366331266090421
 40
7.383583298769773
 40
7.40277916349215
 40
7.453386443254582
 40
7.524934666445583
 40
7.606953361405923
 40
7.688972056429074
 40
7.760520279784325
 40
7.811127559734567
 40
7.830323424546188
 40
7.847844055299818
 40
7.894799345666859
 40
7.962779392744547
 40
8.043374293560595
 40
8.1281741451495
 40
8.208769044817306
 40
8.276749090377006
 40
8.323704379669564
 40
8.341225010056299
 40
8.358497614800447
 40
8.401679126686624
 40
8.457815092185653
 40
8.513951057728057
 40
8.557132569707957
 40
8.574405174505028
 40
8.602340668616344
 40
8.643455660539887
 40
8.663225271966555
 40
8.715345156564203
 40
8.789031889628538
 40
8.873502045520267
 40
8.95797219432389
 40
9.03165892556778
 40
9.083778811234472
 40
9.103548423002934
 40
9.119550083123471
 40
9.160817522379773
 40
9.217244429110139
 40
9.278724491644624
 40
9.335151398295409
 40
9.376418837357704
 40
9.392420497300492
 40
9.40119630273471
 40
9.417494229384104
 40
9.426270027749377
 40
9.440875075477384
 40
9.47570249699859
 40
9.517270709865754
 40
9.552098131993947
 40
9.56670316988413
 40
9.56670316988413
 40
9.56670316988413
 40
9.56670316988413
 10
194.6170254148478
 20
15.67015871511027
 30
0.0
 10
194.613434509337
 20
15.66453690702159
 30
0.0
 10
194.6056039123623
 20
15.65227754419116
 30
0.0
 10
194.5129968974549
 20
15.61601916040944
 30
0.0
 10
194.4887622233246
 20
15.40148444212725
 30
0.0
 10
194.3858709845938
 20
15.22197284509705
 30
0.0
 10
194.1220492364305
 20
15.03615573798145
 30
0.0
 10
194.2845471569179
 20
14.9595933656608
 30
0.0
 10
194.3607225760838
 20
14.89856693195444
 30
0.0
 10
194.4492171072758
 20
14.83515804544758
 30
0.0
 10
194.5389930233109
 20
14.77525634219562
 30
0.0
 10
194.5883817636047
 20
14.72102154849208
 30
0.0
 10
194.674570815738
 20
14.69286240541833
 30
0.0
 10
194.6411260674229
 20
14.65713309652812
 30
0.0
 10
194.621467116631
 20
14.62550387991904
 30
0.0
 10
194.5919888217881
 20
14.58475872796072
 30
0.0
 10
194.5688989446031
 20
14.55504663489642
 30
0.0
 10
194.5380205968356
 20
14.50211422668494
 30
0.0
 10
194.472919336574
 20
14.62740334938902
 30
0.0
 10
194.3796000122416
 20
14.68213900233935
 30
0.0
 10
194.2950636285138
 20
14.73916423939343
 30
0.0
 10
194.1722498125743
 20
14.89675287427523
 30
0.0
 10
194.1764450847301
 20
14.82035806766836
 30
0.0
 10
194.1751478652677
 20
14.77361280161296
 30
0.0
 10
194.1758126448076
 20
14.695847858126
 30
0.0
 10
194.1755549986957
 20
14.59902068324423
 30
0.0
 10
194.1756431239921
 20
14.48650279078809
 30
0.0
 10
194.1756077302282
 20
14.365240859457
 30
0.0
 10
194.1756511758278
 20
14.24086897858961
 30
0.0
 10
194.1755199942406
 20
14.11967683631337
 30
0.0
 10
194.1759477562046
 20
14.00691148919743
 30
0.0
 10
194.174667820231
 20
13.91082913768744
 30
0.0
 10
194.1779759851044
 20
13.831138264687
 30
0.0
 10
194.1715197740086
 20
13.78815175788784
 30
0.0
 10
194.1806208705556
 20
13.74955432372043
 30
0.0
 10
194.1447910339935
 20
13.7581088772407
 30
0.0
 10
194.1115223815252
 20
13.75342519985446
 30
0.0
 10
194.060456257604
 20
13.75351298759784
 30
0.0
 10
194.0269723972813
 20
13.75794430283821
 30
0.0
 10
193.9907585408754
 20
13.74960793842509
 30
0.0
 10
194.0009782568665
 20
13.79145277179284
 30
0.0
 10
193.9936487887773
 20
13.83778560820173
 30
0.0
 10
193.9973633136103
 20
13.92374831106015
 30
0.0
 10
193.9959480554896
 20
14.02605142704849
 30
0.0
 10
193.9964105554638
 20
14.14453223931512
 30
0.0
 10
193.996277368623
 20
14.26957683153356
 30
0.0
 10
193.9963015910045
 20
14.3947582810705
 30
0.0
 10
193.9963354925551
 20
14.51286645379058
 30
0.0
 10
193.9962060293132
 20
14.61628748709516
 30
0.0
 10
193.9965507549081
 20
14.69932036153667
 30
0.0
 10
193.995869827869
 20
14.75143368521243
 30
0.0
 10
193.9994586600622
 20
14.87912907821361
 30
0.0
 10
193.7826171386437
 20
14.5804871681962
 30
0.0
 10
193.602135492195
 20
14.35263981511511
 30
0.0
 10
193.5490322295611
 20
14.49373443289815
 30
0.0
 10
193.5200429133148
 20
14.54325767560944
 30
0.0
 10
193.4196648062819
 20
14.64641779790105
 30
0.0
 10
193.7405127723261
 20
14.72695035023781
 30
0.0
 10
193.8689897005429
 20
14.91066283036433
 30
0.0
 10
194.0906454325359
 20
15.11931995771763
 30
0.0
 10
194.1770224894069
 20
15.29339211228344
 30
0.0
 10
194.4549394229074
 20
15.5696705134251
 30
0.0
 10
194.3346247839284
 20
15.56534559551114
 30
0.0
 10
194.2863197351348
 20
15.56614856202552
 30
0.0
 10
194.2102377454905
 20
15.56574582146584
 30
0.0
 10
194.116701000975
 20
15.56590275611609
 30
0.0
 10
194.0117594788557
 20
15.56582502576224
 30
0.0
 10
193.9033887738717
 20
15.56595464378554
 30
0.0
 10
193.7981454235897
 20
15.56554393490692
 30
0.0
 10
193.7056237819412
 20
15.56682073671591
 30
0.0
 10
193.6268130800708
 20
15.5634076653485
 30
0.0
 10
193.5839674565379
 20
15.5702335003632
 30
0.0
 10
193.5449499586516
 20
15.56065064201123
 30
0.0
 10
193.5526365271863
 20
15.59420779565543
 30
0.0
 10
193.5485464404312
 20
15.62523550322233
 30
0.0
 10
193.5485531368814
 20
15.672365292709
 30
0.0
 10
193.5526239724911
 20
15.70340941646779
 30
0.0
 10
193.5449495574582
 20
15.73701861635901
 30
0.0
 10
193.5834819405494
 20
15.72748410420872
 30
0.0
 10
193.624122801448
 20
15.73397435498071
 30
0.0
 10
193.6951471850463
 20
15.73100150650254
 30
0.0
 10
193.7729318149633
 20
15.73174761399158
 30
0.0
 10
193.8507292246474
 20
15.73247814044525
 30
0.0
 10
193.9217232089907
 20
15.7295423551416
 30
0.0
 10
193.962427979182
 20
15.73595468772952
 30
0.0
 10
194.000985348991
 20
15.72650524176004
 30
0.0
 10
193.9927342754927
 20
15.76264692158784
 30
0.0
 10
193.9982346669359
 20
15.80129837613227
 30
0.0
 10
193.9955754206163
 20
15.86913528561839
 30
0.0
 10
193.9965815471533
 20
15.9459164153874
 30
0.0
 10
193.9960178018319
 20
16.02849393582757
 30
0.0
 10
193.9970714526592
 20
16.10517329229878
 30
0.0
 10
193.994267586313
 20
16.173319907767
 30
0.0
 10
194.0000702721304
 20
16.21132399809346
 30
0.0
 10
193.9915654551158
 20
16.24758448077646
 30
0.0
 10
194.0255610233125
 20
16.23755723771853
 30
0.0
 10
194.0594575683099
 20
16.24073266813706
 30
0.0
 10
194.1126669060345
 20
16.23508965640609
 30
0.0
 10
194.1660768574482
 20
16.23434774436425
 30
0.0
 10
194.1995914649489
 20
16.22819223482979
 30
0.0
 10
194.2388086183038
 20
16.23346029773594
 30
0.0
 10
194.2120263698492
 20
16.19253380793487
 30
0.0
 10
194.1708111001723
 20
16.20371204538111
 30
0.0
 10
194.1782641540874
 20
16.15867056192124
 30
0.0
 10
194.1742227952184
 20
16.11412278028144
 30
0.0
 10
194.1761714049641
 20
16.04223572621703
 30
0.0
 10
194.1752364849758
 20
15.96168630588771
 30
0.0
 10
194.176510719003
 20
15.88173995404994
 30
0.0
 10
194.1732043793863
 20
15.80841837083183
 30
0.0
 10
194.1802106179961
 20
15.76688643002568
 30
0.0
 10
194.1701440380126
 20
15.72752418568113
 30
0.0
 10
194.2029814803921
 20
15.73468063430981
 30
0.0
 10
194.236457729648
 20
15.73027243137945
 30
0.0
 10
194.2915053476019
 20
15.73217943347897
 30
0.0
 10
194.3489502595314
 20
15.73185366407288
 30
0.0
 10
194.4023026248309
 20
15.73106308733081
 30
0.0
 10
194.4398540896639
 20
15.73313959118074
 30
0.0
 10
194.4623172523237
 20
15.73022338167109
 30
0.0
 10
194.4751678073731
 20
15.73572552644054
 30
0.0
 10
194.4858255685888
 20
15.73801118197791
 30
0.0
 10
194.4986635650143
 20
15.74494972588053
 30
0.0
 10
194.5145991033069
 20
15.72853046313669
 30
0.0
 10
194.5410623920891
 20
15.7170912231945
 30
0.0
 10
194.5726805253756
 20
15.69644687835188
 30
0.0
 10
194.5987255892151
 20
15.68116869628296
 30
0.0
 10
194.6128517723972
 20
15.67266976323183
 30
0.0
 10
194.6170254148478
 20
15.67015871511027
 30
0.0
 11
194.6170254148478
 21
15.67015871511027
 31
0.0
 11
194.6049990002242
 21
15.65473571164188
 31
0.0
 11
194.5848961795565
 21
15.64337406233917
 31
0.0
 11
194.4778986355813
 21
15.42440620231159
 31
0.0
 11
194.3477039934324
 21
15.21317201512161
 31
0.0
 11
194.199654036607
 21
15.01206059027479
 31
0.0
 11
194.2734958253734
 21
14.96147384935379
 31
0.0
 11
194.36056643118
 21
14.89988411653739
 31
0.0
 11
194.4518003750404
 21
14.83413160594426
 31
0.0
 11
194.5381321779687
 21
14.77105653169304
 31
0.0
 11
194.6104963609787
 21
14.71749910790242
 31
0.0
 11
194.6598274450842
 21
14.68029954869104
 31
0.0
 11
194.6486940702212
 21
14.66471410869494
 31
0.0
 11
194.6221452532402
 21
14.62754882870424
 31
0.0
 11
194.5904579555532
 21
14.58319026871533
 31
0.0
 11
194.5639091385723
 21
14.54602498872462
 31
0.0
 11
194.5527757637093
 21
14.53043954872852
 31
0.0
 11
194.4807013362947
 21
14.59754008690618
 31
0.0
 11
194.385285698538
 21
14.67993354174669
 31
0.0
 11
194.279326415217
 21
14.76785017366916
 31
0.0
 11
194.175621051109
 21
14.85152024309267
 31
0.0
 11
194.175621051109
 21
14.83304687900863
 31
0.0
 11
194.175621051109
 21
14.78162102763955
 31
0.0
 11
194.175621051109
 21
14.70323405030999
 31
0.0
 11
194.175621051109
 21
14.60387730834449
 31
0.0
 11
194.175621051109
 21
14.4895421630676
 31
0.0
 11
194.175621051109
 21
14.36621997580389
 31
0.0
 11
194.175621051109
 21
14.2399021078779
 31
0.0
 11
194.175621051109
 21
14.11657992061419
 31
0.0
 11
194.175621051109
 21
14.0022447753373
 31
0.0
 11
194.175621051109
 21
13.9028880333718
 31
0.0
 11
194.175621051109
 21
13.82450105604223
 31
0.0
 11
194.175621051109
 21
13.77307520467316
 31
0.0
 11
194.175621051109
 21
13.75460184058912
 31
0.0
 11
194.1569720893626
 21
13.75460184058912
 31
0.0
 11
194.1125014882749
 21
13.75460184058912
 31
0.0
 11
194.0594236740736
 21
13.75460184058912
 31
0.0
 11
194.0149530729859
 21
13.75460184058912
 31
0.0
 11
193.9963041112395
 21
13.75460184058912
 31
0.0
 11
193.9963041112395
 21
13.77486797460219
 31
0.0
 11
193.9963041112395
 21
13.83089787452066
 31
0.0
 11
193.9963041112395
 21
13.91553878716347
 31
0.0
 11
193.9963041112395
 21
14.02163795934953
 31
0.0
 11
193.9963041112395
 21
14.14204263789775
 31
0.0
 11
193.9963041112395
 21
14.26960006962705
 31
0.0
 11
193.9963041112395
 21
14.39715750135636
 31
0.0
 11
193.9963041112395
 21
14.51756217990458
 31
0.0
 11
193.9963041112395
 21
14.62366135209064
 31
0.0
 11
193.9963041112395
 21
14.70830226473344
 31
0.0
 11
193.9963041112395
 21
14.76433216465193
 31
0.0
 11
193.9963041112395
 21
14.78459829866499
 31
0.0
 11
193.7883272849481
 21
14.59331998274056
 31
0.0
 11
193.5763486358424
 21
14.43414885430811
 31
0.0
 11
193.5495629014482
 21
14.48814671952095
 31
0.0
 11
193.5138765415024
 21
14.54689140572026
 31
0.0
 11
193.4799697494123
 21
14.59192871537977
 31
0.0
 11
193.6830287742318
 21
14.73563387201055
 31
0.0
 11
193.881853195826
 21
14.91168423529989
 31
0.0
 11
194.0677041444178
 21
15.1132751452495
 31
0.0
 11
194.2318427502303
 21
15.33360194186109
 31
0.0
 11
194.3655301434864
 21
15.56585996513635
 31
0.0
 11
194.3465256724482
 21
15.56585996513635
 31
0.0
 11
194.2944166389562
 21
15.56585996513635
 31
0.0
 11
194.2165596124447
 21
15.56585996513635
 31
0.0
 11
194.1203111623478
 21
15.56585996513635
 31
0.0
 11
194.0130278580997
 21
15.56585996513635
 31
0.0
 11
193.9020662691345
 21
15.56585996513635
 31
0.0
 11
193.7947829648864
 21
15.56585996513635
 31
0.0
 11
193.6985345147895
 21
15.56585996513635
 31
0.0
 11
193.620677488278
 21
15.56585996513635
 31
0.0
 11
193.568568454786
 21
15.56585996513635
 31
0.0
 11
193.5495639837478
 21
15.56585996513635
 31
0.0
 11
193.5495639837478
 21
15.58311199790982
 31
0.0
 11
193.5495639837478
 21
15.62425146067731
 31
0.0
 11
193.5495639837478
 21
15.67335340010949
 31
0.0
 11
193.5495639837478
 21
15.71449286287698
 31
0.0
 11
193.5495639837478
 21
15.73174489565045
 31
0.0
 11
193.5687598486009
 21
15.73174489565045
 31
0.0
 11
193.6193671286684
 21
15.73174489565045
 31
0.0
 11
193.690915352212
 21
15.73174489565045
 31
0.0
 11
193.7729340474937
 21
15.73174489565045
 31
0.0
 11
193.8549527427753
 21
15.73174489565045
 31
0.0
 11
193.9265009663189
 21
15.73174489565045
 31
0.0
 11
193.9771082463864
 21
15.73174489565045
 31
0.0
 11
193.9963041112395
 21
15.73174489565045
 31
0.0
 11
193.9963041112395
 21
15.74926552655218
 31
0.0
 11
193.9963041112395
 21
15.79622081736882
 31
0.0
 11
193.9963041112395
 21
15.86420086526753
 31
0.0
 11
193.9963041112395
 21
15.94479576741549
 31
0.0
 11
193.9963041112395
 21
16.02959562097986
 31
0.0
 11
193.9963041112395
 21
16.11019052312782
 31
0.0
 11
193.9963041112395
 21
16.17817057102653
 31
0.0
 11
193.9963041112395
 21
16.22512586184317
 31
0.0
 11
193.9963041112395
 21
16.2426464927449
 31
0.0
 11
194.0135484112111
 21
16.24165806167519
 31
0.0
 11
194.05665916114
 21
16.23918698400091
 31
0.0
 11
194.1127031360477
 21
16.23597458302435
 31
0.0
 11
194.1687471109553
 21
16.2327621820478
 31
0.0
 11
194.2118578608842
 21
16.23029110437352
 31
0.0
 11
194.2291021608558
 21
16.22930267330381
 31
0.0
 11
194.2143774674851
 21
16.2055629337264
 31
0.0
 11
194.175621051109
 21
16.19183767331312
 31
0.0
 11
194.175621051109
 21
16.17206806177293
 31
0.0
 11
194.175621051109
 21
16.11994817680333
 31
0.0
 11
194.175621051109
 21
16.04626144288079
 31
0.0
 11
194.175621051109
 21
15.96179128448179
 31
0.0
 11
194.175621051109
 21
15.87732112608278
 31
0.0
 11
194.175621051109
 21
15.80363439216024
 31
0.0
 11
194.175621051109
 21
15.75151450719064
 31
0.0
 11
194.175621051109
 21
15.73174489565045
 31
0.0
 11
194.1916227112935
 21
15.73174489565045
 31
0.0
 11
194.232890150717
 21
15.73174489565045
 31
0.0
 11
194.2893170576837
 21
15.73174489565045
 31
0.0
 11
194.3507971204981
 21
15.73174489565045
 31
0.0
 11
194.4072240274648
 21
15.73174489565045
 31
0.0
 11
194.4484914668882
 21
15.73174489565045
 31
0.0
 11
194.4644931270728
 21
15.73174489565045
 31
0.0
 11
194.4728206422924
 21
15.73451387455921
 31
0.0
 11
194.4882860277003
 21
15.73965626396118
 31
0.0
 11
194.4966135429199
 21
15.74242524286994
 31
0.0
 11
194.5091363776004
 21
15.73490952398294
 31
0.0
 11
194.5389985218385
 21
15.71698742509854
 31
0.0
 11
194.5746404359292
 21
15.69559653288167
 31
0.0
 11
194.6045025801673
 21
15.67767443399728
 31
0.0
 11
194.6170254148478
 21
15.67015871511027
 31
0.0
  0
SPLINE
  5
B1
102
{ACAD_REACTORS
330
CE
102
}
330
48
100
AcDbEntity
  8
_U_30EC_U_30A4_U_30E4_U_30FC_1
  6
Continuous
 62
     2
100
AcDbSpline
210
0.0
220
0.0
230
1.0
 70
    11
 71
     3
 72
   124
 73
   120
 74
   118
 42
0.000000001
 43
0.0000000001
 44
0.00000001
 40
0.0
 40
0.0
 40
0.0
 40
0.0
 40
0.027818722962451
 40
0.1011590162384554
 40
0.2048470170590523
 40
0.3237088716559814
 40
0.4425707262522852
 40
0.5462587270700684
 40
0.6195990203312934
 40
0.6474177522579797
 40
0.6750060736116361
 40
0.7357003855243895
 40
0.7963946998055629
 40
0.8239830245572921
 40
0.8540933811104015
 40
0.9373396629410695
 40
1.06309468734335
 40
1.220731268638217
 40
1.399622220914891
 40
1.589140358637933
 40
1.778658496424071
 40
1.957549448940738
 40
2.115186030873359
 40
2.240941056914663
 40
2.324187341760761
 40
2.354297700109611
 40
2.381886024672117
 40
2.442580338710706
 40
2.50327465275073
 40
2.530862977314837
 40
2.56098394927879
 40
2.640393784453164
 40
2.752662861759359
 40
2.881361560118347
 40
3.010060258455394
 40
3.12232933570557
 40
3.201739170818183
 40
3.231860142753544
 40
3.264298024030599
 40
3.352343701778472
 40
3.482095226868995
 40
3.639650650173253
 40
3.811108022565709
 40
3.982565394928215
 40
4.140120818152796
 40
4.269872343141507
 40
4.357918020802567
 40
4.390355902044196
 40
4.423256253992794
 40
4.508104530073259
 40
4.624121560637055
 40
4.750528176031755
 40
4.86654520660223
 40
4.951393482692215
 40
4.984293834645588
 40
5.011450833242503
 40
5.071196230152288
 40
5.130941627057367
 40
5.158098625649031
 40
5.190998977601665
 40
5.275847253689547
 40
5.391864284256981
 40
5.518270899648498
 40
5.634287930209537
 40
5.719136206288211
 40
5.752036558236099
 40
5.782130946283124
 40
5.862783906229299
 40
5.979550131775166
 40
6.117984316640572
 40
6.263641154588117
 40
6.402075339414323
 40
6.518841564908118
 40
6.599494524815699
 40
6.629588912848937
 40
6.654403028226541
 40
6.713575149488308
 40
6.784199939329683
 40
6.843372060493813
 40
6.868186175803059
 40
6.896246243202157
 40
6.939586233758635
 40
6.967846564565263
 40
7.043584251090198
 40
7.153234334452056
 40
7.283231855734809
 40
7.420011856035839
 40
7.550009376580188
 40
7.659659458835587
 40
7.73539714441758
 40
7.763657474851752
 40
7.796409728011381
 40
7.880876065096683
 40
7.996370852466069
 40
8.122208446418965
 40
8.237703224799558
 40
8.322169562011252
 40
8.354921815206266
 40
8.382078813308047
 40
8.441824209207352
 40
8.501569605240503
 40
8.528726603486081
 40
8.561478856696102
 40
8.645945193878152
 40
8.761439980865692
 40
8.887277580764863
 40
9.002772362001355
 40
9.087238696661576
 40
9.11999094923603
 40
9.15242883061373
 40
9.240474508638945
 40
9.370226034149894
 40
9.527781457984776
 40
9.699238830981766
 40
9.870696203978955
 40
10.02825162781438
 40
10.15800315332599
 40
10.24604883135154
 40
10.27848670378557
 40
10.27848670378557
 40
10.27848670378557
 40
10.27848670378557
 10
195.3821827564382
 20
14.01410517385757
 30
0.0
 10
195.3914554737522
 20
14.01410498511274
 30
0.0
 10
195.4251744536859
 20
14.01410430876714
 30
0.0
 10
195.4934706812464
 20
14.01411807243304
 30
0.0
 10
195.592014171158
 20
14.01403224219546
 30
0.0
 10
195.7062066464811
 20
14.0144175561225
 30
0.0
 10
195.8185894417071
 20
14.01300835897545
 30
0.0
 10
195.9214376600117
 20
14.01719117422243
 30
0.0
 10
195.9806839874849
 20
14.00823089251983
 30
0.0
 10
196.0371265937032
 20
14.02164434526061
 30
0.0
 10
196.0246255586955
 20
13.97087198613361
 30
0.0
 10
196.0329549635704
 20
13.92589320939067
 30
0.0
 10
196.0248170841119
 20
13.88056752990488
 30
0.0
 10
196.0370529214457
 20
13.82931932408466
 30
0.0
 10
195.9747773490333
 20
13.84447955365276
 30
0.0
 10
195.9060513026868
 20
13.83359750710743
 30
0.0
 10
195.7782756749591
 20
13.83911304747972
 30
0.0
 10
195.6262984511644
 20
13.83700851253698
 30
0.0
 10
195.4502695972521
 20
13.83771002588473
 30
0.0
 10
195.2644431934287
 20
13.83745237531291
 30
0.0
 10
195.0786167437174
 20
13.83771005144603
 30
0.0
 10
194.9025880142167
 20
13.83700841847731
 30
0.0
 10
194.7506104154193
 20
13.83911332229988
 30
0.0
 10
194.6228357664554
 20
13.8335968076764
 30
0.0
 10
194.5541077836579
 20
13.84448077125942
 30
0.0
 10
194.4918349042882
 20
13.82931786684209
 30
0.0
 10
194.5040616290017
 20
13.88057510805171
 30
0.0
 10
194.4960004462596
 20
13.92582473272425
 30
0.0
 10
194.5040675809891
 20
13.97106357955323
 30
0.0
 10
194.4918238487082
 20
14.02234176909958
 30
0.0
 10
194.5525017120697
 20
14.00749577363135
 30
0.0
 10
194.6162810745735
 20
14.01756448170735
 30
0.0
 10
194.7277314353502
 20
14.01294644211999
 30
0.0
 10
194.8497533443822
 20
14.01413328905469
 30
0.0
 10
194.9719538137822
 20
14.01515863900635
 30
0.0
 10
195.082979428739
 20
14.01092475623401
 30
0.0
 10
195.1476517413957
 20
14.02018584521739
 30
0.0
 10
195.20911628105
 20
14.00604423049682
 30
0.0
 10
195.1930065601335
 20
14.07235527884517
 30
0.0
 10
195.2042980327357
 20
14.14447790121976
 30
0.0
 10
195.1987400822559
 20
14.27513760888286
 30
0.0
 10
195.2008035061689
 20
14.42607323708241
 30
0.0
 10
195.2000167127294
 20
14.59335873107886
 30
0.0
 10
195.2007845215625
 20
14.76061110332302
 30
0.0
 10
195.1988038785628
 20
14.91163289269914
 30
0.0
 10
195.2041306156618
 20
15.04206069552994
 30
0.0
 10
195.1933101388424
 20
15.114654426059
 30
0.0
 10
195.2090326429874
 20
15.18150469436798
 30
0.0
 10
195.143270813249
 20
15.16580512490824
 30
0.0
 10
195.0756367830762
 20
15.17609243083995
 30
0.0
 10
194.9615885293809
 20
15.17113786847121
 30
0.0
 10
194.8451242674901
 20
15.17414128030475
 30
0.0
 10
194.7306554121477
 20
15.1688030314339
 30
0.0
 10
194.6640324657811
 20
15.18001268074824
 30
0.0
 10
194.5990769715185
 20
15.16349132665012
 30
0.0
 10
194.6107989758707
 20
15.21473720477059
 30
0.0
 10
194.6032830189119
 20
15.2595033378409
 30
0.0
 10
194.6107989878835
 20
15.30426944897961
 30
0.0
 10
194.5990769505345
 20
15.35551536129739
 30
0.0
 10
194.6640326339199
 20
15.33899381766815
 30
0.0
 10
194.730653333982
 20
15.35020571373943
 30
0.0
 10
194.8451352858062
 20
15.34485436710664
 30
0.0
 10
194.9615454436962
 20
15.34791188771117
 30
0.0
 10
195.0757660174639
 20
15.34278499010708
 30
0.0
 10
195.1430150439225
 20
15.35345733355599
 30
0.0
 10
195.2083325941437
 20
15.33742082669077
 30
0.0
 10
195.1941391448551
 20
15.39949685750054
 30
0.0
 10
195.2036059462994
 20
15.46586761628762
 30
0.0
 10
195.1990269004084
 20
15.58239972741966
 30
0.0
 10
195.2007696555947
 20
15.71426685022376
 30
0.0
 10
195.199755149539
 20
15.85615960150273
 30
0.0
 10
195.201719134437
 20
15.9876905070258
 30
0.0
 10
195.1964668553849
 20
16.10524577283002
 30
0.0
 10
195.2073408763473
 20
16.16947789001584
 30
0.0
 10
195.1919536641852
 20
16.23108802545048
 30
0.0
 10
195.2407591537799
 20
16.21702407382111
 30
0.0
 10
195.2853995564724
 20
16.21954742075313
 30
0.0
 10
195.3538643946742
 20
16.2151279740171
 30
0.0
 10
195.3959106169102
 20
16.20613025544035
 30
0.0
 10
195.4487544758775
 20
16.21411714866511
 30
0.0
 10
195.4207035002013
 20
16.1711391761167
 30
0.0
 10
195.3749142248593
 20
16.18259552043839
 30
0.0
 10
195.3869539073264
 20
16.12173520005136
 30
0.0
 10
195.379608607064
 20
16.05769299468773
 30
0.0
 10
195.383119582616
 20
15.9490936886391
 30
0.0
 10
195.3819806760173
 20
15.82494319144752
 30
0.0
 10
195.3819174780261
 20
15.69189719829878
 30
0.0
 10
195.3832872966865
 20
15.56797381249555
 30
0.0
 10
195.3791638801313
 20
15.45868337849338
 30
0.0
 10
195.3877763103562
 20
15.3960858009417
 30
0.0
 10
195.3746757454401
 20
15.33740133296367
 30
0.0
 10
195.4393884328196
 20
15.35362113810901
 30
0.0
 10
195.5060405953155
 20
15.34270260383312
 30
0.0
 10
195.6198779541101
 20
15.34793740173756
 30
0.0
 10
195.7357259122096
 20
15.34485547516913
 30
0.0
 10
195.8496924263279
 20
15.35018259812512
 30
0.0
 10
195.9160341018098
 20
15.33904208166543
 30
0.0
 10
195.9807188525479
 20
15.35546979593178
 30
0.0
 10
195.968982077272
 20
15.3042592521005
 30
0.0
 10
195.9765168063041
 20
15.25950334121001
 30
0.0
 10
195.9689820992256
 20
15.21474739010027
 30
0.0
 10
195.9807188140735
 20
15.16353690871041
 30
0.0
 10
195.9160344075252
 20
15.1799642779422
 30
0.0
 10
195.8496886430824
 20
15.1688278444727
 30
0.0
 10
195.735745948701
 20
15.17413115893119
 30
0.0
 10
195.6197995623054
 20
15.17114764593544
 30
0.0
 10
195.5062756882121
 20
15.17606892268393
 30
0.0
 10
195.4389231318802
 20
15.16585087513519
 30
0.0
 10
195.3734285122494
 20
15.18145996138815
 30
0.0
 10
195.3891713619217
 20
15.11463851827411
 30
0.0
 10
195.3783275998211
 20
15.04207057815878
 30
0.0
 10
195.3836581629791
 20
14.91162247614416
 30
0.0
 10
195.3817136151854
 20
14.76064558185226
 30
0.0
 10
195.3823133683212
 20
14.59322243934158
 30
0.0
 10
195.3821506559604
 20
14.42656176118371
 30
0.0
 10
195.3821895488134
 20
14.27360142921636
 30
0.0
 10
195.3821816413098
 20
14.14849178985705
 30
0.0
 10
195.3821828382743
 20
14.0650789099142
 30
0.0
 10
195.3821827716207
 20
14.02491778281976
 30
0.0
 10
195.3821827564382
 20
14.01410517385757
 30
0.0
 11
195.3821827564382
 21
14.01410517385757
 31
0.0
 11
195.4100014883674
 21
14.01410517385757
 31
0.0
 11
195.4833417816352
 21
14.01410517385757
 31
0.0
 11
195.5870297824621
 21
14.01410517385757
 31
0.0
 11
195.7058916370686
 21
14.01410517385757
 31
0.0
 11
195.8247534916751
 21
14.01410517385757
 31
0.0
 11
195.928441492502
 21
14.01410517385757
 31
0.0
 11
196.0017817857698
 21
14.01410517385757
 31
0.0
 11
196.029600517699
 21
14.01410517385757
 31
0.0
 11
196.029600517699
 21
13.9865168492117
 31
0.0
 11
196.029600517699
 21
13.92582253499077
 31
0.0
 11
196.029600517699
 21
13.86512822076984
 31
0.0
 11
196.029600517699
 21
13.83753989612397
 31
0.0
 11
195.9994901593494
 21
13.83753989612397
 31
0.0
 11
195.9162438745004
 21
13.83753989612397
 31
0.0
 11
195.7904888484521
 21
13.83753989612397
 31
0.0
 11
195.6328522665041
 21
13.83753989612397
 31
0.0
 11
195.4539613139564
 21
13.83753989612397
 31
0.0
 11
195.2644431761088
 21
13.83753989612397
 31
0.0
 11
195.0749250382612
 21
13.83753989612397
 31
0.0
 11
194.8960340857135
 21
13.83753989612397
 31
0.0
 11
194.7383975037655
 21
13.83753989612397
 31
0.0
 11
194.6126424777171
 21
13.83753989612397
 31
0.0
 11
194.5293961928682
 21
13.83753989612397
 31
0.0
 11
194.4992858345186
 21
13.83753989612397
 31
0.0
 11
194.4992858345186
 21
13.86512822076984
 31
0.0
 11
194.4992858345186
 21
13.92582253499077
 31
0.0
 11
194.4992858345186
 21
13.9865168492117
 31
0.0
 11
194.4992858345186
 21
14.01410517385757
 31
0.0
 11
194.5294068064946
 21
14.01410517385757
 31
0.0
 11
194.6088166417039
 21
14.01410517385757
 31
0.0
 11
194.7210857190689
 21
14.01410517385757
 31
0.0
 11
194.8497844175116
 21
14.01410517385757
 31
0.0
 11
194.9784831159544
 21
14.01410517385757
 31
0.0
 11
195.0907521933194
 21
14.01410517385757
 31
0.0
 11
195.1701620285288
 21
14.01410517385757
 31
0.0
 11
195.2002830005047
 21
14.01410517385757
 31
0.0
 11
195.2002830005047
 21
14.04654305523835
 31
0.0
 11
195.2002830005047
 21
14.1345887332719
 31
0.0
 11
195.2002830005047
 21
14.26434025879503
 31
0.0
 11
195.2002830005047
 21
14.42189568264454
 31
0.0
 11
195.2002830005047
 21
14.59335305565724
 31
0.0
 11
195.2002830005047
 21
14.76481042866994
 31
0.0
 11
195.2002830005047
 21
14.92236585251944
 31
0.0
 11
195.2002830005047
 21
15.05211737804257
 31
0.0
 11
195.2002830005047
 21
15.14016305607612
 31
0.0
 11
195.2002830005047
 21
15.1726009374569
 31
0.0
 11
195.1673826485527
 21
15.1726009374569
 31
0.0
 11
195.0825343724661
 21
15.1726009374569
 31
0.0
 11
194.9665173418987
 21
15.1726009374569
 31
0.0
 11
194.8401107265043
 21
15.1726009374569
 31
0.0
 11
194.7240936959369
 21
15.1726009374569
 31
0.0
 11
194.6392454198502
 21
15.1726009374569
 31
0.0
 11
194.6063450678983
 21
15.1726009374569
 31
0.0
 11
194.6063450678983
 21
15.19975793614802
 31
0.0
 11
194.6063450678983
 21
15.2595033332685
 31
0.0
 11
194.6063450678983
 21
15.31924873038898
 31
0.0
 11
194.6063450678983
 21
15.3464057290801
 31
0.0
 11
194.6392454198502
 21
15.3464057290801
 31
0.0
 11
194.7240936959369
 21
15.3464057290801
 31
0.0
 11
194.8401107265043
 21
15.3464057290801
 31
0.0
 11
194.9665173418987
 21
15.3464057290801
 31
0.0
 11
195.0825343724661
 21
15.3464057290801
 31
0.0
 11
195.1673826485527
 21
15.3464057290801
 31
0.0
 11
195.2002830005047
 21
15.3464057290801
 31
0.0
 11
195.2002830005047
 21
15.3765001173137
 31
0.0
 11
195.2002830005047
 21
15.45715307777974
 31
0.0
 11
195.2002830005047
 21
15.57391930412609
 31
0.0
 11
195.2002830005047
 21
15.71235349000063
 31
0.0
 11
195.2002830005047
 21
15.85801032905124
 31
0.0
 11
195.2002830005047
 21
15.99644451492578
 31
0.0
 11
195.2002830005047
 21
16.11321074127214
 31
0.0
 11
195.2002830005047
 21
16.19386370173817
 31
0.0
 11
195.2002830005047
 21
16.22395808997177
 31
0.0
 11
195.2250405288617
 21
16.22228324219442
 31
0.0
 11
195.2840777118668
 21
16.21828937441765
 31
0.0
 11
195.3545414464214
 21
16.21352249997441
 31
0.0
 11
195.4135786294265
 21
16.20952863219765
 31
0.0
 11
195.4383361577835
 21
16.20785378442029
 31
0.0
 11
195.423306722403
 21
16.18415814206509
 31
0.0
 11
195.3821827564382
 21
16.17047697887403
 31
0.0
 11
195.3821827564382
 21
16.14221664794832
 31
0.0
 11
195.3821827564382
 21
16.06647896106739
 31
0.0
 11
195.3821827564382
 21
15.95682887707561
 31
0.0
 11
195.3821827564382
 21
15.8268313548173
 31
0.0
 11
195.3821827564382
 21
15.69005135313683
 31
0.0
 11
195.3821827564382
 21
15.56005383087853
 31
0.0
 11
195.3821827564382
 21
15.45040374688674
 31
0.0
 11
195.3821827564382
 21
15.37466606000582
 31
0.0
 11
195.3821827564382
 21
15.3464057290801
 31
0.0
 11
195.4149350096113
 21
15.3464057290801
 31
0.0
 11
195.4994013467421
 21
15.3464057290801
 31
0.0
 11
195.6148961342475
 21
15.3464057290801
 31
0.0
 11
195.7407337385444
 21
15.3464057290801
 31
0.0
 11
195.8562285260497
 21
15.3464057290801
 31
0.0
 11
195.9406948631805
 21
15.3464057290801
 31
0.0
 11
195.9734471163537
 21
15.3464057290801
 31
0.0
 11
195.9734471163537
 21
15.31924873038898
 31
0.0
 11
195.9734471163537
 21
15.2595033332685
 31
0.0
 11
195.9734471163537
 21
15.19975793614802
 31
0.0
 11
195.9734471163537
 21
15.1726009374569
 31
0.0
 11
195.9406948631805
 21
15.1726009374569
 31
0.0
 11
195.8562285260498
 21
15.1726009374569
 31
0.0
 11
195.7407337385444
 21
15.1726009374569
 31
0.0
 11
195.6148961342475
 21
15.1726009374569
 31
0.0
 11
195.4994013467421
 21
15.1726009374569
 31
0.0
 11
195.4149350096113
 21
15.1726009374569
 31
0.0
 11
195.3821827564382
 21
15.1726009374569
 31
0.0
 11
195.3821827564382
 21
15.14016305607612
 31
0.0
 11
195.3821827564382
 21
15.05211737804257
 31
0.0
 11
195.3821827564382
 21
14.92236585251945
 31
0.0
 11
195.3821827564382
 21
14.76481042866994
 31
0.0
 11
195.3821827564382
 21
14.59335305565724
 31
0.0
 11
195.3821827564382
 21
14.42189568264453
 31
0.0
 11
195.3821827564382
 21
14.26434025879503
 31
0.0
 11
195.3821827564382
 21
14.1345887332719
 31
0.0
 11
195.3821827564382
 21
14.04654305523835
 31
0.0
 11
195.3821827564382
 21
14.01410517385757
 31
0.0
  0
SPLINE
  5
B2
102
{ACAD_REACTORS
330
CF
102
}
330
48
100
AcDbEntity
  8
_U_30EC_U_30A4_U_30E4_U_30FC_1
  6
Continuous
 62
     2
100
AcDbSpline
210
0.0
220
0.0
230
1.0
 70
     8
 71
     3
 72
    62
 73
    58
 74
    56
 42
0.000000001
 43
0.0000000001
 44
0.00000001
 40
0.0
 40
0.0
 40
0.0
 40
0.0
 40
0.0598250028308485
 40
0.2024846486897331
 40
0.3727558389221031
 40
0.515415484793607
 40
0.5752404975785339
 40
0.933232677548711
 40
1.29045176283946
 40
1.602077253145798
 40
1.699931634111992
 40
1.799359756424943
 40
2.270120149656962
 40
2.804661928461385
 40
2.882342287383094
 40
3.076543185718945
 40
3.329004354835404
 40
3.58146552456823
 40
3.77566642454351
 40
3.85334678455813
 40
3.899120679594904
 40
3.984129341791931
 40
4.029903236817308
 40
4.105797496059465
 40
4.295533144152424
 40
4.542189486611665
 40
4.788845828875612
 40
4.978581476409998
 40
5.054475735244241
 40
5.621734664339242
 40
6.130867242037294
 40
6.22524978094847
 40
6.318913039727168
 40
6.663579954558764
 40
7.047498900224612
 40
7.43523079157556
 40
7.498943906667972
 40
7.650875181209994
 40
7.832212509001561
 40
7.984143783696947
 40
8.047856898903103
 40
8.091554632732608
 40
8.172707566964267
 40
8.216405300767988
 40
8.289021782160873
 40
8.462184160757218
 40
8.668861838005384
 40
8.842024215263947
 40
8.914640695475143
 40
8.989881580861349
 40
9.155411528827257
 40
9.32094147774404
 40
9.396182352487292
 40
9.45470901114381
 40
9.583467660170802
 40
9.712226309013024
 40
9.770752957989506
 40
9.770752957989506
 40
9.770752957989506
 40
9.770752957989506
 10
187.1521871691833
 20
14.9398028819595
 30
0.0
 10
187.1322348171623
 20
14.93980875568671
 30
0.0
 10
187.0647037716466
 20
14.93982863806157
 30
0.0
 10
186.9410612161788
 20
14.93949362520326
 30
0.0
 10
186.7863180150056
 20
14.94107673750512
 30
0.0
 10
186.669734948248
 20
14.93686078860495
 30
0.0
 10
186.455094263424
 20
14.95215205331626
 30
0.0
 10
186.8518948407229
 20
14.59198721286191
 30
0.0
 10
186.8945656069267
 20
14.37510503397167
 30
0.0
 10
187.3189162146609
 20
14.19325062511452
 30
0.0
 10
187.1439821496073
 20
14.08985196568067
 30
0.0
 10
187.0194523925083
 20
13.87831523212731
 30
0.0
 10
186.7666277235942
 20
14.34806081001557
 30
0.0
 10
186.4797602893628
 20
14.99511516984521
 30
0.0
 10
186.4906335926659
 20
14.68782672154693
 30
0.0
 10
186.488289277796
 20
14.52288616971777
 30
0.0
 10
186.4861096126411
 20
14.28879670711693
 30
0.0
 10
186.4980774396346
 20
14.04498072421783
 30
0.0
 10
186.4687984740631
 20
13.89855796860984
 30
0.0
 10
186.5114522625469
 20
13.75113490174537
 30
0.0
 10
186.4239814005639
 20
13.7668579730622
 30
0.0
 10
186.3768527606743
 20
13.76694303543455
 30
0.0
 10
186.2898973207712
 20
13.75109425482908
 30
0.0
 10
186.3313474021722
 20
13.89527771422762
 30
0.0
 10
186.3029875004284
 20
14.03855052698456
 30
0.0
 10
186.3145973775298
 20
14.27674947365265
 30
0.0
 10
186.3124175648271
 20
14.50517235240346
 30
0.0
 10
186.3103111127993
 20
14.66705729375994
 30
0.0
 10
186.3208035438323
 20
14.98153709333752
 30
0.0
 10
186.0128963252893
 20
14.29229470872437
 30
0.0
 10
185.7055258267453
 20
13.81476750243041
 30
0.0
 10
185.5851367066274
 20
14.0374111263743
 30
0.0
 10
185.4074607910721
 20
14.15011034955565
 30
0.0
 10
185.8853326362894
 20
14.32548143465463
 30
0.0
 10
185.9353959057208
 20
14.56091929252031
 30
0.0
 10
186.3583799621716
 20
14.95322989344606
 30
0.0
 10
186.1276754273541
 20
14.93655307029066
 30
0.0
 10
186.0049685859341
 20
14.94269518948771
 30
0.0
 10
185.8325483095661
 20
14.93312822699574
 30
0.0
 10
185.7213224694447
 20
14.95448818489666
 30
0.0
 10
185.6025779627447
 20
14.92136265357419
 30
0.0
 10
185.6183169706685
 20
15.00203900606883
 30
0.0
 10
185.6178550933761
 20
15.04645414290854
 30
0.0
 10
185.602788188993
 20
15.12967081778533
 30
0.0
 10
185.7372380935442
 20
15.09062651983883
 30
0.0
 10
185.8619755545745
 20
15.11739729328422
 30
0.0
 10
186.0628755237279
 20
15.10063949044051
 30
0.0
 10
186.1921540949352
 20
15.12204225913004
 30
0.0
 10
186.3328419928294
 20
15.0886877885342
 30
0.0
 10
186.2980927452614
 20
15.22651875785068
 30
0.0
 10
186.3222185666712
 20
15.34963257349481
 30
0.0
 10
186.2967086182391
 20
15.47024055670334
 30
0.0
 10
186.3333251146684
 20
15.60539865141494
 30
0.0
 10
186.2211417027768
 20
15.58094545781891
 30
0.0
 10
186.1280356457135
 20
15.59307749842022
 30
0.0
 10
186.0191547579819
 20
15.58957630069994
 30
0.0
 10
185.9569697640963
 20
15.58981755951602
 30
0.0
 10
185.9375369557245
 20
15.58989295124144
 30
0.0
 11
187.1521871691833
 21
14.9398028819595
 31
0.0
 11
187.0923621563982
 21
14.9398028819595
 31
0.0
 11
186.949702510526
 21
14.9398028819595
 31
0.0
 11
186.7794313202913
 21
14.9398028819595
 31
0.0
 11
186.6367716744191
 21
14.9398028819595
 31
0.0
 11
186.576946661634
 21
14.9398028819595
 31
0.0
 11
186.7679960754842
 21
14.63705127966891
 31
0.0
 11
186.9941272785629
 21
14.36051890576684
 31
0.0
 11
187.224452617337
 21
14.15061253493457
 31
0.0
 11
187.1521596330703
 21
14.08466403668716
 31
0.0
 11
187.0879364402642
 21
14.0087605905256
 31
0.0
 11
186.7732818215557
 21
14.35891458349363
 31
0.0
 11
186.4886640249976
 21
14.811382951436
 31
0.0
 11
186.4886640249976
 21
14.73370259137312
 31
0.0
 11
186.4886640249976
 21
14.53950169121592
 31
0.0
 11
186.4886640249976
 21
14.28704052101156
 31
0.0
 11
186.4886640249976
 21
14.0345793508072
 31
0.0
 11
186.4886640249976
 21
13.84037845065
 31
0.0
 11
186.4886640249976
 21
13.76269809058712
 31
0.0
 11
186.4428901295605
 21
13.76269809058712
 31
0.0
 11
186.3578814666058
 21
13.76269809058712
 31
0.0
 11
186.3121075711686
 21
13.76269809058712
 31
0.0
 11
186.3121075711686
 21
13.8385923498274
 31
0.0
 11
186.3121075711686
 21
14.02832799792811
 31
0.0
 11
186.3121075711686
 21
14.27498434045904
 31
0.0
 11
186.3121075711686
 21
14.52164068298996
 31
0.0
 11
186.3121075711686
 21
14.71137633109067
 31
0.0
 11
186.3121075711686
 21
14.78727059033095
 31
0.0
 11
185.9987626399266
 21
14.31440946197693
 31
0.0
 11
185.6352328662147
 21
13.95795177109382
 31
0.0
 11
185.5773927461627
 21
14.03253450545022
 31
0.0
 11
185.5094852305341
 21
14.09704322939243
 31
0.0
 11
185.7750721898319
 21
14.3167221979589
 31
0.0
 11
186.0233764972061
 21
14.60953395971697
 31
0.0
 11
186.226498280526
 21
14.9398028819595
 31
0.0
 11
186.1627851652721
 21
14.9398028819595
 31
0.0
 11
186.0108538904358
 21
14.9398028819595
 31
0.0
 11
185.8295165624054
 21
14.9398028819595
 31
0.0
 11
185.6775852875692
 21
14.9398028819595
 31
0.0
 11
185.6138721723153
 21
14.9398028819595
 31
0.0
 11
185.6138721723153
 21
14.98350061600208
 31
0.0
 11
185.6138721723153
 21
15.06465355065259
 31
0.0
 11
185.6138721723153
 21
15.10835128469517
 31
0.0
 11
185.686488653796
 21
15.10835128469517
 31
0.0
 11
185.8596510327117
 21
15.10835128469517
 31
0.0
 11
186.0663287107723
 21
15.10835128469517
 31
0.0
 11
186.2394910896879
 21
15.10835128469517
 31
0.0
 11
186.3121075711686
 21
15.10835128469517
 31
0.0
 11
186.3121075711686
 21
15.18359217009302
 31
0.0
 11
186.3121075711686
 21
15.3491221179683
 31
0.0
 11
186.3121075711686
 21
15.51465206584358
 31
0.0
 11
186.3121075711686
 21
15.58989295124144
 31
0.0
 11
186.2535809125055
 21
15.58989295124144
 31
0.0
 11
186.1248222634466
 21
15.58989295124144
 31
0.0
 11
185.9960636143877
 21
15.58989295124144
 31
0.0
 11
185.9375369557245
 21
15.58989295124144
 31
0.0
  0
SPLINE
  5
B3
102
{ACAD_REACTORS
330
CF
102
}
330
48
100
AcDbEntity
  8
_U_30EC_U_30A4_U_30E4_U_30FC_1
  6
Continuous
 62
     2
100
AcDbSpline
210
0.0
220
0.0
230
1.0
 70
     8
 71
     3
 72
    70
 73
    66
 74
    64
 42
0.000000001
 43
0.0000000001
 44
0.00000001
 40
0.0
 40
0.0
 40
0.0
 40
0.0
 40
0.0241731073021188
 40
0.0846058988987013
 40
0.1631685280352715
 40
0.2417311571788903
 40
0.3021639488291614
 40
0.3263370654894688
 40
0.3533118254248028
 40
0.4228783438921259
 40
0.517999909531255
 40
0.621639823946525
 40
0.7167613891498853
 40
0.7863279069649011
 40
0.8133026791760983
 40
0.8372943998771104
 40
0.8945054261372299
 40
0.9627895541962352
 40
1.020000580349045
 40
1.043992300975172
 40
1.071934345522947
 40
1.113121768772879
 40
1.145225199332204
 40
1.225483775412739
 40
1.329819923771447
 40
1.434156071994337
 40
1.514414647795759
 40
1.546518078208367
 40
1.578974764260112
 40
1.662678849314106
 40
1.777131373668327
 40
1.901833377474689
 40
2.016285900500479
 40
2.09998998252779
 40
2.132446666570148
 40
2.15878235448587
 40
2.216720867907661
 40
2.274659381334084
 40
2.300995069256018
 40
2.33345175406599
 40
2.417155836543643
 40
2.531608358985054
 40
2.65631036228352
 40
2.770762886388653
 40
2.854466971339789
 40
2.886923657363596
 40
2.91359797683303
 40
2.982389642874834
 40
3.076451716946696
 40
3.178937260458314
 40
3.272999334739715
 40
3.341791001058938
 40
3.368465320663251
 40
3.396976080738472
 40
3.472140811845708
 40
3.578408190308398
 40
3.700226892455834
 40
3.822045594634051
 40
3.928312973256158
 40
4.003477705314555
 40
4.031988456866621
 40
4.058324144797421
 40
4.116262658236582
 40
4.174201171400378
 40
4.200536849608312
 40
4.200536849608312
 40
4.200536849608312
 40
4.200536849608312
 10
185.9857704961609
 20
15.75844135397705
 30
0.0
 10
185.9938259544679
 20
15.75844359811687
 30
0.0
 10
186.0220200663241
 20
15.75845146032798
 30
0.0
 10
186.0765534803672
 20
15.75830754828371
 30
0.0
 10
186.1482891808603
 20
15.75909120499898
 30
0.0
 10
186.2236240137062
 20
15.75627570463811
 30
0.0
 10
186.2713052366438
 20
15.76298403400957
 30
0.0
 10
186.3195071245615
 20
15.75197563692431
 30
0.0
 10
186.3062571799873
 20
15.80546402997033
 30
0.0
 10
186.3151093964537
 20
15.86049583543092
 30
0.0
 10
186.3108698036285
 20
15.95419908726109
 30
0.0
 10
186.3133483481278
 20
16.04959482218532
 30
0.0
 10
186.3090938706059
 20
16.14356821983387
 30
0.0
 10
186.3179818665846
 20
16.19795062438013
 30
0.0
 10
186.3046977409944
 20
16.25233997691461
 30
0.0
 10
186.3514119277108
 20
16.23842216335357
 30
0.0
 10
186.3943254545736
 20
16.24103877374043
 30
0.0
 10
186.4605443456684
 20
16.23648422450755
 30
0.0
 10
186.5013342271798
 20
16.22778162134162
 30
0.0
 10
186.5525145690819
 20
16.23531799890194
 30
0.0
 10
186.52537204872
 20
16.19349970223292
 30
0.0
 10
186.4803096055707
 20
16.20284992072592
 30
0.0
 10
186.4942065045051
 20
16.13841207371838
 30
0.0
 10
186.4858414431653
 20
16.07378219627399
 30
0.0
 10
186.4903632178398
 20
15.97529141193888
 30
0.0
 10
186.4854741311167
 20
15.8759593284257
 30
0.0
 10
186.4950258992082
 20
15.81293115552969
 30
0.0
 10
186.47997614552
 20
15.7496401149979
 30
0.0
 10
186.5449159457208
 20
15.76515072944268
 30
0.0
 10
186.6116246399496
 20
15.75499387697813
 30
0.0
 10
186.7241435470827
 20
15.75988800099366
 30
0.0
 10
186.8390235448953
 20
15.75691204732784
 30
0.0
 10
186.9519871999746
 20
15.7622166418499
 30
0.0
 10
187.0176267597676
 20
15.7510730647209
 30
0.0
 10
187.0816276691052
 20
15.76744532319857
 30
0.0
 10
187.0703142889188
 20
15.71761689905275
 30
0.0
 10
187.0775339871508
 20
15.67416715212123
 30
0.0
 10
187.0703142611268
 20
15.63071745587445
 30
0.0
 10
187.0816277175993
 20
15.58088895196876
 30
0.0
 10
187.0176263598971
 20
15.59726166091362
 30
0.0
 10
186.9519921240458
 20
15.58611271661588
 30
0.0
 10
186.838997431733
 20
15.59144857206854
 30
0.0
 10
186.7242456548642
 20
15.58834345663821
 30
0.0
 10
186.6113183686861
 20
15.59364894682589
 30
0.0
 10
186.5455220903584
 20
15.58257300019593
 30
0.0
 10
186.4816097975358
 20
15.59887597847618
 30
0.0
 10
186.4936015165126
 20
15.54423524395742
 30
0.0
 10
186.4862104613005
 20
15.48854295047841
 30
0.0
 10
186.4892684841983
 20
15.3964968914057
 30
0.0
 10
186.4893422785683
 20
15.30179109873101
 30
0.0
 10
186.486031357836
 20
15.20952782902265
 30
0.0
 10
186.4939505989903
 20
15.15435768736139
 30
0.0
 10
186.4815076611618
 20
15.10058169100136
 30
0.0
 10
186.5389116551631
 20
15.1145376886278
 30
0.0
 10
186.5994708140383
 20
15.10511457884226
 30
0.0
 10
186.7048680855081
 20
15.10942885928705
 30
0.0
 10
186.8204294070622
 20
15.10835504612031
 30
0.0
 10
186.9359688877797
 20
15.10725965900994
 30
0.0
 10
187.0414181130841
 20
15.11162525770632
 30
0.0
 10
187.1018680471805
 20
15.10209426030671
 30
0.0
 10
187.159283773911
 20
15.11617289606379
 30
0.0
 10
187.1477773876709
 20
15.06707153265683
 30
0.0
 10
187.1537566781749
 20
15.02564658018648
 30
0.0
 10
187.1520311050802
 20
14.97651677966696
 30
0.0
 10
187.1521500122971
 20
14.94854428447608
 30
0.0
 10
187.1521871691833
 20
14.9398028819595
 30
0.0
 11
185.9857704961609
 21
15.75844135397705
 31
0.0
 11
186.0099436128281
 21
15.75844135397705
 31
0.0
 11
186.0703764044962
 21
15.75844135397705
 31
0.0
 11
186.1489390336648
 21
15.75844135397705
 31
0.0
 11
186.2275016628333
 21
15.75844135397705
 31
0.0
 11
186.2879344545013
 21
15.75844135397705
 31
0.0
 11
186.3121075711686
 21
15.75844135397705
 31
0.0
 11
186.3121075711686
 21
15.78541612620063
 31
0.0
 11
186.3121075711686
 21
15.85498264404039
 31
0.0
 11
186.3121075711686
 21
15.95010420924985
 31
0.0
 11
186.3121075711686
 21
16.05374412358256
 31
0.0
 11
186.3121075711686
 21
16.14886568879202
 31
0.0
 11
186.3121075711686
 21
16.21843220663178
 31
0.0
 11
186.3121075711686
 21
16.24540697885536
 31
0.0
 11
186.3360407604891
 21
16.243732131078
 31
0.0
 11
186.3931122119457
 21
16.23973826330121
 31
0.0
 11
186.461229750781
 21
16.23497138885795
 31
0.0
 11
186.5183012022376
 21
16.23097752108117
 31
0.0
 11
186.5422343915581
 21
16.22930267330381
 31
0.0
 11
186.5274972731229
 21
16.2055629337264
 31
0.0
 11
186.4886640249976
 21
16.19183767331312
 31
0.0
 11
186.4886640249976
 21
16.15973424225119
 31
0.0
 11
186.4886640249976
 21
16.07947566459636
 31
0.0
 11
186.4886640249976
 21
15.97513951364509
 31
0.0
 11
186.4886640249976
 21
15.87080336269381
 31
0.0
 11
186.4886640249976
 21
15.79054478503898
 31
0.0
 11
186.4886640249976
 21
15.75844135397705
 31
0.0
 11
186.5211207110824
 21
15.75844135397705
 31
0.0
 11
186.6048247962485
 21
15.75844135397705
 31
0.0
 11
186.7192773208634
 21
15.75844135397705
 31
0.0
 11
186.8439793252945
 21
15.75844135397705
 31
0.0
 11
186.9584318499094
 21
15.75844135397705
 31
0.0
 11
187.0421359350755
 21
15.75844135397705
 31
0.0
 11
187.0745926211603
 21
15.75844135397705
 31
0.0
 11
187.0745926211603
 21
15.73210566604961
 31
0.0
 11
187.0745926211603
 21
15.67416715260924
 31
0.0
 11
187.0745926211603
 21
15.61622863916888
 31
0.0
 11
187.0745926211603
 21
15.58989295124144
 31
0.0
 11
187.0421359350755
 21
15.58989295124144
 31
0.0
 11
186.9584318499094
 21
15.58989295124144
 31
0.0
 11
186.8439793252945
 21
15.58989295124144
 31
0.0
 11
186.7192773208634
 21
15.58989295124144
 31
0.0
 11
186.6048247962485
 21
15.58989295124144
 31
0.0
 11
186.5211207110824
 21
15.58989295124144
 31
0.0
 11
186.4886640249976
 21
15.58989295124144
 31
0.0
 11
186.4886640249976
 21
15.56321863152022
 31
0.0
 11
186.4886640249976
 21
15.49442696487075
 31
0.0
 11
186.4886640249976
 21
15.40036489006434
 31
0.0
 11
186.4886640249976
 21
15.29787934587227
 31
0.0
 11
186.4886640249976
 21
15.20381727106586
 31
0.0
 11
186.4886640249976
 21
15.13502560441639
 31
0.0
 11
186.4886640249976
 21
15.10835128469517
 31
0.0
 11
186.5171747850993
 21
15.10835128469517
 31
0.0
 11
186.5923395162766
 21
15.10835128469517
 31
0.0
 11
186.6986068948376
 21
15.10835128469517
 31
0.0
 11
186.8204255970904
 21
15.10835128469517
 31
0.0
 11
186.9422442993433
 21
15.10835128469517
 31
0.0
 11
187.0485116779043
 21
15.10835128469517
 31
0.0
 11
187.1236764090816
 21
15.10835128469517
 31
0.0
 11
187.1521871691833
 21
15.10835128469517
 31
0.0
 11
187.1521871691833
 21
15.08201559676772
 31
0.0
 11
187.1521871691833
 21
15.02407708332733
 31
0.0
 11
187.1521871691833
 21
14.96613856988695
 31
0.0
 11
187.1521871691833
 21
14.9398028819595
 31
0.0
  0
SPLINE
  5
B4
102
{ACAD_REACTORS
330
CF
102
}
330
48
100
AcDbEntity
  8
_U_30EC_U_30A4_U_30E4_U_30FC_1
  6
Continuous
 62
     2
100
AcDbSpline
210
0.0
220
0.0
230
1.0
 70
     8
 71
     3
 72
    24
 73
    20
 74
    18
 42
0.000000001
 43
0.0000000001
 44
0.00000001
 40
0.0
 40
0.0
 40
0.0
 40
0.0
 40
0.2211075008753789
 40
0.4273218586245378
 40
0.508017467923889
 40
0.5914835907870553
 40
0.8143265690193283
 40
1.054651302686622
 40
1.295452694023218
 40
1.518109231328868
 40
1.540864321905483
 40
1.595126460622772
 40
1.659890947896141
 40
1.714153085187527
 40
1.736908174961827
 40
1.76495110073555
 40
1.801562291221195
 40
1.953914424543858
 40
2.126104167379926
 40
2.126104167379926
 40
2.126104167379926
 40
2.126104167379926
 10
185.9375369556888
 20
15.58989295113016
 30
0.0
 10
185.9112579081811
 20
15.53097628234374
 30
0.0
 10
185.8604698894424
 20
15.41711139679257
 30
0.0
 10
185.8131784839112
 20
15.14441958233115
 30
0.0
 10
185.7043482802617
 20
15.24445482575458
 30
0.0
 10
185.5514800279636
 20
15.27118593367325
 30
0.0
 10
185.7686155181199
 20
15.4851813501763
 30
0.0
 10
185.7838483674379
 20
15.70332117782488
 30
0.0
 10
185.8906889492001
 20
15.88451579066424
 30
0.0
 10
185.8305380947075
 20
16.16913226311402
 30
0.0
 10
185.9334317395401
 20
16.1411408922245
 30
0.0
 10
185.9779933468148
 20
16.13243251602299
 30
0.0
 10
186.0380842395397
 20
16.12139654183355
 30
0.0
 10
186.0756619587438
 20
16.1076752305556
 30
0.0
 10
186.1252466928606
 20
16.10756076160222
 30
0.0
 10
186.0930158919324
 20
16.07306592398623
 30
0.0
 10
186.017180222188
 20
16.08404104537966
 30
0.0
 10
186.0429447159693
 20
15.89858969582449
 30
0.0
 10
186.0055896763849
 20
15.80702313549589
 30
0.0
 10
185.9857704961609
 20
15.75844135397705
 30
0.0
 11
185.9375369556888
 21
15.58989295113016
 31
0.0
 11
185.8616471328551
 21
15.38221708318559
 31
0.0
 11
185.7717402238432
 21
15.19663392356192
 31
0.0
 11
185.7011493923109
 21
15.23573272563551
 31
0.0
 11
185.624552519265
 21
15.26889163187719
 31
0.0
 11
185.7214026947455
 21
15.46958801203538
 31
0.0
 11
185.799464146747
 21
15.69688163177024
 31
0.0
 11
185.8589716929719
 21
15.93021436608691
 31
0.0
 11
185.9001601511225
 21
16.14902808999054
 31
0.0
 11
185.9224183822213
 21
16.14429889221395
 31
0.0
 11
185.9754957025339
 21
16.13302157443899
 31
0.0
 11
186.0388460525844
 21
16.11956154999792
 31
0.0
 11
186.091923372897
 21
16.10828423222296
 31
0.0
 11
186.1141816039958
 21
16.10355503444637
 31
0.0
 11
186.096409715746
 21
16.0818625084101
 31
0.0
 11
186.060612299807
 21
16.07418628445367
 31
0.0
 11
186.0281953301479
 21
15.92532288171313
 31
0.0
 11
185.9857704961609
 21
15.75844135397705
 31
0.0
  0
LWPOLYLINE
  5
B5
102
{ACAD_REACTORS
330
D0
102
}
330
48
100
AcDbEntity
  8
_U_30EC_U_30A4_U_30E4_U_30FC_1
  6
Continuous
 62
     2
100
AcDbPolyline
 90
        5
 70
     1
 43
0.0
 10
191.160297169703
 20
15.39722336795625
 10
192.4578138032672
 20
15.39722336795625
 10
192.4578138032672
 20
15.22875434022057
 10
191.160297169703
 20
15.22875434022057
 10
191.160297169703
 20
15.39722336795625
  0
MTEXT
  5
B7
330
48
100
AcDbEntity
  8
1
 62
   250
100
AcDbMText
 10
25.0
 20
5.0
 30
0.0
 40
3.5
 41
0.0
 71
     4
 72
     1
  1
備考欄の文字列 原点位置=4
  7
CONVERTER_11
 73
     1
 44
0.54545454545455
  0
MTEXT
  5
B8
330
48
100
AcDbEntity
  8
1
 62
     2
100
AcDbMText
 10
89.5
 20
24.00000000000001
 30
0.0
 40
3.5
 41
0.0
 71
     5
 72
     1
  1
尺度
  7
CONVERTER_11
 73
     1
 44
0.54545454545455
  0
MTEXT
  5
B9
330
48
100
AcDbEntity
  8
1
 62
     2
100
AcDbMText
 10
135.5
 20
25.00000000000001
 30
0.0
 40
3.0
 41
0.0
 71
     5
 72
     1
  1
製図
  7
CONVERTER_11
 73
     1
 44
0.59090909090909
  0
MTEXT
  5
BA
330
48
100
AcDbEntity
  8
1
 62
     2
100
AcDbMText
 10
152.5
 20
25.00000000000001
 30
0.0
 40
3.0
 41
0.0
 71
     5
 72
     1
  1
設計
  7
CONVERTER_11
 73
     1
 44
0.59090909090909
  0
MTEXT
  5
BB
330
48
100
AcDbEntity
  8
1
 62
     2
100
AcDbMText
 10
118.5
 20
25.00000000000001
 30
0.0
 40
3.0
 41
0.0
 71
     5
 72
     1
  1
検図
  7
CONVERTER_11
 73
     1
 44
0.59090909090909
  0
MTEXT
  5
BC
330
48
100
AcDbEntity
  8
1
 62
     2
100
AcDbMText
 10
175.0
 20
23.50000000000001
 30
0.0
 40
3.5
 41
0.0
 71
     5
 72
     1
  1
第三角法
  7
CONVERTER_11
 73
     1
 44
0.54545454545455
  0
MTEXT
  5
BD
330
48
100
AcDbEntity
  8
1
 62
     2
100
AcDbMText
 10
101.5
 20
25.00000000000001
 30
0.0
 40
3.0
 41
0.0
 71
     5
 72
     1
  1
承認
  7
CONVERTER_11
 73
     1
 44
0.59090909090909
  0
MTEXT
  5
BE
330
48
100
AcDbEntity
  8
1
 62
     2
100
AcDbMText
 10
29.0
 20
14.25
 30
0.0
 40
3.5
 41
0.0
 71
     5
 72
     1
  1
品番
  7
CONVERTER_11
 73
     1
 44
0.72727272727273
  0
MTEXT
  5
BF
330
48
100
AcDbEntity
  8
1
 62
     2
100
AcDbMText
 10
29.0
 20
22.75
 30
0.0
 40
3.5
 41
0.0
 71
     5
 72
     1
  1
品名
  7
CONVERTER_11
 73
     1
 44
0.72727272727273
  0
MTEXT
  5
C0
330
48
100
AcDbEntity
  8
1
 62
     2
100
AcDbMText
 10
29.0
 20
34.00000000000001
 30
0.0
 40
3.5
 41
0.0
 71
     5
 72
     1
  1
備考
  7
CONVERTER_11
 73
     1
 44
0.45454545454545
  0
MTEXT
  5
C1
330
48
100
AcDbEntity
  8
1
 62
     2
100
AcDbMText
 10
32.5
 20
282.0000000000002
 30
0.0
 40
5.0
 41
0.0
 71
     5
 72
     1
  1
図番
  7
CONVERTER_11
 73
     1
 44
0.45454545454545
  0
HATCH
  5
C2
330
48
100
AcDbEntity
  8
1
  6
Continuous
 62
     2
100
AcDbHatch
 10
0.0
 20
0.0
 30
0.0
210
0.0
220
0.0
230
1.0
  2
CUSTOM0
 70
     0
 71
     1
 91
        1
 92
        1
 93
        1
 72
     4
 94
        3
 73
     0
 74
     0
 95
       99
 96
       95
 40
0.0
 40
0.0
 40
0.0
 40
0.0
 40
0.0796417172272126
 40
0.1621768542356086
 40
0.2486489160957739
 40
0.3404969668524697
 40
0.438191251116472
 40
0.5434463660245021
 40
0.6518115192846775
 40
0.7530190937885805
 40
0.8492196919724093
 40
0.9419290312997065
 40
1.034249663569931
 40
1.12907860062014
 40
1.226697027573185
 40
1.327220425421648
 40
1.47057213493797
 40
1.595489863371176
 40
1.719934125348321
 40
1.85057662012732
 40
1.989059629987259
 40
2.134139054226902
 40
2.280698007207163
 40
2.424529739039383
 40
2.565929576985794
 40
2.708239260773452
 40
2.861717887443604
 40
3.04516854034732
 40
3.183798301138558
 40
3.314813961455416
 40
3.442083470447266
 40
3.569912708372981
 40
3.702177512509378
 40
3.842307559659545
 40
3.992872223245922
 40
4.156750662218254
 40
4.310981861107561
 40
4.445859909322608
 40
4.57239393613157
 40
4.701656719781993
 40
4.768279086008492
 40
4.835960697898428
 40
4.91278891872936
 40
5.006285208481581
 40
5.026909478751628
 40
5.047533749021136
 40
5.101808031471209
 40
5.162325165538498
 40
5.226919745995833
 40
5.294231806596744
 40
5.364544852554845
 40
5.438319055467963
 40
5.517877651324218
 40
5.607647714861586
 40
5.700449642544404
 40
5.788251142364081
 40
5.87271470603971
 40
5.955167292575224
 40
6.037192395190335
 40
6.12066918146905
 40
6.20684861668629
 40
6.296680855416711
 40
6.442558392872535
 40
6.568190371608228
 40
6.692904567360284
 40
6.824220446556989
 40
6.963121850329304
 40
7.107843738851117
 40
7.25343166390723
 40
7.395187468036651
 40
7.533140753237684
 40
7.670550457175115
 40
7.816236511769179
 40
7.987691657359143
 40
8.14227742196917
 40
8.29366261541497
 40
8.442962460879226
 40
8.591598316185198
 40
8.743678992361698
 40
8.90372532369916
 40
9.076307008890424
 40
9.265578604680565
 40
9.459203795360683
 40
9.617619810273414
 40
9.753609671361772
 40
9.874873300003944
 40
9.95452018497762
 40
10.02416413719228
 40
10.09769764405429
 40
10.18909955924956
 40
10.20974586420126
 40
10.23039218263371
 40
10.30057101881257
 40
10.37632012987537
 40
10.37632012987537
 40
10.37632012987537
 40
10.37632012987537
 10
170.1465954835851
 20
14.13795663215994
 10
170.1632217851219
 20
14.11720608845312
 10
170.1970784206576
 20
14.07495111711898
 10
170.2599822541036
 20
14.02029811392074
 10
170.3332500940393
 20
13.9729902512105
 10
170.4175969238636
 20
13.93527231437934
 10
170.513224061546
 20
13.91040619731951
 10
170.6171853775346
 20
13.90309559345937
 10
170.7224020220404
 20
13.91142322794052
 10
170.8206626371332
 20
13.9414917965153
 10
170.9058986427547
 20
13.98848822971876
 10
170.9779220206102
 20
14.04952991250857
 10
171.0350917709095
 20
14.12412969578585
 10
171.076786874744
 20
14.21002464660171
 10
171.1026952846292
 20
14.30485850432211
 10
171.1118037332653
 20
14.41854979038367
 10
171.0986864796486
 20
14.54332587770779
 10
171.0325330334413
 20
14.66014719171889
 10
170.9369370919568
 20
14.74512539577374
 10
170.8249681022368
 20
14.81416684459164
 10
170.6993659583269
 20
14.8720414204589
 10
170.5656691620855
 20
14.92373723284339
 10
170.431312281883
 20
14.9789909239718
 10
170.3051983986877
 20
15.04939770641653
 10
170.1926579987534
 20
15.13785540731245
 10
170.0969963064458
 20
15.24981067868477
 10
170.0334157151825
 20
15.3994991010138
 10
170.0200706505015
 20
15.55932794385142
 10
170.0320510987447
 20
15.71048405306846
 10
170.071229892884
 20
15.83809244591538
 10
170.1354987750909
 20
15.95080874030848
 10
170.2238204999739
 20
16.04648609268683
 10
170.3338091207628
 20
16.12354214985753
 10
170.4632284401264
 20
16.18151396936276
 10
170.6111838967792
 20
16.21739177588822
 10
170.7682069455486
 20
16.22746719050564
 10
170.917494046643
 20
16.21863637762592
 10
171.059625361417
 20
16.19074899340351
 10
171.1595922609625
 20
16.13413314701137
 10
171.3125074736186
 20
16.08674602105506
 10
171.2455131717167
 20
16.00197553001185
 10
171.2296479120269
 20
15.93438901873483
 10
171.1978750531296
 20
15.8692609279319
 10
171.215020220957
 20
15.76723453256953
 10
171.1666427208231
 20
15.77493211681901
 10
171.1315789440765
 20
15.76806771724809
 10
171.1296697985719
 20
15.83263831158196
 10
171.0985692931989
 20
15.87825639621396
 10
171.0664551628455
 20
15.93561036628456
 10
171.0208038475167
 20
15.98540462692555
 10
170.9658508218387
 20
16.02994813719
 10
170.9010841173006
 20
16.06763988836544
 10
170.8232377310596
 20
16.09283375791354
 10
170.7355160553352
 20
16.09931230998109
 10
170.6452903277805
 20
16.09235709285607
 10
170.5594594694065
 20
16.06909190460919
 10
170.4828343638596
 20
16.03131644107545
 10
170.4165265636201
 20
15.98051641089572
 10
170.3622560536963
 20
15.91731143407211
 10
170.3224925345459
 20
15.84276455710366
 10
170.2976775510587
 20
15.75917313997763
 10
170.289212426287
 20
15.65192948382285
 10
170.3019697987103
 20
15.52965457267559
 10
170.3681548409273
 20
15.41149724291211
 10
170.4640977399832
 20
15.32606325709529
 10
170.5757914963181
 20
15.25583362306718
 10
170.7010863668702
 20
15.19659162305305
 10
170.8349823941447
 20
15.14616708086131
 10
170.9689930333149
 20
15.09322516984382
 10
171.0950885316915
 20
15.02750170625176
 10
171.2076216638417
 20
14.94480352537323
 10
171.3031370284231
 20
14.83996006310067
 10
171.3672706486963
 20
14.69937117251574
 10
171.3811103725279
 20
14.54065409451592
 10
171.3673954712229
 20
14.38153155217874
 10
171.3244739153983
 20
14.23483828819211
 10
171.2545906329065
 20
14.10119796587146
 10
171.1574592213829
 20
13.98532387699288
 10
171.0347806023656
 20
13.89089981770086
 10
170.8874408413167
 20
13.82179270651984
 10
170.7177132497124
 20
13.77953210858851
 10
170.5317404979597
 20
13.76781736230408
 10
170.3528955926182
 20
13.77809486683436
 10
170.1881733753743
 20
13.81966573769155
 10
170.0834410841057
 20
13.88797642883942
 10
169.9350960790366
 20
13.93675219032104
 10
169.9980378194728
 20
14.02976591290842
 10
170.0072274430059
 20
14.10296536248281
 10
170.030371130123
 20
14.16936294501346
 10
170.0034588335315
 20
14.26974809527584
 10
170.0521338956339
 20
14.26234033517378
 10
170.0916530580696
 20
14.26894063620895
 10
170.0996204944702
 20
14.19078703218931
 10
170.1305436967923
 20
14.15600927375856
 10
170.1465954835851
 20
14.13795663215994
 97
        1
330
A4
 75
     1
 76
     2
 52
45.0
 41
0.1
 77
     0
 78
     1
 53
45.0
 43
0.0
 44
0.0
 45
-0.282842712474619
 46
0.0
 79
     0
 98
        1
 10
0.0
 20
0.0
  0
HATCH
  5
C3
330
48
100
AcDbEntity
  8
1
  6
Continuous
 62
     2
100
AcDbHatch
 10
0.0
 20
0.0
 30
0.0
210
0.0
220
0.0
230
1.0
  2
CUSTOM1
 70
     0
 71
     1
 91
        2
 92
        1
 93
        1
 72
     4
 94
        3
 73
     0
 74
     0
 95
       57
 96
       53
 40
0.0
 40
0.0
 40
0.0
 40
0.0
 40
0.0471632082808403
 40
0.0914861054631891
 40
0.1357762519701842
 40
0.1826527001609569
 40
0.2295203288571477
 40
0.2737751972219647
 40
0.3181310461542242
 40
0.3652607198398548
 40
0.4571007286314462
 40
0.5671851029165049
 40
0.6894623283868238
 40
0.818175827254614
 40
0.9510087229273883
 40
1.085852229674074
 40
1.21812616447532
 40
1.343545131142401
 40
1.45453720295676
 40
1.567187607530713
 40
1.680710966642331
 40
1.794226869736696
 40
1.900009184247495
 40
2.004085860447775
 40
2.108162674451691
 40
2.214000150155321
 40
2.496038577352125
 40
2.762350745479254
 40
2.997275353279416
 40
3.185110082137747
 40
3.246407890063891
 40
3.312607550212622
 40
3.378877742711552
 40
3.440140399651464
 40
4.100501696006533
 40
4.754913085563584
 40
5.411331693423954
 40
6.077890432568736
 40
6.110575292671015
 40
6.143260152775795
 40
6.367989363395213
 40
6.610525374951574
 40
6.863389136467343
 40
7.119380025547663
 40
7.376036605091146
 40
7.631164770966349
 40
7.876722425456471
 40
8.104953735856016
 40
8.312916685924346
 40
8.497730294941324
 40
8.651018984313918
 40
8.764738853624612
 40
8.764738853624612
 40
8.764738853624612
 40
8.764738853624612
 10
174.7922649500512
 20
13.81626739612926
 10
174.776661672693
 20
13.81826231079078
 10
174.7463947960301
 20
13.822132013603
 10
174.7010994202251
 20
13.82341984967269
 10
174.6559553129349
 20
13.82308683554052
 10
174.6099017123399
 20
13.82314658674225
 10
174.5640496172097
 20
13.82325813650002
 10
174.5183711648164
 20
13.82277833456591
 10
174.4750811541608
 20
13.82461109618723
 10
174.4039947951512
 20
13.80049556814653
 10
174.4057477261441
 20
13.92184693977251
 10
174.358619637057
 20
14.00726239751235
 10
174.3191478251762
 20
14.12486929345137
 10
174.2706635532643
 20
14.24232752540435
 10
174.2201017402522
 20
14.36405935761512
 10
174.1718634610476
 20
14.49075967862463
 10
174.1135232947593
 20
14.59933687784953
 10
174.098089266726
 20
14.75620657134408
 10
173.9566586330635
 20
14.72373446548323
 10
173.8508397414903
 20
14.7351288868218
 10
173.7358569725222
 20
14.73392591514616
 10
173.625314225214
 20
14.73506945347408
 10
173.5176583522783
 20
14.73418350037526
 10
173.4121322529242
 20
14.73416602390519
 10
173.3109192682012
 20
14.72714032472414
 10
173.1266804827752
 20
14.7513585985987
 10
173.1157393685411
 20
14.44741691121885
 10
173.008769163475
 20
14.22353177253393
 10
172.9098148604345
 20
14.03895314292502
 10
172.9225090524006
 20
13.79530204804205
 10
172.8050091716397
 20
13.82508046753198
 10
172.7422055868309
 20
13.82258089509604
 10
172.6785872093399
 20
13.82344075102806
 10
172.3946014194075
 20
13.78098039941939
 10
173.025163849938
 20
14.50081952444785
 10
173.1087645289072
 20
15.01276539435727
 10
173.4929252789337
 20
15.53353743550045
 10
173.4777208288565
 20
16.23519626253214
 10
173.7239265722696
 20
16.22345633081256
 10
173.8256346157561
 20
16.23225004452773
 10
173.8249752035818
 20
15.9805965073035
 10
173.9428317155827
 20
15.79818020733955
 10
174.0315515260484
 20
15.55563740662865
 10
174.132229248526
 20
15.3234003053013
 10
174.2311142712242
 20
15.08674644566911
 10
174.329967699067
 20
14.85461739170096
 10
174.4256166390924
 20
14.63122222788786
 10
174.5159904573271
 20
14.42272549049318
 10
174.5989944568189
 20
14.23308448529322
 10
174.6726088582797
 20
14.06663106068094
 10
174.7342815895545
 20
13.92917699626102
 10
174.7749458885604
 20
13.84999239430034
 10
174.7922649500512
 20
13.81626739612926
 97
        1
330
A5
 92
       16
 93
        1
 72
     4
 94
        3
 73
     0
 74
     0
 95
       25
 96
       21
 40
0.0
 40
0.0
 40
0.0
 40
0.0
 40
0.0911479969064253
 40
0.1858117896204665
 40
0.280412839973449
 40
0.3715889190714509
 40
0.4679080494218707
 40
0.564268380922923
 40
0.6605683222644423
 40
0.7569653015809119
 40
0.8561348172521489
 40
1.092615965104156
 40
1.374867658141739
 40
1.611348812011442
 40
1.71051832842509
 40
1.809403163726408
 40
2.045205463293911
 40
2.326646917621971
 40
2.562449217190433
 40
2.661334043833752
 40
2.661334043833752
 40
2.661334043833752
 40
2.661334043833752
 10
173.2683700567199
 20
14.88614538197292
 10
173.2987525917922
 20
14.88598079714554
 10
173.3606895889111
 20
14.88564528689921
 10
173.454135696033
 20
14.88269055452
 10
173.5475095236357
 20
14.8797775287715
 10
173.6417760753477
 20
14.87894201643417
 10
173.7354964790967
 20
14.87996644658046
 10
173.8352040303205
 20
14.87916977470972
 10
173.9188949546312
 20
14.88921410235219
 10
174.0637996315044
 20
14.86234617674166
 10
173.93961324448
 20
15.0366553028005
 10
173.8965867286281
 20
15.19651711006092
 10
173.7808922142208
 20
15.45518458550214
 10
173.7017565431257
 20
15.59231052861859
 10
173.6431576621816
 20
15.80937033134077
 10
173.5864803939438
 20
15.59266134213428
 10
173.5052809900478
 20
15.45327012438236
 10
173.4063701281488
 20
15.20406969370195
 10
173.325362509426
 20
15.01925830226073
 10
173.2813683325838
 20
14.91650446856116
 10
173.2683700567199
 20
14.88614538197292
 97
        1
330
A6
 75
     1
 76
     2
 52
45.0
 41
0.1
 77
     0
 78
     1
 53
45.0
 43
0.0
 44
0.0
 45
-0.282842712474619
 46
0.0
 79
     0
 98
        1
 10
0.0
 20
0.0
  0
HATCH
  5
C4
330
48
100
AcDbEntity
  8
1
  6
Continuous
 62
     2
100
AcDbHatch
 10
0.0
 20
0.0
 30
0.0
210
0.0
220
0.0
230
1.0
  2
CUSTOM2
 70
     0
 71
     1
 91
        1
 92
        1
 93
        1
 72
     4
 94
        3
 73
     0
 74
     0
 95
       95
 96
       91
 40
0.0
 40
0.0
 40
0.0
 40
0.0
 40
0.6550406656911676
 40
1.308087289031932
 40
1.420803739835808
 40
1.566130759770803
 40
1.757067341888469
 40
2.006513545026465
 40
2.087328263121559
 40
2.185328872295635
 40
2.29461245474837
 40
2.408936380534821
 40
2.526802767798567
 40
2.646360524615616
 40
2.762535723971585
 40
2.870057342870156
 40
2.966883448431654
 40
3.050803243518305
 40
3.115818222436612
 40
3.156030057150264
 40
3.213914225080224
 40
3.276689026450681
 40
3.342960320981345
 40
3.404230667150595
 40
3.453822809493404
 40
3.532499827188444
 40
3.634775188507194
 40
3.75490933300819
 40
3.889736761660695
 40
4.035769602175256
 40
4.187256681197643
 40
4.338733685675992
 40
4.488478734676153
 40
4.634708317831619
 40
4.771493189921308
 40
4.892686571561246
 40
5.199775528944485
 40
5.460353566929672
 40
5.667603142345548
 40
5.814722905404531
 40
5.828990806219886
 40
5.855488336304526
 40
5.869756237118858
 40
6.189796507762901
 40
6.531890469873127
 40
6.883053637017079
 40
7.230512024911592
 40
7.56696665676466
 40
7.885203559707526
 40
8.17288743971933
 40
8.418011594062802
 40
8.443926721190724
 40
8.510760470613212
 40
8.602145393795722
 40
8.701714041647163
 40
8.793098965075393
 40
8.859932715057965
 40
8.885847842603615
 40
9.24230125661283
 40
9.589275455016784
 40
9.92180854316419
 40
10.23479624298469
 40
10.2996815088918
 40
10.35323493887768
 40
10.4015462535515
 40
10.46482922477829
 40
10.55973900668409
 40
10.69239545985622
 40
10.84920353475676
 40
11.01626328594784
 40
11.18672024367447
 40
11.35372582577215
 40
11.50257442292431
 40
11.61866495023295
 40
11.71329869152879
 40
11.82511050573912
 40
11.9446488084572
 40
12.0692924264251
 40
12.19707290435181
 40
12.32562632860533
 40
12.45034565331284
 40
12.56646595170332
 40
12.6709900741464
 40
12.76077625936787
 40
12.82703233506699
 40
12.87429132785998
 40
12.89831990323337
 40
12.92234847860025
 40
13.53984767410331
 40
14.18294284359371
 40
14.18294284359371
 40
14.18294284359371
 40
14.18294284359371
 10
177.3067935648021
 20
14.70898038201725
 10
177.175201975855
 20
14.82265058603232
 10
176.9124193802728
 20
15.04964496316156
 10
176.3997393441023
 20
15.89214462956286
 10
176.4106654595361
 20
15.5342337757702
 10
176.4041226527991
 20
15.39267392272132
 10
176.4028026631771
 20
15.1942130529928
 10
176.4018117602538
 20
15.02150296045983
 10
176.4024101751973
 20
14.8786537325758
 10
176.4038994301881
 20
14.78265005413358
 10
176.4055683588472
 20
14.67545503263141
 10
176.4071934954618
 20
14.56164211517582
 10
176.4092429501685
 20
14.44441572604589
 10
176.4123165501927
 20
14.3265641123297
 10
176.4156339697043
 20
14.21228087320621
 10
176.419360534028
 20
14.10521401867278
 10
176.4217338161424
 20
14.01007408766922
 10
176.4278718888357
 20
13.92558557205695
 10
176.4239784495946
 20
13.8692308729814
 10
176.4455230443078
 20
13.79825022472353
 10
176.3680940058617
 20
13.82902677604485
 10
176.3116353240191
 20
13.82011242517615
 10
176.2540495896806
 20
13.82896218398275
 10
176.1690163478472
 20
13.79738225225942
 10
176.2009714146381
 20
13.8809515599219
 10
176.1990705282538
 20
13.94882608968309
 10
176.2107960047299
 20
14.05233256764418
 10
176.2164241052998
 20
14.17002125616695
 10
176.2237902178941
 20
14.30388609164422
 10
176.2320759701609
 20
14.44764152872633
 10
176.2398851897427
 20
14.59714022843444
 10
176.2457571222658
 20
14.74792549402078
 10
176.2503667817968
 20
14.89699943878438
 10
176.2542632117541
 20
15.04122913163022
 10
176.2570715126564
 20
15.17583905213017
 10
176.2576698755022
 20
15.36469614347354
 10
176.2616023867151
 20
15.58975494313155
 10
176.2442175378498
 20
15.86367091125706
 10
176.2850417342583
 20
16.027871120986
 10
176.1995153256001
 20
16.22749661465095
 10
176.2660558907687
 20
16.22385458403978
 10
176.2838724273229
 20
16.22413447160854
 10
176.4056801797501
 20
16.22632927398611
 10
176.5080770335462
 20
15.94675118721515
 10
176.7580021509356
 20
15.74563008536005
 10
176.987003533111
 20
15.47792614987913
 10
177.2245151213108
 20
15.2264641386238
 10
177.4486090740771
 20
14.98969974061354
 10
177.6750716283009
 20
14.7321869258308
 10
177.8325687886514
 20
14.61649335056926
 10
178.0472129612675
 20
14.27997152538796
 10
178.0422645974617
 20
14.40464754091603
 10
178.0433931602545
 20
14.46327691935737
 10
178.0428877841515
 20
14.55043662371977
 10
178.0430475158112
 20
14.64416143182872
 10
178.0430054891317
 20
14.73018971297035
 10
178.0430202040372
 20
14.79153891945496
 10
178.0429706255981
 20
14.94135231520991
 10
178.0458811522811
 20
15.17989612510105
 10
178.0259521041161
 20
15.544865098687
 10
178.0750433936246
 20
15.80799631993411
 10
177.917795150918
 20
16.21928904947753
 10
178.0762112872421
 20
16.16398282551747
 10
178.1311680478628
 20
16.16199686500175
 10
178.182788776674
 20
16.16264778248253
 10
178.2713198965366
 20
16.20369527738246
 10
178.2204898303168
 20
16.05696326622986
 10
178.2313389930283
 20
15.95019971954433
 10
178.2166036994847
 20
15.79085705414111
 10
178.2099976446203
 20
15.62853061652874
 10
178.2014961399915
 20
15.45992521892394
 10
178.1943227202196
 20
15.29814814703541
 10
178.1889063215388
 20
15.15422331457932
 10
178.1871713967647
 20
15.03437493466924
 10
178.1875440672317
 20
14.92686101590515
 10
178.1873656126261
 20
14.81820024645586
 10
178.1877010863139
 20
14.69953570165531
 10
178.1890040622184
 20
14.57555163512741
 10
178.1908887351574
 20
14.44858294171105
 10
178.192500445485
 20
14.32153861551031
 10
178.194140313743
 20
14.19854884492178
 10
178.1962570745751
 20
14.08300931383759
 10
178.1963848422364
 20
13.98090903955836
 10
178.2006514396554
 20
13.89009848838156
 10
178.1908440085289
 20
13.83213621208786
 10
178.2118474771689
 20
13.76517130132029
 10
178.1725639739896
 20
13.77291153966688
 10
177.9595307117748
 20
13.75755254145193
 10
177.7636297943184
 20
14.31403058094463
 10
177.4611197631544
 20
14.57556035348509
 10
177.3067935648021
 20
14.70898038201725
 97
        1
330
A7
 75
     1
 76
     2
 52
45.0
 41
0.1
 77
     0
 78
     1
 53
45.0
 43
0.0
 44
0.0
 45
-0.282842712474619
 46
0.0
 79
     0
 98
        1
 10
0.0
 20
0.0
  0
HATCH
  5
C5
330
48
100
AcDbEntity
  8
1
  6
Continuous
 62
     2
100
AcDbHatch
 10
0.0
 20
0.0
 30
0.0
210
0.0
220
0.0
230
1.0
  2
CUSTOM3
 70
     0
 71
     1
 91
        1
 92
        1
 93
        1
 72
     4
 94
        3
 73
     0
 74
     0
 95
      110
 96
      106
 40
0.0
 40
0.0
 40
0.0
 40
0.0
 40
0.2203406257277749
 40
0.440780878283809
 40
0.5952494494615068
 40
0.7488431659393073
 40
0.9023581831308775
 40
1.056801968670404
 40
1.210736449099848
 40
1.363041386539783
 40
1.515315729683069
 40
1.669377239148077
 40
1.721611652756564
 40
1.773199502942947
 40
1.824933793209997
 40
1.877110426487978
 40
1.982682281206741
 40
2.07878166708755
 40
2.172809640822328
 40
2.271937807378924
 40
2.378349933379346
 40
2.494131557736591
 40
2.626681683943697
 40
2.783145050796068
 40
2.890701232940919
 40
2.993130312454814
 40
3.099869730691795
 40
3.220237816691288
 40
3.352695482737578
 40
3.481732806389829
 40
3.593499473690361
 40
3.674323013331874
 40
3.817951711952796
 40
3.946167120793736
 40
4.061405053453422
 40
4.166480796003063
 40
4.262478775059185
 40
4.350736673551141
 40
4.433071991253998
 40
4.511216293814543
 40
4.564262454117862
 40
4.618474415571483
 40
4.670128488754079
 40
4.722296879126273
 40
4.819540945314198
 40
4.931194984127998
 40
5.049996040257612
 40
5.168643755415101
 40
5.283970811762368
 40
5.392260784910137
 40
5.48651225487624
 40
5.559178233949611
 40
5.591425852853278
 40
5.626215969637665
 40
5.667155838674205
 40
5.717449290214009
 40
5.738402360944624
 40
5.784499116553594
 40
5.830595872164567
 40
5.851548942897425
 40
5.87301928066154
 40
5.924217778408082
 40
5.985325662817461
 40
6.036524160567478
 40
6.057994498334006
 40
6.236847789607255
 40
6.38140992894543
 40
6.493190424178462
 40
6.574067534230272
 40
6.691018086205366
 40
6.814881554220284
 40
6.944307823240208
 40
7.071266716065775
 40
7.19348860446162
 40
7.309042773127818
 40
7.414007203170501
 40
7.505140441886312
 40
7.531150360599471
 40
7.559221645322056
 40
7.587202218920715
 40
7.612569159498927
 40
7.662550809480798
 40
7.702878875763947
 40
7.857328205230761
 40
8.010799568088407
 40
8.165256399657357
 40
8.322232698713696
 40
8.479564855016383
 40
8.635216230290586
 40
8.790882550925504
 40
8.94830515494707
 40
9.16827183903276
 40
9.387358980987033
 40
9.60804796103328
 40
9.832914234792485
 40
9.85833869496282
 40
9.925366817229827
 40
10.02013071422741
 40
10.1287624985898
 40
10.2373942829523
 40
10.33215817995172
 40
10.39918630222375
 40
10.42461076239764
 40
10.64992019336924
 40
10.87188524531169
 40
10.87188524531169
 40
10.87188524531169
 40
10.87188524531169
 10
179.9057788376618
 20
15.7392326039819
 10
179.9092864933541
 20
15.80616462073804
 10
179.9163033987662
 20
15.94005891915859
 10
179.8198027599072
 20
16.22548554971469
 10
180.0510134726109
 20
16.16284386190284
 10
180.1919290057156
 20
16.17001554055991
 10
180.3490417757588
 20
16.16235883078243
 10
180.5025913427287
 20
16.16252752283041
 10
180.6545104935081
 20
16.16182040535431
 10
180.814221481323
 20
16.17210158351639
 10
180.9408972601117
 20
16.15496511080752
 10
181.1370821122081
 20
16.22727260107148
 10
181.1034395279078
 20
16.12640699080116
 10
181.1052011317184
 20
16.07619253947671
 10
181.1027342073457
 20
16.02712335586465
 10
181.1347076966012
 20
15.94063490847
 10
181.0010399903256
 20
15.98997438608336
 10
180.9172208688056
 20
15.98430634314168
 10
180.8173861139323
 20
15.99465516706297
 10
180.7186576720145
 20
16.00086450411086
 10
180.6121532771109
 20
16.00697763816777
 10
180.4910511698059
 20
16.01588883484585
 10
180.3703381502453
 20
16.00521605912384
 10
180.1812553843437
 20
16.06468503080363
 10
180.212902850531
 20
15.90558320077539
 10
180.1995563316834
 20
15.80839128339904
 10
180.1974958426449
 20
15.69634065110103
 10
180.195818804467
 20
15.5769968562935
 10
180.1973336794232
 20
15.4503259215511
 10
180.1956582478668
 20
15.32301588016117
 10
180.2058844271658
 20
15.22451566404464
 10
180.1779006596582
 20
15.08388702625631
 10
180.3508029999305
 20
15.13989551134094
 10
180.4645020202771
 20
15.12719951478498
 10
180.5840151672239
 20
15.13448377051255
 10
180.6888491425071
 20
15.13878017056755
 10
180.7843084898611
 20
15.14330568258977
 10
180.8763823507032
 20
15.151492011462
 10
180.9476551782438
 20
15.14643850638111
 10
181.0544931705684
 20
15.18536425031672
 10
181.0226603598035
 20
15.10517122005878
 10
181.0266164503929
 20
15.05562936846033
 10
181.0234502392012
 20
15.00557478039819
 10
181.0550791490583
 20
14.9212884761202
 10
180.9210133677691
 20
14.97425365495156
 10
180.8292322793199
 20
14.96540080890441
 10
180.7079729189602
 20
14.97570049965155
 10
180.5914113119771
 20
14.97748911767503
 10
180.4783375745878
 20
14.97787017109693
 10
180.3679246308471
 20
14.9841544947218
 10
180.289812406784
 20
14.97189133255362
 10
180.1913625833644
 20
15.00453887616125
 10
180.2012355173561
 20
14.94769748054206
 10
180.1973923244402
 20
14.91392130557984
 10
180.1966789884267
 20
14.87119604709411
 10
180.1963369642975
 20
14.83401607262154
 10
180.1963834255344
 20
14.79487237370771
 10
180.1963649429927
 20
14.75716849497686
 10
180.1963703431804
 20
14.71944955232402
 10
180.19636972142
 20
14.6899432474515
 10
180.1963698151544
 20
14.65873577699301
 10
180.196370428792
 20
14.61414424908085
 10
180.1963671499336
 20
14.5596395650885
 10
180.196375962348
 20
14.51505540201448
 10
180.1963359653416
 20
14.4311780858574
 10
180.1976024270254
 20
14.31737520677678
 10
180.1950274117841
 20
14.16830395933709
 10
180.206500938172
 20
14.06597203813905
 10
180.1823506222263
 20
13.93338903885834
 10
180.3332993946476
 20
13.97895732272021
 10
180.4428436671556
 20
13.9642701216235
 10
180.573397047392
 20
13.96920435125062
 10
180.6990312209512
 20
13.97257705323363
 10
180.81887306256
 20
13.97711497498772
 10
180.9391362611426
 20
13.99048536182005
 10
181.0222761663514
 20
13.98068712782595
 10
181.1456080421075
 20
14.04126214623322
 10
181.1244269203956
 20
13.9853246013402
 10
181.1235950270116
 20
13.95939249372346
 10
181.1218963707558
 20
13.93197256190938
 10
181.1217974888829
 20
13.89738195206385
 10
181.1203659301329
 20
13.86050408220767
 10
181.153280419219
 20
13.76846841021806
 10
180.9551306988108
 20
13.84132015974832
 10
180.830054829489
 20
13.81825726508606
 10
180.6673071295156
 20
13.82454021985787
 10
180.5129366450001
 20
13.82260943909927
 10
180.3566670436943
 20
13.82393762599269
 10
180.1970544465282
 20
13.82059872487863
 10
180.0540326342236
 20
13.83265795728241
 10
179.8197144881628
 20
13.76952001976916
 10
179.9173810751197
 20
14.05620527466318
 10
179.9006868780058
 20
14.24988308142659
 10
179.9146296709683
 20
14.47848242880294
 10
179.9142987846632
 20
14.63384593955048
 10
179.9143078119264
 20
14.73966336444126
 10
179.9143055876316
 20
14.80205784124214
 10
179.9143065551888
 20
14.89220425248327
 10
179.9143065473261
 20
14.99621167157438
 10
179.9143053861102
 20
15.10022131375296
 10
179.9143090971502
 20
15.19036243688768
 10
179.9143011051051
 20
15.25276803097215
 10
179.9143334275018
 20
15.35868835961119
 10
179.9131440788319
 20
15.5162671654474
 10
179.9082216489256
 20
15.66528219822065
 10
179.9057788376618
 20
15.7392326039819
 97
        1
330
A8
 75
     1
 76
     2
 52
45.0
 41
0.1
 77
     0
 78
     1
 53
45.0
 43
0.0
 44
0.0
 45
-0.282842712474619
 46
0.0
 79
     0
 98
        1
 10
0.0
 20
0.0
  0
HATCH
  5
C6
330
48
100
AcDbEntity
  8
1
  6
Continuous
 62
     2
100
AcDbHatch
 10
0.0
 20
0.0
 30
0.0
210
0.0
220
0.0
230
1.0
  2
CUSTOM4
 70
     0
 71
     1
 91
        1
 92
        1
 93
        1
 72
     4
 94
        3
 73
     0
 74
     0
 95
       47
 96
       43
 40
0.0
 40
0.0
 40
0.0
 40
0.0
 40
0.2207912809957201
 40
0.4459404186303005
 40
0.4902387190458657
 40
0.5327473892722179
 40
0.5742260451224658
 40
0.6155432630560801
 40
0.656816406631515
 40
0.6982511618779511
 40
0.7407663929316306
 40
0.7851366743174366
 40
1.010288833836232
 40
1.231080507002082
 40
1.451765243652309
 40
1.676638205891596
 40
1.720461045359565
 40
1.830018144043431
 40
1.972442372353062
 40
2.114866600677431
 40
2.224423699395055
 40
2.268246538883297
 40
2.493628801207124
 40
2.715602830286528
 40
2.934211330706284
 40
3.14950236985528
 40
3.231387784850841
 40
3.318231873853876
 40
3.405143198197864
 40
3.486970301720302
 40
3.702258172493744
 40
3.92086628353398
 40
4.142839325931773
 40
4.368221903865233
 40
4.412044743359712
 40
4.521601842095728
 40
4.664026070452208
 40
4.806450298808916
 40
4.916007397546609
 40
4.959830237042932
 40
5.184703515846968
 40
5.405387250767341
 40
5.405387250767341
 40
5.405387250767341
 40
5.405387250767341
 10
182.6507427258644
 20
15.73406440953872
 10
182.6568139420002
 20
15.7975848250121
 10
182.6690762107242
 20
15.92587938689625
 10
182.5604706879411
 20
16.20166220174076
 10
182.6761985896604
 20
16.17188133432052
 10
182.7171842509015
 20
16.16765556262821
 10
182.7591205797518
 20
16.16310446389605
 10
182.800419662571
 20
16.16201982929486
 10
182.8417032115555
 20
16.16310338195225
 10
182.8836148270646
 20
16.16766112711344
 10
182.9245983549019
 20
16.17187430209728
 10
183.0404922843487
 20
16.20177611317533
 10
182.9295652727457
 20
15.92339806609889
 10
182.9574856365267
 20
15.74283140824953
 10
182.9404267346969
 20
15.50961042346471
 10
182.9414637282103
 20
15.34906622543146
 10
182.9414099399404
 20
15.22284817558722
 10
182.9414277372481
 20
15.12428963336241
 10
182.941418858108
 20
14.99280702442963
 10
182.9414263928034
 20
14.8613284496865
 10
182.9414129405129
 20
14.76276222694091
 10
182.9414531717491
 20
14.63639735624152
 10
182.9406746403817
 20
14.4748206882287
 10
182.9565958319267
 20
14.24361821892914
 10
182.9333468885406
 20
14.05874351972003
 10
183.0360183444365
 20
13.78935602770054
 10
182.8820238362836
 20
13.82660112685818
 10
182.8004129802832
 20
13.82137994680535
 10
182.7188192292582
 20
13.82660620378351
 10
182.5648513666843
 20
13.78937069885384
 10
182.6674183421916
 20
14.0587512986288
 10
182.6442045316086
 20
14.24361585325414
 10
182.6600444655138
 20
14.47482218565638
 10
182.6593296313426
 20
14.63639712308503
 10
182.6593664569907
 20
14.76276231210521
 10
182.659354900027
 20
14.86132756635981
 10
182.6593575019214
 20
14.9928112741722
 10
182.6593648531779
 20
15.124275480312
 10
182.6593442541351
 20
15.22287786275326
 10
182.6594082192028
 20
15.34896149354426
 10
182.6581733947589
 20
15.51210091383772
 10
182.6532040396744
 20
15.6605418377755
 10
182.6507427258644
 20
15.73406440953872
 97
        1
330
A9
 75
     1
 76
     2
 52
45.0
 41
0.1
 77
     0
 78
     1
 53
45.0
 43
0.0
 44
0.0
 45
-0.282842712474619
 46
0.0
 79
     0
 98
        1
 10
0.0
 20
0.0
  0
HATCH
  5
C7
330
48
100
AcDbEntity
  8
1
  6
Continuous
 62
     2
100
AcDbHatch
 10
0.0
 20
0.0
 30
0.0
210
0.0
220
0.0
230
1.0
  2
CUSTOM5
 70
     0
 71
     1
 91
        1
 92
        1
 93
        1
 72
     4
 94
        3
 73
     0
 74
     0
 95
      118
 96
      114
 40
0.0
 40
0.0
 40
0.0
 40
0.0
 40
0.1054708162973424
 40
0.2466098270051742
 40
0.396591287459108
 40
0.5285525069753659
 40
0.6156245055641552
 40
0.643143410579671
 40
0.7036850037985259
 40
0.7642265984503349
 40
0.7917455052353668
 40
0.9287404319988953
 40
1.106572819087934
 40
1.287544879680919
 40
1.317578308030436
 40
1.399928030857074
 40
1.522968204799849
 40
1.67507298659047
 40
1.844616533180547
 40
2.019973001638611
 40
2.189516548879924
 40
2.341621331585262
 40
2.464661506320398
 40
2.547011229646962
 40
2.577044658167926
 40
2.603797890892997
 40
2.662655002908684
 40
2.721512114949496
 40
2.748265347702675
 40
2.774215307344752
 40
2.845959313407082
 40
2.954338556588281
 40
3.090194227585458
 40
3.244367517100422
 40
3.407699615844182
 40
3.571031714539332
 40
3.725205003920008
 40
3.861060674729508
 40
3.969439917716201
 40
4.041183923628873
 40
4.067133883212867
 40
4.311886746012052
 40
4.547897258335429
 40
4.764747083043886
 40
4.952749679951723
 40
5.045772974195826
 40
5.137862019644882
 40
5.330543169792933
 40
5.553448265243926
 40
5.795083855888081
 40
6.043293412177145
 40
6.285761695541092
 40
6.313902908752576
 40
6.384255941793223
 40
6.475714884766839
 40
6.567173827758902
 40
6.637526860839708
 40
6.665668074074071
 40
6.692018920328044
 40
6.749990782071114
 40
6.807962643790482
 40
6.834313490017957
 40
6.856393084245235
 40
6.913335195649887
 40
6.99119481730258
 40
7.076026942283869
 40
7.153886563725388
 40
7.21082867484497
 40
7.232908268931306
 40
7.258199334923827
 40
7.324875781592477
 40
7.419142481925133
 40
7.527204308842073
 40
7.635266135230651
 40
7.729532834168637
 40
7.79620927929296
 40
7.821500344594906
 40
7.844652988850976
 40
7.899863140541727
 40
7.965759128053836
 40
8.020969279771093
 40
8.044121924046559
 40
8.06935661016062
 40
8.109134395441338
 40
8.13223810019105
 40
8.193147867786415
 40
8.279261678876587
 40
8.377977512673802
 40
8.476693347146584
 40
8.562807160411639
 40
8.623716930826426
 40
8.646820636853377
 40
8.67198879377419
 40
8.734909185828101
 40
8.816705695188816
 40
8.898502204815387
 40
8.961422597377847
 40
8.98659075455096
 40
9.012941600733114
 40
9.070913462380199
 40
9.128885324081695
 40
9.155236170325015
 40
9.180404327929057
 40
9.243324721948131
 40
9.325121234211924
 40
9.406917746637578
 40
9.469838141978034
 40
9.495006288270808
 40
9.517811184378951
 40
9.57219209048695
 40
9.63709833328118
 40
9.69147923951538
 40
9.714284125643418
 40
9.714284125643418
 40
9.714284125643418
 40
9.714284125643418
 10
185.2874469028653
 20
15.26889163187719
 10
185.3090990569038
 20
15.24111869242811
 10
185.3597257109474
 20
15.17618054561236
 10
185.4349383202591
 20
15.06891060312897
 10
185.5248482274345
 20
14.95377438266626
 10
185.5709169676674
 20
14.8535704574832
 10
185.6655825294652
 20
14.78434006814943
 10
185.6204439320412
 20
14.73771639678273
 10
185.5947047785789
 20
14.6966030886604
 10
185.5645196708012
 20
14.66065971727937
 10
185.5193684730561
 20
14.58579782596092
 10
185.4710504458562
 20
14.80782524253602
 10
185.3968539713072
 20
14.8451067733771
 10
185.2836047324608
 20
15.116102021306
 10
185.2885133578168
 20
15.00095328446228
 10
185.2868486556307
 20
14.92836675781628
 10
185.2876830076713
 20
14.80625588483986
 10
185.2873609540264
 20
14.6591380081046
 10
185.2875076912455
 20
14.49307063956557
 10
185.2872950092723
 20
14.32187554608602
 10
185.2879497252034
 20
14.15552828635498
 10
185.2859192461139
 20
14.00935173055693
 10
185.291346039993
 20
13.8847104747461
 10
185.2804930868708
 20
13.81718656540626
 10
185.2956739155555
 20
13.75549061417022
 10
185.2457895108133
 20
13.76727503897002
 10
185.2017150342522
 20
13.75943822779969
 10
185.15823716302
 20
13.76760441372703
 10
185.1092346786489
 20
13.75538056738468
 10
185.1218731234824
 20
13.80960667249313
 10
185.113018296845
 20
13.86936918907557
 10
185.1175058770314
 20
13.97922029044371
 10
185.1157960135991
 20
14.11029975405679
 10
185.1163550915986
 20
14.26198011444328
 10
185.1161928768694
 20
14.42211074929953
 10
185.1162269924675
 20
14.58236865674566
 10
185.1162514960127
 20
14.73370247520439
 10
185.1161453543224
 20
14.86582156338601
 10
185.1164299141932
 20
14.97294802533193
 10
185.1158675547567
 20
15.03808619579473
 10
185.118076508369
 20
15.16618957858676
 10
185.0319435998602
 20
14.79097610391574
 10
184.9555140818499
 20
14.63918193123395
 10
184.8660040767833
 20
14.47766206446305
 10
184.7640413217325
 20
14.2047184882017
 10
184.7187976491038
 20
14.36717346596508
 10
184.6102355941671
 20
14.45605432058123
 10
184.7995791751752
 20
14.60549794961408
 10
184.85653405457
 20
14.79749136974925
 10
184.9717520993352
 20
15.02899622906757
 10
184.9940151630132
 20
15.21797259759063
 10
185.177190515214
 20
15.4945408932593
 10
185.0538033597552
 20
15.48698978832094
 10
184.9925684166833
 20
15.48856772366118
 10
184.9081999617063
 20
15.48882592573672
 10
184.8204235085965
 20
15.48544845751206
 10
184.7656768696121
 20
15.4939481498202
 10
184.7104703026023
 20
15.48048561049788
 10
184.7222823035534
 20
15.52931442126763
 10
184.7142496151793
 20
15.57269004896709
 10
184.7228186104676
 20
15.61509438309572
 10
184.7102943409156
 20
15.66267796552119
 10
184.7555101538734
 20
15.65267212995109
 10
184.8014815562723
 20
15.65894105174062
 10
184.8777222047709
 20
15.65593561405871
 10
184.9561296131994
 20
15.65770448278541
 10
185.0323992648933
 20
15.6546479398166
 10
185.0783009459474
 20
15.66103971376177
 10
185.12317339654
 20
15.65093822978896
 10
185.1105552275634
 20
15.70157201581898
 10
185.1191936582707
 20
15.7550126188207
 10
185.1152361595443
 20
15.8486325513168
 10
185.1162325068335
 20
15.95112606688924
 10
185.1171927413073
 20
16.05353270248163
 10
185.1133211458005
 20
16.14735929609321
 10
185.1217789814364
 20
16.20036542840353
 10
185.1093075932835
 20
16.25211435651188
 10
185.154210638985
 20
16.23850747226757
 10
185.1955083836771
 20
16.24100480320585
 10
185.259534428105
 20
16.23648060574488
 10
185.2986111148785
 20
16.22781003043308
 10
185.3476543498741
 20
16.23515102070687
 10
185.322508003059
 20
16.19602896051759
 10
185.2815901333723
 20
16.20563842455806
 10
185.2910109616604
 20
16.15540148169778
 10
185.2855647318746
 20
16.1038594563949
 10
185.2881699601803
 20
16.0195970758452
 10
185.2870102202154
 20
15.92559135583408
 10
185.2883591064231
 20
15.83196865395525
 10
185.2849970101508
 20
15.74679517552223
 10
185.2920959917769
 20
15.69716856072044
 10
185.2812569154545
 20
15.64993694969989
 10
185.3304010225245
 20
15.66201674936851
 10
185.3794877630147
 20
15.65447393363011
 10
185.4573714280641
 20
15.65686070361432
 10
185.5350365172897
 20
15.65899381905415
 10
185.5845393931354
 20
15.65193391922455
 10
185.6344594750639
 20
15.66360151936214
 10
185.622319851688
 20
15.61540235371393
 10
185.6305838229143
 20
15.57249219801236
 10
185.6223198650783
 20
15.52958201851384
 10
185.6344594549855
 20
15.48138288754865
 10
185.5845395158746
 20
15.4930503447151
 10
185.5350350651202
 20
15.48599202435046
 10
185.4573784382973
 20
15.48811665228603
 10
185.379464386576
 20
15.4905338936576
 10
185.3304500352716
 20
15.48291848194485
 10
185.2813246108943
 20
15.49507952557593
 10
185.2915559988571
 20
15.45073013424158
 10
185.2856677678053
 20
15.40925436202911
 10
185.2878788305569
 20
15.34915394315302
 10
185.2874109346146
 20
15.30225782762889
 10
185.2874386992913
 20
15.27650146418196
 10
185.2874469028653
 20
15.26889163187719
 97
        1
330
AA
 75
     1
 76
     2
 52
45.0
 41
0.1
 77
     0
 78
     1
 53
45.0
 43
0.0
 44
0.0
 45
-0.282842712474619
 46
0.0
 79
     0
 98
        1
 10
0.0
 20
0.0
  0
HATCH
  5
C8
330
48
100
AcDbEntity
  8
1
  6
Continuous
 62
     2
100
AcDbHatch
 10
0.0
 20
0.0
 30
0.0
210
0.0
220
0.0
230
1.0
  2
CUSTOM6
 70
     0
 71
     1
 91
        1
 92
        1
 93
        1
 72
     4
 94
        3
 73
     0
 74
     0
 95
       91
 96
       87
 40
0.0
 40
0.0
 40
0.0
 40
0.0
 40
0.0345987051695434
 40
0.1258134969461085
 40
0.2547723404888418
 40
0.4026032099153556
 40
0.5504340793415852
 40
0.6793929228835227
 40
0.7706077146570183
 40
0.8052064287779788
 40
1.124852390615166
 40
1.427402236308759
 40
1.7063566274534
 40
1.955541417875083
 40
2.169485938566227
 40
2.344350786664684
 40
2.480568411561832
 40
2.590440557428855
 40
2.649189927150984
 40
2.749320643306188
 40
2.912632739879893
 40
3.147745656000092
 40
3.244827496384874
 40
3.338490056946513
 40
3.583815413206938
 40
3.761423943238291
 40
3.886956104362442
 40
3.985855451886625
 40
4.091766255337482
 40
4.250186473811702
 40
4.422734315084369
 40
4.628285684838446
 40
4.872093227758288
 40
5.152549652145392
 40
5.464967135837371
 40
5.803201477852288
 40
6.160362988813763
 40
6.193449448275818
 40
6.284170385501473
 40
6.419718138764343
 40
6.587285046385593
 40
6.774063446723507
 40
6.96724567811349
 40
7.154024078817476
 40
7.321590987025862
 40
7.45713874089022
 40
7.547859678555956
 40
7.580946138182516
 40
7.608533084714566
 40
7.669224367077544
 40
7.729915649429759
 40
7.757502595949812
 40
7.790278062553265
 40
7.880146277430764
 40
8.014419963180199
 40
8.1804118423977
 40
8.36543463767914
 40
8.556801071622413
 40
8.741823866830497
 40
8.907815745916007
 40
9.042089431507161
 40
9.131957646249287
 40
9.164733112796863
 40
9.415425063139788
 40
9.667986180958243
 40
9.69416980746241
 40
9.756607686047369
 40
9.831130315322175
 40
9.89356819389964
 40
9.919751820398456
 40
9.950967964690284
 40
9.996421631210394
 40
10.22087981037428
 40
10.44341866197517
 40
10.47847970788829
 40
10.57091337438727
 40
10.70159545461204
 40
10.85140174170332
 40
11.00120802880452
 40
11.13189010907357
 40
11.22432377582982
 40
11.25938480938929
 40
11.28697175596117
 40
11.34766303835891
 40
11.40835432042041
 40
11.43594125892076
 40
11.43594125892076
 40
11.43594125892076
 40
11.43594125892076
 10
190.0818114333288
 20
15.55242795125077
 10
190.070278584494
 20
15.55242790287916
 10
190.0283409444997
 20
15.55242773704163
 10
189.9434129719025
 20
15.55243125800909
 10
189.8207688553128
 20
15.55240926435879
 10
189.6791206916992
 20
15.55250801177054
 10
189.537975369849
 20
15.55214686232422
 10
189.4141351317904
 20
15.55321883609088
 10
189.3317217825381
 20
15.55092249091268
 10
189.1727791229692
 20
15.56048569373419
 10
189.3503402353376
 20
15.1978539431137
 10
189.3379739205452
 20
14.95243127723114
 10
189.4064519473864
 20
14.66862501324835
 10
189.469302432097
 20
14.43250999939035
 10
189.5452253431729
 20
14.2332674039613
 10
189.6303189577016
 20
14.07745347451373
 10
189.7244607592935
 20
13.97657857781393
 10
189.8282648207728
 20
13.92465852638965
 10
189.9125872030773
 20
13.97606484379618
 10
189.9351322179451
 20
14.09144544037518
 10
189.9745730975371
 20
14.21885149702378
 10
189.9202919734942
 20
14.5362232808676
 10
190.0451218072472
 20
14.38982180140899
 10
190.2019291513602
 20
14.35795300331178
 10
190.0947720007057
 20
14.12421357767627
 10
190.0808711209866
 20
13.95972776583658
 10
190.0234709467225
 20
13.83130869122481
 10
189.9335020145008
 20
13.76018802352828
 10
189.8095274657877
 20
13.74432324142253
 10
189.663427319686
 20
13.77993797554172
 10
189.5243894320283
 20
13.90000570500275
 10
189.4102003962143
 20
14.07435682550321
 10
189.3146141301486
 20
14.29946603111239
 10
189.2318652572626
 20
14.56388246006443
 10
189.1807179256411
 20
14.88187933098543
 10
189.0770189207337
 20
15.15543728488911
 10
189.2042841208523
 20
15.56005818612869
 10
189.0357890623017
 20
15.55112367849678
 10
188.9511995787077
 20
15.55315961418363
 10
188.8189876387627
 20
15.55213937388406
 10
188.6560505094104
 20
15.55253230318429
 10
188.4733759170532
 20
15.55235696313368
 10
188.2847057373383
 20
15.55260105307468
 10
188.1014469020189
 20
15.55185657906236
 10
187.9404746832718
 20
15.55416360522425
 10
187.8029808335276
 20
15.54799804883663
 10
187.728959037231
 20
15.56032838458211
 10
187.6613215186856
 20
15.54329323723556
 10
187.673237371927
 20
15.59524438447527
 10
187.6655677285693
 20
15.64071424966528
 10
187.6732592225116
 20
15.68614453703705
 10
187.6613141797761
 20
15.73802395984569
 10
187.7283588305867
 20
15.72119143490263
 10
187.8017375665676
 20
15.7333540909267
 10
187.9379128305272
 20
15.72727231074958
 10
188.0973811801511
 20
15.72954834315056
 10
188.2789173085835
 20
15.72881233998962
 10
188.4658034862178
 20
15.72905954196132
 10
188.6468012316834
 20
15.72886400799253
 10
188.8080802578877
 20
15.72932234714838
 10
188.9393882124886
 20
15.72812673751205
 10
189.0225051322595
 20
15.73051347319741
 10
189.1556236547813
 20
15.72230605725464
 10
189.0645893502658
 20
15.97752868952654
 10
188.978963307442
 20
16.24164358328245
 10
189.0990589003455
 20
16.22904442969164
 10
189.1514264948544
 20
16.22694235763074
 10
189.2214497569715
 20
16.22535399889654
 10
189.2671922337817
 20
16.21602567538113
 10
189.3220812646933
 20
16.22545966915425
 10
189.296357478568
 20
16.17733028655172
 10
189.1825397571453
 20
16.18266829744167
 10
189.3159346621135
 20
15.95449174576775
 10
189.194365873547
 20
15.72156856595922
 10
189.3223188769412
 20
15.73087258884437
 10
189.4049048406459
 20
15.72801001754679
 10
189.5307214850823
 20
15.72923437412301
 10
189.6741469838057
 20
15.72932431888963
 10
189.8157420951727
 20
15.72746163183853
 10
189.9459127249967
 20
15.73333075937161
 10
190.019345228619
 20
15.72070340823203
 10
190.0891112922095
 20
15.73877563110411
 10
190.0775772605395
 20
15.68612850546326
 10
190.0833184346681
 20
15.64221317686547
 10
190.081661577091
 20
15.59089982676549
 10
190.0817757561669
 20
15.56158792021635
 10
190.0818114333288
 20
15.55242795125077
 97
        1
330
AB
 75
     1
 76
     2
 52
45.0
 41
0.1
 77
     0
 78
     1
 53
45.0
 43
0.0
 44
0.0
 45
-0.282842712474619
 46
0.0
 79
     0
 98
        1
 10
0.0
 20
0.0
  0
HATCH
  5
C9
330
48
100
AcDbEntity
  8
1
  6
Continuous
 62
     2
100
AcDbHatch
 10
0.0
 20
0.0
 30
0.0
210
0.0
220
0.0
230
1.0
  2
CUSTOM7
 70
     0
 71
     1
 91
        1
 92
        1
 93
        1
 72
     4
 94
        3
 73
     0
 74
     0
 95
       75
 96
       71
 40
0.0
 40
0.0
 40
0.0
 40
0.0
 40
0.0342546099129691
 40
0.1245622414432346
 40
0.2522385480897483
 40
0.3985991922940609
 40
0.544959836498075
 40
0.6726361431438745
 40
0.7629437746736853
 40
0.7971983935297866
 40
1.101723623449731
 40
1.40859124403668
 40
1.433332471690387
 40
1.487763172450177
 40
1.542193873082005
 40
1.566935100592553
 40
1.923523931821811
 40
2.271755704953611
 40
2.590579755100825
 40
2.858943305581082
 40
2.88912033930911
 40
2.918305855191057
 40
2.941366645531178
 40
2.996357760973069
 40
3.061992318140613
 40
3.116983433626806
 40
3.140044223997484
 40
3.411273122936377
 40
3.732441619740987
 40
3.761068217532685
 40
3.837787499630247
 40
3.948858699125886
 40
4.080541049104262
 40
4.219093782625645
 40
4.350776132722196
 40
4.461847332405531
 40
4.538566614678262
 40
4.56719321254451
 40
4.594907573998768
 40
4.666381453557307
 40
4.764111044010889
 40
4.870592538125692
 40
4.968322128642114
 40
5.039796008286771
 40
5.06751036978423
 40
5.094263603185443
 40
5.153120716668081
 40
5.211977830150529
 40
5.238731063551533
 40
5.272290535138772
 40
5.363380529444633
 40
5.497618415781311
 40
5.660621563453553
 40
5.838007341749254
 40
6.015393119910605
 40
6.178396267038231
 40
6.312634151842182
 40
6.403724143059172
 40
6.437283612672267
 40
6.464036846260884
 40
6.522893960004501
 40
6.581751071483767
 40
6.608504301590713
 40
6.637253941280889
 40
6.711397748902741
 40
6.812778057283353
 40
6.92323719924913
 40
7.02461750762383
 40
7.098761315207511
 40
7.127510946007462
 40
7.127510946007462
 40
7.127510946007462
 40
7.127510946007462
 10
188.4418622390563
 20
14.95849128473264
 10
188.4418622819705
 20
14.9470731340872
 10
188.4418624481127
 20
14.90555257842629
 10
188.4418593081786
 20
14.82146922003772
 10
188.4418788279798
 20
14.70004497322328
 10
188.4417912187736
 20
14.55980494047449
 10
188.4421116235229
 20
14.42006556794576
 10
188.4411605909738
 20
14.29745038894929
 10
188.4431978595966
 20
14.21587074438043
 10
188.4349433178744
 20
14.06271267077696
 10
188.7430797940901
 20
14.22560236054716
 10
189.0350645173733
 20
14.39482938688
 10
189.0408354448707
 20
14.25973235781912
 10
189.0455471719889
 20
14.21617221160444
 10
189.0482535411917
 20
14.17211249350545
 10
189.0672545672957
 20
14.02272590363136
 10
188.6583942247302
 20
14.08681172241261
 10
188.3793710348832
 20
13.97296341411018
 10
188.1018081587165
 20
13.87364095811142
 10
187.8099837184401
 20
13.91630687596357
 10
187.7869144678657
 20
13.81321679744541
 10
187.7537474383333
 20
13.78691091244469
 10
187.7480653962738
 20
13.83455309036304
 10
187.7284214559044
 20
13.87180336115069
 10
187.7095089485623
 20
13.93007387847564
 10
187.6942849867707
 20
13.97385201007804
 10
187.6477246372935
 20
14.08759421046309
 10
187.9890897312449
 20
14.05576301120047
 10
188.2679649367386
 20
14.02161435106481
 10
188.2617753034906
 20
14.16913976479652
 10
188.2630935452772
 20
14.24013150908832
 10
188.2624831689947
 20
14.34719767958661
 10
188.2625871570725
 20
14.47398529785998
 10
188.2629987964054
 20
14.6084924349605
 10
188.2613907841968
 20
14.73395549951184
 10
188.2659902567925
 20
14.84505246719117
 10
188.2564186502208
 20
14.90761886800689
 10
188.270400178369
 20
14.96595388295001
 10
188.2147384386703
 20
14.95289710582238
 10
188.1575655197821
 20
14.96136307749499
 10
188.0616048925646
 20
14.95729976080636
 10
187.9633767522821
 20
14.95970889852475
 10
187.8672582457559
 20
14.95551600613387
 10
187.8104648525812
 20
14.96429346441163
 10
187.7550356873384
 20
14.9509493685012
 10
187.7670679427917
 20
15.00036910959257
 10
187.7592003173938
 20
15.04393988030396
 10
187.7666295563829
 20
15.08830469118525
 10
187.7551930564144
 20
15.13902297763991
 10
187.8232102370133
 20
15.12162460757743
 10
187.8968496879747
 20
15.13417450237189
 10
188.0325064058211
 20
15.12799677011097
 10
188.1884909024525
 20
15.13029203093084
 10
188.3615926358143
 20
15.1294096826253
 10
188.5346942964181
 20
15.13029207142408
 10
188.6906789811216
 20
15.1279966295555
 10
188.8263351889797
 20
15.13417486262432
 10
188.8999756705652
 20
15.12162394218335
 10
188.9679914174724
 20
15.13902373012142
 10
188.9565590885922
 20
15.08830130414555
 10
188.9639539458298
 20
15.04397060811108
 10
188.9562039912271
 20
15.00028307550196
 10
188.9681203741877
 20
14.95063590098476
 10
188.9108170223616
 20
14.96461411338425
 10
188.8520145789772
 20
14.95539755673254
 10
188.7525293633199
 20
14.95952268164929
 10
188.6494280098348
 20
14.95822760025887
 10
188.5537846354573
 20
14.95854077077641
 10
188.4857467971616
 20
14.95848776697145
 10
188.4514462213442
 20
14.95849051871656
 10
188.4418622390563
 20
14.95849128473264
 97
        1
330
AC
 75
     1
 76
     2
 52
45.0
 41
0.1
 77
     0
 78
     1
 53
45.0
 43
0.0
 44
0.0
 45
-0.282842712474619
 46
0.0
 79
     0
 98
        1
 10
0.0
 20
0.0
  0
HATCH
  5
CA
330
48
100
AcDbEntity
  8
1
  6
Continuous
 62
     2
100
AcDbHatch
 10
0.0
 20
0.0
 30
0.0
210
0.0
220
0.0
230
1.0
  2
CUSTOM8
 70
     0
 71
     1
 91
        1
 92
        1
 93
        1
 72
     4
 94
        3
 73
     0
 74
     0
 95
       15
 96
       11
 40
0.0
 40
0.0
 40
0.0
 40
0.0
 40
0.2785535985096574
 40
0.5215624748198874
 40
0.6076917376040509
 40
0.6938210001741243
 40
0.9405019146455421
 40
1.221691403489131
 40
1.30047187708105
 40
1.379252341684817
 40
1.379252341684817
 40
1.379252341684817
 40
1.379252341684817
 10
189.5681493630999
 20
16.22930267330381
 10
189.6296017794178
 20
16.17691646592715
 10
189.7446649974113
 20
16.07882876798222
 10
190.0397348497243
 20
15.92889785897222
 10
189.9025147631856
 20
15.84343227515014
 10
189.8041227843779
 20
15.71085785201554
 10
189.7130033590649
 20
16.01616985781414
 10
189.3636839480655
 20
16.07967869465375
 10
189.511925837657
 20
16.17896509880877
 10
189.5494081874236
 20
16.21252348402382
 10
189.5681493630999
 20
16.22930267330381
 97
        1
330
AD
 75
     1
 76
     2
 52
45.0
 41
0.1
 77
     0
 78
     1
 53
45.0
 43
0.0
 44
0.0
 45
-0.282842712474619
 46
0.0
 79
     0
 98
        1
 10
0.0
 20
0.0
  0
HATCH
  5
CB
330
48
100
AcDbEntity
  8
1
  6
Continuous
 62
     2
100
AcDbHatch
 10
0.0
 20
0.0
 30
0.0
210
0.0
220
0.0
230
1.0
  2
CUSTOM9
 70
     0
 71
     1
 91
        1
 92
        1
 93
        1
 72
     4
 94
        3
 73
     0
 74
     0
 95
       35
 96
       31
 40
0.0
 40
0.0
 40
0.0
 40
0.0
 40
0.0335231036620288
 40
0.0713218571712221
 40
0.4278866681487413
 40
0.811686584196466
 40
1.198190238000147
 40
1.561379546812776
 40
1.659983174622178
 40
1.759315573807286
 40
2.132719617231195
 40
2.525233363588924
 40
2.910815397779833
 40
3.265244364303436
 40
3.592606723582119
 40
3.964386154604064
 40
4.359942131737933
 40
4.758154118639492
 40
4.843846538700075
 40
4.936650065543358
 40
5.256616602537438
 40
5.581707404416172
 40
5.89971915830827
 40
6.198363494280873
 40
6.466301046615905
 40
6.49389531153717
 40
6.559697020196992
 40
6.638234543442538
 40
6.704036252154291
 40
6.731630508423068
 40
6.731630508423068
 40
6.731630508423068
 40
6.731630508423068
 10
191.9736010568668
 20
16.23463843719134
 10
191.9676006097788
 20
16.22480690542323
 10
191.9548344099156
 20
16.20388988579795
 10
191.7949362006553
 20
16.17127126532703
 10
192.2322025842336
 20
15.88206680336696
 10
192.4345394828262
 20
15.68041138358439
 10
192.6819564267973
 20
15.43749387603279
 10
193.1831513624606
 20
15.3604766275777
 10
193.0125562198969
 20
15.2187693917466
 10
192.9383299463202
 20
15.01710366209103
 10
192.6131432248187
 20
15.36956287174725
 10
192.3277741670664
 20
15.53175212559564
 10
192.0337604077657
 20
15.73687130053046
 10
191.8084452691133
 20
16.21827488595455
 10
191.5993085055521
 20
15.7534304660922
 10
191.3207873674834
 20
15.5435095225291
 10
191.0371383177208
 20
15.37424456359987
 10
190.707863952783
 20
15.00142360907931
 10
190.6277012318223
 20
15.19708014459001
 10
190.4759724909745
 20
15.32491104190599
 10
190.9083395826794
 20
15.40454031765934
 10
191.0962565329766
 20
15.60026634915473
 10
191.3468477420503
 20
15.81632996916756
 10
191.5714350470161
 20
15.98190992300057
 10
191.6259775409713
 20
16.26133964636827
 10
191.7494661029011
 20
16.24737950408078
 10
191.806027334452
 20
16.24521268867647
 10
191.8761870984944
 20
16.2404685988136
 10
191.9333414022105
 20
16.23709429350541
 10
191.9644190320838
 20
16.23519854711119
 10
191.9736010568668
 20
16.23463843719134
 97
        1
330
AE
 75
     1
 76
     2
 52
45.0
 41
0.1
 77
     0
 78
     1
 53
45.0
 43
0.0
 44
0.0
 45
-0.282842712474619
 46
0.0
 79
     0
 98
        1
 10
0.0
 20
0.0
  0
HATCH
  5
CC
330
48
100
AcDbEntity
  8
1
  6
Continuous
 62
     2
100
AcDbHatch
 10
0.0
 20
0.0
 30
0.0
210
0.0
220
0.0
230
1.0
  2
CUSTOM10
 70
     0
 71
     1
 91
        1
 92
        1
 93
        1
 72
     4
 94
        3
 73
     0
 74
     0
 95
       91
 96
       87
 40
0.0
 40
0.0
 40
0.0
 40
0.0
 40
0.0267532254356701
 40
0.0856103386464102
 40
0.1444674521996621
 40
0.1712206856618514
 40
0.2039416005642536
 40
0.2955601971652484
 40
0.4362601844617202
 40
0.6162252844507534
 40
0.8256392189704982
 40
1.054685709844496
 40
1.29354847889356
 40
1.53241124793836
 40
1.761457738799625
 40
1.970871673298593
 40
2.150836773256789
 40
2.29153676049565
 40
2.383155356836785
 40
2.415876284101405
 40
2.44262951748805
 40
2.50148663094918
 40
2.560343744424327
 40
2.5870969778266
 40
2.617068194441027
 40
2.699247336756168
 40
2.82203264346651
 40
2.973822353258039
 40
3.143014704823481
 40
3.31800793688006
 40
3.487200288186922
 40
3.638989997548403
 40
3.761775303794958
 40
3.843954445753265
 40
3.87392566222996
 40
3.890812773500668
 40
3.90769988477182
 40
3.937960767857363
 40
3.980983618142368
 40
4.199085915228549
 40
4.439444339237327
 40
4.677588241260944
 40
5.05069831783783
 40
5.448212454763215
 40
5.855291218044741
 40
6.138575438885423
 40
6.417434507584242
 40
6.444551104393926
 40
6.504207617363227
 40
6.563864130314552
 40
6.590980727104146
 40
6.848609460381529
 40
7.109611990668487
 40
7.352910904446152
 40
7.557830220705523
 40
7.58751892591344
 40
7.652834077375858
 40
7.718149228845793
 40
7.747837934062096
 40
7.854880190301044
 40
7.976511257403589
 40
8.36948789659239
 40
8.75751495922371
 40
9.126072419331173
 40
9.460639380392264
 40
9.746695593036062
 40
9.777569943118825
 40
9.807050320931925
 40
9.830377336129049
 40
9.886003295436124
 40
9.952395569430024
 40
10.00802152870638
 40
10.0313485438823
 40
10.21356951009598
 40
10.42203479292883
 40
10.66154556731075
 40
10.91693789564316
 40
11.15832906556577
 40
11.18982674596635
 40
11.27286608520422
 40
11.39026653033364
 40
11.52484752840903
 40
11.65942852648462
 40
11.77682897161507
 40
11.859868310857
 40
11.89136598230449
 40
11.89136598230449
 40
11.89136598230449
 40
11.89136598230449
 10
190.7027885008195
 20
14.70699600701772
 10
190.7028237765287
 20
14.71587847311985
 10
190.7029366710795
 20
14.74430237047346
 10
190.7012984568487
 20
14.79409639169803
 10
190.7069750292911
 20
14.83657564478154
 10
190.6956928731705
 20
14.88730154856847
 10
190.7632296979031
 20
14.87012900740109
 10
190.83880292107
 20
14.88290227165996
 10
190.9828357056
 20
14.87629729457382
 10
191.1569419185426
 20
14.87888462206466
 10
191.3639599611002
 20
14.87800591955552
 10
191.5894688172376
 20
14.87828207920027
 10
191.8251162293406
 20
14.87818339658663
 10
192.0607640531347
 20
14.87828184412767
 10
192.2862717580626
 20
14.87800678190789
 10
192.4932934632805
 20
14.87888186270735
 10
192.6673888915288
 20
14.87630522678446
 10
192.8114492071985
 20
14.88288290449213
 10
192.8869691915293
 20
14.87016243405604
 10
192.9545776037029
 20
14.88726400191686
 10
192.9430840140676
 20
14.83674785802941
 10
192.9505104581733
 20
14.79253252226501
 10
192.9428838927986
 20
14.7486796650361
 10
192.9546489459425
 20
14.69878374479327
 10
192.8930788491983
 20
14.71393227712512
 10
192.8256791738671
 20
14.70310665350673
 10
192.7013004056221
 20
14.70852031626236
 10
192.555442823657
 20
14.70649205390784
 10
192.3893576440086
 20
14.70715777578387
 10
192.2188412621724
 20
14.70689643521241
 10
192.0519790855388
 20
14.70721553391094
 10
191.9087346827105
 20
14.70635302590762
 10
191.7773313869832
 20
14.70863300482987
 10
191.7239859134655
 20
14.70407704374202
 10
191.6485188456912
 20
14.70999914992877
 10
191.6769075779231
 20
14.70094169343353
 10
191.7033652409541
 20
14.69725912268929
 10
191.6633522907701
 20
14.66654271968273
 10
191.5713663691868
 20
14.67667591174637
 10
191.5439396207069
 20
14.43032502247786
 10
191.4478793967234
 20
14.27499558764376
 10
191.1917277964474
 20
13.94525417931567
 10
191.7627537732762
 20
14.08430022210452
 10
192.0173656320517
 20
14.08291779973363
 10
192.6279647048616
 20
13.99790569242086
 10
192.3340698578084
 20
14.29685417558202
 10
192.0133304286516
 20
14.44330856901778
 10
192.1313543360434
 20
14.50025540818287
 10
192.1724716466261
 20
14.52420099873348
 10
192.2156812394411
 20
14.5459975881123
 10
192.3174574094449
 20
14.60928721253904
 10
192.4328867625248
 20
14.3514715140878
 10
192.6329591642277
 20
14.21616041113683
 10
192.7269077387228
 20
14.03792795138882
 10
192.9558829746392
 20
13.87997821027048
 10
192.8596031846708
 20
13.829159725763
 10
192.8167959763779
 20
13.79881292523055
 10
192.7718243528779
 20
13.7746613028146
 10
192.7121720925213
 20
13.72552146747568
 10
192.6789731061325
 20
13.85997475673609
 10
192.5582013350796
 20
14.01594265286581
 10
192.1970976005979
 20
13.88569928059556
 10
191.838506195554
 20
13.90224694409483
 10
191.4570920450079
 20
13.89331229351865
 10
191.1703455282891
 20
13.82882671672405
 10
190.8592055599711
 20
13.94230668192832
 10
190.8268737818787
 20
13.83122259927767
 10
190.7896178253317
 20
13.81196313850013
 10
190.7865737632753
 20
13.85874784087297
 10
190.7679892860607
 20
13.89806853919134
 10
190.7512436616778
 20
13.95765983478235
 10
190.7383730915753
 20
14.00201969871282
 10
190.704232780643
 20
14.09106331120202
 10
190.9482714457753
 20
14.02181042943768
 10
191.1441394486671
 20
14.00030369057744
 10
191.2395426381277
 20
14.28226484478463
 10
191.2945135769596
 20
14.44363045421122
 10
191.5159619357157
 20
14.71391177589739
 10
191.3849239381216
 20
14.70548446853734
 10
191.3110026555854
 20
14.7077900849697
 10
191.1977459876243
 20
14.70671378321658
 10
191.0694251807484
 20
14.7070763907651
 10
190.9404252030414
 20
14.70697724466086
 10
190.828784094629
 20
14.70699932712572
 10
190.7514663970025
 20
14.7069957918967
 10
190.7132876532009
 20
14.70699595845081
 10
190.7027885008195
 20
14.70699600701772
 97
        1
330
AF
 75
     1
 76
     2
 52
45.0
 41
0.1
 77
     0
 78
     1
 53
45.0
 43
0.0
 44
0.0
 45
-0.282842712474619
 46
0.0
 79
     0
 98
        1
 10
0.0
 20
0.0
  0
HATCH
  5
CD
330
48
100
AcDbEntity
  8
1
  6
Continuous
 62
     2
100
AcDbHatch
 10
0.0
 20
0.0
 30
0.0
210
0.0
220
0.0
230
1.0
  2
CUSTOM11
 70
     0
 71
     1
 91
        1
 92
        1
 93
        1
 72
     4
 94
        3
 73
     0
 74
     0
 95
      131
 96
      127
 40
0.0
 40
0.0
 40
0.0
 40
0.0
 40
0.0195577029826316
 40
0.0426490537460649
 40
0.2863607575855898
 40
0.5344948436188726
 40
0.7842238845572792
 40
0.8737315789467213
 40
0.9803832810312941
 40
1.092842274517016
 40
1.199761146656799
 40
1.289788768186481
 40
1.351573580786152
 40
1.370727117561381
 40
1.416400936017774
 40
1.470914848355918
 40
1.516588666791674
 40
1.535742203552755
 40
1.634216592293107
 40
1.760283341174943
 40
1.897966686682004
 40
2.031216387368827
 40
2.049689751137821
 40
2.101115601646757
 40
2.179502577739874
 40
2.278859318313989
 40
2.393194462258646
 40
2.51651664838376
 40
2.642834515405889
 40
2.766156701983391
 40
2.880491846754505
 40
2.979848588358548
 40
3.058235565443725
 40
3.109661416668879
 40
3.128134780704055
 40
3.146783742386372
 40
3.191254343315233
 40
3.244332157315891
 40
3.288802758225795
 40
3.307451719895038
 40
3.327717853844651
 40
3.38374775358001
 40
3.468388665924401
 40
3.574487837698709
 40
3.694892515728813
 40
3.822449946851952
 40
3.950007377920341
 40
4.070412055800434
 40
4.176511227367989
 40
4.261152139501435
 40
4.317182039076629
 40
4.337448172964548
 40
4.620011002696184
 40
4.885096638397495
 40
4.945373043518285
 40
5.014107710488616
 40
5.070481727652033
 40
5.31924695563658
 40
5.584812164506093
 40
5.859000912056941
 40
6.133746937542121
 40
6.401732212968923
 40
6.420736683995514
 40
6.472845717451165
 40
6.550702743894092
 40
6.646951193874301
 40
6.754234497930625
 40
6.865196086587403
 40
6.972479390357861
 40
7.068727839772023
 40
7.146584865451032
 40
7.198693898189262
 40
7.217698368905403
 40
7.234950401630881
 40
7.276089864269926
 40
7.325191803516034
 40
7.366331266090421
 40
7.383583298769773
 40
7.40277916349215
 40
7.453386443254582
 40
7.524934666445583
 40
7.606953361405923
 40
7.688972056429074
 40
7.760520279784325
 40
7.811127559734567
 40
7.830323424546188
 40
7.847844055299818
 40
7.894799345666859
 40
7.962779392744547
 40
8.043374293560595
 40
8.1281741451495
 40
8.208769044817306
 40
8.276749090377006
 40
8.323704379669564
 40
8.341225010056299
 40
8.358497614800447
 40
8.401679126686624
 40
8.457815092185653
 40
8.513951057728057
 40
8.557132569707957
 40
8.574405174505028
 40
8.602340668616344
 40
8.643455660539887
 40
8.663225271966555
 40
8.715345156564203
 40
8.789031889628538
 40
8.873502045520267
 40
8.95797219432389
 40
9.03165892556778
 40
9.083778811234472
 40
9.103548423002934
 40
9.119550083123471
 40
9.160817522379773
 40
9.217244429110139
 40
9.278724491644624
 40
9.335151398295409
 40
9.376418837357704
 40
9.392420497300492
 40
9.40119630273471
 40
9.417494229384104
 40
9.426270027749377
 40
9.440875075477384
 40
9.47570249699859
 40
9.517270709865754
 40
9.552098131993947
 40
9.56670316988413
 40
9.56670316988413
 40
9.56670316988413
 40
9.56670316988413
 10
194.6170254148478
 20
15.67015871511027
 10
194.613434509337
 20
15.66453690702159
 10
194.6056039123623
 20
15.65227754419116
 10
194.5129968974549
 20
15.61601916040944
 10
194.4887622233246
 20
15.40148444212725
 10
194.3858709845938
 20
15.22197284509705
 10
194.1220492364305
 20
15.03615573798145
 10
194.2845471569179
 20
14.9595933656608
 10
194.3607225760838
 20
14.89856693195444
 10
194.4492171072758
 20
14.83515804544758
 10
194.5389930233109
 20
14.77525634219562
 10
194.5883817636047
 20
14.72102154849208
 10
194.674570815738
 20
14.69286240541833
 10
194.6411260674229
 20
14.65713309652812
 10
194.621467116631
 20
14.62550387991904
 10
194.5919888217881
 20
14.58475872796072
 10
194.5688989446031
 20
14.55504663489642
 10
194.5380205968356
 20
14.50211422668494
 10
194.472919336574
 20
14.62740334938902
 10
194.3796000122416
 20
14.68213900233935
 10
194.2950636285138
 20
14.73916423939343
 10
194.1722498125743
 20
14.89675287427523
 10
194.1764450847301
 20
14.82035806766836
 10
194.1751478652677
 20
14.77361280161296
 10
194.1758126448076
 20
14.695847858126
 10
194.1755549986957
 20
14.59902068324423
 10
194.1756431239921
 20
14.48650279078809
 10
194.1756077302282
 20
14.365240859457
 10
194.1756511758278
 20
14.24086897858961
 10
194.1755199942406
 20
14.11967683631337
 10
194.1759477562046
 20
14.00691148919743
 10
194.174667820231
 20
13.91082913768744
 10
194.1779759851044
 20
13.831138264687
 10
194.1715197740086
 20
13.78815175788784
 10
194.1806208705556
 20
13.74955432372043
 10
194.1447910339935
 20
13.7581088772407
 10
194.1115223815252
 20
13.75342519985446
 10
194.060456257604
 20
13.75351298759784
 10
194.0269723972813
 20
13.75794430283821
 10
193.9907585408754
 20
13.74960793842509
 10
194.0009782568665
 20
13.79145277179284
 10
193.9936487887773
 20
13.83778560820173
 10
193.9973633136103
 20
13.92374831106015
 10
193.9959480554896
 20
14.02605142704849
 10
193.9964105554638
 20
14.14453223931512
 10
193.996277368623
 20
14.26957683153356
 10
193.9963015910045
 20
14.3947582810705
 10
193.9963354925551
 20
14.51286645379058
 10
193.9962060293132
 20
14.61628748709516
 10
193.9965507549081
 20
14.69932036153667
 10
193.995869827869
 20
14.75143368521243
 10
193.9994586600622
 20
14.87912907821361
 10
193.7826171386437
 20
14.5804871681962
 10
193.602135492195
 20
14.35263981511511
 10
193.5490322295611
 20
14.49373443289815
 10
193.5200429133148
 20
14.54325767560944
 10
193.4196648062819
 20
14.64641779790105
 10
193.7405127723261
 20
14.72695035023781
 10
193.8689897005429
 20
14.91066283036433
 10
194.0906454325359
 20
15.11931995771763
 10
194.1770224894069
 20
15.29339211228344
 10
194.4549394229074
 20
15.5696705134251
 10
194.3346247839284
 20
15.56534559551114
 10
194.2863197351348
 20
15.56614856202552
 10
194.2102377454905
 20
15.56574582146584
 10
194.116701000975
 20
15.56590275611609
 10
194.0117594788557
 20
15.56582502576224
 10
193.9033887738717
 20
15.56595464378554
 10
193.7981454235897
 20
15.56554393490692
 10
193.7056237819412
 20
15.56682073671591
 10
193.6268130800708
 20
15.5634076653485
 10
193.5839674565379
 20
15.5702335003632
 10
193.5449499586516
 20
15.56065064201123
 10
193.5526365271863
 20
15.59420779565543
 10
193.5485464404312
 20
15.62523550322233
 10
193.5485531368814
 20
15.672365292709
 10
193.5526239724911
 20
15.70340941646779
 10
193.5449495574582
 20
15.73701861635901
 10
193.5834819405494
 20
15.72748410420872
 10
193.624122801448
 20
15.73397435498071
 10
193.6951471850463
 20
15.73100150650254
 10
193.7729318149633
 20
15.73174761399158
 10
193.8507292246474
 20
15.73247814044525
 10
193.9217232089907
 20
15.7295423551416
 10
193.962427979182
 20
15.73595468772952
 10
194.000985348991
 20
15.72650524176004
 10
193.9927342754927
 20
15.76264692158784
 10
193.9982346669359
 20
15.80129837613227
 10
193.9955754206163
 20
15.86913528561839
 10
193.9965815471533
 20
15.9459164153874
 10
193.9960178018319
 20
16.02849393582757
 10
193.9970714526592
 20
16.10517329229878
 10
193.994267586313
 20
16.173319907767
 10
194.0000702721304
 20
16.21132399809346
 10
193.9915654551158
 20
16.24758448077646
 10
194.0255610233125
 20
16.23755723771853
 10
194.0594575683099
 20
16.24073266813706
 10
194.1126669060345
 20
16.23508965640609
 10
194.1660768574482
 20
16.23434774436425
 10
194.1995914649489
 20
16.22819223482979
 10
194.2388086183038
 20
16.23346029773594
 10
194.2120263698492
 20
16.19253380793487
 10
194.1708111001723
 20
16.20371204538111
 10
194.1782641540874
 20
16.15867056192124
 10
194.1742227952184
 20
16.11412278028144
 10
194.1761714049641
 20
16.04223572621703
 10
194.1752364849758
 20
15.96168630588771
 10
194.176510719003
 20
15.88173995404994
 10
194.1732043793863
 20
15.80841837083183
 10
194.1802106179961
 20
15.76688643002568
 10
194.1701440380126
 20
15.72752418568113
 10
194.2029814803921
 20
15.73468063430981
 10
194.236457729648
 20
15.73027243137945
 10
194.2915053476019
 20
15.73217943347897
 10
194.3489502595314
 20
15.73185366407288
 10
194.4023026248309
 20
15.73106308733081
 10
194.4398540896639
 20
15.73313959118074
 10
194.4623172523237
 20
15.73022338167109
 10
194.4751678073731
 20
15.73572552644054
 10
194.4858255685888
 20
15.73801118197791
 10
194.4986635650143
 20
15.74494972588053
 10
194.5145991033069
 20
15.72853046313669
 10
194.5410623920891
 20
15.7170912231945
 10
194.5726805253756
 20
15.69644687835188
 10
194.5987255892151
 20
15.68116869628296
 10
194.6128517723972
 20
15.67266976323183
 10
194.6170254148478
 20
15.67015871511027
 97
        1
330
B0
 75
     1
 76
     2
 52
45.0
 41
0.1
 77
     0
 78
     1
 53
45.0
 43
0.0
 44
0.0
 45
-0.282842712474619
 46
0.0
 79
     0
 98
        1
 10
0.0
 20
0.0
  0
HATCH
  5
CE
330
48
100
AcDbEntity
  8
1
  6
Continuous
 62
     2
100
AcDbHatch
 10
0.0
 20
0.0
 30
0.0
210
0.0
220
0.0
230
1.0
  2
CUSTOM12
 70
     0
 71
     1
 91
        1
 92
        1
 93
        1
 72
     4
 94
        3
 73
     0
 74
     0
 95
      124
 96
      120
 40
0.0
 40
0.0
 40
0.0
 40
0.0
 40
0.027818722962451
 40
0.1011590162384554
 40
0.2048470170590523
 40
0.3237088716559814
 40
0.4425707262522852
 40
0.5462587270700684
 40
0.6195990203312934
 40
0.6474177522579797
 40
0.6750060736116361
 40
0.7357003855243895
 40
0.7963946998055629
 40
0.8239830245572921
 40
0.8540933811104015
 40
0.9373396629410695
 40
1.06309468734335
 40
1.220731268638217
 40
1.399622220914891
 40
1.589140358637933
 40
1.778658496424071
 40
1.957549448940738
 40
2.115186030873359
 40
2.240941056914663
 40
2.324187341760761
 40
2.354297700109611
 40
2.381886024672117
 40
2.442580338710706
 40
2.50327465275073
 40
2.530862977314837
 40
2.56098394927879
 40
2.640393784453164
 40
2.752662861759359
 40
2.881361560118347
 40
3.010060258455394
 40
3.12232933570557
 40
3.201739170818183
 40
3.231860142753544
 40
3.264298024030599
 40
3.352343701778472
 40
3.482095226868995
 40
3.639650650173253
 40
3.811108022565709
 40
3.982565394928215
 40
4.140120818152796
 40
4.269872343141507
 40
4.357918020802567
 40
4.390355902044196
 40
4.423256253992794
 40
4.508104530073259
 40
4.624121560637055
 40
4.750528176031755
 40
4.86654520660223
 40
4.951393482692215
 40
4.984293834645588
 40
5.011450833242503
 40
5.071196230152288
 40
5.130941627057367
 40
5.158098625649031
 40
5.190998977601665
 40
5.275847253689547
 40
5.391864284256981
 40
5.518270899648498
 40
5.634287930209537
 40
5.719136206288211
 40
5.752036558236099
 40
5.782130946283124
 40
5.862783906229299
 40
5.979550131775166
 40
6.117984316640572
 40
6.263641154588117
 40
6.402075339414323
 40
6.518841564908118
 40
6.599494524815699
 40
6.629588912848937
 40
6.654403028226541
 40
6.713575149488308
 40
6.784199939329683
 40
6.843372060493813
 40
6.868186175803059
 40
6.896246243202157
 40
6.939586233758635
 40
6.967846564565263
 40
7.043584251090198
 40
7.153234334452056
 40
7.283231855734809
 40
7.420011856035839
 40
7.550009376580188
 40
7.659659458835587
 40
7.73539714441758
 40
7.763657474851752
 40
7.796409728011381
 40
7.880876065096683
 40
7.996370852466069
 40
8.122208446418965
 40
8.237703224799558
 40
8.322169562011252
 40
8.354921815206266
 40
8.382078813308047
 40
8.441824209207352
 40
8.501569605240503
 40
8.528726603486081
 40
8.561478856696102
 40
8.645945193878152
 40
8.761439980865692
 40
8.887277580764863
 40
9.002772362001355
 40
9.087238696661576
 40
9.11999094923603
 40
9.15242883061373
 40
9.240474508638945
 40
9.370226034149894
 40
9.527781457984776
 40
9.699238830981766
 40
9.870696203978955
 40
10.02825162781438
 40
10.15800315332599
 40
10.24604883135154
 40
10.27848670378557
 40
10.27848670378557
 40
10.27848670378557
 40
10.27848670378557
 10
195.3821827564382
 20
14.01410517385757
 10
195.3914554737522
 20
14.01410498511274
 10
195.4251744536859
 20
14.01410430876714
 10
195.4934706812464
 20
14.01411807243304
 10
195.592014171158
 20
14.01403224219546
 10
195.7062066464811
 20
14.0144175561225
 10
195.8185894417071
 20
14.01300835897545
 10
195.9214376600117
 20
14.01719117422243
 10
195.9806839874849
 20
14.00823089251983
 10
196.0371265937032
 20
14.02164434526061
 10
196.0246255586955
 20
13.97087198613361
 10
196.0329549635704
 20
13.92589320939067
 10
196.0248170841119
 20
13.88056752990488
 10
196.0370529214457
 20
13.82931932408466
 10
195.9747773490333
 20
13.84447955365276
 10
195.9060513026868
 20
13.83359750710743
 10
195.7782756749591
 20
13.83911304747972
 10
195.6262984511644
 20
13.83700851253698
 10
195.4502695972521
 20
13.83771002588473
 10
195.2644431934287
 20
13.83745237531291
 10
195.0786167437174
 20
13.83771005144603
 10
194.9025880142167
 20
13.83700841847731
 10
194.7506104154193
 20
13.83911332229988
 10
194.6228357664554
 20
13.8335968076764
 10
194.5541077836579
 20
13.84448077125942
 10
194.4918349042882
 20
13.82931786684209
 10
194.5040616290017
 20
13.88057510805171
 10
194.4960004462596
 20
13.92582473272425
 10
194.5040675809891
 20
13.97106357955323
 10
194.4918238487082
 20
14.02234176909958
 10
194.5525017120697
 20
14.00749577363135
 10
194.6162810745735
 20
14.01756448170735
 10
194.7277314353502
 20
14.01294644211999
 10
194.8497533443822
 20
14.01413328905469
 10
194.9719538137822
 20
14.01515863900635
 10
195.082979428739
 20
14.01092475623401
 10
195.1476517413957
 20
14.02018584521739
 10
195.20911628105
 20
14.00604423049682
 10
195.1930065601335
 20
14.07235527884517
 10
195.2042980327357
 20
14.14447790121976
 10
195.1987400822559
 20
14.27513760888286
 10
195.2008035061689
 20
14.42607323708241
 10
195.2000167127294
 20
14.59335873107886
 10
195.2007845215625
 20
14.76061110332302
 10
195.1988038785628
 20
14.91163289269914
 10
195.2041306156618
 20
15.04206069552994
 10
195.1933101388424
 20
15.114654426059
 10
195.2090326429874
 20
15.18150469436798
 10
195.143270813249
 20
15.16580512490824
 10
195.0756367830762
 20
15.17609243083995
 10
194.9615885293809
 20
15.17113786847121
 10
194.8451242674901
 20
15.17414128030475
 10
194.7306554121477
 20
15.1688030314339
 10
194.6640324657811
 20
15.18001268074824
 10
194.5990769715185
 20
15.16349132665012
 10
194.6107989758707
 20
15.21473720477059
 10
194.6032830189119
 20
15.2595033378409
 10
194.6107989878835
 20
15.30426944897961
 10
194.5990769505345
 20
15.35551536129739
 10
194.6640326339199
 20
15.33899381766815
 10
194.730653333982
 20
15.35020571373943
 10
194.8451352858062
 20
15.34485436710664
 10
194.9615454436962
 20
15.34791188771117
 10
195.0757660174639
 20
15.34278499010708
 10
195.1430150439225
 20
15.35345733355599
 10
195.2083325941437
 20
15.33742082669077
 10
195.1941391448551
 20
15.39949685750054
 10
195.2036059462994
 20
15.46586761628762
 10
195.1990269004084
 20
15.58239972741966
 10
195.2007696555947
 20
15.71426685022376
 10
195.199755149539
 20
15.85615960150273
 10
195.201719134437
 20
15.9876905070258
 10
195.1964668553849
 20
16.10524577283002
 10
195.2073408763473
 20
16.16947789001584
 10
195.1919536641852
 20
16.23108802545048
 10
195.2407591537799
 20
16.21702407382111
 10
195.2853995564724
 20
16.21954742075313
 10
195.3538643946742
 20
16.2151279740171
 10
195.3959106169102
 20
16.20613025544035
 10
195.4487544758775
 20
16.21411714866511
 10
195.4207035002013
 20
16.1711391761167
 10
195.3749142248593
 20
16.18259552043839
 10
195.3869539073264
 20
16.12173520005136
 10
195.379608607064
 20
16.05769299468773
 10
195.383119582616
 20
15.9490936886391
 10
195.3819806760173
 20
15.82494319144752
 10
195.3819174780261
 20
15.69189719829878
 10
195.3832872966865
 20
15.56797381249555
 10
195.3791638801313
 20
15.45868337849338
 10
195.3877763103562
 20
15.3960858009417
 10
195.3746757454401
 20
15.33740133296367
 10
195.4393884328196
 20
15.35362113810901
 10
195.5060405953155
 20
15.34270260383312
 10
195.6198779541101
 20
15.34793740173756
 10
195.7357259122096
 20
15.34485547516913
 10
195.8496924263279
 20
15.35018259812512
 10
195.9160341018098
 20
15.33904208166543
 10
195.9807188525479
 20
15.35546979593178
 10
195.968982077272
 20
15.3042592521005
 10
195.9765168063041
 20
15.25950334121001
 10
195.9689820992256
 20
15.21474739010027
 10
195.9807188140735
 20
15.16353690871041
 10
195.9160344075252
 20
15.1799642779422
 10
195.8496886430824
 20
15.1688278444727
 10
195.735745948701
 20
15.17413115893119
 10
195.6197995623054
 20
15.17114764593544
 10
195.5062756882121
 20
15.17606892268393
 10
195.4389231318802
 20
15.16585087513519
 10
195.3734285122494
 20
15.18145996138815
 10
195.3891713619217
 20
15.11463851827411
 10
195.3783275998211
 20
15.04207057815878
 10
195.3836581629791
 20
14.91162247614416
 10
195.3817136151854
 20
14.76064558185226
 10
195.3823133683212
 20
14.59322243934158
 10
195.3821506559604
 20
14.42656176118371
 10
195.3821895488134
 20
14.27360142921636
 10
195.3821816413098
 20
14.14849178985705
 10
195.3821828382743
 20
14.0650789099142
 10
195.3821827716207
 20
14.02491778281976
 10
195.3821827564382
 20
14.01410517385757
 97
        1
330
B1
 75
     1
 76
     2
 52
45.0
 41
0.1
 77
     0
 78
     1
 53
45.0
 43
0.0
 44
0.0
 45
-0.282842712474619
 46
0.0
 79
     0
 98
        1
 10
0.0
 20
0.0
  0
HATCH
  5
CF
330
48
100
AcDbEntity
  8
1
  6
Continuous
 62
     2
100
AcDbHatch
 10
0.0
 20
0.0
 30
0.0
210
0.0
220
0.0
230
1.0
  2
CUSTOM13
 70
     0
 71
     1
 91
        1
 92
        1
 93
        3
 72
     4
 94
        3
 73
     0
 74
     0
 95
       24
 96
       20
 40
0.0
 40
0.0
 40
0.0
 40
0.0
 40
0.2211075008753789
 40
0.4273218586245378
 40
0.508017467923889
 40
0.5914835907870553
 40
0.8143265690193283
 40
1.054651302686622
 40
1.295452694023218
 40
1.518109231328868
 40
1.540864321905483
 40
1.595126460622772
 40
1.659890947896141
 40
1.714153085187527
 40
1.736908174961827
 40
1.76495110073555
 40
1.801562291221195
 40
1.953914424543858
 40
2.126104167379926
 40
2.126104167379926
 40
2.126104167379926
 40
2.126104167379926
 10
185.9375369556888
 20
15.58989295113016
 10
185.9112579081811
 20
15.53097628234374
 10
185.8604698894424
 20
15.41711139679257
 10
185.8131784839112
 20
15.14441958233115
 10
185.7043482802617
 20
15.24445482575458
 10
185.5514800279636
 20
15.27118593367325
 10
185.7686155181199
 20
15.4851813501763
 10
185.7838483674379
 20
15.70332117782488
 10
185.8906889492001
 20
15.88451579066424
 10
185.8305380947075
 20
16.16913226311402
 10
185.9334317395401
 20
16.1411408922245
 10
185.9779933468148
 20
16.13243251602299
 10
186.0380842395397
 20
16.12139654183355
 10
186.0756619587438
 20
16.1076752305556
 10
186.1252466928606
 20
16.10756076160222
 10
186.0930158919324
 20
16.07306592398623
 10
186.017180222188
 20
16.08404104537966
 10
186.0429447159693
 20
15.89858969582449
 10
186.0055896763849
 20
15.80702313549589
 10
185.9857704961609
 20
15.75844135397705
 72
     4
 94
        3
 73
     0
 74
     0
 95
       70
 96
       66
 40
0.0
 40
0.0
 40
0.0
 40
0.0
 40
0.0241731073021188
 40
0.0846058988987013
 40
0.1631685280352715
 40
0.2417311571788903
 40
0.3021639488291614
 40
0.3263370654894688
 40
0.3533118254248028
 40
0.4228783438921259
 40
0.517999909531255
 40
0.621639823946525
 40
0.7167613891498853
 40
0.7863279069649011
 40
0.8133026791760983
 40
0.8372943998771104
 40
0.8945054261372299
 40
0.9627895541962352
 40
1.020000580349045
 40
1.043992300975172
 40
1.071934345522947
 40
1.113121768772879
 40
1.145225199332204
 40
1.225483775412739
 40
1.329819923771447
 40
1.434156071994337
 40
1.514414647795759
 40
1.546518078208367
 40
1.578974764260112
 40
1.662678849314106
 40
1.777131373668327
 40
1.901833377474689
 40
2.016285900500479
 40
2.09998998252779
 40
2.132446666570148
 40
2.15878235448587
 40
2.216720867907661
 40
2.274659381334084
 40
2.300995069256018
 40
2.33345175406599
 40
2.417155836543643
 40
2.531608358985054
 40
2.65631036228352
 40
2.770762886388653
 40
2.854466971339789
 40
2.886923657363596
 40
2.91359797683303
 40
2.982389642874834
 40
3.076451716946696
 40
3.178937260458314
 40
3.272999334739715
 40
3.341791001058938
 40
3.368465320663251
 40
3.396976080738472
 40
3.472140811845708
 40
3.578408190308398
 40
3.700226892455834
 40
3.822045594634051
 40
3.928312973256158
 40
4.003477705314555
 40
4.031988456866621
 40
4.058324144797421
 40
4.116262658236582
 40
4.174201171400378
 40
4.200536849608312
 40
4.200536849608312
 40
4.200536849608312
 40
4.200536849608312
 10
185.9857704961609
 20
15.75844135397705
 10
185.9938259544679
 20
15.75844359811687
 10
186.0220200663241
 20
15.75845146032798
 10
186.0765534803672
 20
15.75830754828371
 10
186.1482891808603
 20
15.75909120499898
 10
186.2236240137062
 20
15.75627570463811
 10
186.2713052366438
 20
15.76298403400957
 10
186.3195071245615
 20
15.75197563692431
 10
186.3062571799873
 20
15.80546402997033
 10
186.3151093964537
 20
15.86049583543092
 10
186.3108698036285
 20
15.95419908726109
 10
186.3133483481278
 20
16.04959482218532
 10
186.3090938706059
 20
16.14356821983387
 10
186.3179818665846
 20
16.19795062438013
 10
186.3046977409944
 20
16.25233997691461
 10
186.3514119277108
 20
16.23842216335357
 10
186.3943254545736
 20
16.24103877374043
 10
186.4605443456684
 20
16.23648422450755
 10
186.5013342271798
 20
16.22778162134162
 10
186.5525145690819
 20
16.23531799890194
 10
186.52537204872
 20
16.19349970223292
 10
186.4803096055707
 20
16.20284992072592
 10
186.4942065045051
 20
16.13841207371838
 10
186.4858414431653
 20
16.07378219627399
 10
186.4903632178398
 20
15.97529141193888
 10
186.4854741311167
 20
15.8759593284257
 10
186.4950258992082
 20
15.81293115552969
 10
186.47997614552
 20
15.7496401149979
 10
186.5449159457208
 20
15.76515072944268
 10
186.6116246399496
 20
15.75499387697813
 10
186.7241435470827
 20
15.75988800099366
 10
186.8390235448953
 20
15.75691204732784
 10
186.9519871999746
 20
15.7622166418499
 10
187.0176267597676
 20
15.7510730647209
 10
187.0816276691052
 20
15.76744532319857
 10
187.0703142889188
 20
15.71761689905275
 10
187.0775339871508
 20
15.67416715212123
 10
187.0703142611268
 20
15.63071745587445
 10
187.0816277175993
 20
15.58088895196876
 10
187.0176263598971
 20
15.59726166091362
 10
186.9519921240458
 20
15.58611271661588
 10
186.838997431733
 20
15.59144857206854
 10
186.7242456548642
 20
15.58834345663821
 10
186.6113183686861
 20
15.59364894682589
 10
186.5455220903584
 20
15.58257300019593
 10
186.4816097975358
 20
15.59887597847618
 10
186.4936015165126
 20
15.54423524395742
 10
186.4862104613005
 20
15.48854295047841
 10
186.4892684841983
 20
15.3964968914057
 10
186.4893422785683
 20
15.30179109873101
 10
186.486031357836
 20
15.20952782902265
 10
186.4939505989903
 20
15.15435768736139
 10
186.4815076611618
 20
15.10058169100136
 10
186.5389116551631
 20
15.1145376886278
 10
186.5994708140383
 20
15.10511457884226
 10
186.7048680855081
 20
15.10942885928705
 10
186.8204294070622
 20
15.10835504612031
 10
186.9359688877797
 20
15.10725965900994
 10
187.0414181130841
 20
15.11162525770632
 10
187.1018680471805
 20
15.10209426030671
 10
187.159283773911
 20
15.11617289606379
 10
187.1477773876709
 20
15.06707153265683
 10
187.1537566781749
 20
15.02564658018648
 10
187.1520311050802
 20
14.97651677966696
 10
187.1521500122971
 20
14.94854428447608
 10
187.1521871691833
 20
14.9398028819595
 72
     4
 94
        3
 73
     0
 74
     0
 95
       62
 96
       58
 40
0.0
 40
0.0
 40
0.0
 40
0.0
 40
0.0598250028308485
 40
0.2024846486897331
 40
0.3727558389221031
 40
0.515415484793607
 40
0.5752404975785339
 40
0.933232677548711
 40
1.29045176283946
 40
1.602077253145798
 40
1.699931634111992
 40
1.799359756424943
 40
2.270120149656962
 40
2.804661928461385
 40
2.882342287383094
 40
3.076543185718945
 40
3.329004354835404
 40
3.58146552456823
 40
3.77566642454351
 40
3.85334678455813
 40
3.899120679594904
 40
3.984129341791931
 40
4.029903236817308
 40
4.105797496059465
 40
4.295533144152424
 40
4.542189486611665
 40
4.788845828875612
 40
4.978581476409998
 40
5.054475735244241
 40
5.621734664339242
 40
6.130867242037294
 40
6.22524978094847
 40
6.318913039727168
 40
6.663579954558764
 40
7.047498900224612
 40
7.43523079157556
 40
7.498943906667972
 40
7.650875181209994
 40
7.832212509001561
 40
7.984143783696947
 40
8.047856898903103
 40
8.091554632732608
 40
8.172707566964267
 40
8.216405300767988
 40
8.289021782160873
 40
8.462184160757218
 40
8.668861838005384
 40
8.842024215263947
 40
8.914640695475143
 40
8.989881580861349
 40
9.155411528827257
 40
9.32094147774404
 40
9.396182352487292
 40
9.45470901114381
 40
9.583467660170802
 40
9.712226309013024
 40
9.770752957989506
 40
9.770752957989506
 40
9.770752957989506
 40
9.770752957989506
 10
187.1521871691833
 20
14.9398028819595
 10
187.1322348171623
 20
14.93980875568671
 10
187.0647037716466
 20
14.93982863806157
 10
186.9410612161788
 20
14.93949362520326
 10
186.7863180150056
 20
14.94107673750512
 10
186.669734948248
 20
14.93686078860495
 10
186.455094263424
 20
14.95215205331626
 10
186.8518948407229
 20
14.59198721286191
 10
186.8945656069267
 20
14.37510503397167
 10
187.3189162146609
 20
14.19325062511452
 10
187.1439821496073
 20
14.08985196568067
 10
187.0194523925083
 20
13.87831523212731
 10
186.7666277235942
 20
14.34806081001557
 10
186.4797602893628
 20
14.99511516984521
 10
186.4906335926659
 20
14.68782672154693
 10
186.488289277796
 20
14.52288616971777
 10
186.4861096126411
 20
14.28879670711693
 10
186.4980774396346
 20
14.04498072421783
 10
186.4687984740631
 20
13.89855796860984
 10
186.5114522625469
 20
13.75113490174537
 10
186.4239814005639
 20
13.7668579730622
 10
186.3768527606743
 20
13.76694303543455
 10
186.2898973207712
 20
13.75109425482908
 10
186.3313474021722
 20
13.89527771422762
 10
186.3029875004284
 20
14.03855052698456
 10
186.3145973775298
 20
14.27674947365265
 10
186.3124175648271
 20
14.50517235240346
 10
186.3103111127993
 20
14.66705729375994
 10
186.3208035438323
 20
14.98153709333752
 10
186.0128963252893
 20
14.29229470872437
 10
185.7055258267453
 20
13.81476750243041
 10
185.5851367066274
 20
14.0374111263743
 10
185.4074607910721
 20
14.15011034955565
 10
185.8853326362894
 20
14.32548143465463
 10
185.9353959057208
 20
14.56091929252031
 10
186.3583799621716
 20
14.95322989344606
 10
186.1276754273541
 20
14.93655307029066
 10
186.0049685859341
 20
14.94269518948771
 10
185.8325483095661
 20
14.93312822699574
 10
185.7213224694447
 20
14.95448818489666
 10
185.6025779627447
 20
14.92136265357419
 10
185.6183169706685
 20
15.00203900606883
 10
185.6178550933761
 20
15.04645414290854
 10
185.602788188993
 20
15.12967081778533
 10
185.7372380935442
 20
15.09062651983883
 10
185.8619755545745
 20
15.11739729328422
 10
186.0628755237279
 20
15.10063949044051
 10
186.1921540949352
 20
15.12204225913004
 10
186.3328419928294
 20
15.0886877885342
 10
186.2980927452614
 20
15.22651875785068
 10
186.3222185666712
 20
15.34963257349481
 10
186.2967086182391
 20
15.47024055670334
 10
186.3333251146684
 20
15.60539865141494
 10
186.2211417027768
 20
15.58094545781891
 10
186.1280356457135
 20
15.59307749842022
 10
186.0191547579819
 20
15.58957630069994
 10
185.9569697640963
 20
15.58981755951602
 10
185.9375369557245
 20
15.58989295124144
 97
        3
330
B3
330
B4
330
B2
 75
     1
 76
     2
 52
45.0
 41
0.1
 77
     0
 78
     1
 53
45.0
 43
0.0
 44
0.0
 45
-0.282842712474619
 46
0.0
 79
     0
 98
        1
 10
0.0
 20
0.0
  0
HATCH
  5
D0
330
48
100
AcDbEntity
  8
1
  6
Continuous
 62
     2
100
AcDbHatch
 10
0.0
 20
0.0
 30
0.0
210
0.0
220
0.0
230
1.0
  2
CUSTOM14
 70
     0
 71
     1
 91
        1
 92
        1
 93
        4
 72
     1
 10
192.4578138032672
 20
15.22875434022057
 11
191.160297169703
 21
15.22875434022057
 72
     1
 10
191.160297169703
 20
15.22875434022057
 11
191.160297169703
 21
15.39722336795625
 72
     1
 10
191.160297169703
 20
15.39722336795625
 11
192.4578138032672
 21
15.39722336795625
 72
     1
 10
192.4578138032672
 20
15.39722336795625
 11
192.4578138032672
 21
15.22875434022057
 97
        1
330
B5
 75
     1
 76
     2
 52
45.0
 41
0.1
 77
     0
 78
     1
 53
45.0
 43
0.0
 44
0.0
 45
-0.282842712474619
 46
0.0
 79
     0
 98
        1
 10
0.0
 20
0.0
  0
ENDBLK
  5
4A
330
48
100
AcDbEntity
  8
0
100
AcDbBlockEnd
  0
BLOCK
  5
4D
330
4B
100
AcDbEntity
  8
0
100
AcDbBlockBegin
  2
開示A4枠
 70
     0
 10
0.0
 20
0.0
 30
0.0
  3
開示A4枠
  1

  0
INSERT
  5
4C
330
4B
100
AcDbEntity
  8
1
100
AcDbBlockReference
  2
開示A4
 10
0.0
 20
0.0
 30
0.0
  0
ENDBLK
  5
4E
330
4B
100
AcDbEntity
  8
0
100
AcDbBlockEnd
  0
BLOCK
  5
50
330
4F
100
AcDbEntity
  8
0
100
AcDbBlockBegin
  2
futa
 70
     0
 10
-171.3497874123618
 20
120.2391564733017
 30
0.0
  3
futa
  1

  0
LINE
  5
D1
330
4F
100
AcDbEntity
  8
1
  6
Continuous
 62
     7
100
AcDbLine
 10
167.7757384606294
 20
85.91848231301086
 30
0.0
 11
109.2757384606294
 21
85.91848231301091
 31
0.0
  0
LINE
  5
D2
330
4F
100
AcDbEntity
  8
1
  6
Continuous
 62
     7
100
AcDbLine
 10
167.7757384606294
 20
85.91848231301086
 30
0.0
 11
166.7757384606294
 21
71.91848231301086
 31
0.0
  0
LINE
  5
D3
330
4F
100
AcDbEntity
  8
1
  6
Continuous
 62
     7
100
AcDbLine
 10
89.27573846062941
 20
169.2391564733017
 30
0.0
 11
109.2757384606294
 21
169.2391564733017
 31
0.0
  0
LINE
  5
D4
330
4F
100
AcDbEntity
  8
1
  6
Continuous
 62
     7
100
AcDbLine
 10
74.27573846062941
 20
136.3127496021088
 30
0.0
 11
74.27573846062941
 21
154.2391564733017
 31
0.0
  0
LINE
  5
D5
330
4F
100
AcDbEntity
  8
1
  6
Continuous
 62
     7
100
AcDbLine
 10
89.27573846062941
 20
188.2391564733017
 30
0.0
 11
109.2757384606294
 21
188.2391564733017
 31
0.0
  0
LINE
  5
D6
330
4F
100
AcDbEntity
  8
1
  6
Continuous
 62
     7
100
AcDbLine
 10
74.27573846062941
 20
221.1655633444946
 30
0.0
 11
74.27573846062941
 21
203.2391564733017
 31
0.0
  0
LINE
  5
D7
330
4F
100
AcDbEntity
  8
1
  6
Continuous
 62
     7
100
AcDbLine
 10
136.2757384606294
 20
69.21848231301075
 30
0.0
 11
116.7757384606294
 21
69.21848231301075
 31
0.0
  0
LINE
  5
D8
330
4F
100
AcDbEntity
  8
1
  6
Continuous
 62
     7
100
AcDbLine
 10
166.7757384606294
 20
71.91848231301086
 30
0.0
 11
148.4497218073259
 21
71.91848231301091
 31
0.0
  0
LINE
  5
D9
330
4F
100
AcDbEntity
  8
1
  6
Continuous
 62
     7
100
AcDbLine
 10
109.2757384606294
 20
85.91848231301091
 30
0.0
 11
50.77573846062941
 21
85.91848231301091
 31
0.0
  0
LINE
  5
DA
330
4F
100
AcDbEntity
  8
1
  6
Continuous
 62
     7
100
AcDbLine
 10
51.77573846062941
 20
71.91848231301091
 30
0.0
 11
50.77573846062941
 21
85.91848231301091
 31
0.0
  0
LINE
  5
DB
330
4F
100
AcDbEntity
  8
1
  6
Continuous
 62
     7
100
AcDbLine
 10
101.7757384606294
 20
69.21848231301075
 30
0.0
 11
101.7757384606294
 21
71.91848231301091
 31
0.0
  0
LINE
  5
DC
330
4F
100
AcDbEntity
  8
1
  6
Continuous
 62
     7
100
AcDbLine
 10
101.7757384606294
 20
69.21848231301075
 30
0.0
 11
82.27573846062941
 21
69.21848231301075
 31
0.0
  0
LINE
  5
DD
330
4F
100
AcDbEntity
  8
1
  6
Continuous
 62
     7
100
AcDbLine
 10
148.4497218073259
 20
71.91848231301091
 30
0.0
 11
51.77573846062941
 21
71.91848231301091
 31
0.0
  0
LINE
  5
DE
330
4F
100
AcDbEntity
  8
1
  6
Continuous
 62
     7
100
AcDbLine
 10
116.7757384606294
 20
71.91848231301091
 30
0.0
 11
101.7757384606294
 21
71.91848231301091
 31
0.0
  0
LINE
  5
DF
330
4F
100
AcDbEntity
  8
1
  6
Continuous
 62
     7
100
AcDbLine
 10
116.7757384606294
 20
71.91848231301091
 30
0.0
 11
116.7757384606294
 21
69.21848231301075
 31
0.0
  0
LINE
  5
E0
330
4F
100
AcDbEntity
  8
1
  6
Continuous
 62
     7
100
AcDbLine
 10
109.2757384606294
 20
169.2391564733017
 30
0.0
 11
129.2757384606295
 21
169.2391564733017
 31
0.0
  0
LINE
  5
E1
330
4F
100
AcDbEntity
  8
1
  6
Continuous
 62
     7
100
AcDbLine
 10
144.2757384606295
 20
154.2391564733017
 30
0.0
 11
144.2757384606295
 21
136.3127496021088
 31
0.0
  0
LINE
  5
E2
330
4F
100
AcDbEntity
  8
1
  6
Continuous
 62
     7
100
AcDbLine
 10
109.2757384606294
 20
188.2391564733017
 30
0.0
 11
129.2757384606295
 21
188.2391564733017
 31
0.0
  0
LINE
  5
E3
330
4F
100
AcDbEntity
  8
1
  6
Continuous
 62
     7
100
AcDbLine
 10
144.2757384606295
 20
203.2391564733017
 30
0.0
 11
144.2757384606295
 21
221.1655633444946
 31
0.0
  0
ARC
  5
E4
330
4F
100
AcDbEntity
  8
1
  6
Continuous
 62
     7
100
AcDbCircle
 10
109.2757384606294
 20
178.7391564733017
 30
0.0
 40
54.99999999999999
100
AcDbArc
 50
180.0
 51
230.4788036413578
  0
ARC
  5
E5
330
4F
100
AcDbEntity
  8
1
  6
Continuous
 62
     7
100
AcDbCircle
 10
109.2757384606294
 20
178.7391564733017
 30
0.0
 40
55.0
100
AcDbArc
 50
90.0
 51
129.5211963586422
  0
ARC
  5
E6
330
4F
100
AcDbEntity
  8
1
  6
Continuous
 62
     7
100
AcDbCircle
 10
133.3706212901489
 20
111.1128465042833
 30
0.0
 40
41.99496942212483
100
AcDbArc
 50
273.9667608296691
 51
291.0430440618375
  0
ARC
  5
E7
330
4F
100
AcDbEntity
  8
1
  6
Continuous
 62
     7
100
AcDbCircle
 10
85.18085563110992
 20
111.1128465042833
 30
0.0
 40
41.99496942212507
100
AcDbArc
 50
248.9569559381625
 51
266.0332391703309
  0
ARC
  5
E8
330
4F
100
AcDbEntity
  8
1
  6
Continuous
 62
     7
100
AcDbCircle
 10
109.2757384606294
 20
178.7391564733017
 30
0.0
 40
55.00000000000004
100
AcDbArc
 50
230.4788036413578
 51
270.0
  0
ARC
  5
E9
330
4F
100
AcDbEntity
  8
1
  6
Continuous
 62
     7
100
AcDbCircle
 10
109.2757384606294
 20
178.7391564733017
 30
0.0
 40
58.49999999999999
100
AcDbArc
 50
180.0
 51
270.0
  0
ARC
  5
EA
330
4F
100
AcDbEntity
  8
1
  6
Continuous
 62
     7
100
AcDbCircle
 10
109.2757384606294
 20
178.7391564733017
 30
0.0
 40
58.5
100
AcDbArc
 50
90.0
 51
180.0
  0
ARC
  5
EB
330
4F
100
AcDbEntity
  8
1
  6
Continuous
 62
     7
100
AcDbCircle
 10
109.2757384606294
 20
178.7391564733017
 30
0.0
 40
55.00000000000001
100
AcDbArc
 50
129.5211963586422
 51
180.0
  0
ARC
  5
EC
330
4F
100
AcDbEntity
  8
1
  6
Continuous
 62
     7
100
AcDbCircle
 10
109.2757384606294
 20
178.7391564733017
 30
0.0
 40
55.00000000000011
100
AcDbArc
 50
309.5211963586422
 51
0.0
  0
ARC
  5
ED
330
4F
100
AcDbEntity
  8
1
  6
Continuous
 62
     7
100
AcDbCircle
 10
109.2757384606294
 20
178.7391564733017
 30
0.0
 40
55.00000000000009
100
AcDbArc
 50
50.47880364135776
 51
90.0
  0
ARC
  5
EE
330
4F
100
AcDbEntity
  8
1
  6
Continuous
 62
     7
100
AcDbCircle
 10
109.2757384606294
 20
178.7391564733017
 30
0.0
 40
55.0
100
AcDbArc
 50
270.0
 51
309.5211963586422
  0
ARC
  5
EF
330
4F
100
AcDbEntity
  8
1
  6
Continuous
 62
     7
100
AcDbCircle
 10
109.2757384606294
 20
178.7391564733017
 30
0.0
 40
58.5
100
AcDbArc
 50
270.0
 51
0.0
  0
ARC
  5
F0
330
4F
100
AcDbEntity
  8
1
  6
Continuous
 62
     7
100
AcDbCircle
 10
109.2757384606294
 20
178.7391564733017
 30
0.0
 40
58.5000000000001
100
AcDbArc
 50
0.0
 51
90.0
  0
ARC
  5
F1
330
4F
100
AcDbEntity
  8
1
  6
Continuous
 62
     7
100
AcDbCircle
 10
109.2757384606294
 20
178.7391564733017
 30
0.0
 40
55.0000000000001
100
AcDbArc
 50
0.0
 51
50.47880364135776
  0
ARC
  5
F2
330
4F
100
AcDbEntity
  8
1
  6
Continuous
 62
     7
100
AcDbCircle
 10
89.27573846062941
 20
154.2391564733017
 30
0.0
 40
15.0
100
AcDbArc
 50
90.0
 51
180.0
  0
ARC
  5
F3
330
4F
100
AcDbEntity
  8
1
  6
Continuous
 62
     7
100
AcDbCircle
 10
89.27573846062941
 20
203.2391564733017
 30
0.0
 40
15.0
100
AcDbArc
 50
180.0
 51
270.0
  0
ARC
  5
F4
330
4F
100
AcDbEntity
  8
1
  6
Continuous
 62
     7
100
AcDbCircle
 10
129.2757384606295
 20
154.2391564733017
 30
0.0
 40
15.0
100
AcDbArc
 50
0.0
 51
90.0
  0
ARC
  5
F5
330
4F
100
AcDbEntity
  8
1
  6
Continuous
 62
     7
100
AcDbCircle
 10
129.2757384606295
 20
203.2391564733017
 30
0.0
 40
15.0
100
AcDbArc
 50
270.0
 51
0.0
  0
ENDBLK
  5
51
330
4F
100
AcDbEntity
  8
0
100
AcDbBlockEnd
  0
BLOCK
  5
10F
330
108
100
AcDbEntity
  8
0
100
AcDbBlockBegin
  2
*D4
 70
     1
 10
0.0
 20
0.0
 30
0.0
  3
*D4
  1

  0
LINE
  5
109
330
108
100
AcDbEntity
  8
1
  6
Continuous
 62
     2
100
AcDbLine
 10
50.7757384606294
 20
248.2391564733017
 30
0.0
 11
167.7757384606295
 21
248.2391564733017
 31
0.0
  0
LINE
  5
10A
330
108
100
AcDbEntity
  8
1
  6
Continuous
 62
     2
100
AcDbLine
 10
167.7757384606295
 20
178.7391564733017
 30
0.0
 11
167.7757384606295
 21
249.2391564733017
 31
0.0
  0
LINE
  5
10B
330
108
100
AcDbEntity
  8
1
  6
Continuous
 62
     2
100
AcDbLine
 10
50.7757384606294
 20
178.7391564733017
 30
0.0
 11
50.7757384606294
 21
249.2391564733017
 31
0.0
  0
SOLID
  5
10C
330
108
100
AcDbEntity
  8
1
 62
     2
100
AcDbTrace
 10
54.2757384606294
 20
248.6999402148576
 30
0.0
 11
54.2757384606294
 21
247.7783727317458
 31
0.0
 12
50.7757384606294
 22
248.2391564733017
 32
0.0
 13
50.7757384606294
 23
248.2391564733017
 33
0.0
  0
SOLID
  5
10D
330
108
100
AcDbEntity
  8
1
 62
     2
100
AcDbTrace
 10
164.2757384606295
 20
247.7783727317458
 30
0.0
 11
164.2757384606295
 21
248.6999402148576
 31
0.0
 12
167.7757384606295
 22
248.2391564733017
 32
0.0
 13
167.7757384606295
 23
248.2391564733017
 33
0.0
  0
MTEXT
  5
10E
330
108
100
AcDbEntity
  8
1
 62
     7
100
AcDbMText
 10
105.3557384606378
 20
249.2391495162254
 30
0.0
 40
3.5
 41
0.0
 71
     7
 72
     1
  1
\C7;{\Fgdt;n}\C7;117
  7
CONVERTER_12
 11
0.9999999999970619
 21
2.424068405545306E-6
 31
0.0
 73
     1
 44
0.60024009603842
  0
ENDBLK
  5
110
330
108
100
AcDbEntity
  8
0
100
AcDbBlockEnd
  0
BLOCK
  5
11A
330
113
100
AcDbEntity
  8
0
100
AcDbBlockBegin
  2
*D5
 70
     1
 10
0.0
 20
0.0
 30
0.0
  3
*D5
  1

  0
LINE
  5
114
330
113
100
AcDbEntity
  8
0
  6
Continuous
 62
     2
100
AcDbLine
 10
176.7757384606294
 20
69.21848231301075
 30
0.0
 11
176.7757384606294
 21
85.91848231301086
 31
0.0
  0
LINE
  5
115
330
113
100
AcDbEntity
  8
0
  6
Continuous
 62
     2
100
AcDbLine
 10
167.7757384606294
 20
85.91848231301086
 30
0.0
 11
177.7757384606294
 21
85.91848231301086
 31
0.0
  0
LINE
  5
116
330
113
100
AcDbEntity
  8
0
  6
Continuous
 62
     2
100
AcDbLine
 10
136.2757384606294
 20
69.21848231301075
 30
0.0
 11
177.7757384606294
 21
69.21848231301075
 31
0.0
  0
SOLID
  5
117
330
113
100
AcDbEntity
  8
0
 62
     2
100
AcDbTrace
 10
176.3149547190735
 20
72.71848231301075
 30
0.0
 11
177.2365222021853
 21
72.71848231301075
 31
0.0
 12
176.7757384606294
 22
69.21848231301075
 32
0.0
 13
176.7757384606294
 23
69.21848231301075
 33
0.0
  0
SOLID
  5
118
330
113
100
AcDbEntity
  8
0
 62
     2
100
AcDbTrace
 10
177.2365222021853
 20
82.41848231301086
 30
0.0
 11
176.3149547190735
 21
82.41848231301086
 31
0.0
 12
176.7757384606294
 22
85.91848231301086
 32
0.0
 13
176.7757384606294
 23
85.91848231301086
 33
0.0
  0
MTEXT
  5
119
330
113
100
AcDbEntity
  8
0
 62
     7
100
AcDbMText
 10
175.7757384606294
 20
75.38270061034592
 30
0.0
 40
3.5
 41
0.0
 71
     7
 72
     1
  1
17
  7
CONVERTER_12
 11
0.0
 21
1.0
 31
0.0
 73
     1
 44
0.60024009603842
  0
ENDBLK
  5
11B
330
113
100
AcDbEntity
  8
0
100
AcDbBlockEnd
  0
ENDSEC
  0
SECTION
  2
ENTITIES
  0
INSERT
  5
52
330
1F
100
AcDbEntity
  8
0
100
AcDbBlockReference
  2
開示A4枠
 10
0.0
 20
0.0
 30
0.0
  0
INSERT
  5
53
330
1F
100
AcDbEntity
  8
1
100
AcDbBlockReference
  2
futa
 10
-171.3497874123618
 20
120.2391564733017
 30
0.0
  0
LINE
  5
F6
330
1F
100
AcDbEntity
  8
1
  6
DASH_CENTER
 62
     2
100
AcDbLine
 10
109.2757384606294
 20
178.7391564733017
 30
0.0
 11
47.7757384606293
 21
178.7391564733017
 31
0.0
  0
LINE
  5
F7
330
1F
100
AcDbEntity
  8
1
  6
DASH_CENTER
 62
     2
100
AcDbLine
 10
109.2757384606294
 20
178.7391564733017
 30
0.0
 11
109.2757384606294
 21
240.2391564733018
 31
0.0
  0
LINE
  5
F8
330
1F
100
AcDbEntity
  8
1
  6
DASH_CENTER
 62
     2
100
AcDbLine
 10
109.2757384606294
 20
88.91848231301091
 30
0.0
 11
109.2757384606294
 21
66.21848231301075
 31
0.0
  0
LINE
  5
F9
330
1F
100
AcDbEntity
  8
1
  6
DASH_CENTER
 62
     2
100
AcDbLine
 10
170.7757384606295
 20
178.7391564733017
 30
0.0
 11
109.2757384606294
 21
178.7391564733017
 31
0.0
  0
LINE
  5
FA
330
1F
100
AcDbEntity
  8
1
  6
DASH_CENTER
 62
     2
100
AcDbLine
 10
109.2757384606294
 20
117.2391564733016
 30
0.0
 11
109.2757384606294
 21
178.7391564733017
 31
0.0
  0
MTEXT
  5
FC
330
1F
100
AcDbEntity
  8
1
 62
     7
100
AcDbMText
 10
157.5
 20
12.5
 30
0.0
 40
2.5
 41
0.0
 71
     5
 72
     1
  1
6
  7
CONVERTER_12
 73
     1
 44
0.7202881152461
  0
MTEXT
  5
FD
330
1F
100
AcDbEntity
  8
1
 62
     7
100
AcDbMText
 10
151.75
 20
12.5
 30
0.0
 40
2.5
 41
0.0
 71
     5
 72
     1
  1
04
  7
CONVERTER_12
 73
     1
 44
0.7202881152461
  0
MTEXT
  5
FE
330
1F
100
AcDbEntity
  8
1
 62
     7
100
AcDbMText
 10
140.5
 20
12.5
 30
0.0
 40
2.5
 41
0.0
 71
     5
 72
     1
  1
6
  7
CONVERTER_12
 73
     1
 44
0.7202881152461
  0
MTEXT
  5
FF
330
1F
100
AcDbEntity
  8
1
 62
     7
100
AcDbMText
 10
134.75
 20
12.5
 30
0.0
 40
2.5
 41
0.0
 71
     5
 72
     1
  1
04
  7
CONVERTER_12
 73
     1
 44
0.7202881152461
  0
MTEXT
  5
100
330
1F
100
AcDbEntity
  8
1
 62
     7
100
AcDbMText
 10
123.5
 20
12.5
 30
0.0
 40
2.5
 41
0.0
 71
     5
 72
     1
  1
6
  7
CONVERTER_12
 73
     1
 44
0.7202881152461
  0
MTEXT
  5
101
330
1F
100
AcDbEntity
  8
1
 62
     7
100
AcDbMText
 10
117.75
 20
12.5
 30
0.0
 40
2.5
 41
0.0
 71
     5
 72
     1
  1
04
  7
CONVERTER_12
 73
     1
 44
0.7202881152461
  0
MTEXT
  5
102
330
1F
100
AcDbEntity
  8
1
 62
     7
100
AcDbMText
 10
100.75
 20
12.5
 30
0.0
 40
2.5
 41
0.0
 71
     5
 72
     1
  1
04
  7
CONVERTER_12
 73
     1
 44
0.7202881152461
  0
MTEXT
  5
103
330
1F
100
AcDbEntity
  8
1
 62
     7
100
AcDbMText
 10
106.5
 20
12.5
 30
0.0
 40
2.5
 41
0.0
 71
     5
 72
     1
  1
6
  7
CONVERTER_12
 73
     1
 44
0.7202881152461
  0
MTEXT
  5
104
330
1F
100
AcDbEntity
  8
1
 62
     7
100
AcDbMText
 10
93.75
 20
17.0
 30
0.0
 40
3.5
 41
0.0
 71
     5
 72
     1
  1
1
  7
CONVERTER_12
 73
     1
 44
0.7202881152461
  0
MTEXT
  5
105
330
1F
100
AcDbEntity
  8
1
 62
     7
100
AcDbMText
 10
57.0
 20
14.25
 30
0.0
 40
3.5
 41
0.0
 71
     5
 72
     1
  1
H63F-3
  7
CONVERTER_12
 73
     1
 44
0.7202881152461
  0
MTEXT
  5
106
330
1F
100
AcDbEntity
  8
1
 62
     7
100
AcDbMText
 10
57.0
 20
22.75000000000001
 30
0.0
 40
3.5
 41
0.0
 71
     5
 72
     1
  1
流し排水栓フタ
  7
CONVERTER_11
 73
     1
 44
0.54545454545455
  0
MTEXT
  5
107
330
1F
100
AcDbEntity
  8
1
 62
     7
100
AcDbMText
 10
85.25
 20
17.0
 30
0.0
 40
3.5
 41
0.0
 71
     5
 72
     1
  1
1
  7
CONVERTER_12
 73
     1
 44
0.7202881152461
  0
DIMENSION
  5
112
330
1F
100
AcDbEntity
  8
1
100
AcDbDimension
  2
*D4
 10
50.7757384606294
 20
248.2391564733017
 30
0.0
 11
109.2757384606294
 21
250.9891564733017
 31
0.0
 70
    32
  1
<>
 71
     5
 42
-1.0
 53
0.00013888888889
  3
ME10_DIM_10
100
AcDbAlignedDimension
 13
167.7757384606295
 23
178.7391564733017
 33
0.0
 14
50.77573846062941
 24
178.7391564733017
 34
0.0
100
AcDbRotatedDimension
  0
DIMENSION
  5
11D
330
1F
100
AcDbEntity
  8
0
100
AcDbDimension
  2
*D5
 10
176.7757384606294
 20
69.21848231301075
 30
0.0
 11
174.0257384606294
 21
77.48270061034592
 31
0.0
 70
    32
  1
17
 71
     5
 42
-1.0
 53
90.0
  3
ME10_DIM_11
100
AcDbAlignedDimension
 13
167.7757384606294
 23
85.91848231301086
 33
0.0
 14
136.2757384606294
 24
69.21848231301075
 34
0.0
 50
90.0
100
AcDbRotatedDimension
  0
ENDSEC
  0
SECTION
  2
OBJECTS
  0
DICTIONARY
  5
C
330
0
100
AcDbDictionary
281
     1
  3
ACAD_GROUP
350
D
  3
ACAD_LAYOUT
350
1A
  3
ACAD_MATERIAL
350
3B
  3
ACAD_MLEADERSTYLE
350
120
  3
ACAD_MLINESTYLE
350
17
  3
ACAD_PLOTSETTINGS
350
19
  3
ACAD_PLOTSTYLENAME
350
E
  3
ACAD_VISUALSTYLE
350
2A
  3
AcDbVariableDictionary
350
11E
  0
DICTIONARY
  5
D
102
{ACAD_REACTORS
330
C
102
}
330
C
100
AcDbDictionary
281
     1
  0
DICTIONARY
  5
1A
102
{ACAD_REACTORS
330
C
102
}
330
C
100
AcDbDictionary
281
     1
  3
Layout1
350
1E
  3
Layout2
350
26
  3
Model
350
22
  0
DICTIONARY
  5
3B
102
{ACAD_REACTORS
330
C
102
}
330
C
100
AcDbDictionary
281
     1
  3
ByBlock
350
3D
  3
ByLayer
350
3C
  3
Global
350
3E
  0
DICTIONARY
  5
120
102
{ACAD_REACTORS
330
C
102
}
330
C
100
AcDbDictionary
281
     1
  0
DICTIONARY
  5
17
102
{ACAD_REACTORS
330
C
102
}
330
C
100
AcDbDictionary
281
     1
  3
Standard
350
18
  0
DICTIONARY
  5
19
102
{ACAD_REACTORS
330
C
102
}
330
C
100
AcDbDictionary
281
     1
  0
ACDBDICTIONARYWDFLT
  5
E
102
{ACAD_REACTORS
330
C
102
}
330
C
100
AcDbDictionary
281
     1
  3
Normal
350
F
100
AcDbDictionaryWithDefault
340
F
  0
DICTIONARY
  5
2A
102
{ACAD_REACTORS
330
C
102
}
330
C
100
AcDbDictionary
281
     1
  3
2dWireframe
350
2F
  3
3D Hidden
350
31
  3
3dWireframe
350
30
  3
Basic
350
32
  3
Brighten
350
36
  3
ColorChange
350
3A
  3
Conceptual
350
34
  3
Dim
350
35
  3
Facepattern
350
39
  3
Flat
350
2B
  3
FlatWithEdges
350
2C
  3
Gouraud
350
2D
  3
GouraudWithEdges
350
2E
  3
Linepattern
350
38
  3
Realistic
350
33
  3
Thicken
350
37
  0
DICTIONARY
  5
11E
102
{ACAD_REACTORS
330
C
102
}
330
C
100
AcDbDictionary
281
     1
  3
DIMASSOC
350
121
  3
HIDETEXT
350
122
  0
LAYOUT
  5
1E
102
{ACAD_REACTORS
330
1A
102
}
330
1A
100
AcDbPlotSettings
  1

  2
none_device
  4

  6

 40
0.0
 41
0.0
 42
0.0
 43
0.0
 44
0.0
 45
0.0
 46
0.0
 47
0.0
 48
0.0
 49
0.0
140
0.0
141
0.0
142
1.0
143
1.0
 70
   688
 72
     0
 73
     0
 74
     5
  7

 75
    16
147
1.0
148
0.0
149
0.0
100
AcDbLayout
  1
Layout1
 70
     1
 71
     1
 10
0.0
 20
0.0
 11
12.0
 21
9.0
 12
0.0
 22
0.0
 32
0.0
 14
1.00000000000000E+20
 24
1.00000000000000E+20
 34
1.00000000000000E+20
 15
-1.00000000000000E+20
 25
-1.00000000000000E+20
 35
-1.00000000000000E+20
146
0.0
 13
0.0
 23
0.0
 33
0.0
 16
1.0
 26
0.0
 36
0.0
 17
0.0
 27
1.0
 37
0.0
 76
     0
330
1B
  0
LAYOUT
  5
26
102
{ACAD_REACTORS
330
1A
102
}
330
1A
100
AcDbPlotSettings
  1

  2
none_device
  4

  6

 40
0.0
 41
0.0
 42
0.0
 43
0.0
 44
0.0
 45
0.0
 46
0.0
 47
0.0
 48
0.0
 49
0.0
140
0.0
141
0.0
142
1.0
143
1.0
 70
   688
 72
     0
 73
     0
 74
     5
  7

 75
    16
147
1.0
148
0.0
149
0.0
100
AcDbLayout
  1
Layout2
 70
     1
 71
     2
 10
0.0
 20
0.0
 11
0.0
 21
0.0
 12
0.0
 22
0.0
 32
0.0
 14
0.0
 24
0.0
 34
0.0
 15
0.0
 25
0.0
 35
0.0
146
0.0
 13
0.0
 23
0.0
 33
0.0
 16
1.0
 26
0.0
 36
0.0
 17
0.0
 27
1.0
 37
0.0
 76
     0
330
23
  0
LAYOUT
  5
22
102
{ACAD_REACTORS
330
1A
102
}
330
1A
100
AcDbPlotSettings
  1

  2
none_device
  4

  6

 40
0.0
 41
0.0
 42
0.0
 43
0.0
 44
0.0
 45
0.0
 46
0.0
 47
0.0
 48
0.0
 49
0.0
140
0.0
141
0.0
142
1.0
143
1.0
 70
  1712
 72
     0
 73
     0
 74
     0
  7

 75
     0
147
1.0
148
0.0
149
0.0
100
AcDbLayout
  1
Model
 70
     1
 71
     0
 10
0.0
 20
0.0
 11
12.0
 21
9.0
 12
0.0
 22
0.0
 32
0.0
 14
0.0
 24
0.0
 34
0.0
 15
210.0
 25
297.0
 35
0.0
146
0.0
 13
0.0
 23
0.0
 33
0.0
 16
1.0
 26
0.0
 36
0.0
 17
0.0
 27
1.0
 37
0.0
 76
     0
330
1F
331
29
  0
MATERIAL
  5
3D
102
{ACAD_REACTORS
330
3B
102
}
102
{ACAD_XDICTIONARY
360
145
102
}
330
3B
100
AcDbMaterial
  1
ByBlock
  0
MATERIAL
  5
3C
102
{ACAD_REACTORS
330
3B
102
}
102
{ACAD_XDICTIONARY
360
143
102
}
330
3B
100
AcDbMaterial
  1
ByLayer
  0
MATERIAL
  5
3E
102
{ACAD_REACTORS
330
3B
102
}
102
{ACAD_XDICTIONARY
360
147
102
}
330
3B
100
AcDbMaterial
  1
Global
  0
MLINESTYLE
  5
18
102
{ACAD_REACTORS
330
17
102
}
330
17
100
AcDbMlineStyle
  2
Standard
 70
     0
  3

 62
   256
 51
90.0
 52
90.0
 71
     2
 49
0.5
 62
   256
  6
BYLAYER
 49
-0.5
 62
   256
  6
BYLAYER
  0
ACDBPLACEHOLDER
  5
F
102
{ACAD_REACTORS
330
E
102
}
330
E
  0
VISUALSTYLE
  5
2F
102
{ACAD_REACTORS
330
2A
102
}
102
{ACAD_XDICTIONARY
360
12B
102
}
330
2A
100
AcDbVisualStyle
  2
2dWireframe
 70
     4
 71
     0
 72
     2
 73
     0
 90
        0
 40
-0.6
 41
-30.0
 62
     5
 63
     7
 74
     1
 91
        4
 64
     7
 65
   257
 75
     1
175
     1
 42
1.0
 92
        0
 66
   257
 43
1.0
 76
     1
 77
     6
 78
     2
 67
     7
 79
     5
170
     0
171
     0
290
     0
174
     0
 93
        1
 44
0.0
173
     0
291
     0
 45
0.0
1001
ACAD
1000
AcDbSavedByObjectVersion
1070
     0
  0
VISUALSTYLE
  5
31
102
{ACAD_REACTORS
330
2A
102
}
102
{ACAD_XDICTIONARY
360
12F
102
}
330
2A
100
AcDbVisualStyle
  2
3D Hidden
 70
     6
 71
     1
 72
     2
 73
     2
 90
        0
 40
-0.6
 41
-30.0
 62
     5
 63
     7
 74
     2
 91
        2
 64
     7
 65
   257
 75
     2
175
     1
 42
40.0
 92
        0
 66
   257
 43
1.0
 76
     1
 77
     6
 78
     2
 67
     7
 79
     3
170
     0
171
     0
290
     0
174
     0
 93
        1
 44
0.0
173
     0
291
     0
 45
0.0
1001
ACAD
1000
AcDbSavedByObjectVersion
1070
     0
  0
VISUALSTYLE
  5
30
102
{ACAD_REACTORS
330
2A
102
}
102
{ACAD_XDICTIONARY
360
12D
102
}
330
2A
100
AcDbVisualStyle
  2
3dWireframe
 70
     5
 71
     0
 72
     2
 73
     0
 90
        0
 40
-0.6
 41
-30.0
 62
     5
 63
     7
 74
     1
 91
        4
 64
     7
 65
   257
 75
     1
175
     1
 42
1.0
 92
        0
 66
   257
 43
1.0
 76
     1
 77
     6
 78
     2
 67
     7
 79
     5
170
     0
171
     0
290
     0
174
     0
 93
        1
 44
0.0
173
     0
291
     0
 45
0.0
1001
ACAD
1000
AcDbSavedByObjectVersion
1070
     0
  0
VISUALSTYLE
  5
32
102
{ACAD_REACTORS
330
2A
102
}
102
{ACAD_XDICTIONARY
360
131
102
}
330
2A
100
AcDbVisualStyle
  2
Basic
 70
     7
 71
     1
 72
     0
 73
     1
 90
        0
 40
-0.6
 41
-30.0
 62
     5
 63
     7
 74
     0
 91
        4
 64
     7
 65
   257
 75
     1
175
     1
 42
1.0
 92
        8
 66
     7
 43
1.0
 76
     1
 77
     6
 78
     2
 67
     7
 79
     5
170
     0
171
     0
290
     0
174
     0
 93
        1
 44
0.0
173
     0
291
     1
 45
0.0
1001
ACAD
1000
AcDbSavedByObjectVersion
1070
     0
  0
VISUALSTYLE
  5
36
102
{ACAD_REACTORS
330
2A
102
}
102
{ACAD_XDICTIONARY
360
139
102
}
330
2A
100
AcDbVisualStyle
  2
Brighten
 70
    12
 71
     2
 72
     2
 73
     0
 90
        0
 40
-0.6
 41
-30.0
 62
     5
 63
     7
 74
     1
 91
        4
 64
     7
 65
   257
 75
     1
175
     1
 42
1.0
 92
        8
 66
     7
 43
1.0
 76
     1
 77
     6
 78
     2
 67
     7
 79
     5
170
     0
171
     0
290
     0
174
     0
 93
        1
 44
50.0
173
     0
291
     1
 45
0.0
1001
ACAD
1000
AcDbSavedByObjectVersion
1070
     0
  0
VISUALSTYLE
  5
3A
102
{ACAD_REACTORS
330
2A
102
}
102
{ACAD_XDICTIONARY
360
141
102
}
330
2A
100
AcDbVisualStyle
  2
ColorChange
 70
    16
 71
     2
 72
     2
 73
     3
 90
        0
 40
-0.6
 41
-30.0
 62
     5
 63
     8
 74
     1
 91
        4
 64
     7
 65
   257
 75
     1
175
     1
 42
1.0
 92
        8
 66
     8
 43
1.0
 76
     1
 77
     6
 78
     2
 67
     7
 79
     5
170
     0
171
     0
290
     0
174
     0
 93
        1
 44
0.0
173
     0
291
     1
 45
0.0
1001
ACAD
1000
AcDbSavedByObjectVersion
1070
     0
  0
VISUALSTYLE
  5
34
102
{ACAD_REACTORS
330
2A
102
}
102
{ACAD_XDICTIONARY
360
135
102
}
330
2A
100
AcDbVisualStyle
  2
Conceptual
 70
     9
 71
     3
 72
     2
 73
     0
 90
        0
 40
-0.6
 41
-30.0
 62
     5
 63
     7
 74
     2
 91
        2
 64
     7
 65
   257
 75
     1
175
     1
 42
40.0
 92
        8
 66
     7
 43
1.0
 76
     1
 77
     6
 78
     2
 67
     7
 79
     3
170
     0
171
     0
290
     0
174
     0
 93
        1
 44
0.0
173
     0
291
     0
 45
0.0
1001
ACAD
1000
AcDbSavedByObjectVersion
1070
     0
  0
VISUALSTYLE
  5
35
102
{ACAD_REACTORS
330
2A
102
}
102
{ACAD_XDICTIONARY
360
137
102
}
330
2A
100
AcDbVisualStyle
  2
Dim
 70
    11
 71
     2
 72
     2
 73
     0
 90
        0
 40
-0.6
 41
-30.0
 62
     5
 63
     7
 74
     1
 91
        4
 64
     7
 65
   257
 75
     1
175
     1
 42
1.0
 92
        8
 66
     7
 43
1.0
 76
     1
 77
     6
 78
     2
 67
     7
 79
     5
170
     0
171
     0
290
     0
174
     0
 93
        1
 44
-50.0
173
     0
291
     1
 45
0.0
1001
ACAD
1000
AcDbSavedByObjectVersion
1070
     0
  0
VISUALSTYLE
  5
39
102
{ACAD_REACTORS
330
2A
102
}
102
{ACAD_XDICTIONARY
360
13F
102
}
330
2A
100
AcDbVisualStyle
  2
Facepattern
 70
    15
 71
     2
 72
     2
 73
     0
 90
        0
 40
-0.6
 41
-30.0
 62
     5
 63
     7
 74
     1
 91
        4
 64
     7
 65
   257
 75
     1
175
     1
 42
1.0
 92
        8
 66
     7
 43
1.0
 76
     1
 77
     6
 78
     2
 67
     7
 79
     5
170
     0
171
     0
290
     0
174
     0
 93
        1
 44
0.0
173
     0
291
     1
 45
0.0
1001
ACAD
1000
AcDbSavedByObjectVersion
1070
     0
  0
VISUALSTYLE
  5
2B
102
{ACAD_REACTORS
330
2A
102
}
102
{ACAD_XDICTIONARY
360
123
102
}
330
2A
100
AcDbVisualStyle
  2
Flat
 70
     0
 71
     2
 72
     1
 73
     1
 90
        2
 40
-0.6
 41
30.0
 62
     5
 63
     7
 74
     0
 91
        4
 64
     7
 65
   257
 75
     1
175
     1
 42
1.0
 92
        8
 66
     7
 43
1.0
 76
     1
 77
     6
 78
     2
 67
     7
 79
     5
170
     0
171
     0
290
     0
174
     0
 93
       13
 44
0.0
173
     0
291
     1
 45
0.0
1001
ACAD
1000
AcDbSavedByObjectVersion
1070
     0
  0
VISUALSTYLE
  5
2C
102
{ACAD_REACTORS
330
2A
102
}
102
{ACAD_XDICTIONARY
360
125
102
}
330
2A
100
AcDbVisualStyle
  2
FlatWithEdges
 70
     1
 71
     2
 72
     1
 73
     1
 90
        2
 40
-0.6
 41
30.0
 62
     5
 63
     7
 74
     1
 91
        4
 64
     7
 65
   257
 75
     1
175
     1
 42
1.0
 92
        0
 66
   257
 43
1.0
 76
     1
 77
     6
 78
     2
 67
     7
 79
     5
170
     0
171
     0
290
     0
174
     0
 93
       13
 44
0.0
173
     0
291
     1
 45
0.0
1001
ACAD
1000
AcDbSavedByObjectVersion
1070
     0
  0
VISUALSTYLE
  5
2D
102
{ACAD_REACTORS
330
2A
102
}
102
{ACAD_XDICTIONARY
360
127
102
}
330
2A
100
AcDbVisualStyle
  2
Gouraud
 70
     2
 71
     2
 72
     2
 73
     1
 90
        2
 40
-0.6
 41
30.0
 62
     5
 63
     7
 74
     0
 91
        4
 64
     7
 65
   257
 75
     1
175
     1
 42
1.0
 92
        0
 66
     7
 43
1.0
 76
     1
 77
     6
 78
     2
 67
     7
 79
     5
170
     0
171
     0
290
     0
174
     0
 93
       13
 44
0.0
173
     0
291
     1
 45
0.0
1001
ACAD
1000
AcDbSavedByObjectVersion
1070
     0
  0
VISUALSTYLE
  5
2E
102
{ACAD_REACTORS
330
2A
102
}
102
{ACAD_XDICTIONARY
360
129
102
}
330
2A
100
AcDbVisualStyle
  2
GouraudWithEdges
 70
     3
 71
     2
 72
     2
 73
     1
 90
        2
 40
-0.6
 41
30.0
 62
     5
 63
     7
 74
     1
 91
        4
 64
     7
 65
   257
 75
     1
175
     1
 42
1.0
 92
        0
 66
   257
 43
1.0
 76
     1
 77
     6
 78
     2
 67
     7
 79
     5
170
     0
171
     0
290
     0
174
     0
 93
       13
 44
0.0
173
     0
291
     1
 45
0.0
1001
ACAD
1000
AcDbSavedByObjectVersion
1070
     0
  0
VISUALSTYLE
  5
38
102
{ACAD_REACTORS
330
2A
102
}
102
{ACAD_XDICTIONARY
360
13D
102
}
330
2A
100
AcDbVisualStyle
  2
Linepattern
 70
    14
 71
     2
 72
     2
 73
     0
 90
        0
 40
-0.6
 41
-30.0
 62
     5
 63
     7
 74
     1
 91
        4
 64
     7
 65
   257
 75
     7
175
     7
 42
1.0
 92
        8
 66
     7
 43
1.0
 76
     1
 77
     6
 78
     2
 67
     7
 79
     5
170
     0
171
     0
290
     0
174
     0
 93
        1
 44
0.0
173
     0
291
     1
 45
0.0
1001
ACAD
1000
AcDbSavedByObjectVersion
1070
     0
  0
VISUALSTYLE
  5
33
102
{ACAD_REACTORS
330
2A
102
}
102
{ACAD_XDICTIONARY
360
133
102
}
330
2A
100
AcDbVisualStyle
  2
Realistic
 70
     8
 71
     2
 72
     2
 73
     0
 90
        0
 40
-0.6
 41
-30.0
 62
     5
 63
     7
 74
     1
 91
        0
 64
     7
 65
   257
 75
     1
175
     1
 42
1.0
 92
        8
 66
     8
 43
1.0
 76
     1
 77
     6
 78
     2
 67
     7
 79
     5
170
     0
171
     0
290
     0
174
     0
 93
       13
 44
0.0
173
     0
291
     0
 45
0.0
1001
ACAD
1000
AcDbSavedByObjectVersion
1070
     0
  0
VISUALSTYLE
  5
37
102
{ACAD_REACTORS
330
2A
102
}
102
{ACAD_XDICTIONARY
360
13B
102
}
330
2A
100
AcDbVisualStyle
  2
Thicken
 70
    13
 71
     2
 72
     2
 73
     0
 90
        0
 40
-0.6
 41
-30.0
 62
     5
 63
     7
 74
     1
 91
        4
 64
     7
 65
   257
 75
     1
175
     1
 42
1.0
 92
       12
 66
     7
 43
1.0
 76
     1
 77
     6
 78
     2
 67
     7
 79
     5
170
     0
171
     0
290
     0
174
     0
 93
        1
 44
0.0
173
     0
291
     1
 45
0.0
1001
ACAD
1000
AcDbSavedByObjectVersion
1070
     0
  0
DICTIONARYVAR
  5
121
102
{ACAD_REACTORS
330
11E
102
}
330
11E
100
DictionaryVariables
280
     0
  1
2
  0
DICTIONARYVAR
  5
122
102
{ACAD_REACTORS
330
11E
102
}
330
11E
100
DictionaryVariables
280
     0
  1
1
  0
DICTIONARY
  5
145
330
3D
100
AcDbDictionary
280
     1
281
     1
  3
ACAD_XREC_ROUNDTRIP
360
146
  0
DICTIONARY
  5
143
330
3C
100
AcDbDictionary
280
     1
281
     1
  3
ACAD_XREC_ROUNDTRIP
360
144
  0
DICTIONARY
  5
147
330
3E
100
AcDbDictionary
280
     1
281
     1
  3
ACAD_XREC_ROUNDTRIP
360
148
  0
DICTIONARY
  5
12B
330
2F
100
AcDbDictionary
280
     1
281
     1
  3
ACAD_XREC_ROUNDTRIP
360
12C
  0
DICTIONARY
  5
12F
330
31
100
AcDbDictionary
280
     1
281
     1
  3
ACAD_XREC_ROUNDTRIP
360
130
  0
DICTIONARY
  5
12D
330
30
100
AcDbDictionary
280
     1
281
     1
  3
ACAD_XREC_ROUNDTRIP
360
12E
  0
DICTIONARY
  5
131
330
32
100
AcDbDictionary
280
     1
281
     1
  3
ACAD_XREC_ROUNDTRIP
360
132
  0
DICTIONARY
  5
139
330
36
100
AcDbDictionary
280
     1
281
     1
  3
ACAD_XREC_ROUNDTRIP
360
13A
  0
DICTIONARY
  5
141
330
3A
100
AcDbDictionary
280
     1
281
     1
  3
ACAD_XREC_ROUNDTRIP
360
142
  0
DICTIONARY
  5
135
330
34
100
AcDbDictionary
280
     1
281
     1
  3
ACAD_XREC_ROUNDTRIP
360
136
  0
DICTIONARY
  5
137
330
35
100
AcDbDictionary
280
     1
281
     1
  3
ACAD_XREC_ROUNDTRIP
360
138
  0
DICTIONARY
  5
13F
330
39
100
AcDbDictionary
280
     1
281
     1
  3
ACAD_XREC_ROUNDTRIP
360
140
  0
DICTIONARY
  5
123
330
2B
100
AcDbDictionary
280
     1
281
     1
  3
ACAD_XREC_ROUNDTRIP
360
124
  0
DICTIONARY
  5
125
330
2C
100
AcDbDictionary
280
     1
281
     1
  3
ACAD_XREC_ROUNDTRIP
360
126
  0
DICTIONARY
  5
127
330
2D
100
AcDbDictionary
280
     1
281
     1
  3
ACAD_XREC_ROUNDTRIP
360
128
  0
DICTIONARY
  5
129
330
2E
100
AcDbDictionary
280
     1
281
     1
  3
ACAD_XREC_ROUNDTRIP
360
12A
  0
DICTIONARY
  5
13D
330
38
100
AcDbDictionary
280
     1
281
     1
  3
ACAD_XREC_ROUNDTRIP
360
13E
  0
DICTIONARY
  5
133
330
33
100
AcDbDictionary
280
     1
281
     1
  3
ACAD_XREC_ROUNDTRIP
360
134
  0
DICTIONARY
  5
13B
330
37
100
AcDbDictionary
280
     1
281
     1
  3
ACAD_XREC_ROUNDTRIP
360
13C
  0
XRECORD
  5
146
102
{ACAD_REACTORS
330
145
102
}
330
145
100
AcDbXrecord
280
     1
102
MATERIAL
148
0.0
149
0.0
149
0.0
 93
        0
 94
      127
282
     0
 72
     1
 77
     1
171
     1
175
     1
179
     1
273
     0
  0
XRECORD
  5
144
102
{ACAD_REACTORS
330
143
102
}
330
143
100
AcDbXrecord
280
     1
102
MATERIAL
148
0.0
149
0.0
149
0.0
 93
        0
 94
      127
282
     0
 72
     1
 77
     1
171
     1
175
     1
179
     1
273
     0
  0
XRECORD
  5
148
102
{ACAD_REACTORS
330
147
102
}
330
147
100
AcDbXrecord
280
     1
102
MATERIAL
148
0.0
149
0.0
149
0.0
 93
        0
 94
      127
282
     0
 72
     1
 77
     1
171
     1
175
     1
179
     1
273
     0
  0
XRECORD
  5
12C
102
{ACAD_REACTORS
330
12B
102
}
330
12B
100
AcDbXrecord
280
     1
102
RTVSPropertyOp0
 70
     1
102
RTVSPropertyOp1
 70
     1
102
RTVSPropertyOp2
 70
     1
102
RTVSPropertyOp3
 70
     1
102
RTVSPropertyOp4
 70
     1
102
RTVSPropertyOp5
 70
     1
102
RTVSPropertyOp6
 70
     1
102
RTVSPropertyOp7
 70
     1
102
RTVSPropertyOp8
 70
     1
102
RTVSPropertyOp9
 70
     1
102
RTVSPropertyOp10
 70
     1
102
RTVSPropertyOp11
 70
     1
102
RTVSPropertyOp12
 70
     1
102
RTVSPropertyOp13
 70
     1
102
RTVSPropertyOp14
 70
     1
102
RTVSPropertyOp15
 70
     1
102
RTVSPropertyOp16
 70
     1
102
RTVSPropertyOp17
 70
     1
102
RTVSPropertyOp18
 70
     1
102
RTVSPropertyOp19
 70
     1
102
RTVSPropertyOp20
 70
     1
102
RTVSPropertyOp21
 70
     1
102
RTVSPropertyOp22
 70
     1
102
RTVSPropertyOp23
 70
     1
102
RTVSPropertyOp24
 70
     1
102
RTVSPropertyOp25
 70
     1
102
RTVSPropertyOp26
 70
     1
102
RTVSPropertyOp27
 70
     1
102
RTVSPropertyOp28
 70
     1
102
RTVSPropertyOp29
 70
     1
102
RTVSPropertyOp30
 70
     1
102
RTVSPropertyOp31
 70
     1
102
RTVSPropertyOp32
 70
     1
  0
XRECORD
  5
130
102
{ACAD_REACTORS
330
12F
102
}
330
12F
100
AcDbXrecord
280
     1
102
RTVSPropertyOp0
 70
     1
102
RTVSPropertyOp1
 70
     1
102
RTVSPropertyOp2
 70
     1
102
RTVSPropertyOp3
 70
     1
102
RTVSPropertyOp4
 70
     1
102
RTVSPropertyOp5
 70
     1
102
RTVSPropertyOp6
 70
     1
102
RTVSPropertyOp7
 70
     1
102
RTVSPropertyOp8
 70
     1
102
RTVSPropertyOp9
 70
     1
102
RTVSPropertyOp10
 70
     1
102
RTVSPropertyOp11
 70
     1
102
RTVSPropertyOp12
 70
     1
102
RTVSPropertyOp13
 70
     1
102
RTVSPropertyOp14
 70
     1
102
RTVSPropertyOp15
 70
     1
102
RTVSPropertyOp16
 70
     1
102
RTVSPropertyOp17
 70
     1
102
RTVSPropertyOp18
 70
     1
102
RTVSPropertyOp19
 70
     1
102
RTVSPropertyOp20
 70
     1
102
RTVSPropertyOp21
 70
     1
102
RTVSPropertyOp22
 70
     1
102
RTVSPropertyOp23
 70
     1
102
RTVSPropertyOp24
 70
     1
102
RTVSPropertyOp25
 70
     1
102
RTVSPropertyOp26
 70
     1
102
RTVSPropertyOp27
 70
     1
102
RTVSPropertyOp28
 70
     1
102
RTVSPropertyOp29
 70
     1
102
RTVSPropertyOp30
 70
     1
102
RTVSPropertyOp31
 70
     1
102
RTVSPropertyOp32
 70
     1
  0
XRECORD
  5
12E
102
{ACAD_REACTORS
330
12D
102
}
330
12D
100
AcDbXrecord
280
     1
102
RTVSPropertyOp0
 70
     1
102
RTVSPropertyOp1
 70
     1
102
RTVSPropertyOp2
 70
     1
102
RTVSPropertyOp3
 70
     1
102
RTVSPropertyOp4
 70
     1
102
RTVSPropertyOp5
 70
     1
102
RTVSPropertyOp6
 70
     1
102
RTVSPropertyOp7
 70
     1
102
RTVSPropertyOp8
 70
     1
102
RTVSPropertyOp9
 70
     1
102
RTVSPropertyOp10
 70
     1
102
RTVSPropertyOp11
 70
     1
102
RTVSPropertyOp12
 70
     1
102
RTVSPropertyOp13
 70
     1
102
RTVSPropertyOp14
 70
     1
102
RTVSPropertyOp15
 70
     1
102
RTVSPropertyOp16
 70
     1
102
RTVSPropertyOp17
 70
     1
102
RTVSPropertyOp18
 70
     1
102
RTVSPropertyOp19
 70
     1
102
RTVSPropertyOp20
 70
     1
102
RTVSPropertyOp21
 70
     1
102
RTVSPropertyOp22
 70
     1
102
RTVSPropertyOp23
 70
     1
102
RTVSPropertyOp24
 70
     1
102
RTVSPropertyOp25
 70
     1
102
RTVSPropertyOp26
 70
     1
102
RTVSPropertyOp27
 70
     1
102
RTVSPropertyOp28
 70
     1
102
RTVSPropertyOp29
 70
     1
102
RTVSPropertyOp30
 70
     1
102
RTVSPropertyOp31
 70
     1
102
RTVSPropertyOp32
 70
     1
  0
XRECORD
  5
132
102
{ACAD_REACTORS
330
131
102
}
330
131
100
AcDbXrecord
280
     1
102
RTVSPropertyOp0
 70
     1
102
RTVSPropertyOp1
 70
     1
102
RTVSPropertyOp2
 70
     1
102
RTVSPropertyOp3
 70
     1
102
RTVSPropertyOp4
 70
     1
102
RTVSPropertyOp5
 70
     1
102
RTVSPropertyOp6
 70
     1
102
RTVSPropertyOp7
 70
     1
102
RTVSPropertyOp8
 70
     1
102
RTVSPropertyOp9
 70
     1
102
RTVSPropertyOp10
 70
     1
102
RTVSPropertyOp11
 70
     1
102
RTVSPropertyOp12
 70
     1
102
RTVSPropertyOp13
 70
     1
102
RTVSPropertyOp14
 70
     1
102
RTVSPropertyOp15
 70
     1
102
RTVSPropertyOp16
 70
     1
102
RTVSPropertyOp17
 70
     1
102
RTVSPropertyOp18
 70
     1
102
RTVSPropertyOp19
 70
     1
102
RTVSPropertyOp20
 70
     1
102
RTVSPropertyOp21
 70
     1
102
RTVSPropertyOp22
 70
     1
102
RTVSPropertyOp23
 70
     1
102
RTVSPropertyOp24
 70
     1
102
RTVSPropertyOp25
 70
     1
102
RTVSPropertyOp26
 70
     1
102
RTVSPropertyOp27
 70
     1
102
RTVSPropertyOp28
 70
     1
102
RTVSPropertyOp29
 70
     1
102
RTVSPropertyOp30
 70
     1
102
RTVSPropertyOp31
 70
     1
102
RTVSPropertyOp32
 70
     1
  0
XRECORD
  5
13A
102
{ACAD_REACTORS
330
139
102
}
330
139
100
AcDbXrecord
280
     1
102
RTVSPropertyOp0
 70
     1
102
RTVSPropertyOp1
 70
     1
102
RTVSPropertyOp2
 70
     1
102
RTVSPropertyOp3
 70
     1
102
RTVSPropertyOp4
 70
     1
102
RTVSPropertyOp5
 70
     1
102
RTVSPropertyOp6
 70
     1
102
RTVSPropertyOp7
 70
     1
102
RTVSPropertyOp8
 70
     1
102
RTVSPropertyOp9
 70
     1
102
RTVSPropertyOp10
 70
     1
102
RTVSPropertyOp11
 70
     1
102
RTVSPropertyOp12
 70
     1
102
RTVSPropertyOp13
 70
     1
102
RTVSPropertyOp14
 70
     1
102
RTVSPropertyOp15
 70
     1
102
RTVSPropertyOp16
 70
     1
102
RTVSPropertyOp17
 70
     1
102
RTVSPropertyOp18
 70
     1
102
RTVSPropertyOp19
 70
     1
102
RTVSPropertyOp20
 70
     1
102
RTVSPropertyOp21
 70
     1
102
RTVSPropertyOp22
 70
     1
102
RTVSPropertyOp23
 70
     1
102
RTVSPropertyOp24
 70
     1
102
RTVSPropertyOp25
 70
     1
102
RTVSPropertyOp26
 70
     1
102
RTVSPropertyOp27
 70
     1
102
RTVSPropertyOp28
 70
     1
102
RTVSPropertyOp29
 70
     1
102
RTVSPropertyOp30
 70
     1
102
RTVSPropertyOp31
 70
     1
102
RTVSPropertyOp32
 70
     1
  0
XRECORD
  5
142
102
{ACAD_REACTORS
330
141
102
}
330
141
100
AcDbXrecord
280
     1
102
RTVSPropertyOp0
 70
     1
102
RTVSPropertyOp1
 70
     1
102
RTVSPropertyOp2
 70
     1
102
RTVSPropertyOp3
 70
     1
102
RTVSPropertyOp4
 70
     1
102
RTVSPropertyOp5
 70
     1
102
RTVSPropertyOp6
 70
     1
102
RTVSPropertyOp7
 70
     1
102
RTVSPropertyOp8
 70
     1
102
RTVSPropertyOp9
 70
     1
102
RTVSPropertyOp10
 70
     1
102
RTVSPropertyOp11
 70
     1
102
RTVSPropertyOp12
 70
     1
102
RTVSPropertyOp13
 70
     1
102
RTVSPropertyOp14
 70
     1
102
RTVSPropertyOp15
 70
     1
102
RTVSPropertyOp16
 70
     1
102
RTVSPropertyOp17
 70
     1
102
RTVSPropertyOp18
 70
     1
102
RTVSPropertyOp19
 70
     1
102
RTVSPropertyOp20
 70
     1
102
RTVSPropertyOp21
 70
     1
102
RTVSPropertyOp22
 70
     1
102
RTVSPropertyOp23
 70
     1
102
RTVSPropertyOp24
 70
     1
102
RTVSPropertyOp25
 70
     1
102
RTVSPropertyOp26
 70
     1
102
RTVSPropertyOp27
 70
     1
102
RTVSPropertyOp28
 70
     1
102
RTVSPropertyOp29
 70
     1
102
RTVSPropertyOp30
 70
     1
102
RTVSPropertyOp31
 70
     1
102
RTVSPropertyOp32
 70
     1
  0
XRECORD
  5
136
102
{ACAD_REACTORS
330
135
102
}
330
135
100
AcDbXrecord
280
     1
102
RTVSPropertyOp0
 70
     1
102
RTVSPropertyOp1
 70
     1
102
RTVSPropertyOp2
 70
     1
102
RTVSPropertyOp3
 70
     1
102
RTVSPropertyOp4
 70
     1
102
RTVSPropertyOp5
 70
     1
102
RTVSPropertyOp6
 70
     1
102
RTVSPropertyOp7
 70
     1
102
RTVSPropertyOp8
 70
     1
102
RTVSPropertyOp9
 70
     1
102
RTVSPropertyOp10
 70
     1
102
RTVSPropertyOp11
 70
     1
102
RTVSPropertyOp12
 70
     1
102
RTVSPropertyOp13
 70
     1
102
RTVSPropertyOp14
 70
     1
102
RTVSPropertyOp15
 70
     1
102
RTVSPropertyOp16
 70
     1
102
RTVSPropertyOp17
 70
     1
102
RTVSPropertyOp18
 70
     1
102
RTVSPropertyOp19
 70
     1
102
RTVSPropertyOp20
 70
     1
102
RTVSPropertyOp21
 70
     1
102
RTVSPropertyOp22
 70
     1
102
RTVSPropertyOp23
 70
     1
102
RTVSPropertyOp24
 70
     1
102
RTVSPropertyOp25
 70
     1
102
RTVSPropertyOp26
 70
     1
102
RTVSPropertyOp27
 70
     1
102
RTVSPropertyOp28
 70
     1
102
RTVSPropertyOp29
 70
     1
102
RTVSPropertyOp30
 70
     1
102
RTVSPropertyOp31
 70
     1
102
RTVSPropertyOp32
 70
     1
  0
XRECORD
  5
138
102
{ACAD_REACTORS
330
137
102
}
330
137
100
AcDbXrecord
280
     1
102
RTVSPropertyOp0
 70
     1
102
RTVSPropertyOp1
 70
     1
102
RTVSPropertyOp2
 70
     1
102
RTVSPropertyOp3
 70
     1
102
RTVSPropertyOp4
 70
     1
102
RTVSPropertyOp5
 70
     1
102
RTVSPropertyOp6
 70
     1
102
RTVSPropertyOp7
 70
     1
102
RTVSPropertyOp8
 70
     1
102
RTVSPropertyOp9
 70
     1
102
RTVSPropertyOp10
 70
     1
102
RTVSPropertyOp11
 70
     1
102
RTVSPropertyOp12
 70
     1
102
RTVSPropertyOp13
 70
     1
102
RTVSPropertyOp14
 70
     1
102
RTVSPropertyOp15
 70
     1
102
RTVSPropertyOp16
 70
     1
102
RTVSPropertyOp17
 70
     1
102
RTVSPropertyOp18
 70
     1
102
RTVSPropertyOp19
 70
     1
102
RTVSPropertyOp20
 70
     1
102
RTVSPropertyOp21
 70
     1
102
RTVSPropertyOp22
 70
     1
102
RTVSPropertyOp23
 70
     1
102
RTVSPropertyOp24
 70
     1
102
RTVSPropertyOp25
 70
     1
102
RTVSPropertyOp26
 70
     1
102
RTVSPropertyOp27
 70
     1
102
RTVSPropertyOp28
 70
     1
102
RTVSPropertyOp29
 70
     1
102
RTVSPropertyOp30
 70
     1
102
RTVSPropertyOp31
 70
     1
102
RTVSPropertyOp32
 70
     1
  0
XRECORD
  5
140
102
{ACAD_REACTORS
330
13F
102
}
330
13F
100
AcDbXrecord
280
     1
102
RTVSPropertyOp0
 70
     1
102
RTVSPropertyOp1
 70
     1
102
RTVSPropertyOp2
 70
     1
102
RTVSPropertyOp3
 70
     1
102
RTVSPropertyOp4
 70
     1
102
RTVSPropertyOp5
 70
     1
102
RTVSPropertyOp6
 70
     1
102
RTVSPropertyOp7
 70
     1
102
RTVSPropertyOp8
 70
     1
102
RTVSPropertyOp9
 70
     1
102
RTVSPropertyOp10
 70
     1
102
RTVSPropertyOp11
 70
     1
102
RTVSPropertyOp12
 70
     1
102
RTVSPropertyOp13
 70
     1
102
RTVSPropertyOp14
 70
     1
102
RTVSPropertyOp15
 70
     1
102
RTVSPropertyOp16
 70
     1
102
RTVSPropertyOp17
 70
     1
102
RTVSPropertyOp18
 70
     1
102
RTVSPropertyOp19
 70
     1
102
RTVSPropertyOp20
 70
     1
102
RTVSPropertyOp21
 70
     1
102
RTVSPropertyOp22
 70
     1
102
RTVSPropertyOp23
 70
     1
102
RTVSPropertyOp24
 70
     1
102
RTVSPropertyOp25
 70
     1
102
RTVSPropertyOp26
 70
     1
102
RTVSPropertyOp27
 70
     1
102
RTVSPropertyOp28
 70
     1
102
RTVSPropertyOp29
 70
     1
102
RTVSPropertyOp30
 70
     1
102
RTVSPropertyOp31
 70
     1
102
RTVSPropertyOp32
 70
     1
  0
XRECORD
  5
124
102
{ACAD_REACTORS
330
123
102
}
330
123
100
AcDbXrecord
280
     1
102
RTVSPropertyOp0
 70
     1
102
RTVSPropertyOp1
 70
     1
102
RTVSPropertyOp2
 70
     1
102
RTVSPropertyOp3
 70
     1
102
RTVSPropertyOp4
 70
     1
102
RTVSPropertyOp5
 70
     1
102
RTVSPropertyOp6
 70
     1
102
RTVSPropertyOp7
 70
     1
102
RTVSPropertyOp8
 70
     1
102
RTVSPropertyOp9
 70
     1
102
RTVSPropertyOp10
 70
     1
102
RTVSPropertyOp11
 70
     1
102
RTVSPropertyOp12
 70
     1
102
RTVSPropertyOp13
 70
     1
102
RTVSPropertyOp14
 70
     1
102
RTVSPropertyOp15
 70
     1
102
RTVSPropertyOp16
 70
     1
102
RTVSPropertyOp17
 70
     1
102
RTVSPropertyOp18
 70
     1
102
RTVSPropertyOp19
 70
     1
102
RTVSPropertyOp20
 70
     1
102
RTVSPropertyOp21
 70
     1
102
RTVSPropertyOp22
 70
     1
102
RTVSPropertyOp23
 70
     1
102
RTVSPropertyOp24
 70
     1
102
RTVSPropertyOp25
 70
     1
102
RTVSPropertyOp26
 70
     1
102
RTVSPropertyOp27
 70
     1
102
RTVSPropertyOp28
 70
     1
102
RTVSPropertyOp29
 70
     1
102
RTVSPropertyOp30
 70
     1
102
RTVSPropertyOp31
 70
     1
102
RTVSPropertyOp32
 70
     1
  0
XRECORD
  5
126
102
{ACAD_REACTORS
330
125
102
}
330
125
100
AcDbXrecord
280
     1
102
RTVSPropertyOp0
 70
     1
102
RTVSPropertyOp1
 70
     1
102
RTVSPropertyOp2
 70
     1
102
RTVSPropertyOp3
 70
     1
102
RTVSPropertyOp4
 70
     1
102
RTVSPropertyOp5
 70
     1
102
RTVSPropertyOp6
 70
     1
102
RTVSPropertyOp7
 70
     1
102
RTVSPropertyOp8
 70
     1
102
RTVSPropertyOp9
 70
     1
102
RTVSPropertyOp10
 70
     1
102
RTVSPropertyOp11
 70
     1
102
RTVSPropertyOp12
 70
     1
102
RTVSPropertyOp13
 70
     1
102
RTVSPropertyOp14
 70
     1
102
RTVSPropertyOp15
 70
     1
102
RTVSPropertyOp16
 70
     1
102
RTVSPropertyOp17
 70
     1
102
RTVSPropertyOp18
 70
     1
102
RTVSPropertyOp19
 70
     1
102
RTVSPropertyOp20
 70
     1
102
RTVSPropertyOp21
 70
     1
102
RTVSPropertyOp22
 70
     1
102
RTVSPropertyOp23
 70
     1
102
RTVSPropertyOp24
 70
     1
102
RTVSPropertyOp25
 70
     1
102
RTVSPropertyOp26
 70
     1
102
RTVSPropertyOp27
 70
     1
102
RTVSPropertyOp28
 70
     1
102
RTVSPropertyOp29
 70
     1
102
RTVSPropertyOp30
 70
     1
102
RTVSPropertyOp31
 70
     1
102
RTVSPropertyOp32
 70
     1
  0
XRECORD
  5
128
102
{ACAD_REACTORS
330
127
102
}
330
127
100
AcDbXrecord
280
     1
102
RTVSPropertyOp0
 70
     1
102
RTVSPropertyOp1
 70
     1
102
RTVSPropertyOp2
 70
     1
102
RTVSPropertyOp3
 70
     1
102
RTVSPropertyOp4
 70
     1
102
RTVSPropertyOp5
 70
     1
102
RTVSPropertyOp6
 70
     1
102
RTVSPropertyOp7
 70
     1
102
RTVSPropertyOp8
 70
     1
102
RTVSPropertyOp9
 70
     1
102
RTVSPropertyOp10
 70
     1
102
RTVSPropertyOp11
 70
     1
102
RTVSPropertyOp12
 70
     1
102
RTVSPropertyOp13
 70
     1
102
RTVSPropertyOp14
 70
     1
102
RTVSPropertyOp15
 70
     1
102
RTVSPropertyOp16
 70
     1
102
RTVSPropertyOp17
 70
     1
102
RTVSPropertyOp18
 70
     1
102
RTVSPropertyOp19
 70
     1
102
RTVSPropertyOp20
 70
     1
102
RTVSPropertyOp21
 70
     1
102
RTVSPropertyOp22
 70
     1
102
RTVSPropertyOp23
 70
     1
102
RTVSPropertyOp24
 70
     1
102
RTVSPropertyOp25
 70
     1
102
RTVSPropertyOp26
 70
     1
102
RTVSPropertyOp27
 70
     1
102
RTVSPropertyOp28
 70
     1
102
RTVSPropertyOp29
 70
     1
102
RTVSPropertyOp30
 70
     1
102
RTVSPropertyOp31
 70
     1
102
RTVSPropertyOp32
 70
     1
  0
XRECORD
  5
12A
102
{ACAD_REACTORS
330
129
102
}
330
129
100
AcDbXrecord
280
     1
102
RTVSPropertyOp0
 70
     1
102
RTVSPropertyOp1
 70
     1
102
RTVSPropertyOp2
 70
     1
102
RTVSPropertyOp3
 70
     1
102
RTVSPropertyOp4
 70
     1
102
RTVSPropertyOp5
 70
     1
102
RTVSPropertyOp6
 70
     1
102
RTVSPropertyOp7
 70
     1
102
RTVSPropertyOp8
 70
     1
102
RTVSPropertyOp9
 70
     1
102
RTVSPropertyOp10
 70
     1
102
RTVSPropertyOp11
 70
     1
102
RTVSPropertyOp12
 70
     1
102
RTVSPropertyOp13
 70
     1
102
RTVSPropertyOp14
 70
     1
102
RTVSPropertyOp15
 70
     1
102
RTVSPropertyOp16
 70
     1
102
RTVSPropertyOp17
 70
     1
102
RTVSPropertyOp18
 70
     1
102
RTVSPropertyOp19
 70
     1
102
RTVSPropertyOp20
 70
     1
102
RTVSPropertyOp21
 70
     1
102
RTVSPropertyOp22
 70
     1
102
RTVSPropertyOp23
 70
     1
102
RTVSPropertyOp24
 70
     1
102
RTVSPropertyOp25
 70
     1
102
RTVSPropertyOp26
 70
     1
102
RTVSPropertyOp27
 70
     1
102
RTVSPropertyOp28
 70
     1
102
RTVSPropertyOp29
 70
     1
102
RTVSPropertyOp30
 70
     1
102
RTVSPropertyOp31
 70
     1
102
RTVSPropertyOp32
 70
     1
  0
XRECORD
  5
13E
102
{ACAD_REACTORS
330
13D
102
}
330
13D
100
AcDbXrecord
280
     1
102
RTVSPropertyOp0
 70
     1
102
RTVSPropertyOp1
 70
     1
102
RTVSPropertyOp2
 70
     1
102
RTVSPropertyOp3
 70
     1
102
RTVSPropertyOp4
 70
     1
102
RTVSPropertyOp5
 70
     1
102
RTVSPropertyOp6
 70
     1
102
RTVSPropertyOp7
 70
     1
102
RTVSPropertyOp8
 70
     1
102
RTVSPropertyOp9
 70
     1
102
RTVSPropertyOp10
 70
     1
102
RTVSPropertyOp11
 70
     1
102
RTVSPropertyOp12
 70
     1
102
RTVSPropertyOp13
 70
     1
102
RTVSPropertyOp14
 70
     1
102
RTVSPropertyOp15
 70
     1
102
RTVSPropertyOp16
 70
     1
102
RTVSPropertyOp17
 70
     1
102
RTVSPropertyOp18
 70
     1
102
RTVSPropertyOp19
 70
     1
102
RTVSPropertyOp20
 70
     1
102
RTVSPropertyOp21
 70
     1
102
RTVSPropertyOp22
 70
     1
102
RTVSPropertyOp23
 70
     1
102
RTVSPropertyOp24
 70
     1
102
RTVSPropertyOp25
 70
     1
102
RTVSPropertyOp26
 70
     1
102
RTVSPropertyOp27
 70
     1
102
RTVSPropertyOp28
 70
     1
102
RTVSPropertyOp29
 70
     1
102
RTVSPropertyOp30
 70
     1
102
RTVSPropertyOp31
 70
     1
102
RTVSPropertyOp32
 70
     1
  0
XRECORD
  5
134
102
{ACAD_REACTORS
330
133
102
}
330
133
100
AcDbXrecord
280
     1
102
RTVSPropertyOp0
 70
     1
102
RTVSPropertyOp1
 70
     1
102
RTVSPropertyOp2
 70
     1
102
RTVSPropertyOp3
 70
     1
102
RTVSPropertyOp4
 70
     1
102
RTVSPropertyOp5
 70
     1
102
RTVSPropertyOp6
 70
     1
102
RTVSPropertyOp7
 70
     1
102
RTVSPropertyOp8
 70
     1
102
RTVSPropertyOp9
 70
     1
102
RTVSPropertyOp10
 70
     1
102
RTVSPropertyOp11
 70
     1
102
RTVSPropertyOp12
 70
     1
102
RTVSPropertyOp13
 70
     1
102
RTVSPropertyOp14
 70
     1
102
RTVSPropertyOp15
 70
     1
102
RTVSPropertyOp16
 70
     1
102
RTVSPropertyOp17
 70
     1
102
RTVSPropertyOp18
 70
     1
102
RTVSPropertyOp19
 70
     1
102
RTVSPropertyOp20
 70
     1
102
RTVSPropertyOp21
 70
     1
102
RTVSPropertyOp22
 70
     1
102
RTVSPropertyOp23
 70
     1
102
RTVSPropertyOp24
 70
     1
102
RTVSPropertyOp25
 70
     1
102
RTVSPropertyOp26
 70
     1
102
RTVSPropertyOp27
 70
     1
102
RTVSPropertyOp28
 70
     1
102
RTVSPropertyOp29
 70
     1
102
RTVSPropertyOp30
 70
     1
102
RTVSPropertyOp31
 70
     1
102
RTVSPropertyOp32
 70
     1
  0
XRECORD
  5
13C
102
{ACAD_REACTORS
330
13B
102
}
330
13B
100
AcDbXrecord
280
     1
102
RTVSPropertyOp0
 70
     1
102
RTVSPropertyOp1
 70
     1
102
RTVSPropertyOp2
 70
     1
102
RTVSPropertyOp3
 70
     1
102
RTVSPropertyOp4
 70
     1
102
RTVSPropertyOp5
 70
     1
102
RTVSPropertyOp6
 70
     1
102
RTVSPropertyOp7
 70
     1
102
RTVSPropertyOp8
 70
     1
102
RTVSPropertyOp9
 70
     1
102
RTVSPropertyOp10
 70
     1
102
RTVSPropertyOp11
 70
     1
102
RTVSPropertyOp12
 70
     1
102
RTVSPropertyOp13
 70
     1
102
RTVSPropertyOp14
 70
     1
102
RTVSPropertyOp15
 70
     1
102
RTVSPropertyOp16
 70
     1
102
RTVSPropertyOp17
 70
     1
102
RTVSPropertyOp18
 70
     1
102
RTVSPropertyOp19
 70
     1
102
RTVSPropertyOp20
 70
     1
102
RTVSPropertyOp21
 70
     1
102
RTVSPropertyOp22
 70
     1
102
RTVSPropertyOp23
 70
     1
102
RTVSPropertyOp24
 70
     1
102
RTVSPropertyOp25
 70
     1
102
RTVSPropertyOp26
 70
     1
102
RTVSPropertyOp27
 70
     1
102
RTVSPropertyOp28
 70
     1
102
RTVSPropertyOp29
 70
     1
102
RTVSPropertyOp30
 70
     1
102
RTVSPropertyOp31
 70
     1
102
RTVSPropertyOp32
 70
     1
  0
ENDSEC
  0
EOF
