  0
SECTION
  2
HEADER
  9
$ACADVER
  1
AC1015
  9
$ACADMAINTVER
 70
     6
  9
$DWGCODEPAGE
  3
ANSI_932
  9
$INSBASE
 10
0.0
 20
0.0
 30
0.0
  9
$EXTMIN
 10
0.0
 20
0.0
 30
0.0
  9
$EXTMAX
 10
210.0000000000001
 20
297.0
 30
0.0
  9
$LIMMIN
 10
0.0
 20
0.0
  9
$LIMMAX
 10
12.0
 20
9.0
  9
$ORTHOMODE
 70
     0
  9
$REGENMODE
 70
     1
  9
$FILLMODE
 70
     1
  9
$QTEXTMODE
 70
     0
  9
$MIRRTEXT
 70
     1
  9
$LTSCALE
 40
1.0
  9
$ATTMODE
 70
     1
  9
$TEXTSIZE
 40
0.2
  9
$TRACEWID
 40
0.05
  9
$TEXTSTYLE
  7
Standard
  9
$CLAYER
  8
0
  9
$CELTYPE
  6
ByLayer
  9
$CECOLOR
 62
   256
  9
$CELTSCALE
 40
1.0
  9
$DISPSILH
 70
     0
  9
$DIMSCALE
 40
1.0
  9
$DIMASZ
 40
0.18
  9
$DIMEXO
 40
0.0625
  9
$DIMDLI
 40
0.38
  9
$DIMRND
 40
0.0
  9
$DIMDLE
 40
0.0
  9
$DIMEXE
 40
0.18
  9
$DIMTP
 40
0.0
  9
$DIMTM
 40
0.0
  9
$DIMTXT
 40
0.18
  9
$DIMCEN
 40
0.09
  9
$DIMTSZ
 40
0.0
  9
$DIMTOL
 70
     0
  9
$DIMLIM
 70
     0
  9
$DIMTIH
 70
     1
  9
$DIMTOH
 70
     1
  9
$DIMSE1
 70
     0
  9
$DIMSE2
 70
     0
  9
$DIMTAD
 70
     0
  9
$DIMZIN
 70
     0
  9
$DIMBLK
  1

  9
$DIMASO
 70
     1
  9
$DIMSHO
 70
     1
  9
$DIMPOST
  1

  9
$DIMAPOST
  1

  9
$DIMALT
 70
     0
  9
$DIMALTD
 70
     2
  9
$DIMALTF
 40
25.4
  9
$DIMLFAC
 40
1.0
  9
$DIMTOFL
 70
     0
  9
$DIMTVP
 40
0.0
  9
$DIMTIX
 70
     0
  9
$DIMSOXD
 70
     0
  9
$DIMSAH
 70
     0
  9
$DIMBLK1
  1

  9
$DIMBLK2
  1

  9
$DIMSTYLE
  2
Standard
  9
$DIMCLRD
 70
     0
  9
$DIMCLRE
 70
     0
  9
$DIMCLRT
 70
     0
  9
$DIMTFAC
 40
1.0
  9
$DIMGAP
 40
0.09
  9
$DIMJUST
 70
     0
  9
$DIMSD1
 70
     0
  9
$DIMSD2
 70
     0
  9
$DIMTOLJ
 70
     1
  9
$DIMTZIN
 70
     0
  9
$DIMALTZ
 70
     0
  9
$DIMALTTZ
 70
     0
  9
$DIMUPT
 70
     0
  9
$DIMDEC
 70
     4
  9
$DIMTDEC
 70
     4
  9
$DIMALTU
 70
     2
  9
$DIMALTTD
 70
     2
  9
$DIMTXSTY
  7
Standard
  9
$DIMAUNIT
 70
     0
  9
$DIMADEC
 70
     0
  9
$DIMALTRND
 40
0.0
  9
$DIMAZIN
 70
     0
  9
$DIMDSEP
 70
    46
  9
$DIMATFIT
 70
     3
  9
$DIMFRAC
 70
     0
  9
$DIMLDRBLK
  1

  9
$DIMLUNIT
 70
     2
  9
$DIMLWD
 70
    -2
  9
$DIMLWE
 70
    -2
  9
$DIMTMOVE
 70
     0
  9
$LUNITS
 70
     2
  9
$LUPREC
 70
     4
  9
$SKETCHINC
 40
0.1
  9
$FILLETRAD
 40
0.5
  9
$AUNITS
 70
     0
  9
$AUPREC
 70
     0
  9
$MENU
  1
.
  9
$ELEVATION
 40
0.0
  9
$PELEVATION
 40
0.0
  9
$THICKNESS
 40
0.0
  9
$LIMCHECK
 70
     0
  9
$CHAMFERA
 40
0.5
  9
$CHAMFERB
 40
0.5
  9
$CHAMFERC
 40
1.0
  9
$CHAMFERD
 40
0.0
  9
$SKPOLY
 70
     0
  9
$TDCREATE
 40
2459755.664335961
  9
$TDUCREATE
 40
2459755.289335961
  9
$TDUPDATE
 40
2459755.664337488
  9
$TDUUPDATE
 40
2459755.289337488
  9
$TDINDWG
 40
0.0000000116
  9
$TDUSRTIMER
 40
0.0000000116
  9
$USRTIMER
 70
     1
  9
$ANGBASE
 50
0.0
  9
$ANGDIR
 70
     0
  9
$PDMODE
 70
     0
  9
$PDSIZE
 40
0.0
  9
$PLINEWID
 40
0.0
  9
$SPLFRAME
 70
     0
  9
$SPLINETYPE
 70
     6
  9
$SPLINESEGS
 70
     8
  9
$HANDSEED
  5
163
  9
$SURFTAB1
 70
     6
  9
$SURFTAB2
 70
     6
  9
$SURFTYPE
 70
     6
  9
$SURFU
 70
     6
  9
$SURFV
 70
     6
  9
$UCSBASE
  2

  9
$UCSNAME
  2

  9
$UCSORG
 10
0.0
 20
0.0
 30
0.0
  9
$UCSXDIR
 10
1.0
 20
0.0
 30
0.0
  9
$UCSYDIR
 10
0.0
 20
1.0
 30
0.0
  9
$UCSORTHOREF
  2

  9
$UCSORTHOVIEW
 70
     0
  9
$UCSORGTOP
 10
0.0
 20
0.0
 30
0.0
  9
$UCSORGBOTTOM
 10
0.0
 20
0.0
 30
0.0
  9
$UCSORGLEFT
 10
0.0
 20
0.0
 30
0.0
  9
$UCSORGRIGHT
 10
0.0
 20
0.0
 30
0.0
  9
$UCSORGFRONT
 10
0.0
 20
0.0
 30
0.0
  9
$UCSORGBACK
 10
0.0
 20
0.0
 30
0.0
  9
$PUCSBASE
  2

  9
$PUCSNAME
  2

  9
$PUCSORG
 10
0.0
 20
0.0
 30
0.0
  9
$PUCSXDIR
 10
1.0
 20
0.0
 30
0.0
  9
$PUCSYDIR
 10
0.0
 20
1.0
 30
0.0
  9
$PUCSORTHOREF
  2

  9
$PUCSORTHOVIEW
 70
     0
  9
$PUCSORGTOP
 10
0.0
 20
0.0
 30
0.0
  9
$PUCSORGBOTTOM
 10
0.0
 20
0.0
 30
0.0
  9
$PUCSORGLEFT
 10
0.0
 20
0.0
 30
0.0
  9
$PUCSORGRIGHT
 10
0.0
 20
0.0
 30
0.0
  9
$PUCSORGFRONT
 10
0.0
 20
0.0
 30
0.0
  9
$PUCSORGBACK
 10
0.0
 20
0.0
 30
0.0
  9
$USERI1
 70
     0
  9
$USERI2
 70
     0
  9
$USERI3
 70
     0
  9
$USERI4
 70
     0
  9
$USERI5
 70
     0
  9
$USERR1
 40
18.1
  9
$USERR2
 40
0.0
  9
$USERR3
 40
0.0
  9
$USERR4
 40
0.0
  9
$USERR5
 40
0.0
  9
$WORLDVIEW
 70
     1
  9
$SHADEDGE
 70
     3
  9
$SHADEDIF
 70
    70
  9
$TILEMODE
 70
     1
  9
$MAXACTVP
 70
    64
  9
$PINSBASE
 10
0.0
 20
0.0
 30
0.0
  9
$PLIMCHECK
 70
     0
  9
$PEXTMIN
 10
1.00000000000000E+20
 20
1.00000000000000E+20
 30
1.00000000000000E+20
  9
$PEXTMAX
 10
-1.00000000000000E+20
 20
-1.00000000000000E+20
 30
-1.00000000000000E+20
  9
$PLIMMIN
 10
0.0
 20
0.0
  9
$PLIMMAX
 10
12.0
 20
9.0
  9
$UNITMODE
 70
     0
  9
$VISRETAIN
 70
     1
  9
$PLINEGEN
 70
     0
  9
$PSLTSCALE
 70
     1
  9
$TREEDEPTH
 70
  3020
  9
$CMLSTYLE
  2
Standard
  9
$CMLJUST
 70
     0
  9
$CMLSCALE
 40
1.0
  9
$PROXYGRAPHICS
 70
     1
  9
$MEASUREMENT
 70
     1
  9
$CELWEIGHT
370
    -1
  9
$ENDCAPS
280
     0
  9
$JOINSTYLE
280
     0
  9
$LWDISPLAY
290
     0
  9
$INSUNITS
 70
     4
  9
$HYPERLINKBASE
  1

  9
$STYLESHEET
  1

  9
$XEDIT
290
     1
  9
$CEPSNTYPE
380
     0
  9
$PSTYLEMODE
290
     1
  9
$FINGERPRINTGUID
  2
{FE0CC89C-77ED-43DD-B2F7-4119566C8D69}
  9
$VERSIONGUID
  2
{FAEB1C32-E019-11D5-929B-00C0DF256EC4}
  9
$EXTNAMES
290
     1
  9
$PSVPSCALE
 40
0.0
  9
$OLESTARTUP
290
     0
  0
ENDSEC
  0
SECTION
  2
CLASSES
  0
CLASS
  1
ACDBDICTIONARYWDFLT
  2
AcDbDictionaryWithDefault
  3
ObjectDBX Classes
 90
        0
280
     0
281
     0
  0
CLASS
  1
VISUALSTYLE
  2
AcDbVisualStyle
  3
ObjectDBX Classes
 90
     4095
280
     0
281
     0
  0
CLASS
  1
MATERIAL
  2
AcDbMaterial
  3
ObjectDBX Classes
 90
     1153
280
     0
281
     0
  0
CLASS
  1
DICTIONARYVAR
  2
AcDbDictionaryVar
  3
ObjectDBX Classes
 90
        0
280
     0
281
     0
  0
CLASS
  1
ACDBPLACEHOLDER
  2
AcDbPlaceHolder
  3
ObjectDBX Classes
 90
        0
280
     0
281
     0
  0
CLASS
  1
LAYOUT
  2
AcDbLayout
  3
ObjectDBX Classes
 90
        0
280
     0
281
     0
  0
ENDSEC
  0
SECTION
  2
TABLES
  0
TABLE
  2
VPORT
  5
8
330
0
100
AcDbSymbolTable
 70
     1
  0
VPORT
  5
29
330
8
100
AcDbSymbolTableRecord
100
AcDbViewportTableRecord
  2
*Active
 70
     0
 10
0.0
 20
0.0
 11
1.0
 21
1.0
 12
105.0000000000001
 22
148.5
 13
0.0
 23
0.0
 14
0.5
 24
0.5
 15
0.5
 25
0.5
 16
0.0
 26
0.0
 36
1.0
 17
0.0
 27
0.0
 37
0.0
 40
326.7
 41
1.60267857142857
 42
50.0
 43
0.0
 44
0.0
 50
0.0
 51
0.0
 71
     0
 72
   100
 73
     1
 74
     3
 75
     0
 76
     0
 77
     0
 78
     0
281
     0
 65
     1
110
0.0
120
0.0
130
0.0
111
1.0
121
0.0
131
0.0
112
0.0
122
1.0
132
0.0
 79
     0
146
0.0
  0
ENDTAB
  0
TABLE
  2
LTYPE
  5
5
330
0
100
AcDbSymbolTable
 70
     8
  0
LTYPE
  5
14
330
5
100
AcDbSymbolTableRecord
100
AcDbLinetypeTableRecord
  2
ByBlock
 70
     0
  3

 72
    65
 73
     0
 40
0.0
  0
LTYPE
  5
15
330
5
100
AcDbSymbolTableRecord
100
AcDbLinetypeTableRecord
  2
ByLayer
 70
     0
  3

 72
    65
 73
     0
 40
0.0
  0
LTYPE
  5
16
330
5
100
AcDbSymbolTableRecord
100
AcDbLinetypeTableRecord
  2
Continuous
 70
     0
  3
Solid line
 72
    65
 73
     0
 40
0.0
  0
LTYPE
  5
3F
330
5
100
AcDbSymbolTableRecord
100
AcDbLinetypeTableRecord
  2
DASHED
 70
     0
  3
Dashed
 72
    65
 73
     2
 40
15.0
 49
7.0
 74
     0
 49
-8.0
 74
     0
  0
LTYPE
  5
40
330
5
100
AcDbSymbolTableRecord
100
AcDbLinetypeTableRecord
  2
DOTTED
 70
     0
  3
Dotted
 72
    65
 73
     2
 40
1.0
 49
0.0
 74
     0
 49
-1.0
 74
     0
  0
LTYPE
  5
41
330
5
100
AcDbSymbolTableRecord
100
AcDbLinetypeTableRecord
  2
DOT_CENTER
 70
     0
  3
Dot_Center
 72
    65
 73
     4
 40
14.0
 49
12.0
 74
     0
 49
-1.0
 74
     0
 49
0.0
 74
     0
 49
-1.0
 74
     0
  0
LTYPE
  5
42
330
5
100
AcDbSymbolTableRecord
100
AcDbLinetypeTableRecord
  2
LONG_DASHED
 70
     0
  3
Long_Dashed
 72
    65
 73
     2
 40
15.0
 49
10.0
 74
     0
 49
-5.0
 74
     0
  0
LTYPE
  5
43
330
5
100
AcDbSymbolTableRecord
100
AcDbLinetypeTableRecord
  2
DASH_CENTER
 70
     0
  3
Dash_Center
 72
    65
 73
     4
 40
14.0
 49
11.0
 74
     0
 49
-1.0
 74
     0
 49
1.0
 74
     0
 49
-1.0
 74
     0
  0
LTYPE
  5
44
330
5
100
AcDbSymbolTableRecord
100
AcDbLinetypeTableRecord
  2
PHANTOM
 70
     0
  3
Phantom
 72
    65
 73
     6
 40
13.0
 49
10.0
 74
     0
 49
-1.0
 74
     0
 49
0.0
 74
     0
 49
-1.0
 74
     0
 49
0.0
 74
     0
 49
-1.0
 74
     0
  0
LTYPE
  5
45
330
5
100
AcDbSymbolTableRecord
100
AcDbLinetypeTableRecord
  2
CENTER_DASH_DASH
 70
     0
  3
Center_Dash_Dash
 72
    65
 73
     6
 40
14.0
 49
9.0
 74
     0
 49
-1.0
 74
     0
 49
1.0
 74
     0
 49
-1.0
 74
     0
 49
1.0
 74
     0
 49
-1.0
 74
     0
  0
ENDTAB
  0
TABLE
  2
LAYER
  5
2
330
0
100
AcDbSymbolTable
 70
     3
  0
LAYER
  5
10
330
2
100
AcDbSymbolTableRecord
100
AcDbLayerTableRecord
  2
0
 70
     0
 62
     7
  6
Continuous
370
    -3
390
F
  0
LAYER
  5
46
330
2
100
AcDbSymbolTableRecord
100
AcDbLayerTableRecord
  2
1
 70
     0
 62
     7
  6
Continuous
370
    -3
390
F
  0
LAYER
  5
47
330
2
100
AcDbSymbolTableRecord
100
AcDbLayerTableRecord
  2
_U_30EC_U_30A4_U_30E4_U_30FC_1
 70
     0
 62
     7
  6
Continuous
370
    -3
390
F
  0
ENDTAB
  0
TABLE
  2
STYLE
  5
3
330
0
100
AcDbSymbolTable
 70
     3
  0
STYLE
  5
11
330
3
100
AcDbSymbolTableRecord
100
AcDbTextStyleTableRecord
  2
Standard
 70
     0
 40
0.0
 41
1.0
 50
0.0
 71
     0
 42
0.2
  3
txt
  4

  0
STYLE
  5
B6
330
3
100
AcDbSymbolTableRecord
100
AcDbTextStyleTableRecord
  2
CONVERTER_11
 70
     0
 40
0.0
 41
0.89
 50
0.0
 71
     0
 42
0.2
  3
MS Mincho.ttf
  4

1001
ACAD
1000
MS Mincho
1071
    32785
  0
STYLE
  5
EC
330
3
100
AcDbSymbolTableRecord
100
AcDbTextStyleTableRecord
  2
CONVERTER_12
 70
     0
 40
0.0
 41
0.9
 50
0.0
 71
     0
 42
0.2
  3
txt.shx
  4

  0
ENDTAB
  0
TABLE
  2
VIEW
  5
6
330
0
100
AcDbSymbolTable
 70
     0
  0
ENDTAB
  0
TABLE
  2
UCS
  5
7
330
0
100
AcDbSymbolTable
 70
     0
  0
ENDTAB
  0
TABLE
  2
APPID
  5
9
330
0
100
AcDbSymbolTable
 70
     1
  0
APPID
  5
12
330
9
100
AcDbSymbolTableRecord
100
AcDbRegAppTableRecord
  2
ACAD
 70
     0
  0
ENDTAB
  0
TABLE
  2
DIMSTYLE
  5
A
330
0
100
AcDbSymbolTable
 70
     6
100
AcDbDimStyleTable
  0
DIMSTYLE
105
27
330
A
100
AcDbSymbolTableRecord
100
AcDbDimStyleTableRecord
  2
Standard
 70
     0
178
     0
340
11
  0
DIMSTYLE
105
102
102
{ACAD_REACTORS
330
103
102
}
330
A
100
AcDbSymbolTableRecord
100
AcDbDimStyleTableRecord
  2
ME10_DIM_10
 70
     0
  3
{\Fgdt;n}<>
 41
3.5
 42
0.0
 44
1.0
 73
     0
 74
     0
 77
     1
 78
     8
140
3.5
147
1.0
172
     1
173
     1
174
     1
175
     1
176
     2
177
     2
271
     2
178
     7
271
     2
340
EC
  0
DIMSTYLE
105
10D
102
{ACAD_REACTORS
330
10E
102
}
330
A
100
AcDbSymbolTableRecord
100
AcDbDimStyleTableRecord
  2
ME10_DIM_11
 70
     0
 41
3.5
 42
0.0
 44
1.0
 73
     0
 74
     0
 77
     1
 78
     8
140
3.5
147
1.0
172
     1
173
     1
174
     1
175
     1
176
     2
177
     2
271
     2
178
     7
271
     2
340
EC
  0
DIMSTYLE
105
118
102
{ACAD_REACTORS
330
119
102
}
330
A
100
AcDbSymbolTableRecord
100
AcDbDimStyleTableRecord
  2
ME10_DIM_12
 70
     0
 41
3.5
 42
0.0
 44
1.0
 73
     0
 74
     0
 77
     1
 78
     8
140
3.5
147
1.0
172
     1
173
     1
174
     1
175
     1
176
     2
177
     2
271
     2
178
     7
271
     2
340
EC
  0
DIMSTYLE
105
123
102
{ACAD_REACTORS
330
124
102
}
330
A
100
AcDbSymbolTableRecord
100
AcDbDimStyleTableRecord
  2
ME10_DIM_13
 70
     0
  3
{\Fgdt;n}<>
 41
3.5
 42
0.0
 44
1.0
 73
     0
 74
     0
 77
     1
 78
     8
140
3.5
147
1.0
172
     1
173
     1
174
     1
175
     1
176
     2
177
     2
271
     2
178
     7
271
     2
340
EC
  0
DIMSTYLE
105
12E
102
{ACAD_REACTORS
330
12F
102
}
330
A
100
AcDbSymbolTableRecord
100
AcDbDimStyleTableRecord
  2
ME10_DIM_14
 70
     0
  3
{\Fgdt;n}<>
 41
3.5
 42
0.0
 44
1.0
 73
     0
 74
     0
 77
     1
 78
     8
140
3.5
147
1.0
172
     1
173
     1
174
     1
175
     1
176
     2
177
     2
271
     2
178
     7
271
     2
340
EC
  0
ENDTAB
  0
TABLE
  2
BLOCK_RECORD
  5
1
330
0
100
AcDbSymbolTable
 70
    10
  0
BLOCK_RECORD
  5
1F
330
1
100
AcDbSymbolTableRecord
100
AcDbBlockTableRecord
  2
*Model_Space
340
22
  0
BLOCK_RECORD
  5
1B
330
1
100
AcDbSymbolTableRecord
100
AcDbBlockTableRecord
  2
*Paper_Space
340
1E
  0
BLOCK_RECORD
  5
23
330
1
100
AcDbSymbolTableRecord
100
AcDbBlockTableRecord
  2
*Paper_Space0
340
26
  0
BLOCK_RECORD
  5
48
330
1
100
AcDbSymbolTableRecord
100
AcDbBlockTableRecord
  2
開示A4
340
0
102
{BLKREFS
331
4C
102
}
  0
BLOCK_RECORD
  5
4B
330
1
100
AcDbSymbolTableRecord
100
AcDbBlockTableRecord
  2
開示A4枠
340
0
102
{BLKREFS
331
52
102
}
  0
BLOCK_RECORD
  5
4F
330
1
100
AcDbSymbolTableRecord
100
AcDbBlockTableRecord
  2
kyapu
340
0
102
{BLKREFS
331
53
102
}
  0
BLOCK_RECORD
  5
F9
330
1
100
AcDbSymbolTableRecord
100
AcDbBlockTableRecord
  2
*D4
340
0
  0
BLOCK_RECORD
  5
104
330
1
100
AcDbSymbolTableRecord
100
AcDbBlockTableRecord
  2
*D5
340
0
  0
BLOCK_RECORD
  5
10F
330
1
100
AcDbSymbolTableRecord
100
AcDbBlockTableRecord
  2
*D6
340
0
  0
BLOCK_RECORD
  5
11A
330
1
100
AcDbSymbolTableRecord
100
AcDbBlockTableRecord
  2
*D7
340
0
  0
BLOCK_RECORD
  5
125
330
1
100
AcDbSymbolTableRecord
100
AcDbBlockTableRecord
  2
*D8
340
0
  0
BLOCK_RECORD
  5
130
330
1
100
AcDbSymbolTableRecord
100
AcDbBlockTableRecord
  2
*D9
340
0
102
{BLKREFS
331
137
102
}
  0
ENDTAB
  0
ENDSEC
  0
SECTION
  2
BLOCKS
  0
BLOCK
  5
20
330
1F
100
AcDbEntity
  8
0
100
AcDbBlockBegin
  2
*Model_Space
 70
     0
 10
0.0
 20
0.0
 30
0.0
  3
*Model_Space
  1

  0
ENDBLK
  5
21
330
1F
100
AcDbEntity
  8
0
100
AcDbBlockEnd
  0
BLOCK
  5
1C
330
1B
100
AcDbEntity
 67
     1
  8
0
100
AcDbBlockBegin
  2
*Paper_Space
 70
     0
 10
0.0
 20
0.0
 30
0.0
  3
*Paper_Space
  1

  0
ENDBLK
  5
1D
330
1B
100
AcDbEntity
 67
     1
  8
0
100
AcDbBlockEnd
  0
BLOCK
  5
24
330
23
100
AcDbEntity
  8
0
100
AcDbBlockBegin
  2
*Paper_Space0
 70
     0
 10
0.0
 20
0.0
 30
0.0
  3
*Paper_Space0
  1

  0
ENDBLK
  5
25
330
23
100
AcDbEntity
  8
0
100
AcDbBlockEnd
  0
BLOCK
  5
49
330
48
100
AcDbEntity
  8
0
100
AcDbBlockBegin
  2
開示A4
 70
     0
 10
0.0
 20
0.0
 30
0.0
  3
開示A4
  1

  0
POINT
  5
54
330
48
100
AcDbEntity
  8
1
 62
     4
100
AcDbPoint
 10
33.99999999999999
 20
34.0
 30
0.0
  0
POINT
  5
55
330
48
100
AcDbEntity
  8
1
 62
     4
100
AcDbPoint
 10
57.00000000000003
 20
12.25
 30
0.0
  0
POINT
  5
56
330
48
100
AcDbEntity
  8
1
 62
     4
100
AcDbPoint
 10
57.00000000000003
 20
20.75000000000001
 30
0.0
  0
POINT
  5
57
330
48
100
AcDbEntity
  8
1
 62
     4
100
AcDbPoint
 10
57.00000000000003
 20
24.75000000000001
 30
0.0
  0
POINT
  5
58
330
48
100
AcDbEntity
  8
1
 62
     4
100
AcDbPoint
 10
57.00000000000003
 20
16.25
 30
0.0
  0
POINT
  5
59
330
48
100
AcDbEntity
  8
1
 62
     4
100
AcDbPoint
 10
157.5
 20
19.00000000000001
 30
0.0
  0
POINT
  5
5A
330
48
100
AcDbEntity
  8
1
 62
     4
100
AcDbPoint
 10
47.5
 20
282.0000000000003
 30
0.0
  0
POINT
  5
5B
330
48
100
AcDbEntity
  8
1
 62
     4
100
AcDbPoint
 10
57.00000000000003
 20
22.75000000000001
 30
0.0
  0
POINT
  5
5C
330
48
100
AcDbEntity
  8
1
 62
     4
100
AcDbPoint
 10
57.00000000000003
 20
14.25
 30
0.0
  0
POINT
  5
5D
330
48
100
AcDbEntity
  8
1
 62
     4
100
AcDbPoint
 10
157.5
 20
12.5
 30
0.0
  0
POINT
  5
5E
330
48
100
AcDbEntity
  8
1
 62
     4
100
AcDbPoint
 10
163.25
 20
12.5
 30
0.0
  0
POINT
  5
5F
330
48
100
AcDbEntity
  8
1
 62
     4
100
AcDbPoint
 10
151.75
 20
12.5
 30
0.0
  0
POINT
  5
60
330
48
100
AcDbEntity
  8
1
 62
     4
100
AcDbPoint
 10
134.75
 20
12.5
 30
0.0
  0
POINT
  5
61
330
48
100
AcDbEntity
  8
1
 62
     4
100
AcDbPoint
 10
146.25
 20
12.5
 30
0.0
  0
POINT
  5
62
330
48
100
AcDbEntity
  8
1
 62
     4
100
AcDbPoint
 10
140.5
 20
12.5
 30
0.0
  0
POINT
  5
63
330
48
100
AcDbEntity
  8
1
 62
     4
100
AcDbPoint
 10
140.5
 20
19.00000000000001
 30
0.0
  0
POINT
  5
64
330
48
100
AcDbEntity
  8
1
 62
     4
100
AcDbPoint
 10
117.75
 20
12.5
 30
0.0
  0
POINT
  5
65
330
48
100
AcDbEntity
  8
1
 62
     4
100
AcDbPoint
 10
129.25
 20
12.5
 30
0.0
  0
POINT
  5
66
330
48
100
AcDbEntity
  8
1
 62
     4
100
AcDbPoint
 10
123.5
 20
12.5
 30
0.0
  0
POINT
  5
67
330
48
100
AcDbEntity
  8
1
 62
     4
100
AcDbPoint
 10
123.5
 20
19.00000000000001
 30
0.0
  0
POINT
  5
68
330
48
100
AcDbEntity
  8
1
 62
     4
100
AcDbPoint
 10
100.75
 20
12.5
 30
0.0
  0
POINT
  5
69
330
48
100
AcDbEntity
  8
1
 62
     4
100
AcDbPoint
 10
112.25
 20
12.5
 30
0.0
  0
POINT
  5
6A
330
48
100
AcDbEntity
  8
1
 62
     4
100
AcDbPoint
 10
106.5
 20
12.5
 30
0.0
  0
POINT
  5
6B
330
48
100
AcDbEntity
  8
1
 62
     4
100
AcDbPoint
 10
106.5
 20
19.00000000000001
 30
0.0
  0
POINT
  5
6C
330
48
100
AcDbEntity
  8
1
 62
     4
100
AcDbPoint
 10
85.25000000000003
 20
17.0
 30
0.0
  0
POINT
  5
6D
330
48
100
AcDbEntity
  8
1
 62
     4
100
AcDbPoint
 10
93.75000000000003
 20
17.0
 30
0.0
  0
POINT
  5
6E
330
48
100
AcDbEntity
  8
1
 62
     4
100
AcDbPoint
 10
183.0000000000001
 20
15.00000000000001
 30
0.0
  0
LINE
  5
6F
330
48
100
AcDbEntity
  8
1
  6
Continuous
 62
     2
100
AcDbLine
 10
81.00000000000003
 20
27.00000000000001
 30
0.0
 11
81.00000000000003
 21
10.0
 31
0.0
  0
LINE
  5
70
330
48
100
AcDbEntity
  8
1
  6
DOT_CENTER
 62
     2
100
AcDbLine
 10
187.0000000000001
 20
26.50000000000001
 30
0.0
 11
187.0000000000001
 21
20.50000000000001
 31
0.0
  0
LINE
  5
71
330
48
100
AcDbEntity
  8
1
  6
DOT_CENTER
 62
     2
100
AcDbLine
 10
184.0000000000001
 20
23.50000000000001
 30
0.0
 11
197.0000000000001
 21
23.50000000000001
 31
0.0
  0
LINE
  5
72
330
48
100
AcDbEntity
  8
1
  6
Continuous
 62
     7
100
AcDbLine
 10
196.0000000000001
 20
21.50000000000001
 30
0.0
 11
191.0000000000001
 21
22.30000000000001
 31
0.0
  0
LINE
  5
73
330
48
100
AcDbEntity
  8
1
  6
Continuous
 62
     7
100
AcDbLine
 10
196.0000000000001
 20
25.50000000000001
 30
0.0
 11
196.0000000000001
 21
21.50000000000001
 31
0.0
  0
LINE
  5
74
330
48
100
AcDbEntity
  8
1
  6
Continuous
 62
     7
100
AcDbLine
 10
191.0000000000001
 20
24.70000000000002
 30
0.0
 11
196.0000000000001
 21
25.50000000000001
 31
0.0
  0
LINE
  5
75
330
48
100
AcDbEntity
  8
1
  6
Continuous
 62
     7
100
AcDbLine
 10
191.0000000000001
 20
24.70000000000002
 30
0.0
 11
191.0000000000001
 21
22.30000000000001
 31
0.0
  0
LINE
  5
76
330
48
100
AcDbEntity
  8
1
  6
Continuous
 62
     2
100
AcDbLine
 10
32.99999999999999
 20
27.0
 30
0.0
 11
32.99999999999999
 21
10.0
 31
0.0
  0
LINE
  5
77
330
48
100
AcDbEntity
  8
1
  6
Continuous
 62
     2
100
AcDbLine
 10
24.99999999999999
 20
18.50000000000001
 30
0.0
 11
81.00000000000003
 21
18.50000000000001
 31
0.0
  0
LINE
  5
78
330
48
100
AcDbEntity
  8
1
  6
Continuous
 62
     7
100
AcDbLine
 10
200.0000000000001
 20
287.0000000000003
 30
0.0
 11
105.0
 21
287.0000000000003
 31
0.0
  0
LINE
  5
79
330
48
100
AcDbEntity
  8
1
  6
Continuous
 62
     7
100
AcDbLine
 10
200.0000000000001
 20
10.0
 30
0.0
 11
200.0000000000001
 21
148.5
 31
0.0
  0
LINE
  5
7A
330
48
100
AcDbEntity
  8
1
  6
Continuous
 62
     7
100
AcDbLine
 10
24.99999999999999
 20
10.0
 30
0.0
 11
105.0
 21
10.0
 31
0.0
  0
LINE
  5
7B
330
48
100
AcDbEntity
  8
1
  6
PHANTOM
 62
     4
100
AcDbLine
 10
0.0
 20
297.0
 30
0.0
 11
0.0
 21
0.0
 31
0.0
  0
LINE
  5
7C
330
48
100
AcDbEntity
  8
1
  6
PHANTOM
 62
     4
100
AcDbLine
 10
210.0000000000001
 20
297.0
 30
0.0
 11
0.0
 21
297.0
 31
0.0
  0
LINE
  5
7D
330
48
100
AcDbEntity
  8
1
  6
PHANTOM
 62
     4
100
AcDbLine
 10
210.0000000000001
 20
0.0
 30
0.0
 11
210.0000000000001
 21
297.0
 31
0.0
  0
LINE
  5
7E
330
48
100
AcDbEntity
  8
1
  6
PHANTOM
 62
     4
100
AcDbLine
 10
0.0
 20
0.0
 30
0.0
 11
210.0000000000001
 21
0.0
 31
0.0
  0
LINE
  5
7F
330
48
100
AcDbEntity
  8
1
  6
Continuous
 62
     7
100
AcDbLine
 10
24.99999999999999
 20
41.0
 30
0.0
 11
200.0000000000001
 21
41.0
 31
0.0
  0
LINE
  5
80
330
48
100
AcDbEntity
  8
1
  6
Continuous
 62
     7
100
AcDbLine
 10
200.0000000000001
 20
27.00000000000001
 30
0.0
 11
24.99999999999999
 21
27.00000000000001
 31
0.0
  0
LINE
  5
81
330
48
100
AcDbEntity
  8
1
  6
Continuous
 62
     2
100
AcDbLine
 10
32.99999999999999
 20
41.0
 30
0.0
 11
32.99999999999999
 21
27.0
 31
0.0
  0
LINE
  5
82
330
48
100
AcDbEntity
  8
1
  6
Continuous
 62
     2
100
AcDbLine
 10
55.00000000000003
 20
287.0000000000003
 30
0.0
 11
55.00000000000003
 21
277.0000000000003
 31
0.0
  0
LINE
  5
83
330
48
100
AcDbEntity
  8
1
  6
Continuous
 62
     2
100
AcDbLine
 10
40.0
 20
287.0000000000003
 30
0.0
 11
40.0
 21
277.0000000000003
 31
0.0
  0
LINE
  5
84
330
48
100
AcDbEntity
  8
1
  6
Continuous
 62
     7
100
AcDbLine
 10
24.99999999999999
 20
10.0
 30
0.0
 11
24.99999999999999
 21
148.5
 31
0.0
  0
LINE
  5
85
330
48
100
AcDbEntity
  8
1
  6
Continuous
 62
     2
100
AcDbLine
 10
55.00000000000003
 20
277.0000000000003
 30
0.0
 11
24.99999999999999
 21
277.0000000000003
 31
0.0
  0
LINE
  5
86
330
48
100
AcDbEntity
  8
1
  6
Continuous
 62
     2
100
AcDbLine
 10
166.0
 20
27.00000000000001
 30
0.0
 11
166.0
 21
10.0
 31
0.0
  0
LINE
  5
87
330
48
100
AcDbEntity
  8
1
  6
Continuous
 62
     2
100
AcDbLine
 10
132.0
 20
27.00000000000001
 30
0.0
 11
132.0
 21
9.99999999999998
 31
0.0
  0
LINE
  5
88
330
48
100
AcDbEntity
  8
1
  6
Continuous
 62
     2
100
AcDbLine
 10
149.0
 20
27.00000000000001
 30
0.0
 11
149.0
 21
10.0
 31
0.0
  0
LINE
  5
89
330
48
100
AcDbEntity
  8
1
  6
Continuous
 62
     2
100
AcDbLine
 10
115.0
 20
27.00000000000001
 30
0.0
 11
115.0
 21
9.99999999999999
 31
0.0
  0
LINE
  5
8A
330
48
100
AcDbEntity
  8
1
  6
Continuous
 62
     2
100
AcDbLine
 10
98.00000000000003
 20
27.00000000000001
 30
0.0
 11
98.00000000000003
 21
9.99999999999999
 31
0.0
  0
LINE
  5
8B
330
48
100
AcDbEntity
  8
1
  6
Continuous
 62
     2
100
AcDbLine
 10
166.0
 20
20.00000000000001
 30
0.0
 11
200.0000000000001
 21
20.00000000000001
 31
0.0
  0
LINE
  5
8C
330
48
100
AcDbEntity
  8
1
  6
Continuous
 62
     2
100
AcDbLine
 10
105.0
 20
287.0000000000003
 30
0.0
 11
105.0
 21
292.0000000000003
 31
0.0
  0
LINE
  5
8D
330
48
100
AcDbEntity
  8
1
  6
Continuous
 62
     7
100
AcDbLine
 10
105.0
 20
287.0000000000003
 30
0.0
 11
24.99999999999999
 21
287.0000000000003
 31
0.0
  0
LINE
  5
8E
330
48
100
AcDbEntity
  8
1
  6
Continuous
 62
     2
100
AcDbLine
 10
24.99999999999999
 20
148.5
 30
0.0
 11
19.99999999999999
 21
148.5
 31
0.0
  0
LINE
  5
8F
330
48
100
AcDbEntity
  8
1
  6
Continuous
 62
     7
100
AcDbLine
 10
24.99999999999999
 20
148.5
 30
0.0
 11
24.99999999999999
 21
287.0000000000003
 31
0.0
  0
LINE
  5
90
330
48
100
AcDbEntity
  8
1
  6
Continuous
 62
     2
100
AcDbLine
 10
200.0000000000001
 20
148.5
 30
0.0
 11
205.0000000000001
 21
148.5
 31
0.0
  0
LINE
  5
91
330
48
100
AcDbEntity
  8
1
  6
Continuous
 62
     7
100
AcDbLine
 10
200.0000000000001
 20
148.5
 30
0.0
 11
200.0000000000001
 21
287.0000000000003
 31
0.0
  0
LINE
  5
92
330
48
100
AcDbEntity
  8
1
  6
Continuous
 62
     2
100
AcDbLine
 10
105.0
 20
10.0
 30
0.0
 11
105.0
 21
5.0
 31
0.0
  0
LINE
  5
93
330
48
100
AcDbEntity
  8
1
  6
Continuous
 62
     7
100
AcDbLine
 10
105.0
 20
10.0
 30
0.0
 11
200.0000000000001
 21
10.0
 31
0.0
  0
CIRCLE
  5
98
330
48
100
AcDbEntity
  8
1
  6
DOT_CENTER
 62
     7
100
AcDbCircle
 10
89.50000000000003
 20
18.0
 30
0.0
 40
0.1000000000000227
  0
CIRCLE
  5
99
330
48
100
AcDbEntity
  8
1
  6
DOT_CENTER
 62
     7
100
AcDbCircle
 10
89.50000000000003
 20
16.0
 30
0.0
 40
0.1000000000000227
  0
CIRCLE
  5
9A
330
48
100
AcDbEntity
  8
1
  6
Continuous
 62
     7
100
AcDbCircle
 10
187.0000000000001
 20
23.50000000000001
 30
0.0
 40
2.0
  0
CIRCLE
  5
9B
330
48
100
AcDbEntity
  8
1
  6
Continuous
 62
     7
100
AcDbCircle
 10
187.0000000000001
 20
23.50000000000001
 30
0.0
 40
1.199999999999989
  0
CIRCLE
  5
9C
330
48
100
AcDbEntity
  8
1
  6
Continuous
 62
     7
100
AcDbCircle
 10
154.5
 20
12.5
 30
0.0
 40
0.3000000000000114
  0
CIRCLE
  5
9D
330
48
100
AcDbEntity
  8
1
  6
Continuous
 62
     7
100
AcDbCircle
 10
160.5
 20
12.5
 30
0.0
 40
0.3000000000000114
  0
CIRCLE
  5
9E
330
48
100
AcDbEntity
  8
1
  6
Continuous
 62
     7
100
AcDbCircle
 10
143.5
 20
12.5
 30
0.0
 40
0.3000000000000114
  0
CIRCLE
  5
9F
330
48
100
AcDbEntity
  8
1
  6
Continuous
 62
     7
100
AcDbCircle
 10
137.5
 20
12.5
 30
0.0
 40
0.3000000000000114
  0
CIRCLE
  5
A0
330
48
100
AcDbEntity
  8
1
  6
Continuous
 62
     7
100
AcDbCircle
 10
126.5
 20
12.5
 30
0.0
 40
0.2999999999999972
  0
CIRCLE
  5
A1
330
48
100
AcDbEntity
  8
1
  6
Continuous
 62
     7
100
AcDbCircle
 10
120.5
 20
12.5
 30
0.0
 40
0.2999999999999972
  0
CIRCLE
  5
A2
330
48
100
AcDbEntity
  8
1
  6
Continuous
 62
     7
100
AcDbCircle
 10
109.5
 20
12.5
 30
0.0
 40
0.2999999999999972
  0
CIRCLE
  5
A3
330
48
100
AcDbEntity
  8
1
  6
Continuous
 62
     7
100
AcDbCircle
 10
103.5
 20
12.5
 30
0.0
 40
0.2999999999999972
  0
SPLINE
  5
A4
102
{ACAD_REACTORS
330
C2
102
}
330
48
100
AcDbEntity
  8
_U_30EC_U_30A4_U_30E4_U_30FC_1
  6
Continuous
 62
     2
100
AcDbSpline
210
0.0
220
0.0
230
1.0
 70
    11
 71
     3
 72
    99
 73
    95
 74
    93
 42
0.000000001
 43
0.0000000001
 44
0.00000001
 40
0.0
 40
0.0
 40
0.0
 40
0.0
 40
0.0796417172272903
 40
0.1621768542356673
 40
0.2486489160958289
 40
0.3404969668525239
 40
0.4381912511165262
 40
0.5434463660245563
 40
0.65181151928476
 40
0.7530190937887444
 40
0.8492196919724968
 40
0.9419290312998021
 40
1.034249663570026
 40
1.129078600620178
 40
1.226697027573238
 40
1.327220425421703
 40
1.470572134938025
 40
1.595489863371239
 40
1.7199341253484
 40
1.85057662012744
 40
1.989059629987305
 40
2.134139054226949
 40
2.280698007207237
 40
2.424529739039501
 40
2.565929576985872
 40
2.708239260773507
 40
2.861717887443667
 40
3.045168540347372
 40
3.183798301138618
 40
3.314813961455459
 40
3.442083470447315
 40
3.569912708372975
 40
3.702177512509418
 40
3.842307559659534
 40
3.992872223245937
 40
4.156750662218326
 40
4.310981861107633
 40
4.44585990932268
 40
4.57239393613162
 40
4.701656719781989
 40
4.768279086008476
 40
4.835960697898422
 40
4.912788918729339
 40
5.006285208481553
 40
5.026909478751629
 40
5.047533749021194
 40
5.101808031471245
 40
5.162325165538558
 40
5.226919745995875
 40
5.294231806596742
 40
5.364544852554872
 40
5.438319055467867
 40
5.51787765132423
 40
5.607647714861598
 40
5.700449642544445
 40
5.788251142364175
 40
5.872714706039778
 40
5.955167292575225
 40
6.037192395190392
 40
6.12066918146912
 40
6.206848616686335
 40
6.296680855416756
 40
6.442558392872581
 40
6.568190371608233
 40
6.692904567360374
 40
6.824220446557077
 40
6.963121850329417
 40
7.107843738851204
 40
7.253431663907266
 40
7.395187468036635
 40
7.53314075323776
 40
7.670550457175247
 40
7.816236511769253
 40
7.98769165735921
 40
8.142277421969244
 40
8.29366261541501
 40
8.44296246087927
 40
8.59159831618532
 40
8.743678992361792
 40
8.903725323699176
 40
9.076307008890469
 40
9.265578604680496
 40
9.459203795360727
 40
9.617619810273432
 40
9.753609671361842
 40
9.874873300004056
 40
9.954520184977767
 40
10.02416413719244
 40
10.09769764405444
 40
10.18909955924971
 40
10.20974586420138
 40
10.23039218263387
 40
10.30057101881272
 40
10.37632012987548
 40
10.37632012987548
 40
10.37632012987548
 40
10.37632012987548
 10
170.1465954835851
 20
14.13795663215994
 30
0.0
 10
170.1632217851219
 20
14.11720608845313
 30
0.0
 10
170.1970784206578
 20
14.07495111711901
 30
0.0
 10
170.2599822541036
 20
14.02029811392072
 30
0.0
 10
170.3332500940393
 20
13.9729902512105
 30
0.0
 10
170.4175969238637
 20
13.93527231437935
 30
0.0
 10
170.5132240615461
 20
13.91040619731951
 30
0.0
 10
170.6171853775346
 20
13.90309559345937
 30
0.0
 10
170.7224020220406
 20
13.91142322794054
 30
0.0
 10
170.8206626371334
 20
13.94149179651526
 30
0.0
 10
170.9058986427548
 20
13.98848822971879
 30
0.0
 10
170.9779220206103
 20
14.04952991250857
 30
0.0
 10
171.0350917709096
 20
14.12412969578583
 30
0.0
 10
171.0767868747439
 20
14.21002464660175
 30
0.0
 10
171.1026952846293
 20
14.3048585043221
 30
0.0
 10
171.1118037332654
 20
14.41854979038367
 30
0.0
 10
171.0986864796487
 20
14.54332587770779
 30
0.0
 10
171.0325330334414
 20
14.66014719171891
 30
0.0
 10
170.9369370919569
 20
14.74512539577375
 30
0.0
 10
170.8249681022369
 20
14.81416684459159
 30
0.0
 10
170.699365958327
 20
14.87204142045892
 30
0.0
 10
170.5656691620856
 20
14.92373723284339
 30
0.0
 10
170.4313122818831
 20
14.97899092397181
 30
0.0
 10
170.3051983986877
 20
15.04939770641649
 30
0.0
 10
170.1926579987534
 20
15.13785540731246
 30
0.0
 10
170.0969963064459
 20
15.24981067868477
 30
0.0
 10
170.0334157151825
 20
15.39949910101379
 30
0.0
 10
170.0200706505016
 20
15.55932794385142
 30
0.0
 10
170.0320510987448
 20
15.71048405306844
 30
0.0
 10
170.071229892884
 20
15.83809244591538
 30
0.0
 10
170.135498775091
 20
15.95080874030844
 30
0.0
 10
170.223820499974
 20
16.04648609268688
 30
0.0
 10
170.3338091207628
 20
16.12354214985749
 30
0.0
 10
170.4632284401264
 20
16.18151396936279
 30
0.0
 10
170.6111838967793
 20
16.21739177588822
 30
0.0
 10
170.7682069455487
 20
16.22746719050564
 30
0.0
 10
170.9174940466431
 20
16.2186363776259
 30
0.0
 10
171.059625361417
 20
16.19074899340352
 30
0.0
 10
171.1595922609626
 20
16.13413314701136
 30
0.0
 10
171.3125074736185
 20
16.08674602105506
 30
0.0
 10
171.2455131717168
 20
16.00197553001184
 30
0.0
 10
171.2296479120269
 20
15.93438901873484
 30
0.0
 10
171.1978750531296
 20
15.86926092793188
 30
0.0
 10
171.2150202209572
 20
15.76723453256954
 30
0.0
 10
171.1666427208231
 20
15.77493211681901
 30
0.0
 10
171.1315789440766
 20
15.76806771724807
 30
0.0
 10
171.1296697985719
 20
15.83263831158198
 30
0.0
 10
171.0985692931988
 20
15.87825639621393
 30
0.0
 10
171.0664551628456
 20
15.93561036628455
 30
0.0
 10
171.0208038475168
 20
15.98540462692557
 30
0.0
 10
170.9658508218387
 20
16.02994813718994
 30
0.0
 10
170.9010841173009
 20
16.06763988836551
 30
0.0
 10
170.8232377310597
 20
16.09283375791351
 30
0.0
 10
170.7355160553353
 20
16.0993123099811
 30
0.0
 10
170.6452903277806
 20
16.09235709285605
 30
0.0
 10
170.5594594694065
 20
16.0690919046092
 30
0.0
 10
170.4828343638596
 20
16.03131644107548
 30
0.0
 10
170.4165265636202
 20
15.98051641089567
 30
0.0
 10
170.3622560536964
 20
15.91731143407214
 30
0.0
 10
170.3224925345458
 20
15.84276455710368
 30
0.0
 10
170.2976775510589
 20
15.75917313997762
 30
0.0
 10
170.289212426287
 20
15.65192948382284
 30
0.0
 10
170.3019697987105
 20
15.52965457267562
 30
0.0
 10
170.3681548409272
 20
15.41149724291205
 30
0.0
 10
170.4640977399833
 20
15.32606325709533
 30
0.0
 10
170.5757914963182
 20
15.25583362306716
 30
0.0
 10
170.7010863668703
 20
15.19659162305307
 30
0.0
 10
170.8349823941449
 20
15.14616708086132
 30
0.0
 10
170.9689930333151
 20
15.09322516984382
 30
0.0
 10
171.0950885316915
 20
15.02750170625171
 30
0.0
 10
171.2076216638418
 20
14.94480352537324
 30
0.0
 10
171.3031370284234
 20
14.83996006310074
 30
0.0
 10
171.3672706486963
 20
14.69937117251569
 30
0.0
 10
171.3811103725279
 20
14.54065409451592
 30
0.0
 10
171.3673954712229
 20
14.38153155217875
 30
0.0
 10
171.3244739153985
 20
14.2348382881921
 30
0.0
 10
171.2545906329065
 20
14.10119796587141
 30
0.0
 10
171.1574592213829
 20
13.98532387699291
 30
0.0
 10
171.0347806023657
 20
13.89089981770087
 30
0.0
 10
170.8874408413168
 20
13.82179270651982
 30
0.0
 10
170.7177132497125
 20
13.77953210858852
 30
0.0
 10
170.5317404979597
 20
13.76781736230408
 30
0.0
 10
170.3528955926184
 20
13.77809486683434
 30
0.0
 10
170.1881733753744
 20
13.81966573769157
 30
0.0
 10
170.0834410841057
 20
13.88797642883941
 30
0.0
 10
169.9350960790365
 20
13.93675219032104
 30
0.0
 10
169.9980378194729
 20
14.02976591290841
 30
0.0
 10
170.007227443006
 20
14.1029653624828
 30
0.0
 10
170.0303711301232
 20
14.16936294501346
 30
0.0
 10
170.0034588335317
 20
14.26974809527583
 30
0.0
 10
170.0521338956339
 20
14.26234033517377
 30
0.0
 10
170.0916530580697
 20
14.26894063620896
 30
0.0
 10
170.0996204944703
 20
14.19078703218935
 30
0.0
 10
170.1305436967923
 20
14.15600927375857
 30
0.0
 10
170.1465954835851
 20
14.13795663215994
 30
0.0
 11
170.1465954835851
 21
14.13795663215994
 31
0.0
 11
170.1982038075864
 21
14.07729869814735
 31
0.0
 11
170.2601105501336
 21
14.02271295163319
 31
0.0
 11
170.3327764009803
 21
13.97583980928383
 31
0.0
 11
170.4166468655844
 21
13.93839906276537
 31
0.0
 11
170.511221073241
 21
13.91390636311877
 31
0.0
 11
170.6161603327166
 21
13.90575829888472
 31
0.0
 11
170.7240739497552
 21
13.91564048638223
 31
0.0
 11
170.8208419941617
 21
13.94528704887482
 31
0.0
 11
170.9050776083319
 21
13.99175118948819
 31
0.0
 11
170.9756144207686
 21
14.0519141321815
 31
0.0
 11
171.031944210998
 21
14.1250581946632
 31
0.0
 11
171.0736690016003
 21
14.21021434047522
 31
0.0
 11
171.0994680808033
 21
14.30436190989612
 31
0.0
 11
171.1080824729447
 21
14.4045155209822
 31
0.0
 11
171.0878517703357
 21
14.54643250879397
 31
0.0
 11
171.0272522666731
 21
14.65566684036387
 31
0.0
 11
170.9364971286286
 21
14.74081306430094
 31
0.0
 11
170.826010188474
 21
14.81052746532516
 31
0.0
 11
170.7008523531254
 21
14.86979854169922
 31
0.0
 11
170.5662951950998
 21
14.9240425347412
 31
0.0
 11
170.4316884277007
 21
14.98201274306004
 31
0.0
 11
170.3065802017258
 21
15.05297399304231
 31
0.0
 11
170.196027609828
 21
15.14113315968694
 31
0.0
 11
170.1053381235266
 21
15.25080295132616
 31
0.0
 11
170.0447055469484
 21
15.39179720476315
 31
0.0
 11
170.0245079172553
 21
15.57413260402313
 31
0.0
 11
170.0374030471347
 21
15.71216131926641
 31
0.0
 11
170.0761016659391
 21
15.83733128451288
 31
0.0
 11
170.1393141731506
 21
15.94779262129083
 31
0.0
 11
170.2257499954545
 21
16.04196885390621
 31
0.0
 11
170.3336492808963
 21
16.1184654077065
 31
0.0
 11
170.4613526283328
 21
16.17615670109487
 31
0.0
 11
170.6075393259923
 21
16.21220066809973
 31
0.0
 11
170.770976856545
 21
16.22421385386062
 31
0.0
 11
170.924891843129
 21
16.21434269066863
 31
0.0
 11
171.0564887242608
 21
16.18477329831496
 31
0.0
 11
171.172563634494
 21
16.13439993895251
 31
0.0
 11
171.2800792741122
 21
16.06264163167877
 31
0.0
 11
171.2516994050444
 21
16.00236624106886
 31
0.0
 11
171.2284855254283
 21
15.93879017337647
 31
0.0
 11
171.2078381040801
 21
15.86478841992269
 31
0.0
 11
171.1871840681487
 21
15.77360197897327
 31
0.0
 11
171.1665597978415
 21
15.77360197897327
 31
0.0
 11
171.1459355275343
 21
15.77360197897327
 31
0.0
 11
171.1256706495791
 21
15.82395108486346
 31
0.0
 11
171.0994658759421
 21
15.87850045116929
 31
0.0
 11
171.0650468924451
 21
15.93316116296114
 31
0.0
 11
171.0203554612937
 21
15.9834959372541
 31
0.0
 11
170.9657333359511
 21
16.02777175321528
 31
0.0
 11
170.9016722004327
 21
16.064361423345
 31
0.0
 11
170.8259682961141
 21
16.08882545979726
 31
0.0
 11
170.7365722046449
 21
16.09701100667021
 31
0.0
 11
170.6440937174207
 21
16.089269739311
 31
0.0
 11
170.5594072091645
 21
16.06609003445565
 31
0.0
 11
170.483702448884
 21
16.02863495634008
 31
0.0
 11
170.4183754766517
 21
15.97832774281102
 31
0.0
 11
170.3650487887664
 21
15.91600293379879
 31
0.0
 11
170.3254809233901
 21
15.84249947895607
 31
0.0
 11
170.3009523754712
 21
15.75988443557391
 31
0.0
 11
170.2927954104109
 21
15.67042329844352
 31
0.0
 11
170.3130095765618
 21
15.52595308146573
 31
0.0
 11
170.373625616682
 21
15.41591177072936
 31
0.0
 11
170.4643479320759
 21
15.33033670130631
 31
0.0
 11
170.5748676948813
 21
15.25941954854625
 31
0.0
 11
170.700008993772
 21
15.19914305550579
 31
0.0
 11
170.8345826882554
 21
15.14590447913021
 31
0.0
 11
170.9691729191968
 21
15.09039489581073
 31
0.0
 11
171.0942976816297
 21
15.0237728124941
 31
0.0
 11
171.2048009079771
 21
14.94118863716749
 31
0.0
 11
171.2955397598289
 21
14.83800003476272
 31
0.0
 11
171.3561557999489
 21
14.70552315979584
 31
0.0
 11
171.3763699660998
 21
14.53526378483839
 31
0.0
 11
171.3621839747998
 21
14.38133030397412
 31
0.0
 11
171.3196087009193
 21
14.23605531269097
 31
0.0
 11
171.2499752884265
 21
14.10398854189068
 31
0.0
 11
171.1544992078713
 21
13.99007218775247
 31
0.0
 11
171.0341060772624
 21
13.89715272597017
 31
0.0
 11
170.8896160201846
 21
13.8283235766818
 31
0.0
 11
170.7223519532714
 21
13.78581275203967
 31
0.0
 11
170.5336103348227
 21
13.77165864614041
 31
0.0
 11
170.3405031726388
 21
13.78581275203967
 31
0.0
 11
170.1878975900912
 21
13.8283235766818
 31
0.0
 11
170.0661897942203
 21
13.88899033013889
 31
0.0
 11
169.9660261826363
 21
13.95734322942736
 31
0.0
 11
169.9922320587039
 21
14.03255545163076
 31
0.0
 11
170.0090121537618
 21
14.10014767383612
 31
0.0
 11
170.0206196447852
 21
14.17275926235962
 31
0.0
 11
170.0313606254139
 21
14.26352788212859
 31
0.0
 11
170.0520069443316
 21
14.26352788212859
 31
0.0
 11
170.0726532632493
 21
14.26352788212859
 31
0.0
 11
170.104891639163
 21
14.20119204881084
 31
0.0
 11
170.1465954835851
 21
14.13795663215994
 31
0.0
  0
SPLINE
  5
A5
102
{ACAD_REACTORS
330
C3
102
}
330
48
100
AcDbEntity
  8
_U_30EC_U_30A4_U_30E4_U_30FC_1
  6
Continuous
 62
     2
100
AcDbSpline
210
0.0
220
0.0
230
1.0
 70
    11
 71
     3
 72
    57
 73
    53
 74
    51
 42
0.000000001
 43
0.0000000001
 44
0.00000001
 40
0.0
 40
0.0
 40
0.0
 40
0.0
 40
0.0471632082809235
 40
0.0914861054632153
 40
0.1357762519702104
 40
0.1826527001609831
 40
0.2295203288571739
 40
0.2737751972220762
 40
0.3181310461542219
 40
0.3652607198398507
 40
0.4571007286314303
 40
0.5671851029165205
 40
0.6894623283868357
 40
0.8181758272545977
 40
0.9510087229273785
 40
1.085852229674057
 40
1.218126164475315
 40
1.343545131142385
 40
1.454537202956801
 40
1.567187607530725
 40
1.680710966642315
 40
1.794226869736708
 40
1.900009184247536
 40
2.004085860447872
 40
2.10816267445176
 40
2.214000150155304
 40
2.496038577352119
 40
2.762350745479278
 40
2.997275353279409
 40
3.185110082137733
 40
3.246407890063904
 40
3.312607550212578
 40
3.378877742711565
 40
3.440140399651448
 40
4.100501696006494
 40
4.754913085563516
 40
5.411331693423929
 40
6.077890432568712
 40
6.11057529267099
 40
6.14326015277577
 40
6.367989363395188
 40
6.61052537495156
 40
6.863389136467336
 40
7.119380025547641
 40
7.376036605091128
 40
7.631164770966343
 40
7.876722425456435
 40
8.104953735855968
 40
8.312916685924307
 40
8.49773029494132
 40
8.651018984313874
 40
8.764738853624594
 40
8.764738853624594
 40
8.764738853624594
 40
8.764738853624594
 10
174.7922649500513
 20
13.81626739612927
 30
0.0
 10
174.7766616726931
 20
13.81826231079078
 30
0.0
 10
174.7463947960301
 20
13.82213201360298
 30
0.0
 10
174.7010994202253
 20
13.82341984967268
 30
0.0
 10
174.6559553129349
 20
13.82308683554051
 30
0.0
 10
174.60990171234
 20
13.82314658674223
 30
0.0
 10
174.5640496172097
 20
13.82325813650001
 30
0.0
 10
174.5183711648165
 20
13.8227783345659
 30
0.0
 10
174.4750811541608
 20
13.8246110961872
 30
0.0
 10
174.4039947951514
 20
13.80049556814655
 30
0.0
 10
174.4057477261442
 20
13.92184693977253
 30
0.0
 10
174.358619637057
 20
14.00726239751232
 30
0.0
 10
174.3191478251761
 20
14.12486929345135
 30
0.0
 10
174.2706635532645
 20
14.24232752540437
 30
0.0
 10
174.2201017402523
 20
14.36405935761512
 30
0.0
 10
174.1718634610477
 20
14.49075967862464
 30
0.0
 10
174.1135232947595
 20
14.59933687784952
 30
0.0
 10
174.0980892667261
 20
14.7562065713441
 30
0.0
 10
173.9566586330636
 20
14.72373446548322
 30
0.0
 10
173.8508397414905
 20
14.7351288868218
 30
0.0
 10
173.7358569725222
 20
14.73392591514615
 30
0.0
 10
173.6253142252142
 20
14.73506945347408
 30
0.0
 10
173.5176583522783
 20
14.73418350037526
 30
0.0
 10
173.4121322529243
 20
14.73416602390519
 30
0.0
 10
173.3109192682013
 20
14.72714032472415
 30
0.0
 10
173.1266804827752
 20
14.75135859859867
 30
0.0
 10
173.1157393685413
 20
14.44741691121883
 30
0.0
 10
173.008769163475
 20
14.22353177253398
 30
0.0
 10
172.9098148604346
 20
14.03895314292497
 30
0.0
 10
172.9225090524007
 20
13.79530204804207
 30
0.0
 10
172.8050091716397
 20
13.82508046753196
 30
0.0
 10
172.7422055868311
 20
13.82258089509603
 30
0.0
 10
172.67858720934
 20
13.82344075102805
 30
0.0
 10
172.3946014194075
 20
13.78098039941947
 30
0.0
 10
173.0251638499382
 20
14.50081952444781
 30
0.0
 10
173.1087645289071
 20
15.0127653943573
 30
0.0
 10
173.4929252789339
 20
15.53353743550041
 30
0.0
 10
173.4777208288565
 20
16.23519626253216
 30
0.0
 10
173.7239265722697
 20
16.22345633081256
 30
0.0
 10
173.8256346157562
 20
16.23225004452773
 30
0.0
 10
173.8249752035818
 20
15.98059650730349
 30
0.0
 10
173.9428317155828
 20
15.79818020733956
 30
0.0
 10
174.0315515260485
 20
15.55563740662864
 30
0.0
 10
174.1322292485261
 20
15.32340030530132
 30
0.0
 10
174.2311142712242
 20
15.08674644566909
 30
0.0
 10
174.3299676990671
 20
14.85461739170097
 30
0.0
 10
174.4256166390926
 20
14.63122222788786
 30
0.0
 10
174.5159904573271
 20
14.42272549049316
 30
0.0
 10
174.5989944568189
 20
14.23308448529319
 30
0.0
 10
174.6726088582799
 20
14.06663106068098
 30
0.0
 10
174.7342815895546
 20
13.92917699626098
 30
0.0
 10
174.7749458885604
 20
13.84999239430034
 30
0.0
 10
174.7922649500513
 20
13.81626739612927
 30
0.0
 11
174.7922649500513
 21
13.81626739612927
 31
0.0
 11
174.7453878317448
 21
13.82145433189185
 31
0.0
 11
174.7010975896125
 21
13.82315538223862
 31
0.0
 11
174.6568074431729
 21
13.82315538223862
 31
0.0
 11
174.609930994716
 21
13.82315538223862
 31
0.0
 11
174.5630633657034
 21
13.82315538223862
 31
0.0
 11
174.5188084970408
 21
13.82315538223862
 31
0.0
 11
174.4744852776855
 21
13.82145433189185
 31
0.0
 11
174.4276419021443
 21
13.81626739612927
 31
0.0
 11
174.3992532136326
 21
13.90360966173244
 31
0.0
 11
174.3622721815898
 21
14.00729656274819
 31
0.0
 11
174.3188386236701
 21
14.12159987001127
 31
0.0
 11
174.2711055866936
 21
14.24113531268969
 31
0.0
 11
174.2208160133237
 21
14.36408057307565
 31
0.0
 11
174.1696467003932
 21
14.48883822929446
 31
0.0
 11
174.1197531801326
 21
14.61134141502772
 31
0.0
 11
174.0733119111841
 21
14.72784517367917
 31
0.0
 11
173.9623611907589
 21
14.73087465284506
 31
0.0
 11
173.849730922509
 21
14.7330045486779
 31
0.0
 11
173.736215206945
 21
14.7343219531914
 31
0.0
 11
173.6227000476801
 21
14.73473315978852
 31
0.0
 11
173.5169185312816
 21
14.7343219531914
 31
0.0
 11
173.4128501919225
 21
14.7330045486779
 31
0.0
 11
173.3087951724045
 21
14.73087465284506
 31
0.0
 11
173.2030010615596
 21
14.72784517367917
 31
0.0
 11
173.0980914750139
 21
14.4660443751335
 31
0.0
 11
173.0034868690331
 21
14.2171023265846
 31
0.0
 11
172.9252231210298
 21
13.99559756969557
 31
0.0
 11
172.8693431224555
 21
13.81626739612927
 31
0.0
 11
172.8082651639442
 21
13.82145433189185
 31
0.0
 11
172.7420873618131
 21
13.82315538223862
 31
0.0
 11
172.6758390041282
 21
13.82145433189185
 31
0.0
 11
172.6147963233938
 21
13.81626739612927
 31
0.0
 11
172.8899684951931
 21
14.41656508695142
 31
0.0
 11
173.158294573417
 21
15.01343642360774
 31
0.0
 11
173.4240277350405
 21
15.61366245644381
 31
0.0
 11
173.6914740737033
 21
16.22421385386062
 31
0.0
 11
173.7241589339806
 21
16.22421385386062
 31
0.0
 11
173.7568437942579
 21
16.22421385386062
 31
0.0
 11
173.8428300681058
 21
16.01658539037083
 31
0.0
 11
173.9357285813609
 21
15.79254614563517
 31
0.0
 11
174.0328714521464
 21
15.55908663180468
 31
0.0
 11
174.1317936458032
 21
15.32298128464146
 31
0.0
 11
174.2315341249927
 21
15.08649780379783
 31
0.0
 11
174.3313071129354
 21
14.8516878125371
 31
0.0
 11
174.4280608257449
 21
14.6259949219685
 31
0.0
 11
174.5188084970408
 21
14.41658052097919
 31
0.0
 11
174.6022150834546
 21
14.2260761113046
 31
0.0
 11
174.6770293263377
 21
14.05708232662466
 31
0.0
 11
174.7410729186603
 21
13.91781337700667
 31
0.0
 11
174.7922649500513
 21
13.81626739612927
 31
0.0
  0
SPLINE
  5
A6
102
{ACAD_REACTORS
330
C3
102
}
330
48
100
AcDbEntity
  8
_U_30EC_U_30A4_U_30E4_U_30FC_1
  6
Continuous
 62
     2
100
AcDbSpline
210
0.0
220
0.0
230
1.0
 70
    11
 71
     3
 72
    25
 73
    21
 74
    19
 42
0.000000001
 43
0.0000000001
 44
0.00000001
 40
0.0
 40
0.0
 40
0.0
 40
0.0
 40
0.091147996906539
 40
0.1858117896205802
 40
0.2804128399735343
 40
0.3715889190715647
 40
0.4679080494219561
 40
0.5642683809229231
 40
0.6605683222645559
 40
0.7569653015810256
 40
0.8561348172522739
 40
1.092615965104292
 40
1.374867658141875
 40
1.611348812011601
 40
1.710518328425249
 40
1.809403163726568
 40
2.04520546329407
 40
2.32664691762213
 40
2.562449217190592
 40
2.661334043833911
 40
2.661334043833911
 40
2.661334043833911
 40
2.661334043833911
 10
173.2683700567199
 20
14.88614538197292
 30
0.0
 10
173.2987525917922
 20
14.88598079714554
 30
0.0
 10
173.3606895889112
 20
14.88564528689922
 30
0.0
 10
173.454135696033
 20
14.88269055452
 30
0.0
 10
173.5475095236358
 20
14.8797775287715
 30
0.0
 10
173.6417760753477
 20
14.87894201643417
 30
0.0
 10
173.7354964790967
 20
14.87996644658046
 30
0.0
 10
173.8352040303205
 20
14.87916977470972
 30
0.0
 10
173.9188949546312
 20
14.88921410235219
 30
0.0
 10
174.0637996315045
 20
14.86234617674167
 30
0.0
 10
173.9396132444801
 20
15.03665530280049
 30
0.0
 10
173.8965867286282
 20
15.19651711006091
 30
0.0
 10
173.780892214221
 20
15.45518458550216
 30
0.0
 10
173.7017565431257
 20
15.59231052861858
 30
0.0
 10
173.6431576621816
 20
15.80937033134077
 30
0.0
 10
173.5864803939438
 20
15.59266134213428
 30
0.0
 10
173.5052809900478
 20
15.45327012438236
 30
0.0
 10
173.4063701281487
 20
15.20406969370194
 30
0.0
 10
173.325362509426
 20
15.01925830226074
 30
0.0
 10
173.2813683325838
 20
14.91650446856116
 30
0.0
 10
173.2683700567199
 20
14.88614538197292
 30
0.0
 11
173.2683700567199
 21
14.88614538197292
 31
0.0
 11
173.3595137737821
 21
14.88526123266759
 31
0.0
 11
173.4541428297582
 21
14.88269697919599
 31
0.0
 11
173.5487082179706
 21
14.88009965280777
 31
0.0
 11
173.6398803250197
 21
14.8792485764191
 31
0.0
 11
173.7361985777707
 21
14.87965978301621
 31
0.0
 11
173.8325499034376
 21
14.88097718752971
 31
0.0
 11
173.9288262638287
 21
14.88310818579312
 31
0.0
 11
174.0251753846343
 21
14.88614538197292
 31
0.0
 11
173.9854633323141
 21
14.9770164219502
 31
0.0
 11
173.8907653613968
 21
15.19370890189602
 31
0.0
 11
173.7777387509471
 21
15.45234186183135
 31
0.0
 11
173.6830407800297
 21
15.66903434177717
 31
0.0
 11
173.6433287277095
 21
15.75990538175445
 31
0.0
 11
173.6043330259266
 21
15.66903434177717
 31
0.0
 11
173.5113432755212
 21
15.45234186183135
 31
0.0
 11
173.4003555089082
 21
15.19370890189602
 31
0.0
 11
173.3073657585028
 21
14.9770164219502
 31
0.0
 11
173.2683700567199
 21
14.88614538197292
 31
0.0
  0
SPLINE
  5
A7
102
{ACAD_REACTORS
330
C4
102
}
330
48
100
AcDbEntity
  8
_U_30EC_U_30A4_U_30E4_U_30FC_1
  6
Continuous
 62
     2
100
AcDbSpline
210
0.0
220
0.0
230
1.0
 70
    11
 71
     3
 72
    95
 73
    91
 74
    89
 42
0.000000001
 43
0.0000000001
 44
0.00000001
 40
0.0
 40
0.0
 40
0.0
 40
0.0
 40
0.6550406656911935
 40
1.308087289031959
 40
1.420803739835833
 40
1.566130759770819
 40
1.757067341888494
 40
2.0065135450265
 40
2.087328263121588
 40
2.185328872295661
 40
2.294612454748404
 40
2.408936380534857
 40
2.526802767798597
 40
2.646360524615643
 40
2.762535723971618
 40
2.870057342870194
 40
2.966883448431685
 40
3.050803243518333
 40
3.115818222436643
 40
3.156030057150273
 40
3.213914225080118
 40
3.276689026450575
 40
3.342960320981324
 40
3.404230667150516
 40
3.453822809493321
 40
3.532499827188371
 40
3.634775188507112
 40
3.754909333008108
 40
3.889736761660607
 40
4.035769602175172
 40
4.187256681197555
 40
4.338733685675904
 40
4.488478734676071
 40
4.634708317831533
 40
4.771493189921221
 40
4.89268657156116
 40
5.199775528944396
 40
5.460353566929586
 40
5.66760314234546
 40
5.814722905404441
 40
5.828990806219739
 40
5.855488336304436
 40
5.869756237118768
 40
6.189796507762795
 40
6.531890469873026
 40
6.883053637016957
 40
7.230512024911502
 40
7.566966656764532
 40
7.885203559707437
 40
8.172887439719258
 40
8.41801159406278
 40
8.443926721190703
 40
8.51076047061319
 40
8.602145393795702
 40
8.701714041647145
 40
8.793098965075378
 40
8.859932715057951
 40
8.885847842603601
 40
9.24230125661281
 40
9.58927545501676
 40
9.921808543164172
 40
10.23479624298468
 40
10.29968150889187
 40
10.35323493887778
 40
10.40154625355154
 40
10.46482922477827
 40
10.55973900668407
 40
10.6923954598562
 40
10.84920353475674
 40
11.01626328594782
 40
11.18672024367445
 40
11.35372582577213
 40
11.50257442292429
 40
11.61866495023293
 40
11.71329869152878
 40
11.8251105057391
 40
11.94464880845718
 40
12.06929242642509
 40
12.19707290435179
 40
12.32562632860531
 40
12.45034565331282
 40
12.5664659517033
 40
12.67099007414638
 40
12.76077625936785
 40
12.82703233506697
 40
12.87429132785995
 40
12.89831990323335
 40
12.92234847860023
 40
13.53984767410321
 40
14.1829428435936
 40
14.1829428435936
 40
14.1829428435936
 40
14.1829428435936
 10
177.3067935648022
 20
14.70898038201724
 30
0.0
 10
177.1752019758551
 20
14.8226505860323
 30
0.0
 10
176.9124193802728
 20
15.04964496316154
 30
0.0
 10
176.3997393441025
 20
15.89214462956286
 30
0.0
 10
176.4106654595361
 20
15.53423377577021
 30
0.0
 10
176.4041226527993
 20
15.39267392272133
 30
0.0
 10
176.4028026631773
 20
15.19421305299281
 30
0.0
 10
176.4018117602537
 20
15.02150296045982
 30
0.0
 10
176.4024101751974
 20
14.87865373257579
 30
0.0
 10
176.4038994301882
 20
14.78265005413357
 30
0.0
 10
176.4055683588472
 20
14.6754550326314
 30
0.0
 10
176.407193495462
 20
14.56164211517582
 30
0.0
 10
176.4092429501685
 20
14.44441572604588
 30
0.0
 10
176.4123165501928
 20
14.3265641123297
 30
0.0
 10
176.4156339697043
 20
14.2122808732062
 30
0.0
 10
176.419360534028
 20
14.10521401867276
 30
0.0
 10
176.4217338161425
 20
14.01007408766921
 30
0.0
 10
176.4278718888359
 20
13.92558557205695
 30
0.0
 10
176.4239784495947
 20
13.86923087298142
 30
0.0
 10
176.4455230443077
 20
13.79825022472357
 30
0.0
 10
176.3680940058618
 20
13.82902677604484
 30
0.0
 10
176.3116353240191
 20
13.82011242517613
 30
0.0
 10
176.2540495896808
 20
13.82896218398275
 30
0.0
 10
176.1690163478473
 20
13.79738225225946
 30
0.0
 10
176.2009714146383
 20
13.8809515599219
 30
0.0
 10
176.1990705282539
 20
13.9488260896831
 30
0.0
 10
176.21079600473
 20
14.05233256764418
 30
0.0
 10
176.2164241053
 20
14.17002125616696
 30
0.0
 10
176.2237902178941
 20
14.30388609164422
 30
0.0
 10
176.2320759701611
 20
14.44764152872632
 30
0.0
 10
176.2398851897426
 20
14.59714022843445
 30
0.0
 10
176.2457571222657
 20
14.74792549402078
 30
0.0
 10
176.2503667817969
 20
14.89699943878437
 30
0.0
 10
176.2542632117542
 20
15.04122913163023
 30
0.0
 10
176.2570715126564
 20
15.17583905213017
 30
0.0
 10
176.2576698755022
 20
15.36469614347354
 30
0.0
 10
176.2616023867151
 20
15.58975494313154
 30
0.0
 10
176.2442175378497
 20
15.86367091125707
 30
0.0
 10
176.2850417342584
 20
16.02787112098597
 30
0.0
 10
176.1995153256001
 20
16.22749661465096
 30
0.0
 10
176.2660558907688
 20
16.22385458403978
 30
0.0
 10
176.283872427323
 20
16.22413447160853
 30
0.0
 10
176.4056801797504
 20
16.22632927398615
 30
0.0
 10
176.5080770335462
 20
15.94675118721511
 30
0.0
 10
176.7580021509358
 20
15.74563008536007
 30
0.0
 10
176.9870035331109
 20
15.47792614987908
 30
0.0
 10
177.224515121311
 20
15.22646413862384
 30
0.0
 10
177.4486090740771
 20
14.9896997406135
 30
0.0
 10
177.6750716283011
 20
14.73218692583082
 30
0.0
 10
177.8325687886515
 20
14.61649335056924
 30
0.0
 10
178.0472129612676
 20
14.27997152538793
 30
0.0
 10
178.0422645974619
 20
14.40464754091603
 30
0.0
 10
178.0433931602547
 20
14.46327691935736
 30
0.0
 10
178.0428877841517
 20
14.55043662371976
 30
0.0
 10
178.0430475158114
 20
14.64416143182872
 30
0.0
 10
178.0430054891319
 20
14.73018971297035
 30
0.0
 10
178.0430202040373
 20
14.79153891945495
 30
0.0
 10
178.0429706255985
 20
14.94135231520993
 30
0.0
 10
178.045881152281
 20
15.17989612510104
 30
0.0
 10
178.0259521041163
 20
15.544865098687
 30
0.0
 10
178.0750433936248
 20
15.80799631993413
 30
0.0
 10
177.917795150918
 20
16.21928904947752
 30
0.0
 10
178.0762112872421
 20
16.16398282551747
 30
0.0
 10
178.1311680478629
 20
16.16199686500175
 30
0.0
 10
178.182788776674
 20
16.16264778248254
 30
0.0
 10
178.2713198965365
 20
16.20369527738245
 30
0.0
 10
178.220489830317
 20
16.05696326622986
 30
0.0
 10
178.2313389930285
 20
15.95019971954432
 30
0.0
 10
178.2166036994847
 20
15.79085705414112
 30
0.0
 10
178.2099976446204
 20
15.62853061652874
 30
0.0
 10
178.2014961399915
 20
15.45992521892394
 30
0.0
 10
178.19432272022
 20
15.29814814703541
 30
0.0
 10
178.1889063215389
 20
15.15422331457932
 30
0.0
 10
178.1871713967648
 20
15.03437493466925
 30
0.0
 10
178.1875440672319
 20
14.92686101590514
 30
0.0
 10
178.1873656126263
 20
14.81820024645586
 30
0.0
 10
178.187701086314
 20
14.6995357016553
 30
0.0
 10
178.1890040622184
 20
14.5755516351274
 30
0.0
 10
178.1908887351574
 20
14.44858294171104
 30
0.0
 10
178.1925004454852
 20
14.32153861551032
 30
0.0
 10
178.194140313743
 20
14.19854884492177
 30
0.0
 10
178.1962570745751
 20
14.08300931383759
 30
0.0
 10
178.1963848422363
 20
13.98090903955837
 30
0.0
 10
178.2006514396554
 20
13.89009848838156
 30
0.0
 10
178.1908440085289
 20
13.83213621208786
 30
0.0
 10
178.2118474771689
 20
13.76517130132029
 30
0.0
 10
178.1725639739897
 20
13.77291153966688
 30
0.0
 10
177.9595307117745
 20
13.75755254145191
 30
0.0
 10
177.7636297943188
 20
14.31403058094469
 30
0.0
 10
177.4611197631544
 20
14.57556035348509
 30
0.0
 10
177.3067935648022
 20
14.70898038201724
 30
0.0
 11
177.3067935648022
 21
14.70898038201724
 31
0.0
 11
176.8595529338511
 21
15.18757635411977
 31
0.0
 11
176.4124049070644
 21
15.6635264928897
 31
0.0
 11
176.4089664262494
 21
15.55086249986232
 31
0.0
 11
176.4055610183501
 21
15.40557538184311
 31
0.0
 11
176.4029636920275
 21
15.21465645827968
 31
0.0
 11
176.4021126156603
 21
14.96521170139756
 31
0.0
 11
176.4025239230289
 21
14.88439802954279
 31
0.0
 11
176.4038420329817
 21
14.78640628477561
 31
0.0
 11
176.4055192267718
 21
14.67713557299739
 31
0.0
 11
176.4072367127519
 21
14.56282454872038
 31
0.0
 11
176.4094007838772
 21
14.44497802965265
 31
0.0
 11
176.4124049070644
 21
14.32545802100199
 31
0.0
 11
176.4158359733138
 21
14.20933349846156
 31
0.0
 11
176.4192928929999
 21
14.10186746550229
 31
0.0
 11
176.4227085253089
 21
14.00510162351264
 31
0.0
 11
176.4261896983794
 21
13.92125406276972
 31
0.0
 11
176.4296006184313
 21
13.85632862007759
 31
0.0
 11
176.4330776843148
 21
13.81626739612927
 31
0.0
 11
176.3754263821572
 21
13.82145433189185
 31
0.0
 11
176.3126746318309
 21
13.82315538223862
 31
0.0
 11
176.2464251717157
 21
13.82145433189185
 31
0.0
 11
176.1853747739676
 21
13.81626739612927
 31
0.0
 11
176.1926772737813
 21
13.8653189412559
 31
0.0
 11
176.2008793569054
 21
13.94356725720855
 31
0.0
 11
176.2090098822349
 21
14.04551893253029
 31
0.0
 11
176.2163406441397
 21
14.16542920159752
 31
0.0
 11
176.2236358280422
 21
14.30005912343889
 31
0.0
 11
176.2318444255596
 21
14.44586107652745
 31
0.0
 11
176.2395504149465
 21
14.59715203135073
 31
0.0
 11
176.2455763002093
 21
14.74850913200734
 31
0.0
 11
176.2503046247416
 21
14.89817951391436
 31
0.0
 11
176.254192897212
 21
15.04435739582222
 31
0.0
 11
176.2567527408965
 21
15.18111831592696
 31
0.0
 11
176.2576324804574
 21
15.3023085068689
 31
0.0
 11
176.257192610677
 21
15.60939715262544
 31
0.0
 11
176.2559126888347
 21
15.86997204839365
 31
0.0
 11
176.2528658717893
 21
16.07719922716125
 31
0.0
 11
176.2473049112763
 21
16.22421385386062
 31
0.0
 11
176.2615728121469
 21
16.22421385386062
 31
0.0
 11
176.2880703423352
 21
16.22421385386062
 31
0.0
 11
176.3023382432058
 21
16.22421385386062
 31
0.0
 11
176.5194743650277
 21
15.98910179662772
 31
0.0
 11
176.751274412308
 21
15.73751281231561
 31
0.0
 11
176.9894816018839
 21
15.4794955554357
 31
0.0
 11
177.2260074557522
 21
15.22497079855489
 31
0.0
 11
177.4555698717705
 21
14.97899759549137
 31
0.0
 11
177.6731797360104
 21
14.74678934034107
 31
0.0
 11
177.8713724913708
 21
14.538266805671
 31
0.0
 11
178.0430143099087
 21
14.36326697932588
 31
0.0
 11
178.0430143099087
 21
14.38918210687042
 31
0.0
 11
178.0430143099087
 21
14.45601585685371
 31
0.0
 11
178.0430143099087
 21
14.54740078030024
 31
0.0
 11
178.0430143099087
 21
14.64696942823453
 31
0.0
 11
178.0430143099087
 21
14.73835435168106
 31
0.0
 11
178.0430143099087
 21
14.80518810166435
 31
0.0
 11
178.0430143099087
 21
14.83110322920889
 31
0.0
 11
178.0417233637609
 21
15.18755430550867
 31
0.0
 11
178.0378461155959
 21
15.53450684014414
 31
0.0
 11
178.0296197790002
 21
15.86693815950551
 31
0.0
 11
178.0154535467228
 21
16.17960510387179
 31
0.0
 11
178.0790351249619
 21
16.16666367158334
 31
0.0
 11
178.1324170159612
 21
16.16238072887607
 31
0.0
 11
178.1805381084833
 21
16.16666367158334
 31
0.0
 11
178.2424836798197
 21
16.17960510387179
 31
0.0
 11
178.2351216487575
 21
16.084981284451
 31
0.0
 11
178.2269790968819
 21
15.95257496503964
 31
0.0
 11
178.2183705364004
 21
15.79600336785655
 31
0.0
 11
178.2097547223215
 21
15.6291659373427
 31
0.0
 11
178.2016187850289
 21
15.4589032550936
 31
0.0
 11
178.1942501393836
 21
15.292060312427
 31
0.0
 11
178.1891406931522
 21
15.14329943572809
 31
0.0
 11
178.1874503478904
 21
15.02722121527101
 31
0.0
 11
178.1874503478904
 21
14.93258747397518
 31
0.0
 11
178.1874503478904
 21
14.82077565976707
 31
0.0
 11
178.1878461204497
 21
14.70123801222749
 31
0.0
 11
178.1890819450708
 21
14.57660052093919
 31
0.0
 11
178.1908392193317
 21
14.44883212687391
 31
0.0
 11
178.1925303477609
 21
14.32028982655879
 31
0.0
 11
178.1942876220215
 21
14.19558288214555
 31
0.0
 11
178.1959787504505
 21
14.07947489606349
 31
0.0
 11
178.1972884379172
 21
13.97495896727017
 31
0.0
 11
178.1976985420735
 21
13.88517371555652
 31
0.0
 11
178.1976985420735
 21
13.81891763918416
 31
0.0
 11
178.1976985420735
 21
13.77165864614041
 31
0.0
 11
178.1736699662976
 21
13.77165864614041
 31
0.0
 11
178.1496413905217
 21
13.77165864614041
 31
0.0
 11
177.7410729200423
 21
14.2346673526219
 31
0.0
 11
177.3067935648022
 21
14.70898038201724
 31
0.0
  0
SPLINE
  5
A8
102
{ACAD_REACTORS
330
C5
102
}
330
48
100
AcDbEntity
  8
_U_30EC_U_30A4_U_30E4_U_30FC_1
  6
Continuous
 62
     2
100
AcDbSpline
210
0.0
220
0.0
230
1.0
 70
    11
 71
     3
 72
   110
 73
   106
 74
   104
 42
0.000000001
 43
0.0000000001
 44
0.00000001
 40
0.0
 40
0.0
 40
0.0
 40
0.0
 40
0.2203406257277749
 40
0.4407808782838128
 40
0.5952494494615109
 40
0.7488431659393112
 40
0.9023581831309666
 40
1.056801968670408
 40
1.210736449099937
 40
1.363041386539872
 40
1.515315729683187
 40
1.669377239148166
 40
1.721611652756662
 40
1.773199502943047
 40
1.824933793210098
 40
1.877110426488087
 40
1.982682281206935
 40
2.078781667087744
 40
2.172809640822465
 40
2.271937807379119
 40
2.378349933379512
 40
2.494131557736701
 40
2.626681683943807
 40
2.783145050796177
 40
2.890701232941027
 40
2.993130312454928
 40
3.099869730691912
 40
3.22023781669141
 40
3.352695482737694
 40
3.48173280638995
 40
3.593499473690475
 40
3.674323013331986
 40
3.81795171195285
 40
3.946167120793847
 40
4.061405053453618
 40
4.166480796003174
 40
4.262478775059296
 40
4.35073667355128
 40
4.433071991254108
 40
4.511216293814654
 40
4.564262454117972
 40
4.618474415571591
 40
4.670128488754195
 40
4.722296879126378
 40
4.819540945314247
 40
4.931194984128103
 40
5.049996040257745
 40
5.168643755415291
 40
5.283970811762502
 40
5.392260784910214
 40
5.486512254876345
 40
5.559178233949716
 40
5.591425852853376
 40
5.626215969637759
 40
5.667155838674299
 40
5.717449290214112
 40
5.738402360944725
 40
5.784499116553692
 40
5.83059587216466
 40
5.851548942897518
 40
5.873019280661633
 40
5.924217778408175
 40
5.985325662817554
 40
6.036524160567571
 40
6.057994498334099
 40
6.236847789607352
 40
6.381409928945525
 40
6.493190424178555
 40
6.574067534230367
 40
6.691018086205404
 40
6.814881554220379
 40
6.944307823240246
 40
7.07126671606587
 40
7.193488604461715
 40
7.309042773128027
 40
7.414007203170597
 40
7.505140441886408
 40
7.53115036059956
 40
7.559221645322155
 40
7.587202218920806
 40
7.612569159499016
 40
7.662550809480891
 40
7.702878875764027
 40
7.857328205230841
 40
8.010799568088458
 40
8.165256399657437
 40
8.322232698713862
 40
8.479564855016463
 40
8.635216230290666
 40
8.790882550925641
 40
8.948305154947235
 40
9.168271839032926
 40
9.387358980987202
 40
9.608047961033444
 40
9.832914234792646
 40
9.858338694962981
 40
9.925366817229989
 40
10.02013071422757
 40
10.12876249858996
 40
10.23739428295246
 40
10.33215817995188
 40
10.39918630222391
 40
10.4246107623978
 40
10.6499201933694
 40
10.87188524531185
 40
10.87188524531185
 40
10.87188524531185
 40
10.87188524531185
 10
179.9057788376619
 20
15.7392326039819
 30
0.0
 10
179.9092864933542
 20
15.80616462073804
 30
0.0
 10
179.9163033987663
 20
15.94005891915859
 30
0.0
 10
179.8198027599072
 20
16.2254855497147
 30
0.0
 10
180.0510134726109
 20
16.16284386190283
 30
0.0
 10
180.1919290057157
 20
16.17001554055991
 30
0.0
 10
180.3490417757588
 20
16.16235883078243
 30
0.0
 10
180.5025913427287
 20
16.1625275228304
 30
0.0
 10
180.6545104935081
 20
16.16182040535431
 30
0.0
 10
180.8142214813232
 20
16.17210158351639
 30
0.0
 10
180.9408972601119
 20
16.15496511080751
 30
0.0
 10
181.137082112208
 20
16.22727260107145
 30
0.0
 10
181.1034395279079
 20
16.12640699080118
 30
0.0
 10
181.1052011317184
 20
16.0761925394767
 30
0.0
 10
181.1027342073458
 20
16.02712335586465
 30
0.0
 10
181.1347076966013
 20
15.94063490846997
 30
0.0
 10
181.0010399903255
 20
15.98997438608335
 30
0.0
 10
180.9172208688057
 20
15.98430634314168
 30
0.0
 10
180.8173861139323
 20
15.99465516706297
 30
0.0
 10
180.7186576720146
 20
16.00086450411086
 30
0.0
 10
180.612153277111
 20
16.00697763816777
 30
0.0
 10
180.491051169806
 20
16.01588883484585
 30
0.0
 10
180.3703381502454
 20
16.00521605912384
 30
0.0
 10
180.1812553843438
 20
16.06468503080364
 30
0.0
 10
180.2129028505311
 20
15.90558320077539
 30
0.0
 10
180.1995563316834
 20
15.80839128339904
 30
0.0
 10
180.197495842645
 20
15.69634065110102
 30
0.0
 10
180.1958188044671
 20
15.5769968562935
 30
0.0
 10
180.1973336794233
 20
15.45032592155109
 30
0.0
 10
180.195658247867
 20
15.32301588016116
 30
0.0
 10
180.2058844271658
 20
15.22451566404463
 30
0.0
 10
180.1779006596583
 20
15.08388702625633
 30
0.0
 10
180.3508029999305
 20
15.13989551134095
 30
0.0
 10
180.4645020202772
 20
15.12719951478497
 30
0.0
 10
180.5840151672239
 20
15.13448377051253
 30
0.0
 10
180.6888491425072
 20
15.13878017056756
 30
0.0
 10
180.7843084898612
 20
15.14330568258977
 30
0.0
 10
180.8763823507033
 20
15.151492011462
 30
0.0
 10
180.947655178244
 20
15.14643850638111
 30
0.0
 10
181.0544931705684
 20
15.18536425031673
 30
0.0
 10
181.0226603598037
 20
15.10517122005878
 30
0.0
 10
181.0266164503929
 20
15.05562936846033
 30
0.0
 10
181.0234502392013
 20
15.00557478039819
 30
0.0
 10
181.0550791490585
 20
14.92128847612022
 30
0.0
 10
180.9210133677691
 20
14.97425365495158
 30
0.0
 10
180.82923227932
 20
14.96540080890439
 30
0.0
 10
180.7079729189603
 20
14.97570049965154
 30
0.0
 10
180.5914113119771
 20
14.97748911767503
 30
0.0
 10
180.4783375745879
 20
14.97787017109694
 30
0.0
 10
180.3679246308472
 20
14.98415449472179
 30
0.0
 10
180.2898124067841
 20
14.97189133255362
 30
0.0
 10
180.1913625833646
 20
15.00453887616124
 30
0.0
 10
180.2012355173561
 20
14.94769748054206
 30
0.0
 10
180.1973923244403
 20
14.91392130557984
 30
0.0
 10
180.1966789884268
 20
14.87119604709411
 30
0.0
 10
180.1963369642975
 20
14.83401607262152
 30
0.0
 10
180.1963834255346
 20
14.79487237370771
 30
0.0
 10
180.1963649429926
 20
14.75716849497685
 30
0.0
 10
180.1963703431807
 20
14.71944955232403
 30
0.0
 10
180.1963697214201
 20
14.6899432474515
 30
0.0
 10
180.1963698151545
 20
14.65873577699301
 30
0.0
 10
180.1963704287921
 20
14.61414424908085
 30
0.0
 10
180.1963671499336
 20
14.5596395650885
 30
0.0
 10
180.1963759623481
 20
14.51505540201448
 30
0.0
 10
180.1963359653416
 20
14.4311780858574
 30
0.0
 10
180.1976024270255
 20
14.31737520677678
 30
0.0
 10
180.1950274117842
 20
14.16830395933709
 30
0.0
 10
180.206500938172
 20
14.06597203813905
 30
0.0
 10
180.1823506222265
 20
13.93338903885835
 30
0.0
 10
180.3332993946476
 20
13.97895732272022
 30
0.0
 10
180.4428436671556
 20
13.96427012162349
 30
0.0
 10
180.5733970473921
 20
13.96920435125063
 30
0.0
 10
180.6990312209513
 20
13.9725770532336
 30
0.0
 10
180.8188730625602
 20
13.97711497498773
 30
0.0
 10
180.9391362611427
 20
13.99048536182004
 30
0.0
 10
181.0222761663516
 20
13.98068712782597
 30
0.0
 10
181.1456080421075
 20
14.04126214623322
 30
0.0
 10
181.1244269203958
 20
13.9853246013402
 30
0.0
 10
181.1235950270118
 20
13.95939249372346
 30
0.0
 10
181.1218963707559
 20
13.93197256190938
 30
0.0
 10
181.1217974888831
 20
13.89738195206385
 30
0.0
 10
181.120365930133
 20
13.86050408220767
 30
0.0
 10
181.1532804192192
 20
13.76846841021807
 30
0.0
 10
180.9551306988108
 20
13.84132015974831
 30
0.0
 10
180.8300548294892
 20
13.81825726508606
 30
0.0
 10
180.6673071295156
 20
13.82454021985786
 30
0.0
 10
180.5129366450002
 20
13.82260943909925
 30
0.0
 10
180.3566670436944
 20
13.82393762599268
 30
0.0
 10
180.1970544465282
 20
13.82059872487861
 30
0.0
 10
180.0540326342237
 20
13.83265795728241
 30
0.0
 10
179.8197144881628
 20
13.76952001976917
 30
0.0
 10
179.9173810751197
 20
14.05620527466317
 30
0.0
 10
179.900686878006
 20
14.2498830814266
 30
0.0
 10
179.9146296709685
 20
14.47848242880295
 30
0.0
 10
179.9142987846633
 20
14.63384593955048
 30
0.0
 10
179.9143078119264
 20
14.73966336444125
 30
0.0
 10
179.9143055876316
 20
14.80205784124214
 30
0.0
 10
179.914306555189
 20
14.89220425248327
 30
0.0
 10
179.9143065473262
 20
14.99621167157438
 30
0.0
 10
179.9143053861104
 20
15.10022131375296
 30
0.0
 10
179.9143090971502
 20
15.19036243688767
 30
0.0
 10
179.9143011051052
 20
15.25276803097215
 30
0.0
 10
179.9143334275018
 20
15.35868835961119
 30
0.0
 10
179.913144078832
 20
15.5162671654474
 30
0.0
 10
179.9082216489257
 20
15.66528219822065
 30
0.0
 10
179.9057788376619
 20
15.7392326039819
 30
0.0
 11
179.9057788376619
 21
15.7392326039819
 31
0.0
 11
179.8966918223741
 21
15.95938578101018
 31
0.0
 11
179.8868249573133
 21
16.17960510387179
 31
0.0
 11
180.04115751414
 21
16.17312391463728
 31
0.0
 11
180.1946500189046
 21
16.16754892331924
 31
0.0
 11
180.3481160653367
 21
16.1636716750563
 31
0.0
 11
180.5025544554939
 21
16.16238072887607
 31
0.0
 11
180.6564835227473
 21
16.1636716750563
 31
0.0
 11
180.8087391004601
 21
16.16754892331924
 31
0.0
 11
180.9609113551074
 21
16.17312391463728
 31
0.0
 11
181.1148364762484
 21
16.17960510387179
 31
0.0
 11
181.1070811703124
 21
16.12794961777358
 31
0.0
 11
181.1044991623591
 21
16.07642642334204
 31
0.0
 11
181.1070811703124
 21
16.0247566056466
 31
0.0
 11
181.1148364762484
 21
15.97315954836784
 31
0.0
 11
181.0094874054411
 21
15.98001446156057
 31
0.0
 11
180.913637570006
 21
15.98693552058657
 31
0.0
 11
180.8198593171903
 21
15.99378381919598
 31
0.0
 11
180.7209679915881
 21
16.00063211780539
 31
0.0
 11
180.6147532199924
 21
16.00710999974824
 31
0.0
 11
180.4991060528038
 21
16.01268829835794
 31
0.0
 11
180.3666126447258
 21
16.01656554662087
 31
0.0
 11
180.2101546018424
 21
16.01785649280111
 31
0.0
 11
180.2062663293721
 21
15.91037061609186
 31
0.0
 11
180.20153800484
 21
15.80805072896464
 31
0.0
 11
180.1976607566749
 21
15.70138175329686
 31
0.0
 11
180.1963698105272
 21
15.58102059013249
 31
0.0
 11
180.1967799146836
 21
15.44856355891564
 31
0.0
 11
180.1980896021502
 21
15.31953288186454
 31
0.0
 11
180.199407457705
 21
15.20777398432308
 31
0.0
 11
180.1998191153661
 21
15.12695149302384
 31
0.0
 11
180.3434452935874
 21
15.1278025694125
 31
0.0
 11
180.4716343930758
 21
15.13039989580076
 31
0.0
 11
180.5868078221796
 21
15.13425509545253
 31
0.0
 11
180.691775631222
 21
15.13901649302076
 31
0.0
 11
180.7876346289422
 21
15.14418027774175
 31
0.0
 11
180.8757413374194
 21
15.14934406246267
 31
0.0
 11
180.9578881438497
 21
15.15491243919738
 31
0.0
 11
181.0357692335571
 21
15.16132086801524
 31
0.0
 11
181.0280180445186
 21
15.10884407115336
 31
0.0
 11
181.0254328449317
 21
15.05469378470857
 31
0.0
 11
181.0280180445186
 21
15.00310444444366
 31
0.0
 11
181.0357692335571
 21
14.95151510417882
 31
0.0
 11
180.9389813454014
 21
14.96092324653757
 31
0.0
 11
180.8275950722015
 21
14.96865128473011
 31
0.0
 11
180.7089261429373
 21
14.97425273438145
 31
0.0
 11
180.5903167449213
 21
14.97726788195011
 31
0.0
 11
180.4750025117521
 21
14.97898767361638
 31
0.0
 11
180.3667261950701
 21
14.98070746528256
 31
0.0
 11
180.2724839317709
 21
14.98202486979616
 31
0.0
 11
180.1998191153661
 21
14.98243607639328
 31
0.0
 11
180.199407457705
 21
14.9501910850819
 31
0.0
 11
180.1980896021502
 21
14.91542593752117
 31
0.0
 11
180.1967799146836
 21
14.87450702260084
 31
0.0
 11
180.1963698105272
 21
14.82421524309951
 31
0.0
 11
180.1963698105272
 21
14.80326217235821
 31
0.0
 11
180.1963698105272
 21
14.75716541672736
 31
0.0
 11
180.1963698105272
 21
14.71106866109651
 31
0.0
 11
180.1963698105272
 21
14.69011559035521
 31
0.0
 11
180.1963698105272
 21
14.6686452525828
 31
0.0
 11
180.1963698105272
 21
14.61744675481784
 31
0.0
 11
180.1963698105272
 21
14.55633887038868
 31
0.0
 11
180.1963698105272
 21
14.50514037262371
 31
0.0
 11
180.1963698105272
 21
14.4836700348513
 31
0.0
 11
180.1967799146836
 21
14.30481721371547
 31
0.0
 11
180.1980896021502
 21
14.16026100715442
 31
0.0
 11
180.2002868589709
 21
14.04850210961289
 31
0.0
 11
180.2032586986986
 21
13.96767961831365
 31
0.0
 11
180.3202092517448
 21
13.96767961831365
 31
0.0
 11
180.4440727208747
 21
13.96767961831365
 31
0.0
 11
180.5734925526422
 21
13.9689705644939
 31
0.0
 11
180.7003922282244
 21
13.97284781275682
 31
0.0
 11
180.8224658067973
 21
13.97886708358865
 31
0.0
 11
180.9377587499464
 21
13.98663260442002
 31
0.0
 11
181.0421754573518
 21
13.99734161483402
 31
0.0
 11
181.1320599255449
 21
14.01237656274692
 31
0.0
 11
181.1264254031192
 21
13.98698427976715
 31
0.0
 11
181.1234433285424
 21
13.95907184053801
 31
0.0
 11
181.1221339881201
 21
13.93112191867002
 31
0.0
 11
181.1217235369196
 21
13.90575829888472
 31
0.0
 11
181.1243087365065
 21
13.85584355063326
 31
0.0
 11
181.1320599255449
 21
13.81626739612927
 31
0.0
 11
180.9776977178345
 21
13.82145433189185
 31
0.0
 11
180.8242357818766
 21
13.82315538223862
 31
0.0
 11
180.6697789496484
 21
13.82315538223862
 31
0.0
 11
180.5128026496768
 21
13.82315538223862
 31
0.0
 11
180.3554704921537
 21
13.82315538223862
 31
0.0
 11
180.1998191153661
 21
13.82315538223862
 31
0.0
 11
180.0441620874242
 21
13.82145433189185
 31
0.0
 11
179.8868249573133
 21
13.81626739612927
 31
0.0
 11
179.896691822374
 21
14.0360126738521
 31
0.0
 11
179.9057788376619
 21
14.25491128490851
 31
0.0
 11
179.9121721518401
 21
14.47550763902002
 31
0.0
 11
179.914306345501
 21
14.70036378479715
 31
0.0
 11
179.914306345501
 21
14.72578824496874
 31
0.0
 11
179.914306345501
 21
14.79281636723931
 31
0.0
 11
179.914306345501
 21
14.88758026424253
 31
0.0
 11
179.914306345501
 21
14.99621204861207
 31
0.0
 11
179.914306345501
 21
15.10484383298162
 31
0.0
 11
179.914306345501
 21
15.19960772998484
 31
0.0
 11
179.914306345501
 21
15.2666358522554
 31
0.0
 11
179.914306345501
 21
15.292060312427
 31
0.0
 11
179.9121721518401
 21
15.51735963528734
 31
0.0
 11
179.9057788376619
 21
15.7392326039819
 31
0.0
  0
SPLINE
  5
A9
102
{ACAD_REACTORS
330
C6
102
}
330
48
100
AcDbEntity
  8
_U_30EC_U_30A4_U_30E4_U_30FC_1
  6
Continuous
 62
     2
100
AcDbSpline
210
0.0
220
0.0
230
1.0
 70
    11
 71
     3
 72
    47
 73
    43
 74
    41
 42
0.000000001
 43
0.0000000001
 44
0.00000001
 40
0.0
 40
0.0
 40
0.0
 40
0.0
 40
0.2207912809957148
 40
0.4459404186302993
 40
0.4902387190458093
 40
0.5327473892721888
 40
0.574226045122465
 40
0.6155432630560509
 40
0.6568164066314857
 40
0.698251161878035
 40
0.7407663929316292
 40
0.7851366743174081
 40
1.010288833836209
 40
1.231080507002053
 40
1.451765243652284
 40
1.676638205891567
 40
1.720461045359537
 40
1.830018144043402
 40
1.972442372353033
 40
2.114866600677402
 40
2.224423699395027
 40
2.268246538883268
 40
2.493628801207099
 40
2.7156028302865
 40
2.934211330706253
 40
3.149502369855242
 40
3.231387784850803
 40
3.318231873853838
 40
3.405143198197883
 40
3.486970301720234
 40
3.702258172493673
 40
3.920866283533902
 40
4.142839325931692
 40
4.368221903865154
 40
4.412044743359634
 40
4.52160184209565
 40
4.66402607045213
 40
4.806450298808838
 40
4.91600739754653
 40
4.959830237042854
 40
5.184703515846885
 40
5.405387250767262
 40
5.405387250767262
 40
5.405387250767262
 40
5.405387250767262
 10
182.6507427258645
 20
15.73406440953872
 30
0.0
 10
182.6568139420003
 20
15.79758482501209
 30
0.0
 10
182.6690762107242
 20
15.92587938689623
 30
0.0
 10
182.5604706879412
 20
16.20166220174078
 30
0.0
 10
182.6761985896605
 20
16.1718813343205
 30
0.0
 10
182.7171842509015
 20
16.16765556262822
 30
0.0
 10
182.7591205797519
 20
16.16310446389605
 30
0.0
 10
182.800419662571
 20
16.16201982929485
 30
0.0
 10
182.8417032115556
 20
16.16310338195226
 30
0.0
 10
182.8836148270647
 20
16.16766112711343
 30
0.0
 10
182.9245983549019
 20
16.17187430209727
 30
0.0
 10
183.0404922843489
 20
16.20177611317536
 30
0.0
 10
182.9295652727456
 20
15.92339806609888
 30
0.0
 10
182.9574856365268
 20
15.74283140824952
 30
0.0
 10
182.9404267346969
 20
15.50961042346472
 30
0.0
 10
182.9414637282104
 20
15.34906622543145
 30
0.0
 10
182.9414099399405
 20
15.22284817558722
 30
0.0
 10
182.9414277372482
 20
15.12428963336242
 30
0.0
 10
182.9414188581081
 20
14.99280702442962
 30
0.0
 10
182.9414263928034
 20
14.86132844968649
 30
0.0
 10
182.941412940513
 20
14.76276222694091
 30
0.0
 10
182.9414531717493
 20
14.63639735624152
 30
0.0
 10
182.9406746403818
 20
14.4748206882287
 30
0.0
 10
182.9565958319268
 20
14.24361821892914
 30
0.0
 10
182.9333468885407
 20
14.05874351972002
 30
0.0
 10
183.0360183444367
 20
13.78935602770057
 30
0.0
 10
182.8820238362836
 20
13.82660112685817
 30
0.0
 10
182.8004129802833
 20
13.82137994680534
 30
0.0
 10
182.7188192292583
 20
13.82660620378351
 30
0.0
 10
182.5648513666843
 20
13.78937069885388
 30
0.0
 10
182.6674183421918
 20
14.05875129862881
 30
0.0
 10
182.6442045316088
 20
14.24361585325414
 30
0.0
 10
182.6600444655139
 20
14.47482218565638
 30
0.0
 10
182.6593296313426
 20
14.63639712308503
 30
0.0
 10
182.6593664569907
 20
14.76276231210521
 30
0.0
 10
182.659354900027
 20
14.86132756635981
 30
0.0
 10
182.6593575019214
 20
14.9928112741722
 30
0.0
 10
182.6593648531779
 20
15.124275480312
 30
0.0
 10
182.6593442541351
 20
15.22287786275325
 30
0.0
 10
182.6594082192028
 20
15.34896149354427
 30
0.0
 10
182.6581733947591
 20
15.51210091383771
 30
0.0
 10
182.6532040396745
 20
15.66054183777549
 30
0.0
 10
182.6507427258645
 20
15.73406440953872
 30
0.0
 11
182.6507427258645
 21
15.73406440953872
 31
0.0
 11
182.6417328200379
 21
15.95467178795577
 31
0.0
 11
182.6318769706147
 21
16.17960510387179
 31
0.0
 11
182.6756985840801
 21
16.17312391463728
 31
0.0
 11
182.7178400934216
 21
16.16754892331924
 31
0.0
 11
182.7591371409791
 21
16.1636716750563
 31
0.0
 11
182.8004341885366
 21
16.16238072887607
 31
0.0
 11
182.8416871388731
 21
16.1636716750563
 31
0.0
 11
182.8829400892098
 21
16.16754892331924
 31
0.0
 11
182.9250882131343
 21
16.17312391463728
 31
0.0
 11
182.9689825870145
 21
16.17960510387179
 31
0.0
 11
182.9590577693891
 21
15.95467178795577
 31
0.0
 11
182.9500384208311
 21
15.73406440953872
 31
0.0
 11
182.9435638463436
 21
15.51347467001054
 31
0.0
 11
182.9414218238287
 21
15.28861190965007
 31
0.0
 11
182.9414218238287
 21
15.24478907015486
 31
0.0
 11
182.9414218238287
 21
15.13523197141682
 31
0.0
 11
182.9414218238287
 21
14.99280774305737
 31
0.0
 11
182.9414218238287
 21
14.85038351469792
 31
0.0
 11
182.9414218238287
 21
14.74082641595989
 31
0.0
 11
182.9414218238287
 21
14.69700357646467
 31
0.0
 11
182.9435638463436
 21
14.47163149318766
 31
0.0
 11
182.9500384208311
 21
14.2497519099098
 31
0.0
 11
182.9590577693892
 21
14.03132954885329
 31
0.0
 11
182.9689825870145
 21
13.81626739612927
 31
0.0
 11
182.8872616168771
 21
13.82145433189185
 31
0.0
 11
182.8004341885366
 21
13.82315538223862
 31
0.0
 11
182.7135395119339
 21
13.82145433189185
 31
0.0
 11
182.6318769706147
 21
13.81626739612927
 31
0.0
 11
182.6417328200379
 21
14.03132954885329
 31
0.0
 11
182.6507427258645
 21
14.2497519099098
 31
0.0
 11
182.6571833838798
 21
14.47163149318766
 31
0.0
 11
182.6593583588023
 21
14.69700357646467
 31
0.0
 11
182.6593583588023
 21
14.74082641595988
 31
0.0
 11
182.6593583588023
 21
14.85038351469792
 31
0.0
 11
182.6593583588023
 21
14.99280774305737
 31
0.0
 11
182.6593583588023
 21
15.13523197141682
 31
0.0
 11
182.6593583588023
 21
15.24478907015486
 31
0.0
 11
182.6593583588023
 21
15.28861190965007
 31
0.0
 11
182.6571833838798
 21
15.51347467001054
 31
0.0
 11
182.6507427258645
 21
15.73406440953872
 31
0.0
  0
SPLINE
  5
AA
102
{ACAD_REACTORS
330
C7
102
}
330
48
100
AcDbEntity
  8
_U_30EC_U_30A4_U_30E4_U_30FC_1
  6
Continuous
 62
     2
100
AcDbSpline
210
0.0
220
0.0
230
1.0
 70
    11
 71
     3
 72
   118
 73
   114
 74
   112
 42
0.000000001
 43
0.0000000001
 44
0.00000001
 40
0.0
 40
0.0
 40
0.0
 40
0.0
 40
0.1054708162973424
 40
0.246609827005191
 40
0.3965912874591412
 40
0.5285525069754153
 40
0.6156245055642684
 40
0.6431434105797829
 40
0.7036850037986533
 40
0.764226598450493
 40
0.7917455052355235
 40
0.9287404319990442
 40
1.106572819088127
 40
1.287544879681127
 40
1.317578308030644
 40
1.399928030857282
 40
1.522968204800057
 40
1.675072986590678
 40
1.844616533180755
 40
2.019973001638819
 40
2.189516548880132
 40
2.34162133158547
 40
2.464661506320606
 40
2.54701122964717
 40
2.577044658168134
 40
2.603797890893176
 40
2.662655002908863
 40
2.721512114949647
 40
2.748265347702798
 40
2.774215307344875
 40
2.845959313407205
 40
2.954338556588404
 40
3.090194227585581
 40
3.244367517100544
 40
3.407699615844304
 40
3.571031714539455
 40
3.725205003920131
 40
3.861060674729631
 40
3.969439917716324
 40
4.041183923628996
 40
4.067133883212989
 40
4.311886746012185
 40
4.547897258335562
 40
4.764747083044003
 40
4.952749679951775
 40
5.045772974195913
 40
5.137862019645023
 40
5.330543169793076
 40
5.553448265244071
 40
5.79508385588825
 40
6.04329341217731
 40
6.285761695541259
 40
6.313902908752771
 40
6.384255941793361
 40
6.475714884766949
 40
6.56717382775904
 40
6.637526860839847
 40
6.66566807407421
 40
6.692018920328183
 40
6.749990782071254
 40
6.807962643790622
 40
6.834313490018095
 40
6.856393084245374
 40
6.913335195649998
 40
6.99119481730269
 40
7.076026942283979
 40
7.153886563725498
 40
7.210828674845052
 40
7.232908268931416
 40
7.258199334923937
 40
7.324875781592588
 40
7.419142481925247
 40
7.52720430884219
 40
7.635266135230768
 40
7.729532834168758
 40
7.79620927929308
 40
7.821500344595027
 40
7.844652988851097
 40
7.899863140541847
 40
7.965759128053985
 40
8.020969279771242
 40
8.044121924046708
 40
8.069356610160774
 40
8.109134395441572
 40
8.132238100191284
 40
8.19314786778665
 40
8.279261678876825
 40
8.37797751267404
 40
8.476693347146826
 40
8.56280716041188
 40
8.623716930826669
 40
8.646820636853622
 40
8.671988793774435
 40
8.734909185828347
 40
8.81670569518906
 40
8.898502204815632
 40
8.961422597378093
 40
8.986590754551205
 40
9.012941600733361
 40
9.070913462380444
 40
9.12888532408194
 40
9.15523617032526
 40
9.180404327929303
 40
9.243324721948376
 40
9.325121234212169
 40
9.406917746637824
 40
9.469838141978279
 40
9.495006288271053
 40
9.517811184379195
 40
9.572192090487192
 40
9.637098333281418
 40
9.691479239515616
 40
9.714284125643653
 40
9.714284125643653
 40
9.714284125643653
 40
9.714284125643653
 10
185.2874469028653
 20
15.26889163187719
 30
0.0
 10
185.3090990569037
 20
15.24111869242811
 30
0.0
 10
185.3597257109474
 20
15.17618054561236
 30
0.0
 10
185.4349383202592
 20
15.06891060312897
 30
0.0
 10
185.5248482274346
 20
14.95377438266626
 30
0.0
 10
185.5709169676674
 20
14.85357045748316
 30
0.0
 10
185.6655825294655
 20
14.78434006814946
 30
0.0
 10
185.6204439320414
 20
14.73771639678272
 30
0.0
 10
185.5947047785792
 20
14.6966030886604
 30
0.0
 10
185.5645196708012
 20
14.66065971727939
 30
0.0
 10
185.5193684730563
 20
14.58579782596093
 30
0.0
 10
185.4710504458562
 20
14.80782524253605
 30
0.0
 10
185.3968539713072
 20
14.84510677337707
 30
0.0
 10
185.2836047324607
 20
15.116102021306
 30
0.0
 10
185.2885133578169
 20
15.00095328446229
 30
0.0
 10
185.2868486556306
 20
14.92836675781627
 30
0.0
 10
185.2876830076714
 20
14.80625588483986
 30
0.0
 10
185.2873609540264
 20
14.6591380081046
 30
0.0
 10
185.2875076912456
 20
14.49307063956557
 30
0.0
 10
185.2872950092722
 20
14.32187554608602
 30
0.0
 10
185.2879497252034
 20
14.15552828635498
 30
0.0
 10
185.2859192461139
 20
14.00935173055693
 30
0.0
 10
185.291346039993
 20
13.8847104747461
 30
0.0
 10
185.2804930868708
 20
13.81718656540627
 30
0.0
 10
185.2956739155555
 20
13.75549061417023
 30
0.0
 10
185.2457895108134
 20
13.76727503897002
 30
0.0
 10
185.2017150342523
 20
13.7594382277997
 30
0.0
 10
185.1582371630201
 20
13.76760441372702
 30
0.0
 10
185.1092346786489
 20
13.75538056738469
 30
0.0
 10
185.1218731234825
 20
13.80960667249313
 30
0.0
 10
185.113018296845
 20
13.86936918907558
 30
0.0
 10
185.1175058770315
 20
13.97922029044371
 30
0.0
 10
185.1157960135993
 20
14.11029975405679
 30
0.0
 10
185.1163550915986
 20
14.26198011444328
 30
0.0
 10
185.1161928768695
 20
14.42211074929953
 30
0.0
 10
185.1162269924675
 20
14.58236865674566
 30
0.0
 10
185.1162514960128
 20
14.73370247520439
 30
0.0
 10
185.1161453543226
 20
14.86582156338601
 30
0.0
 10
185.1164299141932
 20
14.97294802533193
 30
0.0
 10
185.1158675547568
 20
15.03808619579473
 30
0.0
 10
185.1180765083691
 20
15.16618957858676
 30
0.0
 10
185.0319435998602
 20
14.79097610391574
 30
0.0
 10
184.95551408185
 20
14.63918193123395
 30
0.0
 10
184.8660040767833
 20
14.47766206446308
 30
0.0
 10
184.7640413217328
 20
14.20471848820172
 30
0.0
 10
184.7187976491039
 20
14.36717346596512
 30
0.0
 10
184.610235594167
 20
14.45605432058116
 30
0.0
 10
184.7995791751753
 20
14.60549794961409
 30
0.0
 10
184.85653405457
 20
14.79749136974926
 30
0.0
 10
184.9717520993353
 20
15.02899622906755
 30
0.0
 10
184.9940151630132
 20
15.21797259759063
 30
0.0
 10
185.1771905152142
 20
15.49454089325931
 30
0.0
 10
185.0538033597552
 20
15.48698978832092
 30
0.0
 10
184.9925684166834
 20
15.48856772366117
 30
0.0
 10
184.9081999617064
 20
15.48882592573671
 30
0.0
 10
184.8204235085966
 20
15.48544845751205
 30
0.0
 10
184.7656768696123
 20
15.49394814982019
 30
0.0
 10
184.7104703026024
 20
15.48048561049787
 30
0.0
 10
184.7222823035536
 20
15.52931442126762
 30
0.0
 10
184.7142496151794
 20
15.57269004896708
 30
0.0
 10
184.7228186104678
 20
15.61509438309571
 30
0.0
 10
184.7102943409157
 20
15.66267796552117
 30
0.0
 10
184.7555101538735
 20
15.65267212995107
 30
0.0
 10
184.8014815562723
 20
15.65894105174061
 30
0.0
 10
184.877722204771
 20
15.65593561405871
 30
0.0
 10
184.9561296131994
 20
15.6577044827854
 30
0.0
 10
185.0323992648933
 20
15.65464793981659
 30
0.0
 10
185.0783009459475
 20
15.66103971376176
 30
0.0
 10
185.1231733965401
 20
15.65093822978895
 30
0.0
 10
185.1105552275635
 20
15.70157201581897
 30
0.0
 10
185.1191936582707
 20
15.75501261882069
 30
0.0
 10
185.1152361595443
 20
15.84863255131679
 30
0.0
 10
185.1162325068335
 20
15.95112606688923
 30
0.0
 10
185.1171927413074
 20
16.05353270248163
 30
0.0
 10
185.1133211458006
 20
16.14735929609321
 30
0.0
 10
185.1217789814365
 20
16.20036542840353
 30
0.0
 10
185.1093075932836
 20
16.25211435651188
 30
0.0
 10
185.1542106389851
 20
16.23850747226757
 30
0.0
 10
185.1955083836773
 20
16.24100480320585
 30
0.0
 10
185.259534428105
 20
16.23648060574487
 30
0.0
 10
185.2986111148787
 20
16.22781003043308
 30
0.0
 10
185.3476543498742
 20
16.23515102070686
 30
0.0
 10
185.322508003059
 20
16.19602896051756
 30
0.0
 10
185.2815901333724
 20
16.2056384245581
 30
0.0
 10
185.2910109616603
 20
16.15540148169778
 30
0.0
 10
185.2855647318746
 20
16.1038594563949
 30
0.0
 10
185.2881699601804
 20
16.0195970758452
 30
0.0
 10
185.2870102202154
 20
15.92559135583408
 30
0.0
 10
185.2883591064231
 20
15.83196865395525
 30
0.0
 10
185.284997010151
 20
15.74679517552222
 30
0.0
 10
185.2920959917768
 20
15.69716856072043
 30
0.0
 10
185.2812569154546
 20
15.64993694969987
 30
0.0
 10
185.3304010225245
 20
15.66201674936851
 30
0.0
 10
185.3794877630147
 20
15.6544739336301
 30
0.0
 10
185.4573714280641
 20
15.65686070361432
 30
0.0
 10
185.5350365172896
 20
15.65899381905414
 30
0.0
 10
185.5845393931355
 20
15.65193391922454
 30
0.0
 10
185.6344594750639
 20
15.66360151936213
 30
0.0
 10
185.6223198516881
 20
15.61540235371392
 30
0.0
 10
185.6305838229143
 20
15.57249219801235
 30
0.0
 10
185.6223198650783
 20
15.52958201851383
 30
0.0
 10
185.6344594549855
 20
15.48138288754864
 30
0.0
 10
185.5845395158746
 20
15.49305034471509
 30
0.0
 10
185.5350350651203
 20
15.48599202435044
 30
0.0
 10
185.4573784382972
 20
15.48811665228603
 30
0.0
 10
185.379464386576
 20
15.49053389365759
 30
0.0
 10
185.3304500352716
 20
15.48291848194484
 30
0.0
 10
185.2813246108943
 20
15.49507952557591
 30
0.0
 10
185.2915559988571
 20
15.45073013424158
 30
0.0
 10
185.2856677678053
 20
15.4092543620291
 30
0.0
 10
185.287878830557
 20
15.34915394315303
 30
0.0
 10
185.2874109346145
 20
15.30225782762889
 30
0.0
 10
185.2874386992913
 20
15.27650146418196
 30
0.0
 10
185.2874469028653
 20
15.26889163187719
 30
0.0
 11
185.2874469028653
 21
15.26889163187719
 31
0.0
 11
185.3516977534484
 21
15.18524999634256
 31
0.0
 11
185.4348258835499
 21
15.07118889748221
 31
0.0
 11
185.5216831568896
 21
14.94891767195723
 31
0.0
 11
185.5971214371872
 21
14.84064565642876
 31
0.0
 11
185.6459925881627
 21
14.7685821875579
 31
0.0
 11
185.6296821285094
 21
14.74641782124399
 31
0.0
 11
185.5937991172721
 21
14.69765621535339
 31
0.0
 11
185.5579161060347
 21
14.6488946094628
 31
0.0
 11
185.5416056463814
 21
14.62673024314889
 31
0.0
 11
185.4763067109446
 21
14.74716139023813
 31
0.0
 11
185.3848434243234
 21
14.89966983670207
 31
0.0
 11
185.2874469028653
 21
15.05219788193142
 31
0.0
 11
185.2874469028653
 21
15.02216445328253
 31
0.0
 11
185.2874469028653
 21
14.93981472956783
 31
0.0
 11
185.2874469028653
 21
14.81677455413528
 31
0.0
 11
185.2874469028653
 21
14.66466977033283
 31
0.0
 11
185.2874469028653
 21
14.49512622150845
 31
0.0
 11
185.2874469028653
 21
14.31976975101009
 31
0.0
 11
185.2874469028653
 21
14.15022620218571
 31
0.0
 11
185.2874469028653
 21
13.99812141838326
 31
0.0
 11
185.2874469028653
 21
13.87508124295071
 31
0.0
 11
185.2874469028653
 21
13.79273151923601
 31
0.0
 11
185.2874469028653
 21
13.76269809058712
 31
0.0
 11
185.2606936700409
 21
13.76269809058712
 31
0.0
 11
185.2018365578272
 21
13.76269809058712
 31
0.0
 11
185.1429794456135
 21
13.76269809058712
 31
0.0
 11
185.1162262127891
 21
13.76269809058712
 31
0.0
 11
185.1162262127891
 21
13.7886480503125
 31
0.0
 11
185.1162262127891
 21
13.86039205661208
 31
0.0
 11
185.1162262127891
 21
13.96877130017102
 31
0.0
 11
185.1162262127891
 21
14.10462697167447
 31
0.0
 11
185.1162262127891
 21
14.25880026180761
 31
0.0
 11
185.1162262127891
 21
14.42213236125558
 31
0.0
 11
185.1162262127891
 21
14.58546446070356
 31
0.0
 11
185.1162262127891
 21
14.7396377508367
 31
0.0
 11
185.1162262127891
 21
14.87549342234015
 31
0.0
 11
185.1162262127891
 21
14.98387266589909
 31
0.0
 11
185.1162262127891
 21
15.05561667219867
 31
0.0
 11
185.1162262127891
 21
15.08156663192405
 31
0.0
 11
185.0379865861722
 21
14.84965603302372
 31
0.0
 11
184.9497110789304
 21
14.63077616328678
 31
0.0
 11
184.8544106930046
 21
14.43598991333547
 31
0.0
 11
184.7550964303357
 21
14.27636017379202
 31
0.0
 11
184.7109198342406
 21
14.35822446196599
 31
0.0
 11
184.658805738348
 21
14.4341488543081
 31
0.0
 11
184.7627302590299
 21
14.59640087926757
 31
0.0
 11
184.8629319864735
 21
14.7955146542178
 31
0.0
 11
184.9550446607902
 21
15.01890447916196
 31
0.0
 11
185.0347020220912
 21
15.25398465410319
 31
0.0
 11
185.0975378104881
 21
15.48816947904464
 31
0.0
 11
185.0693965972143
 21
15.48816947904464
 31
0.0
 11
184.9990435640298
 21
15.48816947904464
 31
0.0
 11
184.9075846208899
 21
15.48816947904464
 31
0.0
 11
184.81612567775
 21
15.48816947904464
 31
0.0
 11
184.7457726445654
 21
15.48816947904464
 31
0.0
 11
184.7176314312916
 21
15.48816947904464
 31
0.0
 11
184.7176314312916
 21
15.51452032539221
 31
0.0
 11
184.7176314312916
 21
15.57249218735688
 31
0.0
 11
184.7176314312916
 21
15.63046404932154
 31
0.0
 11
184.7176314312916
 21
15.65681489566911
 31
0.0
 11
184.739711025602
 21
15.65681489566911
 31
0.0
 11
184.7966531372444
 21
15.65681489566911
 31
0.0
 11
184.8745127592862
 21
15.65681489566911
 31
0.0
 11
184.9593448847945
 21
15.65681489566911
 31
0.0
 11
185.0372045068362
 21
15.65681489566911
 31
0.0
 11
185.0941466184787
 21
15.65681489566911
 31
0.0
 11
185.1162262127891
 21
15.65681489566911
 31
0.0
 11
185.1162262127891
 21
15.68210596174352
 31
0.0
 11
185.1162262127891
 21
15.74878240866696
 31
0.0
 11
185.1162262127891
 21
15.84304910948976
 31
0.0
 11
185.1162262127891
 21
15.95111093726224
 31
0.0
 11
185.1162262127891
 21
16.05917276503471
 31
0.0
 11
185.1162262127891
 21
16.15343946585751
 31
0.0
 11
185.1162262127891
 21
16.22011591278095
 31
0.0
 11
185.1162262127891
 21
16.24540697885536
 31
0.0
 11
185.1393181988666
 21
16.243732131078
 31
0.0
 11
185.1943837041285
 21
16.23973826330121
 31
0.0
 11
185.2601070491184
 21
16.23497138885795
 31
0.0
 11
185.3151725543802
 21
16.23097752108116
 31
0.0
 11
185.3382645404578
 21
16.2293026733038
 31
0.0
 11
185.3249012644362
 21
16.20789677921191
 31
0.0
 11
185.2874469028653
 21
16.19450114553469
 31
0.0
 11
185.2874469028653
 21
16.17139743948578
 31
0.0
 11
185.2874469028653
 21
16.11048766899319
 31
0.0
 11
185.2874469028653
 21
16.02437385553816
 31
0.0
 11
185.2874469028653
 21
15.9256580206019
 31
0.0
 11
185.2874469028653
 21
15.82694218566564
 31
0.0
 11
185.2874469028653
 21
15.74082837221061
 31
0.0
 11
185.2874469028653
 21
15.67991860171802
 31
0.0
 11
185.2874469028653
 21
15.65681489566911
 31
0.0
 11
185.3126150604809
 21
15.65681489566911
 31
0.0
 11
185.3755354545199
 21
15.65681489566911
 31
0.0
 11
185.4573319667706
 21
15.65681489566911
 31
0.0
 11
185.5391284790212
 21
15.65681489566911
 31
0.0
 11
185.6020488730602
 21
15.65681489566911
 31
0.0
 11
185.6272170306758
 21
15.65681489566911
 31
0.0
 11
185.6272170306758
 21
15.63046404932154
 31
0.0
 11
185.6272170306758
 21
15.57249218735688
 31
0.0
 11
185.6272170306758
 21
15.51452032539221
 31
0.0
 11
185.6272170306758
 21
15.48816947904464
 31
0.0
 11
185.6020488730602
 21
15.48816947904464
 31
0.0
 11
185.5391284790212
 21
15.48816947904464
 31
0.0
 11
185.4573319667705
 21
15.48816947904464
 31
0.0
 11
185.3755354545199
 21
15.48816947904464
 31
0.0
 11
185.3126150604809
 21
15.48816947904464
 31
0.0
 11
185.2874469028653
 21
15.48816947904464
 31
0.0
 11
185.2874469028653
 21
15.46536458293923
 31
0.0
 11
185.2874469028653
 21
15.4109836768417
 31
0.0
 11
185.2874469028653
 21
15.34607743408013
 31
0.0
 11
185.2874469028653
 21
15.29169652798261
 31
0.0
 11
185.2874469028653
 21
15.26889163187719
 31
0.0
  0
SPLINE
  5
AB
102
{ACAD_REACTORS
330
C8
102
}
330
48
100
AcDbEntity
  8
_U_30EC_U_30A4_U_30E4_U_30FC_1
  6
Continuous
 62
     2
100
AcDbSpline
210
0.0
220
0.0
230
1.0
 70
    11
 71
     3
 72
    91
 73
    87
 74
    85
 42
0.000000001
 43
0.0000000001
 44
0.00000001
 40
0.0
 40
0.0
 40
0.0
 40
0.0
 40
0.0345987051695718
 40
0.1258134969461369
 40
0.2547723404888987
 40
0.4026032099154125
 40
0.5504340793416704
 40
0.679392922883608
 40
0.7706077146571035
 40
0.8052064287780925
 40
1.124852390615279
 40
1.427402236308874
 40
1.706356627453518
 40
1.955541417875193
 40
2.169485938566338
 40
2.344350786664792
 40
2.480568411561921
 40
2.590440557428916
 40
2.649189927151069
 40
2.749320643306292
 40
2.912632739879993
 40
3.147745656000191
 40
3.244827496385084
 40
3.338490056946674
 40
3.583815413207101
 40
3.761423943238455
 40
3.886956104362619
 40
3.985855451886757
 40
4.091766255337586
 40
4.250186473811806
 40
4.422734315084472
 40
4.628285684838583
 40
4.872093227758427
 40
5.152549652145536
 40
5.464967135837506
 40
5.803201477852418
 40
6.160362988813886
 40
6.193449448275969
 40
6.284170385501624
 40
6.419718138764465
 40
6.587285046385744
 40
6.77406344672363
 40
6.967245678113613
 40
7.154024078817627
 40
7.321590987025984
 40
7.457138740890342
 40
7.547859678556079
 40
7.580946138182639
 40
7.608533084714693
 40
7.669224367077672
 40
7.729915649429892
 40
7.757502595949945
 40
7.790278062553427
 40
7.880146277430897
 40
8.01441996318033
 40
8.180411842397831
 40
8.3654346376793
 40
8.556801071622573
 40
8.741823866830657
 40
8.907815745916224
 40
9.042089431507321
 40
9.131957646249447
 40
9.164733112797023
 40
9.415425063139947
 40
9.667986180958403
 40
9.694169807462542
 40
9.756607686047474
 40
9.83113031532228
 40
9.893568193899688
 40
9.919751820398504
 40
9.950967964690335
 40
9.996421631210447
 40
10.22087981037433
 40
10.44341866197521
 40
10.47847970788833
 40
10.57091337438734
 40
10.70159545461208
 40
10.85140174170339
 40
11.00120802880456
 40
11.13189010907362
 40
11.22432377582989
 40
11.25938480938936
 40
11.28697175596124
 40
11.34766303835898
 40
11.40835432042049
 40
11.43594125892084
 40
11.43594125892084
 40
11.43594125892084
 40
11.43594125892084
 10
190.0818114333289
 20
15.55242795125076
 30
0.0
 10
190.0702785844941
 20
15.55242790287914
 30
0.0
 10
190.0283409444998
 20
15.55242773704163
 30
0.0
 10
189.9434129719026
 20
15.55243125800908
 30
0.0
 10
189.8207688553128
 20
15.55240926435877
 30
0.0
 10
189.6791206916993
 20
15.55250801177053
 30
0.0
 10
189.537975369849
 20
15.55214686232419
 30
0.0
 10
189.4141351317905
 20
15.55321883609088
 30
0.0
 10
189.3317217825381
 20
15.55092249091267
 30
0.0
 10
189.1727791229693
 20
15.5604856937342
 30
0.0
 10
189.3503402353376
 20
15.1978539431137
 30
0.0
 10
189.3379739205453
 20
14.95243127723113
 30
0.0
 10
189.4064519473865
 20
14.66862501324835
 30
0.0
 10
189.4693024320971
 20
14.43250999939035
 30
0.0
 10
189.5452253431729
 20
14.2332674039613
 30
0.0
 10
189.6303189577017
 20
14.07745347451374
 30
0.0
 10
189.7244607592935
 20
13.97657857781392
 30
0.0
 10
189.8282648207728
 20
13.92465852638965
 30
0.0
 10
189.9125872030774
 20
13.97606484379618
 30
0.0
 10
189.9351322179452
 20
14.09144544037515
 30
0.0
 10
189.9745730975372
 20
14.21885149702381
 30
0.0
 10
189.9202919734942
 20
14.53622328086756
 30
0.0
 10
190.0451218072473
 20
14.38982180140905
 30
0.0
 10
190.2019291513603
 20
14.35795300331171
 30
0.0
 10
190.0947720007056
 20
14.12421357767628
 30
0.0
 10
190.0808711209867
 20
13.95972776583656
 30
0.0
 10
190.0234709467225
 20
13.83130869122484
 30
0.0
 10
189.933502014501
 20
13.76018802352827
 30
0.0
 10
189.8095274657878
 20
13.74432324142253
 30
0.0
 10
189.6634273196861
 20
13.77993797554172
 30
0.0
 10
189.5243894320284
 20
13.90000570500277
 30
0.0
 10
189.4102003962144
 20
14.07435682550319
 30
0.0
 10
189.3146141301486
 20
14.2994660311124
 30
0.0
 10
189.2318652572627
 20
14.56388246006443
 30
0.0
 10
189.1807179256411
 20
14.88187933098542
 30
0.0
 10
189.0770189207339
 20
15.15543728488912
 30
0.0
 10
189.2042841208523
 20
15.56005818612867
 30
0.0
 10
189.0357890623019
 20
15.55112367849677
 30
0.0
 10
188.9511995787078
 20
15.55315961418362
 30
0.0
 10
188.8189876387628
 20
15.55213937388405
 30
0.0
 10
188.6560505094104
 20
15.55253230318428
 30
0.0
 10
188.4733759170534
 20
15.55235696313368
 30
0.0
 10
188.2847057373383
 20
15.55260105307467
 30
0.0
 10
188.101446902019
 20
15.55185657906235
 30
0.0
 10
187.9404746832718
 20
15.55416360522425
 30
0.0
 10
187.8029808335277
 20
15.54799804883661
 30
0.0
 10
187.7289590372312
 20
15.5603283845821
 30
0.0
 10
187.6613215186857
 20
15.54329323723555
 30
0.0
 10
187.6732373719271
 20
15.59524438447527
 30
0.0
 10
187.6655677285694
 20
15.64071424966528
 30
0.0
 10
187.6732592225116
 20
15.68614453703704
 30
0.0
 10
187.6613141797763
 20
15.7380239598457
 30
0.0
 10
187.7283588305868
 20
15.72119143490263
 30
0.0
 10
187.8017375665677
 20
15.7333540909267
 30
0.0
 10
187.9379128305273
 20
15.72727231074957
 30
0.0
 10
188.0973811801513
 20
15.72954834315057
 30
0.0
 10
188.2789173085837
 20
15.72881233998961
 30
0.0
 10
188.4658034862179
 20
15.72905954196132
 30
0.0
 10
188.6468012316836
 20
15.72886400799253
 30
0.0
 10
188.8080802578879
 20
15.72932234714838
 30
0.0
 10
188.9393882124887
 20
15.72812673751205
 30
0.0
 10
189.0225051322596
 20
15.73051347319741
 30
0.0
 10
189.1556236547814
 20
15.72230605725463
 30
0.0
 10
189.064589350266
 20
15.97752868952654
 30
0.0
 10
188.9789633074419
 20
16.24164358328244
 30
0.0
 10
189.0990589003456
 20
16.22904442969165
 30
0.0
 10
189.1514264948544
 20
16.22694235763074
 30
0.0
 10
189.2214497569715
 20
16.22535399889655
 30
0.0
 10
189.2671922337818
 20
16.21602567538113
 30
0.0
 10
189.3220812646933
 20
16.22545966915425
 30
0.0
 10
189.2963574785681
 20
16.17733028655172
 30
0.0
 10
189.1825397571452
 20
16.18266829744164
 30
0.0
 10
189.3159346621136
 20
15.95449174576775
 30
0.0
 10
189.1943658735472
 20
15.72156856595923
 30
0.0
 10
189.3223188769412
 20
15.73087258884437
 30
0.0
 10
189.4049048406461
 20
15.7280100175468
 30
0.0
 10
189.5307214850824
 20
15.72923437412301
 30
0.0
 10
189.6741469838057
 20
15.72932431888963
 30
0.0
 10
189.8157420951728
 20
15.72746163183853
 30
0.0
 10
189.9459127249967
 20
15.73333075937161
 30
0.0
 10
190.0193452286191
 20
15.72070340823202
 30
0.0
 10
190.0891112922096
 20
15.73877563110411
 30
0.0
 10
190.0775772605396
 20
15.68612850546325
 30
0.0
 10
190.0833184346682
 20
15.64221317686547
 30
0.0
 10
190.0816615770911
 20
15.59089982676548
 30
0.0
 10
190.0817757561669
 20
15.56158792021633
 30
0.0
 10
190.0818114333289
 20
15.55242795125076
 30
0.0
 11
190.0818114333289
 21
15.55242795125076
 31
0.0
 11
190.0472127192051
 21
15.55242795125076
 31
0.0
 11
189.9559979274241
 21
15.55242795125076
 31
0.0
 11
189.8270390838717
 21
15.55242795125076
 31
0.0
 11
189.6792082144335
 21
15.55242795125076
 31
0.0
 11
189.5313773449954
 21
15.55242795125076
 31
0.0
 11
189.402418501443
 21
15.55242795125076
 31
0.0
 11
189.311203709662
 21
15.55242795125076
 31
0.0
 11
189.2766049955382
 21
15.55242795125076
 31
0.0
 11
189.3083140497693
 21
15.2343586493012
 31
0.0
 11
189.3527866656866
 21
14.9350952278808
 31
0.0
 11
189.409238911832
 21
14.66191269512576
 31
0.0
 11
189.4768868567479
 21
14.42208605917227
 31
0.0
 11
189.5549465689762
 21
14.22289032815654
 31
0.0
 11
189.6426341170592
 21
14.07160051021477
 31
0.0
 11
189.7391655695389
 21
13.97549161348317
 31
0.0
 11
189.8437569949575
 21
13.94183864609792
 31
0.0
 11
189.8943077302786
 21
13.97177376978835
 31
0.0
 11
189.9310588991552
 21
14.06491619815047
 31
0.0
 11
189.9562640977528
 21
14.22627151712054
 31
0.0
 11
189.9721769222368
 21
14.46084531263482
 31
0.0
 11
190.0494082682583
 21
14.40202182306618
 31
0.0
 11
190.1327184184385
 21
14.3592188543269
 31
0.0
 11
190.1066365811217
 21
14.1152838866101
 31
0.0
 11
190.0673317805105
 21
13.94207902887562
 31
0.0
 11
190.0105702596765
 21
13.83011272445917
 31
0.0
 11
189.9321182616911
 21
13.76989341669645
 31
0.0
 11
189.8277420296257
 21
13.75192954892317
 31
0.0
 11
189.6738595065098
 21
13.78957440012361
 31
0.0
 11
189.5388902376748
 21
13.89707348877403
 31
0.0
 11
189.4221739916163
 21
14.06627361744809
 31
0.0
 11
189.32305053683
 21
14.28902158871943
 31
0.0
 11
189.2408596418113
 21
14.55716420516172
 31
0.0
 11
189.1749410750559
 21
14.8625482693486
 31
0.0
 11
189.1246346050594
 21
15.19702058385373
 31
0.0
 11
189.0892800003172
 21
15.55242795125076
 31
0.0
 11
189.0561935405844
 21
15.55242795125076
 31
0.0
 11
188.9654726026075
 21
15.55242795125076
 31
0.0
 11
188.8299248482186
 21
15.55242795125076
 31
0.0
 11
188.6623579392495
 21
15.55242795125076
 31
0.0
 11
188.4755795375324
 21
15.55242795125076
 31
0.0
 11
188.2823973048993
 21
15.55242795125076
 31
0.0
 11
188.0956189031822
 21
15.55242795125076
 31
0.0
 11
187.9280519942132
 21
15.55242795125076
 31
0.0
 11
187.7925042398242
 21
15.55242795125076
 31
0.0
 11
187.7017833018473
 21
15.55242795125076
 31
0.0
 11
187.6686968421146
 21
15.55242795125076
 31
0.0
 11
187.6686968421146
 21
15.58001489785845
 31
0.0
 11
187.6686968421146
 21
15.64070618039537
 31
0.0
 11
187.6686968421146
 21
15.70139746293228
 31
0.0
 11
187.6686968421146
 21
15.72898440953997
 31
0.0
 11
187.7014723087632
 21
15.72898440953997
 31
0.0
 11
187.7913405237674
 21
15.72898440953997
 31
0.0
 11
187.9256142097149
 21
15.72898440953997
 31
0.0
 11
188.0916060891932
 21
15.72898440953997
 31
0.0
 11
188.2766288847902
 21
15.72898440953997
 31
0.0
 11
188.4679953190932
 21
15.72898440953997
 31
0.0
 11
188.6530181146902
 21
15.72898440953997
 31
0.0
 11
188.8190099941685
 21
15.72898440953997
 31
0.0
 11
188.953283680116
 21
15.72898440953997
 31
0.0
 11
189.0431518951202
 21
15.72898440953997
 31
0.0
 11
189.0759273617688
 21
15.72898440953997
 31
0.0
 11
189.0659183950104
 21
15.97947647544958
 31
0.0
 11
189.0599112510664
 21
16.2319661455253
 31
0.0
 11
189.086057587066
 21
16.23056921608121
 31
0.0
 11
189.148406542142
 21
16.2272380766376
 31
0.0
 11
189.22282303691
 21
16.22326220052748
 31
0.0
 11
189.2851719919859
 21
16.21993106108388
 31
0.0
 11
189.3113183279855
 21
16.21853413163978
 31
0.0
 11
189.298293111304
 21
16.19016528616079
 31
0.0
 11
189.2551649266405
 21
16.17581274276163
 31
0.0
 11
189.2574991961821
 21
15.95136670115107
 31
0.0
 11
189.2658452735903
 21
15.72898440953997
 31
0.0
 11
189.3009063195165
 21
15.72898440953997
 31
0.0
 11
189.3933399860495
 21
15.72898440953997
 31
0.0
 11
189.5240220663201
 21
15.72898440953997
 31
0.0
 11
189.6738283534596
 21
15.72898440953997
 31
0.0
 11
189.8236346405991
 21
15.72898440953997
 31
0.0
 11
189.9543167208697
 21
15.72898440953997
 31
0.0
 11
190.0467503874027
 21
15.72898440953997
 31
0.0
 11
190.0818114333289
 21
15.72898440953997
 31
0.0
 11
190.0818114333289
 21
15.70139746293228
 31
0.0
 11
190.0818114333289
 21
15.64070618039537
 31
0.0
 11
190.0818114333289
 21
15.58001489785845
 31
0.0
 11
190.0818114333289
 21
15.55242795125076
 31
0.0
  0
SPLINE
  5
AC
102
{ACAD_REACTORS
330
C9
102
}
330
48
100
AcDbEntity
  8
_U_30EC_U_30A4_U_30E4_U_30FC_1
  6
Continuous
 62
     2
100
AcDbSpline
210
0.0
220
0.0
230
1.0
 70
    11
 71
     3
 72
    75
 73
    71
 74
    69
 42
0.000000001
 43
0.0000000001
 44
0.00000001
 40
0.0
 40
0.0
 40
0.0
 40
0.0
 40
0.0342546099129691
 40
0.1245622414432364
 40
0.2522385480897518
 40
0.398599192294068
 40
0.5449598364980839
 40
0.6726361431438834
 40
0.7629437746736942
 40
0.7971983935297973
 40
1.101723623449717
 40
1.408591244036666
 40
1.433332471690372
 40
1.487763172450168
 40
1.542193873081999
 40
1.566935100592549
 40
1.923523931821805
 40
2.271755704953632
 40
2.590579755100875
 40
2.85894330558116
 40
2.889120339309145
 40
2.918305855191091
 40
2.941366645531214
 40
2.996357760973106
 40
3.061992318140651
 40
3.116983433626837
 40
3.140044223997525
 40
3.411273122936417
 40
3.732441619741027
 40
3.761068217532725
 40
3.837787499630287
 40
3.948858699125926
 40
4.080541049104302
 40
4.219093782625685
 40
4.350776132722236
 40
4.461847332405571
 40
4.538566614678301
 40
4.56719321254455
 40
4.594907573998808
 40
4.666381453557347
 40
4.764111044010929
 40
4.870592538125732
 40
4.968322128642126
 40
5.03979600828684
 40
5.06751036978427
 40
5.094263603185483
 40
5.153120716668121
 40
5.211977830150569
 40
5.238731063551573
 40
5.272290535138841
 40
5.363380529444645
 40
5.497618415781351
 40
5.660621563453565
 40
5.838007341749265
 40
6.015393119910645
 40
6.178396267038242
 40
6.312634151842222
 40
6.403724143059212
 40
6.437283612672307
 40
6.464036846260924
 40
6.522893960004541
 40
6.581751071483807
 40
6.608504301590753
 40
6.637253941280901
 40
6.711397748902781
 40
6.812778057283393
 40
6.923237199249169
 40
7.024617507623813
 40
7.098761315207523
 40
7.127510946007473
 40
7.127510946007473
 40
7.127510946007473
 40
7.127510946007473
 10
188.4418622390564
 20
14.95849128473264
 30
0.0
 10
188.4418622819707
 20
14.9470731340872
 30
0.0
 10
188.4418624481128
 20
14.90555257842628
 30
0.0
 10
188.4418593081787
 20
14.82146922003771
 30
0.0
 10
188.44187882798
 20
14.70004497322328
 30
0.0
 10
188.4417912187737
 20
14.55980494047448
 30
0.0
 10
188.442111623523
 20
14.42006556794576
 30
0.0
 10
188.4411605909741
 20
14.29745038894929
 30
0.0
 10
188.4431978595967
 20
14.21587074438043
 30
0.0
 10
188.4349433178745
 20
14.06271267077695
 30
0.0
 10
188.7430797940901
 20
14.22560236054718
 30
0.0
 10
189.0350645173736
 20
14.39482938688001
 30
0.0
 10
189.0408354448708
 20
14.25973235781911
 30
0.0
 10
189.045547171989
 20
14.21617221160444
 30
0.0
 10
189.0482535411918
 20
14.17211249350545
 30
0.0
 10
189.0672545672958
 20
14.02272590363134
 30
0.0
 10
188.6583942247302
 20
14.0868117224126
 30
0.0
 10
188.3793710348832
 20
13.97296341411019
 30
0.0
 10
188.1018081587167
 20
13.87364095811135
 30
0.0
 10
187.80998371844
 20
13.91630687596369
 30
0.0
 10
187.7869144678658
 20
13.81321679744538
 30
0.0
 10
187.7537474383334
 20
13.7869109124447
 30
0.0
 10
187.7480653962739
 20
13.83455309036304
 30
0.0
 10
187.7284214559045
 20
13.8718033611507
 30
0.0
 10
187.7095089485624
 20
13.93007387847563
 30
0.0
 10
187.6942849867708
 20
13.97385201007806
 30
0.0
 10
187.6477246372935
 20
14.08759421046305
 30
0.0
 10
187.9890897312451
 20
14.0557630112005
 30
0.0
 10
188.2679649367386
 20
14.02161435106481
 30
0.0
 10
188.2617753034907
 20
14.16913976479652
 30
0.0
 10
188.2630935452773
 20
14.24013150908832
 30
0.0
 10
188.2624831689948
 20
14.34719767958661
 30
0.0
 10
188.2625871570725
 20
14.47398529785998
 30
0.0
 10
188.2629987964055
 20
14.6084924349605
 30
0.0
 10
188.2613907841968
 20
14.73395549951184
 30
0.0
 10
188.2659902567925
 20
14.84505246719117
 30
0.0
 10
188.256418650221
 20
14.90761886800689
 30
0.0
 10
188.2704001783691
 20
14.96595388295001
 30
0.0
 10
188.2147384386704
 20
14.95289710582238
 30
0.0
 10
188.1575655197822
 20
14.96136307749499
 30
0.0
 10
188.0616048925647
 20
14.95729976080636
 30
0.0
 10
187.9633767522822
 20
14.95970889852474
 30
0.0
 10
187.8672582457561
 20
14.95551600613389
 30
0.0
 10
187.8104648525812
 20
14.96429346441162
 30
0.0
 10
187.7550356873385
 20
14.95094936850122
 30
0.0
 10
187.7670679427918
 20
15.00036910959257
 30
0.0
 10
187.7592003173938
 20
15.04393988030396
 30
0.0
 10
187.766629556383
 20
15.08830469118525
 30
0.0
 10
187.7551930564144
 20
15.13902297763992
 30
0.0
 10
187.8232102370134
 20
15.12162460757743
 30
0.0
 10
187.8968496879747
 20
15.13417450237189
 30
0.0
 10
188.0325064058211
 20
15.12799677011096
 30
0.0
 10
188.1884909024526
 20
15.13029203093085
 30
0.0
 10
188.3615926358144
 20
15.1294096826253
 30
0.0
 10
188.5346942964182
 20
15.13029207142408
 30
0.0
 10
188.6906789811218
 20
15.1279966295555
 30
0.0
 10
188.8263351889798
 20
15.13417486262431
 30
0.0
 10
188.8999756705653
 20
15.12162394218335
 30
0.0
 10
188.9679914174724
 20
15.13902373012142
 30
0.0
 10
188.9565590885923
 20
15.08830130414555
 30
0.0
 10
188.9639539458298
 20
15.04397060811108
 30
0.0
 10
188.9562039912271
 20
15.00028307550196
 30
0.0
 10
188.9681203741878
 20
14.95063590098477
 30
0.0
 10
188.9108170223617
 20
14.96461411338426
 30
0.0
 10
188.8520145789773
 20
14.95539755673253
 30
0.0
 10
188.75252936332
 20
14.95952268164929
 30
0.0
 10
188.649428009835
 20
14.95822760025887
 30
0.0
 10
188.5537846354574
 20
14.95854077077641
 30
0.0
 10
188.4857467971617
 20
14.95848776697145
 30
0.0
 10
188.4514462213443
 20
14.95849051871656
 30
0.0
 10
188.4418622390564
 20
14.95849128473264
 30
0.0
 11
188.4418622390564
 21
14.95849128473264
 31
0.0
 11
188.4418622390564
 21
14.92423666587185
 31
0.0
 11
188.4418622390564
 21
14.83392903432975
 31
0.0
 11
188.4418622390564
 21
14.70625272766679
 31
0.0
 11
188.4418622390564
 21
14.55989208344339
 31
0.0
 11
188.4418622390564
 21
14.41353143922
 31
0.0
 11
188.4418622390564
 21
14.28585513255704
 31
0.0
 11
188.4418622390564
 21
14.19554750101494
 31
0.0
 11
188.4418622390564
 21
14.16129288215415
 31
0.0
 11
188.7391932644568
 21
14.22709475713768
 31
0.0
 11
189.0384623627245
 21
14.29496038212072
 31
0.0
 11
189.0405487124976
 21
14.27030727882827
 31
0.0
 11
189.0451386819987
 21
14.2160704515849
 31
0.0
 11
189.0497286514996
 21
14.16183362434152
 31
0.0
 11
189.0518150012728
 21
14.13718052104907
 31
0.0
 11
188.705639688924
 21
14.05163370140897
 31
0.0
 11
188.3669653138838
 21
13.97060877629901
 31
0.0
 11
188.0563731516688
 21
13.89862764024929
 31
0.0
 11
187.7944444777955
 21
13.84021218778991
 31
0.0
 11
187.7817515029293
 21
13.81283442738013
 31
0.0
 11
187.7569794787514
 21
13.79740260446735
 31
0.0
 11
187.7491867589502
 21
13.81910683390636
 31
0.0
 11
187.7306041194242
 21
13.87086307333786
 31
0.0
 11
187.7084248399901
 21
13.93263664943351
 31
0.0
 11
187.6898422004641
 21
13.98439288886501
 31
0.0
 11
187.6820494806629
 21
14.00609711830402
 31
0.0
 11
187.9482776335932
 21
14.05794001759666
 31
0.0
 11
188.2626334936289
 21
14.1237396877191
 31
0.0
 11
188.2626334936289
 21
14.15236628569624
 31
0.0
 11
188.2626334936289
 21
14.22908556827499
 31
0.0
 11
188.2626334936289
 21
14.34015676842631
 31
0.0
 11
188.2626334936289
 21
14.47183911912118
 31
0.0
 11
188.2626334936289
 21
14.61039185333056
 31
0.0
 11
188.2626334936289
 21
14.74207420402542
 31
0.0
 11
188.2626334936289
 21
14.85314540417675
 31
0.0
 11
188.2626334936289
 21
14.92986468675549
 31
0.0
 11
188.2626334936289
 21
14.95849128473264
 31
0.0
 11
188.2349191321108
 21
14.95849128473264
 31
0.0
 11
188.1634452524063
 21
14.95849128473264
 31
0.0
 11
188.0657156617901
 21
14.95849128473264
 31
0.0
 11
187.9592341675364
 21
14.95849128473264
 31
0.0
 11
187.8615045769201
 21
14.95849128473264
 31
0.0
 11
187.7900306972156
 21
14.95849128473264
 31
0.0
 11
187.7623163356976
 21
14.95849128473264
 31
0.0
 11
187.7623163356976
 21
14.98524451823289
 31
0.0
 11
187.7623163356976
 21
15.04410163193344
 31
0.0
 11
187.7623163356976
 21
15.10295874563399
 31
0.0
 11
187.7623163356976
 21
15.12971197913424
 31
0.0
 11
187.7958758072876
 21
15.12971197913424
 31
0.0
 11
187.8869658016031
 21
15.12971197913424
 31
0.0
 11
188.021203687963
 21
15.12971197913424
 31
0.0
 11
188.1842068356856
 21
15.12971197913424
 31
0.0
 11
188.3615926140897
 21
15.12971197913424
 31
0.0
 11
188.5389783924938
 21
15.12971197913424
 31
0.0
 11
188.7019815402165
 21
15.12971197913424
 31
0.0
 11
188.8362194265763
 21
15.12971197913424
 31
0.0
 11
188.9273094208919
 21
15.12971197913424
 31
0.0
 11
188.9608688924819
 21
15.12971197913424
 31
0.0
 11
188.9608688924819
 21
15.10295874563399
 31
0.0
 11
188.9608688924819
 21
15.04410163193344
 31
0.0
 11
188.9608688924819
 21
14.98524451823289
 31
0.0
 11
188.9608688924819
 21
14.95849128473264
 31
0.0
 11
188.9321192527878
 21
14.95849128473264
 31
0.0
 11
188.8579754451555
 21
14.95849128473264
 31
0.0
 11
188.7565951367605
 21
14.95849128473264
 31
0.0
 11
188.6461359947778
 21
14.95849128473264
 31
0.0
 11
188.5447556863828
 21
14.95849128473264
 31
0.0
 11
188.4706118787505
 21
14.95849128473264
 31
0.0
 11
188.4418622390564
 21
14.95849128473264
 31
0.0
  0
SPLINE
  5
AD
102
{ACAD_REACTORS
330
CA
102
}
330
48
100
AcDbEntity
  8
_U_30EC_U_30A4_U_30E4_U_30FC_1
  6
Continuous
 62
     2
100
AcDbSpline
210
0.0
220
0.0
230
1.0
 70
    11
 71
     3
 72
    15
 73
    11
 74
     9
 42
0.000000001
 43
0.0000000001
 44
0.00000001
 40
0.0
 40
0.0
 40
0.0
 40
0.0
 40
0.2785535985096075
 40
0.5215624748198766
 40
0.6076917376040816
 40
0.6938210001741757
 40
0.9405019146455532
 40
1.221691403489187
 40
1.300471877081125
 40
1.379252341684931
 40
1.379252341684931
 40
1.379252341684931
 40
1.379252341684931
 10
189.5681493631
 20
16.2293026733038
 30
0.0
 10
189.6296017794178
 20
16.17691646592714
 30
0.0
 10
189.7446649974113
 20
16.07882876798219
 30
0.0
 10
190.0397348497245
 20
15.9288978589722
 30
0.0
 10
189.9025147631857
 20
15.84343227515015
 30
0.0
 10
189.8041227843778
 20
15.71085785201555
 30
0.0
 10
189.7130033590649
 20
16.01616985781418
 30
0.0
 10
189.3636839480655
 20
16.07967869465376
 30
0.0
 10
189.511925837657
 20
16.17896509880878
 30
0.0
 10
189.5494081874238
 20
16.21252348402382
 30
0.0
 10
189.5681493631
 20
16.2293026733038
 30
0.0
 11
189.5681493631
 21
16.2293026733038
 31
0.0
 11
189.7919222440596
 21
16.06341774278972
 31
0.0
 11
189.9695046306384
 21
15.89753281227564
 31
0.0
 11
189.9066308127979
 21
15.83866743034592
 31
0.0
 11
189.8437569949575
 21
15.7798020484162
 31
0.0
 11
189.6688535117725
 21
15.95375677059491
 31
0.0
 11
189.447825685614
 21
16.12757920110702
 31
0.0
 11
189.507987524357
 21
16.17844093720541
 31
0.0
 11
189.5681493631
 21
16.2293026733038
 31
0.0
  0
SPLINE
  5
AE
102
{ACAD_REACTORS
330
CB
102
}
330
48
100
AcDbEntity
  8
_U_30EC_U_30A4_U_30E4_U_30FC_1
  6
Continuous
 62
     2
100
AcDbSpline
210
0.0
220
0.0
230
1.0
 70
    11
 71
     3
 72
    35
 73
    31
 74
    29
 42
0.000000001
 43
0.0000000001
 44
0.00000001
 40
0.0
 40
0.0
 40
0.0
 40
0.0
 40
0.0335231036620562
 40
0.0713218571711968
 40
0.427886668148716
 40
0.8116865841963978
 40
1.198190238000058
 40
1.56137954681269
 40
1.659983174622014
 40
1.759315573807179
 40
2.132719617231038
 40
2.525233363588768
 40
2.910815397779678
 40
3.265244364303261
 40
3.592606723581944
 40
3.964386154603892
 40
4.359942131737736
 40
4.758154118639294
 40
4.843846538699904
 40
4.936650065543172
 40
5.256616602537227
 40
5.581707404415916
 40
5.899719158308056
 40
6.198363494280659
 40
6.466301046615724
 40
6.493895311537046
 40
6.559697020196782
 40
6.638234543442358
 40
6.704036252154082
 40
6.731630508422859
 40
6.731630508422859
 40
6.731630508422859
 40
6.731630508422859
 10
191.9736010568669
 20
16.23463843719133
 30
0.0
 10
191.9676006097788
 20
16.22480690542322
 30
0.0
 10
191.9548344099157
 20
16.20388988579798
 30
0.0
 10
191.7949362006554
 20
16.17127126532688
 30
0.0
 10
192.2322025842336
 20
15.88206680336704
 30
0.0
 10
192.4345394828262
 20
15.68041138358438
 30
0.0
 10
192.6819564267973
 20
15.43749387603274
 30
0.0
 10
193.1831513624606
 20
15.36047662757781
 30
0.0
 10
193.012556219897
 20
15.21876939174652
 30
0.0
 10
192.93832994632
 20
15.01710366209113
 30
0.0
 10
192.6131432248188
 20
15.36956287174723
 30
0.0
 10
192.3277741670664
 20
15.53175212559565
 30
0.0
 10
192.0337604077658
 20
15.73687130053045
 30
0.0
 10
191.8084452691134
 20
16.21827488595454
 30
0.0
 10
191.5993085055522
 20
15.7534304660922
 30
0.0
 10
191.3207873674835
 20
15.54350952252911
 30
0.0
 10
191.0371383177209
 20
15.37424456359983
 30
0.0
 10
190.7078639527832
 20
15.00142360907937
 30
0.0
 10
190.6277012318224
 20
15.19708014458998
 30
0.0
 10
190.4759724909746
 20
15.32491104190602
 30
0.0
 10
190.9083395826795
 20
15.40454031765931
 30
0.0
 10
191.0962565329765
 20
15.60026634915477
 30
0.0
 10
191.3468477420503
 20
15.81632996916753
 30
0.0
 10
191.5714350470161
 20
15.9819099230006
 30
0.0
 10
191.6259775409713
 20
16.26133964636828
 30
0.0
 10
191.7494661029012
 20
16.24737950408079
 30
0.0
 10
191.8060273344521
 20
16.24521268867647
 30
0.0
 10
191.8761870984945
 20
16.24046859881359
 30
0.0
 10
191.9333414022105
 20
16.23709429350541
 30
0.0
 10
191.9644190320839
 20
16.23519854711117
 30
0.0
 10
191.9736010568669
 20
16.23463843719133
 30
0.0
 11
191.9736010568669
 21
16.23463843719133
 31
0.0
 11
191.9525319069884
 21
16.20856374969785
 31
0.0
 11
191.9174464559425
 21
16.19450114553469
 31
0.0
 11
192.1512374769095
 21
15.92527961131382
 31
0.0
 11
192.4414585957566
 21
15.67413407969259
 31
0.0
 11
192.7612797483684
 21
15.45710987618783
 31
0.0
 11
193.0838708706289
 21
15.29025232631636
 31
0.0
 11
193.0213299868077
 21
15.21402035584928
 31
0.0
 11
192.9688035818975
 21
15.12971197913424
 31
0.0
 11
192.6436279095814
 21
15.3132640483158
 31
0.0
 11
192.3237227768436
 21
15.54070139743428
 31
0.0
 11
192.0354200158608
 21
15.7967385512331
 31
0.0
 11
191.8050514588095
 21
16.06609003445565
 31
0.0
 11
191.5995531719517
 21
15.81126348721036
 31
0.0
 11
191.3288301341536
 21
15.55645182277755
 31
0.0
 11
191.0119538423247
 21
15.31969466354855
 31
0.0
 11
190.6679957933741
 21
15.11903163191466
 31
0.0
 11
190.6218855341338
 21
15.19126067703553
 31
0.0
 11
190.5636970460349
 21
15.26355586798966
 31
0.0
 11
190.8433040489015
 21
15.41911456961744
 31
0.0
 11
191.1093004621154
 21
15.60601009790405
 31
0.0
 11
191.3499997459747
 21
15.81384496285209
 31
0.0
 11
191.5537153607775
 21
16.03222167446416
 31
0.0
 11
191.7087607668219
 21
16.25074274274287
 31
0.0
 11
191.7363041569866
 21
16.24906789496551
 31
0.0
 11
191.8019845489177
 21
16.24507402718873
 31
0.0
 11
191.8803772747711
 21
16.24030715274547
 31
0.0
 11
191.9460576667022
 21
16.23631328496869
 31
0.0
 11
191.9736010568669
 21
16.23463843719133
 31
0.0
  0
SPLINE
  5
AF
102
{ACAD_REACTORS
330
CC
102
}
330
48
100
AcDbEntity
  8
_U_30EC_U_30A4_U_30E4_U_30FC_1
  6
Continuous
 62
     2
100
AcDbSpline
210
0.0
220
0.0
230
1.0
 70
    11
 71
     3
 72
    91
 73
    87
 74
    85
 42
0.000000001
 43
0.0000000001
 44
0.00000001
 40
0.0
 40
0.0
 40
0.0
 40
0.0
 40
0.0267532254356701
 40
0.0856103386464102
 40
0.1444674521996621
 40
0.1712206856618514
 40
0.2039416005642536
 40
0.2955601971652484
 40
0.4362601844617202
 40
0.6162252844507534
 40
0.8256392189704982
 40
1.054685709844468
 40
1.293548478893588
 40
1.532411247938332
 40
1.761457738799596
 40
1.970871673298593
 40
2.150836773256818
 40
2.291536760495679
 40
2.383155356836757
 40
2.415876284101405
 40
2.44262951748805
 40
2.50148663094918
 40
2.560343744424327
 40
2.5870969778266
 40
2.617068194441027
 40
2.699247336756197
 40
2.822032643466481
 40
2.973822353258039
 40
3.143014704823481
 40
3.31800793688006
 40
3.487200288186894
 40
3.638989997548431
 40
3.76177530379493
 40
3.843954445753265
 40
3.87392566222996
 40
3.890812773500668
 40
3.907699884771846
 40
3.937960767857452
 40
3.980983618142401
 40
4.199085915228559
 40
4.439444339237363
 40
4.67758824126102
 40
5.050698317837934
 40
5.448212454763377
 40
5.855291218044902
 40
6.138575438885612
 40
6.417434507584473
 40
6.444551104394154
 40
6.504207617363479
 40
6.563864130314875
 40
6.590980727104467
 40
6.848609460381825
 40
7.109611990668763
 40
7.352910904446426
 40
7.557830220705814
 40
7.587518925913708
 40
7.652834077376126
 40
7.718149228846087
 40
7.747837934062367
 40
7.854880190301355
 40
7.976511257403881
 40
8.36948789659271
 40
8.75751495922406
 40
9.126072419331523
 40
9.460639380392585
 40
9.746695593036327
 40
9.777569943119104
 40
9.807050320932204
 40
9.830377336129336
 40
9.88600329543641
 40
9.952395569430323
 40
10.00802152870667
 40
10.0313485438826
 40
10.21356951009633
 40
10.42203479292913
 40
10.66154556731108
 40
10.91693789564351
 40
11.15832906556612
 40
11.18982674596669
 40
11.27286608520454
 40
11.39026653033401
 40
11.52484752840938
 40
11.65942852648497
 40
11.77682897161538
 40
11.85986831085737
 40
11.89136598230483
 40
11.89136598230483
 40
11.89136598230483
 40
11.89136598230483
 10
190.7027885008196
 20
14.70699600701772
 30
0.0
 10
190.7028237765288
 20
14.71587847311985
 30
0.0
 10
190.7029366710796
 20
14.74430237047346
 30
0.0
 10
190.7012984568489
 20
14.79409639169803
 30
0.0
 10
190.7069750292911
 20
14.83657564478154
 30
0.0
 10
190.6956928731706
 20
14.88730154856847
 30
0.0
 10
190.7632296979031
 20
14.87012900740109
 30
0.0
 10
190.8388029210701
 20
14.88290227165996
 30
0.0
 10
190.9828357056001
 20
14.87629729457382
 30
0.0
 10
191.1569419185427
 20
14.87888462206466
 30
0.0
 10
191.3639599611003
 20
14.87800591955553
 30
0.0
 10
191.5894688172378
 20
14.87828207920027
 30
0.0
 10
191.8251162293406
 20
14.87818339658662
 30
0.0
 10
192.0607640531349
 20
14.87828184412767
 30
0.0
 10
192.2862717580626
 20
14.87800678190789
 30
0.0
 10
192.4932934632805
 20
14.87888186270734
 30
0.0
 10
192.667388891529
 20
14.87630522678446
 30
0.0
 10
192.8114492071986
 20
14.88288290449213
 30
0.0
 10
192.8869691915294
 20
14.87016243405604
 30
0.0
 10
192.954577603703
 20
14.88726400191687
 30
0.0
 10
192.9430840140677
 20
14.83674785802941
 30
0.0
 10
192.9505104581733
 20
14.79253252226501
 30
0.0
 10
192.9428838927986
 20
14.7486796650361
 30
0.0
 10
192.9546489459426
 20
14.69878374479327
 30
0.0
 10
192.8930788491983
 20
14.71393227712512
 30
0.0
 10
192.8256791738672
 20
14.70310665350673
 30
0.0
 10
192.7013004056222
 20
14.70852031626237
 30
0.0
 10
192.5554428236572
 20
14.70649205390785
 30
0.0
 10
192.3893576440086
 20
14.70715777578387
 30
0.0
 10
192.2188412621725
 20
14.70689643521242
 30
0.0
 10
192.0519790855389
 20
14.70721553391094
 30
0.0
 10
191.9087346827105
 20
14.70635302590762
 30
0.0
 10
191.7773313869834
 20
14.70863300482988
 30
0.0
 10
191.7239859134656
 20
14.70407704374202
 30
0.0
 10
191.6485188456912
 20
14.70999914992877
 30
0.0
 10
191.6769075779232
 20
14.70094169343353
 30
0.0
 10
191.7033652409542
 20
14.6972591226893
 30
0.0
 10
191.6633522907701
 20
14.66654271968277
 30
0.0
 10
191.5713663691869
 20
14.67667591174628
 30
0.0
 10
191.543939620707
 20
14.43032502247786
 30
0.0
 10
191.4478793967234
 20
14.27499558764375
 30
0.0
 10
191.1917277964473
 20
13.94525417931569
 30
0.0
 10
191.7627537732763
 20
14.08430022210452
 30
0.0
 10
192.0173656320517
 20
14.08291779973363
 30
0.0
 10
192.6279647048618
 20
13.99790569242087
 30
0.0
 10
192.3340698578084
 20
14.29685417558203
 30
0.0
 10
192.0133304286516
 20
14.44330856901779
 30
0.0
 10
192.1313543360434
 20
14.50025540818287
 30
0.0
 10
192.1724716466261
 20
14.52420099873349
 30
0.0
 10
192.2156812394412
 20
14.54599758811228
 30
0.0
 10
192.3174574094452
 20
14.60928721253902
 30
0.0
 10
192.4328867625248
 20
14.35147151408779
 30
0.0
 10
192.6329591642277
 20
14.21616041113683
 30
0.0
 10
192.7269077387229
 20
14.03792795138879
 30
0.0
 10
192.9558829746393
 20
13.87997821027054
 30
0.0
 10
192.8596031846709
 20
13.82915972576298
 30
0.0
 10
192.816795976378
 20
13.79881292523053
 30
0.0
 10
192.7718243528781
 20
13.77466130281461
 30
0.0
 10
192.7121720925214
 20
13.72552146747566
 30
0.0
 10
192.6789731061325
 20
13.85997475673607
 30
0.0
 10
192.5582013350797
 20
14.01594265286584
 30
0.0
 10
192.1970976005979
 20
13.88569928059555
 30
0.0
 10
191.8385061955541
 20
13.90224694409483
 30
0.0
 10
191.457092045008
 20
13.89331229351864
 30
0.0
 10
191.1703455282891
 20
13.82882671672408
 30
0.0
 10
190.8592055599715
 20
13.94230668192826
 30
0.0
 10
190.8268737818788
 20
13.83122259927768
 30
0.0
 10
190.7896178253318
 20
13.81196313850012
 30
0.0
 10
190.7865737632754
 20
13.85874784087297
 30
0.0
 10
190.7679892860607
 20
13.89806853919134
 30
0.0
 10
190.7512436616778
 20
13.95765983478232
 30
0.0
 10
190.7383730915753
 20
14.00201969871283
 30
0.0
 10
190.7042327806428
 20
14.091063311202
 30
0.0
 10
190.9482714457754
 20
14.0218104294377
 30
0.0
 10
191.1441394486671
 20
14.00030369057744
 30
0.0
 10
191.2395426381277
 20
14.28226484478462
 30
0.0
 10
191.2945135769598
 20
14.44363045421123
 30
0.0
 10
191.5159619357157
 20
14.71391177589737
 30
0.0
 10
191.3849239381217
 20
14.70548446853735
 30
0.0
 10
191.3110026555854
 20
14.70779008496969
 30
0.0
 10
191.1977459876244
 20
14.70671378321659
 30
0.0
 10
191.0694251807485
 20
14.70707639076509
 30
0.0
 10
190.9404252030415
 20
14.70697724466086
 30
0.0
 10
190.8287840946292
 20
14.70699932712572
 30
0.0
 10
190.7514663970025
 20
14.7069957918967
 30
0.0
 10
190.713287653201
 20
14.70699595845081
 30
0.0
 10
190.7027885008196
 20
14.70699600701772
 30
0.0
 11
190.7027885008196
 21
14.70699600701772
 31
0.0
 11
190.7027885008196
 21
14.73374924051797
 31
0.0
 11
190.7027885008196
 21
14.79260635421853
 31
0.0
 11
190.7027885008196
 21
14.85146346791909
 31
0.0
 11
190.7027885008196
 21
14.87821670141935
 31
0.0
 11
190.7355094280989
 21
14.87821670141935
 31
0.0
 11
190.8271280244809
 21
14.87821670141935
 31
0.0
 11
190.9678280117819
 21
14.87821670141935
 31
0.0
 11
191.147793111818
 21
14.87821670141935
 31
0.0
 11
191.3572070464054
 21
14.87821670141935
 31
0.0
 11
191.5862535373604
 21
14.87821670141935
 31
0.0
 11
191.8251163064993
 21
14.87821670141935
 31
0.0
 11
192.0639790756381
 21
14.87821670141935
 31
0.0
 11
192.2930255665931
 21
14.87821670141935
 31
0.0
 11
192.5024395011806
 21
14.87821670141935
 31
0.0
 11
192.6824046012168
 21
14.87821670141935
 31
0.0
 11
192.8231045885177
 21
14.87821670141935
 31
0.0
 11
192.9147231848997
 21
14.87821670141935
 31
0.0
 11
192.947444112179
 21
14.87821670141935
 31
0.0
 11
192.947444112179
 21
14.85146346791909
 31
0.0
 11
192.947444112179
 21
14.79260635421853
 31
0.0
 11
192.947444112179
 21
14.73374924051797
 31
0.0
 11
192.947444112179
 21
14.70699600701772
 31
0.0
 11
192.9174728954758
 21
14.70699600701772
 31
0.0
 11
192.8352937529027
 21
14.70699600701772
 31
0.0
 11
192.712508445764
 21
14.70699600701772
 31
0.0
 11
192.5607187353642
 21
14.70699600701772
 31
0.0
 11
192.3915263830078
 21
14.70699600701772
 31
0.0
 11
192.2165331499991
 21
14.70699600701772
 31
0.0
 11
192.0473407976427
 21
14.70699600701772
 31
0.0
 11
191.8955510872428
 21
14.70699600701772
 31
0.0
 11
191.7727657801042
 21
14.70699600701772
 31
0.0
 11
191.690586637531
 21
14.70699600701772
 31
0.0
 11
191.6606154208279
 21
14.70699600701772
 31
0.0
 11
191.6766359412525
 21
14.70165583340794
 31
0.0
 11
191.6926564616771
 21
14.69631565979815
 31
0.0
 11
191.670615568142
 21
14.67558114591443
 31
0.0
 11
191.6284861855364
 21
14.6668587153611
 31
0.0
 11
191.5365235541378
 21
14.46909247312657
 31
0.0
 11
191.4279078521764
 21
14.25467511978509
 31
0.0
 11
191.3127500824807
 21
14.0462255905162
 31
0.0
 11
191.685736667502
 21
14.05582441253029
 31
0.0
 11
192.0830700036151
 21
14.06781232404995
 31
0.0
 11
192.4899342191146
 21
14.08102711828532
 31
0.0
 11
192.2983119496979
 21
14.28966761302481
 31
0.0
 11
192.0966752013698
 21
14.48229420151832
 31
0.0
 11
192.1204947794749
 21
14.49525327269564
 31
0.0
 11
192.1728978513062
 21
14.52376322928576
 31
0.0
 11
192.2253009231375
 21
14.55227318587587
 31
0.0
 11
192.2491205012426
 21
14.56523225705319
 31
0.0
 11
192.4387101558627
 21
14.39079508370268
 31
0.0
 11
192.6200310940436
 21
14.20305846374091
 31
0.0
 11
192.7777729231148
 21
14.01782380992436
 31
0.0
 11
192.8966252504059
 21
13.85089253500949
 31
0.0
 11
192.8715408217924
 21
13.83501202286069
 31
0.0
 11
192.8163550788427
 21
13.80007489613332
 31
0.0
 11
192.7611693358929
 21
13.76513776940595
 31
0.0
 11
192.7360849072794
 21
13.74925725725715
 31
0.0
 11
192.6775518151613
 21
13.83887824681809
 31
0.0
 11
192.6050015078458
 21
13.93650288221032
 31
0.0
 11
192.2125412924095
 21
13.91636286943759
 31
0.0
 11
191.824947406956
 21
13.89803302999773
 31
0.0
 11
191.4567378976213
 21
13.88202178722395
 31
0.0
 11
191.1224308105412
 21
13.86883756444947
 31
0.0
 11
190.8365441918518
 21
13.8589887850075
 31
0.0
 11
190.821186232174
 21
13.83220523466695
 31
0.0
 11
190.7937434290546
 21
13.82143559057245
 31
0.0
 11
190.7867927192319
 21
13.84370299445577
 31
0.0
 11
190.7702179496548
 21
13.89680218833138
 31
0.0
 11
190.7504351601596
 21
13.96017864553776
 31
0.0
 11
190.7338603905825
 21
14.01327783941337
 31
0.0
 11
190.7269096807598
 21
14.03554524329669
 31
0.0
 11
190.9091199859153
 21
14.03751638912952
 31
0.0
 11
191.1174975848588
 21
14.04356211829471
 31
0.0
 11
191.2303203127216
 21
14.25483550301553
 31
0.0
 11
191.3407936722036
 21
14.48509813155879
 31
0.0
 11
191.4358254265628
 21
14.70699600701772
 31
0.0
 11
191.4043277461597
 21
14.70699600701772
 31
0.0
 11
191.3212884069154
 21
14.70699600701772
 31
0.0
 11
191.2038879617768
 21
14.70699600701772
 31
0.0
 11
191.0693069636912
 21
14.70699600701772
 31
0.0
 11
190.9347259656055
 21
14.70699600701772
 31
0.0
 11
190.817325520467
 21
14.70699600701772
 31
0.0
 11
190.7342861812226
 21
14.70699600701772
 31
0.0
 11
190.7027885008196
 21
14.70699600701772
 31
0.0
  0
SPLINE
  5
B0
102
{ACAD_REACTORS
330
CD
102
}
330
48
100
AcDbEntity
  8
_U_30EC_U_30A4_U_30E4_U_30FC_1
  6
Continuous
 62
     2
100
AcDbSpline
210
0.0
220
0.0
230
1.0
 70
    11
 71
     3
 72
   131
 73
   127
 74
   125
 42
0.000000001
 43
0.0000000001
 44
0.00000001
 40
0.0
 40
0.0
 40
0.0
 40
0.0
 40
0.0195577029826156
 40
0.0426490537460427
 40
0.2863607575855756
 40
0.5344948436188645
 40
0.7842238845572922
 40
0.8737315789467087
 40
0.9803832810312795
 40
1.092842274517027
 40
1.199761146656784
 40
1.289788768186489
 40
1.351573580786158
 40
1.370727117561387
 40
1.41640093601778
 40
1.470914848355891
 40
1.516588666791664
 40
1.535742203552745
 40
1.634216592293136
 40
1.760283341174994
 40
1.897966686682078
 40
2.031216387368902
 40
2.049689751137896
 40
2.101115601646832
 40
2.179502577739949
 40
2.278859318314064
 40
2.393194462258721
 40
2.516516648383835
 40
2.642834515405964
 40
2.766156701983466
 40
2.88049184675458
 40
2.979848588358623
 40
3.0582355654438
 40
3.109661416668954
 40
3.12813478070413
 40
3.146783742386447
 40
3.191254343315279
 40
3.244332157315881
 40
3.288802758225756
 40
3.307451719895028
 40
3.327717853844641
 40
3.38374775358
 40
3.46838866592439
 40
3.574487837698699
 40
3.694892515728803
 40
3.822449946851942
 40
3.950007377920331
 40
4.070412055800423
 40
4.176511227367978
 40
4.261152139501425
 40
4.317182039076618
 40
4.337448172964537
 40
4.620011002696129
 40
4.885096638397493
 40
4.945373043518279
 40
5.014107710488606
 40
5.070481727652035
 40
5.319246955636559
 40
5.584812164506073
 40
5.859000912056963
 40
6.133746937542094
 40
6.401732212968883
 40
6.420736683995473
 40
6.472845717451124
 40
6.550702743894051
 40
6.64695119387426
 40
6.754234497930584
 40
6.865196086587362
 40
6.972479390357821
 40
7.068727839771983
 40
7.146584865450992
 40
7.198693898189221
 40
7.217698368905362
 40
7.23495040163084
 40
7.276089864269885
 40
7.325191803515994
 40
7.366331266090381
 40
7.383583298769732
 40
7.402779163492138
 40
7.453386443254541
 40
7.524934666445571
 40
7.60695336140591
 40
7.68897205642909
 40
7.760520279784341
 40
7.811127559734611
 40
7.830323424546233
 40
7.847844055299863
 40
7.894799345666902
 40
7.962779392744588
 40
8.043374293560635
 40
8.128174145149538
 40
8.20876904481734
 40
8.27674909037704
 40
8.323704379669602
 40
8.341225010056332
 40
8.35849761480048
 40
8.401679126686657
 40
8.457815092185715
 40
8.51395105772812
 40
8.557132569708019
 40
8.574405174505062
 40
8.602340668616401
 40
8.643455660539969
 40
8.663225271966636
 40
8.715345156564284
 40
8.78903188962862
 40
8.873502045520349
 40
8.957972194323972
 40
9.031658925567863
 40
9.083778811234554
 40
9.103548423003016
 40
9.119550083123581
 40
9.160817522379855
 40
9.217244429110249
 40
9.278724491644763
 40
9.335151398295547
 40
9.376418837357871
 40
9.392420497300659
 40
9.401196302734851
 40
9.417494229384273
 40
9.426270027749545
 40
9.440875075477578
 40
9.475702496998759
 40
9.517270709865922
 40
9.552098131994091
 40
9.566703169884299
 40
9.566703169884299
 40
9.566703169884299
 40
9.566703169884299
 10
194.6170254148479
 20
15.67015871511027
 30
0.0
 10
194.6134345093371
 20
15.66453690702159
 30
0.0
 10
194.6056039123624
 20
15.65227754419115
 30
0.0
 10
194.5129968974553
 20
15.61601916040954
 30
0.0
 10
194.4887622233245
 20
15.40148444212721
 30
0.0
 10
194.3858709845939
 20
15.22197284509704
 30
0.0
 10
194.1220492364305
 20
15.03615573798146
 30
0.0
 10
194.284547156918
 20
14.95959336566079
 30
0.0
 10
194.3607225760839
 20
14.89856693195443
 30
0.0
 10
194.4492171072759
 20
14.83515804544759
 30
0.0
 10
194.538993023311
 20
14.7752563421956
 30
0.0
 10
194.5883817636047
 20
14.72102154849209
 30
0.0
 10
194.6745708157381
 20
14.69286240541833
 30
0.0
 10
194.6411260674229
 20
14.65713309652812
 30
0.0
 10
194.6214671166311
 20
14.62550387991907
 30
0.0
 10
194.5919888217883
 20
14.58475872796069
 30
0.0
 10
194.5688989446032
 20
14.55504663489643
 30
0.0
 10
194.5380205968358
 20
14.50211422668493
 30
0.0
 10
194.472919336574
 20
14.627403349389
 30
0.0
 10
194.3796000122415
 20
14.68213900233934
 30
0.0
 10
194.2950636285139
 20
14.73916423939342
 30
0.0
 10
194.1722498125741
 20
14.89675287427522
 30
0.0
 10
194.1764450847301
 20
14.82035806766837
 30
0.0
 10
194.1751478652677
 20
14.77361280161296
 30
0.0
 10
194.1758126448076
 20
14.695847858126
 30
0.0
 10
194.1755549986957
 20
14.59902068324423
 30
0.0
 10
194.1756431239921
 20
14.48650279078809
 30
0.0
 10
194.1756077302282
 20
14.365240859457
 30
0.0
 10
194.1756511758278
 20
14.24086897858961
 30
0.0
 10
194.1755199942406
 20
14.11967683631337
 30
0.0
 10
194.1759477562046
 20
14.00691148919743
 30
0.0
 10
194.174667820231
 20
13.91082913768744
 30
0.0
 10
194.1779759851044
 20
13.831138264687
 30
0.0
 10
194.1715197740086
 20
13.78815175788784
 30
0.0
 10
194.1806208705556
 20
13.74955432372043
 30
0.0
 10
194.1447910339935
 20
13.7581088772407
 30
0.0
 10
194.1115223815253
 20
13.75342519985447
 30
0.0
 10
194.0604562576041
 20
13.75351298759784
 30
0.0
 10
194.0269723972813
 20
13.75794430283821
 30
0.0
 10
193.9907585408754
 20
13.74960793842508
 30
0.0
 10
194.0009782568666
 20
13.79145277179284
 30
0.0
 10
193.9936487887773
 20
13.83778560820173
 30
0.0
 10
193.9973633136103
 20
13.92374831106014
 30
0.0
 10
193.9959480554897
 20
14.02605142704849
 30
0.0
 10
193.9964105554639
 20
14.14453223931512
 30
0.0
 10
193.9962773686231
 20
14.26957683153356
 30
0.0
 10
193.9963015910045
 20
14.3947582810705
 30
0.0
 10
193.9963354925552
 20
14.51286645379058
 30
0.0
 10
193.9962060293133
 20
14.61628748709516
 30
0.0
 10
193.9965507549082
 20
14.69932036153667
 30
0.0
 10
193.9958698278691
 20
14.75143368521243
 30
0.0
 10
193.9994586600623
 20
14.8791290782136
 30
0.0
 10
193.7826171386437
 20
14.58048716819614
 30
0.0
 10
193.602135492195
 20
14.35263981511506
 30
0.0
 10
193.5490322295612
 20
14.49373443289816
 30
0.0
 10
193.5200429133149
 20
14.54325767560944
 30
0.0
 10
193.4196648062819
 20
14.64641779790102
 30
0.0
 10
193.7405127723261
 20
14.72695035023781
 30
0.0
 10
193.868989700543
 20
14.91066283036434
 30
0.0
 10
194.090645432536
 20
15.11931995771758
 30
0.0
 10
194.1770224894069
 20
15.29339211228347
 30
0.0
 10
194.4549394229074
 20
15.56967051342512
 30
0.0
 10
194.3346247839284
 20
15.56534559551114
 30
0.0
 10
194.2863197351348
 20
15.56614856202552
 30
0.0
 10
194.2102377454905
 20
15.56574582146584
 30
0.0
 10
194.116701000975
 20
15.56590275611609
 30
0.0
 10
194.0117594788557
 20
15.56582502576224
 30
0.0
 10
193.9033887738717
 20
15.56595464378554
 30
0.0
 10
193.7981454235897
 20
15.56554393490692
 30
0.0
 10
193.7056237819412
 20
15.56682073671591
 30
0.0
 10
193.6268130800708
 20
15.5634076653485
 30
0.0
 10
193.5839674565379
 20
15.5702335003632
 30
0.0
 10
193.5449499586516
 20
15.56065064201123
 30
0.0
 10
193.5526365271863
 20
15.59420779565543
 30
0.0
 10
193.5485464404312
 20
15.62523550322233
 30
0.0
 10
193.5485531368814
 20
15.672365292709
 30
0.0
 10
193.5526239724911
 20
15.70340941646778
 30
0.0
 10
193.5449495574583
 20
15.73701861635903
 30
0.0
 10
193.5834819405495
 20
15.72748410420872
 30
0.0
 10
193.6241228014479
 20
15.73397435498071
 30
0.0
 10
193.6951471850463
 20
15.73100150650254
 30
0.0
 10
193.7729318149634
 20
15.73174761399158
 30
0.0
 10
193.8507292246474
 20
15.73247814044525
 30
0.0
 10
193.9217232089908
 20
15.7295423551416
 30
0.0
 10
193.9624279791822
 20
15.73595468772952
 30
0.0
 10
194.000985348991
 20
15.72650524176004
 30
0.0
 10
193.9927342754929
 20
15.76264692158784
 30
0.0
 10
193.9982346669358
 20
15.80129837613226
 30
0.0
 10
193.9955754206165
 20
15.86913528561839
 30
0.0
 10
193.9965815471533
 20
15.94591641538739
 30
0.0
 10
193.996017801832
 20
16.02849393582756
 30
0.0
 10
193.9970714526593
 20
16.10517329229877
 30
0.0
 10
193.994267586313
 20
16.17331990776699
 30
0.0
 10
194.0000702721305
 20
16.21132399809345
 30
0.0
 10
193.9915654551159
 20
16.24758448077645
 30
0.0
 10
194.0255610233125
 20
16.23755723771851
 30
0.0
 10
194.0594575683099
 20
16.24073266813705
 30
0.0
 10
194.1126669060347
 20
16.23508965640608
 30
0.0
 10
194.1660768574483
 20
16.23434774436425
 30
0.0
 10
194.199591464949
 20
16.22819223482978
 30
0.0
 10
194.2388086183039
 20
16.23346029773592
 30
0.0
 10
194.2120263698492
 20
16.19253380793487
 30
0.0
 10
194.1708111001723
 20
16.20371204538112
 30
0.0
 10
194.1782641540874
 20
16.15867056192124
 30
0.0
 10
194.1742227952184
 20
16.11412278028144
 30
0.0
 10
194.176171404964
 20
16.04223572621703
 30
0.0
 10
194.1752364849758
 20
15.96168630588771
 30
0.0
 10
194.176510719003
 20
15.88173995404994
 30
0.0
 10
194.1732043793864
 20
15.80841837083183
 30
0.0
 10
194.1802106179961
 20
15.76688643002568
 30
0.0
 10
194.1701440380126
 20
15.72752418568112
 30
0.0
 10
194.2029814803921
 20
15.73468063430981
 30
0.0
 10
194.2364577296481
 20
15.73027243137944
 30
0.0
 10
194.2915053476019
 20
15.73217943347897
 30
0.0
 10
194.3489502595315
 20
15.73185366407288
 30
0.0
 10
194.4023026248311
 20
15.73106308733082
 30
0.0
 10
194.4398540896638
 20
15.73313959118073
 30
0.0
 10
194.4623172523238
 20
15.73022338167109
 30
0.0
 10
194.4751678073731
 20
15.73572552644055
 30
0.0
 10
194.4858255685888
 20
15.73801118197791
 30
0.0
 10
194.4986635650144
 20
15.74494972588053
 30
0.0
 10
194.514599103307
 20
15.72853046313672
 30
0.0
 10
194.5410623920892
 20
15.71709122319448
 30
0.0
 10
194.5726805253757
 20
15.6964468783519
 30
0.0
 10
194.5987255892151
 20
15.68116869628294
 30
0.0
 10
194.6128517723973
 20
15.67266976323183
 30
0.0
 10
194.6170254148479
 20
15.67015871511027
 30
0.0
 11
194.6170254148479
 21
15.67015871511027
 31
0.0
 11
194.6049990002243
 21
15.65473571164187
 31
0.0
 11
194.5848961795566
 21
15.64337406233918
 31
0.0
 11
194.4778986355814
 21
15.42440620231159
 31
0.0
 11
194.3477039934325
 21
15.2131720151216
 31
0.0
 11
194.1996540366071
 21
15.01206059027478
 31
0.0
 11
194.2734958253735
 21
14.96147384935378
 31
0.0
 11
194.36056643118
 21
14.89988411653739
 31
0.0
 11
194.4518003750405
 21
14.83413160594425
 31
0.0
 11
194.5381321779688
 21
14.77105653169304
 31
0.0
 11
194.6104963609787
 21
14.71749910790242
 31
0.0
 11
194.6598274450843
 21
14.68029954869104
 31
0.0
 11
194.6486940702213
 21
14.66471410869494
 31
0.0
 11
194.6221452532403
 21
14.62754882870424
 31
0.0
 11
194.5904579555534
 21
14.58319026871533
 31
0.0
 11
194.5639091385724
 21
14.54602498872462
 31
0.0
 11
194.5527757637094
 21
14.53043954872852
 31
0.0
 11
194.4807013362948
 21
14.59754008690617
 31
0.0
 11
194.3852856985381
 21
14.67993354174669
 31
0.0
 11
194.279326415217
 21
14.76785017366916
 31
0.0
 11
194.175621051109
 21
14.85152024309267
 31
0.0
 11
194.175621051109
 21
14.83304687900863
 31
0.0
 11
194.175621051109
 21
14.78162102763955
 31
0.0
 11
194.175621051109
 21
14.70323405030999
 31
0.0
 11
194.175621051109
 21
14.60387730834449
 31
0.0
 11
194.175621051109
 21
14.4895421630676
 31
0.0
 11
194.175621051109
 21
14.36621997580389
 31
0.0
 11
194.175621051109
 21
14.2399021078779
 31
0.0
 11
194.175621051109
 21
14.11657992061419
 31
0.0
 11
194.175621051109
 21
14.0022447753373
 31
0.0
 11
194.175621051109
 21
13.9028880333718
 31
0.0
 11
194.175621051109
 21
13.82450105604223
 31
0.0
 11
194.175621051109
 21
13.77307520467316
 31
0.0
 11
194.175621051109
 21
13.75460184058912
 31
0.0
 11
194.1569720893626
 21
13.75460184058912
 31
0.0
 11
194.112501488275
 21
13.75460184058912
 31
0.0
 11
194.0594236740737
 21
13.75460184058912
 31
0.0
 11
194.014953072986
 21
13.75460184058912
 31
0.0
 11
193.9963041112396
 21
13.75460184058912
 31
0.0
 11
193.9963041112396
 21
13.77486797460219
 31
0.0
 11
193.9963041112396
 21
13.83089787452066
 31
0.0
 11
193.9963041112396
 21
13.91553878716347
 31
0.0
 11
193.9963041112396
 21
14.02163795934953
 31
0.0
 11
193.9963041112396
 21
14.14204263789775
 31
0.0
 11
193.9963041112396
 21
14.26960006962705
 31
0.0
 11
193.9963041112396
 21
14.39715750135636
 31
0.0
 11
193.9963041112396
 21
14.51756217990458
 31
0.0
 11
193.9963041112396
 21
14.62366135209064
 31
0.0
 11
193.9963041112396
 21
14.70830226473344
 31
0.0
 11
193.9963041112396
 21
14.76433216465193
 31
0.0
 11
193.9963041112396
 21
14.78459829866499
 31
0.0
 11
193.7883272849482
 21
14.59331998274056
 31
0.0
 11
193.5763486358425
 21
14.4341488543081
 31
0.0
 11
193.5495629014483
 21
14.48814671952095
 31
0.0
 11
193.5138765415025
 21
14.54689140572026
 31
0.0
 11
193.4799697494124
 21
14.59192871537976
 31
0.0
 11
193.6830287742319
 21
14.73563387201053
 31
0.0
 11
193.881853195826
 21
14.91168423529988
 31
0.0
 11
194.0677041444179
 21
15.1132751452495
 31
0.0
 11
194.2318427502303
 21
15.33360194186109
 31
0.0
 11
194.3655301434864
 21
15.56585996513635
 31
0.0
 11
194.3465256724482
 21
15.56585996513635
 31
0.0
 11
194.2944166389562
 21
15.56585996513635
 31
0.0
 11
194.2165596124447
 21
15.56585996513635
 31
0.0
 11
194.1203111623478
 21
15.56585996513635
 31
0.0
 11
194.0130278580997
 21
15.56585996513635
 31
0.0
 11
193.9020662691345
 21
15.56585996513635
 31
0.0
 11
193.7947829648864
 21
15.56585996513635
 31
0.0
 11
193.6985345147895
 21
15.56585996513635
 31
0.0
 11
193.620677488278
 21
15.56585996513635
 31
0.0
 11
193.568568454786
 21
15.56585996513635
 31
0.0
 11
193.5495639837478
 21
15.56585996513635
 31
0.0
 11
193.5495639837478
 21
15.58311199790982
 31
0.0
 11
193.5495639837478
 21
15.62425146067731
 31
0.0
 11
193.5495639837478
 21
15.67335340010949
 31
0.0
 11
193.5495639837478
 21
15.71449286287698
 31
0.0
 11
193.5495639837478
 21
15.73174489565045
 31
0.0
 11
193.568759848601
 21
15.73174489565045
 31
0.0
 11
193.6193671286684
 21
15.73174489565045
 31
0.0
 11
193.690915352212
 21
15.73174489565045
 31
0.0
 11
193.7729340474937
 21
15.73174489565045
 31
0.0
 11
193.8549527427754
 21
15.73174489565045
 31
0.0
 11
193.926500966319
 21
15.73174489565045
 31
0.0
 11
193.9771082463865
 21
15.73174489565045
 31
0.0
 11
193.9963041112396
 21
15.73174489565045
 31
0.0
 11
193.9963041112396
 21
15.74926552655218
 31
0.0
 11
193.9963041112396
 21
15.79622081736882
 31
0.0
 11
193.9963041112396
 21
15.86420086526753
 31
0.0
 11
193.9963041112396
 21
15.94479576741548
 31
0.0
 11
193.9963041112396
 21
16.02959562097985
 31
0.0
 11
193.9963041112396
 21
16.11019052312781
 31
0.0
 11
193.9963041112396
 21
16.17817057102652
 31
0.0
 11
193.9963041112396
 21
16.22512586184316
 31
0.0
 11
193.9963041112396
 21
16.24264649274489
 31
0.0
 11
194.0135484112112
 21
16.24165806167518
 31
0.0
 11
194.0566591611401
 21
16.2391869840009
 31
0.0
 11
194.1127031360478
 21
16.23597458302434
 31
0.0
 11
194.1687471109554
 21
16.23276218204779
 31
0.0
 11
194.2118578608843
 21
16.23029110437351
 31
0.0
 11
194.2291021608559
 21
16.2293026733038
 31
0.0
 11
194.2143774674851
 21
16.2055629337264
 31
0.0
 11
194.175621051109
 21
16.19183767331312
 31
0.0
 11
194.175621051109
 21
16.17206806177293
 31
0.0
 11
194.175621051109
 21
16.11994817680333
 31
0.0
 11
194.175621051109
 21
16.04626144288079
 31
0.0
 11
194.175621051109
 21
15.96179128448179
 31
0.0
 11
194.175621051109
 21
15.87732112608278
 31
0.0
 11
194.175621051109
 21
15.80363439216024
 31
0.0
 11
194.175621051109
 21
15.75151450719064
 31
0.0
 11
194.175621051109
 21
15.73174489565045
 31
0.0
 11
194.1916227112936
 21
15.73174489565045
 31
0.0
 11
194.232890150717
 21
15.73174489565045
 31
0.0
 11
194.2893170576837
 21
15.73174489565045
 31
0.0
 11
194.3507971204982
 21
15.73174489565045
 31
0.0
 11
194.4072240274649
 21
15.73174489565045
 31
0.0
 11
194.4484914668883
 21
15.73174489565045
 31
0.0
 11
194.4644931270729
 21
15.73174489565045
 31
0.0
 11
194.4728206422925
 21
15.73451387455921
 31
0.0
 11
194.4882860277004
 21
15.73965626396118
 31
0.0
 11
194.49661354292
 21
15.74242524286994
 31
0.0
 11
194.5091363776005
 21
15.73490952398294
 31
0.0
 11
194.5389985218386
 21
15.71698742509854
 31
0.0
 11
194.5746404359293
 21
15.69559653288167
 31
0.0
 11
194.6045025801674
 21
15.67767443399728
 31
0.0
 11
194.6170254148479
 21
15.67015871511027
 31
0.0
  0
SPLINE
  5
B1
102
{ACAD_REACTORS
330
CE
102
}
330
48
100
AcDbEntity
  8
_U_30EC_U_30A4_U_30E4_U_30FC_1
  6
Continuous
 62
     2
100
AcDbSpline
210
0.0
220
0.0
230
1.0
 70
    11
 71
     3
 72
   124
 73
   120
 74
   118
 42
0.000000001
 43
0.0000000001
 44
0.00000001
 40
0.0
 40
0.0
 40
0.0
 40
0.0
 40
0.0278187229624226
 40
0.1011590162383985
 40
0.2048470170590239
 40
0.3237088716558961
 40
0.4425707262522
 40
0.5462587270699263
 40
0.6195990203312082
 40
0.647417752257866
 40
0.6750060736115224
 40
0.7357003855242759
 40
0.7963946998054492
 40
0.8239830245571784
 40
0.8540933811103162
 40
0.9373396629409274
 40
1.063094687343265
 40
1.220731268638103
 40
1.399622220914778
 40
1.589140358637762
 40
1.778658496423928
 40
1.957549448940596
 40
2.115186030873246
 40
2.240941056914521
 40
2.324187341760619
 40
2.354297700109469
 40
2.381886024671975
 40
2.442580338710564
 40
2.503274652750588
 40
2.530862977314695
 40
2.560983949278648
 40
2.640393784453022
 40
2.752662861759245
 40
2.881361560118234
 40
3.010060258455337
 40
3.122329335705513
 40
3.201739170818098
 40
3.231860142753487
 40
3.264298024030542
 40
3.352343701778415
 40
3.482095226868938
 40
3.639650650173196
 40
3.811108022565652
 40
3.982565394928158
 40
4.140120818152739
 40
4.26987234314145
 40
4.357918020802511
 40
4.390355902044139
 40
4.423256253992709
 40
4.508104530073259
 40
4.624121560637026
 40
4.750528176031783
 40
4.866545206602258
 40
4.951393482692244
 40
4.984293834645645
 40
5.01145083324256
 40
5.071196230152345
 40
5.130941627057424
 40
5.158098625649088
 40
5.190998977601779
 40
5.275847253689604
 40
5.391864284257095
 40
5.51827089964864
 40
5.63428793020968
 40
5.719136206288353
 40
5.752036558236269
 40
5.782130946283295
 40
5.86278390622947
 40
5.979550131775336
 40
6.117984316640743
 40
6.263641154588288
 40
6.402075339414494
 40
6.518841564908288
 40
6.59949452481587
 40
6.629588912849107
 40
6.654403028226684
 40
6.713575149488451
 40
6.784199939329796
 40
6.843372060493898
 40
6.868186175803116
 40
6.896246243202217
 40
6.939586233758587
 40
6.967846564565215
 40
7.04358425109015
 40
7.153234334452008
 40
7.283231855734761
 40
7.420011856035791
 40
7.55000937658014
 40
7.659659458835539
 40
7.735397144417532
 40
7.763657474851704
 40
7.796409728011361
 40
7.880876065096635
 40
7.996370852466021
 40
8.122208446418917
 40
8.23770322479951
 40
8.322169562011233
 40
8.354921815206218
 40
8.382078813307999
 40
8.441824209207304
 40
8.501569605240455
 40
8.528726603486033
 40
8.561478856696054
 40
8.645945193878104
 40
8.761439980865644
 40
8.887277580764787
 40
9.002772362001307
 40
9.0872386966615
 40
9.119990949235982
 40
9.152428830613681
 40
9.240474508638897
 40
9.370226034149846
 40
9.527781457984728
 40
9.699238830981718
 40
9.870696203978907
 40
10.02825162781433
 40
10.15800315332595
 40
10.2460488313515
 40
10.27848670378552
 40
10.27848670378552
 40
10.27848670378552
 40
10.27848670378552
 10
195.3821827564384
 20
14.01410517385757
 30
0.0
 10
195.3914554737524
 20
14.01410498511274
 30
0.0
 10
195.4251744536861
 20
14.01410430876714
 30
0.0
 10
195.4934706812466
 20
14.01411807243305
 30
0.0
 10
195.592014171158
 20
14.01403224219544
 30
0.0
 10
195.7062066464812
 20
14.0144175561225
 30
0.0
 10
195.8185894417072
 20
14.01300835897545
 30
0.0
 10
195.9214376600118
 20
14.01719117422243
 30
0.0
 10
195.980683987485
 20
14.00823089251983
 30
0.0
 10
196.0371265937034
 20
14.0216443452606
 30
0.0
 10
196.0246255586956
 20
13.97087198613361
 30
0.0
 10
196.0329549635704
 20
13.92589320939067
 30
0.0
 10
196.0248170841121
 20
13.88056752990488
 30
0.0
 10
196.0370529214458
 20
13.82931932408465
 30
0.0
 10
195.9747773490334
 20
13.84447955365276
 30
0.0
 10
195.9060513026869
 20
13.83359750710742
 30
0.0
 10
195.7782756749592
 20
13.83911304747972
 30
0.0
 10
195.6262984511643
 20
13.83700851253698
 30
0.0
 10
195.4502695972523
 20
13.83771002588473
 30
0.0
 10
195.2644431934287
 20
13.83745237531291
 30
0.0
 10
195.0786167437175
 20
13.83771005144603
 30
0.0
 10
194.9025880142169
 20
13.83700841847731
 30
0.0
 10
194.7506104154194
 20
13.83911332229988
 30
0.0
 10
194.6228357664554
 20
13.8335968076764
 30
0.0
 10
194.554107783658
 20
13.84448077125942
 30
0.0
 10
194.4918349042883
 20
13.82931786684209
 30
0.0
 10
194.5040616290017
 20
13.88057510805171
 30
0.0
 10
194.4960004462597
 20
13.92582473272425
 30
0.0
 10
194.5040675809892
 20
13.97106357955323
 30
0.0
 10
194.4918238487083
 20
14.02234176909958
 30
0.0
 10
194.5525017120698
 20
14.00749577363135
 30
0.0
 10
194.6162810745737
 20
14.01756448170735
 30
0.0
 10
194.7277314353503
 20
14.01294644212
 30
0.0
 10
194.8497533443823
 20
14.01413328905468
 30
0.0
 10
194.9719538137824
 20
14.01515863900635
 30
0.0
 10
195.0829794287393
 20
14.01092475623402
 30
0.0
 10
195.1476517413958
 20
14.02018584521739
 30
0.0
 10
195.2091162810503
 20
14.00604423049682
 30
0.0
 10
195.1930065601337
 20
14.07235527884516
 30
0.0
 10
195.204298032736
 20
14.14447790121976
 30
0.0
 10
195.1987400822561
 20
14.27513760888286
 30
0.0
 10
195.2008035061691
 20
14.42607323708241
 30
0.0
 10
195.2000167127295
 20
14.59335873107886
 30
0.0
 10
195.2007845215628
 20
14.76061110332302
 30
0.0
 10
195.198803878563
 20
14.91163289269914
 30
0.0
 10
195.2041306156621
 20
15.04206069552994
 30
0.0
 10
195.1933101388426
 20
15.11465442605899
 30
0.0
 10
195.2090326429876
 20
15.18150469436798
 30
0.0
 10
195.1432708132491
 20
15.16580512490824
 30
0.0
 10
195.0756367830764
 20
15.17609243083996
 30
0.0
 10
194.961588529381
 20
15.17113786847121
 30
0.0
 10
194.8451242674903
 20
15.17414128030475
 30
0.0
 10
194.7306554121477
 20
15.16880303143389
 30
0.0
 10
194.6640324657812
 20
15.18001268074824
 30
0.0
 10
194.5990769715186
 20
15.16349132665011
 30
0.0
 10
194.6107989758707
 20
15.21473720477058
 30
0.0
 10
194.6032830189122
 20
15.25950333784091
 30
0.0
 10
194.6107989878834
 20
15.30426944897961
 30
0.0
 10
194.5990769505347
 20
15.35551536129741
 30
0.0
 10
194.6640326339199
 20
15.33899381766815
 30
0.0
 10
194.7306533339822
 20
15.35020571373943
 30
0.0
 10
194.8451352858064
 20
15.34485436710665
 30
0.0
 10
194.9615454436963
 20
15.34791188771117
 30
0.0
 10
195.0757660174641
 20
15.34278499010708
 30
0.0
 10
195.1430150439228
 20
15.35345733355599
 30
0.0
 10
195.2083325941439
 20
15.33742082669076
 30
0.0
 10
195.1941391448553
 20
15.39949685750053
 30
0.0
 10
195.2036059462996
 20
15.46586761628763
 30
0.0
 10
195.1990269004085
 20
15.58239972741966
 30
0.0
 10
195.2007696555949
 20
15.71426685022376
 30
0.0
 10
195.1997551495392
 20
15.85615960150273
 30
0.0
 10
195.2017191344372
 20
15.9876905070258
 30
0.0
 10
195.1964668553852
 20
16.10524577283002
 30
0.0
 10
195.2073408763474
 20
16.16947789001584
 30
0.0
 10
195.1919536641855
 20
16.23108802545047
 30
0.0
 10
195.2407591537801
 20
16.21702407382111
 30
0.0
 10
195.2853995564727
 20
16.21954742075314
 30
0.0
 10
195.3538643946744
 20
16.21512797401709
 30
0.0
 10
195.3959106169103
 20
16.20613025544036
 30
0.0
 10
195.4487544758776
 20
16.2141171486651
 30
0.0
 10
195.4207035002014
 20
16.17113917611675
 30
0.0
 10
195.3749142248595
 20
16.18259552043835
 30
0.0
 10
195.3869539073266
 20
16.12173520005137
 30
0.0
 10
195.3796086070642
 20
16.05769299468773
 30
0.0
 10
195.3831195826162
 20
15.9490936886391
 30
0.0
 10
195.3819806760175
 20
15.82494319144752
 30
0.0
 10
195.3819174780264
 20
15.69189719829878
 30
0.0
 10
195.3832872966868
 20
15.56797381249555
 30
0.0
 10
195.3791638801314
 20
15.45868337849338
 30
0.0
 10
195.3877763103565
 20
15.3960858009417
 30
0.0
 10
195.3746757454402
 20
15.33740133296365
 30
0.0
 10
195.4393884328199
 20
15.35362113810902
 30
0.0
 10
195.5060405953157
 20
15.34270260383311
 30
0.0
 10
195.6198779541103
 20
15.34793740173756
 30
0.0
 10
195.7357259122097
 20
15.34485547516913
 30
0.0
 10
195.8496924263281
 20
15.35018259812512
 30
0.0
 10
195.9160341018099
 20
15.33904208166542
 30
0.0
 10
195.9807188525481
 20
15.35546979593177
 30
0.0
 10
195.9689820772723
 20
15.3042592521005
 30
0.0
 10
195.9765168063042
 20
15.25950334121001
 30
0.0
 10
195.9689820992259
 20
15.21474739010027
 30
0.0
 10
195.9807188140737
 20
15.16353690871041
 30
0.0
 10
195.9160344075253
 20
15.1799642779422
 30
0.0
 10
195.8496886430826
 20
15.1688278444727
 30
0.0
 10
195.7357459487013
 20
15.1741311589312
 30
0.0
 10
195.6197995623055
 20
15.17114764593544
 30
0.0
 10
195.5062756882124
 20
15.17606892268393
 30
0.0
 10
195.4389231318805
 20
15.1658508751352
 30
0.0
 10
195.3734285122496
 20
15.18145996138816
 30
0.0
 10
195.3891713619218
 20
15.11463851827411
 30
0.0
 10
195.3783275998215
 20
15.04207057815878
 30
0.0
 10
195.3836581629792
 20
14.91162247614416
 30
0.0
 10
195.3817136151857
 20
14.76064558185226
 30
0.0
 10
195.3823133683214
 20
14.59322243934158
 30
0.0
 10
195.3821506559606
 20
14.42656176118371
 30
0.0
 10
195.3821895488135
 20
14.27360142921636
 30
0.0
 10
195.38218164131
 20
14.14849178985705
 30
0.0
 10
195.3821828382745
 20
14.0650789099142
 30
0.0
 10
195.3821827716209
 20
14.02491778281976
 30
0.0
 10
195.3821827564384
 20
14.01410517385757
 30
0.0
 11
195.3821827564384
 21
14.01410517385757
 31
0.0
 11
195.4100014883675
 21
14.01410517385757
 31
0.0
 11
195.4833417816353
 21
14.01410517385757
 31
0.0
 11
195.5870297824623
 21
14.01410517385757
 31
0.0
 11
195.7058916370687
 21
14.01410517385757
 31
0.0
 11
195.8247534916752
 21
14.01410517385757
 31
0.0
 11
195.9284414925021
 21
14.01410517385757
 31
0.0
 11
196.0017817857699
 21
14.01410517385757
 31
0.0
 11
196.0296005176991
 21
14.01410517385757
 31
0.0
 11
196.0296005176991
 21
13.9865168492117
 31
0.0
 11
196.0296005176991
 21
13.92582253499077
 31
0.0
 11
196.0296005176991
 21
13.86512822076984
 31
0.0
 11
196.0296005176991
 21
13.83753989612397
 31
0.0
 11
195.9994901593494
 21
13.83753989612397
 31
0.0
 11
195.9162438745005
 21
13.83753989612397
 31
0.0
 11
195.7904888484522
 21
13.83753989612397
 31
0.0
 11
195.6328522665042
 21
13.83753989612397
 31
0.0
 11
195.4539613139565
 21
13.83753989612397
 31
0.0
 11
195.2644431761089
 21
13.83753989612397
 31
0.0
 11
195.0749250382613
 21
13.83753989612397
 31
0.0
 11
194.8960340857136
 21
13.83753989612397
 31
0.0
 11
194.7383975037656
 21
13.83753989612397
 31
0.0
 11
194.6126424777173
 21
13.83753989612397
 31
0.0
 11
194.5293961928683
 21
13.83753989612397
 31
0.0
 11
194.4992858345187
 21
13.83753989612397
 31
0.0
 11
194.4992858345187
 21
13.86512822076984
 31
0.0
 11
194.4992858345187
 21
13.92582253499077
 31
0.0
 11
194.4992858345187
 21
13.9865168492117
 31
0.0
 11
194.4992858345187
 21
14.01410517385757
 31
0.0
 11
194.5294068064947
 21
14.01410517385757
 31
0.0
 11
194.608816641704
 21
14.01410517385757
 31
0.0
 11
194.721085719069
 21
14.01410517385757
 31
0.0
 11
194.8497844175118
 21
14.01410517385757
 31
0.0
 11
194.9784831159546
 21
14.01410517385757
 31
0.0
 11
195.0907521933196
 21
14.01410517385757
 31
0.0
 11
195.1701620285289
 21
14.01410517385757
 31
0.0
 11
195.2002830005049
 21
14.01410517385757
 31
0.0
 11
195.2002830005049
 21
14.04654305523835
 31
0.0
 11
195.2002830005049
 21
14.1345887332719
 31
0.0
 11
195.2002830005049
 21
14.26434025879503
 31
0.0
 11
195.2002830005049
 21
14.42189568264454
 31
0.0
 11
195.2002830005049
 21
14.59335305565724
 31
0.0
 11
195.2002830005049
 21
14.76481042866994
 31
0.0
 11
195.2002830005049
 21
14.92236585251944
 31
0.0
 11
195.2002830005049
 21
15.05211737804257
 31
0.0
 11
195.2002830005049
 21
15.14016305607612
 31
0.0
 11
195.2002830005049
 21
15.1726009374569
 31
0.0
 11
195.1673826485529
 21
15.1726009374569
 31
0.0
 11
195.0825343724663
 21
15.1726009374569
 31
0.0
 11
194.9665173418989
 21
15.1726009374569
 31
0.0
 11
194.8401107265045
 21
15.1726009374569
 31
0.0
 11
194.724093695937
 21
15.1726009374569
 31
0.0
 11
194.6392454198503
 21
15.1726009374569
 31
0.0
 11
194.6063450678984
 21
15.1726009374569
 31
0.0
 11
194.6063450678984
 21
15.19975793614802
 31
0.0
 11
194.6063450678984
 21
15.2595033332685
 31
0.0
 11
194.6063450678984
 21
15.31924873038898
 31
0.0
 11
194.6063450678984
 21
15.3464057290801
 31
0.0
 11
194.6392454198504
 21
15.3464057290801
 31
0.0
 11
194.724093695937
 21
15.3464057290801
 31
0.0
 11
194.8401107265045
 21
15.3464057290801
 31
0.0
 11
194.9665173418989
 21
15.3464057290801
 31
0.0
 11
195.0825343724663
 21
15.3464057290801
 31
0.0
 11
195.1673826485529
 21
15.3464057290801
 31
0.0
 11
195.2002830005049
 21
15.3464057290801
 31
0.0
 11
195.2002830005049
 21
15.3765001173137
 31
0.0
 11
195.2002830005049
 21
15.45715307777974
 31
0.0
 11
195.2002830005049
 21
15.57391930412609
 31
0.0
 11
195.2002830005049
 21
15.71235349000063
 31
0.0
 11
195.2002830005049
 21
15.85801032905124
 31
0.0
 11
195.2002830005049
 21
15.99644451492578
 31
0.0
 11
195.2002830005049
 21
16.11321074127214
 31
0.0
 11
195.2002830005049
 21
16.19386370173817
 31
0.0
 11
195.2002830005049
 21
16.22395808997177
 31
0.0
 11
195.2250405288619
 21
16.22228324219442
 31
0.0
 11
195.284077711867
 21
16.21828937441765
 31
0.0
 11
195.3545414464215
 21
16.21352249997441
 31
0.0
 11
195.4135786294266
 21
16.20952863219765
 31
0.0
 11
195.4383361577836
 21
16.20785378442029
 31
0.0
 11
195.4233067224031
 21
16.18415814206509
 31
0.0
 11
195.3821827564384
 21
16.17047697887403
 31
0.0
 11
195.3821827564384
 21
16.14221664794832
 31
0.0
 11
195.3821827564384
 21
16.06647896106739
 31
0.0
 11
195.3821827564384
 21
15.95682887707561
 31
0.0
 11
195.3821827564384
 21
15.8268313548173
 31
0.0
 11
195.3821827564384
 21
15.69005135313683
 31
0.0
 11
195.3821827564384
 21
15.56005383087853
 31
0.0
 11
195.3821827564384
 21
15.45040374688674
 31
0.0
 11
195.3821827564384
 21
15.37466606000582
 31
0.0
 11
195.3821827564384
 21
15.3464057290801
 31
0.0
 11
195.4149350096116
 21
15.3464057290801
 31
0.0
 11
195.4994013467423
 21
15.3464057290801
 31
0.0
 11
195.6148961342477
 21
15.3464057290801
 31
0.0
 11
195.7407337385446
 21
15.3464057290801
 31
0.0
 11
195.8562285260499
 21
15.3464057290801
 31
0.0
 11
195.9406948631807
 21
15.3464057290801
 31
0.0
 11
195.9734471163539
 21
15.3464057290801
 31
0.0
 11
195.9734471163539
 21
15.31924873038898
 31
0.0
 11
195.9734471163539
 21
15.2595033332685
 31
0.0
 11
195.9734471163539
 21
15.19975793614802
 31
0.0
 11
195.9734471163539
 21
15.1726009374569
 31
0.0
 11
195.9406948631807
 21
15.1726009374569
 31
0.0
 11
195.85622852605
 21
15.1726009374569
 31
0.0
 11
195.7407337385446
 21
15.1726009374569
 31
0.0
 11
195.6148961342477
 21
15.1726009374569
 31
0.0
 11
195.4994013467423
 21
15.1726009374569
 31
0.0
 11
195.4149350096116
 21
15.1726009374569
 31
0.0
 11
195.3821827564384
 21
15.1726009374569
 31
0.0
 11
195.3821827564384
 21
15.14016305607612
 31
0.0
 11
195.3821827564384
 21
15.05211737804257
 31
0.0
 11
195.3821827564384
 21
14.92236585251945
 31
0.0
 11
195.3821827564384
 21
14.76481042866994
 31
0.0
 11
195.3821827564384
 21
14.59335305565724
 31
0.0
 11
195.3821827564384
 21
14.42189568264453
 31
0.0
 11
195.3821827564384
 21
14.26434025879503
 31
0.0
 11
195.3821827564384
 21
14.1345887332719
 31
0.0
 11
195.3821827564384
 21
14.04654305523835
 31
0.0
 11
195.3821827564384
 21
14.01410517385757
 31
0.0
  0
SPLINE
  5
B2
102
{ACAD_REACTORS
330
CF
102
}
330
48
100
AcDbEntity
  8
_U_30EC_U_30A4_U_30E4_U_30FC_1
  6
Continuous
 62
     2
100
AcDbSpline
210
0.0
220
0.0
230
1.0
 70
     8
 71
     3
 72
    62
 73
    58
 74
    56
 42
0.000000001
 43
0.0000000001
 44
0.00000001
 40
0.0
 40
0.0
 40
0.0
 40
0.0
 40
0.0598250028308485
 40
0.2024846486897047
 40
0.3727558389220178
 40
0.5154154847934933
 40
0.5752404975784202
 40
0.9332326775486064
 40
1.290451762839322
 40
1.602077253145685
 40
1.699931634111911
 40
1.799359756424846
 40
2.270120149656885
 40
2.804661928461345
 40
2.882342287383058
 40
3.076543185718908
 40
3.329004354835368
 40
3.581465524568195
 40
3.775666424543479
 40
3.853346784558099
 40
3.899120679594845
 40
3.984129341791843
 40
4.029903236817191
 40
4.105797496059347
 40
4.295533144152307
 40
4.542189486611548
 40
4.788845828875495
 40
4.978581476409881
 40
5.054475735244123
 40
5.621734664339125
 40
6.130867242037156
 40
6.225249780948367
 40
6.318913039727017
 40
6.663579954558573
 40
7.047498900224404
 40
7.435230791575331
 40
7.498943906667743
 40
7.65087518120968
 40
7.832212509001162
 40
7.984143783696548
 40
8.047856898902676
 40
8.091554632732183
 40
8.172707566963846
 40
8.21640530076757
 40
8.289021782160427
 40
8.462184160756772
 40
8.668861838004881
 40
8.842024215263416
 40
8.914640695474612
 40
8.989881580860818
 40
9.155411528826725
 40
9.320941477743508
 40
9.396182352486761
 40
9.454709011143308
 40
9.583467660170243
 40
9.712226309012522
 40
9.770752957988975
 40
9.770752957988975
 40
9.770752957988975
 40
9.770752957988975
 10
187.1521871691833
 20
14.93980288195949
 30
0.0
 10
187.1322348171623
 20
14.93980875568671
 30
0.0
 10
187.0647037716465
 20
14.93982863806156
 30
0.0
 10
186.9410612161788
 20
14.93949362520324
 30
0.0
 10
186.7863180150057
 20
14.94107673750511
 30
0.0
 10
186.669734948248
 20
14.93686078860494
 30
0.0
 10
186.4550942634242
 20
14.95215205331625
 30
0.0
 10
186.851894840723
 20
14.59198721286194
 30
0.0
 10
186.8945656069268
 20
14.37510503397166
 30
0.0
 10
187.318916214661
 20
14.19325062511446
 30
0.0
 10
187.1439821496074
 20
14.08985196568071
 30
0.0
 10
187.0194523925083
 20
13.87831523212725
 30
0.0
 10
186.7666277235943
 20
14.34806081001561
 30
0.0
 10
186.4797602893628
 20
14.99511516984522
 30
0.0
 10
186.4906335926659
 20
14.68782672154694
 30
0.0
 10
186.488289277796
 20
14.52288616971778
 30
0.0
 10
186.4861096126411
 20
14.28879670711693
 30
0.0
 10
186.4980774396346
 20
14.04498072421783
 30
0.0
 10
186.468798474063
 20
13.89855796860984
 30
0.0
 10
186.511452262547
 20
13.75113490174538
 30
0.0
 10
186.4239814005639
 20
13.7668579730622
 30
0.0
 10
186.3768527606744
 20
13.76694303543455
 30
0.0
 10
186.2898973207713
 20
13.75109425482909
 30
0.0
 10
186.3313474021723
 20
13.89527771422763
 30
0.0
 10
186.3029875004285
 20
14.03855052698455
 30
0.0
 10
186.3145973775299
 20
14.27674947365265
 30
0.0
 10
186.3124175648272
 20
14.50517235240346
 30
0.0
 10
186.3103111127993
 20
14.66705729375994
 30
0.0
 10
186.3208035438324
 20
14.98153709333752
 30
0.0
 10
186.0128963252893
 20
14.29229470872435
 30
0.0
 10
185.7055258267456
 20
13.81476750243048
 30
0.0
 10
185.5851367066274
 20
14.03741112637426
 30
0.0
 10
185.4074607910725
 20
14.15011034955569
 30
0.0
 10
185.8853326362894
 20
14.32548143465462
 30
0.0
 10
185.9353959057207
 20
14.56091929252031
 30
0.0
 10
186.3583799621717
 20
14.95322989344606
 30
0.0
 10
186.127675427354
 20
14.93655307029065
 30
0.0
 10
186.0049685859341
 20
14.94269518948769
 30
0.0
 10
185.8325483095662
 20
14.93312822699574
 30
0.0
 10
185.7213224694449
 20
14.95448818489664
 30
0.0
 10
185.6025779627449
 20
14.92136265357419
 30
0.0
 10
185.6183169706686
 20
15.00203900606883
 30
0.0
 10
185.6178550933763
 20
15.04645414290853
 30
0.0
 10
185.6027881889932
 20
15.12967081778532
 30
0.0
 10
185.7372380935444
 20
15.09062651983883
 30
0.0
 10
185.8619755545747
 20
15.11739729328422
 30
0.0
 10
186.0628755237279
 20
15.10063949044052
 30
0.0
 10
186.1921540949353
 20
15.12204225913003
 30
0.0
 10
186.3328419928294
 20
15.0886877885342
 30
0.0
 10
186.2980927452614
 20
15.22651875785067
 30
0.0
 10
186.3222185666714
 20
15.34963257349481
 30
0.0
 10
186.2967086182391
 20
15.47024055670335
 30
0.0
 10
186.3333251146685
 20
15.60539865141495
 30
0.0
 10
186.2211417027769
 20
15.58094545781891
 30
0.0
 10
186.1280356457136
 20
15.59307749842022
 30
0.0
 10
186.0191547579819
 20
15.58957630069994
 30
0.0
 10
185.9569697640964
 20
15.58981755951603
 30
0.0
 10
185.9375369557246
 20
15.58989295124144
 30
0.0
 11
187.1521871691833
 21
14.93980288195949
 31
0.0
 11
187.0923621563982
 21
14.93980288195949
 31
0.0
 11
186.949702510526
 21
14.93980288195949
 31
0.0
 11
186.7794313202914
 21
14.93980288195949
 31
0.0
 11
186.6367716744192
 21
14.93980288195949
 31
0.0
 11
186.5769466616341
 21
14.93980288195949
 31
0.0
 11
186.7679960754843
 21
14.6370512796689
 31
0.0
 11
186.994127278563
 21
14.36051890576684
 31
0.0
 11
187.2244526173371
 21
14.15061253493456
 31
0.0
 11
187.1521596330704
 21
14.08466403668716
 31
0.0
 11
187.0879364402643
 21
14.0087605905256
 31
0.0
 11
186.7732818215558
 21
14.35891458349363
 31
0.0
 11
186.4886640249976
 21
14.81138295143601
 31
0.0
 11
186.4886640249976
 21
14.73370259137313
 31
0.0
 11
186.4886640249976
 21
14.53950169121593
 31
0.0
 11
186.4886640249976
 21
14.28704052101157
 31
0.0
 11
186.4886640249976
 21
14.0345793508072
 31
0.0
 11
186.4886640249976
 21
13.84037845065
 31
0.0
 11
186.4886640249976
 21
13.76269809058712
 31
0.0
 11
186.4428901295605
 21
13.76269809058712
 31
0.0
 11
186.3578814666058
 21
13.76269809058712
 31
0.0
 11
186.3121075711687
 21
13.76269809058712
 31
0.0
 11
186.3121075711687
 21
13.8385923498274
 31
0.0
 11
186.3121075711687
 21
14.02832799792811
 31
0.0
 11
186.3121075711687
 21
14.27498434045904
 31
0.0
 11
186.3121075711687
 21
14.52164068298996
 31
0.0
 11
186.3121075711687
 21
14.71137633109067
 31
0.0
 11
186.3121075711687
 21
14.78727059033095
 31
0.0
 11
185.9987626399267
 21
14.31440946197693
 31
0.0
 11
185.6352328662148
 21
13.95795177109382
 31
0.0
 11
185.5773927461628
 21
14.03253450545022
 31
0.0
 11
185.5094852305342
 21
14.09704322939242
 31
0.0
 11
185.7750721898319
 21
14.31672219795889
 31
0.0
 11
186.0233764972061
 21
14.60953395971697
 31
0.0
 11
186.226498280526
 21
14.93980288195949
 31
0.0
 11
186.1627851652721
 21
14.93980288195949
 31
0.0
 11
186.0108538904359
 21
14.93980288195949
 31
0.0
 11
185.8295165624056
 21
14.93980288195949
 31
0.0
 11
185.6775852875694
 21
14.93980288195949
 31
0.0
 11
185.6138721723155
 21
14.93980288195949
 31
0.0
 11
185.6138721723155
 21
14.98350061600207
 31
0.0
 11
185.6138721723155
 21
15.06465355065259
 31
0.0
 11
185.6138721723155
 21
15.10835128469517
 31
0.0
 11
185.6864886537962
 21
15.10835128469517
 31
0.0
 11
185.8596510327118
 21
15.10835128469517
 31
0.0
 11
186.0663287107724
 21
15.10835128469517
 31
0.0
 11
186.239491089688
 21
15.10835128469517
 31
0.0
 11
186.3121075711687
 21
15.10835128469517
 31
0.0
 11
186.3121075711687
 21
15.18359217009302
 31
0.0
 11
186.3121075711687
 21
15.3491221179683
 31
0.0
 11
186.3121075711687
 21
15.51465206584358
 31
0.0
 11
186.3121075711687
 21
15.58989295124144
 31
0.0
 11
186.2535809125055
 21
15.58989295124144
 31
0.0
 11
186.1248222634467
 21
15.58989295124144
 31
0.0
 11
185.9960636143877
 21
15.58989295124144
 31
0.0
 11
185.9375369557246
 21
15.58989295124144
 31
0.0
  0
SPLINE
  5
B3
102
{ACAD_REACTORS
330
CF
102
}
330
48
100
AcDbEntity
  8
_U_30EC_U_30A4_U_30E4_U_30FC_1
  6
Continuous
 62
     2
100
AcDbSpline
210
0.0
220
0.0
230
1.0
 70
     8
 71
     3
 72
    70
 73
    66
 74
    64
 42
0.000000001
 43
0.0000000001
 44
0.00000001
 40
0.0
 40
0.0
 40
0.0
 40
0.0
 40
0.0241731073021472
 40
0.0846058988987013
 40
0.1631685280353284
 40
0.2417311571789756
 40
0.3021639488292751
 40
0.3263370654895541
 40
0.3533118254248881
 40
0.4228783438922111
 40
0.5179999095313402
 40
0.6216398239466102
 40
0.7167613891499706
 40
0.7863279069649863
 40
0.8133026791761836
 40
0.8372943998771676
 40
0.8945054261372871
 40
0.9627895541962641
 40
1.020000580349074
 40
1.043992300975173
 40
1.071934345522897
 40
1.113121768772908
 40
1.145225199332233
 40
1.225483775412768
 40
1.329819923771476
 40
1.434156071994366
 40
1.514414647795788
 40
1.546518078208396
 40
1.578974764260169
 40
1.662678849314164
 40
1.777131373668384
 40
1.901833377474775
 40
2.016285900500565
 40
2.099989982527932
 40
2.132446666570291
 40
2.158782354486013
 40
2.216720867907803
 40
2.274659381334227
 40
2.300995069256161
 40
2.333451754066133
 40
2.417155836543813
 40
2.531608358985253
 40
2.656310362283748
 40
2.77076288638888
 40
2.854466971340046
 40
2.886923657363852
 40
2.913597976833286
 40
2.98238964287509
 40
3.076451716946953
 40
3.17893726045857
 40
3.272999334739972
 40
3.341791001059195
 40
3.368465320663507
 40
3.396976080738729
 40
3.472140811845965
 40
3.578408190308654
 40
3.700226892456091
 40
3.822045594634308
 40
3.928312973256415
 40
4.003477705314812
 40
4.031988456866878
 40
4.058324144797678
 40
4.116262658236843
 40
4.174201171400642
 40
4.200536849608578
 40
4.200536849608578
 40
4.200536849608578
 40
4.200536849608578
 10
185.9857704961609
 20
15.75844135397705
 30
0.0
 10
185.9938259544679
 20
15.75844359811686
 30
0.0
 10
186.0220200663241
 20
15.75845146032798
 30
0.0
 10
186.0765534803672
 20
15.75830754828372
 30
0.0
 10
186.1482891808604
 20
15.75909120499898
 30
0.0
 10
186.2236240137062
 20
15.75627570463811
 30
0.0
 10
186.2713052366438
 20
15.76298403400957
 30
0.0
 10
186.3195071245616
 20
15.75197563692433
 30
0.0
 10
186.3062571799873
 20
15.80546402997033
 30
0.0
 10
186.3151093964539
 20
15.86049583543092
 30
0.0
 10
186.3108698036285
 20
15.95419908726109
 30
0.0
 10
186.313348348128
 20
16.04959482218532
 30
0.0
 10
186.309093870606
 20
16.14356821983387
 30
0.0
 10
186.3179818665847
 20
16.19795062438012
 30
0.0
 10
186.3046977409945
 20
16.25233997691461
 30
0.0
 10
186.3514119277108
 20
16.23842216335357
 30
0.0
 10
186.3943254545737
 20
16.24103877374043
 30
0.0
 10
186.4605443456686
 20
16.23648422450754
 30
0.0
 10
186.5013342271798
 20
16.22778162134161
 30
0.0
 10
186.5525145690819
 20
16.23531799890194
 30
0.0
 10
186.52537204872
 20
16.19349970223285
 30
0.0
 10
186.4803096055707
 20
16.20284992072596
 30
0.0
 10
186.4942065045051
 20
16.13841207371837
 30
0.0
 10
186.4858414431653
 20
16.07378219627399
 30
0.0
 10
186.4903632178398
 20
15.97529141193887
 30
0.0
 10
186.4854741311167
 20
15.8759593284257
 30
0.0
 10
186.4950258992082
 20
15.81293115552969
 30
0.0
 10
186.47997614552
 20
15.74964011499788
 30
0.0
 10
186.5449159457208
 20
15.76515072944269
 30
0.0
 10
186.6116246399496
 20
15.75499387697812
 30
0.0
 10
186.7241435470828
 20
15.75988800099367
 30
0.0
 10
186.8390235448953
 20
15.75691204732783
 30
0.0
 10
186.9519871999747
 20
15.76221664184991
 30
0.0
 10
187.0176267597677
 20
15.75107306472089
 30
0.0
 10
187.0816276691053
 20
15.76744532319857
 30
0.0
 10
187.0703142889189
 20
15.71761689905274
 30
0.0
 10
187.077533987151
 20
15.67416715212123
 30
0.0
 10
187.0703142611268
 20
15.63071745587445
 30
0.0
 10
187.0816277175994
 20
15.58088895196876
 30
0.0
 10
187.0176263598971
 20
15.59726166091362
 30
0.0
 10
186.951992124046
 20
15.58611271661588
 30
0.0
 10
186.838997431733
 20
15.59144857206854
 30
0.0
 10
186.7242456548644
 20
15.58834345663822
 30
0.0
 10
186.611318368686
 20
15.59364894682588
 30
0.0
 10
186.5455220903585
 20
15.58257300019594
 30
0.0
 10
186.4816097975358
 20
15.59887597847617
 30
0.0
 10
186.4936015165126
 20
15.54423524395741
 30
0.0
 10
186.4862104613005
 20
15.48854295047842
 30
0.0
 10
186.4892684841983
 20
15.3964968914057
 30
0.0
 10
186.4893422785683
 20
15.30179109873101
 30
0.0
 10
186.486031357836
 20
15.20952782902265
 30
0.0
 10
186.4939505989903
 20
15.15435768736139
 30
0.0
 10
186.4815076611618
 20
15.10058169100136
 30
0.0
 10
186.5389116551631
 20
15.1145376886278
 30
0.0
 10
186.5994708140383
 20
15.10511457884226
 30
0.0
 10
186.7048680855081
 20
15.10942885928705
 30
0.0
 10
186.8204294070622
 20
15.10835504612031
 30
0.0
 10
186.9359688877797
 20
15.10725965900995
 30
0.0
 10
187.0414181130841
 20
15.11162525770632
 30
0.0
 10
187.1018680471804
 20
15.10209426030671
 30
0.0
 10
187.159283773911
 20
15.11617289606379
 30
0.0
 10
187.1477773876708
 20
15.06707153265682
 30
0.0
 10
187.1537566781749
 20
15.02564658018648
 30
0.0
 10
187.1520311050802
 20
14.97651677966695
 30
0.0
 10
187.1521500122971
 20
14.94854428447607
 30
0.0
 10
187.1521871691833
 20
14.93980288195949
 30
0.0
 11
185.9857704961609
 21
15.75844135397705
 31
0.0
 11
186.0099436128282
 21
15.75844135397705
 31
0.0
 11
186.0703764044962
 21
15.75844135397705
 31
0.0
 11
186.1489390336648
 21
15.75844135397705
 31
0.0
 11
186.2275016628334
 21
15.75844135397705
 31
0.0
 11
186.2879344545015
 21
15.75844135397705
 31
0.0
 11
186.3121075711687
 21
15.75844135397705
 31
0.0
 11
186.3121075711687
 21
15.78541612620063
 31
0.0
 11
186.3121075711687
 21
15.85498264404039
 31
0.0
 11
186.3121075711687
 21
15.95010420924985
 31
0.0
 11
186.3121075711687
 21
16.05374412358256
 31
0.0
 11
186.3121075711687
 21
16.14886568879202
 31
0.0
 11
186.3121075711687
 21
16.21843220663178
 31
0.0
 11
186.3121075711687
 21
16.24540697885536
 31
0.0
 11
186.3360407604892
 21
16.243732131078
 31
0.0
 11
186.3931122119458
 21
16.23973826330121
 31
0.0
 11
186.461229750781
 21
16.23497138885795
 31
0.0
 11
186.5183012022376
 21
16.23097752108116
 31
0.0
 11
186.5422343915581
 21
16.2293026733038
 31
0.0
 11
186.5274972731229
 21
16.2055629337264
 31
0.0
 11
186.4886640249976
 21
16.19183767331312
 31
0.0
 11
186.4886640249976
 21
16.15973424225119
 31
0.0
 11
186.4886640249976
 21
16.07947566459636
 31
0.0
 11
186.4886640249976
 21
15.97513951364509
 31
0.0
 11
186.4886640249976
 21
15.87080336269381
 31
0.0
 11
186.4886640249976
 21
15.79054478503898
 31
0.0
 11
186.4886640249976
 21
15.75844135397705
 31
0.0
 11
186.5211207110824
 21
15.75844135397705
 31
0.0
 11
186.6048247962486
 21
15.75844135397705
 31
0.0
 11
186.7192773208634
 21
15.75844135397705
 31
0.0
 11
186.8439793252946
 21
15.75844135397705
 31
0.0
 11
186.9584318499095
 21
15.75844135397705
 31
0.0
 11
187.0421359350756
 21
15.75844135397705
 31
0.0
 11
187.0745926211604
 21
15.75844135397705
 31
0.0
 11
187.0745926211604
 21
15.73210566604961
 31
0.0
 11
187.0745926211604
 21
15.67416715260924
 31
0.0
 11
187.0745926211604
 21
15.61622863916888
 31
0.0
 11
187.0745926211604
 21
15.58989295124144
 31
0.0
 11
187.0421359350756
 21
15.58989295124144
 31
0.0
 11
186.9584318499095
 21
15.58989295124144
 31
0.0
 11
186.8439793252946
 21
15.58989295124144
 31
0.0
 11
186.7192773208634
 21
15.58989295124144
 31
0.0
 11
186.6048247962485
 21
15.58989295124144
 31
0.0
 11
186.5211207110824
 21
15.58989295124144
 31
0.0
 11
186.4886640249976
 21
15.58989295124144
 31
0.0
 11
186.4886640249976
 21
15.56321863152022
 31
0.0
 11
186.4886640249976
 21
15.49442696487075
 31
0.0
 11
186.4886640249976
 21
15.40036489006434
 31
0.0
 11
186.4886640249976
 21
15.29787934587227
 31
0.0
 11
186.4886640249976
 21
15.20381727106586
 31
0.0
 11
186.4886640249976
 21
15.13502560441639
 31
0.0
 11
186.4886640249976
 21
15.10835128469517
 31
0.0
 11
186.5171747850993
 21
15.10835128469517
 31
0.0
 11
186.5923395162766
 21
15.10835128469517
 31
0.0
 11
186.6986068948376
 21
15.10835128469517
 31
0.0
 11
186.8204255970904
 21
15.10835128469517
 31
0.0
 11
186.9422442993433
 21
15.10835128469517
 31
0.0
 11
187.0485116779043
 21
15.10835128469517
 31
0.0
 11
187.1236764090816
 21
15.10835128469517
 31
0.0
 11
187.1521871691833
 21
15.10835128469517
 31
0.0
 11
187.1521871691833
 21
15.08201559676772
 31
0.0
 11
187.1521871691833
 21
15.02407708332733
 31
0.0
 11
187.1521871691833
 21
14.96613856988694
 31
0.0
 11
187.1521871691833
 21
14.93980288195949
 31
0.0
  0
SPLINE
  5
B4
102
{ACAD_REACTORS
330
CF
102
}
330
48
100
AcDbEntity
  8
_U_30EC_U_30A4_U_30E4_U_30FC_1
  6
Continuous
 62
     2
100
AcDbSpline
210
0.0
220
0.0
230
1.0
 70
     8
 71
     3
 72
    24
 73
    20
 74
    18
 42
0.000000001
 43
0.0000000001
 44
0.00000001
 40
0.0
 40
0.0
 40
0.0
 40
0.0
 40
0.2211075008753808
 40
0.4273218586245489
 40
0.5080174679239001
 40
0.5914835907870403
 40
0.8143265690192855
 40
1.054651302686598
 40
1.295452694023188
 40
1.518109231328845
 40
1.540864321905488
 40
1.595126460622749
 40
1.659890947896091
 40
1.714153085187477
 40
1.736908174961777
 40
1.764951100735487
 40
1.801562291221131
 40
1.953914424543806
 40
2.126104167379887
 40
2.126104167379887
 40
2.126104167379887
 40
2.126104167379887
 10
185.9375369556889
 20
15.58989295113017
 30
0.0
 10
185.9112579081812
 20
15.53097628234374
 30
0.0
 10
185.8604698894427
 20
15.41711139679256
 30
0.0
 10
185.8131784839111
 20
15.14441958233114
 30
0.0
 10
185.7043482802618
 20
15.24445482575457
 30
0.0
 10
185.5514800279637
 20
15.27118593367326
 30
0.0
 10
185.7686155181199
 20
15.48518135017633
 30
0.0
 10
185.7838483674381
 20
15.70332117782485
 30
0.0
 10
185.8906889492
 20
15.88451579066427
 30
0.0
 10
185.8305380947078
 20
16.169132263114
 30
0.0
 10
185.9334317395402
 20
16.14114089222451
 30
0.0
 10
185.977993346815
 20
16.13243251602299
 30
0.0
 10
186.0380842395397
 20
16.12139654183355
 30
0.0
 10
186.0756619587439
 20
16.1076752305556
 30
0.0
 10
186.1252466928607
 20
16.10756076160222
 30
0.0
 10
186.0930158919326
 20
16.07306592398622
 30
0.0
 10
186.017180222188
 20
16.08404104537967
 30
0.0
 10
186.0429447159694
 20
15.89858969582449
 30
0.0
 10
186.005589676385
 20
15.80702313549589
 30
0.0
 10
185.9857704961609
 20
15.75844135397705
 30
0.0
 11
185.9375369556889
 21
15.58989295113017
 31
0.0
 11
185.8616471328552
 21
15.38221708318559
 31
0.0
 11
185.7717402238433
 21
15.19663392356192
 31
0.0
 11
185.701149392311
 21
15.23573272563551
 31
0.0
 11
185.6245525192651
 21
15.26889163187719
 31
0.0
 11
185.7214026947455
 21
15.46958801203537
 31
0.0
 11
185.7994641467471
 21
15.69688163177023
 31
0.0
 11
185.858971692972
 21
15.93021436608691
 31
0.0
 11
185.9001601511226
 21
16.14902808999054
 31
0.0
 11
185.9224183822215
 21
16.14429889221395
 31
0.0
 11
185.975495702534
 21
16.13302157443899
 31
0.0
 11
186.0388460525845
 21
16.11956154999792
 31
0.0
 11
186.0919233728971
 21
16.10828423222296
 31
0.0
 11
186.1141816039959
 21
16.10355503444637
 31
0.0
 11
186.0964097157461
 21
16.08186250841009
 31
0.0
 11
186.0606122998071
 21
16.07418628445367
 31
0.0
 11
186.028195330148
 21
15.92532288171313
 31
0.0
 11
185.9857704961609
 21
15.75844135397705
 31
0.0
  0
LWPOLYLINE
  5
B5
102
{ACAD_REACTORS
330
D0
102
}
330
48
100
AcDbEntity
  8
_U_30EC_U_30A4_U_30E4_U_30FC_1
  6
Continuous
 62
     2
100
AcDbPolyline
 90
        5
 70
     1
 43
0.0
 10
191.1602971697032
 20
15.39722336795626
 10
192.4578138032673
 20
15.39722336795626
 10
192.4578138032673
 20
15.22875434022057
 10
191.1602971697032
 20
15.22875434022057
 10
191.1602971697032
 20
15.39722336795626
  0
MTEXT
  5
B7
330
48
100
AcDbEntity
  8
1
 62
   250
100
AcDbMText
 10
24.99999999999999
 20
5.0
 30
0.0
 40
3.5
 41
0.0
 71
     4
 72
     1
  1
備考欄の文字列 原点位置=4
  7
CONVERTER_11
 73
     1
 44
0.54545454545455
  0
MTEXT
  5
B8
330
48
100
AcDbEntity
  8
1
 62
     2
100
AcDbMText
 10
89.50000000000003
 20
24.00000000000001
 30
0.0
 40
3.5
 41
0.0
 71
     5
 72
     1
  1
尺度
  7
CONVERTER_11
 73
     1
 44
0.54545454545455
  0
MTEXT
  5
B9
330
48
100
AcDbEntity
  8
1
 62
     2
100
AcDbMText
 10
135.5
 20
25.00000000000001
 30
0.0
 40
3.0
 41
0.0
 71
     5
 72
     1
  1
製図
  7
CONVERTER_11
 73
     1
 44
0.59090909090909
  0
MTEXT
  5
BA
330
48
100
AcDbEntity
  8
1
 62
     2
100
AcDbMText
 10
152.5
 20
25.00000000000001
 30
0.0
 40
3.0
 41
0.0
 71
     5
 72
     1
  1
設計
  7
CONVERTER_11
 73
     1
 44
0.59090909090909
  0
MTEXT
  5
BB
330
48
100
AcDbEntity
  8
1
 62
     2
100
AcDbMText
 10
118.5
 20
25.00000000000001
 30
0.0
 40
3.0
 41
0.0
 71
     5
 72
     1
  1
検図
  7
CONVERTER_11
 73
     1
 44
0.59090909090909
  0
MTEXT
  5
BC
330
48
100
AcDbEntity
  8
1
 62
     2
100
AcDbMText
 10
175.0000000000001
 20
23.50000000000001
 30
0.0
 40
3.5
 41
0.0
 71
     5
 72
     1
  1
第三角法
  7
CONVERTER_11
 73
     1
 44
0.54545454545455
  0
MTEXT
  5
BD
330
48
100
AcDbEntity
  8
1
 62
     2
100
AcDbMText
 10
101.5
 20
25.00000000000001
 30
0.0
 40
3.0
 41
0.0
 71
     5
 72
     1
  1
承認
  7
CONVERTER_11
 73
     1
 44
0.59090909090909
  0
MTEXT
  5
BE
330
48
100
AcDbEntity
  8
1
 62
     2
100
AcDbMText
 10
28.99999999999999
 20
14.25
 30
0.0
 40
3.5
 41
0.0
 71
     5
 72
     1
  1
品番
  7
CONVERTER_11
 73
     1
 44
0.72727272727273
  0
MTEXT
  5
BF
330
48
100
AcDbEntity
  8
1
 62
     2
100
AcDbMText
 10
28.99999999999999
 20
22.75
 30
0.0
 40
3.5
 41
0.0
 71
     5
 72
     1
  1
品名
  7
CONVERTER_11
 73
     1
 44
0.72727272727273
  0
MTEXT
  5
C0
330
48
100
AcDbEntity
  8
1
 62
     2
100
AcDbMText
 10
28.99999999999999
 20
34.0
 30
0.0
 40
3.5
 41
0.0
 71
     5
 72
     1
  1
備考
  7
CONVERTER_11
 73
     1
 44
0.45454545454545
  0
MTEXT
  5
C1
330
48
100
AcDbEntity
  8
1
 62
     2
100
AcDbMText
 10
32.49999999999999
 20
282.0000000000003
 30
0.0
 40
5.0
 41
0.0
 71
     5
 72
     1
  1
図番
  7
CONVERTER_11
 73
     1
 44
0.45454545454545
  0
HATCH
  5
C2
330
48
100
AcDbEntity
  8
1
  6
Continuous
 62
     2
100
AcDbHatch
 10
0.0
 20
0.0
 30
0.0
210
0.0
220
0.0
230
1.0
  2
CUSTOM0
 70
     0
 71
     1
 91
        1
 92
        1
 93
        1
 72
     4
 94
        3
 73
     0
 74
     0
 95
       99
 96
       95
 40
0.0
 40
0.0
 40
0.0
 40
0.0
 40
0.0796417172272903
 40
0.1621768542356673
 40
0.2486489160958289
 40
0.3404969668525239
 40
0.4381912511165262
 40
0.5434463660245563
 40
0.65181151928476
 40
0.7530190937887444
 40
0.8492196919724968
 40
0.9419290312998021
 40
1.034249663570026
 40
1.129078600620178
 40
1.226697027573238
 40
1.327220425421703
 40
1.470572134938025
 40
1.595489863371239
 40
1.7199341253484
 40
1.85057662012744
 40
1.989059629987305
 40
2.134139054226949
 40
2.280698007207237
 40
2.424529739039501
 40
2.565929576985872
 40
2.708239260773507
 40
2.861717887443667
 40
3.045168540347372
 40
3.183798301138618
 40
3.314813961455459
 40
3.442083470447315
 40
3.569912708372975
 40
3.702177512509418
 40
3.842307559659534
 40
3.992872223245937
 40
4.156750662218326
 40
4.310981861107633
 40
4.44585990932268
 40
4.57239393613162
 40
4.701656719781989
 40
4.768279086008476
 40
4.835960697898422
 40
4.912788918729339
 40
5.006285208481553
 40
5.026909478751629
 40
5.047533749021194
 40
5.101808031471245
 40
5.162325165538558
 40
5.226919745995875
 40
5.294231806596742
 40
5.364544852554872
 40
5.438319055467867
 40
5.51787765132423
 40
5.607647714861598
 40
5.700449642544445
 40
5.788251142364175
 40
5.872714706039778
 40
5.955167292575225
 40
6.037192395190392
 40
6.12066918146912
 40
6.206848616686335
 40
6.296680855416756
 40
6.442558392872581
 40
6.568190371608233
 40
6.692904567360374
 40
6.824220446557077
 40
6.963121850329417
 40
7.107843738851204
 40
7.253431663907266
 40
7.395187468036635
 40
7.53314075323776
 40
7.670550457175247
 40
7.816236511769253
 40
7.98769165735921
 40
8.142277421969244
 40
8.29366261541501
 40
8.44296246087927
 40
8.59159831618532
 40
8.743678992361792
 40
8.903725323699176
 40
9.076307008890469
 40
9.265578604680496
 40
9.459203795360727
 40
9.617619810273432
 40
9.753609671361842
 40
9.874873300004056
 40
9.954520184977767
 40
10.02416413719244
 40
10.09769764405444
 40
10.18909955924971
 40
10.20974586420138
 40
10.23039218263387
 40
10.30057101881272
 40
10.37632012987548
 40
10.37632012987548
 40
10.37632012987548
 40
10.37632012987548
 10
170.1465954835851
 20
14.13795663215994
 10
170.1632217851219
 20
14.11720608845313
 10
170.1970784206578
 20
14.07495111711901
 10
170.2599822541036
 20
14.02029811392072
 10
170.3332500940393
 20
13.9729902512105
 10
170.4175969238637
 20
13.93527231437935
 10
170.5132240615461
 20
13.91040619731951
 10
170.6171853775346
 20
13.90309559345937
 10
170.7224020220406
 20
13.91142322794054
 10
170.8206626371334
 20
13.94149179651526
 10
170.9058986427548
 20
13.98848822971879
 10
170.9779220206103
 20
14.04952991250857
 10
171.0350917709096
 20
14.12412969578583
 10
171.0767868747439
 20
14.21002464660175
 10
171.1026952846293
 20
14.3048585043221
 10
171.1118037332654
 20
14.41854979038367
 10
171.0986864796487
 20
14.54332587770779
 10
171.0325330334414
 20
14.66014719171891
 10
170.9369370919569
 20
14.74512539577375
 10
170.8249681022369
 20
14.81416684459159
 10
170.699365958327
 20
14.87204142045892
 10
170.5656691620856
 20
14.92373723284339
 10
170.4313122818831
 20
14.97899092397181
 10
170.3051983986877
 20
15.04939770641649
 10
170.1926579987534
 20
15.13785540731246
 10
170.0969963064459
 20
15.24981067868477
 10
170.0334157151825
 20
15.39949910101379
 10
170.0200706505016
 20
15.55932794385142
 10
170.0320510987448
 20
15.71048405306844
 10
170.071229892884
 20
15.83809244591538
 10
170.135498775091
 20
15.95080874030844
 10
170.223820499974
 20
16.04648609268688
 10
170.3338091207628
 20
16.12354214985749
 10
170.4632284401264
 20
16.18151396936279
 10
170.6111838967793
 20
16.21739177588822
 10
170.7682069455487
 20
16.22746719050564
 10
170.9174940466431
 20
16.2186363776259
 10
171.059625361417
 20
16.19074899340352
 10
171.1595922609626
 20
16.13413314701136
 10
171.3125074736185
 20
16.08674602105506
 10
171.2455131717168
 20
16.00197553001184
 10
171.2296479120269
 20
15.93438901873484
 10
171.1978750531296
 20
15.86926092793188
 10
171.2150202209572
 20
15.76723453256954
 10
171.1666427208231
 20
15.77493211681901
 10
171.1315789440766
 20
15.76806771724807
 10
171.1296697985719
 20
15.83263831158198
 10
171.0985692931988
 20
15.87825639621393
 10
171.0664551628456
 20
15.93561036628455
 10
171.0208038475168
 20
15.98540462692557
 10
170.9658508218387
 20
16.02994813718994
 10
170.9010841173009
 20
16.06763988836551
 10
170.8232377310597
 20
16.09283375791351
 10
170.7355160553353
 20
16.0993123099811
 10
170.6452903277806
 20
16.09235709285605
 10
170.5594594694065
 20
16.0690919046092
 10
170.4828343638596
 20
16.03131644107548
 10
170.4165265636202
 20
15.98051641089567
 10
170.3622560536964
 20
15.91731143407214
 10
170.3224925345458
 20
15.84276455710368
 10
170.2976775510589
 20
15.75917313997762
 10
170.289212426287
 20
15.65192948382284
 10
170.3019697987105
 20
15.52965457267562
 10
170.3681548409272
 20
15.41149724291205
 10
170.4640977399833
 20
15.32606325709533
 10
170.5757914963182
 20
15.25583362306716
 10
170.7010863668703
 20
15.19659162305307
 10
170.8349823941449
 20
15.14616708086132
 10
170.9689930333151
 20
15.09322516984382
 10
171.0950885316915
 20
15.02750170625171
 10
171.2076216638418
 20
14.94480352537324
 10
171.3031370284234
 20
14.83996006310074
 10
171.3672706486963
 20
14.69937117251569
 10
171.3811103725279
 20
14.54065409451592
 10
171.3673954712229
 20
14.38153155217875
 10
171.3244739153985
 20
14.2348382881921
 10
171.2545906329065
 20
14.10119796587141
 10
171.1574592213829
 20
13.98532387699291
 10
171.0347806023657
 20
13.89089981770087
 10
170.8874408413168
 20
13.82179270651982
 10
170.7177132497125
 20
13.77953210858852
 10
170.5317404979597
 20
13.76781736230408
 10
170.3528955926184
 20
13.77809486683434
 10
170.1881733753744
 20
13.81966573769157
 10
170.0834410841057
 20
13.88797642883941
 10
169.9350960790365
 20
13.93675219032104
 10
169.9980378194729
 20
14.02976591290841
 10
170.007227443006
 20
14.1029653624828
 10
170.0303711301232
 20
14.16936294501346
 10
170.0034588335317
 20
14.26974809527583
 10
170.0521338956339
 20
14.26234033517377
 10
170.0916530580697
 20
14.26894063620896
 10
170.0996204944703
 20
14.19078703218935
 10
170.1305436967923
 20
14.15600927375857
 10
170.1465954835851
 20
14.13795663215994
 97
        1
330
A4
 75
     1
 76
     2
 52
45.0
 41
0.1
 77
     0
 78
     1
 53
45.0
 43
0.0
 44
0.0
 45
-0.282842712474619
 46
0.0
 79
     0
 98
        1
 10
0.0
 20
0.0
  0
HATCH
  5
C3
330
48
100
AcDbEntity
  8
1
  6
Continuous
 62
     2
100
AcDbHatch
 10
0.0
 20
0.0
 30
0.0
210
0.0
220
0.0
230
1.0
  2
CUSTOM1
 70
     0
 71
     1
 91
        2
 92
        1
 93
        1
 72
     4
 94
        3
 73
     0
 74
     0
 95
       57
 96
       53
 40
0.0
 40
0.0
 40
0.0
 40
0.0
 40
0.0471632082809235
 40
0.0914861054632153
 40
0.1357762519702104
 40
0.1826527001609831
 40
0.2295203288571739
 40
0.2737751972220762
 40
0.3181310461542219
 40
0.3652607198398507
 40
0.4571007286314303
 40
0.5671851029165205
 40
0.6894623283868357
 40
0.8181758272545977
 40
0.9510087229273785
 40
1.085852229674057
 40
1.218126164475315
 40
1.343545131142385
 40
1.454537202956801
 40
1.567187607530725
 40
1.680710966642315
 40
1.794226869736708
 40
1.900009184247536
 40
2.004085860447872
 40
2.10816267445176
 40
2.214000150155304
 40
2.496038577352119
 40
2.762350745479278
 40
2.997275353279409
 40
3.185110082137733
 40
3.246407890063904
 40
3.312607550212578
 40
3.378877742711565
 40
3.440140399651448
 40
4.100501696006494
 40
4.754913085563516
 40
5.411331693423929
 40
6.077890432568712
 40
6.11057529267099
 40
6.14326015277577
 40
6.367989363395188
 40
6.61052537495156
 40
6.863389136467336
 40
7.119380025547641
 40
7.376036605091128
 40
7.631164770966343
 40
7.876722425456435
 40
8.104953735855968
 40
8.312916685924307
 40
8.49773029494132
 40
8.651018984313874
 40
8.764738853624594
 40
8.764738853624594
 40
8.764738853624594
 40
8.764738853624594
 10
174.7922649500513
 20
13.81626739612927
 10
174.7766616726931
 20
13.81826231079078
 10
174.7463947960301
 20
13.82213201360298
 10
174.7010994202253
 20
13.82341984967268
 10
174.6559553129349
 20
13.82308683554051
 10
174.60990171234
 20
13.82314658674223
 10
174.5640496172097
 20
13.82325813650001
 10
174.5183711648165
 20
13.8227783345659
 10
174.4750811541608
 20
13.8246110961872
 10
174.4039947951514
 20
13.80049556814655
 10
174.4057477261442
 20
13.92184693977253
 10
174.358619637057
 20
14.00726239751232
 10
174.3191478251761
 20
14.12486929345135
 10
174.2706635532645
 20
14.24232752540437
 10
174.2201017402523
 20
14.36405935761512
 10
174.1718634610477
 20
14.49075967862464
 10
174.1135232947595
 20
14.59933687784952
 10
174.0980892667261
 20
14.7562065713441
 10
173.9566586330636
 20
14.72373446548322
 10
173.8508397414905
 20
14.7351288868218
 10
173.7358569725222
 20
14.73392591514615
 10
173.6253142252142
 20
14.73506945347408
 10
173.5176583522783
 20
14.73418350037526
 10
173.4121322529243
 20
14.73416602390519
 10
173.3109192682013
 20
14.72714032472415
 10
173.1266804827752
 20
14.75135859859867
 10
173.1157393685413
 20
14.44741691121883
 10
173.008769163475
 20
14.22353177253398
 10
172.9098148604346
 20
14.03895314292497
 10
172.9225090524007
 20
13.79530204804207
 10
172.8050091716397
 20
13.82508046753196
 10
172.7422055868311
 20
13.82258089509603
 10
172.67858720934
 20
13.82344075102805
 10
172.3946014194075
 20
13.78098039941947
 10
173.0251638499382
 20
14.50081952444781
 10
173.1087645289071
 20
15.0127653943573
 10
173.4929252789339
 20
15.53353743550041
 10
173.4777208288565
 20
16.23519626253216
 10
173.7239265722697
 20
16.22345633081256
 10
173.8256346157562
 20
16.23225004452773
 10
173.8249752035818
 20
15.98059650730349
 10
173.9428317155828
 20
15.79818020733956
 10
174.0315515260485
 20
15.55563740662864
 10
174.1322292485261
 20
15.32340030530132
 10
174.2311142712242
 20
15.08674644566909
 10
174.3299676990671
 20
14.85461739170097
 10
174.4256166390926
 20
14.63122222788786
 10
174.5159904573271
 20
14.42272549049316
 10
174.5989944568189
 20
14.23308448529319
 10
174.6726088582799
 20
14.06663106068098
 10
174.7342815895546
 20
13.92917699626098
 10
174.7749458885604
 20
13.84999239430034
 10
174.7922649500513
 20
13.81626739612927
 97
        1
330
A5
 92
       16
 93
        1
 72
     4
 94
        3
 73
     0
 74
     0
 95
       25
 96
       21
 40
0.0
 40
0.0
 40
0.0
 40
0.0
 40
0.091147996906539
 40
0.1858117896205802
 40
0.2804128399735343
 40
0.3715889190715647
 40
0.4679080494219561
 40
0.5642683809229231
 40
0.6605683222645559
 40
0.7569653015810256
 40
0.8561348172522739
 40
1.092615965104292
 40
1.374867658141875
 40
1.611348812011601
 40
1.710518328425249
 40
1.809403163726568
 40
2.04520546329407
 40
2.32664691762213
 40
2.562449217190592
 40
2.661334043833911
 40
2.661334043833911
 40
2.661334043833911
 40
2.661334043833911
 10
173.2683700567199
 20
14.88614538197292
 10
173.2987525917922
 20
14.88598079714554
 10
173.3606895889112
 20
14.88564528689922
 10
173.454135696033
 20
14.88269055452
 10
173.5475095236358
 20
14.8797775287715
 10
173.6417760753477
 20
14.87894201643417
 10
173.7354964790967
 20
14.87996644658046
 10
173.8352040303205
 20
14.87916977470972
 10
173.9188949546312
 20
14.88921410235219
 10
174.0637996315045
 20
14.86234617674167
 10
173.9396132444801
 20
15.03665530280049
 10
173.8965867286282
 20
15.19651711006091
 10
173.780892214221
 20
15.45518458550216
 10
173.7017565431257
 20
15.59231052861858
 10
173.6431576621816
 20
15.80937033134077
 10
173.5864803939438
 20
15.59266134213428
 10
173.5052809900478
 20
15.45327012438236
 10
173.4063701281487
 20
15.20406969370194
 10
173.325362509426
 20
15.01925830226074
 10
173.2813683325838
 20
14.91650446856116
 10
173.2683700567199
 20
14.88614538197292
 97
        1
330
A6
 75
     1
 76
     2
 52
45.0
 41
0.1
 77
     0
 78
     1
 53
45.0
 43
0.0
 44
0.0
 45
-0.282842712474619
 46
0.0
 79
     0
 98
        1
 10
0.0
 20
0.0
  0
HATCH
  5
C4
330
48
100
AcDbEntity
  8
1
  6
Continuous
 62
     2
100
AcDbHatch
 10
0.0
 20
0.0
 30
0.0
210
0.0
220
0.0
230
1.0
  2
CUSTOM2
 70
     0
 71
     1
 91
        1
 92
        1
 93
        1
 72
     4
 94
        3
 73
     0
 74
     0
 95
       95
 96
       91
 40
0.0
 40
0.0
 40
0.0
 40
0.0
 40
0.6550406656911935
 40
1.308087289031959
 40
1.420803739835833
 40
1.566130759770819
 40
1.757067341888494
 40
2.0065135450265
 40
2.087328263121588
 40
2.185328872295661
 40
2.294612454748404
 40
2.408936380534857
 40
2.526802767798597
 40
2.646360524615643
 40
2.762535723971618
 40
2.870057342870194
 40
2.966883448431685
 40
3.050803243518333
 40
3.115818222436643
 40
3.156030057150273
 40
3.213914225080118
 40
3.276689026450575
 40
3.342960320981324
 40
3.404230667150516
 40
3.453822809493321
 40
3.532499827188371
 40
3.634775188507112
 40
3.754909333008108
 40
3.889736761660607
 40
4.035769602175172
 40
4.187256681197555
 40
4.338733685675904
 40
4.488478734676071
 40
4.634708317831533
 40
4.771493189921221
 40
4.89268657156116
 40
5.199775528944396
 40
5.460353566929586
 40
5.66760314234546
 40
5.814722905404441
 40
5.828990806219739
 40
5.855488336304436
 40
5.869756237118768
 40
6.189796507762795
 40
6.531890469873026
 40
6.883053637016957
 40
7.230512024911502
 40
7.566966656764532
 40
7.885203559707437
 40
8.172887439719258
 40
8.41801159406278
 40
8.443926721190703
 40
8.51076047061319
 40
8.602145393795702
 40
8.701714041647145
 40
8.793098965075378
 40
8.859932715057951
 40
8.885847842603601
 40
9.24230125661281
 40
9.58927545501676
 40
9.921808543164172
 40
10.23479624298468
 40
10.29968150889187
 40
10.35323493887778
 40
10.40154625355154
 40
10.46482922477827
 40
10.55973900668407
 40
10.6923954598562
 40
10.84920353475674
 40
11.01626328594782
 40
11.18672024367445
 40
11.35372582577213
 40
11.50257442292429
 40
11.61866495023293
 40
11.71329869152878
 40
11.8251105057391
 40
11.94464880845718
 40
12.06929242642509
 40
12.19707290435179
 40
12.32562632860531
 40
12.45034565331282
 40
12.5664659517033
 40
12.67099007414638
 40
12.76077625936785
 40
12.82703233506697
 40
12.87429132785995
 40
12.89831990323335
 40
12.92234847860023
 40
13.53984767410321
 40
14.1829428435936
 40
14.1829428435936
 40
14.1829428435936
 40
14.1829428435936
 10
177.3067935648022
 20
14.70898038201724
 10
177.1752019758551
 20
14.8226505860323
 10
176.9124193802728
 20
15.04964496316154
 10
176.3997393441025
 20
15.89214462956286
 10
176.4106654595361
 20
15.53423377577021
 10
176.4041226527993
 20
15.39267392272133
 10
176.4028026631773
 20
15.19421305299281
 10
176.4018117602537
 20
15.02150296045982
 10
176.4024101751974
 20
14.87865373257579
 10
176.4038994301882
 20
14.78265005413357
 10
176.4055683588472
 20
14.6754550326314
 10
176.407193495462
 20
14.56164211517582
 10
176.4092429501685
 20
14.44441572604588
 10
176.4123165501928
 20
14.3265641123297
 10
176.4156339697043
 20
14.2122808732062
 10
176.419360534028
 20
14.10521401867276
 10
176.4217338161425
 20
14.01007408766921
 10
176.4278718888359
 20
13.92558557205695
 10
176.4239784495947
 20
13.86923087298142
 10
176.4455230443077
 20
13.79825022472357
 10
176.3680940058618
 20
13.82902677604484
 10
176.3116353240191
 20
13.82011242517613
 10
176.2540495896808
 20
13.82896218398275
 10
176.1690163478473
 20
13.79738225225946
 10
176.2009714146383
 20
13.8809515599219
 10
176.1990705282539
 20
13.9488260896831
 10
176.21079600473
 20
14.05233256764418
 10
176.2164241053
 20
14.17002125616696
 10
176.2237902178941
 20
14.30388609164422
 10
176.2320759701611
 20
14.44764152872632
 10
176.2398851897426
 20
14.59714022843445
 10
176.2457571222657
 20
14.74792549402078
 10
176.2503667817969
 20
14.89699943878437
 10
176.2542632117542
 20
15.04122913163023
 10
176.2570715126564
 20
15.17583905213017
 10
176.2576698755022
 20
15.36469614347354
 10
176.2616023867151
 20
15.58975494313154
 10
176.2442175378497
 20
15.86367091125707
 10
176.2850417342584
 20
16.02787112098597
 10
176.1995153256001
 20
16.22749661465096
 10
176.2660558907688
 20
16.22385458403978
 10
176.283872427323
 20
16.22413447160853
 10
176.4056801797504
 20
16.22632927398615
 10
176.5080770335462
 20
15.94675118721511
 10
176.7580021509358
 20
15.74563008536007
 10
176.9870035331109
 20
15.47792614987908
 10
177.224515121311
 20
15.22646413862384
 10
177.4486090740771
 20
14.9896997406135
 10
177.6750716283011
 20
14.73218692583082
 10
177.8325687886515
 20
14.61649335056924
 10
178.0472129612676
 20
14.27997152538793
 10
178.0422645974619
 20
14.40464754091603
 10
178.0433931602547
 20
14.46327691935736
 10
178.0428877841517
 20
14.55043662371976
 10
178.0430475158114
 20
14.64416143182872
 10
178.0430054891319
 20
14.73018971297035
 10
178.0430202040373
 20
14.79153891945495
 10
178.0429706255985
 20
14.94135231520993
 10
178.045881152281
 20
15.17989612510104
 10
178.0259521041163
 20
15.544865098687
 10
178.0750433936248
 20
15.80799631993413
 10
177.917795150918
 20
16.21928904947752
 10
178.0762112872421
 20
16.16398282551747
 10
178.1311680478629
 20
16.16199686500175
 10
178.182788776674
 20
16.16264778248254
 10
178.2713198965365
 20
16.20369527738245
 10
178.220489830317
 20
16.05696326622986
 10
178.2313389930285
 20
15.95019971954432
 10
178.2166036994847
 20
15.79085705414112
 10
178.2099976446204
 20
15.62853061652874
 10
178.2014961399915
 20
15.45992521892394
 10
178.19432272022
 20
15.29814814703541
 10
178.1889063215389
 20
15.15422331457932
 10
178.1871713967648
 20
15.03437493466925
 10
178.1875440672319
 20
14.92686101590514
 10
178.1873656126263
 20
14.81820024645586
 10
178.187701086314
 20
14.6995357016553
 10
178.1890040622184
 20
14.5755516351274
 10
178.1908887351574
 20
14.44858294171104
 10
178.1925004454852
 20
14.32153861551032
 10
178.194140313743
 20
14.19854884492177
 10
178.1962570745751
 20
14.08300931383759
 10
178.1963848422363
 20
13.98090903955837
 10
178.2006514396554
 20
13.89009848838156
 10
178.1908440085289
 20
13.83213621208786
 10
178.2118474771689
 20
13.76517130132029
 10
178.1725639739897
 20
13.77291153966688
 10
177.9595307117745
 20
13.75755254145191
 10
177.7636297943188
 20
14.31403058094469
 10
177.4611197631544
 20
14.57556035348509
 10
177.3067935648022
 20
14.70898038201724
 97
        1
330
A7
 75
     1
 76
     2
 52
45.0
 41
0.1
 77
     0
 78
     1
 53
45.0
 43
0.0
 44
0.0
 45
-0.282842712474619
 46
0.0
 79
     0
 98
        1
 10
0.0
 20
0.0
  0
HATCH
  5
C5
330
48
100
AcDbEntity
  8
1
  6
Continuous
 62
     2
100
AcDbHatch
 10
0.0
 20
0.0
 30
0.0
210
0.0
220
0.0
230
1.0
  2
CUSTOM3
 70
     0
 71
     1
 91
        1
 92
        1
 93
        1
 72
     4
 94
        3
 73
     0
 74
     0
 95
      110
 96
      106
 40
0.0
 40
0.0
 40
0.0
 40
0.0
 40
0.2203406257277749
 40
0.4407808782838128
 40
0.5952494494615109
 40
0.7488431659393112
 40
0.9023581831309666
 40
1.056801968670408
 40
1.210736449099937
 40
1.363041386539872
 40
1.515315729683187
 40
1.669377239148166
 40
1.721611652756662
 40
1.773199502943047
 40
1.824933793210098
 40
1.877110426488087
 40
1.982682281206935
 40
2.078781667087744
 40
2.172809640822465
 40
2.271937807379119
 40
2.378349933379512
 40
2.494131557736701
 40
2.626681683943807
 40
2.783145050796177
 40
2.890701232941027
 40
2.993130312454928
 40
3.099869730691912
 40
3.22023781669141
 40
3.352695482737694
 40
3.48173280638995
 40
3.593499473690475
 40
3.674323013331986
 40
3.81795171195285
 40
3.946167120793847
 40
4.061405053453618
 40
4.166480796003174
 40
4.262478775059296
 40
4.35073667355128
 40
4.433071991254108
 40
4.511216293814654
 40
4.564262454117972
 40
4.618474415571591
 40
4.670128488754195
 40
4.722296879126378
 40
4.819540945314247
 40
4.931194984128103
 40
5.049996040257745
 40
5.168643755415291
 40
5.283970811762502
 40
5.392260784910214
 40
5.486512254876345
 40
5.559178233949716
 40
5.591425852853376
 40
5.626215969637759
 40
5.667155838674299
 40
5.717449290214112
 40
5.738402360944725
 40
5.784499116553692
 40
5.83059587216466
 40
5.851548942897518
 40
5.873019280661633
 40
5.924217778408175
 40
5.985325662817554
 40
6.036524160567571
 40
6.057994498334099
 40
6.236847789607352
 40
6.381409928945525
 40
6.493190424178555
 40
6.574067534230367
 40
6.691018086205404
 40
6.814881554220379
 40
6.944307823240246
 40
7.07126671606587
 40
7.193488604461715
 40
7.309042773128027
 40
7.414007203170597
 40
7.505140441886408
 40
7.53115036059956
 40
7.559221645322155
 40
7.587202218920806
 40
7.612569159499016
 40
7.662550809480891
 40
7.702878875764027
 40
7.857328205230841
 40
8.010799568088458
 40
8.165256399657437
 40
8.322232698713862
 40
8.479564855016463
 40
8.635216230290666
 40
8.790882550925641
 40
8.948305154947235
 40
9.168271839032926
 40
9.387358980987202
 40
9.608047961033444
 40
9.832914234792646
 40
9.858338694962981
 40
9.925366817229989
 40
10.02013071422757
 40
10.12876249858996
 40
10.23739428295246
 40
10.33215817995188
 40
10.39918630222391
 40
10.4246107623978
 40
10.6499201933694
 40
10.87188524531185
 40
10.87188524531185
 40
10.87188524531185
 40
10.87188524531185
 10
179.9057788376619
 20
15.7392326039819
 10
179.9092864933542
 20
15.80616462073804
 10
179.9163033987663
 20
15.94005891915859
 10
179.8198027599072
 20
16.2254855497147
 10
180.0510134726109
 20
16.16284386190283
 10
180.1919290057157
 20
16.17001554055991
 10
180.3490417757588
 20
16.16235883078243
 10
180.5025913427287
 20
16.1625275228304
 10
180.6545104935081
 20
16.16182040535431
 10
180.8142214813232
 20
16.17210158351639
 10
180.9408972601119
 20
16.15496511080751
 10
181.137082112208
 20
16.22727260107145
 10
181.1034395279079
 20
16.12640699080118
 10
181.1052011317184
 20
16.0761925394767
 10
181.1027342073458
 20
16.02712335586465
 10
181.1347076966013
 20
15.94063490846997
 10
181.0010399903255
 20
15.98997438608335
 10
180.9172208688057
 20
15.98430634314168
 10
180.8173861139323
 20
15.99465516706297
 10
180.7186576720146
 20
16.00086450411086
 10
180.612153277111
 20
16.00697763816777
 10
180.491051169806
 20
16.01588883484585
 10
180.3703381502454
 20
16.00521605912384
 10
180.1812553843438
 20
16.06468503080364
 10
180.2129028505311
 20
15.90558320077539
 10
180.1995563316834
 20
15.80839128339904
 10
180.197495842645
 20
15.69634065110102
 10
180.1958188044671
 20
15.5769968562935
 10
180.1973336794233
 20
15.45032592155109
 10
180.195658247867
 20
15.32301588016116
 10
180.2058844271658
 20
15.22451566404463
 10
180.1779006596583
 20
15.08388702625633
 10
180.3508029999305
 20
15.13989551134095
 10
180.4645020202772
 20
15.12719951478497
 10
180.5840151672239
 20
15.13448377051253
 10
180.6888491425072
 20
15.13878017056756
 10
180.7843084898612
 20
15.14330568258977
 10
180.8763823507033
 20
15.151492011462
 10
180.947655178244
 20
15.14643850638111
 10
181.0544931705684
 20
15.18536425031673
 10
181.0226603598037
 20
15.10517122005878
 10
181.0266164503929
 20
15.05562936846033
 10
181.0234502392013
 20
15.00557478039819
 10
181.0550791490585
 20
14.92128847612022
 10
180.9210133677691
 20
14.97425365495158
 10
180.82923227932
 20
14.96540080890439
 10
180.7079729189603
 20
14.97570049965154
 10
180.5914113119771
 20
14.97748911767503
 10
180.4783375745879
 20
14.97787017109694
 10
180.3679246308472
 20
14.98415449472179
 10
180.2898124067841
 20
14.97189133255362
 10
180.1913625833646
 20
15.00453887616124
 10
180.2012355173561
 20
14.94769748054206
 10
180.1973923244403
 20
14.91392130557984
 10
180.1966789884268
 20
14.87119604709411
 10
180.1963369642975
 20
14.83401607262152
 10
180.1963834255346
 20
14.79487237370771
 10
180.1963649429926
 20
14.75716849497685
 10
180.1963703431807
 20
14.71944955232403
 10
180.1963697214201
 20
14.6899432474515
 10
180.1963698151545
 20
14.65873577699301
 10
180.1963704287921
 20
14.61414424908085
 10
180.1963671499336
 20
14.5596395650885
 10
180.1963759623481
 20
14.51505540201448
 10
180.1963359653416
 20
14.4311780858574
 10
180.1976024270255
 20
14.31737520677678
 10
180.1950274117842
 20
14.16830395933709
 10
180.206500938172
 20
14.06597203813905
 10
180.1823506222265
 20
13.93338903885835
 10
180.3332993946476
 20
13.97895732272022
 10
180.4428436671556
 20
13.96427012162349
 10
180.5733970473921
 20
13.96920435125063
 10
180.6990312209513
 20
13.9725770532336
 10
180.8188730625602
 20
13.97711497498773
 10
180.9391362611427
 20
13.99048536182004
 10
181.0222761663516
 20
13.98068712782597
 10
181.1456080421075
 20
14.04126214623322
 10
181.1244269203958
 20
13.9853246013402
 10
181.1235950270118
 20
13.95939249372346
 10
181.1218963707559
 20
13.93197256190938
 10
181.1217974888831
 20
13.89738195206385
 10
181.120365930133
 20
13.86050408220767
 10
181.1532804192192
 20
13.76846841021807
 10
180.9551306988108
 20
13.84132015974831
 10
180.8300548294892
 20
13.81825726508606
 10
180.6673071295156
 20
13.82454021985786
 10
180.5129366450002
 20
13.82260943909925
 10
180.3566670436944
 20
13.82393762599268
 10
180.1970544465282
 20
13.82059872487861
 10
180.0540326342237
 20
13.83265795728241
 10
179.8197144881628
 20
13.76952001976917
 10
179.9173810751197
 20
14.05620527466317
 10
179.900686878006
 20
14.2498830814266
 10
179.9146296709685
 20
14.47848242880295
 10
179.9142987846633
 20
14.63384593955048
 10
179.9143078119264
 20
14.73966336444125
 10
179.9143055876316
 20
14.80205784124214
 10
179.914306555189
 20
14.89220425248327
 10
179.9143065473262
 20
14.99621167157438
 10
179.9143053861104
 20
15.10022131375296
 10
179.9143090971502
 20
15.19036243688767
 10
179.9143011051052
 20
15.25276803097215
 10
179.9143334275018
 20
15.35868835961119
 10
179.913144078832
 20
15.5162671654474
 10
179.9082216489257
 20
15.66528219822065
 10
179.9057788376619
 20
15.7392326039819
 97
        1
330
A8
 75
     1
 76
     2
 52
45.0
 41
0.1
 77
     0
 78
     1
 53
45.0
 43
0.0
 44
0.0
 45
-0.282842712474619
 46
0.0
 79
     0
 98
        1
 10
0.0
 20
0.0
  0
HATCH
  5
C6
330
48
100
AcDbEntity
  8
1
  6
Continuous
 62
     2
100
AcDbHatch
 10
0.0
 20
0.0
 30
0.0
210
0.0
220
0.0
230
1.0
  2
CUSTOM4
 70
     0
 71
     1
 91
        1
 92
        1
 93
        1
 72
     4
 94
        3
 73
     0
 74
     0
 95
       47
 96
       43
 40
0.0
 40
0.0
 40
0.0
 40
0.0
 40
0.2207912809957148
 40
0.4459404186302993
 40
0.4902387190458093
 40
0.5327473892721888
 40
0.574226045122465
 40
0.6155432630560509
 40
0.6568164066314857
 40
0.698251161878035
 40
0.7407663929316292
 40
0.7851366743174081
 40
1.010288833836209
 40
1.231080507002053
 40
1.451765243652284
 40
1.676638205891567
 40
1.720461045359537
 40
1.830018144043402
 40
1.972442372353033
 40
2.114866600677402
 40
2.224423699395027
 40
2.268246538883268
 40
2.493628801207099
 40
2.7156028302865
 40
2.934211330706253
 40
3.149502369855242
 40
3.231387784850803
 40
3.318231873853838
 40
3.405143198197883
 40
3.486970301720234
 40
3.702258172493673
 40
3.920866283533902
 40
4.142839325931692
 40
4.368221903865154
 40
4.412044743359634
 40
4.52160184209565
 40
4.66402607045213
 40
4.806450298808838
 40
4.91600739754653
 40
4.959830237042854
 40
5.184703515846885
 40
5.405387250767262
 40
5.405387250767262
 40
5.405387250767262
 40
5.405387250767262
 10
182.6507427258645
 20
15.73406440953872
 10
182.6568139420003
 20
15.79758482501209
 10
182.6690762107242
 20
15.92587938689623
 10
182.5604706879412
 20
16.20166220174078
 10
182.6761985896605
 20
16.1718813343205
 10
182.7171842509015
 20
16.16765556262822
 10
182.7591205797519
 20
16.16310446389605
 10
182.800419662571
 20
16.16201982929485
 10
182.8417032115556
 20
16.16310338195226
 10
182.8836148270647
 20
16.16766112711343
 10
182.9245983549019
 20
16.17187430209727
 10
183.0404922843489
 20
16.20177611317536
 10
182.9295652727456
 20
15.92339806609888
 10
182.9574856365268
 20
15.74283140824952
 10
182.9404267346969
 20
15.50961042346472
 10
182.9414637282104
 20
15.34906622543145
 10
182.9414099399405
 20
15.22284817558722
 10
182.9414277372482
 20
15.12428963336242
 10
182.9414188581081
 20
14.99280702442962
 10
182.9414263928034
 20
14.86132844968649
 10
182.941412940513
 20
14.76276222694091
 10
182.9414531717493
 20
14.63639735624152
 10
182.9406746403818
 20
14.4748206882287
 10
182.9565958319268
 20
14.24361821892914
 10
182.9333468885407
 20
14.05874351972002
 10
183.0360183444367
 20
13.78935602770057
 10
182.8820238362836
 20
13.82660112685817
 10
182.8004129802833
 20
13.82137994680534
 10
182.7188192292583
 20
13.82660620378351
 10
182.5648513666843
 20
13.78937069885388
 10
182.6674183421918
 20
14.05875129862881
 10
182.6442045316088
 20
14.24361585325414
 10
182.6600444655139
 20
14.47482218565638
 10
182.6593296313426
 20
14.63639712308503
 10
182.6593664569907
 20
14.76276231210521
 10
182.659354900027
 20
14.86132756635981
 10
182.6593575019214
 20
14.9928112741722
 10
182.6593648531779
 20
15.124275480312
 10
182.6593442541351
 20
15.22287786275325
 10
182.6594082192028
 20
15.34896149354427
 10
182.6581733947591
 20
15.51210091383771
 10
182.6532040396745
 20
15.66054183777549
 10
182.6507427258645
 20
15.73406440953872
 97
        1
330
A9
 75
     1
 76
     2
 52
45.0
 41
0.1
 77
     0
 78
     1
 53
45.0
 43
0.0
 44
0.0
 45
-0.282842712474619
 46
0.0
 79
     0
 98
        1
 10
0.0
 20
0.0
  0
HATCH
  5
C7
330
48
100
AcDbEntity
  8
1
  6
Continuous
 62
     2
100
AcDbHatch
 10
0.0
 20
0.0
 30
0.0
210
0.0
220
0.0
230
1.0
  2
CUSTOM5
 70
     0
 71
     1
 91
        1
 92
        1
 93
        1
 72
     4
 94
        3
 73
     0
 74
     0
 95
      118
 96
      114
 40
0.0
 40
0.0
 40
0.0
 40
0.0
 40
0.1054708162973424
 40
0.246609827005191
 40
0.3965912874591412
 40
0.5285525069754153
 40
0.6156245055642684
 40
0.6431434105797829
 40
0.7036850037986533
 40
0.764226598450493
 40
0.7917455052355235
 40
0.9287404319990442
 40
1.106572819088127
 40
1.287544879681127
 40
1.317578308030644
 40
1.399928030857282
 40
1.522968204800057
 40
1.675072986590678
 40
1.844616533180755
 40
2.019973001638819
 40
2.189516548880132
 40
2.34162133158547
 40
2.464661506320606
 40
2.54701122964717
 40
2.577044658168134
 40
2.603797890893176
 40
2.662655002908863
 40
2.721512114949647
 40
2.748265347702798
 40
2.774215307344875
 40
2.845959313407205
 40
2.954338556588404
 40
3.090194227585581
 40
3.244367517100544
 40
3.407699615844304
 40
3.571031714539455
 40
3.725205003920131
 40
3.861060674729631
 40
3.969439917716324
 40
4.041183923628996
 40
4.067133883212989
 40
4.311886746012185
 40
4.547897258335562
 40
4.764747083044003
 40
4.952749679951775
 40
5.045772974195913
 40
5.137862019645023
 40
5.330543169793076
 40
5.553448265244071
 40
5.79508385588825
 40
6.04329341217731
 40
6.285761695541259
 40
6.313902908752771
 40
6.384255941793361
 40
6.475714884766949
 40
6.56717382775904
 40
6.637526860839847
 40
6.66566807407421
 40
6.692018920328183
 40
6.749990782071254
 40
6.807962643790622
 40
6.834313490018095
 40
6.856393084245374
 40
6.913335195649998
 40
6.99119481730269
 40
7.076026942283979
 40
7.153886563725498
 40
7.210828674845052
 40
7.232908268931416
 40
7.258199334923937
 40
7.324875781592588
 40
7.419142481925247
 40
7.52720430884219
 40
7.635266135230768
 40
7.729532834168758
 40
7.79620927929308
 40
7.821500344595027
 40
7.844652988851097
 40
7.899863140541847
 40
7.965759128053985
 40
8.020969279771242
 40
8.044121924046708
 40
8.069356610160774
 40
8.109134395441572
 40
8.132238100191284
 40
8.19314786778665
 40
8.279261678876825
 40
8.37797751267404
 40
8.476693347146826
 40
8.56280716041188
 40
8.623716930826669
 40
8.646820636853622
 40
8.671988793774435
 40
8.734909185828347
 40
8.81670569518906
 40
8.898502204815632
 40
8.961422597378093
 40
8.986590754551205
 40
9.012941600733361
 40
9.070913462380444
 40
9.12888532408194
 40
9.15523617032526
 40
9.180404327929303
 40
9.243324721948376
 40
9.325121234212169
 40
9.406917746637824
 40
9.469838141978279
 40
9.495006288271053
 40
9.517811184379195
 40
9.572192090487192
 40
9.637098333281418
 40
9.691479239515616
 40
9.714284125643653
 40
9.714284125643653
 40
9.714284125643653
 40
9.714284125643653
 10
185.2874469028653
 20
15.26889163187719
 10
185.3090990569037
 20
15.24111869242811
 10
185.3597257109474
 20
15.17618054561236
 10
185.4349383202592
 20
15.06891060312897
 10
185.5248482274346
 20
14.95377438266626
 10
185.5709169676674
 20
14.85357045748316
 10
185.6655825294655
 20
14.78434006814946
 10
185.6204439320414
 20
14.73771639678272
 10
185.5947047785792
 20
14.6966030886604
 10
185.5645196708012
 20
14.66065971727939
 10
185.5193684730563
 20
14.58579782596093
 10
185.4710504458562
 20
14.80782524253605
 10
185.3968539713072
 20
14.84510677337707
 10
185.2836047324607
 20
15.116102021306
 10
185.2885133578169
 20
15.00095328446229
 10
185.2868486556306
 20
14.92836675781627
 10
185.2876830076714
 20
14.80625588483986
 10
185.2873609540264
 20
14.6591380081046
 10
185.2875076912456
 20
14.49307063956557
 10
185.2872950092722
 20
14.32187554608602
 10
185.2879497252034
 20
14.15552828635498
 10
185.2859192461139
 20
14.00935173055693
 10
185.291346039993
 20
13.8847104747461
 10
185.2804930868708
 20
13.81718656540627
 10
185.2956739155555
 20
13.75549061417023
 10
185.2457895108134
 20
13.76727503897002
 10
185.2017150342523
 20
13.7594382277997
 10
185.1582371630201
 20
13.76760441372702
 10
185.1092346786489
 20
13.75538056738469
 10
185.1218731234825
 20
13.80960667249313
 10
185.113018296845
 20
13.86936918907558
 10
185.1175058770315
 20
13.97922029044371
 10
185.1157960135993
 20
14.11029975405679
 10
185.1163550915986
 20
14.26198011444328
 10
185.1161928768695
 20
14.42211074929953
 10
185.1162269924675
 20
14.58236865674566
 10
185.1162514960128
 20
14.73370247520439
 10
185.1161453543226
 20
14.86582156338601
 10
185.1164299141932
 20
14.97294802533193
 10
185.1158675547568
 20
15.03808619579473
 10
185.1180765083691
 20
15.16618957858676
 10
185.0319435998602
 20
14.79097610391574
 10
184.95551408185
 20
14.63918193123395
 10
184.8660040767833
 20
14.47766206446308
 10
184.7640413217328
 20
14.20471848820172
 10
184.7187976491039
 20
14.36717346596512
 10
184.610235594167
 20
14.45605432058116
 10
184.7995791751753
 20
14.60549794961409
 10
184.85653405457
 20
14.79749136974926
 10
184.9717520993353
 20
15.02899622906755
 10
184.9940151630132
 20
15.21797259759063
 10
185.1771905152142
 20
15.49454089325931
 10
185.0538033597552
 20
15.48698978832092
 10
184.9925684166834
 20
15.48856772366117
 10
184.9081999617064
 20
15.48882592573671
 10
184.8204235085966
 20
15.48544845751205
 10
184.7656768696123
 20
15.49394814982019
 10
184.7104703026024
 20
15.48048561049787
 10
184.7222823035536
 20
15.52931442126762
 10
184.7142496151794
 20
15.57269004896708
 10
184.7228186104678
 20
15.61509438309571
 10
184.7102943409157
 20
15.66267796552117
 10
184.7555101538735
 20
15.65267212995107
 10
184.8014815562723
 20
15.65894105174061
 10
184.877722204771
 20
15.65593561405871
 10
184.9561296131994
 20
15.6577044827854
 10
185.0323992648933
 20
15.65464793981659
 10
185.0783009459475
 20
15.66103971376176
 10
185.1231733965401
 20
15.65093822978895
 10
185.1105552275635
 20
15.70157201581897
 10
185.1191936582707
 20
15.75501261882069
 10
185.1152361595443
 20
15.84863255131679
 10
185.1162325068335
 20
15.95112606688923
 10
185.1171927413074
 20
16.05353270248163
 10
185.1133211458006
 20
16.14735929609321
 10
185.1217789814365
 20
16.20036542840353
 10
185.1093075932836
 20
16.25211435651188
 10
185.1542106389851
 20
16.23850747226757
 10
185.1955083836773
 20
16.24100480320585
 10
185.259534428105
 20
16.23648060574487
 10
185.2986111148787
 20
16.22781003043308
 10
185.3476543498742
 20
16.23515102070686
 10
185.322508003059
 20
16.19602896051756
 10
185.2815901333724
 20
16.2056384245581
 10
185.2910109616603
 20
16.15540148169778
 10
185.2855647318746
 20
16.1038594563949
 10
185.2881699601804
 20
16.0195970758452
 10
185.2870102202154
 20
15.92559135583408
 10
185.2883591064231
 20
15.83196865395525
 10
185.284997010151
 20
15.74679517552222
 10
185.2920959917768
 20
15.69716856072043
 10
185.2812569154546
 20
15.64993694969987
 10
185.3304010225245
 20
15.66201674936851
 10
185.3794877630147
 20
15.6544739336301
 10
185.4573714280641
 20
15.65686070361432
 10
185.5350365172896
 20
15.65899381905414
 10
185.5845393931355
 20
15.65193391922454
 10
185.6344594750639
 20
15.66360151936213
 10
185.6223198516881
 20
15.61540235371392
 10
185.6305838229143
 20
15.57249219801235
 10
185.6223198650783
 20
15.52958201851383
 10
185.6344594549855
 20
15.48138288754864
 10
185.5845395158746
 20
15.49305034471509
 10
185.5350350651203
 20
15.48599202435044
 10
185.4573784382972
 20
15.48811665228603
 10
185.379464386576
 20
15.49053389365759
 10
185.3304500352716
 20
15.48291848194484
 10
185.2813246108943
 20
15.49507952557591
 10
185.2915559988571
 20
15.45073013424158
 10
185.2856677678053
 20
15.4092543620291
 10
185.287878830557
 20
15.34915394315303
 10
185.2874109346145
 20
15.30225782762889
 10
185.2874386992913
 20
15.27650146418196
 10
185.2874469028653
 20
15.26889163187719
 97
        1
330
AA
 75
     1
 76
     2
 52
45.0
 41
0.1
 77
     0
 78
     1
 53
45.0
 43
0.0
 44
0.0
 45
-0.282842712474619
 46
0.0
 79
     0
 98
        1
 10
0.0
 20
0.0
  0
HATCH
  5
C8
330
48
100
AcDbEntity
  8
1
  6
Continuous
 62
     2
100
AcDbHatch
 10
0.0
 20
0.0
 30
0.0
210
0.0
220
0.0
230
1.0
  2
CUSTOM6
 70
     0
 71
     1
 91
        1
 92
        1
 93
        1
 72
     4
 94
        3
 73
     0
 74
     0
 95
       91
 96
       87
 40
0.0
 40
0.0
 40
0.0
 40
0.0
 40
0.0345987051695718
 40
0.1258134969461369
 40
0.2547723404888987
 40
0.4026032099154125
 40
0.5504340793416704
 40
0.679392922883608
 40
0.7706077146571035
 40
0.8052064287780925
 40
1.124852390615279
 40
1.427402236308874
 40
1.706356627453518
 40
1.955541417875193
 40
2.169485938566338
 40
2.344350786664792
 40
2.480568411561921
 40
2.590440557428916
 40
2.649189927151069
 40
2.749320643306292
 40
2.912632739879993
 40
3.147745656000191
 40
3.244827496385084
 40
3.338490056946674
 40
3.583815413207101
 40
3.761423943238455
 40
3.886956104362619
 40
3.985855451886757
 40
4.091766255337586
 40
4.250186473811806
 40
4.422734315084472
 40
4.628285684838583
 40
4.872093227758427
 40
5.152549652145536
 40
5.464967135837506
 40
5.803201477852418
 40
6.160362988813886
 40
6.193449448275969
 40
6.284170385501624
 40
6.419718138764465
 40
6.587285046385744
 40
6.77406344672363
 40
6.967245678113613
 40
7.154024078817627
 40
7.321590987025984
 40
7.457138740890342
 40
7.547859678556079
 40
7.580946138182639
 40
7.608533084714693
 40
7.669224367077672
 40
7.729915649429892
 40
7.757502595949945
 40
7.790278062553427
 40
7.880146277430897
 40
8.01441996318033
 40
8.180411842397831
 40
8.3654346376793
 40
8.556801071622573
 40
8.741823866830657
 40
8.907815745916224
 40
9.042089431507321
 40
9.131957646249447
 40
9.164733112797023
 40
9.415425063139947
 40
9.667986180958403
 40
9.694169807462542
 40
9.756607686047474
 40
9.83113031532228
 40
9.893568193899688
 40
9.919751820398504
 40
9.950967964690335
 40
9.996421631210447
 40
10.22087981037433
 40
10.44341866197521
 40
10.47847970788833
 40
10.57091337438734
 40
10.70159545461208
 40
10.85140174170339
 40
11.00120802880456
 40
11.13189010907362
 40
11.22432377582989
 40
11.25938480938936
 40
11.28697175596124
 40
11.34766303835898
 40
11.40835432042049
 40
11.43594125892084
 40
11.43594125892084
 40
11.43594125892084
 40
11.43594125892084
 10
190.0818114333289
 20
15.55242795125076
 10
190.0702785844941
 20
15.55242790287914
 10
190.0283409444998
 20
15.55242773704163
 10
189.9434129719026
 20
15.55243125800908
 10
189.8207688553128
 20
15.55240926435877
 10
189.6791206916993
 20
15.55250801177053
 10
189.537975369849
 20
15.55214686232419
 10
189.4141351317905
 20
15.55321883609088
 10
189.3317217825381
 20
15.55092249091267
 10
189.1727791229693
 20
15.5604856937342
 10
189.3503402353376
 20
15.1978539431137
 10
189.3379739205453
 20
14.95243127723113
 10
189.4064519473865
 20
14.66862501324835
 10
189.4693024320971
 20
14.43250999939035
 10
189.5452253431729
 20
14.2332674039613
 10
189.6303189577017
 20
14.07745347451374
 10
189.7244607592935
 20
13.97657857781392
 10
189.8282648207728
 20
13.92465852638965
 10
189.9125872030774
 20
13.97606484379618
 10
189.9351322179452
 20
14.09144544037515
 10
189.9745730975372
 20
14.21885149702381
 10
189.9202919734942
 20
14.53622328086756
 10
190.0451218072473
 20
14.38982180140905
 10
190.2019291513603
 20
14.35795300331171
 10
190.0947720007056
 20
14.12421357767628
 10
190.0808711209867
 20
13.95972776583656
 10
190.0234709467225
 20
13.83130869122484
 10
189.933502014501
 20
13.76018802352827
 10
189.8095274657878
 20
13.74432324142253
 10
189.6634273196861
 20
13.77993797554172
 10
189.5243894320284
 20
13.90000570500277
 10
189.4102003962144
 20
14.07435682550319
 10
189.3146141301486
 20
14.2994660311124
 10
189.2318652572627
 20
14.56388246006443
 10
189.1807179256411
 20
14.88187933098542
 10
189.0770189207339
 20
15.15543728488912
 10
189.2042841208523
 20
15.56005818612867
 10
189.0357890623019
 20
15.55112367849677
 10
188.9511995787078
 20
15.55315961418362
 10
188.8189876387628
 20
15.55213937388405
 10
188.6560505094104
 20
15.55253230318428
 10
188.4733759170534
 20
15.55235696313368
 10
188.2847057373383
 20
15.55260105307467
 10
188.101446902019
 20
15.55185657906235
 10
187.9404746832718
 20
15.55416360522425
 10
187.8029808335277
 20
15.54799804883661
 10
187.7289590372312
 20
15.5603283845821
 10
187.6613215186857
 20
15.54329323723555
 10
187.6732373719271
 20
15.59524438447527
 10
187.6655677285694
 20
15.64071424966528
 10
187.6732592225116
 20
15.68614453703704
 10
187.6613141797763
 20
15.7380239598457
 10
187.7283588305868
 20
15.72119143490263
 10
187.8017375665677
 20
15.7333540909267
 10
187.9379128305273
 20
15.72727231074957
 10
188.0973811801513
 20
15.72954834315057
 10
188.2789173085837
 20
15.72881233998961
 10
188.4658034862179
 20
15.72905954196132
 10
188.6468012316836
 20
15.72886400799253
 10
188.8080802578879
 20
15.72932234714838
 10
188.9393882124887
 20
15.72812673751205
 10
189.0225051322596
 20
15.73051347319741
 10
189.1556236547814
 20
15.72230605725463
 10
189.064589350266
 20
15.97752868952654
 10
188.9789633074419
 20
16.24164358328244
 10
189.0990589003456
 20
16.22904442969165
 10
189.1514264948544
 20
16.22694235763074
 10
189.2214497569715
 20
16.22535399889655
 10
189.2671922337818
 20
16.21602567538113
 10
189.3220812646933
 20
16.22545966915425
 10
189.2963574785681
 20
16.17733028655172
 10
189.1825397571452
 20
16.18266829744164
 10
189.3159346621136
 20
15.95449174576775
 10
189.1943658735472
 20
15.72156856595923
 10
189.3223188769412
 20
15.73087258884437
 10
189.4049048406461
 20
15.7280100175468
 10
189.5307214850824
 20
15.72923437412301
 10
189.6741469838057
 20
15.72932431888963
 10
189.8157420951728
 20
15.72746163183853
 10
189.9459127249967
 20
15.73333075937161
 10
190.0193452286191
 20
15.72070340823202
 10
190.0891112922096
 20
15.73877563110411
 10
190.0775772605396
 20
15.68612850546325
 10
190.0833184346682
 20
15.64221317686547
 10
190.0816615770911
 20
15.59089982676548
 10
190.0817757561669
 20
15.56158792021633
 10
190.0818114333289
 20
15.55242795125076
 97
        1
330
AB
 75
     1
 76
     2
 52
45.0
 41
0.1
 77
     0
 78
     1
 53
45.0
 43
0.0
 44
0.0
 45
-0.282842712474619
 46
0.0
 79
     0
 98
        1
 10
0.0
 20
0.0
  0
HATCH
  5
C9
330
48
100
AcDbEntity
  8
1
  6
Continuous
 62
     2
100
AcDbHatch
 10
0.0
 20
0.0
 30
0.0
210
0.0
220
0.0
230
1.0
  2
CUSTOM7
 70
     0
 71
     1
 91
        1
 92
        1
 93
        1
 72
     4
 94
        3
 73
     0
 74
     0
 95
       75
 96
       71
 40
0.0
 40
0.0
 40
0.0
 40
0.0
 40
0.0342546099129691
 40
0.1245622414432364
 40
0.2522385480897518
 40
0.398599192294068
 40
0.5449598364980839
 40
0.6726361431438834
 40
0.7629437746736942
 40
0.7971983935297973
 40
1.101723623449717
 40
1.408591244036666
 40
1.433332471690372
 40
1.487763172450168
 40
1.542193873081999
 40
1.566935100592549
 40
1.923523931821805
 40
2.271755704953632
 40
2.590579755100875
 40
2.85894330558116
 40
2.889120339309145
 40
2.918305855191091
 40
2.941366645531214
 40
2.996357760973106
 40
3.061992318140651
 40
3.116983433626837
 40
3.140044223997525
 40
3.411273122936417
 40
3.732441619741027
 40
3.761068217532725
 40
3.837787499630287
 40
3.948858699125926
 40
4.080541049104302
 40
4.219093782625685
 40
4.350776132722236
 40
4.461847332405571
 40
4.538566614678301
 40
4.56719321254455
 40
4.594907573998808
 40
4.666381453557347
 40
4.764111044010929
 40
4.870592538125732
 40
4.968322128642126
 40
5.03979600828684
 40
5.06751036978427
 40
5.094263603185483
 40
5.153120716668121
 40
5.211977830150569
 40
5.238731063551573
 40
5.272290535138841
 40
5.363380529444645
 40
5.497618415781351
 40
5.660621563453565
 40
5.838007341749265
 40
6.015393119910645
 40
6.178396267038242
 40
6.312634151842222
 40
6.403724143059212
 40
6.437283612672307
 40
6.464036846260924
 40
6.522893960004541
 40
6.581751071483807
 40
6.608504301590753
 40
6.637253941280901
 40
6.711397748902781
 40
6.812778057283393
 40
6.923237199249169
 40
7.024617507623813
 40
7.098761315207523
 40
7.127510946007473
 40
7.127510946007473
 40
7.127510946007473
 40
7.127510946007473
 10
188.4418622390564
 20
14.95849128473264
 10
188.4418622819707
 20
14.9470731340872
 10
188.4418624481128
 20
14.90555257842628
 10
188.4418593081787
 20
14.82146922003771
 10
188.44187882798
 20
14.70004497322328
 10
188.4417912187737
 20
14.55980494047448
 10
188.442111623523
 20
14.42006556794576
 10
188.4411605909741
 20
14.29745038894929
 10
188.4431978595967
 20
14.21587074438043
 10
188.4349433178745
 20
14.06271267077695
 10
188.7430797940901
 20
14.22560236054718
 10
189.0350645173736
 20
14.39482938688001
 10
189.0408354448708
 20
14.25973235781911
 10
189.045547171989
 20
14.21617221160444
 10
189.0482535411918
 20
14.17211249350545
 10
189.0672545672958
 20
14.02272590363134
 10
188.6583942247302
 20
14.0868117224126
 10
188.3793710348832
 20
13.97296341411019
 10
188.1018081587167
 20
13.87364095811135
 10
187.80998371844
 20
13.91630687596369
 10
187.7869144678658
 20
13.81321679744538
 10
187.7537474383334
 20
13.7869109124447
 10
187.7480653962739
 20
13.83455309036304
 10
187.7284214559045
 20
13.8718033611507
 10
187.7095089485624
 20
13.93007387847563
 10
187.6942849867708
 20
13.97385201007806
 10
187.6477246372935
 20
14.08759421046305
 10
187.9890897312451
 20
14.0557630112005
 10
188.2679649367386
 20
14.02161435106481
 10
188.2617753034907
 20
14.16913976479652
 10
188.2630935452773
 20
14.24013150908832
 10
188.2624831689948
 20
14.34719767958661
 10
188.2625871570725
 20
14.47398529785998
 10
188.2629987964055
 20
14.6084924349605
 10
188.2613907841968
 20
14.73395549951184
 10
188.2659902567925
 20
14.84505246719117
 10
188.256418650221
 20
14.90761886800689
 10
188.2704001783691
 20
14.96595388295001
 10
188.2147384386704
 20
14.95289710582238
 10
188.1575655197822
 20
14.96136307749499
 10
188.0616048925647
 20
14.95729976080636
 10
187.9633767522822
 20
14.95970889852474
 10
187.8672582457561
 20
14.95551600613389
 10
187.8104648525812
 20
14.96429346441162
 10
187.7550356873385
 20
14.95094936850122
 10
187.7670679427918
 20
15.00036910959257
 10
187.7592003173938
 20
15.04393988030396
 10
187.766629556383
 20
15.08830469118525
 10
187.7551930564144
 20
15.13902297763992
 10
187.8232102370134
 20
15.12162460757743
 10
187.8968496879747
 20
15.13417450237189
 10
188.0325064058211
 20
15.12799677011096
 10
188.1884909024526
 20
15.13029203093085
 10
188.3615926358144
 20
15.1294096826253
 10
188.5346942964182
 20
15.13029207142408
 10
188.6906789811218
 20
15.1279966295555
 10
188.8263351889798
 20
15.13417486262431
 10
188.8999756705653
 20
15.12162394218335
 10
188.9679914174724
 20
15.13902373012142
 10
188.9565590885923
 20
15.08830130414555
 10
188.9639539458298
 20
15.04397060811108
 10
188.9562039912271
 20
15.00028307550196
 10
188.9681203741878
 20
14.95063590098477
 10
188.9108170223617
 20
14.96461411338426
 10
188.8520145789773
 20
14.95539755673253
 10
188.75252936332
 20
14.95952268164929
 10
188.649428009835
 20
14.95822760025887
 10
188.5537846354574
 20
14.95854077077641
 10
188.4857467971617
 20
14.95848776697145
 10
188.4514462213443
 20
14.95849051871656
 10
188.4418622390564
 20
14.95849128473264
 97
        1
330
AC
 75
     1
 76
     2
 52
45.0
 41
0.1
 77
     0
 78
     1
 53
45.0
 43
0.0
 44
0.0
 45
-0.282842712474619
 46
0.0
 79
     0
 98
        1
 10
0.0
 20
0.0
  0
HATCH
  5
CA
330
48
100
AcDbEntity
  8
1
  6
Continuous
 62
     2
100
AcDbHatch
 10
0.0
 20
0.0
 30
0.0
210
0.0
220
0.0
230
1.0
  2
CUSTOM8
 70
     0
 71
     1
 91
        1
 92
        1
 93
        1
 72
     4
 94
        3
 73
     0
 74
     0
 95
       15
 96
       11
 40
0.0
 40
0.0
 40
0.0
 40
0.0
 40
0.2785535985096075
 40
0.5215624748198766
 40
0.6076917376040816
 40
0.6938210001741757
 40
0.9405019146455532
 40
1.221691403489187
 40
1.300471877081125
 40
1.379252341684931
 40
1.379252341684931
 40
1.379252341684931
 40
1.379252341684931
 10
189.5681493631
 20
16.2293026733038
 10
189.6296017794178
 20
16.17691646592714
 10
189.7446649974113
 20
16.07882876798219
 10
190.0397348497245
 20
15.9288978589722
 10
189.9025147631857
 20
15.84343227515015
 10
189.8041227843778
 20
15.71085785201555
 10
189.7130033590649
 20
16.01616985781418
 10
189.3636839480655
 20
16.07967869465376
 10
189.511925837657
 20
16.17896509880878
 10
189.5494081874238
 20
16.21252348402382
 10
189.5681493631
 20
16.2293026733038
 97
        1
330
AD
 75
     1
 76
     2
 52
45.0
 41
0.1
 77
     0
 78
     1
 53
45.0
 43
0.0
 44
0.0
 45
-0.282842712474619
 46
0.0
 79
     0
 98
        1
 10
0.0
 20
0.0
  0
HATCH
  5
CB
330
48
100
AcDbEntity
  8
1
  6
Continuous
 62
     2
100
AcDbHatch
 10
0.0
 20
0.0
 30
0.0
210
0.0
220
0.0
230
1.0
  2
CUSTOM9
 70
     0
 71
     1
 91
        1
 92
        1
 93
        1
 72
     4
 94
        3
 73
     0
 74
     0
 95
       35
 96
       31
 40
0.0
 40
0.0
 40
0.0
 40
0.0
 40
0.0335231036620562
 40
0.0713218571711968
 40
0.427886668148716
 40
0.8116865841963978
 40
1.198190238000058
 40
1.56137954681269
 40
1.659983174622014
 40
1.759315573807179
 40
2.132719617231038
 40
2.525233363588768
 40
2.910815397779678
 40
3.265244364303261
 40
3.592606723581944
 40
3.964386154603892
 40
4.359942131737736
 40
4.758154118639294
 40
4.843846538699904
 40
4.936650065543172
 40
5.256616602537227
 40
5.581707404415916
 40
5.899719158308056
 40
6.198363494280659
 40
6.466301046615724
 40
6.493895311537046
 40
6.559697020196782
 40
6.638234543442358
 40
6.704036252154082
 40
6.731630508422859
 40
6.731630508422859
 40
6.731630508422859
 40
6.731630508422859
 10
191.9736010568669
 20
16.23463843719133
 10
191.9676006097788
 20
16.22480690542322
 10
191.9548344099157
 20
16.20388988579798
 10
191.7949362006554
 20
16.17127126532688
 10
192.2322025842336
 20
15.88206680336704
 10
192.4345394828262
 20
15.68041138358438
 10
192.6819564267973
 20
15.43749387603274
 10
193.1831513624606
 20
15.36047662757781
 10
193.012556219897
 20
15.21876939174652
 10
192.93832994632
 20
15.01710366209113
 10
192.6131432248188
 20
15.36956287174723
 10
192.3277741670664
 20
15.53175212559565
 10
192.0337604077658
 20
15.73687130053045
 10
191.8084452691134
 20
16.21827488595454
 10
191.5993085055522
 20
15.7534304660922
 10
191.3207873674835
 20
15.54350952252911
 10
191.0371383177209
 20
15.37424456359983
 10
190.7078639527832
 20
15.00142360907937
 10
190.6277012318224
 20
15.19708014458998
 10
190.4759724909746
 20
15.32491104190602
 10
190.9083395826795
 20
15.40454031765931
 10
191.0962565329765
 20
15.60026634915477
 10
191.3468477420503
 20
15.81632996916753
 10
191.5714350470161
 20
15.9819099230006
 10
191.6259775409713
 20
16.26133964636828
 10
191.7494661029012
 20
16.24737950408079
 10
191.8060273344521
 20
16.24521268867647
 10
191.8761870984945
 20
16.24046859881359
 10
191.9333414022105
 20
16.23709429350541
 10
191.9644190320839
 20
16.23519854711117
 10
191.9736010568669
 20
16.23463843719133
 97
        1
330
AE
 75
     1
 76
     2
 52
45.0
 41
0.1
 77
     0
 78
     1
 53
45.0
 43
0.0
 44
0.0
 45
-0.282842712474619
 46
0.0
 79
     0
 98
        1
 10
0.0
 20
0.0
  0
HATCH
  5
CC
330
48
100
AcDbEntity
  8
1
  6
Continuous
 62
     2
100
AcDbHatch
 10
0.0
 20
0.0
 30
0.0
210
0.0
220
0.0
230
1.0
  2
CUSTOM10
 70
     0
 71
     1
 91
        1
 92
        1
 93
        1
 72
     4
 94
        3
 73
     0
 74
     0
 95
       91
 96
       87
 40
0.0
 40
0.0
 40
0.0
 40
0.0
 40
0.0267532254356701
 40
0.0856103386464102
 40
0.1444674521996621
 40
0.1712206856618514
 40
0.2039416005642536
 40
0.2955601971652484
 40
0.4362601844617202
 40
0.6162252844507534
 40
0.8256392189704982
 40
1.054685709844468
 40
1.293548478893588
 40
1.532411247938332
 40
1.761457738799596
 40
1.970871673298593
 40
2.150836773256818
 40
2.291536760495679
 40
2.383155356836757
 40
2.415876284101405
 40
2.44262951748805
 40
2.50148663094918
 40
2.560343744424327
 40
2.5870969778266
 40
2.617068194441027
 40
2.699247336756197
 40
2.822032643466481
 40
2.973822353258039
 40
3.143014704823481
 40
3.31800793688006
 40
3.487200288186894
 40
3.638989997548431
 40
3.76177530379493
 40
3.843954445753265
 40
3.87392566222996
 40
3.890812773500668
 40
3.907699884771846
 40
3.937960767857452
 40
3.980983618142401
 40
4.199085915228559
 40
4.439444339237363
 40
4.67758824126102
 40
5.050698317837934
 40
5.448212454763377
 40
5.855291218044902
 40
6.138575438885612
 40
6.417434507584473
 40
6.444551104394154
 40
6.504207617363479
 40
6.563864130314875
 40
6.590980727104467
 40
6.848609460381825
 40
7.109611990668763
 40
7.352910904446426
 40
7.557830220705814
 40
7.587518925913708
 40
7.652834077376126
 40
7.718149228846087
 40
7.747837934062367
 40
7.854880190301355
 40
7.976511257403881
 40
8.36948789659271
 40
8.75751495922406
 40
9.126072419331523
 40
9.460639380392585
 40
9.746695593036327
 40
9.777569943119104
 40
9.807050320932204
 40
9.830377336129336
 40
9.88600329543641
 40
9.952395569430323
 40
10.00802152870667
 40
10.0313485438826
 40
10.21356951009633
 40
10.42203479292913
 40
10.66154556731108
 40
10.91693789564351
 40
11.15832906556612
 40
11.18982674596669
 40
11.27286608520454
 40
11.39026653033401
 40
11.52484752840938
 40
11.65942852648497
 40
11.77682897161538
 40
11.85986831085737
 40
11.89136598230483
 40
11.89136598230483
 40
11.89136598230483
 40
11.89136598230483
 10
190.7027885008196
 20
14.70699600701772
 10
190.7028237765288
 20
14.71587847311985
 10
190.7029366710796
 20
14.74430237047346
 10
190.7012984568489
 20
14.79409639169803
 10
190.7069750292911
 20
14.83657564478154
 10
190.6956928731706
 20
14.88730154856847
 10
190.7632296979031
 20
14.87012900740109
 10
190.8388029210701
 20
14.88290227165996
 10
190.9828357056001
 20
14.87629729457382
 10
191.1569419185427
 20
14.87888462206466
 10
191.3639599611003
 20
14.87800591955553
 10
191.5894688172378
 20
14.87828207920027
 10
191.8251162293406
 20
14.87818339658662
 10
192.0607640531349
 20
14.87828184412767
 10
192.2862717580626
 20
14.87800678190789
 10
192.4932934632805
 20
14.87888186270734
 10
192.667388891529
 20
14.87630522678446
 10
192.8114492071986
 20
14.88288290449213
 10
192.8869691915294
 20
14.87016243405604
 10
192.954577603703
 20
14.88726400191687
 10
192.9430840140677
 20
14.83674785802941
 10
192.9505104581733
 20
14.79253252226501
 10
192.9428838927986
 20
14.7486796650361
 10
192.9546489459426
 20
14.69878374479327
 10
192.8930788491983
 20
14.71393227712512
 10
192.8256791738672
 20
14.70310665350673
 10
192.7013004056222
 20
14.70852031626237
 10
192.5554428236572
 20
14.70649205390785
 10
192.3893576440086
 20
14.70715777578387
 10
192.2188412621725
 20
14.70689643521242
 10
192.0519790855389
 20
14.70721553391094
 10
191.9087346827105
 20
14.70635302590762
 10
191.7773313869834
 20
14.70863300482988
 10
191.7239859134656
 20
14.70407704374202
 10
191.6485188456912
 20
14.70999914992877
 10
191.6769075779232
 20
14.70094169343353
 10
191.7033652409542
 20
14.6972591226893
 10
191.6633522907701
 20
14.66654271968277
 10
191.5713663691869
 20
14.67667591174628
 10
191.543939620707
 20
14.43032502247786
 10
191.4478793967234
 20
14.27499558764375
 10
191.1917277964473
 20
13.94525417931569
 10
191.7627537732763
 20
14.08430022210452
 10
192.0173656320517
 20
14.08291779973363
 10
192.6279647048618
 20
13.99790569242087
 10
192.3340698578084
 20
14.29685417558203
 10
192.0133304286516
 20
14.44330856901779
 10
192.1313543360434
 20
14.50025540818287
 10
192.1724716466261
 20
14.52420099873349
 10
192.2156812394412
 20
14.54599758811228
 10
192.3174574094452
 20
14.60928721253902
 10
192.4328867625248
 20
14.35147151408779
 10
192.6329591642277
 20
14.21616041113683
 10
192.7269077387229
 20
14.03792795138879
 10
192.9558829746393
 20
13.87997821027054
 10
192.8596031846709
 20
13.82915972576298
 10
192.816795976378
 20
13.79881292523053
 10
192.7718243528781
 20
13.77466130281461
 10
192.7121720925214
 20
13.72552146747566
 10
192.6789731061325
 20
13.85997475673607
 10
192.5582013350797
 20
14.01594265286584
 10
192.1970976005979
 20
13.88569928059555
 10
191.8385061955541
 20
13.90224694409483
 10
191.457092045008
 20
13.89331229351864
 10
191.1703455282891
 20
13.82882671672408
 10
190.8592055599715
 20
13.94230668192826
 10
190.8268737818788
 20
13.83122259927768
 10
190.7896178253318
 20
13.81196313850012
 10
190.7865737632754
 20
13.85874784087297
 10
190.7679892860607
 20
13.89806853919134
 10
190.7512436616778
 20
13.95765983478232
 10
190.7383730915753
 20
14.00201969871283
 10
190.7042327806428
 20
14.091063311202
 10
190.9482714457754
 20
14.0218104294377
 10
191.1441394486671
 20
14.00030369057744
 10
191.2395426381277
 20
14.28226484478462
 10
191.2945135769598
 20
14.44363045421123
 10
191.5159619357157
 20
14.71391177589737
 10
191.3849239381217
 20
14.70548446853735
 10
191.3110026555854
 20
14.70779008496969
 10
191.1977459876244
 20
14.70671378321659
 10
191.0694251807485
 20
14.70707639076509
 10
190.9404252030415
 20
14.70697724466086
 10
190.8287840946292
 20
14.70699932712572
 10
190.7514663970025
 20
14.7069957918967
 10
190.713287653201
 20
14.70699595845081
 10
190.7027885008196
 20
14.70699600701772
 97
        1
330
AF
 75
     1
 76
     2
 52
45.0
 41
0.1
 77
     0
 78
     1
 53
45.0
 43
0.0
 44
0.0
 45
-0.282842712474619
 46
0.0
 79
     0
 98
        1
 10
0.0
 20
0.0
  0
HATCH
  5
CD
330
48
100
AcDbEntity
  8
1
  6
Continuous
 62
     2
100
AcDbHatch
 10
0.0
 20
0.0
 30
0.0
210
0.0
220
0.0
230
1.0
  2
CUSTOM11
 70
     0
 71
     1
 91
        1
 92
        1
 93
        1
 72
     4
 94
        3
 73
     0
 74
     0
 95
      131
 96
      127
 40
0.0
 40
0.0
 40
0.0
 40
0.0
 40
0.0195577029826156
 40
0.0426490537460427
 40
0.2863607575855756
 40
0.5344948436188645
 40
0.7842238845572922
 40
0.8737315789467087
 40
0.9803832810312795
 40
1.092842274517027
 40
1.199761146656784
 40
1.289788768186489
 40
1.351573580786158
 40
1.370727117561387
 40
1.41640093601778
 40
1.470914848355891
 40
1.516588666791664
 40
1.535742203552745
 40
1.634216592293136
 40
1.760283341174994
 40
1.897966686682078
 40
2.031216387368902
 40
2.049689751137896
 40
2.101115601646832
 40
2.179502577739949
 40
2.278859318314064
 40
2.393194462258721
 40
2.516516648383835
 40
2.642834515405964
 40
2.766156701983466
 40
2.88049184675458
 40
2.979848588358623
 40
3.0582355654438
 40
3.109661416668954
 40
3.12813478070413
 40
3.146783742386447
 40
3.191254343315279
 40
3.244332157315881
 40
3.288802758225756
 40
3.307451719895028
 40
3.327717853844641
 40
3.38374775358
 40
3.46838866592439
 40
3.574487837698699
 40
3.694892515728803
 40
3.822449946851942
 40
3.950007377920331
 40
4.070412055800423
 40
4.176511227367978
 40
4.261152139501425
 40
4.317182039076618
 40
4.337448172964537
 40
4.620011002696129
 40
4.885096638397493
 40
4.945373043518279
 40
5.014107710488606
 40
5.070481727652035
 40
5.319246955636559
 40
5.584812164506073
 40
5.859000912056963
 40
6.133746937542094
 40
6.401732212968883
 40
6.420736683995473
 40
6.472845717451124
 40
6.550702743894051
 40
6.64695119387426
 40
6.754234497930584
 40
6.865196086587362
 40
6.972479390357821
 40
7.068727839771983
 40
7.146584865450992
 40
7.198693898189221
 40
7.217698368905362
 40
7.23495040163084
 40
7.276089864269885
 40
7.325191803515994
 40
7.366331266090381
 40
7.383583298769732
 40
7.402779163492138
 40
7.453386443254541
 40
7.524934666445571
 40
7.60695336140591
 40
7.68897205642909
 40
7.760520279784341
 40
7.811127559734611
 40
7.830323424546233
 40
7.847844055299863
 40
7.894799345666902
 40
7.962779392744588
 40
8.043374293560635
 40
8.128174145149538
 40
8.20876904481734
 40
8.27674909037704
 40
8.323704379669602
 40
8.341225010056332
 40
8.35849761480048
 40
8.401679126686657
 40
8.457815092185715
 40
8.51395105772812
 40
8.557132569708019
 40
8.574405174505062
 40
8.602340668616401
 40
8.643455660539969
 40
8.663225271966636
 40
8.715345156564284
 40
8.78903188962862
 40
8.873502045520349
 40
8.957972194323972
 40
9.031658925567863
 40
9.083778811234554
 40
9.103548423003016
 40
9.119550083123581
 40
9.160817522379855
 40
9.217244429110249
 40
9.278724491644763
 40
9.335151398295547
 40
9.376418837357871
 40
9.392420497300659
 40
9.401196302734851
 40
9.417494229384273
 40
9.426270027749545
 40
9.440875075477578
 40
9.475702496998759
 40
9.517270709865922
 40
9.552098131994091
 40
9.566703169884299
 40
9.566703169884299
 40
9.566703169884299
 40
9.566703169884299
 10
194.6170254148479
 20
15.67015871511027
 10
194.6134345093371
 20
15.66453690702159
 10
194.6056039123624
 20
15.65227754419115
 10
194.5129968974553
 20
15.61601916040954
 10
194.4887622233245
 20
15.40148444212721
 10
194.3858709845939
 20
15.22197284509704
 10
194.1220492364305
 20
15.03615573798146
 10
194.284547156918
 20
14.95959336566079
 10
194.3607225760839
 20
14.89856693195443
 10
194.4492171072759
 20
14.83515804544759
 10
194.538993023311
 20
14.7752563421956
 10
194.5883817636047
 20
14.72102154849209
 10
194.6745708157381
 20
14.69286240541833
 10
194.6411260674229
 20
14.65713309652812
 10
194.6214671166311
 20
14.62550387991907
 10
194.5919888217883
 20
14.58475872796069
 10
194.5688989446032
 20
14.55504663489643
 10
194.5380205968358
 20
14.50211422668493
 10
194.472919336574
 20
14.627403349389
 10
194.3796000122415
 20
14.68213900233934
 10
194.2950636285139
 20
14.73916423939342
 10
194.1722498125741
 20
14.89675287427522
 10
194.1764450847301
 20
14.82035806766837
 10
194.1751478652677
 20
14.77361280161296
 10
194.1758126448076
 20
14.695847858126
 10
194.1755549986957
 20
14.59902068324423
 10
194.1756431239921
 20
14.48650279078809
 10
194.1756077302282
 20
14.365240859457
 10
194.1756511758278
 20
14.24086897858961
 10
194.1755199942406
 20
14.11967683631337
 10
194.1759477562046
 20
14.00691148919743
 10
194.174667820231
 20
13.91082913768744
 10
194.1779759851044
 20
13.831138264687
 10
194.1715197740086
 20
13.78815175788784
 10
194.1806208705556
 20
13.74955432372043
 10
194.1447910339935
 20
13.7581088772407
 10
194.1115223815253
 20
13.75342519985447
 10
194.0604562576041
 20
13.75351298759784
 10
194.0269723972813
 20
13.75794430283821
 10
193.9907585408754
 20
13.74960793842508
 10
194.0009782568666
 20
13.79145277179284
 10
193.9936487887773
 20
13.83778560820173
 10
193.9973633136103
 20
13.92374831106014
 10
193.9959480554897
 20
14.02605142704849
 10
193.9964105554639
 20
14.14453223931512
 10
193.9962773686231
 20
14.26957683153356
 10
193.9963015910045
 20
14.3947582810705
 10
193.9963354925552
 20
14.51286645379058
 10
193.9962060293133
 20
14.61628748709516
 10
193.9965507549082
 20
14.69932036153667
 10
193.9958698278691
 20
14.75143368521243
 10
193.9994586600623
 20
14.8791290782136
 10
193.7826171386437
 20
14.58048716819614
 10
193.602135492195
 20
14.35263981511506
 10
193.5490322295612
 20
14.49373443289816
 10
193.5200429133149
 20
14.54325767560944
 10
193.4196648062819
 20
14.64641779790102
 10
193.7405127723261
 20
14.72695035023781
 10
193.868989700543
 20
14.91066283036434
 10
194.090645432536
 20
15.11931995771758
 10
194.1770224894069
 20
15.29339211228347
 10
194.4549394229074
 20
15.56967051342512
 10
194.3346247839284
 20
15.56534559551114
 10
194.2863197351348
 20
15.56614856202552
 10
194.2102377454905
 20
15.56574582146584
 10
194.116701000975
 20
15.56590275611609
 10
194.0117594788557
 20
15.56582502576224
 10
193.9033887738717
 20
15.56595464378554
 10
193.7981454235897
 20
15.56554393490692
 10
193.7056237819412
 20
15.56682073671591
 10
193.6268130800708
 20
15.5634076653485
 10
193.5839674565379
 20
15.5702335003632
 10
193.5449499586516
 20
15.56065064201123
 10
193.5526365271863
 20
15.59420779565543
 10
193.5485464404312
 20
15.62523550322233
 10
193.5485531368814
 20
15.672365292709
 10
193.5526239724911
 20
15.70340941646778
 10
193.5449495574583
 20
15.73701861635903
 10
193.5834819405495
 20
15.72748410420872
 10
193.6241228014479
 20
15.73397435498071
 10
193.6951471850463
 20
15.73100150650254
 10
193.7729318149634
 20
15.73174761399158
 10
193.8507292246474
 20
15.73247814044525
 10
193.9217232089908
 20
15.7295423551416
 10
193.9624279791822
 20
15.73595468772952
 10
194.000985348991
 20
15.72650524176004
 10
193.9927342754929
 20
15.76264692158784
 10
193.9982346669358
 20
15.80129837613226
 10
193.9955754206165
 20
15.86913528561839
 10
193.9965815471533
 20
15.94591641538739
 10
193.996017801832
 20
16.02849393582756
 10
193.9970714526593
 20
16.10517329229877
 10
193.994267586313
 20
16.17331990776699
 10
194.0000702721305
 20
16.21132399809345
 10
193.9915654551159
 20
16.24758448077645
 10
194.0255610233125
 20
16.23755723771851
 10
194.0594575683099
 20
16.24073266813705
 10
194.1126669060347
 20
16.23508965640608
 10
194.1660768574483
 20
16.23434774436425
 10
194.199591464949
 20
16.22819223482978
 10
194.2388086183039
 20
16.23346029773592
 10
194.2120263698492
 20
16.19253380793487
 10
194.1708111001723
 20
16.20371204538112
 10
194.1782641540874
 20
16.15867056192124
 10
194.1742227952184
 20
16.11412278028144
 10
194.176171404964
 20
16.04223572621703
 10
194.1752364849758
 20
15.96168630588771
 10
194.176510719003
 20
15.88173995404994
 10
194.1732043793864
 20
15.80841837083183
 10
194.1802106179961
 20
15.76688643002568
 10
194.1701440380126
 20
15.72752418568112
 10
194.2029814803921
 20
15.73468063430981
 10
194.2364577296481
 20
15.73027243137944
 10
194.2915053476019
 20
15.73217943347897
 10
194.3489502595315
 20
15.73185366407288
 10
194.4023026248311
 20
15.73106308733082
 10
194.4398540896638
 20
15.73313959118073
 10
194.4623172523238
 20
15.73022338167109
 10
194.4751678073731
 20
15.73572552644055
 10
194.4858255685888
 20
15.73801118197791
 10
194.4986635650144
 20
15.74494972588053
 10
194.514599103307
 20
15.72853046313672
 10
194.5410623920892
 20
15.71709122319448
 10
194.5726805253757
 20
15.6964468783519
 10
194.5987255892151
 20
15.68116869628294
 10
194.6128517723973
 20
15.67266976323183
 10
194.6170254148479
 20
15.67015871511027
 97
        1
330
B0
 75
     1
 76
     2
 52
45.0
 41
0.1
 77
     0
 78
     1
 53
45.0
 43
0.0
 44
0.0
 45
-0.282842712474619
 46
0.0
 79
     0
 98
        1
 10
0.0
 20
0.0
  0
HATCH
  5
CE
330
48
100
AcDbEntity
  8
1
  6
Continuous
 62
     2
100
AcDbHatch
 10
0.0
 20
0.0
 30
0.0
210
0.0
220
0.0
230
1.0
  2
CUSTOM12
 70
     0
 71
     1
 91
        1
 92
        1
 93
        1
 72
     4
 94
        3
 73
     0
 74
     0
 95
      124
 96
      120
 40
0.0
 40
0.0
 40
0.0
 40
0.0
 40
0.0278187229624226
 40
0.1011590162383985
 40
0.2048470170590239
 40
0.3237088716558961
 40
0.4425707262522
 40
0.5462587270699263
 40
0.6195990203312082
 40
0.647417752257866
 40
0.6750060736115224
 40
0.7357003855242759
 40
0.7963946998054492
 40
0.8239830245571784
 40
0.8540933811103162
 40
0.9373396629409274
 40
1.063094687343265
 40
1.220731268638103
 40
1.399622220914778
 40
1.589140358637762
 40
1.778658496423928
 40
1.957549448940596
 40
2.115186030873246
 40
2.240941056914521
 40
2.324187341760619
 40
2.354297700109469
 40
2.381886024671975
 40
2.442580338710564
 40
2.503274652750588
 40
2.530862977314695
 40
2.560983949278648
 40
2.640393784453022
 40
2.752662861759245
 40
2.881361560118234
 40
3.010060258455337
 40
3.122329335705513
 40
3.201739170818098
 40
3.231860142753487
 40
3.264298024030542
 40
3.352343701778415
 40
3.482095226868938
 40
3.639650650173196
 40
3.811108022565652
 40
3.982565394928158
 40
4.140120818152739
 40
4.26987234314145
 40
4.357918020802511
 40
4.390355902044139
 40
4.423256253992709
 40
4.508104530073259
 40
4.624121560637026
 40
4.750528176031783
 40
4.866545206602258
 40
4.951393482692244
 40
4.984293834645645
 40
5.01145083324256
 40
5.071196230152345
 40
5.130941627057424
 40
5.158098625649088
 40
5.190998977601779
 40
5.275847253689604
 40
5.391864284257095
 40
5.51827089964864
 40
5.63428793020968
 40
5.719136206288353
 40
5.752036558236269
 40
5.782130946283295
 40
5.86278390622947
 40
5.979550131775336
 40
6.117984316640743
 40
6.263641154588288
 40
6.402075339414494
 40
6.518841564908288
 40
6.59949452481587
 40
6.629588912849107
 40
6.654403028226684
 40
6.713575149488451
 40
6.784199939329796
 40
6.843372060493898
 40
6.868186175803116
 40
6.896246243202217
 40
6.939586233758587
 40
6.967846564565215
 40
7.04358425109015
 40
7.153234334452008
 40
7.283231855734761
 40
7.420011856035791
 40
7.55000937658014
 40
7.659659458835539
 40
7.735397144417532
 40
7.763657474851704
 40
7.796409728011361
 40
7.880876065096635
 40
7.996370852466021
 40
8.122208446418917
 40
8.23770322479951
 40
8.322169562011233
 40
8.354921815206218
 40
8.382078813307999
 40
8.441824209207304
 40
8.501569605240455
 40
8.528726603486033
 40
8.561478856696054
 40
8.645945193878104
 40
8.761439980865644
 40
8.887277580764787
 40
9.002772362001307
 40
9.0872386966615
 40
9.119990949235982
 40
9.152428830613681
 40
9.240474508638897
 40
9.370226034149846
 40
9.527781457984728
 40
9.699238830981718
 40
9.870696203978907
 40
10.02825162781433
 40
10.15800315332595
 40
10.2460488313515
 40
10.27848670378552
 40
10.27848670378552
 40
10.27848670378552
 40
10.27848670378552
 10
195.3821827564384
 20
14.01410517385757
 10
195.3914554737524
 20
14.01410498511274
 10
195.4251744536861
 20
14.01410430876714
 10
195.4934706812466
 20
14.01411807243305
 10
195.592014171158
 20
14.01403224219544
 10
195.7062066464812
 20
14.0144175561225
 10
195.8185894417072
 20
14.01300835897545
 10
195.9214376600118
 20
14.01719117422243
 10
195.980683987485
 20
14.00823089251983
 10
196.0371265937034
 20
14.0216443452606
 10
196.0246255586956
 20
13.97087198613361
 10
196.0329549635704
 20
13.92589320939067
 10
196.0248170841121
 20
13.88056752990488
 10
196.0370529214458
 20
13.82931932408465
 10
195.9747773490334
 20
13.84447955365276
 10
195.9060513026869
 20
13.83359750710742
 10
195.7782756749592
 20
13.83911304747972
 10
195.6262984511643
 20
13.83700851253698
 10
195.4502695972523
 20
13.83771002588473
 10
195.2644431934287
 20
13.83745237531291
 10
195.0786167437175
 20
13.83771005144603
 10
194.9025880142169
 20
13.83700841847731
 10
194.7506104154194
 20
13.83911332229988
 10
194.6228357664554
 20
13.8335968076764
 10
194.554107783658
 20
13.84448077125942
 10
194.4918349042883
 20
13.82931786684209
 10
194.5040616290017
 20
13.88057510805171
 10
194.4960004462597
 20
13.92582473272425
 10
194.5040675809892
 20
13.97106357955323
 10
194.4918238487083
 20
14.02234176909958
 10
194.5525017120698
 20
14.00749577363135
 10
194.6162810745737
 20
14.01756448170735
 10
194.7277314353503
 20
14.01294644212
 10
194.8497533443823
 20
14.01413328905468
 10
194.9719538137824
 20
14.01515863900635
 10
195.0829794287393
 20
14.01092475623402
 10
195.1476517413958
 20
14.02018584521739
 10
195.2091162810503
 20
14.00604423049682
 10
195.1930065601337
 20
14.07235527884516
 10
195.204298032736
 20
14.14447790121976
 10
195.1987400822561
 20
14.27513760888286
 10
195.2008035061691
 20
14.42607323708241
 10
195.2000167127295
 20
14.59335873107886
 10
195.2007845215628
 20
14.76061110332302
 10
195.198803878563
 20
14.91163289269914
 10
195.2041306156621
 20
15.04206069552994
 10
195.1933101388426
 20
15.11465442605899
 10
195.2090326429876
 20
15.18150469436798
 10
195.1432708132491
 20
15.16580512490824
 10
195.0756367830764
 20
15.17609243083996
 10
194.961588529381
 20
15.17113786847121
 10
194.8451242674903
 20
15.17414128030475
 10
194.7306554121477
 20
15.16880303143389
 10
194.6640324657812
 20
15.18001268074824
 10
194.5990769715186
 20
15.16349132665011
 10
194.6107989758707
 20
15.21473720477058
 10
194.6032830189122
 20
15.25950333784091
 10
194.6107989878834
 20
15.30426944897961
 10
194.5990769505347
 20
15.35551536129741
 10
194.6640326339199
 20
15.33899381766815
 10
194.7306533339822
 20
15.35020571373943
 10
194.8451352858064
 20
15.34485436710665
 10
194.9615454436963
 20
15.34791188771117
 10
195.0757660174641
 20
15.34278499010708
 10
195.1430150439228
 20
15.35345733355599
 10
195.2083325941439
 20
15.33742082669076
 10
195.1941391448553
 20
15.39949685750053
 10
195.2036059462996
 20
15.46586761628763
 10
195.1990269004085
 20
15.58239972741966
 10
195.2007696555949
 20
15.71426685022376
 10
195.1997551495392
 20
15.85615960150273
 10
195.2017191344372
 20
15.9876905070258
 10
195.1964668553852
 20
16.10524577283002
 10
195.2073408763474
 20
16.16947789001584
 10
195.1919536641855
 20
16.23108802545047
 10
195.2407591537801
 20
16.21702407382111
 10
195.2853995564727
 20
16.21954742075314
 10
195.3538643946744
 20
16.21512797401709
 10
195.3959106169103
 20
16.20613025544036
 10
195.4487544758776
 20
16.2141171486651
 10
195.4207035002014
 20
16.17113917611675
 10
195.3749142248595
 20
16.18259552043835
 10
195.3869539073266
 20
16.12173520005137
 10
195.3796086070642
 20
16.05769299468773
 10
195.3831195826162
 20
15.9490936886391
 10
195.3819806760175
 20
15.82494319144752
 10
195.3819174780264
 20
15.69189719829878
 10
195.3832872966868
 20
15.56797381249555
 10
195.3791638801314
 20
15.45868337849338
 10
195.3877763103565
 20
15.3960858009417
 10
195.3746757454402
 20
15.33740133296365
 10
195.4393884328199
 20
15.35362113810902
 10
195.5060405953157
 20
15.34270260383311
 10
195.6198779541103
 20
15.34793740173756
 10
195.7357259122097
 20
15.34485547516913
 10
195.8496924263281
 20
15.35018259812512
 10
195.9160341018099
 20
15.33904208166542
 10
195.9807188525481
 20
15.35546979593177
 10
195.9689820772723
 20
15.3042592521005
 10
195.9765168063042
 20
15.25950334121001
 10
195.9689820992259
 20
15.21474739010027
 10
195.9807188140737
 20
15.16353690871041
 10
195.9160344075253
 20
15.1799642779422
 10
195.8496886430826
 20
15.1688278444727
 10
195.7357459487013
 20
15.1741311589312
 10
195.6197995623055
 20
15.17114764593544
 10
195.5062756882124
 20
15.17606892268393
 10
195.4389231318805
 20
15.1658508751352
 10
195.3734285122496
 20
15.18145996138816
 10
195.3891713619218
 20
15.11463851827411
 10
195.3783275998215
 20
15.04207057815878
 10
195.3836581629792
 20
14.91162247614416
 10
195.3817136151857
 20
14.76064558185226
 10
195.3823133683214
 20
14.59322243934158
 10
195.3821506559606
 20
14.42656176118371
 10
195.3821895488135
 20
14.27360142921636
 10
195.38218164131
 20
14.14849178985705
 10
195.3821828382745
 20
14.0650789099142
 10
195.3821827716209
 20
14.02491778281976
 10
195.3821827564384
 20
14.01410517385757
 97
        1
330
B1
 75
     1
 76
     2
 52
45.0
 41
0.1
 77
     0
 78
     1
 53
45.0
 43
0.0
 44
0.0
 45
-0.282842712474619
 46
0.0
 79
     0
 98
        1
 10
0.0
 20
0.0
  0
HATCH
  5
CF
330
48
100
AcDbEntity
  8
1
  6
Continuous
 62
     2
100
AcDbHatch
 10
0.0
 20
0.0
 30
0.0
210
0.0
220
0.0
230
1.0
  2
CUSTOM13
 70
     0
 71
     1
 91
        1
 92
        1
 93
        3
 72
     4
 94
        3
 73
     0
 74
     0
 95
       24
 96
       20
 40
0.0
 40
0.0
 40
0.0
 40
0.0
 40
0.2211075008753808
 40
0.4273218586245489
 40
0.5080174679239001
 40
0.5914835907870403
 40
0.8143265690192855
 40
1.054651302686598
 40
1.295452694023188
 40
1.518109231328845
 40
1.540864321905488
 40
1.595126460622749
 40
1.659890947896091
 40
1.714153085187477
 40
1.736908174961777
 40
1.764951100735487
 40
1.801562291221131
 40
1.953914424543806
 40
2.126104167379887
 40
2.126104167379887
 40
2.126104167379887
 40
2.126104167379887
 10
185.9375369556889
 20
15.58989295113017
 10
185.9112579081812
 20
15.53097628234374
 10
185.8604698894427
 20
15.41711139679256
 10
185.8131784839111
 20
15.14441958233114
 10
185.7043482802618
 20
15.24445482575457
 10
185.5514800279637
 20
15.27118593367326
 10
185.7686155181199
 20
15.48518135017633
 10
185.7838483674381
 20
15.70332117782485
 10
185.8906889492
 20
15.88451579066427
 10
185.8305380947078
 20
16.169132263114
 10
185.9334317395402
 20
16.14114089222451
 10
185.977993346815
 20
16.13243251602299
 10
186.0380842395397
 20
16.12139654183355
 10
186.0756619587439
 20
16.1076752305556
 10
186.1252466928607
 20
16.10756076160222
 10
186.0930158919326
 20
16.07306592398622
 10
186.017180222188
 20
16.08404104537967
 10
186.0429447159694
 20
15.89858969582449
 10
186.005589676385
 20
15.80702313549589
 10
185.9857704961609
 20
15.75844135397705
 72
     4
 94
        3
 73
     0
 74
     0
 95
       70
 96
       66
 40
0.0
 40
0.0
 40
0.0
 40
0.0
 40
0.0241731073021472
 40
0.0846058988987013
 40
0.1631685280353284
 40
0.2417311571789756
 40
0.3021639488292751
 40
0.3263370654895541
 40
0.3533118254248881
 40
0.4228783438922111
 40
0.5179999095313402
 40
0.6216398239466102
 40
0.7167613891499706
 40
0.7863279069649863
 40
0.8133026791761836
 40
0.8372943998771676
 40
0.8945054261372871
 40
0.9627895541962641
 40
1.020000580349074
 40
1.043992300975173
 40
1.071934345522897
 40
1.113121768772908
 40
1.145225199332233
 40
1.225483775412768
 40
1.329819923771476
 40
1.434156071994366
 40
1.514414647795788
 40
1.546518078208396
 40
1.578974764260169
 40
1.662678849314164
 40
1.777131373668384
 40
1.901833377474775
 40
2.016285900500565
 40
2.099989982527932
 40
2.132446666570291
 40
2.158782354486013
 40
2.216720867907803
 40
2.274659381334227
 40
2.300995069256161
 40
2.333451754066133
 40
2.417155836543813
 40
2.531608358985253
 40
2.656310362283748
 40
2.77076288638888
 40
2.854466971340046
 40
2.886923657363852
 40
2.913597976833286
 40
2.98238964287509
 40
3.076451716946953
 40
3.17893726045857
 40
3.272999334739972
 40
3.341791001059195
 40
3.368465320663507
 40
3.396976080738729
 40
3.472140811845965
 40
3.578408190308654
 40
3.700226892456091
 40
3.822045594634308
 40
3.928312973256415
 40
4.003477705314812
 40
4.031988456866878
 40
4.058324144797678
 40
4.116262658236843
 40
4.174201171400642
 40
4.200536849608578
 40
4.200536849608578
 40
4.200536849608578
 40
4.200536849608578
 10
185.9857704961609
 20
15.75844135397705
 10
185.9938259544679
 20
15.75844359811686
 10
186.0220200663241
 20
15.75845146032798
 10
186.0765534803672
 20
15.75830754828372
 10
186.1482891808604
 20
15.75909120499898
 10
186.2236240137062
 20
15.75627570463811
 10
186.2713052366438
 20
15.76298403400957
 10
186.3195071245616
 20
15.75197563692433
 10
186.3062571799873
 20
15.80546402997033
 10
186.3151093964539
 20
15.86049583543092
 10
186.3108698036285
 20
15.95419908726109
 10
186.313348348128
 20
16.04959482218532
 10
186.309093870606
 20
16.14356821983387
 10
186.3179818665847
 20
16.19795062438012
 10
186.3046977409945
 20
16.25233997691461
 10
186.3514119277108
 20
16.23842216335357
 10
186.3943254545737
 20
16.24103877374043
 10
186.4605443456686
 20
16.23648422450754
 10
186.5013342271798
 20
16.22778162134161
 10
186.5525145690819
 20
16.23531799890194
 10
186.52537204872
 20
16.19349970223285
 10
186.4803096055707
 20
16.20284992072596
 10
186.4942065045051
 20
16.13841207371837
 10
186.4858414431653
 20
16.07378219627399
 10
186.4903632178398
 20
15.97529141193887
 10
186.4854741311167
 20
15.8759593284257
 10
186.4950258992082
 20
15.81293115552969
 10
186.47997614552
 20
15.74964011499788
 10
186.5449159457208
 20
15.76515072944269
 10
186.6116246399496
 20
15.75499387697812
 10
186.7241435470828
 20
15.75988800099367
 10
186.8390235448953
 20
15.75691204732783
 10
186.9519871999747
 20
15.76221664184991
 10
187.0176267597677
 20
15.75107306472089
 10
187.0816276691053
 20
15.76744532319857
 10
187.0703142889189
 20
15.71761689905274
 10
187.077533987151
 20
15.67416715212123
 10
187.0703142611268
 20
15.63071745587445
 10
187.0816277175994
 20
15.58088895196876
 10
187.0176263598971
 20
15.59726166091362
 10
186.951992124046
 20
15.58611271661588
 10
186.838997431733
 20
15.59144857206854
 10
186.7242456548644
 20
15.58834345663822
 10
186.611318368686
 20
15.59364894682588
 10
186.5455220903585
 20
15.58257300019594
 10
186.4816097975358
 20
15.59887597847617
 10
186.4936015165126
 20
15.54423524395741
 10
186.4862104613005
 20
15.48854295047842
 10
186.4892684841983
 20
15.3964968914057
 10
186.4893422785683
 20
15.30179109873101
 10
186.486031357836
 20
15.20952782902265
 10
186.4939505989903
 20
15.15435768736139
 10
186.4815076611618
 20
15.10058169100136
 10
186.5389116551631
 20
15.1145376886278
 10
186.5994708140383
 20
15.10511457884226
 10
186.7048680855081
 20
15.10942885928705
 10
186.8204294070622
 20
15.10835504612031
 10
186.9359688877797
 20
15.10725965900995
 10
187.0414181130841
 20
15.11162525770632
 10
187.1018680471804
 20
15.10209426030671
 10
187.159283773911
 20
15.11617289606379
 10
187.1477773876708
 20
15.06707153265682
 10
187.1537566781749
 20
15.02564658018648
 10
187.1520311050802
 20
14.97651677966695
 10
187.1521500122971
 20
14.94854428447607
 10
187.1521871691833
 20
14.93980288195949
 72
     4
 94
        3
 73
     0
 74
     0
 95
       62
 96
       58
 40
0.0
 40
0.0
 40
0.0
 40
0.0
 40
0.0598250028308485
 40
0.2024846486897047
 40
0.3727558389220178
 40
0.5154154847934933
 40
0.5752404975784202
 40
0.9332326775486064
 40
1.290451762839322
 40
1.602077253145685
 40
1.699931634111911
 40
1.799359756424846
 40
2.270120149656885
 40
2.804661928461345
 40
2.882342287383058
 40
3.076543185718908
 40
3.329004354835368
 40
3.581465524568195
 40
3.775666424543479
 40
3.853346784558099
 40
3.899120679594845
 40
3.984129341791843
 40
4.029903236817191
 40
4.105797496059347
 40
4.295533144152307
 40
4.542189486611548
 40
4.788845828875495
 40
4.978581476409881
 40
5.054475735244123
 40
5.621734664339125
 40
6.130867242037156
 40
6.225249780948367
 40
6.318913039727017
 40
6.663579954558573
 40
7.047498900224404
 40
7.435230791575331
 40
7.498943906667743
 40
7.65087518120968
 40
7.832212509001162
 40
7.984143783696548
 40
8.047856898902676
 40
8.091554632732183
 40
8.172707566963846
 40
8.21640530076757
 40
8.289021782160427
 40
8.462184160756772
 40
8.668861838004881
 40
8.842024215263416
 40
8.914640695474612
 40
8.989881580860818
 40
9.155411528826725
 40
9.320941477743508
 40
9.396182352486761
 40
9.454709011143308
 40
9.583467660170243
 40
9.712226309012522
 40
9.770752957988975
 40
9.770752957988975
 40
9.770752957988975
 40
9.770752957988975
 10
187.1521871691833
 20
14.93980288195949
 10
187.1322348171623
 20
14.93980875568671
 10
187.0647037716465
 20
14.93982863806156
 10
186.9410612161788
 20
14.93949362520324
 10
186.7863180150057
 20
14.94107673750511
 10
186.669734948248
 20
14.93686078860494
 10
186.4550942634242
 20
14.95215205331625
 10
186.851894840723
 20
14.59198721286194
 10
186.8945656069268
 20
14.37510503397166
 10
187.318916214661
 20
14.19325062511446
 10
187.1439821496074
 20
14.08985196568071
 10
187.0194523925083
 20
13.87831523212725
 10
186.7666277235943
 20
14.34806081001561
 10
186.4797602893628
 20
14.99511516984522
 10
186.4906335926659
 20
14.68782672154694
 10
186.488289277796
 20
14.52288616971778
 10
186.4861096126411
 20
14.28879670711693
 10
186.4980774396346
 20
14.04498072421783
 10
186.468798474063
 20
13.89855796860984
 10
186.511452262547
 20
13.75113490174538
 10
186.4239814005639
 20
13.7668579730622
 10
186.3768527606744
 20
13.76694303543455
 10
186.2898973207713
 20
13.75109425482909
 10
186.3313474021723
 20
13.89527771422763
 10
186.3029875004285
 20
14.03855052698455
 10
186.3145973775299
 20
14.27674947365265
 10
186.3124175648272
 20
14.50517235240346
 10
186.3103111127993
 20
14.66705729375994
 10
186.3208035438324
 20
14.98153709333752
 10
186.0128963252893
 20
14.29229470872435
 10
185.7055258267456
 20
13.81476750243048
 10
185.5851367066274
 20
14.03741112637426
 10
185.4074607910725
 20
14.15011034955569
 10
185.8853326362894
 20
14.32548143465462
 10
185.9353959057207
 20
14.56091929252031
 10
186.3583799621717
 20
14.95322989344606
 10
186.127675427354
 20
14.93655307029065
 10
186.0049685859341
 20
14.94269518948769
 10
185.8325483095662
 20
14.93312822699574
 10
185.7213224694449
 20
14.95448818489664
 10
185.6025779627449
 20
14.92136265357419
 10
185.6183169706686
 20
15.00203900606883
 10
185.6178550933763
 20
15.04645414290853
 10
185.6027881889932
 20
15.12967081778532
 10
185.7372380935444
 20
15.09062651983883
 10
185.8619755545747
 20
15.11739729328422
 10
186.0628755237279
 20
15.10063949044052
 10
186.1921540949353
 20
15.12204225913003
 10
186.3328419928294
 20
15.0886877885342
 10
186.2980927452614
 20
15.22651875785067
 10
186.3222185666714
 20
15.34963257349481
 10
186.2967086182391
 20
15.47024055670335
 10
186.3333251146685
 20
15.60539865141495
 10
186.2211417027769
 20
15.58094545781891
 10
186.1280356457136
 20
15.59307749842022
 10
186.0191547579819
 20
15.58957630069994
 10
185.9569697640964
 20
15.58981755951603
 10
185.9375369557246
 20
15.58989295124144
 97
        3
330
B3
330
B4
330
B2
 75
     1
 76
     2
 52
45.0
 41
0.1
 77
     0
 78
     1
 53
45.0
 43
0.0
 44
0.0
 45
-0.282842712474619
 46
0.0
 79
     0
 98
        1
 10
0.0
 20
0.0
  0
HATCH
  5
D0
330
48
100
AcDbEntity
  8
1
  6
Continuous
 62
     2
100
AcDbHatch
 10
0.0
 20
0.0
 30
0.0
210
0.0
220
0.0
230
1.0
  2
CUSTOM14
 70
     0
 71
     1
 91
        1
 92
        1
 93
        4
 72
     1
 10
192.4578138032673
 20
15.22875434022057
 11
191.1602971697032
 21
15.22875434022057
 72
     1
 10
191.1602971697032
 20
15.22875434022057
 11
191.1602971697032
 21
15.39722336795626
 72
     1
 10
191.1602971697032
 20
15.39722336795626
 11
192.4578138032673
 21
15.39722336795626
 72
     1
 10
192.4578138032673
 20
15.39722336795626
 11
192.4578138032673
 21
15.22875434022057
 97
        1
330
B5
 75
     1
 76
     2
 52
45.0
 41
0.1
 77
     0
 78
     1
 53
45.0
 43
0.0
 44
0.0
 45
-0.282842712474619
 46
0.0
 79
     0
 98
        1
 10
0.0
 20
0.0
  0
ENDBLK
  5
4A
330
48
100
AcDbEntity
  8
0
100
AcDbBlockEnd
  0
BLOCK
  5
4D
330
4B
100
AcDbEntity
  8
0
100
AcDbBlockBegin
  2
開示A4枠
 70
     0
 10
0.0
 20
0.0
 30
0.0
  3
開示A4枠
  1

  0
INSERT
  5
4C
330
4B
100
AcDbEntity
  8
1
100
AcDbBlockReference
  2
開示A4
 10
0.0
 20
0.0
 30
0.0
  0
ENDBLK
  5
4E
330
4B
100
AcDbEntity
  8
0
100
AcDbBlockEnd
  0
BLOCK
  5
50
330
4F
100
AcDbEntity
  8
0
100
AcDbBlockBegin
  2
kyapu
 70
     0
 10
93.92441201367423
 20
116.4739044078404
 30
0.0
  3
kyapu
  1

  0
LINE
  5
D1
330
4F
100
AcDbEntity
  8
0
  6
Continuous
 62
     7
100
AcDbLine
 10
96.67441201367423
 20
133.4739044078404
 30
0.0
 11
97.39921856775413
 21
161.4997578322635
 31
0.0
  0
LINE
  5
D2
330
4F
100
AcDbEntity
  8
0
  6
Continuous
 62
     7
100
AcDbLine
 10
129.4496054595943
 20
161.4997578322635
 30
0.0
 11
130.1744120136742
 21
133.4739044078404
 31
0.0
  0
LINE
  5
D3
330
4F
100
AcDbEntity
  8
0
  6
Continuous
 62
     7
100
AcDbLine
 10
98.39888431211352
 20
162.4739044078404
 30
0.0
 11
128.4499397152349
 21
162.4739044078404
 31
0.0
  0
LINE
  5
D4
330
4F
100
AcDbEntity
  8
1
  6
Continuous
 62
     7
100
AcDbLine
 10
98.42441201367423
 20
120.4739044078404
 30
0.0
 11
98.42441201367423
 21
115.4739044078404
 31
0.0
  0
LINE
  5
D5
330
4F
100
AcDbEntity
  8
1
  6
Continuous
 62
     7
100
AcDbLine
 10
93.42441201367423
 20
120.4739044078404
 30
0.0
 11
98.42441201367423
 21
120.4739044078404
 31
0.0
  0
LINE
  5
D6
330
4F
100
AcDbEntity
  8
1
  6
Continuous
 62
     7
100
AcDbLine
 10
128.4244120136742
 20
120.4739044078404
 30
0.0
 11
128.4244120136742
 21
115.4739044078404
 31
0.0
  0
LINE
  5
D7
330
4F
100
AcDbEntity
  8
1
  6
Continuous
 62
     7
100
AcDbLine
 10
133.4244120136742
 20
120.4739044078404
 30
0.0
 11
98.42441201367423
 21
120.4739044078404
 31
0.0
  0
LINE
  5
D8
330
4F
100
AcDbEntity
  8
1
  6
Continuous
 62
     7
100
AcDbLine
 10
99.42441201367423
 20
114.4739044078404
 30
0.0
 11
127.4244120136742
 21
114.4739044078404
 31
0.0
  0
LINE
  5
D9
330
4F
100
AcDbEntity
  8
1
  6
Continuous
 62
     7
100
AcDbLine
 10
96.17441201367423
 20
133.4739044078404
 30
0.0
 11
130.6744120136742
 21
133.4739044078404
 31
0.0
  0
LINE
  5
DA
330
4F
100
AcDbEntity
  8
1
  6
Continuous
 62
     7
100
AcDbLine
 10
133.1744120136742
 20
130.9739044078404
 30
0.0
 11
133.4244120136742
 21
120.4739044078404
 31
0.0
  0
LINE
  5
DB
330
4F
100
AcDbEntity
  8
1
  6
Continuous
 62
     7
100
AcDbLine
 10
93.67441201367423
 20
130.9739044078404
 30
0.0
 11
93.42441201367423
 21
120.4739044078404
 31
0.0
  0
CIRCLE
  5
DC
330
4F
100
AcDbEntity
  8
0
  6
Continuous
 62
     7
100
AcDbCircle
 10
113.4244120136742
 20
205.2736560571177
 30
0.0
 40
13.25
  0
CIRCLE
  5
DD
330
4F
100
AcDbEntity
  8
0
  6
Continuous
 62
     7
100
AcDbCircle
 10
113.4244120136742
 20
205.2736560571177
 30
0.0
 40
16.02519344592007
  0
CIRCLE
  5
DE
330
4F
100
AcDbEntity
  8
0
  6
Continuous
 62
     7
100
AcDbCircle
 10
113.4244120136742
 20
205.2736560571177
 30
0.0
 40
16.71564957186044
  0
CIRCLE
  5
DF
330
4F
100
AcDbEntity
  8
0
  6
Continuous
 62
     7
100
AcDbCircle
 10
113.4244120136742
 20
205.2736560571177
 30
0.0
 40
19.74999999999997
  0
CIRCLE
  5
E0
330
4F
100
AcDbEntity
  8
0
  6
Continuous
 62
     7
100
AcDbCircle
 10
113.4244120136742
 20
205.2736560571177
 30
0.0
 40
19.99999999999997
  0
ARC
  5
E1
330
4F
100
AcDbEntity
  8
0
  6
Continuous
 62
     7
100
AcDbCircle
 10
128.4499397152349
 20
161.4739044078404
 30
0.0
 40
1.000000000000008
100
AcDbArc
 50
1.48145717088803
 51
90.0
  0
ARC
  5
E2
330
4F
100
AcDbEntity
  8
0
  6
Continuous
 62
     7
100
AcDbCircle
 10
98.39888431211352
 20
161.4739044078404
 30
0.0
 40
1.0
100
AcDbArc
 50
90.0
 51
178.518542829112
  0
ARC
  5
E3
330
4F
100
AcDbEntity
  8
1
  6
Continuous
 62
     7
100
AcDbCircle
 10
130.6744120136742
 20
130.9739044078404
 30
0.0
 40
2.5
100
AcDbArc
 50
0.0
 51
90.0
  0
ARC
  5
E4
330
4F
100
AcDbEntity
  8
1
  6
Continuous
 62
     7
100
AcDbCircle
 10
96.17441201367423
 20
130.9739044078404
 30
0.0
 40
2.5
100
AcDbArc
 50
90.0
 51
180.0
  0
ARC
  5
E5
330
4F
100
AcDbEntity
  8
1
  6
Continuous
 62
     7
100
AcDbCircle
 10
99.42441201367423
 20
115.4739044078404
 30
0.0
 40
1.0
100
AcDbArc
 50
180.0
 51
270.0
  0
ARC
  5
E6
330
4F
100
AcDbEntity
  8
1
  6
Continuous
 62
     7
100
AcDbCircle
 10
127.4244120136742
 20
115.4739044078404
 30
0.0
 40
1.0
100
AcDbArc
 50
270.0
 51
0.0
  0
ENDBLK
  5
51
330
4F
100
AcDbEntity
  8
0
100
AcDbBlockEnd
  0
BLOCK
  5
100
330
F9
100
AcDbEntity
  8
0
100
AcDbBlockBegin
  2
*D4
 70
     1
 10
0.0
 20
0.0
 30
0.0
  3
*D4
  1

  0
LINE
  5
FA
330
F9
100
AcDbEntity
  8
0
  6
Continuous
 62
     2
100
AcDbLine
 10
97.42441201367427
 20
173.4739044078404
 30
0.0
 11
129.4244120136743
 21
173.4739044078404
 31
0.0
  0
LINE
  5
FB
330
F9
100
AcDbEntity
  8
0
  6
Continuous
 62
     2
100
AcDbLine
 10
129.4244120136743
 20
162.4739044078404
 30
0.0
 11
129.4244120136743
 21
174.4739044078404
 31
0.0
  0
LINE
  5
FC
330
F9
100
AcDbEntity
  8
0
  6
Continuous
 62
     2
100
AcDbLine
 10
97.42441201367427
 20
162.4739044078404
 30
0.0
 11
97.42441201367427
 21
174.4739044078404
 31
0.0
  0
SOLID
  5
FD
330
F9
100
AcDbEntity
  8
0
 62
     2
100
AcDbTrace
 10
100.9244120136743
 20
173.9346881493963
 30
0.0
 11
100.9244120136743
 21
173.0131206662845
 31
0.0
 12
97.42441201367427
 22
173.4739044078404
 32
0.0
 13
97.42441201367427
 23
173.4739044078404
 33
0.0
  0
SOLID
  5
FE
330
F9
100
AcDbEntity
  8
0
 62
     2
100
AcDbTrace
 10
125.9244120136743
 20
173.0131206662845
 30
0.0
 11
125.9244120136743
 21
173.9346881493963
 31
0.0
 12
129.4244120136743
 22
173.4739044078404
 32
0.0
 13
129.4244120136743
 23
173.4739044078404
 33
0.0
  0
MTEXT
  5
FF
330
F9
100
AcDbEntity
  8
0
 62
     7
100
AcDbMText
 10
109.8242937261464
 20
174.4738974507641
 30
0.0
 40
3.5
 41
0.0
 71
     7
 72
     1
  1
\C7;{\Fgdt;n}\C7;32
  7
CONVERTER_12
 11
0.9999999999970619
 21
2.424068405545306E-6
 31
0.0
 73
     1
 44
0.60024009603842
  0
ENDBLK
  5
101
330
F9
100
AcDbEntity
  8
0
100
AcDbBlockEnd
  0
BLOCK
  5
10B
330
104
100
AcDbEntity
  8
0
100
AcDbBlockBegin
  2
*D5
 70
     1
 10
0.0
 20
0.0
 30
0.0
  3
*D5
  1

  0
LINE
  5
105
330
104
100
AcDbEntity
  8
0
  6
Continuous
 62
     2
100
AcDbLine
 10
74.92441201367423
 20
114.4739044078404
 30
0.0
 11
74.92441201367423
 21
162.4739044078404
 31
0.0
  0
LINE
  5
106
330
104
100
AcDbEntity
  8
0
  6
Continuous
 62
     2
100
AcDbLine
 10
98.39888431211352
 20
162.4739044078404
 30
0.0
 11
73.92441201367423
 21
162.4739044078404
 31
0.0
  0
LINE
  5
107
330
104
100
AcDbEntity
  8
0
  6
Continuous
 62
     2
100
AcDbLine
 10
99.42441201367423
 20
114.4739044078404
 30
0.0
 11
73.92441201367423
 21
114.4739044078404
 31
0.0
  0
SOLID
  5
108
330
104
100
AcDbEntity
  8
0
 62
     2
100
AcDbTrace
 10
74.46362827211834
 20
117.9739044078404
 30
0.0
 11
75.38519575523011
 21
117.9739044078404
 31
0.0
 12
74.92441201367423
 22
114.4739044078404
 32
0.0
 13
74.92441201367423
 23
114.4739044078404
 33
0.0
  0
SOLID
  5
109
330
104
100
AcDbEntity
  8
0
 62
     2
100
AcDbTrace
 10
75.38519575523011
 20
158.9739044078404
 30
0.0
 11
74.46362827211834
 21
158.9739044078404
 31
0.0
 12
74.92441201367423
 22
162.4739044078404
 32
0.0
 13
74.92441201367423
 23
162.4739044078404
 33
0.0
  0
MTEXT
  5
10A
330
104
100
AcDbEntity
  8
0
 62
     7
100
AcDbMText
 10
73.92441201367423
 20
135.2840649849817
 30
0.0
 40
3.5
 41
0.0
 71
     7
 72
     1
  1
48
  7
CONVERTER_12
 11
0.0
 21
1.0
 31
0.0
 73
     1
 44
0.60024009603842
  0
ENDBLK
  5
10C
330
104
100
AcDbEntity
  8
0
100
AcDbBlockEnd
  0
BLOCK
  5
116
330
10F
100
AcDbEntity
  8
0
100
AcDbBlockBegin
  2
*D6
 70
     1
 10
0.0
 20
0.0
 30
0.0
  3
*D6
  1

  0
LINE
  5
110
330
10F
100
AcDbEntity
  8
1
  6
Continuous
 62
     2
100
AcDbLine
 10
82.92441201367423
 20
133.4739044078404
 30
0.0
 11
82.92441201367423
 21
120.4739044078404
 31
0.0
  0
LINE
  5
111
330
10F
100
AcDbEntity
  8
1
  6
Continuous
 62
     2
100
AcDbLine
 10
93.42441201367423
 20
120.4739044078404
 30
0.0
 11
81.92441201367423
 21
120.4739044078404
 31
0.0
  0
LINE
  5
112
330
10F
100
AcDbEntity
  8
1
  6
Continuous
 62
     2
100
AcDbLine
 10
96.17441201367423
 20
133.4739044078404
 30
0.0
 11
81.92441201367423
 21
133.4739044078404
 31
0.0
  0
SOLID
  5
113
330
10F
100
AcDbEntity
  8
1
 62
     2
100
AcDbTrace
 10
83.38519575523011
 20
129.9739044078404
 30
0.0
 11
82.46362827211834
 21
129.9739044078404
 31
0.0
 12
82.92441201367423
 22
133.4739044078404
 32
0.0
 13
82.92441201367423
 23
133.4739044078404
 33
0.0
  0
SOLID
  5
114
330
10F
100
AcDbEntity
  8
1
 62
     2
100
AcDbTrace
 10
82.46362827211834
 20
123.9739044078404
 30
0.0
 11
83.38519575523011
 21
123.9739044078404
 31
0.0
 12
82.92441201367423
 22
120.4739044078404
 32
0.0
 13
82.92441201367423
 23
120.4739044078404
 33
0.0
  0
MTEXT
  5
115
330
10F
100
AcDbEntity
  8
1
 62
     7
100
AcDbMText
 10
81.92441201367423
 20
124.8716342278012
 30
0.0
 40
3.5
 41
0.0
 71
     7
 72
     1
  1
13
  7
CONVERTER_12
 11
0.0
 21
1.0
 31
0.0
 73
     1
 44
0.60024009603842
  0
ENDBLK
  5
117
330
10F
100
AcDbEntity
  8
0
100
AcDbBlockEnd
  0
BLOCK
  5
121
330
11A
100
AcDbEntity
  8
0
100
AcDbBlockBegin
  2
*D7
 70
     1
 10
0.0
 20
0.0
 30
0.0
  3
*D7
  1

  0
LINE
  5
11B
330
11A
100
AcDbEntity
  8
1
  6
Continuous
 62
     2
100
AcDbLine
 10
98.42441201367421
 20
105.4739044078404
 30
0.0
 11
128.4244120136742
 21
105.4739044078404
 31
0.0
  0
LINE
  5
11C
330
11A
100
AcDbEntity
  8
1
  6
Continuous
 62
     2
100
AcDbLine
 10
128.4244120136742
 20
115.4739044078404
 30
0.0
 11
128.4244120136742
 21
104.4739044078404
 31
0.0
  0
LINE
  5
11D
330
11A
100
AcDbEntity
  8
1
  6
Continuous
 62
     2
100
AcDbLine
 10
98.42441201367421
 20
115.4739044078404
 30
0.0
 11
98.42441201367421
 21
104.4739044078404
 31
0.0
  0
SOLID
  5
11E
330
11A
100
AcDbEntity
  8
1
 62
     2
100
AcDbTrace
 10
101.9244120136742
 20
105.9346881493963
 30
0.0
 11
101.9244120136742
 21
105.0131206662845
 31
0.0
 12
98.42441201367421
 22
105.4739044078404
 32
0.0
 13
98.42441201367421
 23
105.4739044078404
 33
0.0
  0
SOLID
  5
11F
330
11A
100
AcDbEntity
  8
1
 62
     2
100
AcDbTrace
 10
124.9244120136742
 20
105.0131206662845
 30
0.0
 11
124.9244120136742
 21
105.9346881493963
 31
0.0
 12
128.4244120136742
 22
105.4739044078404
 32
0.0
 13
128.4244120136742
 23
105.4739044078404
 33
0.0
  0
MTEXT
  5
120
330
11A
100
AcDbEntity
  8
1
 62
     7
100
AcDbMText
 10
109.8105222849324
 20
106.4738974507641
 30
0.0
 40
3.5
 41
0.0
 71
     7
 72
     1
  1
\C7;{\Fgdt;n}\C7;30
  7
CONVERTER_12
 11
0.9999999999970619
 21
2.424068405545306E-6
 31
0.0
 73
     1
 44
0.60024009603842
  0
ENDBLK
  5
122
330
11A
100
AcDbEntity
  8
0
100
AcDbBlockEnd
  0
BLOCK
  5
12C
330
125
100
AcDbEntity
  8
0
100
AcDbBlockBegin
  2
*D8
 70
     1
 10
0.0
 20
0.0
 30
0.0
  3
*D8
  1

  0
LINE
  5
126
330
125
100
AcDbEntity
  8
1
  6
Continuous
 62
     2
100
AcDbLine
 10
93.42441201367427
 20
97.4739044078404
 30
0.0
 11
133.4244120136743
 21
97.4739044078404
 31
0.0
  0
LINE
  5
127
330
125
100
AcDbEntity
  8
1
  6
Continuous
 62
     2
100
AcDbLine
 10
133.4244120136743
 20
120.4739044078404
 30
0.0
 11
133.4244120136743
 21
96.4739044078404
 31
0.0
  0
LINE
  5
128
330
125
100
AcDbEntity
  8
1
  6
Continuous
 62
     2
100
AcDbLine
 10
93.42441201367427
 20
120.4739044078404
 30
0.0
 11
93.42441201367427
 21
96.4739044078404
 31
0.0
  0
SOLID
  5
129
330
125
100
AcDbEntity
  8
1
 62
     2
100
AcDbTrace
 10
96.92441201367427
 20
97.93468814939628
 30
0.0
 11
96.92441201367427
 21
97.01312066628451
 31
0.0
 12
93.42441201367427
 22
97.4739044078404
 32
0.0
 13
93.42441201367427
 23
97.4739044078404
 33
0.0
  0
SOLID
  5
12A
330
125
100
AcDbEntity
  8
1
 62
     2
100
AcDbTrace
 10
129.9244120136743
 20
97.01312066628451
 30
0.0
 11
129.9244120136743
 21
97.93468814939628
 31
0.0
 12
133.4244120136743
 22
97.4739044078404
 32
0.0
 13
133.4244120136743
 23
97.4739044078404
 33
0.0
  0
MTEXT
  5
12B
330
125
100
AcDbEntity
  8
1
 62
     7
100
AcDbMText
 10
110.3070516682404
 20
98.47389745076407
 30
0.0
 40
3.5
 41
0.0
 71
     7
 72
     1
  1
\C7;{\Fgdt;n}\C7;40
  7
CONVERTER_12
 11
0.9999999999970619
 21
2.424068405545306E-6
 31
0.0
 73
     1
 44
0.60024009603842
  0
ENDBLK
  5
12D
330
125
100
AcDbEntity
  8
0
100
AcDbBlockEnd
  0
BLOCK
  5
135
330
130
100
AcDbEntity
  8
0
100
AcDbBlockBegin
  2
*D9
 70
     1
 10
0.0
 20
0.0
 30
0.0
  3
*D9
  1

  0
LINE
  5
131
330
130
100
AcDbEntity
  8
0
  6
Continuous
 62
     2
100
AcDbLine
 10
98.45164759816592
 20
194.4078231043391
 30
0.0
 11
140.8163524623634
 21
225.1521661911337
 31
0.0
  0
SOLID
  5
132
330
130
100
AcDbEntity
  8
0
 62
     2
100
AcDbTrace
 10
126.710196056737
 20
215.4845700229477
 30
0.0
 11
127.2514716419372
 21
214.7387098706436
 31
0.0
 12
124.1481486896463
 22
213.0559418205943
 32
0.0
 13
124.1481486896463
 23
213.0559418205943
 33
0.0
  0
SOLID
  5
133
330
130
100
AcDbEntity
  8
0
 62
     2
100
AcDbTrace
 10
100.1386279706114
 20
195.0627420912878
 30
0.0
 11
99.59735238541116
 21
195.8086022435918
 31
0.0
 12
102.7006753377021
 22
197.4913702936412
 32
0.0
 13
102.7006753377021
 23
197.4913702936412
 33
0.0
  0
MTEXT
  5
134
330
130
100
AcDbEntity
  8
0
 62
     7
100
AcDbMText
 10
133.6571805701091
 20
221.1922851554011
 30
0.0
 40
3.5
 41
0.0
 71
     7
 72
     1
  1
\C7;{\Fgdt;n}\C7;27
  7
CONVERTER_12
 11
0.8093386170545016
 21
0.5873423217718157
 31
0.0
 73
     1
 44
0.60024009603842
  0
ENDBLK
  5
136
330
130
100
AcDbEntity
  8
0
100
AcDbBlockEnd
  0
ENDSEC
  0
SECTION
  2
ENTITIES
  0
INSERT
  5
52
330
1F
100
AcDbEntity
  8
0
100
AcDbBlockReference
  2
開示A4枠
 10
0.0
 20
0.0
 30
0.0
  0
INSERT
  5
53
330
1F
100
AcDbEntity
  8
1
100
AcDbBlockReference
  2
kyapu
 10
93.92441201367423
 20
116.4739044078404
 30
0.0
  0
LINE
  5
E7
330
1F
100
AcDbEntity
  8
0
  6
Continuous
 62
     2
100
AcDbLine
 10
129.4244120136742
 20
162.4739044078404
 30
0.0
 11
129.4496054595943
 21
161.4997578322635
 31
0.0
  0
LINE
  5
E8
330
1F
100
AcDbEntity
  8
0
  6
Continuous
 62
     2
100
AcDbLine
 10
97.39921856775413
 20
161.4997578322635
 30
0.0
 11
97.42441201367423
 21
162.4739044078404
 31
0.0
  0
LINE
  5
E9
330
1F
100
AcDbEntity
  8
1
  6
DASH_CENTER
 62
     2
100
AcDbLine
 10
113.4244120136742
 20
165.4739044078404
 30
0.0
 11
113.4244120136742
 21
111.4739044078404
 31
0.0
  0
LINE
  5
EA
330
1F
100
AcDbEntity
  8
1
  6
DASH_CENTER
 62
     2
100
AcDbLine
 10
90.92441201367423
 20
205.2736560571177
 30
0.0
 11
135.9244120136742
 21
205.2736560571177
 31
0.0
  0
LINE
  5
EB
330
1F
100
AcDbEntity
  8
1
  6
DASH_CENTER
 62
     2
100
AcDbLine
 10
113.4244120136742
 20
227.7736560571177
 30
0.0
 11
113.4244120136742
 21
182.7736560571177
 31
0.0
  0
MTEXT
  5
ED
330
1F
100
AcDbEntity
  8
1
 62
     7
100
AcDbMText
 10
157.5
 20
12.5
 30
0.0
 40
2.5
 41
0.0
 71
     5
 72
     1
  1
6
  7
CONVERTER_12
 73
     1
 44
0.7202881152461
  0
MTEXT
  5
EE
330
1F
100
AcDbEntity
  8
1
 62
     7
100
AcDbMText
 10
151.75
 20
12.5
 30
0.0
 40
2.5
 41
0.0
 71
     5
 72
     1
  1
04
  7
CONVERTER_12
 73
     1
 44
0.7202881152461
  0
MTEXT
  5
EF
330
1F
100
AcDbEntity
  8
1
 62
     7
100
AcDbMText
 10
140.5
 20
12.5
 30
0.0
 40
2.5
 41
0.0
 71
     5
 72
     1
  1
6
  7
CONVERTER_12
 73
     1
 44
0.7202881152461
  0
MTEXT
  5
F0
330
1F
100
AcDbEntity
  8
1
 62
     7
100
AcDbMText
 10
134.75
 20
12.5
 30
0.0
 40
2.5
 41
0.0
 71
     5
 72
     1
  1
04
  7
CONVERTER_12
 73
     1
 44
0.7202881152461
  0
MTEXT
  5
F1
330
1F
100
AcDbEntity
  8
1
 62
     7
100
AcDbMText
 10
123.5
 20
12.5
 30
0.0
 40
2.5
 41
0.0
 71
     5
 72
     1
  1
6
  7
CONVERTER_12
 73
     1
 44
0.7202881152461
  0
MTEXT
  5
F2
330
1F
100
AcDbEntity
  8
1
 62
     7
100
AcDbMText
 10
117.75
 20
12.5
 30
0.0
 40
2.5
 41
0.0
 71
     5
 72
     1
  1
04
  7
CONVERTER_12
 73
     1
 44
0.7202881152461
  0
MTEXT
  5
F3
330
1F
100
AcDbEntity
  8
1
 62
     7
100
AcDbMText
 10
100.75
 20
12.5
 30
0.0
 40
2.5
 41
0.0
 71
     5
 72
     1
  1
04
  7
CONVERTER_12
 73
     1
 44
0.7202881152461
  0
MTEXT
  5
F4
330
1F
100
AcDbEntity
  8
1
 62
     7
100
AcDbMText
 10
106.5
 20
12.5
 30
0.0
 40
2.5
 41
0.0
 71
     5
 72
     1
  1
6
  7
CONVERTER_12
 73
     1
 44
0.7202881152461
  0
MTEXT
  5
F5
330
1F
100
AcDbEntity
  8
1
 62
     7
100
AcDbMText
 10
93.75000000000003
 20
17.0
 30
0.0
 40
3.5
 41
0.0
 71
     5
 72
     1
  1
1
  7
CONVERTER_12
 73
     1
 44
0.7202881152461
  0
MTEXT
  5
F6
330
1F
100
AcDbEntity
  8
1
 62
     7
100
AcDbMText
 10
57.00000000000003
 20
14.25
 30
0.0
 40
3.5
 41
0.0
 71
     5
 72
     1
  1
H64-89T
  7
CONVERTER_12
 73
     1
 44
0.7202881152461
  0
MTEXT
  5
F7
330
1F
100
AcDbEntity
  8
1
 62
     7
100
AcDbMText
 10
57.00000000000003
 20
22.75000000000001
 30
0.0
 40
3.5
 41
0.0
 71
     5
 72
     1
  1
洗濯機排水ホースキャップ
  7
CONVERTER_11
 73
     1
 44
0.54545454545455
  0
MTEXT
  5
F8
330
1F
100
AcDbEntity
  8
1
 62
     7
100
AcDbMText
 10
85.25000000000003
 20
17.0
 30
0.0
 40
3.5
 41
0.0
 71
     5
 72
     1
  1
1
  7
CONVERTER_12
 73
     1
 44
0.7202881152461
  0
DIMENSION
  5
103
330
1F
100
AcDbEntity
  8
0
100
AcDbDimension
  2
*D4
 10
97.42441201367427
 20
173.4739044078404
 30
0.0
 11
113.219293726138
 21
176.2239044078404
 31
0.0
 70
    33
  1
<>
 71
     5
 42
-1.0
 53
0.00013888888889
  3
ME10_DIM_10
100
AcDbAlignedDimension
 13
129.4244120136742
 23
162.4739044078404
 33
0.0
 14
97.42441201367423
 24
162.4739044078404
 34
0.0
  0
DIMENSION
  5
10E
330
1F
100
AcDbEntity
  8
0
100
AcDbDimension
  2
*D5
 10
74.92441201367423
 20
114.4739044078404
 30
0.0
 11
72.17441201367423
 21
137.9090649849817
 31
0.0
 70
    32
  1
<>
 71
     5
 42
-1.0
 53
90.0
  3
ME10_DIM_11
100
AcDbAlignedDimension
 13
98.39888431211352
 23
162.4739044078404
 33
0.0
 14
99.42441201367423
 24
114.4739044078404
 34
0.0
 50
90.0
100
AcDbRotatedDimension
  0
DIMENSION
  5
119
330
1F
100
AcDbEntity
  8
1
100
AcDbDimension
  2
*D6
 10
82.92441201367423
 20
133.4739044078404
 30
0.0
 11
80.17441201367423
 21
126.9716342278012
 31
0.0
 70
    32
  1
<>
 71
     5
 42
-1.0
 53
90.0
  3
ME10_DIM_12
100
AcDbAlignedDimension
 13
93.42441201367423
 23
120.4739044078404
 33
0.0
 14
96.17441201367423
 24
133.4739044078404
 34
0.0
 50
90.0
100
AcDbRotatedDimension
  0
DIMENSION
  5
124
330
1F
100
AcDbEntity
  8
1
100
AcDbDimension
  2
*D7
 10
98.42441201367421
 20
105.4739044078404
 30
0.0
 11
113.205522284924
 21
108.2239044078404
 31
0.0
 70
    32
  1
<>
 71
     5
 42
-1.0
 53
0.00013888888889
  3
ME10_DIM_13
100
AcDbAlignedDimension
 13
128.4244120136742
 23
115.4739044078404
 33
0.0
 14
98.42441201367423
 24
115.4739044078404
 34
0.0
100
AcDbRotatedDimension
  0
DIMENSION
  5
12F
330
1F
100
AcDbEntity
  8
1
100
AcDbDimension
  2
*D8
 10
93.42441201367427
 20
97.4739044078404
 30
0.0
 11
113.702051668232
 21
100.2239044078404
 31
0.0
 70
    32
  1
<>
 71
     5
 42
-1.0
 53
0.00013888888889
  3
ME10_DIM_14
100
AcDbAlignedDimension
 13
133.4244120136742
 23
120.4739044078404
 33
0.0
 14
93.42441201367423
 24
120.4739044078404
 34
0.0
100
AcDbRotatedDimension
  0
INSERT
  5
137
330
1F
100
AcDbEntity
  8
0
100
AcDbBlockReference
  2
*D9
 10
0.0
 20
0.0
 30
0.0
  0
ENDSEC
  0
SECTION
  2
OBJECTS
  0
DICTIONARY
  5
C
330
0
100
AcDbDictionary
281
     1
  3
ACAD_GROUP
350
D
  3
ACAD_LAYOUT
350
1A
  3
ACAD_MATERIAL
350
3B
  3
ACAD_MLEADERSTYLE
350
13A
  3
ACAD_MLINESTYLE
350
17
  3
ACAD_PLOTSETTINGS
350
19
  3
ACAD_PLOTSTYLENAME
350
E
  3
ACAD_VISUALSTYLE
350
2A
  3
AcDbVariableDictionary
350
138
  0
DICTIONARY
  5
D
102
{ACAD_REACTORS
330
C
102
}
330
C
100
AcDbDictionary
281
     1
  0
DICTIONARY
  5
1A
102
{ACAD_REACTORS
330
C
102
}
330
C
100
AcDbDictionary
281
     1
  3
Layout1
350
1E
  3
Layout2
350
26
  3
Model
350
22
  0
DICTIONARY
  5
3B
102
{ACAD_REACTORS
330
C
102
}
330
C
100
AcDbDictionary
281
     1
  3
ByBlock
350
3D
  3
ByLayer
350
3C
  3
Global
350
3E
  0
DICTIONARY
  5
13A
102
{ACAD_REACTORS
330
C
102
}
330
C
100
AcDbDictionary
281
     1
  0
DICTIONARY
  5
17
102
{ACAD_REACTORS
330
C
102
}
330
C
100
AcDbDictionary
281
     1
  3
Standard
350
18
  0
DICTIONARY
  5
19
102
{ACAD_REACTORS
330
C
102
}
330
C
100
AcDbDictionary
281
     1
  0
ACDBDICTIONARYWDFLT
  5
E
102
{ACAD_REACTORS
330
C
102
}
330
C
100
AcDbDictionary
281
     1
  3
Normal
350
F
100
AcDbDictionaryWithDefault
340
F
  0
DICTIONARY
  5
2A
102
{ACAD_REACTORS
330
C
102
}
330
C
100
AcDbDictionary
281
     1
  3
2dWireframe
350
2F
  3
3D Hidden
350
31
  3
3dWireframe
350
30
  3
Basic
350
32
  3
Brighten
350
36
  3
ColorChange
350
3A
  3
Conceptual
350
34
  3
Dim
350
35
  3
Facepattern
350
39
  3
Flat
350
2B
  3
FlatWithEdges
350
2C
  3
Gouraud
350
2D
  3
GouraudWithEdges
350
2E
  3
Linepattern
350
38
  3
Realistic
350
33
  3
Thicken
350
37
  0
DICTIONARY
  5
138
102
{ACAD_REACTORS
330
C
102
}
330
C
100
AcDbDictionary
281
     1
  3
DIMASSOC
350
13B
  3
HIDETEXT
350
13C
  0
LAYOUT
  5
1E
102
{ACAD_REACTORS
330
1A
102
}
330
1A
100
AcDbPlotSettings
  1

  2
none_device
  4

  6

 40
0.0
 41
0.0
 42
0.0
 43
0.0
 44
0.0
 45
0.0
 46
0.0
 47
0.0
 48
0.0
 49
0.0
140
0.0
141
0.0
142
1.0
143
1.0
 70
   688
 72
     0
 73
     0
 74
     5
  7

 75
    16
147
1.0
148
0.0
149
0.0
100
AcDbLayout
  1
Layout1
 70
     1
 71
     1
 10
0.0
 20
0.0
 11
12.0
 21
9.0
 12
0.0
 22
0.0
 32
0.0
 14
1.00000000000000E+20
 24
1.00000000000000E+20
 34
1.00000000000000E+20
 15
-1.00000000000000E+20
 25
-1.00000000000000E+20
 35
-1.00000000000000E+20
146
0.0
 13
0.0
 23
0.0
 33
0.0
 16
1.0
 26
0.0
 36
0.0
 17
0.0
 27
1.0
 37
0.0
 76
     0
330
1B
  0
LAYOUT
  5
26
102
{ACAD_REACTORS
330
1A
102
}
330
1A
100
AcDbPlotSettings
  1

  2
none_device
  4

  6

 40
0.0
 41
0.0
 42
0.0
 43
0.0
 44
0.0
 45
0.0
 46
0.0
 47
0.0
 48
0.0
 49
0.0
140
0.0
141
0.0
142
1.0
143
1.0
 70
   688
 72
     0
 73
     0
 74
     5
  7

 75
    16
147
1.0
148
0.0
149
0.0
100
AcDbLayout
  1
Layout2
 70
     1
 71
     2
 10
0.0
 20
0.0
 11
0.0
 21
0.0
 12
0.0
 22
0.0
 32
0.0
 14
0.0
 24
0.0
 34
0.0
 15
0.0
 25
0.0
 35
0.0
146
0.0
 13
0.0
 23
0.0
 33
0.0
 16
1.0
 26
0.0
 36
0.0
 17
0.0
 27
1.0
 37
0.0
 76
     0
330
23
  0
LAYOUT
  5
22
102
{ACAD_REACTORS
330
1A
102
}
330
1A
100
AcDbPlotSettings
  1

  2
none_device
  4

  6

 40
0.0
 41
0.0
 42
0.0
 43
0.0
 44
0.0
 45
0.0
 46
0.0
 47
0.0
 48
0.0
 49
0.0
140
0.0
141
0.0
142
1.0
143
1.0
 70
  1712
 72
     0
 73
     0
 74
     0
  7

 75
     0
147
1.0
148
0.0
149
0.0
100
AcDbLayout
  1
Model
 70
     1
 71
     0
 10
0.0
 20
0.0
 11
12.0
 21
9.0
 12
0.0
 22
0.0
 32
0.0
 14
0.0
 24
0.0
 34
0.0
 15
210.0000000000001
 25
297.0
 35
0.0
146
0.0
 13
0.0
 23
0.0
 33
0.0
 16
1.0
 26
0.0
 36
0.0
 17
0.0
 27
1.0
 37
0.0
 76
     0
330
1F
331
29
  0
MATERIAL
  5
3D
102
{ACAD_REACTORS
330
3B
102
}
102
{ACAD_XDICTIONARY
360
15F
102
}
330
3B
100
AcDbMaterial
  1
ByBlock
  0
MATERIAL
  5
3C
102
{ACAD_REACTORS
330
3B
102
}
102
{ACAD_XDICTIONARY
360
15D
102
}
330
3B
100
AcDbMaterial
  1
ByLayer
  0
MATERIAL
  5
3E
102
{ACAD_REACTORS
330
3B
102
}
102
{ACAD_XDICTIONARY
360
161
102
}
330
3B
100
AcDbMaterial
  1
Global
  0
MLINESTYLE
  5
18
102
{ACAD_REACTORS
330
17
102
}
330
17
100
AcDbMlineStyle
  2
Standard
 70
     0
  3

 62
   256
 51
90.0
 52
90.0
 71
     2
 49
0.5
 62
   256
  6
BYLAYER
 49
-0.5
 62
   256
  6
BYLAYER
  0
ACDBPLACEHOLDER
  5
F
102
{ACAD_REACTORS
330
E
102
}
330
E
  0
VISUALSTYLE
  5
2F
102
{ACAD_REACTORS
330
2A
102
}
102
{ACAD_XDICTIONARY
360
145
102
}
330
2A
100
AcDbVisualStyle
  2
2dWireframe
 70
     4
 71
     0
 72
     2
 73
     0
 90
        0
 40
-0.6
 41
-30.0
 62
     5
 63
     7
 74
     1
 91
        4
 64
     7
 65
   257
 75
     1
175
     1
 42
1.0
 92
        0
 66
   257
 43
1.0
 76
     1
 77
     6
 78
     2
 67
     7
 79
     5
170
     0
171
     0
290
     0
174
     0
 93
        1
 44
0.0
173
     0
291
     0
 45
0.0
1001
ACAD
1000
AcDbSavedByObjectVersion
1070
     0
  0
VISUALSTYLE
  5
31
102
{ACAD_REACTORS
330
2A
102
}
102
{ACAD_XDICTIONARY
360
149
102
}
330
2A
100
AcDbVisualStyle
  2
3D Hidden
 70
     6
 71
     1
 72
     2
 73
     2
 90
        0
 40
-0.6
 41
-30.0
 62
     5
 63
     7
 74
     2
 91
        2
 64
     7
 65
   257
 75
     2
175
     1
 42
40.0
 92
        0
 66
   257
 43
1.0
 76
     1
 77
     6
 78
     2
 67
     7
 79
     3
170
     0
171
     0
290
     0
174
     0
 93
        1
 44
0.0
173
     0
291
     0
 45
0.0
1001
ACAD
1000
AcDbSavedByObjectVersion
1070
     0
  0
VISUALSTYLE
  5
30
102
{ACAD_REACTORS
330
2A
102
}
102
{ACAD_XDICTIONARY
360
147
102
}
330
2A
100
AcDbVisualStyle
  2
3dWireframe
 70
     5
 71
     0
 72
     2
 73
     0
 90
        0
 40
-0.6
 41
-30.0
 62
     5
 63
     7
 74
     1
 91
        4
 64
     7
 65
   257
 75
     1
175
     1
 42
1.0
 92
        0
 66
   257
 43
1.0
 76
     1
 77
     6
 78
     2
 67
     7
 79
     5
170
     0
171
     0
290
     0
174
     0
 93
        1
 44
0.0
173
     0
291
     0
 45
0.0
1001
ACAD
1000
AcDbSavedByObjectVersion
1070
     0
  0
VISUALSTYLE
  5
32
102
{ACAD_REACTORS
330
2A
102
}
102
{ACAD_XDICTIONARY
360
14B
102
}
330
2A
100
AcDbVisualStyle
  2
Basic
 70
     7
 71
     1
 72
     0
 73
     1
 90
        0
 40
-0.6
 41
-30.0
 62
     5
 63
     7
 74
     0
 91
        4
 64
     7
 65
   257
 75
     1
175
     1
 42
1.0
 92
        8
 66
     7
 43
1.0
 76
     1
 77
     6
 78
     2
 67
     7
 79
     5
170
     0
171
     0
290
     0
174
     0
 93
        1
 44
0.0
173
     0
291
     1
 45
0.0
1001
ACAD
1000
AcDbSavedByObjectVersion
1070
     0
  0
VISUALSTYLE
  5
36
102
{ACAD_REACTORS
330
2A
102
}
102
{ACAD_XDICTIONARY
360
153
102
}
330
2A
100
AcDbVisualStyle
  2
Brighten
 70
    12
 71
     2
 72
     2
 73
     0
 90
        0
 40
-0.6
 41
-30.0
 62
     5
 63
     7
 74
     1
 91
        4
 64
     7
 65
   257
 75
     1
175
     1
 42
1.0
 92
        8
 66
     7
 43
1.0
 76
     1
 77
     6
 78
     2
 67
     7
 79
     5
170
     0
171
     0
290
     0
174
     0
 93
        1
 44
50.0
173
     0
291
     1
 45
0.0
1001
ACAD
1000
AcDbSavedByObjectVersion
1070
     0
  0
VISUALSTYLE
  5
3A
102
{ACAD_REACTORS
330
2A
102
}
102
{ACAD_XDICTIONARY
360
15B
102
}
330
2A
100
AcDbVisualStyle
  2
ColorChange
 70
    16
 71
     2
 72
     2
 73
     3
 90
        0
 40
-0.6
 41
-30.0
 62
     5
 63
     8
 74
     1
 91
        4
 64
     7
 65
   257
 75
     1
175
     1
 42
1.0
 92
        8
 66
     8
 43
1.0
 76
     1
 77
     6
 78
     2
 67
     7
 79
     5
170
     0
171
     0
290
     0
174
     0
 93
        1
 44
0.0
173
     0
291
     1
 45
0.0
1001
ACAD
1000
AcDbSavedByObjectVersion
1070
     0
  0
VISUALSTYLE
  5
34
102
{ACAD_REACTORS
330
2A
102
}
102
{ACAD_XDICTIONARY
360
14F
102
}
330
2A
100
AcDbVisualStyle
  2
Conceptual
 70
     9
 71
     3
 72
     2
 73
     0
 90
        0
 40
-0.6
 41
-30.0
 62
     5
 63
     7
 74
     2
 91
        2
 64
     7
 65
   257
 75
     1
175
     1
 42
40.0
 92
        8
 66
     7
 43
1.0
 76
     1
 77
     6
 78
     2
 67
     7
 79
     3
170
     0
171
     0
290
     0
174
     0
 93
        1
 44
0.0
173
     0
291
     0
 45
0.0
1001
ACAD
1000
AcDbSavedByObjectVersion
1070
     0
  0
VISUALSTYLE
  5
35
102
{ACAD_REACTORS
330
2A
102
}
102
{ACAD_XDICTIONARY
360
151
102
}
330
2A
100
AcDbVisualStyle
  2
Dim
 70
    11
 71
     2
 72
     2
 73
     0
 90
        0
 40
-0.6
 41
-30.0
 62
     5
 63
     7
 74
     1
 91
        4
 64
     7
 65
   257
 75
     1
175
     1
 42
1.0
 92
        8
 66
     7
 43
1.0
 76
     1
 77
     6
 78
     2
 67
     7
 79
     5
170
     0
171
     0
290
     0
174
     0
 93
        1
 44
-50.0
173
     0
291
     1
 45
0.0
1001
ACAD
1000
AcDbSavedByObjectVersion
1070
     0
  0
VISUALSTYLE
  5
39
102
{ACAD_REACTORS
330
2A
102
}
102
{ACAD_XDICTIONARY
360
159
102
}
330
2A
100
AcDbVisualStyle
  2
Facepattern
 70
    15
 71
     2
 72
     2
 73
     0
 90
        0
 40
-0.6
 41
-30.0
 62
     5
 63
     7
 74
     1
 91
        4
 64
     7
 65
   257
 75
     1
175
     1
 42
1.0
 92
        8
 66
     7
 43
1.0
 76
     1
 77
     6
 78
     2
 67
     7
 79
     5
170
     0
171
     0
290
     0
174
     0
 93
        1
 44
0.0
173
     0
291
     1
 45
0.0
1001
ACAD
1000
AcDbSavedByObjectVersion
1070
     0
  0
VISUALSTYLE
  5
2B
102
{ACAD_REACTORS
330
2A
102
}
102
{ACAD_XDICTIONARY
360
13D
102
}
330
2A
100
AcDbVisualStyle
  2
Flat
 70
     0
 71
     2
 72
     1
 73
     1
 90
        2
 40
-0.6
 41
30.0
 62
     5
 63
     7
 74
     0
 91
        4
 64
     7
 65
   257
 75
     1
175
     1
 42
1.0
 92
        8
 66
     7
 43
1.0
 76
     1
 77
     6
 78
     2
 67
     7
 79
     5
170
     0
171
     0
290
     0
174
     0
 93
       13
 44
0.0
173
     0
291
     1
 45
0.0
1001
ACAD
1000
AcDbSavedByObjectVersion
1070
     0
  0
VISUALSTYLE
  5
2C
102
{ACAD_REACTORS
330
2A
102
}
102
{ACAD_XDICTIONARY
360
13F
102
}
330
2A
100
AcDbVisualStyle
  2
FlatWithEdges
 70
     1
 71
     2
 72
     1
 73
     1
 90
        2
 40
-0.6
 41
30.0
 62
     5
 63
     7
 74
     1
 91
        4
 64
     7
 65
   257
 75
     1
175
     1
 42
1.0
 92
        0
 66
   257
 43
1.0
 76
     1
 77
     6
 78
     2
 67
     7
 79
     5
170
     0
171
     0
290
     0
174
     0
 93
       13
 44
0.0
173
     0
291
     1
 45
0.0
1001
ACAD
1000
AcDbSavedByObjectVersion
1070
     0
  0
VISUALSTYLE
  5
2D
102
{ACAD_REACTORS
330
2A
102
}
102
{ACAD_XDICTIONARY
360
141
102
}
330
2A
100
AcDbVisualStyle
  2
Gouraud
 70
     2
 71
     2
 72
     2
 73
     1
 90
        2
 40
-0.6
 41
30.0
 62
     5
 63
     7
 74
     0
 91
        4
 64
     7
 65
   257
 75
     1
175
     1
 42
1.0
 92
        0
 66
     7
 43
1.0
 76
     1
 77
     6
 78
     2
 67
     7
 79
     5
170
     0
171
     0
290
     0
174
     0
 93
       13
 44
0.0
173
     0
291
     1
 45
0.0
1001
ACAD
1000
AcDbSavedByObjectVersion
1070
     0
  0
VISUALSTYLE
  5
2E
102
{ACAD_REACTORS
330
2A
102
}
102
{ACAD_XDICTIONARY
360
143
102
}
330
2A
100
AcDbVisualStyle
  2
GouraudWithEdges
 70
     3
 71
     2
 72
     2
 73
     1
 90
        2
 40
-0.6
 41
30.0
 62
     5
 63
     7
 74
     1
 91
        4
 64
     7
 65
   257
 75
     1
175
     1
 42
1.0
 92
        0
 66
   257
 43
1.0
 76
     1
 77
     6
 78
     2
 67
     7
 79
     5
170
     0
171
     0
290
     0
174
     0
 93
       13
 44
0.0
173
     0
291
     1
 45
0.0
1001
ACAD
1000
AcDbSavedByObjectVersion
1070
     0
  0
VISUALSTYLE
  5
38
102
{ACAD_REACTORS
330
2A
102
}
102
{ACAD_XDICTIONARY
360
157
102
}
330
2A
100
AcDbVisualStyle
  2
Linepattern
 70
    14
 71
     2
 72
     2
 73
     0
 90
        0
 40
-0.6
 41
-30.0
 62
     5
 63
     7
 74
     1
 91
        4
 64
     7
 65
   257
 75
     7
175
     7
 42
1.0
 92
        8
 66
     7
 43
1.0
 76
     1
 77
     6
 78
     2
 67
     7
 79
     5
170
     0
171
     0
290
     0
174
     0
 93
        1
 44
0.0
173
     0
291
     1
 45
0.0
1001
ACAD
1000
AcDbSavedByObjectVersion
1070
     0
  0
VISUALSTYLE
  5
33
102
{ACAD_REACTORS
330
2A
102
}
102
{ACAD_XDICTIONARY
360
14D
102
}
330
2A
100
AcDbVisualStyle
  2
Realistic
 70
     8
 71
     2
 72
     2
 73
     0
 90
        0
 40
-0.6
 41
-30.0
 62
     5
 63
     7
 74
     1
 91
        0
 64
     7
 65
   257
 75
     1
175
     1
 42
1.0
 92
        8
 66
     8
 43
1.0
 76
     1
 77
     6
 78
     2
 67
     7
 79
     5
170
     0
171
     0
290
     0
174
     0
 93
       13
 44
0.0
173
     0
291
     0
 45
0.0
1001
ACAD
1000
AcDbSavedByObjectVersion
1070
     0
  0
VISUALSTYLE
  5
37
102
{ACAD_REACTORS
330
2A
102
}
102
{ACAD_XDICTIONARY
360
155
102
}
330
2A
100
AcDbVisualStyle
  2
Thicken
 70
    13
 71
     2
 72
     2
 73
     0
 90
        0
 40
-0.6
 41
-30.0
 62
     5
 63
     7
 74
     1
 91
        4
 64
     7
 65
   257
 75
     1
175
     1
 42
1.0
 92
       12
 66
     7
 43
1.0
 76
     1
 77
     6
 78
     2
 67
     7
 79
     5
170
     0
171
     0
290
     0
174
     0
 93
        1
 44
0.0
173
     0
291
     1
 45
0.0
1001
ACAD
1000
AcDbSavedByObjectVersion
1070
     0
  0
DICTIONARYVAR
  5
13B
102
{ACAD_REACTORS
330
138
102
}
330
138
100
DictionaryVariables
280
     0
  1
2
  0
DICTIONARYVAR
  5
13C
102
{ACAD_REACTORS
330
138
102
}
330
138
100
DictionaryVariables
280
     0
  1
1
  0
DICTIONARY
  5
15F
330
3D
100
AcDbDictionary
280
     1
281
     1
  3
ACAD_XREC_ROUNDTRIP
360
160
  0
DICTIONARY
  5
15D
330
3C
100
AcDbDictionary
280
     1
281
     1
  3
ACAD_XREC_ROUNDTRIP
360
15E
  0
DICTIONARY
  5
161
330
3E
100
AcDbDictionary
280
     1
281
     1
  3
ACAD_XREC_ROUNDTRIP
360
162
  0
DICTIONARY
  5
145
330
2F
100
AcDbDictionary
280
     1
281
     1
  3
ACAD_XREC_ROUNDTRIP
360
146
  0
DICTIONARY
  5
149
330
31
100
AcDbDictionary
280
     1
281
     1
  3
ACAD_XREC_ROUNDTRIP
360
14A
  0
DICTIONARY
  5
147
330
30
100
AcDbDictionary
280
     1
281
     1
  3
ACAD_XREC_ROUNDTRIP
360
148
  0
DICTIONARY
  5
14B
330
32
100
AcDbDictionary
280
     1
281
     1
  3
ACAD_XREC_ROUNDTRIP
360
14C
  0
DICTIONARY
  5
153
330
36
100
AcDbDictionary
280
     1
281
     1
  3
ACAD_XREC_ROUNDTRIP
360
154
  0
DICTIONARY
  5
15B
330
3A
100
AcDbDictionary
280
     1
281
     1
  3
ACAD_XREC_ROUNDTRIP
360
15C
  0
DICTIONARY
  5
14F
330
34
100
AcDbDictionary
280
     1
281
     1
  3
ACAD_XREC_ROUNDTRIP
360
150
  0
DICTIONARY
  5
151
330
35
100
AcDbDictionary
280
     1
281
     1
  3
ACAD_XREC_ROUNDTRIP
360
152
  0
DICTIONARY
  5
159
330
39
100
AcDbDictionary
280
     1
281
     1
  3
ACAD_XREC_ROUNDTRIP
360
15A
  0
DICTIONARY
  5
13D
330
2B
100
AcDbDictionary
280
     1
281
     1
  3
ACAD_XREC_ROUNDTRIP
360
13E
  0
DICTIONARY
  5
13F
330
2C
100
AcDbDictionary
280
     1
281
     1
  3
ACAD_XREC_ROUNDTRIP
360
140
  0
DICTIONARY
  5
141
330
2D
100
AcDbDictionary
280
     1
281
     1
  3
ACAD_XREC_ROUNDTRIP
360
142
  0
DICTIONARY
  5
143
330
2E
100
AcDbDictionary
280
     1
281
     1
  3
ACAD_XREC_ROUNDTRIP
360
144
  0
DICTIONARY
  5
157
330
38
100
AcDbDictionary
280
     1
281
     1
  3
ACAD_XREC_ROUNDTRIP
360
158
  0
DICTIONARY
  5
14D
330
33
100
AcDbDictionary
280
     1
281
     1
  3
ACAD_XREC_ROUNDTRIP
360
14E
  0
DICTIONARY
  5
155
330
37
100
AcDbDictionary
280
     1
281
     1
  3
ACAD_XREC_ROUNDTRIP
360
156
  0
XRECORD
  5
160
102
{ACAD_REACTORS
330
15F
102
}
330
15F
100
AcDbXrecord
280
     1
102
MATERIAL
148
0.0
149
0.0
149
0.0
 93
        0
 94
      127
282
     0
 72
     1
 77
     1
171
     1
175
     1
179
     1
273
     0
  0
XRECORD
  5
15E
102
{ACAD_REACTORS
330
15D
102
}
330
15D
100
AcDbXrecord
280
     1
102
MATERIAL
148
0.0
149
0.0
149
0.0
 93
        0
 94
      127
282
     0
 72
     1
 77
     1
171
     1
175
     1
179
     1
273
     0
  0
XRECORD
  5
162
102
{ACAD_REACTORS
330
161
102
}
330
161
100
AcDbXrecord
280
     1
102
MATERIAL
148
0.0
149
0.0
149
0.0
 93
        0
 94
      127
282
     0
 72
     1
 77
     1
171
     1
175
     1
179
     1
273
     0
  0
XRECORD
  5
146
102
{ACAD_REACTORS
330
145
102
}
330
145
100
AcDbXrecord
280
     1
102
RTVSPropertyOp0
 70
     1
102
RTVSPropertyOp1
 70
     1
102
RTVSPropertyOp2
 70
     1
102
RTVSPropertyOp3
 70
     1
102
RTVSPropertyOp4
 70
     1
102
RTVSPropertyOp5
 70
     1
102
RTVSPropertyOp6
 70
     1
102
RTVSPropertyOp7
 70
     1
102
RTVSPropertyOp8
 70
     1
102
RTVSPropertyOp9
 70
     1
102
RTVSPropertyOp10
 70
     1
102
RTVSPropertyOp11
 70
     1
102
RTVSPropertyOp12
 70
     1
102
RTVSPropertyOp13
 70
     1
102
RTVSPropertyOp14
 70
     1
102
RTVSPropertyOp15
 70
     1
102
RTVSPropertyOp16
 70
     1
102
RTVSPropertyOp17
 70
     1
102
RTVSPropertyOp18
 70
     1
102
RTVSPropertyOp19
 70
     1
102
RTVSPropertyOp20
 70
     1
102
RTVSPropertyOp21
 70
     1
102
RTVSPropertyOp22
 70
     1
102
RTVSPropertyOp23
 70
     1
102
RTVSPropertyOp24
 70
     1
102
RTVSPropertyOp25
 70
     1
102
RTVSPropertyOp26
 70
     1
102
RTVSPropertyOp27
 70
     1
102
RTVSPropertyOp28
 70
     1
102
RTVSPropertyOp29
 70
     1
102
RTVSPropertyOp30
 70
     1
102
RTVSPropertyOp31
 70
     1
102
RTVSPropertyOp32
 70
     1
  0
XRECORD
  5
14A
102
{ACAD_REACTORS
330
149
102
}
330
149
100
AcDbXrecord
280
     1
102
RTVSPropertyOp0
 70
     1
102
RTVSPropertyOp1
 70
     1
102
RTVSPropertyOp2
 70
     1
102
RTVSPropertyOp3
 70
     1
102
RTVSPropertyOp4
 70
     1
102
RTVSPropertyOp5
 70
     1
102
RTVSPropertyOp6
 70
     1
102
RTVSPropertyOp7
 70
     1
102
RTVSPropertyOp8
 70
     1
102
RTVSPropertyOp9
 70
     1
102
RTVSPropertyOp10
 70
     1
102
RTVSPropertyOp11
 70
     1
102
RTVSPropertyOp12
 70
     1
102
RTVSPropertyOp13
 70
     1
102
RTVSPropertyOp14
 70
     1
102
RTVSPropertyOp15
 70
     1
102
RTVSPropertyOp16
 70
     1
102
RTVSPropertyOp17
 70
     1
102
RTVSPropertyOp18
 70
     1
102
RTVSPropertyOp19
 70
     1
102
RTVSPropertyOp20
 70
     1
102
RTVSPropertyOp21
 70
     1
102
RTVSPropertyOp22
 70
     1
102
RTVSPropertyOp23
 70
     1
102
RTVSPropertyOp24
 70
     1
102
RTVSPropertyOp25
 70
     1
102
RTVSPropertyOp26
 70
     1
102
RTVSPropertyOp27
 70
     1
102
RTVSPropertyOp28
 70
     1
102
RTVSPropertyOp29
 70
     1
102
RTVSPropertyOp30
 70
     1
102
RTVSPropertyOp31
 70
     1
102
RTVSPropertyOp32
 70
     1
  0
XRECORD
  5
148
102
{ACAD_REACTORS
330
147
102
}
330
147
100
AcDbXrecord
280
     1
102
RTVSPropertyOp0
 70
     1
102
RTVSPropertyOp1
 70
     1
102
RTVSPropertyOp2
 70
     1
102
RTVSPropertyOp3
 70
     1
102
RTVSPropertyOp4
 70
     1
102
RTVSPropertyOp5
 70
     1
102
RTVSPropertyOp6
 70
     1
102
RTVSPropertyOp7
 70
     1
102
RTVSPropertyOp8
 70
     1
102
RTVSPropertyOp9
 70
     1
102
RTVSPropertyOp10
 70
     1
102
RTVSPropertyOp11
 70
     1
102
RTVSPropertyOp12
 70
     1
102
RTVSPropertyOp13
 70
     1
102
RTVSPropertyOp14
 70
     1
102
RTVSPropertyOp15
 70
     1
102
RTVSPropertyOp16
 70
     1
102
RTVSPropertyOp17
 70
     1
102
RTVSPropertyOp18
 70
     1
102
RTVSPropertyOp19
 70
     1
102
RTVSPropertyOp20
 70
     1
102
RTVSPropertyOp21
 70
     1
102
RTVSPropertyOp22
 70
     1
102
RTVSPropertyOp23
 70
     1
102
RTVSPropertyOp24
 70
     1
102
RTVSPropertyOp25
 70
     1
102
RTVSPropertyOp26
 70
     1
102
RTVSPropertyOp27
 70
     1
102
RTVSPropertyOp28
 70
     1
102
RTVSPropertyOp29
 70
     1
102
RTVSPropertyOp30
 70
     1
102
RTVSPropertyOp31
 70
     1
102
RTVSPropertyOp32
 70
     1
  0
XRECORD
  5
14C
102
{ACAD_REACTORS
330
14B
102
}
330
14B
100
AcDbXrecord
280
     1
102
RTVSPropertyOp0
 70
     1
102
RTVSPropertyOp1
 70
     1
102
RTVSPropertyOp2
 70
     1
102
RTVSPropertyOp3
 70
     1
102
RTVSPropertyOp4
 70
     1
102
RTVSPropertyOp5
 70
     1
102
RTVSPropertyOp6
 70
     1
102
RTVSPropertyOp7
 70
     1
102
RTVSPropertyOp8
 70
     1
102
RTVSPropertyOp9
 70
     1
102
RTVSPropertyOp10
 70
     1
102
RTVSPropertyOp11
 70
     1
102
RTVSPropertyOp12
 70
     1
102
RTVSPropertyOp13
 70
     1
102
RTVSPropertyOp14
 70
     1
102
RTVSPropertyOp15
 70
     1
102
RTVSPropertyOp16
 70
     1
102
RTVSPropertyOp17
 70
     1
102
RTVSPropertyOp18
 70
     1
102
RTVSPropertyOp19
 70
     1
102
RTVSPropertyOp20
 70
     1
102
RTVSPropertyOp21
 70
     1
102
RTVSPropertyOp22
 70
     1
102
RTVSPropertyOp23
 70
     1
102
RTVSPropertyOp24
 70
     1
102
RTVSPropertyOp25
 70
     1
102
RTVSPropertyOp26
 70
     1
102
RTVSPropertyOp27
 70
     1
102
RTVSPropertyOp28
 70
     1
102
RTVSPropertyOp29
 70
     1
102
RTVSPropertyOp30
 70
     1
102
RTVSPropertyOp31
 70
     1
102
RTVSPropertyOp32
 70
     1
  0
XRECORD
  5
154
102
{ACAD_REACTORS
330
153
102
}
330
153
100
AcDbXrecord
280
     1
102
RTVSPropertyOp0
 70
     1
102
RTVSPropertyOp1
 70
     1
102
RTVSPropertyOp2
 70
     1
102
RTVSPropertyOp3
 70
     1
102
RTVSPropertyOp4
 70
     1
102
RTVSPropertyOp5
 70
     1
102
RTVSPropertyOp6
 70
     1
102
RTVSPropertyOp7
 70
     1
102
RTVSPropertyOp8
 70
     1
102
RTVSPropertyOp9
 70
     1
102
RTVSPropertyOp10
 70
     1
102
RTVSPropertyOp11
 70
     1
102
RTVSPropertyOp12
 70
     1
102
RTVSPropertyOp13
 70
     1
102
RTVSPropertyOp14
 70
     1
102
RTVSPropertyOp15
 70
     1
102
RTVSPropertyOp16
 70
     1
102
RTVSPropertyOp17
 70
     1
102
RTVSPropertyOp18
 70
     1
102
RTVSPropertyOp19
 70
     1
102
RTVSPropertyOp20
 70
     1
102
RTVSPropertyOp21
 70
     1
102
RTVSPropertyOp22
 70
     1
102
RTVSPropertyOp23
 70
     1
102
RTVSPropertyOp24
 70
     1
102
RTVSPropertyOp25
 70
     1
102
RTVSPropertyOp26
 70
     1
102
RTVSPropertyOp27
 70
     1
102
RTVSPropertyOp28
 70
     1
102
RTVSPropertyOp29
 70
     1
102
RTVSPropertyOp30
 70
     1
102
RTVSPropertyOp31
 70
     1
102
RTVSPropertyOp32
 70
     1
  0
XRECORD
  5
15C
102
{ACAD_REACTORS
330
15B
102
}
330
15B
100
AcDbXrecord
280
     1
102
RTVSPropertyOp0
 70
     1
102
RTVSPropertyOp1
 70
     1
102
RTVSPropertyOp2
 70
     1
102
RTVSPropertyOp3
 70
     1
102
RTVSPropertyOp4
 70
     1
102
RTVSPropertyOp5
 70
     1
102
RTVSPropertyOp6
 70
     1
102
RTVSPropertyOp7
 70
     1
102
RTVSPropertyOp8
 70
     1
102
RTVSPropertyOp9
 70
     1
102
RTVSPropertyOp10
 70
     1
102
RTVSPropertyOp11
 70
     1
102
RTVSPropertyOp12
 70
     1
102
RTVSPropertyOp13
 70
     1
102
RTVSPropertyOp14
 70
     1
102
RTVSPropertyOp15
 70
     1
102
RTVSPropertyOp16
 70
     1
102
RTVSPropertyOp17
 70
     1
102
RTVSPropertyOp18
 70
     1
102
RTVSPropertyOp19
 70
     1
102
RTVSPropertyOp20
 70
     1
102
RTVSPropertyOp21
 70
     1
102
RTVSPropertyOp22
 70
     1
102
RTVSPropertyOp23
 70
     1
102
RTVSPropertyOp24
 70
     1
102
RTVSPropertyOp25
 70
     1
102
RTVSPropertyOp26
 70
     1
102
RTVSPropertyOp27
 70
     1
102
RTVSPropertyOp28
 70
     1
102
RTVSPropertyOp29
 70
     1
102
RTVSPropertyOp30
 70
     1
102
RTVSPropertyOp31
 70
     1
102
RTVSPropertyOp32
 70
     1
  0
XRECORD
  5
150
102
{ACAD_REACTORS
330
14F
102
}
330
14F
100
AcDbXrecord
280
     1
102
RTVSPropertyOp0
 70
     1
102
RTVSPropertyOp1
 70
     1
102
RTVSPropertyOp2
 70
     1
102
RTVSPropertyOp3
 70
     1
102
RTVSPropertyOp4
 70
     1
102
RTVSPropertyOp5
 70
     1
102
RTVSPropertyOp6
 70
     1
102
RTVSPropertyOp7
 70
     1
102
RTVSPropertyOp8
 70
     1
102
RTVSPropertyOp9
 70
     1
102
RTVSPropertyOp10
 70
     1
102
RTVSPropertyOp11
 70
     1
102
RTVSPropertyOp12
 70
     1
102
RTVSPropertyOp13
 70
     1
102
RTVSPropertyOp14
 70
     1
102
RTVSPropertyOp15
 70
     1
102
RTVSPropertyOp16
 70
     1
102
RTVSPropertyOp17
 70
     1
102
RTVSPropertyOp18
 70
     1
102
RTVSPropertyOp19
 70
     1
102
RTVSPropertyOp20
 70
     1
102
RTVSPropertyOp21
 70
     1
102
RTVSPropertyOp22
 70
     1
102
RTVSPropertyOp23
 70
     1
102
RTVSPropertyOp24
 70
     1
102
RTVSPropertyOp25
 70
     1
102
RTVSPropertyOp26
 70
     1
102
RTVSPropertyOp27
 70
     1
102
RTVSPropertyOp28
 70
     1
102
RTVSPropertyOp29
 70
     1
102
RTVSPropertyOp30
 70
     1
102
RTVSPropertyOp31
 70
     1
102
RTVSPropertyOp32
 70
     1
  0
XRECORD
  5
152
102
{ACAD_REACTORS
330
151
102
}
330
151
100
AcDbXrecord
280
     1
102
RTVSPropertyOp0
 70
     1
102
RTVSPropertyOp1
 70
     1
102
RTVSPropertyOp2
 70
     1
102
RTVSPropertyOp3
 70
     1
102
RTVSPropertyOp4
 70
     1
102
RTVSPropertyOp5
 70
     1
102
RTVSPropertyOp6
 70
     1
102
RTVSPropertyOp7
 70
     1
102
RTVSPropertyOp8
 70
     1
102
RTVSPropertyOp9
 70
     1
102
RTVSPropertyOp10
 70
     1
102
RTVSPropertyOp11
 70
     1
102
RTVSPropertyOp12
 70
     1
102
RTVSPropertyOp13
 70
     1
102
RTVSPropertyOp14
 70
     1
102
RTVSPropertyOp15
 70
     1
102
RTVSPropertyOp16
 70
     1
102
RTVSPropertyOp17
 70
     1
102
RTVSPropertyOp18
 70
     1
102
RTVSPropertyOp19
 70
     1
102
RTVSPropertyOp20
 70
     1
102
RTVSPropertyOp21
 70
     1
102
RTVSPropertyOp22
 70
     1
102
RTVSPropertyOp23
 70
     1
102
RTVSPropertyOp24
 70
     1
102
RTVSPropertyOp25
 70
     1
102
RTVSPropertyOp26
 70
     1
102
RTVSPropertyOp27
 70
     1
102
RTVSPropertyOp28
 70
     1
102
RTVSPropertyOp29
 70
     1
102
RTVSPropertyOp30
 70
     1
102
RTVSPropertyOp31
 70
     1
102
RTVSPropertyOp32
 70
     1
  0
XRECORD
  5
15A
102
{ACAD_REACTORS
330
159
102
}
330
159
100
AcDbXrecord
280
     1
102
RTVSPropertyOp0
 70
     1
102
RTVSPropertyOp1
 70
     1
102
RTVSPropertyOp2
 70
     1
102
RTVSPropertyOp3
 70
     1
102
RTVSPropertyOp4
 70
     1
102
RTVSPropertyOp5
 70
     1
102
RTVSPropertyOp6
 70
     1
102
RTVSPropertyOp7
 70
     1
102
RTVSPropertyOp8
 70
     1
102
RTVSPropertyOp9
 70
     1
102
RTVSPropertyOp10
 70
     1
102
RTVSPropertyOp11
 70
     1
102
RTVSPropertyOp12
 70
     1
102
RTVSPropertyOp13
 70
     1
102
RTVSPropertyOp14
 70
     1
102
RTVSPropertyOp15
 70
     1
102
RTVSPropertyOp16
 70
     1
102
RTVSPropertyOp17
 70
     1
102
RTVSPropertyOp18
 70
     1
102
RTVSPropertyOp19
 70
     1
102
RTVSPropertyOp20
 70
     1
102
RTVSPropertyOp21
 70
     1
102
RTVSPropertyOp22
 70
     1
102
RTVSPropertyOp23
 70
     1
102
RTVSPropertyOp24
 70
     1
102
RTVSPropertyOp25
 70
     1
102
RTVSPropertyOp26
 70
     1
102
RTVSPropertyOp27
 70
     1
102
RTVSPropertyOp28
 70
     1
102
RTVSPropertyOp29
 70
     1
102
RTVSPropertyOp30
 70
     1
102
RTVSPropertyOp31
 70
     1
102
RTVSPropertyOp32
 70
     1
  0
XRECORD
  5
13E
102
{ACAD_REACTORS
330
13D
102
}
330
13D
100
AcDbXrecord
280
     1
102
RTVSPropertyOp0
 70
     1
102
RTVSPropertyOp1
 70
     1
102
RTVSPropertyOp2
 70
     1
102
RTVSPropertyOp3
 70
     1
102
RTVSPropertyOp4
 70
     1
102
RTVSPropertyOp5
 70
     1
102
RTVSPropertyOp6
 70
     1
102
RTVSPropertyOp7
 70
     1
102
RTVSPropertyOp8
 70
     1
102
RTVSPropertyOp9
 70
     1
102
RTVSPropertyOp10
 70
     1
102
RTVSPropertyOp11
 70
     1
102
RTVSPropertyOp12
 70
     1
102
RTVSPropertyOp13
 70
     1
102
RTVSPropertyOp14
 70
     1
102
RTVSPropertyOp15
 70
     1
102
RTVSPropertyOp16
 70
     1
102
RTVSPropertyOp17
 70
     1
102
RTVSPropertyOp18
 70
     1
102
RTVSPropertyOp19
 70
     1
102
RTVSPropertyOp20
 70
     1
102
RTVSPropertyOp21
 70
     1
102
RTVSPropertyOp22
 70
     1
102
RTVSPropertyOp23
 70
     1
102
RTVSPropertyOp24
 70
     1
102
RTVSPropertyOp25
 70
     1
102
RTVSPropertyOp26
 70
     1
102
RTVSPropertyOp27
 70
     1
102
RTVSPropertyOp28
 70
     1
102
RTVSPropertyOp29
 70
     1
102
RTVSPropertyOp30
 70
     1
102
RTVSPropertyOp31
 70
     1
102
RTVSPropertyOp32
 70
     1
  0
XRECORD
  5
140
102
{ACAD_REACTORS
330
13F
102
}
330
13F
100
AcDbXrecord
280
     1
102
RTVSPropertyOp0
 70
     1
102
RTVSPropertyOp1
 70
     1
102
RTVSPropertyOp2
 70
     1
102
RTVSPropertyOp3
 70
     1
102
RTVSPropertyOp4
 70
     1
102
RTVSPropertyOp5
 70
     1
102
RTVSPropertyOp6
 70
     1
102
RTVSPropertyOp7
 70
     1
102
RTVSPropertyOp8
 70
     1
102
RTVSPropertyOp9
 70
     1
102
RTVSPropertyOp10
 70
     1
102
RTVSPropertyOp11
 70
     1
102
RTVSPropertyOp12
 70
     1
102
RTVSPropertyOp13
 70
     1
102
RTVSPropertyOp14
 70
     1
102
RTVSPropertyOp15
 70
     1
102
RTVSPropertyOp16
 70
     1
102
RTVSPropertyOp17
 70
     1
102
RTVSPropertyOp18
 70
     1
102
RTVSPropertyOp19
 70
     1
102
RTVSPropertyOp20
 70
     1
102
RTVSPropertyOp21
 70
     1
102
RTVSPropertyOp22
 70
     1
102
RTVSPropertyOp23
 70
     1
102
RTVSPropertyOp24
 70
     1
102
RTVSPropertyOp25
 70
     1
102
RTVSPropertyOp26
 70
     1
102
RTVSPropertyOp27
 70
     1
102
RTVSPropertyOp28
 70
     1
102
RTVSPropertyOp29
 70
     1
102
RTVSPropertyOp30
 70
     1
102
RTVSPropertyOp31
 70
     1
102
RTVSPropertyOp32
 70
     1
  0
XRECORD
  5
142
102
{ACAD_REACTORS
330
141
102
}
330
141
100
AcDbXrecord
280
     1
102
RTVSPropertyOp0
 70
     1
102
RTVSPropertyOp1
 70
     1
102
RTVSPropertyOp2
 70
     1
102
RTVSPropertyOp3
 70
     1
102
RTVSPropertyOp4
 70
     1
102
RTVSPropertyOp5
 70
     1
102
RTVSPropertyOp6
 70
     1
102
RTVSPropertyOp7
 70
     1
102
RTVSPropertyOp8
 70
     1
102
RTVSPropertyOp9
 70
     1
102
RTVSPropertyOp10
 70
     1
102
RTVSPropertyOp11
 70
     1
102
RTVSPropertyOp12
 70
     1
102
RTVSPropertyOp13
 70
     1
102
RTVSPropertyOp14
 70
     1
102
RTVSPropertyOp15
 70
     1
102
RTVSPropertyOp16
 70
     1
102
RTVSPropertyOp17
 70
     1
102
RTVSPropertyOp18
 70
     1
102
RTVSPropertyOp19
 70
     1
102
RTVSPropertyOp20
 70
     1
102
RTVSPropertyOp21
 70
     1
102
RTVSPropertyOp22
 70
     1
102
RTVSPropertyOp23
 70
     1
102
RTVSPropertyOp24
 70
     1
102
RTVSPropertyOp25
 70
     1
102
RTVSPropertyOp26
 70
     1
102
RTVSPropertyOp27
 70
     1
102
RTVSPropertyOp28
 70
     1
102
RTVSPropertyOp29
 70
     1
102
RTVSPropertyOp30
 70
     1
102
RTVSPropertyOp31
 70
     1
102
RTVSPropertyOp32
 70
     1
  0
XRECORD
  5
144
102
{ACAD_REACTORS
330
143
102
}
330
143
100
AcDbXrecord
280
     1
102
RTVSPropertyOp0
 70
     1
102
RTVSPropertyOp1
 70
     1
102
RTVSPropertyOp2
 70
     1
102
RTVSPropertyOp3
 70
     1
102
RTVSPropertyOp4
 70
     1
102
RTVSPropertyOp5
 70
     1
102
RTVSPropertyOp6
 70
     1
102
RTVSPropertyOp7
 70
     1
102
RTVSPropertyOp8
 70
     1
102
RTVSPropertyOp9
 70
     1
102
RTVSPropertyOp10
 70
     1
102
RTVSPropertyOp11
 70
     1
102
RTVSPropertyOp12
 70
     1
102
RTVSPropertyOp13
 70
     1
102
RTVSPropertyOp14
 70
     1
102
RTVSPropertyOp15
 70
     1
102
RTVSPropertyOp16
 70
     1
102
RTVSPropertyOp17
 70
     1
102
RTVSPropertyOp18
 70
     1
102
RTVSPropertyOp19
 70
     1
102
RTVSPropertyOp20
 70
     1
102
RTVSPropertyOp21
 70
     1
102
RTVSPropertyOp22
 70
     1
102
RTVSPropertyOp23
 70
     1
102
RTVSPropertyOp24
 70
     1
102
RTVSPropertyOp25
 70
     1
102
RTVSPropertyOp26
 70
     1
102
RTVSPropertyOp27
 70
     1
102
RTVSPropertyOp28
 70
     1
102
RTVSPropertyOp29
 70
     1
102
RTVSPropertyOp30
 70
     1
102
RTVSPropertyOp31
 70
     1
102
RTVSPropertyOp32
 70
     1
  0
XRECORD
  5
158
102
{ACAD_REACTORS
330
157
102
}
330
157
100
AcDbXrecord
280
     1
102
RTVSPropertyOp0
 70
     1
102
RTVSPropertyOp1
 70
     1
102
RTVSPropertyOp2
 70
     1
102
RTVSPropertyOp3
 70
     1
102
RTVSPropertyOp4
 70
     1
102
RTVSPropertyOp5
 70
     1
102
RTVSPropertyOp6
 70
     1
102
RTVSPropertyOp7
 70
     1
102
RTVSPropertyOp8
 70
     1
102
RTVSPropertyOp9
 70
     1
102
RTVSPropertyOp10
 70
     1
102
RTVSPropertyOp11
 70
     1
102
RTVSPropertyOp12
 70
     1
102
RTVSPropertyOp13
 70
     1
102
RTVSPropertyOp14
 70
     1
102
RTVSPropertyOp15
 70
     1
102
RTVSPropertyOp16
 70
     1
102
RTVSPropertyOp17
 70
     1
102
RTVSPropertyOp18
 70
     1
102
RTVSPropertyOp19
 70
     1
102
RTVSPropertyOp20
 70
     1
102
RTVSPropertyOp21
 70
     1
102
RTVSPropertyOp22
 70
     1
102
RTVSPropertyOp23
 70
     1
102
RTVSPropertyOp24
 70
     1
102
RTVSPropertyOp25
 70
     1
102
RTVSPropertyOp26
 70
     1
102
RTVSPropertyOp27
 70
     1
102
RTVSPropertyOp28
 70
     1
102
RTVSPropertyOp29
 70
     1
102
RTVSPropertyOp30
 70
     1
102
RTVSPropertyOp31
 70
     1
102
RTVSPropertyOp32
 70
     1
  0
XRECORD
  5
14E
102
{ACAD_REACTORS
330
14D
102
}
330
14D
100
AcDbXrecord
280
     1
102
RTVSPropertyOp0
 70
     1
102
RTVSPropertyOp1
 70
     1
102
RTVSPropertyOp2
 70
     1
102
RTVSPropertyOp3
 70
     1
102
RTVSPropertyOp4
 70
     1
102
RTVSPropertyOp5
 70
     1
102
RTVSPropertyOp6
 70
     1
102
RTVSPropertyOp7
 70
     1
102
RTVSPropertyOp8
 70
     1
102
RTVSPropertyOp9
 70
     1
102
RTVSPropertyOp10
 70
     1
102
RTVSPropertyOp11
 70
     1
102
RTVSPropertyOp12
 70
     1
102
RTVSPropertyOp13
 70
     1
102
RTVSPropertyOp14
 70
     1
102
RTVSPropertyOp15
 70
     1
102
RTVSPropertyOp16
 70
     1
102
RTVSPropertyOp17
 70
     1
102
RTVSPropertyOp18
 70
     1
102
RTVSPropertyOp19
 70
     1
102
RTVSPropertyOp20
 70
     1
102
RTVSPropertyOp21
 70
     1
102
RTVSPropertyOp22
 70
     1
102
RTVSPropertyOp23
 70
     1
102
RTVSPropertyOp24
 70
     1
102
RTVSPropertyOp25
 70
     1
102
RTVSPropertyOp26
 70
     1
102
RTVSPropertyOp27
 70
     1
102
RTVSPropertyOp28
 70
     1
102
RTVSPropertyOp29
 70
     1
102
RTVSPropertyOp30
 70
     1
102
RTVSPropertyOp31
 70
     1
102
RTVSPropertyOp32
 70
     1
  0
XRECORD
  5
156
102
{ACAD_REACTORS
330
155
102
}
330
155
100
AcDbXrecord
280
     1
102
RTVSPropertyOp0
 70
     1
102
RTVSPropertyOp1
 70
     1
102
RTVSPropertyOp2
 70
     1
102
RTVSPropertyOp3
 70
     1
102
RTVSPropertyOp4
 70
     1
102
RTVSPropertyOp5
 70
     1
102
RTVSPropertyOp6
 70
     1
102
RTVSPropertyOp7
 70
     1
102
RTVSPropertyOp8
 70
     1
102
RTVSPropertyOp9
 70
     1
102
RTVSPropertyOp10
 70
     1
102
RTVSPropertyOp11
 70
     1
102
RTVSPropertyOp12
 70
     1
102
RTVSPropertyOp13
 70
     1
102
RTVSPropertyOp14
 70
     1
102
RTVSPropertyOp15
 70
     1
102
RTVSPropertyOp16
 70
     1
102
RTVSPropertyOp17
 70
     1
102
RTVSPropertyOp18
 70
     1
102
RTVSPropertyOp19
 70
     1
102
RTVSPropertyOp20
 70
     1
102
RTVSPropertyOp21
 70
     1
102
RTVSPropertyOp22
 70
     1
102
RTVSPropertyOp23
 70
     1
102
RTVSPropertyOp24
 70
     1
102
RTVSPropertyOp25
 70
     1
102
RTVSPropertyOp26
 70
     1
102
RTVSPropertyOp27
 70
     1
102
RTVSPropertyOp28
 70
     1
102
RTVSPropertyOp29
 70
     1
102
RTVSPropertyOp30
 70
     1
102
RTVSPropertyOp31
 70
     1
102
RTVSPropertyOp32
 70
     1
  0
ENDSEC
  0
EOF
