  0
SECTION
  2
HEADER
  9
$ACADVER
  1
AC1015
  9
$ACADMAINTVER
 70
     6
  9
$DWGCODEPAGE
  3
ANSI_932
  9
$INSBASE
 10
0.0
 20
0.0
 30
0.0
  9
$EXTMIN
 10
0.0
 20
-0.00000000000003
 30
0.0
  9
$EXTMAX
 10
419.9999999999998
 20
594.0
 30
0.0
  9
$LIMMIN
 10
0.0
 20
0.0
  9
$LIMMAX
 10
12.0
 20
9.0
  9
$ORTHOMODE
 70
     0
  9
$REGENMODE
 70
     1
  9
$FILLMODE
 70
     1
  9
$QTEXTMODE
 70
     0
  9
$MIRRTEXT
 70
     1
  9
$LTSCALE
 40
1.0
  9
$ATTMODE
 70
     1
  9
$TEXTSIZE
 40
0.2
  9
$TRACEWID
 40
0.05
  9
$TEXTSTYLE
  7
Standard
  9
$CLAYER
  8
0
  9
$CELTYPE
  6
ByLayer
  9
$CECOLOR
 62
   256
  9
$CELTSCALE
 40
1.0
  9
$DISPSILH
 70
     0
  9
$DIMSCALE
 40
1.0
  9
$DIMASZ
 40
0.18
  9
$DIMEXO
 40
0.0625
  9
$DIMDLI
 40
0.38
  9
$DIMRND
 40
0.0
  9
$DIMDLE
 40
0.0
  9
$DIMEXE
 40
0.18
  9
$DIMTP
 40
0.0
  9
$DIMTM
 40
0.0
  9
$DIMTXT
 40
0.18
  9
$DIMCEN
 40
0.09
  9
$DIMTSZ
 40
0.0
  9
$DIMTOL
 70
     0
  9
$DIMLIM
 70
     0
  9
$DIMTIH
 70
     1
  9
$DIMTOH
 70
     1
  9
$DIMSE1
 70
     0
  9
$DIMSE2
 70
     0
  9
$DIMTAD
 70
     0
  9
$DIMZIN
 70
     0
  9
$DIMBLK
  1

  9
$DIMASO
 70
     1
  9
$DIMSHO
 70
     1
  9
$DIMPOST
  1

  9
$DIMAPOST
  1

  9
$DIMALT
 70
     0
  9
$DIMALTD
 70
     2
  9
$DIMALTF
 40
25.4
  9
$DIMLFAC
 40
1.0
  9
$DIMTOFL
 70
     0
  9
$DIMTVP
 40
0.0
  9
$DIMTIX
 70
     0
  9
$DIMSOXD
 70
     0
  9
$DIMSAH
 70
     0
  9
$DIMBLK1
  1

  9
$DIMBLK2
  1

  9
$DIMSTYLE
  2
Standard
  9
$DIMCLRD
 70
     0
  9
$DIMCLRE
 70
     0
  9
$DIMCLRT
 70
     0
  9
$DIMTFAC
 40
1.0
  9
$DIMGAP
 40
0.09
  9
$DIMJUST
 70
     0
  9
$DIMSD1
 70
     0
  9
$DIMSD2
 70
     0
  9
$DIMTOLJ
 70
     1
  9
$DIMTZIN
 70
     0
  9
$DIMALTZ
 70
     0
  9
$DIMALTTZ
 70
     0
  9
$DIMUPT
 70
     0
  9
$DIMDEC
 70
     4
  9
$DIMTDEC
 70
     4
  9
$DIMALTU
 70
     2
  9
$DIMALTTD
 70
     2
  9
$DIMTXSTY
  7
Standard
  9
$DIMAUNIT
 70
     0
  9
$DIMADEC
 70
     0
  9
$DIMALTRND
 40
0.0
  9
$DIMAZIN
 70
     0
  9
$DIMDSEP
 70
    46
  9
$DIMATFIT
 70
     3
  9
$DIMFRAC
 70
     0
  9
$DIMLDRBLK
  1

  9
$DIMLUNIT
 70
     2
  9
$DIMLWD
 70
    -2
  9
$DIMLWE
 70
    -2
  9
$DIMTMOVE
 70
     0
  9
$LUNITS
 70
     2
  9
$LUPREC
 70
     4
  9
$SKETCHINC
 40
0.1
  9
$FILLETRAD
 40
0.5
  9
$AUNITS
 70
     0
  9
$AUPREC
 70
     0
  9
$MENU
  1
.
  9
$ELEVATION
 40
0.0
  9
$PELEVATION
 40
0.0
  9
$THICKNESS
 40
0.0
  9
$LIMCHECK
 70
     0
  9
$CHAMFERA
 40
0.5
  9
$CHAMFERB
 40
0.5
  9
$CHAMFERC
 40
1.0
  9
$CHAMFERD
 40
0.0
  9
$SKPOLY
 70
     0
  9
$TDCREATE
 40
2459759.624617315
  9
$TDUCREATE
 40
2459759.249617315
  9
$TDUPDATE
 40
2459759.624618403
  9
$TDUUPDATE
 40
2459759.249618403
  9
$TDINDWG
 40
0.0000000116
  9
$TDUSRTIMER
 40
0.0000000116
  9
$USRTIMER
 70
     1
  9
$ANGBASE
 50
0.0
  9
$ANGDIR
 70
     0
  9
$PDMODE
 70
     0
  9
$PDSIZE
 40
0.0
  9
$PLINEWID
 40
0.0
  9
$SPLFRAME
 70
     0
  9
$SPLINETYPE
 70
     6
  9
$SPLINESEGS
 70
     8
  9
$HANDSEED
  5
1C7
  9
$SURFTAB1
 70
     6
  9
$SURFTAB2
 70
     6
  9
$SURFTYPE
 70
     6
  9
$SURFU
 70
     6
  9
$SURFV
 70
     6
  9
$UCSBASE
  2

  9
$UCSNAME
  2

  9
$UCSORG
 10
0.0
 20
0.0
 30
0.0
  9
$UCSXDIR
 10
1.0
 20
0.0
 30
0.0
  9
$UCSYDIR
 10
0.0
 20
1.0
 30
0.0
  9
$UCSORTHOREF
  2

  9
$UCSORTHOVIEW
 70
     0
  9
$UCSORGTOP
 10
0.0
 20
0.0
 30
0.0
  9
$UCSORGBOTTOM
 10
0.0
 20
0.0
 30
0.0
  9
$UCSORGLEFT
 10
0.0
 20
0.0
 30
0.0
  9
$UCSORGRIGHT
 10
0.0
 20
0.0
 30
0.0
  9
$UCSORGFRONT
 10
0.0
 20
0.0
 30
0.0
  9
$UCSORGBACK
 10
0.0
 20
0.0
 30
0.0
  9
$PUCSBASE
  2

  9
$PUCSNAME
  2

  9
$PUCSORG
 10
0.0
 20
0.0
 30
0.0
  9
$PUCSXDIR
 10
1.0
 20
0.0
 30
0.0
  9
$PUCSYDIR
 10
0.0
 20
1.0
 30
0.0
  9
$PUCSORTHOREF
  2

  9
$PUCSORTHOVIEW
 70
     0
  9
$PUCSORGTOP
 10
0.0
 20
0.0
 30
0.0
  9
$PUCSORGBOTTOM
 10
0.0
 20
0.0
 30
0.0
  9
$PUCSORGLEFT
 10
0.0
 20
0.0
 30
0.0
  9
$PUCSORGRIGHT
 10
0.0
 20
0.0
 30
0.0
  9
$PUCSORGFRONT
 10
0.0
 20
0.0
 30
0.0
  9
$PUCSORGBACK
 10
0.0
 20
0.0
 30
0.0
  9
$USERI1
 70
     0
  9
$USERI2
 70
     0
  9
$USERI3
 70
     0
  9
$USERI4
 70
     0
  9
$USERI5
 70
     0
  9
$USERR1
 40
18.1
  9
$USERR2
 40
0.0
  9
$USERR3
 40
0.0
  9
$USERR4
 40
0.0
  9
$USERR5
 40
0.0
  9
$WORLDVIEW
 70
     1
  9
$SHADEDGE
 70
     3
  9
$SHADEDIF
 70
    70
  9
$TILEMODE
 70
     1
  9
$MAXACTVP
 70
    64
  9
$PINSBASE
 10
0.0
 20
0.0
 30
0.0
  9
$PLIMCHECK
 70
     0
  9
$PEXTMIN
 10
1.00000000000000E+20
 20
1.00000000000000E+20
 30
1.00000000000000E+20
  9
$PEXTMAX
 10
-1.00000000000000E+20
 20
-1.00000000000000E+20
 30
-1.00000000000000E+20
  9
$PLIMMIN
 10
0.0
 20
0.0
  9
$PLIMMAX
 10
12.0
 20
9.0
  9
$UNITMODE
 70
     0
  9
$VISRETAIN
 70
     1
  9
$PLINEGEN
 70
     0
  9
$PSLTSCALE
 70
     1
  9
$TREEDEPTH
 70
  3020
  9
$CMLSTYLE
  2
Standard
  9
$CMLJUST
 70
     0
  9
$CMLSCALE
 40
1.0
  9
$PROXYGRAPHICS
 70
     1
  9
$MEASUREMENT
 70
     1
  9
$CELWEIGHT
370
    -1
  9
$ENDCAPS
280
     0
  9
$JOINSTYLE
280
     0
  9
$LWDISPLAY
290
     0
  9
$INSUNITS
 70
     4
  9
$HYPERLINKBASE
  1

  9
$STYLESHEET
  1

  9
$XEDIT
290
     1
  9
$CEPSNTYPE
380
     0
  9
$PSTYLEMODE
290
     1
  9
$FINGERPRINTGUID
  2
{9BA98F54-70EB-4DC1-9880-C79891163801}
  9
$VERSIONGUID
  2
{FAEB1C32-E019-11D5-929B-00C0DF256EC4}
  9
$EXTNAMES
290
     1
  9
$PSVPSCALE
 40
0.0
  9
$OLESTARTUP
290
     0
  0
ENDSEC
  0
SECTION
  2
CLASSES
  0
CLASS
  1
ACDBDICTIONARYWDFLT
  2
AcDbDictionaryWithDefault
  3
ObjectDBX Classes
 90
        0
280
     0
281
     0
  0
CLASS
  1
VISUALSTYLE
  2
AcDbVisualStyle
  3
ObjectDBX Classes
 90
     4095
280
     0
281
     0
  0
CLASS
  1
MATERIAL
  2
AcDbMaterial
  3
ObjectDBX Classes
 90
     1153
280
     0
281
     0
  0
CLASS
  1
DICTIONARYVAR
  2
AcDbDictionaryVar
  3
ObjectDBX Classes
 90
        0
280
     0
281
     0
  0
CLASS
  1
ACDBPLACEHOLDER
  2
AcDbPlaceHolder
  3
ObjectDBX Classes
 90
        0
280
     0
281
     0
  0
CLASS
  1
LAYOUT
  2
AcDbLayout
  3
ObjectDBX Classes
 90
        0
280
     0
281
     0
  0
ENDSEC
  0
SECTION
  2
TABLES
  0
TABLE
  2
VPORT
  5
8
330
0
100
AcDbSymbolTable
 70
     1
  0
VPORT
  5
29
330
8
100
AcDbSymbolTableRecord
100
AcDbViewportTableRecord
  2
*Active
 70
     0
 10
0.0
 20
0.0
 11
1.0
 21
1.0
 12
209.9999999999999
 22
297.0
 13
0.0
 23
0.0
 14
0.5
 24
0.5
 15
0.5
 25
0.5
 16
0.0
 26
0.0
 36
1.0
 17
0.0
 27
0.0
 37
0.0
 40
653.4000000000001
 41
1.60267857142857
 42
50.0
 43
0.0
 44
0.0
 50
0.0
 51
0.0
 71
     0
 72
   100
 73
     1
 74
     3
 75
     0
 76
     0
 77
     0
 78
     0
281
     0
 65
     1
110
0.0
120
0.0
130
0.0
111
1.0
121
0.0
131
0.0
112
0.0
122
1.0
132
0.0
 79
     0
146
0.0
  0
ENDTAB
  0
TABLE
  2
LTYPE
  5
5
330
0
100
AcDbSymbolTable
 70
     8
  0
LTYPE
  5
14
330
5
100
AcDbSymbolTableRecord
100
AcDbLinetypeTableRecord
  2
ByBlock
 70
     0
  3

 72
    65
 73
     0
 40
0.0
  0
LTYPE
  5
15
330
5
100
AcDbSymbolTableRecord
100
AcDbLinetypeTableRecord
  2
ByLayer
 70
     0
  3

 72
    65
 73
     0
 40
0.0
  0
LTYPE
  5
16
330
5
100
AcDbSymbolTableRecord
100
AcDbLinetypeTableRecord
  2
Continuous
 70
     0
  3
Solid line
 72
    65
 73
     0
 40
0.0
  0
LTYPE
  5
3F
330
5
100
AcDbSymbolTableRecord
100
AcDbLinetypeTableRecord
  2
DASHED
 70
     0
  3
Dashed
 72
    65
 73
     2
 40
15.0
 49
7.0
 74
     0
 49
-8.0
 74
     0
  0
LTYPE
  5
40
330
5
100
AcDbSymbolTableRecord
100
AcDbLinetypeTableRecord
  2
DOTTED
 70
     0
  3
Dotted
 72
    65
 73
     2
 40
1.0
 49
0.0
 74
     0
 49
-1.0
 74
     0
  0
LTYPE
  5
41
330
5
100
AcDbSymbolTableRecord
100
AcDbLinetypeTableRecord
  2
DOT_CENTER
 70
     0
  3
Dot_Center
 72
    65
 73
     4
 40
14.0
 49
12.0
 74
     0
 49
-1.0
 74
     0
 49
0.0
 74
     0
 49
-1.0
 74
     0
  0
LTYPE
  5
42
330
5
100
AcDbSymbolTableRecord
100
AcDbLinetypeTableRecord
  2
LONG_DASHED
 70
     0
  3
Long_Dashed
 72
    65
 73
     2
 40
15.0
 49
10.0
 74
     0
 49
-5.0
 74
     0
  0
LTYPE
  5
43
330
5
100
AcDbSymbolTableRecord
100
AcDbLinetypeTableRecord
  2
DASH_CENTER
 70
     0
  3
Dash_Center
 72
    65
 73
     4
 40
14.0
 49
11.0
 74
     0
 49
-1.0
 74
     0
 49
1.0
 74
     0
 49
-1.0
 74
     0
  0
LTYPE
  5
44
330
5
100
AcDbSymbolTableRecord
100
AcDbLinetypeTableRecord
  2
PHANTOM
 70
     0
  3
Phantom
 72
    65
 73
     6
 40
13.0
 49
10.0
 74
     0
 49
-1.0
 74
     0
 49
0.0
 74
     0
 49
-1.0
 74
     0
 49
0.0
 74
     0
 49
-1.0
 74
     0
  0
LTYPE
  5
45
330
5
100
AcDbSymbolTableRecord
100
AcDbLinetypeTableRecord
  2
CENTER_DASH_DASH
 70
     0
  3
Center_Dash_Dash
 72
    65
 73
     6
 40
14.0
 49
9.0
 74
     0
 49
-1.0
 74
     0
 49
1.0
 74
     0
 49
-1.0
 74
     0
 49
1.0
 74
     0
 49
-1.0
 74
     0
  0
ENDTAB
  0
TABLE
  2
LAYER
  5
2
330
0
100
AcDbSymbolTable
 70
     3
  0
LAYER
  5
10
330
2
100
AcDbSymbolTableRecord
100
AcDbLayerTableRecord
  2
0
 70
     0
 62
     7
  6
Continuous
370
    -3
390
F
  0
LAYER
  5
46
330
2
100
AcDbSymbolTableRecord
100
AcDbLayerTableRecord
  2
1
 70
     0
 62
     7
  6
Continuous
370
    -3
390
F
  0
LAYER
  5
47
330
2
100
AcDbSymbolTableRecord
100
AcDbLayerTableRecord
  2
_U_30EC_U_30A4_U_30E4_U_30FC_1
 70
     0
 62
     7
  6
Continuous
370
    -3
390
F
  0
ENDTAB
  0
TABLE
  2
STYLE
  5
3
330
0
100
AcDbSymbolTable
 70
     3
  0
STYLE
  5
11
330
3
100
AcDbSymbolTableRecord
100
AcDbTextStyleTableRecord
  2
Standard
 70
     0
 40
0.0
 41
1.0
 50
0.0
 71
     0
 42
0.2
  3
txt
  4

  0
STYLE
  5
C2
330
3
100
AcDbSymbolTableRecord
100
AcDbTextStyleTableRecord
  2
CONVERTER_11
 70
     0
 40
0.0
 41
0.89
 50
0.0
 71
     0
 42
0.2
  3
MS Mincho.ttf
  4

1001
ACAD
1000
MS Mincho
1071
    32785
  0
STYLE
  5
165
330
3
100
AcDbSymbolTableRecord
100
AcDbTextStyleTableRecord
  2
CONVERTER_12
 70
     0
 40
0.0
 41
0.9
 50
0.0
 71
     0
 42
0.2
  3
txt.shx
  4

  0
ENDTAB
  0
TABLE
  2
VIEW
  5
6
330
0
100
AcDbSymbolTable
 70
     0
  0
ENDTAB
  0
TABLE
  2
UCS
  5
7
330
0
100
AcDbSymbolTable
 70
     0
  0
ENDTAB
  0
TABLE
  2
APPID
  5
9
330
0
100
AcDbSymbolTable
 70
     1
  0
APPID
  5
12
330
9
100
AcDbSymbolTableRecord
100
AcDbRegAppTableRecord
  2
ACAD
 70
     0
  0
ENDTAB
  0
TABLE
  2
DIMSTYLE
  5
A
330
0
100
AcDbSymbolTable
 70
     4
100
AcDbDimStyleTable
  0
DIMSTYLE
105
27
330
A
100
AcDbSymbolTableRecord
100
AcDbDimStyleTableRecord
  2
Standard
 70
     0
178
     0
340
11
  0
DIMSTYLE
105
17C
102
{ACAD_REACTORS
330
17D
102
}
330
A
100
AcDbSymbolTableRecord
100
AcDbDimStyleTableRecord
  2
ME10_DIM_10
 70
     0
  3
{\Fgdt;n}<>
 41
7.0
 42
0.0
 44
2.0
 73
     0
 74
     0
 77
     1
 78
     8
140
7.0
147
2.0
172
     1
173
     1
174
     1
175
     1
176
     2
177
     2
271
     2
178
     7
271
     2
340
165
  0
DIMSTYLE
105
187
102
{ACAD_REACTORS
330
188
102
}
330
A
100
AcDbSymbolTableRecord
100
AcDbDimStyleTableRecord
  2
ME10_DIM_11
 70
     0
 41
7.0
 42
0.0
 44
2.0
 73
     0
 74
     0
 77
     1
 78
     8
140
7.0
147
2.0
172
     1
173
     1
174
     1
175
     1
176
     2
177
     2
271
     2
178
     7
271
     2
340
165
  0
DIMSTYLE
105
192
102
{ACAD_REACTORS
330
193
102
}
330
A
100
AcDbSymbolTableRecord
100
AcDbDimStyleTableRecord
  2
ME10_DIM_12
 70
     0
  3
{\Fgdt;n}<>
 41
7.0
 42
0.0
 44
2.0
 73
     0
 74
     0
 77
     1
 78
     8
140
7.0
147
2.0
172
     1
173
     1
174
     1
175
     1
176
     2
177
     2
271
     2
178
     7
271
     2
340
165
  0
ENDTAB
  0
TABLE
  2
BLOCK_RECORD
  5
1
330
0
100
AcDbSymbolTable
 70
    11
  0
BLOCK_RECORD
  5
1F
330
1
100
AcDbSymbolTableRecord
100
AcDbBlockTableRecord
  2
*Model_Space
340
22
  0
BLOCK_RECORD
  5
1B
330
1
100
AcDbSymbolTableRecord
100
AcDbBlockTableRecord
  2
*Paper_Space
340
1E
  0
BLOCK_RECORD
  5
23
330
1
100
AcDbSymbolTableRecord
100
AcDbBlockTableRecord
  2
*Paper_Space0
340
26
  0
BLOCK_RECORD
  5
48
330
1
100
AcDbSymbolTableRecord
100
AcDbBlockTableRecord
  2
開示A4
340
0
102
{BLKREFS
331
4C
102
}
  0
BLOCK_RECORD
  5
4B
330
1
100
AcDbSymbolTableRecord
100
AcDbBlockTableRecord
  2
開示A4枠
340
0
102
{BLKREFS
331
5B
102
}
  0
BLOCK_RECORD
  5
4F
330
1
100
AcDbSymbolTableRecord
100
AcDbBlockTableRecord
  2
tote
340
0
102
{BLKREFS
331
5C
102
}
  0
BLOCK_RECORD
  5
52
330
1
100
AcDbSymbolTableRecord
100
AcDbBlockTableRecord
  2
futi
340
0
102
{BLKREFS
331
5D
102
}
  0
BLOCK_RECORD
  5
55
330
1
100
AcDbSymbolTableRecord
100
AcDbBlockTableRecord
  2
ami
340
0
102
{BLKREFS
331
5E
102
}
  0
BLOCK_RECORD
  5
58
330
1
100
AcDbSymbolTableRecord
100
AcDbBlockTableRecord
  2
mezoko
340
0
102
{BLKREFS
331
5F
102
}
  0
BLOCK_RECORD
  5
172
330
1
100
AcDbSymbolTableRecord
100
AcDbBlockTableRecord
  2
*D7
340
0
  0
BLOCK_RECORD
  5
17E
330
1
100
AcDbSymbolTableRecord
100
AcDbBlockTableRecord
  2
*D8
340
0
  0
BLOCK_RECORD
  5
189
330
1
100
AcDbSymbolTableRecord
100
AcDbBlockTableRecord
  2
*D9
340
0
  0
BLOCK_RECORD
  5
194
330
1
100
AcDbSymbolTableRecord
100
AcDbBlockTableRecord
  2
*D10
340
0
102
{BLKREFS
331
19B
102
}
  0
ENDTAB
  0
ENDSEC
  0
SECTION
  2
BLOCKS
  0
BLOCK
  5
20
330
1F
100
AcDbEntity
  8
0
100
AcDbBlockBegin
  2
*Model_Space
 70
     0
 10
0.0
 20
0.0
 30
0.0
  3
*Model_Space
  1

  0
ENDBLK
  5
21
330
1F
100
AcDbEntity
  8
0
100
AcDbBlockEnd
  0
BLOCK
  5
1C
330
1B
100
AcDbEntity
 67
     1
  8
0
100
AcDbBlockBegin
  2
*Paper_Space
 70
     0
 10
0.0
 20
0.0
 30
0.0
  3
*Paper_Space
  1

  0
ENDBLK
  5
1D
330
1B
100
AcDbEntity
 67
     1
  8
0
100
AcDbBlockEnd
  0
BLOCK
  5
24
330
23
100
AcDbEntity
  8
0
100
AcDbBlockBegin
  2
*Paper_Space0
 70
     0
 10
0.0
 20
0.0
 30
0.0
  3
*Paper_Space0
  1

  0
ENDBLK
  5
25
330
23
100
AcDbEntity
  8
0
100
AcDbBlockEnd
  0
BLOCK
  5
49
330
48
100
AcDbEntity
  8
0
100
AcDbBlockBegin
  2
開示A4
 70
     0
 10
0.0
 20
-0.00000000000001
 30
0.0
  3
開示A4
  1

  0
POINT
  5
60
330
48
100
AcDbEntity
  8
1
 62
     4
100
AcDbPoint
 10
182.9999999999999
 20
15.0
 30
0.0
  0
POINT
  5
61
330
48
100
AcDbEntity
  8
1
 62
     4
100
AcDbPoint
 10
93.74999999999997
 20
16.99999999999999
 30
0.0
  0
POINT
  5
62
330
48
100
AcDbEntity
  8
1
 62
     4
100
AcDbPoint
 10
85.24999999999997
 20
16.99999999999999
 30
0.0
  0
POINT
  5
63
330
48
100
AcDbEntity
  8
1
 62
     4
100
AcDbPoint
 10
106.5
 20
19.0
 30
0.0
  0
POINT
  5
64
330
48
100
AcDbEntity
  8
1
 62
     4
100
AcDbPoint
 10
106.5
 20
12.49999999999999
 30
0.0
  0
POINT
  5
65
330
48
100
AcDbEntity
  8
1
 62
     4
100
AcDbPoint
 10
112.25
 20
12.49999999999999
 30
0.0
  0
POINT
  5
66
330
48
100
AcDbEntity
  8
1
 62
     4
100
AcDbPoint
 10
100.75
 20
12.49999999999999
 30
0.0
  0
POINT
  5
67
330
48
100
AcDbEntity
  8
1
 62
     4
100
AcDbPoint
 10
123.5
 20
19.0
 30
0.0
  0
POINT
  5
68
330
48
100
AcDbEntity
  8
1
 62
     4
100
AcDbPoint
 10
123.5
 20
12.49999999999999
 30
0.0
  0
POINT
  5
69
330
48
100
AcDbEntity
  8
1
 62
     4
100
AcDbPoint
 10
129.25
 20
12.49999999999999
 30
0.0
  0
POINT
  5
6A
330
48
100
AcDbEntity
  8
1
 62
     4
100
AcDbPoint
 10
117.75
 20
12.49999999999999
 30
0.0
  0
POINT
  5
6B
330
48
100
AcDbEntity
  8
1
 62
     4
100
AcDbPoint
 10
140.5
 20
19.0
 30
0.0
  0
POINT
  5
6C
330
48
100
AcDbEntity
  8
1
 62
     4
100
AcDbPoint
 10
140.5
 20
12.49999999999999
 30
0.0
  0
POINT
  5
6D
330
48
100
AcDbEntity
  8
1
 62
     4
100
AcDbPoint
 10
146.25
 20
12.49999999999999
 30
0.0
  0
POINT
  5
6E
330
48
100
AcDbEntity
  8
1
 62
     4
100
AcDbPoint
 10
134.75
 20
12.49999999999999
 30
0.0
  0
POINT
  5
6F
330
48
100
AcDbEntity
  8
1
 62
     4
100
AcDbPoint
 10
151.75
 20
12.49999999999999
 30
0.0
  0
POINT
  5
70
330
48
100
AcDbEntity
  8
1
 62
     4
100
AcDbPoint
 10
163.25
 20
12.49999999999999
 30
0.0
  0
POINT
  5
71
330
48
100
AcDbEntity
  8
1
 62
     4
100
AcDbPoint
 10
157.5
 20
12.49999999999999
 30
0.0
  0
POINT
  5
72
330
48
100
AcDbEntity
  8
1
 62
     4
100
AcDbPoint
 10
57.0
 20
14.24999999999999
 30
0.0
  0
POINT
  5
73
330
48
100
AcDbEntity
  8
1
 62
     4
100
AcDbPoint
 10
57.0
 20
22.75
 30
0.0
  0
POINT
  5
74
330
48
100
AcDbEntity
  8
1
 62
     4
100
AcDbPoint
 10
47.5
 20
282.0000000000003
 30
0.0
  0
POINT
  5
75
330
48
100
AcDbEntity
  8
1
 62
     4
100
AcDbPoint
 10
157.5
 20
19.0
 30
0.0
  0
POINT
  5
76
330
48
100
AcDbEntity
  8
1
 62
     4
100
AcDbPoint
 10
57.0
 20
16.24999999999999
 30
0.0
  0
POINT
  5
77
330
48
100
AcDbEntity
  8
1
 62
     4
100
AcDbPoint
 10
57.0
 20
24.75
 30
0.0
  0
POINT
  5
78
330
48
100
AcDbEntity
  8
1
 62
     4
100
AcDbPoint
 10
57.0
 20
20.75
 30
0.0
  0
POINT
  5
79
330
48
100
AcDbEntity
  8
1
 62
     4
100
AcDbPoint
 10
57.0
 20
12.24999999999999
 30
0.0
  0
POINT
  5
7A
330
48
100
AcDbEntity
  8
1
 62
     4
100
AcDbPoint
 10
34.0
 20
33.99999999999999
 30
0.0
  0
LINE
  5
7F
330
48
100
AcDbEntity
  8
1
  6
Continuous
 62
     7
100
AcDbLine
 10
105.0
 20
9.99999999999999
 30
0.0
 11
199.9999999999999
 21
9.99999999999999
 31
0.0
  0
LINE
  5
80
330
48
100
AcDbEntity
  8
1
  6
Continuous
 62
     2
100
AcDbLine
 10
105.0
 20
9.99999999999999
 30
0.0
 11
105.0
 21
4.99999999999999
 31
0.0
  0
LINE
  5
81
330
48
100
AcDbEntity
  8
1
  6
Continuous
 62
     7
100
AcDbLine
 10
199.9999999999999
 20
148.5
 30
0.0
 11
199.9999999999999
 21
287.0000000000003
 31
0.0
  0
LINE
  5
82
330
48
100
AcDbEntity
  8
1
  6
Continuous
 62
     2
100
AcDbLine
 10
199.9999999999999
 20
148.5
 30
0.0
 11
204.9999999999999
 21
148.5
 31
0.0
  0
LINE
  5
83
330
48
100
AcDbEntity
  8
1
  6
Continuous
 62
     7
100
AcDbLine
 10
25.0
 20
148.5
 30
0.0
 11
25.0
 21
287.0000000000003
 31
0.0
  0
LINE
  5
84
330
48
100
AcDbEntity
  8
1
  6
Continuous
 62
     2
100
AcDbLine
 10
25.0
 20
148.5
 30
0.0
 11
20.0
 21
148.5
 31
0.0
  0
LINE
  5
85
330
48
100
AcDbEntity
  8
1
  6
Continuous
 62
     7
100
AcDbLine
 10
105.0
 20
287.0000000000003
 30
0.0
 11
25.0
 21
287.0000000000003
 31
0.0
  0
LINE
  5
86
330
48
100
AcDbEntity
  8
1
  6
Continuous
 62
     2
100
AcDbLine
 10
105.0
 20
287.0000000000003
 30
0.0
 11
105.0
 21
292.0000000000003
 31
0.0
  0
LINE
  5
87
330
48
100
AcDbEntity
  8
1
  6
Continuous
 62
     2
100
AcDbLine
 10
166.0
 20
20.0
 30
0.0
 11
199.9999999999999
 21
20.0
 31
0.0
  0
LINE
  5
88
330
48
100
AcDbEntity
  8
1
  6
Continuous
 62
     2
100
AcDbLine
 10
97.99999999999997
 20
27.0
 30
0.0
 11
97.99999999999997
 21
9.99999999999997
 31
0.0
  0
LINE
  5
89
330
48
100
AcDbEntity
  8
1
  6
Continuous
 62
     2
100
AcDbLine
 10
115.0
 20
27.0
 30
0.0
 11
115.0
 21
9.99999999999997
 31
0.0
  0
LINE
  5
8A
330
48
100
AcDbEntity
  8
1
  6
Continuous
 62
     2
100
AcDbLine
 10
149.0
 20
27.0
 30
0.0
 11
149.0
 21
9.99999999999999
 31
0.0
  0
LINE
  5
8B
330
48
100
AcDbEntity
  8
1
  6
Continuous
 62
     2
100
AcDbLine
 10
132.0
 20
27.0
 30
0.0
 11
132.0
 21
9.99999999999997
 31
0.0
  0
LINE
  5
8C
330
48
100
AcDbEntity
  8
1
  6
Continuous
 62
     2
100
AcDbLine
 10
166.0
 20
27.0
 30
0.0
 11
166.0
 21
9.99999999999999
 31
0.0
  0
LINE
  5
8D
330
48
100
AcDbEntity
  8
1
  6
Continuous
 62
     2
100
AcDbLine
 10
55.0
 20
277.0000000000003
 30
0.0
 11
25.0
 21
277.0000000000003
 31
0.0
  0
LINE
  5
8E
330
48
100
AcDbEntity
  8
1
  6
Continuous
 62
     7
100
AcDbLine
 10
25.0
 20
9.99999999999999
 30
0.0
 11
25.0
 21
148.5
 31
0.0
  0
LINE
  5
8F
330
48
100
AcDbEntity
  8
1
  6
Continuous
 62
     2
100
AcDbLine
 10
40.0
 20
287.0000000000003
 30
0.0
 11
40.0
 21
277.0000000000003
 31
0.0
  0
LINE
  5
90
330
48
100
AcDbEntity
  8
1
  6
Continuous
 62
     2
100
AcDbLine
 10
55.0
 20
287.0000000000003
 30
0.0
 11
55.0
 21
277.0000000000003
 31
0.0
  0
LINE
  5
91
330
48
100
AcDbEntity
  8
1
  6
Continuous
 62
     2
100
AcDbLine
 10
33.0
 20
40.99999999999999
 30
0.0
 11
33.0
 21
26.99999999999999
 31
0.0
  0
LINE
  5
92
330
48
100
AcDbEntity
  8
1
  6
Continuous
 62
     7
100
AcDbLine
 10
199.9999999999999
 20
27.0
 30
0.0
 11
25.0
 21
27.0
 31
0.0
  0
LINE
  5
93
330
48
100
AcDbEntity
  8
1
  6
Continuous
 62
     7
100
AcDbLine
 10
25.0
 20
40.99999999999999
 30
0.0
 11
199.9999999999999
 21
40.99999999999999
 31
0.0
  0
LINE
  5
94
330
48
100
AcDbEntity
  8
1
  6
PHANTOM
 62
     4
100
AcDbLine
 10
0.0
 20
-0.00000000000001
 30
0.0
 11
209.9999999999999
 21
-0.00000000000001
 31
0.0
  0
LINE
  5
95
330
48
100
AcDbEntity
  8
1
  6
PHANTOM
 62
     4
100
AcDbLine
 10
209.9999999999999
 20
-0.00000000000001
 30
0.0
 11
209.9999999999999
 21
297.0
 31
0.0
  0
LINE
  5
96
330
48
100
AcDbEntity
  8
1
  6
PHANTOM
 62
     4
100
AcDbLine
 10
209.9999999999999
 20
297.0
 30
0.0
 11
0.0
 21
297.0
 31
0.0
  0
LINE
  5
97
330
48
100
AcDbEntity
  8
1
  6
PHANTOM
 62
     4
100
AcDbLine
 10
0.0
 20
297.0
 30
0.0
 11
0.0
 21
-0.00000000000001
 31
0.0
  0
LINE
  5
98
330
48
100
AcDbEntity
  8
1
  6
Continuous
 62
     7
100
AcDbLine
 10
25.0
 20
9.99999999999999
 30
0.0
 11
105.0
 21
9.99999999999999
 31
0.0
  0
LINE
  5
99
330
48
100
AcDbEntity
  8
1
  6
Continuous
 62
     7
100
AcDbLine
 10
199.9999999999999
 20
9.99999999999999
 30
0.0
 11
199.9999999999999
 21
148.5
 31
0.0
  0
LINE
  5
9A
330
48
100
AcDbEntity
  8
1
  6
Continuous
 62
     7
100
AcDbLine
 10
199.9999999999999
 20
287.0000000000003
 30
0.0
 11
105.0
 21
287.0000000000003
 31
0.0
  0
LINE
  5
9B
330
48
100
AcDbEntity
  8
1
  6
Continuous
 62
     2
100
AcDbLine
 10
25.0
 20
18.5
 30
0.0
 11
80.99999999999997
 21
18.5
 31
0.0
  0
LINE
  5
9C
330
48
100
AcDbEntity
  8
1
  6
Continuous
 62
     2
100
AcDbLine
 10
33.0
 20
26.99999999999999
 30
0.0
 11
33.0
 21
9.99999999999999
 31
0.0
  0
LINE
  5
9D
330
48
100
AcDbEntity
  8
1
  6
Continuous
 62
     7
100
AcDbLine
 10
190.9999999999999
 20
24.69999999999999
 30
0.0
 11
190.9999999999999
 21
22.3
 31
0.0
  0
LINE
  5
9E
330
48
100
AcDbEntity
  8
1
  6
Continuous
 62
     7
100
AcDbLine
 10
190.9999999999999
 20
24.69999999999999
 30
0.0
 11
195.9999999999999
 21
25.5
 31
0.0
  0
LINE
  5
9F
330
48
100
AcDbEntity
  8
1
  6
Continuous
 62
     7
100
AcDbLine
 10
195.9999999999999
 20
25.5
 30
0.0
 11
195.9999999999999
 21
21.5
 31
0.0
  0
LINE
  5
A0
330
48
100
AcDbEntity
  8
1
  6
Continuous
 62
     7
100
AcDbLine
 10
195.9999999999999
 20
21.5
 30
0.0
 11
190.9999999999999
 21
22.3
 31
0.0
  0
LINE
  5
A1
330
48
100
AcDbEntity
  8
1
  6
DOT_CENTER
 62
     2
100
AcDbLine
 10
183.9999999999999
 20
23.5
 30
0.0
 11
196.9999999999999
 21
23.5
 31
0.0
  0
LINE
  5
A2
330
48
100
AcDbEntity
  8
1
  6
DOT_CENTER
 62
     2
100
AcDbLine
 10
186.9999999999999
 20
26.5
 30
0.0
 11
186.9999999999999
 21
20.5
 31
0.0
  0
LINE
  5
A3
330
48
100
AcDbEntity
  8
1
  6
Continuous
 62
     2
100
AcDbLine
 10
80.99999999999997
 20
27.0
 30
0.0
 11
80.99999999999997
 21
9.99999999999999
 31
0.0
  0
CIRCLE
  5
A4
330
48
100
AcDbEntity
  8
1
  6
Continuous
 62
     7
100
AcDbCircle
 10
103.5
 20
12.49999999999999
 30
0.0
 40
0.2999999999999972
  0
CIRCLE
  5
A5
330
48
100
AcDbEntity
  8
1
  6
Continuous
 62
     7
100
AcDbCircle
 10
109.5
 20
12.49999999999999
 30
0.0
 40
0.2999999999999972
  0
CIRCLE
  5
A6
330
48
100
AcDbEntity
  8
1
  6
Continuous
 62
     7
100
AcDbCircle
 10
120.5
 20
12.49999999999999
 30
0.0
 40
0.2999999999999972
  0
CIRCLE
  5
A7
330
48
100
AcDbEntity
  8
1
  6
Continuous
 62
     7
100
AcDbCircle
 10
126.5
 20
12.49999999999999
 30
0.0
 40
0.2999999999999972
  0
CIRCLE
  5
A8
330
48
100
AcDbEntity
  8
1
  6
Continuous
 62
     7
100
AcDbCircle
 10
137.5
 20
12.49999999999999
 30
0.0
 40
0.3000000000000114
  0
CIRCLE
  5
A9
330
48
100
AcDbEntity
  8
1
  6
Continuous
 62
     7
100
AcDbCircle
 10
143.5
 20
12.49999999999999
 30
0.0
 40
0.3000000000000114
  0
CIRCLE
  5
AA
330
48
100
AcDbEntity
  8
1
  6
Continuous
 62
     7
100
AcDbCircle
 10
160.5
 20
12.49999999999999
 30
0.0
 40
0.3000000000000114
  0
CIRCLE
  5
AB
330
48
100
AcDbEntity
  8
1
  6
Continuous
 62
     7
100
AcDbCircle
 10
154.5
 20
12.49999999999999
 30
0.0
 40
0.3000000000000114
  0
CIRCLE
  5
AC
330
48
100
AcDbEntity
  8
1
  6
Continuous
 62
     7
100
AcDbCircle
 10
186.9999999999999
 20
23.5
 30
0.0
 40
1.200000000000216
  0
CIRCLE
  5
AD
330
48
100
AcDbEntity
  8
1
  6
Continuous
 62
     7
100
AcDbCircle
 10
186.9999999999999
 20
23.5
 30
0.0
 40
2.0
  0
CIRCLE
  5
AE
330
48
100
AcDbEntity
  8
1
  6
DOT_CENTER
 62
     7
100
AcDbCircle
 10
89.49999999999997
 20
15.99999999999999
 30
0.0
 40
0.1000000000000227
  0
CIRCLE
  5
AF
330
48
100
AcDbEntity
  8
1
  6
DOT_CENTER
 62
     7
100
AcDbCircle
 10
89.49999999999997
 20
17.99999999999999
 30
0.0
 40
0.1000000000000227
  0
SPLINE
  5
B0
102
{ACAD_REACTORS
330
CF
102
}
330
48
100
AcDbEntity
  8
_U_30EC_U_30A4_U_30E4_U_30FC_1
  6
Continuous
 62
     2
100
AcDbSpline
210
0.0
220
0.0
230
1.0
 70
     8
 71
     3
 72
    24
 73
    20
 74
    18
 42
0.000000001
 43
0.0000000001
 44
0.00000001
 40
0.0
 40
0.0
 40
0.0
 40
0.0
 40
0.2211075008753934
 40
0.4273218586245242
 40
0.5080174679239252
 40
0.5914835907870132
 40
0.81432656901926
 40
1.054651302686571
 40
1.295452694023157
 40
1.518109231328808
 40
1.540864321905422
 40
1.595126460622683
 40
1.659890947895996
 40
1.714153085187354
 40
1.736908174961654
 40
1.764951100735344
 40
1.801562291220933
 40
1.953914424543609
 40
2.126104167379698
 40
2.126104167379698
 40
2.126104167379698
 40
2.126104167379698
 10
185.9375369556889
 20
15.58989295113014
 30
0.0
 10
185.9112579081811
 20
15.53097628234372
 30
0.0
 10
185.8604698894426
 20
15.41711139679257
 30
0.0
 10
185.8131784839111
 20
15.14441958233114
 30
0.0
 10
185.7043482802618
 20
15.24445482575453
 30
0.0
 10
185.5514800279637
 20
15.27118593367329
 30
0.0
 10
185.7686155181199
 20
15.4851813501763
 30
0.0
 10
185.783848367438
 20
15.70332117782485
 30
0.0
 10
185.8906889492001
 20
15.88451579066424
 30
0.0
 10
185.8305380947077
 20
16.16913226311399
 30
0.0
 10
185.9334317395402
 20
16.14114089222448
 30
0.0
 10
185.977993346815
 20
16.13243251602298
 30
0.0
 10
186.0380842395396
 20
16.12139654183354
 30
0.0
 10
186.0756619587438
 20
16.10767523055558
 30
0.0
 10
186.1252466928606
 20
16.10756076160222
 30
0.0
 10
186.0930158919326
 20
16.07306592398622
 30
0.0
 10
186.0171802221881
 20
16.08404104537963
 30
0.0
 10
186.0429447159694
 20
15.89858969582448
 30
0.0
 10
186.0055896763849
 20
15.80702313549587
 30
0.0
 10
185.9857704961609
 20
15.75844135397703
 30
0.0
 11
185.9375369556889
 21
15.58989295113014
 31
0.0
 11
185.8616471328552
 21
15.38221708318558
 31
0.0
 11
185.7717402238433
 21
15.19663392356191
 31
0.0
 11
185.701149392311
 21
15.2357327256355
 31
0.0
 11
185.6245525192651
 21
15.26889163187718
 31
0.0
 11
185.7214026947455
 21
15.46958801203536
 31
0.0
 11
185.7994641467471
 21
15.69688163177022
 31
0.0
 11
185.858971692972
 21
15.9302143660869
 31
0.0
 11
185.9001601511226
 21
16.14902808999052
 31
0.0
 11
185.9224183822214
 21
16.14429889221393
 31
0.0
 11
185.975495702534
 21
16.13302157443897
 31
0.0
 11
186.0388460525844
 21
16.1195615499979
 31
0.0
 11
186.091923372897
 21
16.10828423222295
 31
0.0
 11
186.1141816039958
 21
16.10355503444636
 31
0.0
 11
186.096409715746
 21
16.08186250841008
 31
0.0
 11
186.0606122998071
 21
16.07418628445366
 31
0.0
 11
186.028195330148
 21
15.92532288171312
 31
0.0
 11
185.9857704961609
 21
15.75844135397703
 31
0.0
  0
SPLINE
  5
B1
102
{ACAD_REACTORS
330
CF
102
}
330
48
100
AcDbEntity
  8
_U_30EC_U_30A4_U_30E4_U_30FC_1
  6
Continuous
 62
     2
100
AcDbSpline
210
0.0
220
0.0
230
1.0
 70
     8
 71
     3
 72
    70
 73
    66
 74
    64
 42
0.000000001
 43
0.0000000001
 44
0.00000001
 40
0.0
 40
0.0
 40
0.0
 40
0.0
 40
0.0241731073021472
 40
0.0846058988987013
 40
0.1631685280353284
 40
0.2417311571789756
 40
0.3021639488292751
 40
0.3263370654895541
 40
0.3533118254248899
 40
0.4228783438922129
 40
0.5179999095313402
 40
0.6216398239466084
 40
0.7167613891499688
 40
0.7863279069649846
 40
0.8133026791761818
 40
0.8372943998771656
 40
0.8945054261372849
 40
0.9627895541962621
 40
1.020000580349072
 40
1.04399230097517
 40
1.071934345522903
 40
1.113121768772915
 40
1.14522519933224
 40
1.225483775412775
 40
1.329819923771483
 40
1.434156071994373
 40
1.514414647795792
 40
1.5465180782084
 40
1.578974764260174
 40
1.662678849314169
 40
1.777131373668389
 40
1.90183337747478
 40
2.01628590050057
 40
2.099989982527937
 40
2.132446666570296
 40
2.15878235448602
 40
2.216720867907808
 40
2.274659381334232
 40
2.300995069256166
 40
2.333451754066138
 40
2.417155836543818
 40
2.531608358985258
 40
2.656310362283753
 40
2.770762886388885
 40
2.854466971340051
 40
2.886923657363857
 40
2.913597976833289
 40
2.982389642875093
 40
3.076451716946957
 40
3.178937260458566
 40
3.272999334739968
 40
3.341791001059191
 40
3.368465320663502
 40
3.396976080738723
 40
3.472140811845959
 40
3.578408190308648
 40
3.700226892456085
 40
3.822045594634302
 40
3.928312973256409
 40
4.003477705314806
 40
4.031988456866872
 40
4.058324144797671
 40
4.116262658236836
 40
4.17420117140064
 40
4.200536849608573
 40
4.200536849608573
 40
4.200536849608573
 40
4.200536849608573
 10
185.9857704961609
 20
15.75844135397703
 30
0.0
 10
185.9938259544679
 20
15.75844359811684
 30
0.0
 10
186.0220200663241
 20
15.75845146032796
 30
0.0
 10
186.0765534803672
 20
15.7583075482837
 30
0.0
 10
186.1482891808604
 20
15.75909120499896
 30
0.0
 10
186.2236240137062
 20
15.75627570463809
 30
0.0
 10
186.2713052366439
 20
15.76298403400955
 30
0.0
 10
186.3195071245616
 20
15.7519756369243
 30
0.0
 10
186.3062571799873
 20
15.80546402997031
 30
0.0
 10
186.3151093964538
 20
15.86049583543089
 30
0.0
 10
186.3108698036285
 20
15.95419908726107
 30
0.0
 10
186.313348348128
 20
16.0495948221853
 30
0.0
 10
186.309093870606
 20
16.14356821983385
 30
0.0
 10
186.3179818665846
 20
16.1979506243801
 30
0.0
 10
186.3046977409945
 20
16.25233997691458
 30
0.0
 10
186.3514119277109
 20
16.23842216335355
 30
0.0
 10
186.3943254545736
 20
16.24103877374042
 30
0.0
 10
186.4605443456684
 20
16.23648422450752
 30
0.0
 10
186.5013342271799
 20
16.2277816213416
 30
0.0
 10
186.5525145690818
 20
16.23531799890193
 30
0.0
 10
186.5253720487201
 20
16.19349970223283
 30
0.0
 10
186.4803096055707
 20
16.20284992072594
 30
0.0
 10
186.4942065045051
 20
16.13841207371835
 30
0.0
 10
186.4858414431653
 20
16.07378219627397
 30
0.0
 10
186.4903632178398
 20
15.97529141193885
 30
0.0
 10
186.4854741311167
 20
15.87595932842568
 30
0.0
 10
186.4950258992082
 20
15.81293115552967
 30
0.0
 10
186.47997614552
 20
15.74964011499786
 30
0.0
 10
186.5449159457208
 20
15.76515072944267
 30
0.0
 10
186.6116246399496
 20
15.7549938769781
 30
0.0
 10
186.7241435470828
 20
15.75988800099365
 30
0.0
 10
186.8390235448954
 20
15.75691204732782
 30
0.0
 10
186.9519871999747
 20
15.76221664184989
 30
0.0
 10
187.0176267597678
 20
15.75107306472087
 30
0.0
 10
187.0816276691053
 20
15.76744532319855
 30
0.0
 10
187.070314288919
 20
15.71761689905273
 30
0.0
 10
187.0775339871509
 20
15.67416715212121
 30
0.0
 10
187.0703142611269
 20
15.63071745587442
 30
0.0
 10
187.0816277175994
 20
15.58088895196875
 30
0.0
 10
187.0176263598971
 20
15.5972616609136
 30
0.0
 10
186.951992124046
 20
15.58611271661586
 30
0.0
 10
186.838997431733
 20
15.59144857206852
 30
0.0
 10
186.7242456548644
 20
15.5883434566382
 30
0.0
 10
186.611318368686
 20
15.59364894682587
 30
0.0
 10
186.5455220903584
 20
15.58257300019591
 30
0.0
 10
186.4816097975358
 20
15.59887597847616
 30
0.0
 10
186.4936015165125
 20
15.5442352439574
 30
0.0
 10
186.4862104613005
 20
15.4885429504784
 30
0.0
 10
186.4892684841983
 20
15.39649689140569
 30
0.0
 10
186.4893422785682
 20
15.30179109873099
 30
0.0
 10
186.486031357836
 20
15.20952782902264
 30
0.0
 10
186.4939505989904
 20
15.15435768736138
 30
0.0
 10
186.4815076611617
 20
15.10058169100135
 30
0.0
 10
186.5389116551632
 20
15.1145376886278
 30
0.0
 10
186.5994708140383
 20
15.10511457884225
 30
0.0
 10
186.7048680855081
 20
15.10942885928704
 30
0.0
 10
186.8204294070622
 20
15.1083550461203
 30
0.0
 10
186.9359688877797
 20
15.10725965900994
 30
0.0
 10
187.0414181130841
 20
15.11162525770632
 30
0.0
 10
187.1018680471804
 20
15.1020942603067
 30
0.0
 10
187.159283773911
 20
15.11617289606379
 30
0.0
 10
187.1477773876709
 20
15.06707153265681
 30
0.0
 10
187.153756678175
 20
15.02564658018647
 30
0.0
 10
187.1520311050801
 20
14.97651677966694
 30
0.0
 10
187.1521500122971
 20
14.94854428447606
 30
0.0
 10
187.1521871691833
 20
14.93980288195948
 30
0.0
 11
185.9857704961609
 21
15.75844135397703
 31
0.0
 11
186.0099436128282
 21
15.75844135397703
 31
0.0
 11
186.0703764044962
 21
15.75844135397703
 31
0.0
 11
186.1489390336648
 21
15.75844135397703
 31
0.0
 11
186.2275016628334
 21
15.75844135397703
 31
0.0
 11
186.2879344545015
 21
15.75844135397703
 31
0.0
 11
186.3121075711687
 21
15.75844135397703
 31
0.0
 11
186.3121075711687
 21
15.78541612620061
 31
0.0
 11
186.3121075711687
 21
15.85498264404037
 31
0.0
 11
186.3121075711687
 21
15.95010420924983
 31
0.0
 11
186.3121075711687
 21
16.05374412358254
 31
0.0
 11
186.3121075711687
 21
16.148865688792
 31
0.0
 11
186.3121075711687
 21
16.21843220663176
 31
0.0
 11
186.3121075711687
 21
16.24540697885534
 31
0.0
 11
186.3360407604892
 21
16.24373213107798
 31
0.0
 11
186.3931122119458
 21
16.2397382633012
 31
0.0
 11
186.461229750781
 21
16.23497138885793
 31
0.0
 11
186.5183012022376
 21
16.23097752108115
 31
0.0
 11
186.5422343915581
 21
16.22930267330379
 31
0.0
 11
186.5274972731229
 21
16.20556293372638
 31
0.0
 11
186.4886640249976
 21
16.1918376733131
 31
0.0
 11
186.4886640249976
 21
16.15973424225117
 31
0.0
 11
186.4886640249976
 21
16.07947566459634
 31
0.0
 11
186.4886640249976
 21
15.97513951364506
 31
0.0
 11
186.4886640249976
 21
15.87080336269379
 31
0.0
 11
186.4886640249976
 21
15.79054478503896
 31
0.0
 11
186.4886640249976
 21
15.75844135397703
 31
0.0
 11
186.5211207110824
 21
15.75844135397703
 31
0.0
 11
186.6048247962486
 21
15.75844135397703
 31
0.0
 11
186.7192773208634
 21
15.75844135397703
 31
0.0
 11
186.8439793252946
 21
15.75844135397703
 31
0.0
 11
186.9584318499095
 21
15.75844135397703
 31
0.0
 11
187.0421359350756
 21
15.75844135397703
 31
0.0
 11
187.0745926211604
 21
15.75844135397703
 31
0.0
 11
187.0745926211604
 21
15.73210566604959
 31
0.0
 11
187.0745926211604
 21
15.67416715260923
 31
0.0
 11
187.0745926211604
 21
15.61622863916886
 31
0.0
 11
187.0745926211604
 21
15.58989295124142
 31
0.0
 11
187.0421359350756
 21
15.58989295124142
 31
0.0
 11
186.9584318499095
 21
15.58989295124142
 31
0.0
 11
186.8439793252946
 21
15.58989295124142
 31
0.0
 11
186.7192773208634
 21
15.58989295124142
 31
0.0
 11
186.6048247962485
 21
15.58989295124142
 31
0.0
 11
186.5211207110824
 21
15.58989295124142
 31
0.0
 11
186.4886640249976
 21
15.58989295124142
 31
0.0
 11
186.4886640249976
 21
15.5632186315202
 31
0.0
 11
186.4886640249976
 21
15.49442696487073
 31
0.0
 11
186.4886640249976
 21
15.40036489006432
 31
0.0
 11
186.4886640249976
 21
15.29787934587226
 31
0.0
 11
186.4886640249976
 21
15.20381727106585
 31
0.0
 11
186.4886640249976
 21
15.13502560441638
 31
0.0
 11
186.4886640249976
 21
15.10835128469516
 31
0.0
 11
186.5171747850993
 21
15.10835128469516
 31
0.0
 11
186.5923395162766
 21
15.10835128469516
 31
0.0
 11
186.6986068948376
 21
15.10835128469516
 31
0.0
 11
186.8204255970904
 21
15.10835128469516
 31
0.0
 11
186.9422442993433
 21
15.10835128469516
 31
0.0
 11
187.0485116779043
 21
15.10835128469516
 31
0.0
 11
187.1236764090816
 21
15.10835128469516
 31
0.0
 11
187.1521871691833
 21
15.10835128469516
 31
0.0
 11
187.1521871691833
 21
15.08201559676771
 31
0.0
 11
187.1521871691833
 21
15.02407708332732
 31
0.0
 11
187.1521871691833
 21
14.96613856988693
 31
0.0
 11
187.1521871691833
 21
14.93980288195948
 31
0.0
  0
SPLINE
  5
B2
102
{ACAD_REACTORS
330
CF
102
}
330
48
100
AcDbEntity
  8
_U_30EC_U_30A4_U_30E4_U_30FC_1
  6
Continuous
 62
     2
100
AcDbSpline
210
0.0
220
0.0
230
1.0
 70
     8
 71
     3
 72
    62
 73
    58
 74
    56
 42
0.000000001
 43
0.0000000001
 44
0.00000001
 40
0.0
 40
0.0
 40
0.0
 40
0.0
 40
0.0598250028308769
 40
0.2024846486897616
 40
0.3727558389221315
 40
0.5154154847936923
 40
0.5752404975786192
 40
0.9332326775488206
 40
1.290451762839593
 40
1.602077253146015
 40
1.699931634112286
 40
1.799359756425191
 40
2.270120149657235
 40
2.804661928461699
 40
2.88234228738341
 40
3.076543185719263
 40
3.329004354835724
 40
3.581465524568551
 40
3.775666424543835
 40
3.853346784558455
 40
3.899120679595201
 40
3.984129341792199
 40
4.029903236817548
 40
4.105797496059701
 40
4.295533144152659
 40
4.542189486611901
 40
4.788845828875846
 40
4.978581476410229
 40
5.054475735244472
 40
5.621734664339482
 40
6.130867242037499
 40
6.225249780948761
 40
6.318913039727502
 40
6.663579954559165
 40
7.047498900225034
 40
7.435230791575962
 40
7.498943906668374
 40
7.650875181210368
 40
7.832212509001878
 40
7.984143783697264
 40
8.04785689890339
 40
8.0915546327329
 40
8.172707566964561
 40
8.216405300768287
 40
8.289021782161171
 40
8.462184160757545
 40
8.668861838005625
 40
8.842024215264217
 40
8.914640695475413
 40
8.989881580861615
 40
9.155411528827521
 40
9.320941477744304
 40
9.396182352487552
 40
9.454709011144098
 40
9.583467660171033
 40
9.712226309013312
 40
9.770752957989766
 40
9.770752957989766
 40
9.770752957989766
 40
9.770752957989766
 10
187.1521871691833
 20
14.93980288195948
 30
0.0
 10
187.1322348171623
 20
14.93980875568669
 30
0.0
 10
187.0647037716465
 20
14.93982863806155
 30
0.0
 10
186.9410612161788
 20
14.93949362520324
 30
0.0
 10
186.7863180150056
 20
14.9410767375051
 30
0.0
 10
186.6697349482479
 20
14.93686078860493
 30
0.0
 10
186.455094263424
 20
14.95215205331625
 30
0.0
 10
186.8518948407228
 20
14.5919872128619
 30
0.0
 10
186.8945656069266
 20
14.37510503397165
 30
0.0
 10
187.3189162146612
 20
14.19325062511442
 30
0.0
 10
187.1439821496074
 20
14.08985196568073
 30
0.0
 10
187.0194523925083
 20
13.87831523212717
 30
0.0
 10
186.7666277235943
 20
14.34806081001563
 30
0.0
 10
186.4797602893626
 20
14.99511516984521
 30
0.0
 10
186.490633592666
 20
14.68782672154693
 30
0.0
 10
186.488289277796
 20
14.52288616971777
 30
0.0
 10
186.4861096126411
 20
14.28879670711692
 30
0.0
 10
186.4980774396346
 20
14.04498072421782
 30
0.0
 10
186.468798474063
 20
13.89855796860983
 30
0.0
 10
186.511452262547
 20
13.75113490174537
 30
0.0
 10
186.4239814005639
 20
13.76685797306219
 30
0.0
 10
186.3768527606744
 20
13.76694303543453
 30
0.0
 10
186.2898973207712
 20
13.75109425482908
 30
0.0
 10
186.3313474021722
 20
13.89527771422761
 30
0.0
 10
186.3029875004285
 20
14.03855052698454
 30
0.0
 10
186.31459737753
 20
14.27674947365263
 30
0.0
 10
186.3124175648271
 20
14.50517235240345
 30
0.0
 10
186.3103111127993
 20
14.66705729375992
 30
0.0
 10
186.3208035438324
 20
14.98153709333751
 30
0.0
 10
186.0128963252893
 20
14.29229470872432
 30
0.0
 10
185.7055258267455
 20
13.81476750243053
 30
0.0
 10
185.5851367066274
 20
14.03741112637426
 30
0.0
 10
185.407460791072
 20
14.15011034955562
 30
0.0
 10
185.8853326362894
 20
14.32548143465459
 30
0.0
 10
185.9353959057207
 20
14.56091929252028
 30
0.0
 10
186.3583799621717
 20
14.95322989344605
 30
0.0
 10
186.127675427354
 20
14.93655307029064
 30
0.0
 10
186.004968585934
 20
14.94269518948768
 30
0.0
 10
185.8325483095661
 20
14.93312822699571
 30
0.0
 10
185.7213224694449
 20
14.95448818489664
 30
0.0
 10
185.6025779627447
 20
14.92136265357417
 30
0.0
 10
185.6183169706686
 20
15.00203900606882
 30
0.0
 10
185.6178550933762
 20
15.04645414290852
 30
0.0
 10
185.6027881889931
 20
15.12967081778532
 30
0.0
 10
185.7372380935442
 20
15.09062651983881
 30
0.0
 10
185.8619755545747
 20
15.11739729328422
 30
0.0
 10
186.062875523728
 20
15.10063949044051
 30
0.0
 10
186.1921540949353
 20
15.12204225913003
 30
0.0
 10
186.3328419928295
 20
15.0886877885342
 30
0.0
 10
186.2980927452614
 20
15.22651875785066
 30
0.0
 10
186.3222185666713
 20
15.34963257349479
 30
0.0
 10
186.2967086182392
 20
15.47024055670333
 30
0.0
 10
186.3333251146685
 20
15.60539865141493
 30
0.0
 10
186.2211417027769
 20
15.58094545781888
 30
0.0
 10
186.1280356457136
 20
15.59307749842021
 30
0.0
 10
186.0191547579819
 20
15.58957630069991
 30
0.0
 10
185.9569697640964
 20
15.58981755951601
 30
0.0
 10
185.9375369557246
 20
15.58989295124142
 30
0.0
 11
187.1521871691833
 21
14.93980288195948
 31
0.0
 11
187.0923621563982
 21
14.93980288195948
 31
0.0
 11
186.9497025105259
 21
14.93980288195948
 31
0.0
 11
186.7794313202913
 21
14.93980288195948
 31
0.0
 11
186.636771674419
 21
14.93980288195948
 31
0.0
 11
186.5769466616339
 21
14.93980288195948
 31
0.0
 11
186.7679960754842
 21
14.63705127966889
 31
0.0
 11
186.9941272785629
 21
14.36051890576682
 31
0.0
 11
187.2244526173371
 21
14.15061253493455
 31
0.0
 11
187.1521596330703
 21
14.08466403668715
 31
0.0
 11
187.0879364402643
 21
14.00876059052558
 31
0.0
 11
186.7732818215558
 21
14.35891458349361
 31
0.0
 11
186.4886640249976
 21
14.811382951436
 31
0.0
 11
186.4886640249976
 21
14.73370259137312
 31
0.0
 11
186.4886640249976
 21
14.53950169121592
 31
0.0
 11
186.4886640249976
 21
14.28704052101155
 31
0.0
 11
186.4886640249976
 21
14.03457935080719
 31
0.0
 11
186.4886640249976
 21
13.84037845064999
 31
0.0
 11
186.4886640249976
 21
13.76269809058711
 31
0.0
 11
186.4428901295605
 21
13.76269809058711
 31
0.0
 11
186.3578814666058
 21
13.76269809058711
 31
0.0
 11
186.3121075711687
 21
13.76269809058711
 31
0.0
 11
186.3121075711687
 21
13.83859234982739
 31
0.0
 11
186.3121075711687
 21
14.0283279979281
 31
0.0
 11
186.3121075711687
 21
14.27498434045902
 31
0.0
 11
186.3121075711687
 21
14.52164068298994
 31
0.0
 11
186.3121075711687
 21
14.71137633109065
 31
0.0
 11
186.3121075711687
 21
14.78727059033093
 31
0.0
 11
185.9987626399266
 21
14.31440946197692
 31
0.0
 11
185.6352328662148
 21
13.9579517710938
 31
0.0
 11
185.5773927461627
 21
14.0325345054502
 31
0.0
 11
185.509485230534
 21
14.09704322939241
 31
0.0
 11
185.7750721898319
 21
14.31672219795888
 31
0.0
 11
186.0233764972061
 21
14.60953395971696
 31
0.0
 11
186.226498280526
 21
14.93980288195948
 31
0.0
 11
186.1627851652721
 21
14.93980288195948
 31
0.0
 11
186.0108538904359
 21
14.93980288195948
 31
0.0
 11
185.8295165624055
 21
14.93980288195948
 31
0.0
 11
185.6775852875693
 21
14.93980288195948
 31
0.0
 11
185.6138721723154
 21
14.93980288195948
 31
0.0
 11
185.6138721723154
 21
14.98350061600206
 31
0.0
 11
185.6138721723154
 21
15.06465355065258
 31
0.0
 11
185.6138721723154
 21
15.10835128469516
 31
0.0
 11
185.6864886537961
 21
15.10835128469516
 31
0.0
 11
185.8596510327118
 21
15.10835128469516
 31
0.0
 11
186.0663287107723
 21
15.10835128469516
 31
0.0
 11
186.239491089688
 21
15.10835128469516
 31
0.0
 11
186.3121075711687
 21
15.10835128469516
 31
0.0
 11
186.3121075711687
 21
15.18359217009301
 31
0.0
 11
186.3121075711687
 21
15.34912211796829
 31
0.0
 11
186.3121075711687
 21
15.51465206584357
 31
0.0
 11
186.3121075711687
 21
15.58989295124142
 31
0.0
 11
186.2535809125055
 21
15.58989295124142
 31
0.0
 11
186.1248222634467
 21
15.58989295124142
 31
0.0
 11
185.9960636143877
 21
15.58989295124142
 31
0.0
 11
185.9375369557246
 21
15.58989295124142
 31
0.0
  0
SPLINE
  5
B3
102
{ACAD_REACTORS
330
D0
102
}
330
48
100
AcDbEntity
  8
_U_30EC_U_30A4_U_30E4_U_30FC_1
  6
Continuous
 62
     2
100
AcDbSpline
210
0.0
220
0.0
230
1.0
 70
    11
 71
     3
 72
   124
 73
   120
 74
   118
 42
0.000000001
 43
0.0000000001
 44
0.00000001
 40
0.0
 40
0.0
 40
0.0
 40
0.0
 40
0.027818722962451
 40
0.1011590162384269
 40
0.2048470170590239
 40
0.3237088716559245
 40
0.4425707262522
 40
0.5462587270699547
 40
0.6195990203311798
 40
0.647417752257866
 40
0.6750060736115224
 40
0.7357003855242741
 40
0.7963946998054474
 40
0.8239830245571766
 40
0.854093381110286
 40
0.937339662940954
 40
1.063094687343235
 40
1.220731268638073
 40
1.399622220914748
 40
1.589140358637732
 40
1.778658496423898
 40
1.957549448940509
 40
2.115186030873159
 40
2.240941056914463
 40
2.324187341760532
 40
2.354297700109382
 40
2.38188602467189
 40
2.442580338710477
 40
2.503274652750499
 40
2.530862977314606
 40
2.560983949278559
 40
2.640393784452905
 40
2.752662861759128
 40
2.881361560118145
 40
3.010060258455192
 40
3.122329335705339
 40
3.201739170817953
 40
3.231860142753313
 40
3.26429802403037
 40
3.352343701778239
 40
3.48209522686876
 40
3.639650650173022
 40
3.811108022565478
 40
3.982565394927986
 40
4.140120818152565
 40
4.269872343141276
 40
4.357918020802336
 40
4.390355902043965
 40
4.423256253992535
 40
4.508104530073056
 40
4.624121560636824
 40
4.750528176031581
 40
4.866545206602027
 40
4.951393482691985
 40
4.984293834645386
 40
5.011450833242301
 40
5.071196230152087
 40
5.130941627057163
 40
5.158098625648829
 40
5.190998977601519
 40
5.275847253689345
 40
5.391864284256779
 40
5.518270899648324
 40
5.634287930209363
 40
5.719136206288037
 40
5.752036558235925
 40
5.78213094628295
 40
5.862783906229123
 40
5.979550131774992
 40
6.117984316640396
 40
6.263641154587943
 40
6.402075339414147
 40
6.518841564907944
 40
6.599494524815525
 40
6.629588912848763
 40
6.65440302822634
 40
6.713575149488107
 40
6.784199939329424
 40
6.843372060493526
 40
6.868186175802772
 40
6.896246243201858
 40
6.939586233758255
 40
6.967846564564886
 40
7.043584251089821
 40
7.153234334451677
 40
7.283231855734425
 40
7.420011856035457
 40
7.550009376579809
 40
7.659659458835207
 40
7.7353971444172
 40
7.763657474851372
 40
7.796409728011029
 40
7.880876065096303
 40
7.996370852465689
 40
8.122208446418584
 40
8.237703224799178
 40
8.322169562010872
 40
8.354921815205886
 40
8.382078813307666
 40
8.441824209206974
 40
8.501569605240123
 40
8.528726603485701
 40
8.56147885669575
 40
8.6459451938778
 40
8.761439980865312
 40
8.887277580764454
 40
9.002772362000975
 40
9.087238696661196
 40
9.11999094923565
 40
9.152428830613347
 40
9.240474508638563
 40
9.370226034149516
 40
9.527781457984398
 40
9.699238830981386
 40
9.870696203978577
 40
10.028251627814
 40
10.15800315332561
 40
10.24604883135116
 40
10.27848670378519
 40
10.27848670378519
 40
10.27848670378519
 40
10.27848670378519
 10
195.3821827564383
 20
14.01410517385756
 30
0.0
 10
195.3914554737523
 20
14.01410498511273
 30
0.0
 10
195.4251744536861
 20
14.01410430876713
 30
0.0
 10
195.4934706812465
 20
14.01411807243304
 30
0.0
 10
195.592014171158
 20
14.01403224219544
 30
0.0
 10
195.7062066464812
 20
14.01441755612249
 30
0.0
 10
195.818589441707
 20
14.01300835897544
 30
0.0
 10
195.9214376600118
 20
14.01719117422242
 30
0.0
 10
195.9806839874849
 20
14.00823089251982
 30
0.0
 10
196.0371265937033
 20
14.0216443452606
 30
0.0
 10
196.0246255586955
 20
13.97087198613361
 30
0.0
 10
196.0329549635703
 20
13.92589320939065
 30
0.0
 10
196.024817084112
 20
13.88056752990487
 30
0.0
 10
196.0370529214457
 20
13.82931932408465
 30
0.0
 10
195.9747773490333
 20
13.84447955365275
 30
0.0
 10
195.9060513026868
 20
13.83359750710742
 30
0.0
 10
195.7782756749592
 20
13.83911304747971
 30
0.0
 10
195.6262984511643
 20
13.83700851253697
 30
0.0
 10
195.4502695972523
 20
13.83771002588473
 30
0.0
 10
195.2644431934287
 20
13.8374523753129
 30
0.0
 10
195.0786167437175
 20
13.83771005144602
 30
0.0
 10
194.9025880142168
 20
13.8370084184773
 30
0.0
 10
194.7506104154195
 20
13.83911332229988
 30
0.0
 10
194.6228357664554
 20
13.83359680767639
 30
0.0
 10
194.5541077836581
 20
13.84448077125941
 30
0.0
 10
194.4918349042883
 20
13.82931786684209
 30
0.0
 10
194.5040616290017
 20
13.8805751080517
 30
0.0
 10
194.4960004462597
 20
13.92582473272424
 30
0.0
 10
194.5040675809892
 20
13.97106357955322
 30
0.0
 10
194.4918238487083
 20
14.02234176909957
 30
0.0
 10
194.5525017120697
 20
14.00749577363134
 30
0.0
 10
194.6162810745736
 20
14.01756448170734
 30
0.0
 10
194.7277314353502
 20
14.01294644211998
 30
0.0
 10
194.8497533443824
 20
14.01413328905468
 30
0.0
 10
194.9719538137823
 20
14.01515863900633
 30
0.0
 10
195.0829794287392
 20
14.010924756234
 30
0.0
 10
195.1476517413958
 20
14.02018584521738
 30
0.0
 10
195.2091162810501
 20
14.00604423049682
 30
0.0
 10
195.1930065601337
 20
14.07235527884515
 30
0.0
 10
195.2042980327358
 20
14.14447790121975
 30
0.0
 10
195.198740082256
 20
14.27513760888285
 30
0.0
 10
195.2008035061691
 20
14.4260732370824
 30
0.0
 10
195.2000167127295
 20
14.59335873107885
 30
0.0
 10
195.2007845215628
 20
14.76061110332301
 30
0.0
 10
195.1988038785627
 20
14.91163289269913
 30
0.0
 10
195.204130615662
 20
15.04206069552993
 30
0.0
 10
195.1933101388425
 20
15.11465442605898
 30
0.0
 10
195.2090326429875
 20
15.18150469436797
 30
0.0
 10
195.143270813249
 20
15.16580512490823
 30
0.0
 10
195.0756367830764
 20
15.17609243083994
 30
0.0
 10
194.9615885293809
 20
15.17113786847121
 30
0.0
 10
194.8451242674902
 20
15.17414128030474
 30
0.0
 10
194.7306554121477
 20
15.16880303143387
 30
0.0
 10
194.6640324657812
 20
15.18001268074823
 30
0.0
 10
194.5990769715186
 20
15.1634913266501
 30
0.0
 10
194.6107989758707
 20
15.21473720477058
 30
0.0
 10
194.6032830189121
 20
15.2595033378409
 30
0.0
 10
194.6107989878835
 20
15.30426944897961
 30
0.0
 10
194.5990769505346
 20
15.3555153612974
 30
0.0
 10
194.66403263392
 20
15.33899381766814
 30
0.0
 10
194.7306533339821
 20
15.35020571373943
 30
0.0
 10
194.8451352858063
 20
15.34485436710663
 30
0.0
 10
194.9615454436962
 20
15.34791188771116
 30
0.0
 10
195.0757660174641
 20
15.34278499010707
 30
0.0
 10
195.1430150439226
 20
15.35345733355597
 30
0.0
 10
195.2083325941438
 20
15.33742082669076
 30
0.0
 10
195.1941391448553
 20
15.39949685750052
 30
0.0
 10
195.2036059462995
 20
15.46586761628761
 30
0.0
 10
195.1990269004085
 20
15.58239972741965
 30
0.0
 10
195.2007696555948
 20
15.71426685022374
 30
0.0
 10
195.1997551495392
 20
15.85615960150272
 30
0.0
 10
195.2017191344372
 20
15.98769050702579
 30
0.0
 10
195.196466855385
 20
16.10524577283001
 30
0.0
 10
195.2073408763475
 20
16.16947789001583
 30
0.0
 10
195.1919536641853
 20
16.23108802545046
 30
0.0
 10
195.24075915378
 20
16.21702407382109
 30
0.0
 10
195.2853995564726
 20
16.21954742075313
 30
0.0
 10
195.3538643946742
 20
16.21512797401709
 30
0.0
 10
195.3959106169102
 20
16.20613025544034
 30
0.0
 10
195.4487544758775
 20
16.2141171486651
 30
0.0
 10
195.4207035002014
 20
16.17113917611672
 30
0.0
 10
195.3749142248594
 20
16.18259552043835
 30
0.0
 10
195.3869539073265
 20
16.12173520005135
 30
0.0
 10
195.3796086070641
 20
16.05769299468771
 30
0.0
 10
195.3831195826162
 20
15.9490936886391
 30
0.0
 10
195.3819806760174
 20
15.82494319144751
 30
0.0
 10
195.3819174780262
 20
15.69189719829876
 30
0.0
 10
195.3832872966868
 20
15.56797381249554
 30
0.0
 10
195.3791638801313
 20
15.45868337849337
 30
0.0
 10
195.3877763103564
 20
15.39608580094169
 30
0.0
 10
195.3746757454401
 20
15.33740133296364
 30
0.0
 10
195.4393884328198
 20
15.35362113810901
 30
0.0
 10
195.5060405953155
 20
15.34270260383311
 30
0.0
 10
195.6198779541103
 20
15.34793740173754
 30
0.0
 10
195.7357259122097
 20
15.34485547516912
 30
0.0
 10
195.849692426328
 20
15.35018259812511
 30
0.0
 10
195.91603410181
 20
15.33904208166542
 30
0.0
 10
195.9807188525479
 20
15.35546979593177
 30
0.0
 10
195.9689820772723
 20
15.3042592521005
 30
0.0
 10
195.976516806304
 20
15.25950334120999
 30
0.0
 10
195.9689820992258
 20
15.21474739010026
 30
0.0
 10
195.9807188140736
 20
15.16353690871039
 30
0.0
 10
195.9160344075252
 20
15.17996427794219
 30
0.0
 10
195.8496886430824
 20
15.16882784447268
 30
0.0
 10
195.7357459487012
 20
15.17413115893119
 30
0.0
 10
195.6197995623054
 20
15.17114764593543
 30
0.0
 10
195.5062756882122
 20
15.17606892268392
 30
0.0
 10
195.4389231318804
 20
15.16585087513519
 30
0.0
 10
195.3734285122495
 20
15.18145996138814
 30
0.0
 10
195.3891713619218
 20
15.1146385182741
 30
0.0
 10
195.3783275998212
 20
15.04207057815877
 30
0.0
 10
195.3836581629793
 20
14.91162247614415
 30
0.0
 10
195.3817136151855
 20
14.76064558185225
 30
0.0
 10
195.3823133683214
 20
14.59322243934157
 30
0.0
 10
195.3821506559605
 20
14.4265617611837
 30
0.0
 10
195.3821895488135
 20
14.27360142921635
 30
0.0
 10
195.38218164131
 20
14.14849178985704
 30
0.0
 10
195.3821828382744
 20
14.06507890991418
 30
0.0
 10
195.3821827716208
 20
14.02491778281975
 30
0.0
 10
195.3821827564383
 20
14.01410517385756
 30
0.0
 11
195.3821827564383
 21
14.01410517385756
 31
0.0
 11
195.4100014883675
 21
14.01410517385756
 31
0.0
 11
195.4833417816353
 21
14.01410517385756
 31
0.0
 11
195.5870297824622
 21
14.01410517385756
 31
0.0
 11
195.7058916370687
 21
14.01410517385756
 31
0.0
 11
195.8247534916751
 21
14.01410517385756
 31
0.0
 11
195.928441492502
 21
14.01410517385756
 31
0.0
 11
196.0017817857698
 21
14.01410517385756
 31
0.0
 11
196.029600517699
 21
14.01410517385756
 31
0.0
 11
196.029600517699
 21
13.98651684921169
 31
0.0
 11
196.029600517699
 21
13.92582253499076
 31
0.0
 11
196.029600517699
 21
13.86512822076983
 31
0.0
 11
196.029600517699
 21
13.83753989612396
 31
0.0
 11
195.9994901593494
 21
13.83753989612396
 31
0.0
 11
195.9162438745004
 21
13.83753989612396
 31
0.0
 11
195.7904888484521
 21
13.83753989612396
 31
0.0
 11
195.6328522665041
 21
13.83753989612396
 31
0.0
 11
195.4539613139564
 21
13.83753989612396
 31
0.0
 11
195.2644431761089
 21
13.83753989612396
 31
0.0
 11
195.0749250382613
 21
13.83753989612396
 31
0.0
 11
194.8960340857136
 21
13.83753989612396
 31
0.0
 11
194.7383975037656
 21
13.83753989612396
 31
0.0
 11
194.6126424777172
 21
13.83753989612396
 31
0.0
 11
194.5293961928683
 21
13.83753989612396
 31
0.0
 11
194.4992858345187
 21
13.83753989612396
 31
0.0
 11
194.4992858345187
 21
13.86512822076984
 31
0.0
 11
194.4992858345187
 21
13.92582253499076
 31
0.0
 11
194.4992858345187
 21
13.98651684921169
 31
0.0
 11
194.4992858345187
 21
14.01410517385756
 31
0.0
 11
194.5294068064947
 21
14.01410517385756
 31
0.0
 11
194.608816641704
 21
14.01410517385756
 31
0.0
 11
194.721085719069
 21
14.01410517385756
 31
0.0
 11
194.8497844175118
 21
14.01410517385756
 31
0.0
 11
194.9784831159545
 21
14.01410517385756
 31
0.0
 11
195.0907521933195
 21
14.01410517385756
 31
0.0
 11
195.1701620285289
 21
14.01410517385756
 31
0.0
 11
195.2002830005048
 21
14.01410517385756
 31
0.0
 11
195.2002830005048
 21
14.04654305523834
 31
0.0
 11
195.2002830005048
 21
14.13458873327189
 31
0.0
 11
195.2002830005048
 21
14.26434025879501
 31
0.0
 11
195.2002830005048
 21
14.42189568264453
 31
0.0
 11
195.2002830005048
 21
14.59335305565723
 31
0.0
 11
195.2002830005048
 21
14.76481042866993
 31
0.0
 11
195.2002830005048
 21
14.92236585251943
 31
0.0
 11
195.2002830005048
 21
15.05211737804256
 31
0.0
 11
195.2002830005048
 21
15.14016305607611
 31
0.0
 11
195.2002830005048
 21
15.17260093745689
 31
0.0
 11
195.1673826485529
 21
15.17260093745689
 31
0.0
 11
195.0825343724662
 21
15.17260093745689
 31
0.0
 11
194.9665173418988
 21
15.17260093745689
 31
0.0
 11
194.8401107265044
 21
15.17260093745689
 31
0.0
 11
194.724093695937
 21
15.17260093745689
 31
0.0
 11
194.6392454198503
 21
15.17260093745689
 31
0.0
 11
194.6063450678984
 21
15.17260093745689
 31
0.0
 11
194.6063450678984
 21
15.19975793614801
 31
0.0
 11
194.6063450678984
 21
15.25950333326849
 31
0.0
 11
194.6063450678984
 21
15.31924873038897
 31
0.0
 11
194.6063450678984
 21
15.34640572908009
 31
0.0
 11
194.6392454198504
 21
15.34640572908009
 31
0.0
 11
194.724093695937
 21
15.34640572908009
 31
0.0
 11
194.8401107265044
 21
15.34640572908009
 31
0.0
 11
194.9665173418988
 21
15.34640572908009
 31
0.0
 11
195.0825343724662
 21
15.34640572908009
 31
0.0
 11
195.1673826485529
 21
15.34640572908009
 31
0.0
 11
195.2002830005048
 21
15.34640572908009
 31
0.0
 11
195.2002830005048
 21
15.37650011731369
 31
0.0
 11
195.2002830005048
 21
15.45715307777972
 31
0.0
 11
195.2002830005048
 21
15.57391930412608
 31
0.0
 11
195.2002830005048
 21
15.71235349000062
 31
0.0
 11
195.2002830005048
 21
15.85801032905123
 31
0.0
 11
195.2002830005048
 21
15.99644451492577
 31
0.0
 11
195.2002830005048
 21
16.11321074127213
 31
0.0
 11
195.2002830005048
 21
16.19386370173816
 31
0.0
 11
195.2002830005048
 21
16.22395808997176
 31
0.0
 11
195.2250405288618
 21
16.2222832421944
 31
0.0
 11
195.2840777118669
 21
16.21828937441764
 31
0.0
 11
195.3545414464214
 21
16.2135224999744
 31
0.0
 11
195.4135786294265
 21
16.20952863219763
 31
0.0
 11
195.4383361577835
 21
16.20785378442028
 31
0.0
 11
195.423306722403
 21
16.18415814206508
 31
0.0
 11
195.3821827564383
 21
16.17047697887402
 31
0.0
 11
195.3821827564383
 21
16.1422166479483
 31
0.0
 11
195.3821827564383
 21
16.06647896106738
 31
0.0
 11
195.3821827564383
 21
15.95682887707559
 31
0.0
 11
195.3821827564383
 21
15.82683135481729
 31
0.0
 11
195.3821827564383
 21
15.69005135313682
 31
0.0
 11
195.3821827564383
 21
15.56005383087852
 31
0.0
 11
195.3821827564383
 21
15.45040374688673
 31
0.0
 11
195.3821827564383
 21
15.37466606000581
 31
0.0
 11
195.3821827564383
 21
15.34640572908009
 31
0.0
 11
195.4149350096115
 21
15.34640572908009
 31
0.0
 11
195.4994013467422
 21
15.34640572908009
 31
0.0
 11
195.6148961342476
 21
15.34640572908009
 31
0.0
 11
195.7407337385445
 21
15.34640572908009
 31
0.0
 11
195.8562285260498
 21
15.34640572908009
 31
0.0
 11
195.9406948631806
 21
15.34640572908009
 31
0.0
 11
195.9734471163538
 21
15.34640572908009
 31
0.0
 11
195.9734471163538
 21
15.31924873038897
 31
0.0
 11
195.9734471163538
 21
15.25950333326849
 31
0.0
 11
195.9734471163538
 21
15.19975793614801
 31
0.0
 11
195.9734471163538
 21
15.17260093745689
 31
0.0
 11
195.9406948631806
 21
15.17260093745689
 31
0.0
 11
195.8562285260498
 21
15.17260093745689
 31
0.0
 11
195.7407337385445
 21
15.17260093745689
 31
0.0
 11
195.6148961342476
 21
15.17260093745689
 31
0.0
 11
195.4994013467422
 21
15.17260093745689
 31
0.0
 11
195.4149350096114
 21
15.17260093745689
 31
0.0
 11
195.3821827564383
 21
15.17260093745689
 31
0.0
 11
195.3821827564383
 21
15.14016305607611
 31
0.0
 11
195.3821827564383
 21
15.05211737804256
 31
0.0
 11
195.3821827564383
 21
14.92236585251943
 31
0.0
 11
195.3821827564383
 21
14.76481042866993
 31
0.0
 11
195.3821827564383
 21
14.59335305565723
 31
0.0
 11
195.3821827564383
 21
14.42189568264452
 31
0.0
 11
195.3821827564383
 21
14.26434025879502
 31
0.0
 11
195.3821827564383
 21
14.13458873327189
 31
0.0
 11
195.3821827564383
 21
14.04654305523834
 31
0.0
 11
195.3821827564383
 21
14.01410517385756
 31
0.0
  0
SPLINE
  5
B4
102
{ACAD_REACTORS
330
D1
102
}
330
48
100
AcDbEntity
  8
_U_30EC_U_30A4_U_30E4_U_30FC_1
  6
Continuous
 62
     2
100
AcDbSpline
210
0.0
220
0.0
230
1.0
 70
    11
 71
     3
 72
   131
 73
   127
 74
   125
 42
0.000000001
 43
0.0000000001
 44
0.00000001
 40
0.0
 40
0.0
 40
0.0
 40
0.0
 40
0.0195577029826372
 40
0.0426490537462198
 40
0.2863607575857025
 40
0.53449484361896
 40
0.7842238845573513
 40
0.8737315789467708
 40
0.9803832810312972
 40
1.092842274517043
 40
1.199761146656777
 40
1.289788768186503
 40
1.351573580786216
 40
1.370727117561458
 40
1.416400936017871
 40
1.47091484835603
 40
1.516588666791822
 40
1.535742203552918
 40
1.634216592293226
 40
1.760283341175041
 40
1.897966686682101
 40
2.031216387368922
 40
2.049689751137915
 40
2.10111560164685
 40
2.179502577739969
 40
2.278859318314083
 40
2.393194462258743
 40
2.516516648383854
 40
2.642834515405982
 40
2.766156701983487
 40
2.880491846754602
 40
2.979848588358641
 40
3.058235565443818
 40
3.109661416668972
 40
3.12813478070415
 40
3.146783742386466
 40
3.191254343315327
 40
3.244332157315986
 40
3.28880275822589
 40
3.307451719895132
 40
3.327717853844744
 40
3.383747753580105
 40
3.468388665924497
 40
3.574487837698801
 40
3.694892515728908
 40
3.822449946852046
 40
3.950007377920436
 40
4.070412055800526
 40
4.176511227368083
 40
4.261152139501529
 40
4.317182039076721
 40
4.337448172964642
 40
4.620011002696251
 40
4.885096638397521
 40
4.945373043518352
 40
5.014107710488683
 40
5.070481727652045
 40
5.31924695563657
 40
5.584812164506041
 40
5.859000912056894
 40
6.133746937542075
 40
6.401732212968879
 40
6.42073668399547
 40
6.47284571745112
 40
6.550702743894048
 40
6.646951193874257
 40
6.754234497930581
 40
6.865196086587359
 40
6.972479390357817
 40
7.068727839771979
 40
7.146584865450988
 40
7.198693898189218
 40
7.217698368905358
 40
7.234950401630835
 40
7.276089864269879
 40
7.325191803515988
 40
7.366331266090375
 40
7.383583298769727
 40
7.402779163492104
 40
7.453386443254535
 40
7.524934666445537
 40
7.606953361405877
 40
7.688972056429028
 40
7.760520279784279
 40
7.811127559734521
 40
7.830323424546142
 40
7.847844055299769
 40
7.894799345666812
 40
7.962779392744498
 40
8.043374293560543
 40
8.128174145149448
 40
8.208769044817249
 40
8.27674909037695
 40
8.323704379669511
 40
8.341225010056242
 40
8.35849761480039
 40
8.401679126686595
 40
8.457815092185653
 40
8.513951057728057
 40
8.557132569708013
 40
8.574405174505056
 40
8.60234066861642
 40
8.643455660539962
 40
8.66322527196663
 40
8.715345156564274
 40
8.789031889628609
 40
8.873502045520336
 40
8.957972194323958
 40
9.031658925567848
 40
9.083778811234536
 40
9.103548423002998
 40
9.119550083123535
 40
9.160817522379837
 40
9.217244429110202
 40
9.278724491644688
 40
9.335151398295473
 40
9.376418837357768
 40
9.392420497300556
 40
9.401196302734775
 40
9.41749422938425
 40
9.426270027749522
 40
9.440875075477555
 40
9.475702496998736
 40
9.517270709865898
 40
9.552098131994066
 40
9.566703169884274
 40
9.566703169884274
 40
9.566703169884274
 40
9.566703169884274
 10
194.6170254148479
 20
15.67015871511026
 30
0.0
 10
194.6134345093371
 20
15.66453690702158
 30
0.0
 10
194.6056039123625
 20
15.65227754419109
 30
0.0
 10
194.5129968974545
 20
15.61601916040979
 30
0.0
 10
194.4887622233247
 20
15.40148444212709
 30
0.0
 10
194.3858709845938
 20
15.22197284509707
 30
0.0
 10
194.1220492364305
 20
15.03615573798143
 30
0.0
 10
194.284547156918
 20
14.95959336566079
 30
0.0
 10
194.3607225760837
 20
14.89856693195438
 30
0.0
 10
194.4492171072758
 20
14.83515804544759
 30
0.0
 10
194.538993023311
 20
14.77525634219557
 30
0.0
 10
194.5883817636045
 20
14.72102154849206
 30
0.0
 10
194.6745708157382
 20
14.69286240541831
 30
0.0
 10
194.6411260674229
 20
14.65713309652812
 30
0.0
 10
194.621467116631
 20
14.62550387991903
 30
0.0
 10
194.5919888217882
 20
14.5847587279607
 30
0.0
 10
194.568898944603
 20
14.55504663489641
 30
0.0
 10
194.5380205968356
 20
14.50211422668497
 30
0.0
 10
194.4729193365739
 20
14.627403349389
 30
0.0
 10
194.3796000122415
 20
14.68213900233934
 30
0.0
 10
194.2950636285138
 20
14.73916423939341
 30
0.0
 10
194.1722498125742
 20
14.89675287427521
 30
0.0
 10
194.1764450847301
 20
14.82035806766834
 30
0.0
 10
194.1751478652677
 20
14.77361280161294
 30
0.0
 10
194.1758126448076
 20
14.69584785812599
 30
0.0
 10
194.1755549986957
 20
14.59902068324421
 30
0.0
 10
194.1756431239922
 20
14.48650279078807
 30
0.0
 10
194.1756077302281
 20
14.36524085945698
 30
0.0
 10
194.1756511758279
 20
14.2408689785896
 30
0.0
 10
194.1755199942405
 20
14.11967683631334
 30
0.0
 10
194.1759477562046
 20
14.00691148919741
 30
0.0
 10
194.174667820231
 20
13.91082913768742
 30
0.0
 10
194.1779759851044
 20
13.83113826468698
 30
0.0
 10
194.1715197740086
 20
13.78815175788782
 30
0.0
 10
194.1806208705556
 20
13.7495543237204
 30
0.0
 10
194.1447910339935
 20
13.75810887724068
 30
0.0
 10
194.1115223815252
 20
13.75342519985445
 30
0.0
 10
194.0604562576041
 20
13.75351298759782
 30
0.0
 10
194.0269723972812
 20
13.75794430283818
 30
0.0
 10
193.9907585408754
 20
13.74960793842508
 30
0.0
 10
194.0009782568666
 20
13.79145277179283
 30
0.0
 10
193.9936487887773
 20
13.83778560820171
 30
0.0
 10
193.9973633136102
 20
13.92374831106012
 30
0.0
 10
193.9959480554896
 20
14.02605142704847
 30
0.0
 10
193.9964105554638
 20
14.14453223931509
 30
0.0
 10
193.996277368623
 20
14.26957683153354
 30
0.0
 10
193.9963015910045
 20
14.39475828107048
 30
0.0
 10
193.9963354925551
 20
14.51286645379056
 30
0.0
 10
193.9962060293132
 20
14.61628748709514
 30
0.0
 10
193.9965507549081
 20
14.69932036153665
 30
0.0
 10
193.995869827869
 20
14.75143368521241
 30
0.0
 10
193.9994586600621
 20
14.87912907821358
 30
0.0
 10
193.7826171386438
 20
14.58048716819619
 30
0.0
 10
193.602135492195
 20
14.35263981511513
 30
0.0
 10
193.5490322295611
 20
14.49373443289813
 30
0.0
 10
193.5200429133148
 20
14.54325767560939
 30
0.0
 10
193.4196648062821
 20
14.64641779790111
 30
0.0
 10
193.740512772326
 20
14.72695035023775
 30
0.0
 10
193.8689897005429
 20
14.91066283036434
 30
0.0
 10
194.090645432536
 20
15.11931995771761
 30
0.0
 10
194.1770224894068
 20
15.29339211228342
 30
0.0
 10
194.4549394229075
 20
15.56967051342511
 30
0.0
 10
194.3346247839283
 20
15.56534559551113
 30
0.0
 10
194.2863197351349
 20
15.56614856202552
 30
0.0
 10
194.2102377454905
 20
15.56574582146583
 30
0.0
 10
194.116701000975
 20
15.56590275611608
 30
0.0
 10
194.0117594788557
 20
15.56582502576223
 30
0.0
 10
193.9033887738717
 20
15.56595464378553
 30
0.0
 10
193.7981454235897
 20
15.56554393490691
 30
0.0
 10
193.7056237819412
 20
15.5668207367159
 30
0.0
 10
193.6268130800707
 20
15.56340766534849
 30
0.0
 10
193.5839674565379
 20
15.57023350036319
 30
0.0
 10
193.5449499586516
 20
15.56065064201123
 30
0.0
 10
193.5526365271863
 20
15.59420779565541
 30
0.0
 10
193.5485464404312
 20
15.62523550322232
 30
0.0
 10
193.5485531368814
 20
15.67236529270899
 30
0.0
 10
193.5526239724911
 20
15.70340941646777
 30
0.0
 10
193.5449495574582
 20
15.737018616359
 30
0.0
 10
193.5834819405494
 20
15.72748410420871
 30
0.0
 10
193.624122801448
 20
15.73397435498069
 30
0.0
 10
193.6951471850463
 20
15.73100150650253
 30
0.0
 10
193.7729318149633
 20
15.73174761399156
 30
0.0
 10
193.8507292246474
 20
15.73247814044524
 30
0.0
 10
193.9217232089907
 20
15.72954235514159
 30
0.0
 10
193.962427979182
 20
15.7359546877295
 30
0.0
 10
194.0009853489909
 20
15.72650524176003
 30
0.0
 10
193.9927342754927
 20
15.76264692158783
 30
0.0
 10
193.9982346669358
 20
15.80129837613225
 30
0.0
 10
193.9955754206163
 20
15.86913528561838
 30
0.0
 10
193.9965815471533
 20
15.94591641538738
 30
0.0
 10
193.9960178018319
 20
16.02849393582755
 30
0.0
 10
193.9970714526593
 20
16.10517329229876
 30
0.0
 10
193.994267586313
 20
16.17331990776697
 30
0.0
 10
194.0000702721303
 20
16.21132399809344
 30
0.0
 10
193.9915654551159
 20
16.24758448077644
 30
0.0
 10
194.0255610233125
 20
16.23755723771849
 30
0.0
 10
194.0594575683099
 20
16.24073266813704
 30
0.0
 10
194.1126669060346
 20
16.23508965640607
 30
0.0
 10
194.1660768574482
 20
16.23434774436423
 30
0.0
 10
194.1995914649491
 20
16.22819223482978
 30
0.0
 10
194.2388086183038
 20
16.2334602977359
 30
0.0
 10
194.2120263698492
 20
16.19253380793488
 30
0.0
 10
194.1708111001724
 20
16.20371204538109
 30
0.0
 10
194.1782641540874
 20
16.15867056192122
 30
0.0
 10
194.1742227952184
 20
16.11412278028142
 30
0.0
 10
194.1761714049641
 20
16.04223572621702
 30
0.0
 10
194.1752364849758
 20
15.96168630588769
 30
0.0
 10
194.176510719003
 20
15.88173995404993
 30
0.0
 10
194.1732043793864
 20
15.80841837083182
 30
0.0
 10
194.1802106179961
 20
15.76688643002566
 30
0.0
 10
194.1701440380126
 20
15.72752418568112
 30
0.0
 10
194.2029814803921
 20
15.7346806343098
 30
0.0
 10
194.2364577296481
 20
15.73027243137943
 30
0.0
 10
194.2915053476019
 20
15.73217943347897
 30
0.0
 10
194.3489502595314
 20
15.73185366407287
 30
0.0
 10
194.4023026248309
 20
15.73106308733081
 30
0.0
 10
194.4398540896638
 20
15.73313959118073
 30
0.0
 10
194.4623172523237
 20
15.73022338167108
 30
0.0
 10
194.4751678073731
 20
15.73572552644056
 30
0.0
 10
194.4858255685888
 20
15.73801118197789
 30
0.0
 10
194.4986635650144
 20
15.74494972588052
 30
0.0
 10
194.514599103307
 20
15.7285304631367
 30
0.0
 10
194.5410623920892
 20
15.71709122319448
 30
0.0
 10
194.5726805253757
 20
15.69644687835189
 30
0.0
 10
194.5987255892151
 20
15.68116869628293
 30
0.0
 10
194.6128517723973
 20
15.67266976323182
 30
0.0
 10
194.6170254148479
 20
15.67015871511026
 30
0.0
 11
194.6170254148479
 21
15.67015871511026
 31
0.0
 11
194.6049990002243
 21
15.65473571164186
 31
0.0
 11
194.5848961795564
 21
15.64337406233915
 31
0.0
 11
194.4778986355813
 21
15.42440620231157
 31
0.0
 11
194.3477039934324
 21
15.21317201512159
 31
0.0
 11
194.1996540366071
 21
15.01206059027477
 31
0.0
 11
194.2734958253735
 21
14.96147384935377
 31
0.0
 11
194.36056643118
 21
14.89988411653737
 31
0.0
 11
194.4518003750404
 21
14.83413160594423
 31
0.0
 11
194.5381321779687
 21
14.77105653169303
 31
0.0
 11
194.6104963609787
 21
14.7174991079024
 31
0.0
 11
194.6598274450843
 21
14.68029954869103
 31
0.0
 11
194.6486940702213
 21
14.66471410869493
 31
0.0
 11
194.6221452532403
 21
14.62754882870422
 31
0.0
 11
194.5904579555532
 21
14.58319026871532
 31
0.0
 11
194.5639091385722
 21
14.54602498872461
 31
0.0
 11
194.5527757637092
 21
14.53043954872851
 31
0.0
 11
194.4807013362947
 21
14.59754008690616
 31
0.0
 11
194.385285698538
 21
14.67993354174668
 31
0.0
 11
194.279326415217
 21
14.76785017366915
 31
0.0
 11
194.175621051109
 21
14.85152024309265
 31
0.0
 11
194.175621051109
 21
14.83304687900861
 31
0.0
 11
194.175621051109
 21
14.78162102763953
 31
0.0
 11
194.175621051109
 21
14.70323405030997
 31
0.0
 11
194.175621051109
 21
14.60387730834447
 31
0.0
 11
194.175621051109
 21
14.48954216306758
 31
0.0
 11
194.175621051109
 21
14.36621997580387
 31
0.0
 11
194.175621051109
 21
14.23990210787788
 31
0.0
 11
194.175621051109
 21
14.11657992061417
 31
0.0
 11
194.175621051109
 21
14.00224477533728
 31
0.0
 11
194.175621051109
 21
13.90288803337178
 31
0.0
 11
194.175621051109
 21
13.82450105604222
 31
0.0
 11
194.175621051109
 21
13.77307520467314
 31
0.0
 11
194.175621051109
 21
13.7546018405891
 31
0.0
 11
194.1569720893626
 21
13.7546018405891
 31
0.0
 11
194.1125014882749
 21
13.7546018405891
 31
0.0
 11
194.0594236740736
 21
13.7546018405891
 31
0.0
 11
194.0149530729859
 21
13.7546018405891
 31
0.0
 11
193.9963041112395
 21
13.7546018405891
 31
0.0
 11
193.9963041112395
 21
13.77486797460217
 31
0.0
 11
193.9963041112395
 21
13.83089787452064
 31
0.0
 11
193.9963041112395
 21
13.91553878716345
 31
0.0
 11
193.9963041112395
 21
14.02163795934951
 31
0.0
 11
193.9963041112395
 21
14.14204263789773
 31
0.0
 11
193.9963041112395
 21
14.26960006962704
 31
0.0
 11
193.9963041112395
 21
14.39715750135634
 31
0.0
 11
193.9963041112395
 21
14.51756217990456
 31
0.0
 11
193.9963041112395
 21
14.62366135209062
 31
0.0
 11
193.9963041112395
 21
14.70830226473342
 31
0.0
 11
193.9963041112395
 21
14.7643321646519
 31
0.0
 11
193.9963041112395
 21
14.78459829866497
 31
0.0
 11
193.7883272849481
 21
14.59331998274055
 31
0.0
 11
193.5763486358425
 21
14.43414885430809
 31
0.0
 11
193.5495629014482
 21
14.48814671952093
 31
0.0
 11
193.5138765415024
 21
14.54689140572025
 31
0.0
 11
193.4799697494124
 21
14.59192871537975
 31
0.0
 11
193.6830287742319
 21
14.73563387201052
 31
0.0
 11
193.881853195826
 21
14.91168423529987
 31
0.0
 11
194.0677041444178
 21
15.11327514524949
 31
0.0
 11
194.2318427502303
 21
15.33360194186108
 31
0.0
 11
194.3655301434864
 21
15.56585996513634
 31
0.0
 11
194.3465256724482
 21
15.56585996513634
 31
0.0
 11
194.2944166389562
 21
15.56585996513634
 31
0.0
 11
194.2165596124447
 21
15.56585996513634
 31
0.0
 11
194.1203111623478
 21
15.56585996513634
 31
0.0
 11
194.0130278580997
 21
15.56585996513634
 31
0.0
 11
193.9020662691345
 21
15.56585996513634
 31
0.0
 11
193.7947829648864
 21
15.56585996513634
 31
0.0
 11
193.6985345147895
 21
15.56585996513634
 31
0.0
 11
193.620677488278
 21
15.56585996513634
 31
0.0
 11
193.568568454786
 21
15.56585996513634
 31
0.0
 11
193.5495639837478
 21
15.56585996513634
 31
0.0
 11
193.5495639837478
 21
15.58311199790981
 31
0.0
 11
193.5495639837478
 21
15.6242514606773
 31
0.0
 11
193.5495639837478
 21
15.67335340010948
 31
0.0
 11
193.5495639837478
 21
15.71449286287697
 31
0.0
 11
193.5495639837478
 21
15.73174489565044
 31
0.0
 11
193.5687598486009
 21
15.73174489565044
 31
0.0
 11
193.6193671286684
 21
15.73174489565044
 31
0.0
 11
193.690915352212
 21
15.73174489565044
 31
0.0
 11
193.7729340474937
 21
15.73174489565044
 31
0.0
 11
193.8549527427753
 21
15.73174489565044
 31
0.0
 11
193.9265009663189
 21
15.73174489565044
 31
0.0
 11
193.9771082463864
 21
15.73174489565044
 31
0.0
 11
193.9963041112395
 21
15.73174489565044
 31
0.0
 11
193.9963041112395
 21
15.74926552655217
 31
0.0
 11
193.9963041112395
 21
15.79622081736881
 31
0.0
 11
193.9963041112395
 21
15.86420086526752
 31
0.0
 11
193.9963041112395
 21
15.94479576741547
 31
0.0
 11
193.9963041112395
 21
16.02959562097984
 31
0.0
 11
193.9963041112395
 21
16.1101905231278
 31
0.0
 11
193.9963041112395
 21
16.17817057102651
 31
0.0
 11
193.9963041112395
 21
16.22512586184315
 31
0.0
 11
193.9963041112395
 21
16.24264649274488
 31
0.0
 11
194.0135484112111
 21
16.24165806167517
 31
0.0
 11
194.0566591611401
 21
16.23918698400089
 31
0.0
 11
194.1127031360477
 21
16.23597458302433
 31
0.0
 11
194.1687471109553
 21
16.23276218204778
 31
0.0
 11
194.2118578608843
 21
16.2302911043735
 31
0.0
 11
194.2291021608559
 21
16.22930267330379
 31
0.0
 11
194.2143774674851
 21
16.20556293372638
 31
0.0
 11
194.175621051109
 21
16.1918376733131
 31
0.0
 11
194.175621051109
 21
16.17206806177291
 31
0.0
 11
194.175621051109
 21
16.11994817680331
 31
0.0
 11
194.175621051109
 21
16.04626144288077
 31
0.0
 11
194.175621051109
 21
15.96179128448177
 31
0.0
 11
194.175621051109
 21
15.87732112608277
 31
0.0
 11
194.175621051109
 21
15.80363439216023
 31
0.0
 11
194.175621051109
 21
15.75151450719063
 31
0.0
 11
194.175621051109
 21
15.73174489565044
 31
0.0
 11
194.1916227112935
 21
15.73174489565044
 31
0.0
 11
194.232890150717
 21
15.73174489565044
 31
0.0
 11
194.2893170576837
 21
15.73174489565044
 31
0.0
 11
194.3507971204981
 21
15.73174489565044
 31
0.0
 11
194.4072240274648
 21
15.73174489565044
 31
0.0
 11
194.4484914668882
 21
15.73174489565044
 31
0.0
 11
194.4644931270728
 21
15.73174489565044
 31
0.0
 11
194.4728206422924
 21
15.7345138745592
 31
0.0
 11
194.4882860277004
 21
15.73965626396117
 31
0.0
 11
194.49661354292
 21
15.74242524286993
 31
0.0
 11
194.5091363776005
 21
15.73490952398292
 31
0.0
 11
194.5389985218386
 21
15.71698742509852
 31
0.0
 11
194.5746404359293
 21
15.69559653288166
 31
0.0
 11
194.6045025801674
 21
15.67767443399727
 31
0.0
 11
194.6170254148479
 21
15.67015871511026
 31
0.0
  0
SPLINE
  5
B5
102
{ACAD_REACTORS
330
D2
102
}
330
48
100
AcDbEntity
  8
_U_30EC_U_30A4_U_30E4_U_30FC_1
  6
Continuous
 62
     2
100
AcDbSpline
210
0.0
220
0.0
230
1.0
 70
    11
 71
     3
 72
    91
 73
    87
 74
    85
 42
0.000000001
 43
0.0000000001
 44
0.00000001
 40
0.0
 40
0.0
 40
0.0
 40
0.0
 40
0.0267532254356684
 40
0.0856103386464049
 40
0.1444674521996567
 40
0.1712206856618426
 40
0.2039416005642447
 40
0.2955601971652395
 40
0.4362601844616829
 40
0.6162252844507161
 40
0.8256392189704609
 40
1.054685709844402
 40
1.293548478893522
 40
1.532411247938294
 40
1.761457738799559
 40
1.970871673298528
 40
2.150836773256724
 40
2.291536760495585
 40
2.383155356836691
 40
2.415876284101311
 40
2.442629517487952
 40
2.501486630949082
 40
2.560343744424226
 40
2.587096977826497
 40
2.617068194440924
 40
2.699247336756065
 40
2.822032643466378
 40
2.973822353257908
 40
3.14301470482335
 40
3.318007936879929
 40
3.487200288186762
 40
3.638989997548243
 40
3.761775303794741
 40
3.843954445753076
 40
3.873925662229772
 40
3.890812773500481
 40
3.907699884771662
 40
3.937960767857261
 40
3.980983618142293
 40
4.199085915228444
 40
4.439444339237234
 40
4.677588241260874
 40
5.050698317837759
 40
5.448212454763145
 40
5.855291218044671
 40
6.13857543888534
 40
6.417434507584176
 40
6.444551104393833
 40
6.504207617363132
 40
6.56386413031443
 40
6.590980727103998
 40
6.848609460381398
 40
7.109611990668394
 40
7.352910904446056
 40
7.557830220705429
 40
7.587518925913348
 40
7.652834077375791
 40
7.7181492288458
 40
7.747837934062079
 40
7.854880190300989
 40
7.976511257403532
 40
8.369487896592332
 40
8.757514959223625
 40
9.126072419331088
 40
9.46063938039215
 40
9.746695593035891
 40
9.77756994311866
 40
9.80705032093176
 40
9.830377336128892
 40
9.886003295435968
 40
9.952395569429877
 40
10.00802152870623
 40
10.03134854388215
 40
10.21356951009586
 40
10.42203479292868
 40
10.66154556731061
 40
10.916937895643
 40
11.15832906556559
 40
11.18982674596616
 40
11.27286608520398
 40
11.39026653033342
 40
11.52484752840873
 40
11.65942852648429
 40
11.77682897161468
 40
11.85986831085664
 40
11.8913659823041
 40
11.8913659823041
 40
11.8913659823041
 40
11.8913659823041
 10
190.7027885008196
 20
14.70699600701771
 30
0.0
 10
190.7028237765288
 20
14.71587847311984
 30
0.0
 10
190.7029366710797
 20
14.74430237047346
 30
0.0
 10
190.7012984568488
 20
14.79409639169801
 30
0.0
 10
190.7069750292911
 20
14.83657564478153
 30
0.0
 10
190.6956928731706
 20
14.88730154856845
 30
0.0
 10
190.7632296979031
 20
14.87012900740107
 30
0.0
 10
190.83880292107
 20
14.88290227165994
 30
0.0
 10
190.9828357056
 20
14.87629729457379
 30
0.0
 10
191.1569419185427
 20
14.87888462206464
 30
0.0
 10
191.3639599611003
 20
14.87800591955551
 30
0.0
 10
191.5894688172378
 20
14.87828207920026
 30
0.0
 10
191.8251162293406
 20
14.8781833965866
 30
0.0
 10
192.0607640531348
 20
14.87828184412765
 30
0.0
 10
192.2862717580626
 20
14.87800678190787
 30
0.0
 10
192.4932934632805
 20
14.87888186270733
 30
0.0
 10
192.6673888915288
 20
14.87630522678445
 30
0.0
 10
192.8114492071986
 20
14.88288290449211
 30
0.0
 10
192.8869691915293
 20
14.87016243405602
 30
0.0
 10
192.954577603703
 20
14.88726400191684
 30
0.0
 10
192.9430840140676
 20
14.83674785802938
 30
0.0
 10
192.9505104581733
 20
14.792532522265
 30
0.0
 10
192.9428838927986
 20
14.74867966503608
 30
0.0
 10
192.9546489459424
 20
14.69878374479326
 30
0.0
 10
192.8930788491983
 20
14.71393227712511
 30
0.0
 10
192.8256791738672
 20
14.70310665350672
 30
0.0
 10
192.7013004056221
 20
14.70852031626235
 30
0.0
 10
192.555442823657
 20
14.70649205390784
 30
0.0
 10
192.3893576440085
 20
14.70715777578385
 30
0.0
 10
192.2188412621724
 20
14.70689643521241
 30
0.0
 10
192.0519790855388
 20
14.70721553391093
 30
0.0
 10
191.9087346827105
 20
14.70635302590761
 30
0.0
 10
191.7773313869834
 20
14.70863300482987
 30
0.0
 10
191.7239859134656
 20
14.704077043742
 30
0.0
 10
191.6485188456912
 20
14.70999914992877
 30
0.0
 10
191.6769075779232
 20
14.70094169343351
 30
0.0
 10
191.7033652409542
 20
14.69725912268927
 30
0.0
 10
191.6633522907701
 20
14.66654271968273
 30
0.0
 10
191.5713663691867
 20
14.67667591174633
 30
0.0
 10
191.543939620707
 20
14.43032502247783
 30
0.0
 10
191.4478793967234
 20
14.27499558764374
 30
0.0
 10
191.1917277964474
 20
13.94525417931567
 30
0.0
 10
191.7627537732762
 20
14.08430022210451
 30
0.0
 10
192.0173656320516
 20
14.08291779973362
 30
0.0
 10
192.6279647048617
 20
13.99790569242084
 30
0.0
 10
192.3340698578083
 20
14.29685417558204
 30
0.0
 10
192.0133304286517
 20
14.44330856901774
 30
0.0
 10
192.1313543360433
 20
14.50025540818286
 30
0.0
 10
192.1724716466261
 20
14.52420099873345
 30
0.0
 10
192.2156812394411
 20
14.54599758811228
 30
0.0
 10
192.3174574094448
 20
14.60928721253904
 30
0.0
 10
192.4328867625247
 20
14.35147151408775
 30
0.0
 10
192.6329591642278
 20
14.21616041113685
 30
0.0
 10
192.7269077387227
 20
14.0379279513888
 30
0.0
 10
192.9558829746393
 20
13.87997821027049
 30
0.0
 10
192.8596031846708
 20
13.82915972576298
 30
0.0
 10
192.8167959763779
 20
13.79881292523051
 30
0.0
 10
192.7718243528778
 20
13.77466130281461
 30
0.0
 10
192.7121720925213
 20
13.72552146747566
 30
0.0
 10
192.6789731061325
 20
13.85997475673613
 30
0.0
 10
192.5582013350795
 20
14.01594265286576
 30
0.0
 10
192.1970976005979
 20
13.88569928059556
 30
0.0
 10
191.838506195554
 20
13.90224694409481
 30
0.0
 10
191.457092045008
 20
13.89331229351863
 30
0.0
 10
191.1703455282891
 20
13.82882671672407
 30
0.0
 10
190.8592055599714
 20
13.94230668192822
 30
0.0
 10
190.8268737818788
 20
13.83122259927767
 30
0.0
 10
190.7896178253318
 20
13.81196313850012
 30
0.0
 10
190.7865737632753
 20
13.85874784087295
 30
0.0
 10
190.7679892860608
 20
13.89806853919134
 30
0.0
 10
190.7512436616777
 20
13.95765983478231
 30
0.0
 10
190.7383730915753
 20
14.00201969871282
 30
0.0
 10
190.7042327806429
 20
14.09106331120199
 30
0.0
 10
190.9482714457754
 20
14.02181042943768
 30
0.0
 10
191.1441394486671
 20
14.00030369057742
 30
0.0
 10
191.2395426381277
 20
14.28226484478461
 30
0.0
 10
191.2945135769596
 20
14.4436304542112
 30
0.0
 10
191.5159619357155
 20
14.71391177589737
 30
0.0
 10
191.3849239381215
 20
14.70548446853733
 30
0.0
 10
191.3110026555853
 20
14.70779008496969
 30
0.0
 10
191.1977459876243
 20
14.70671378321657
 30
0.0
 10
191.0694251807484
 20
14.70707639076508
 30
0.0
 10
190.9404252030415
 20
14.70697724466085
 30
0.0
 10
190.8287840946291
 20
14.70699932712571
 30
0.0
 10
190.7514663970027
 20
14.70699579189669
 30
0.0
 10
190.713287653201
 20
14.7069959584508
 30
0.0
 10
190.7027885008196
 20
14.70699600701771
 30
0.0
 11
190.7027885008196
 21
14.70699600701771
 31
0.0
 11
190.7027885008196
 21
14.73374924051796
 31
0.0
 11
190.7027885008196
 21
14.79260635421852
 31
0.0
 11
190.7027885008196
 21
14.85146346791908
 31
0.0
 11
190.7027885008196
 21
14.87821670141933
 31
0.0
 11
190.7355094280989
 21
14.87821670141933
 31
0.0
 11
190.8271280244809
 21
14.87821670141933
 31
0.0
 11
190.9678280117818
 21
14.87821670141933
 31
0.0
 11
191.1477931118179
 21
14.87821670141933
 31
0.0
 11
191.3572070464054
 21
14.87821670141933
 31
0.0
 11
191.5862535373604
 21
14.87821670141933
 31
0.0
 11
191.8251163064992
 21
14.87821670141933
 31
0.0
 11
192.0639790756381
 21
14.87821670141933
 31
0.0
 11
192.2930255665931
 21
14.87821670141933
 31
0.0
 11
192.5024395011806
 21
14.87821670141933
 31
0.0
 11
192.6824046012167
 21
14.87821670141933
 31
0.0
 11
192.8231045885176
 21
14.87821670141933
 31
0.0
 11
192.9147231848996
 21
14.87821670141933
 31
0.0
 11
192.9474441121789
 21
14.87821670141933
 31
0.0
 11
192.9474441121789
 21
14.85146346791908
 31
0.0
 11
192.9474441121789
 21
14.79260635421852
 31
0.0
 11
192.9474441121789
 21
14.73374924051796
 31
0.0
 11
192.9474441121789
 21
14.70699600701771
 31
0.0
 11
192.9174728954758
 21
14.70699600701771
 31
0.0
 11
192.8352937529027
 21
14.70699600701771
 31
0.0
 11
192.7125084457639
 21
14.70699600701771
 31
0.0
 11
192.5607187353642
 21
14.70699600701771
 31
0.0
 11
192.3915263830077
 21
14.70699600701771
 31
0.0
 11
192.2165331499991
 21
14.70699600701771
 31
0.0
 11
192.0473407976426
 21
14.70699600701771
 31
0.0
 11
191.8955510872428
 21
14.70699600701771
 31
0.0
 11
191.7727657801042
 21
14.70699600701771
 31
0.0
 11
191.690586637531
 21
14.70699600701771
 31
0.0
 11
191.6606154208279
 21
14.70699600701771
 31
0.0
 11
191.6766359412525
 21
14.70165583340792
 31
0.0
 11
191.6926564616771
 21
14.69631565979813
 31
0.0
 11
191.670615568142
 21
14.67558114591441
 31
0.0
 11
191.6284861855363
 21
14.66685871536109
 31
0.0
 11
191.5365235541377
 21
14.46909247312655
 31
0.0
 11
191.4279078521763
 21
14.25467511978507
 31
0.0
 11
191.3127500824807
 21
14.04622559051619
 31
0.0
 11
191.685736667502
 21
14.05582441253028
 31
0.0
 11
192.083070003615
 21
14.06781232404993
 31
0.0
 11
192.4899342191145
 21
14.08102711828531
 31
0.0
 11
192.2983119496978
 21
14.28966761302479
 31
0.0
 11
192.0966752013698
 21
14.4822942015183
 31
0.0
 11
192.1204947794749
 21
14.49525327269562
 31
0.0
 11
192.1728978513061
 21
14.52376322928574
 31
0.0
 11
192.2253009231373
 21
14.55227318587585
 31
0.0
 11
192.2491205012424
 21
14.56523225705318
 31
0.0
 11
192.4387101558626
 21
14.39079508370267
 31
0.0
 11
192.6200310940435
 21
14.2030584637409
 31
0.0
 11
192.7777729231147
 21
14.01782380992436
 31
0.0
 11
192.8966252504058
 21
13.85089253500948
 31
0.0
 11
192.8715408217923
 21
13.83501202286068
 31
0.0
 11
192.8163550788425
 21
13.80007489613331
 31
0.0
 11
192.7611693358927
 21
13.76513776940594
 31
0.0
 11
192.7360849072792
 21
13.74925725725714
 31
0.0
 11
192.6775518151612
 21
13.83887824681808
 31
0.0
 11
192.6050015078457
 21
13.93650288221031
 31
0.0
 11
192.2125412924095
 21
13.91636286943758
 31
0.0
 11
191.824947406956
 21
13.89803302999772
 31
0.0
 11
191.4567378976213
 21
13.88202178722394
 31
0.0
 11
191.1224308105412
 21
13.86883756444946
 31
0.0
 11
190.8365441918518
 21
13.85898878500748
 31
0.0
 11
190.821186232174
 21
13.83220523466694
 31
0.0
 11
190.7937434290546
 21
13.82143559057244
 31
0.0
 11
190.7867927192319
 21
13.84370299445576
 31
0.0
 11
190.7702179496548
 21
13.89680218833137
 31
0.0
 11
190.7504351601596
 21
13.96017864553775
 31
0.0
 11
190.7338603905825
 21
14.01327783941336
 31
0.0
 11
190.7269096807598
 21
14.03554524329668
 31
0.0
 11
190.9091199859153
 21
14.03751638912951
 31
0.0
 11
191.1174975848588
 21
14.0435621182947
 31
0.0
 11
191.2303203127216
 21
14.25483550301552
 31
0.0
 11
191.3407936722035
 21
14.48509813155878
 31
0.0
 11
191.4358254265626
 21
14.70699600701771
 31
0.0
 11
191.4043277461595
 21
14.70699600701771
 31
0.0
 11
191.3212884069152
 21
14.70699600701771
 31
0.0
 11
191.2038879617767
 21
14.70699600701771
 31
0.0
 11
191.0693069636911
 21
14.70699600701771
 31
0.0
 11
190.9347259656055
 21
14.70699600701771
 31
0.0
 11
190.8173255204669
 21
14.70699600701771
 31
0.0
 11
190.7342861812226
 21
14.70699600701771
 31
0.0
 11
190.7027885008196
 21
14.70699600701771
 31
0.0
  0
SPLINE
  5
B6
102
{ACAD_REACTORS
330
D3
102
}
330
48
100
AcDbEntity
  8
_U_30EC_U_30A4_U_30E4_U_30FC_1
  6
Continuous
 62
     2
100
AcDbSpline
210
0.0
220
0.0
230
1.0
 70
    11
 71
     3
 72
    35
 73
    31
 74
    29
 42
0.000000001
 43
0.0000000001
 44
0.00000001
 40
0.0
 40
0.0
 40
0.0
 40
0.0
 40
0.0335231036620645
 40
0.0713218571712064
 40
0.4278866681487015
 40
0.8116865841964002
 40
1.198190238000059
 40
1.561379546812689
 40
1.659983174622079
 40
1.759315573807195
 40
2.132719617231081
 40
2.525233363588828
 40
2.910815397779695
 40
3.265244364303284
 40
3.592606723582057
 40
3.964386154604002
 40
4.359942131737824
 40
4.758154118639284
 40
4.843846538699892
 40
4.936650065543216
 40
5.256616602537293
 40
5.58170740441603
 40
5.899719158308128
 40
6.198363494280696
 40
6.466301046615713
 40
6.493895311537063
 40
6.559697020196856
 40
6.63823454344246
 40
6.704036252154241
 40
6.731630508423047
 40
6.731630508423047
 40
6.731630508423047
 40
6.731630508423047
 10
191.9736010568669
 20
16.23463843719132
 30
0.0
 10
191.9676006097788
 20
16.22480690542321
 30
0.0
 10
191.9548344099157
 20
16.20388988579797
 30
0.0
 10
191.7949362006553
 20
16.17127126532684
 30
0.0
 10
192.2322025842337
 20
15.88206680336702
 30
0.0
 10
192.4345394828261
 20
15.68041138358436
 30
0.0
 10
192.6819564267973
 20
15.43749387603277
 30
0.0
 10
193.1831513624605
 20
15.36047662757772
 30
0.0
 10
193.012556219897
 20
15.21876939174656
 30
0.0
 10
192.9383299463202
 20
15.01710366209105
 30
0.0
 10
192.6131432248188
 20
15.36956287174726
 30
0.0
 10
192.3277741670664
 20
15.5317521255956
 30
0.0
 10
192.0337604077658
 20
15.73687130053047
 30
0.0
 10
191.8084452691133
 20
16.21827488595452
 30
0.0
 10
191.5993085055521
 20
15.75343046609223
 30
0.0
 10
191.3207873674833
 20
15.54350952252909
 30
0.0
 10
191.0371383177209
 20
15.37424456359986
 30
0.0
 10
190.707863952783
 20
15.00142360907936
 30
0.0
 10
190.6277012318224
 20
15.19708014459
 30
0.0
 10
190.4759724909744
 20
15.32491104190594
 30
0.0
 10
190.9083395826795
 20
15.40454031765933
 30
0.0
 10
191.0962565329766
 20
15.60026634915472
 30
0.0
 10
191.3468477420502
 20
15.81632996916752
 30
0.0
 10
191.5714350470161
 20
15.9819099230006
 30
0.0
 10
191.6259775409712
 20
16.26133964636826
 30
0.0
 10
191.749466102901
 20
16.24737950408078
 30
0.0
 10
191.806027334452
 20
16.24521268867646
 30
0.0
 10
191.8761870984944
 20
16.24046859881359
 30
0.0
 10
191.9333414022105
 20
16.23709429350539
 30
0.0
 10
191.9644190320838
 20
16.23519854711117
 30
0.0
 10
191.9736010568669
 20
16.23463843719132
 30
0.0
 11
191.9736010568669
 21
16.23463843719132
 31
0.0
 11
191.9525319069884
 21
16.20856374969783
 31
0.0
 11
191.9174464559425
 21
16.19450114553467
 31
0.0
 11
192.1512374769094
 21
15.9252796113138
 31
0.0
 11
192.4414585957566
 21
15.67413407969259
 31
0.0
 11
192.7612797483684
 21
15.45710987618783
 31
0.0
 11
193.0838708706289
 21
15.29025232631636
 31
0.0
 11
193.0213299868076
 21
15.21402035584926
 31
0.0
 11
192.9688035818975
 21
15.12971197913423
 31
0.0
 11
192.6436279095814
 21
15.31326404831579
 31
0.0
 11
192.3237227768436
 21
15.54070139743427
 31
0.0
 11
192.0354200158608
 21
15.79673855123308
 31
0.0
 11
191.8050514588095
 21
16.06609003445564
 31
0.0
 11
191.5995531719515
 21
15.81126348721034
 31
0.0
 11
191.3288301341535
 21
15.55645182277754
 31
0.0
 11
191.0119538423246
 21
15.31969466354854
 31
0.0
 11
190.6679957933741
 21
15.11903163191465
 31
0.0
 11
190.6218855341338
 21
15.19126067703552
 31
0.0
 11
190.5636970460348
 21
15.26355586798965
 31
0.0
 11
190.8433040489015
 21
15.41911456961743
 31
0.0
 11
191.1093004621154
 21
15.60601009790403
 31
0.0
 11
191.3499997459746
 21
15.81384496285207
 31
0.0
 11
191.5537153607773
 21
16.03222167446415
 31
0.0
 11
191.7087607668217
 21
16.25074274274286
 31
0.0
 11
191.7363041569864
 21
16.2490678949655
 31
0.0
 11
191.8019845489176
 21
16.24507402718872
 31
0.0
 11
191.880377274771
 21
16.24030715274547
 31
0.0
 11
191.9460576667022
 21
16.23631328496868
 31
0.0
 11
191.9736010568669
 21
16.23463843719132
 31
0.0
  0
SPLINE
  5
B7
102
{ACAD_REACTORS
330
D4
102
}
330
48
100
AcDbEntity
  8
_U_30EC_U_30A4_U_30E4_U_30FC_1
  6
Continuous
 62
     2
100
AcDbSpline
210
0.0
220
0.0
230
1.0
 70
    11
 71
     3
 72
    15
 73
    11
 74
     9
 42
0.000000001
 43
0.0000000001
 44
0.00000001
 40
0.0
 40
0.0
 40
0.0
 40
0.0
 40
0.2785535985096532
 40
0.5215624748198807
 40
0.6076917376040443
 40
0.6938210001741165
 40
0.940501914645494
 40
1.221691403489126
 40
1.300471877081041
 40
1.379252341684806
 40
1.379252341684806
 40
1.379252341684806
 40
1.379252341684806
 10
189.5681493630999
 20
16.22930267330379
 30
0.0
 10
189.6296017794178
 20
16.17691646592714
 30
0.0
 10
189.7446649974113
 20
16.0788287679822
 30
0.0
 10
190.0397348497244
 20
15.92889785897221
 30
0.0
 10
189.9025147631856
 20
15.84343227515013
 30
0.0
 10
189.8041227843778
 20
15.71085785201554
 30
0.0
 10
189.7130033590651
 20
16.01616985781419
 30
0.0
 10
189.3636839480654
 20
16.07967869465373
 30
0.0
 10
189.5119258376571
 20
16.17896509880876
 30
0.0
 10
189.5494081874236
 20
16.2125234840238
 30
0.0
 10
189.5681493630999
 20
16.22930267330379
 30
0.0
 11
189.5681493630999
 21
16.22930267330379
 31
0.0
 11
189.7919222440596
 21
16.06341774278971
 31
0.0
 11
189.9695046306383
 21
15.89753281227563
 31
0.0
 11
189.9066308127979
 21
15.83866743034591
 31
0.0
 11
189.8437569949575
 21
15.77980204841619
 31
0.0
 11
189.6688535117725
 21
15.9537567705949
 31
0.0
 11
189.447825685614
 21
16.12757920110701
 31
0.0
 11
189.507987524357
 21
16.1784409372054
 31
0.0
 11
189.5681493630999
 21
16.22930267330379
 31
0.0
  0
SPLINE
  5
B8
102
{ACAD_REACTORS
330
D5
102
}
330
48
100
AcDbEntity
  8
_U_30EC_U_30A4_U_30E4_U_30FC_1
  6
Continuous
 62
     2
100
AcDbSpline
210
0.0
220
0.0
230
1.0
 70
    11
 71
     3
 72
    75
 73
    71
 74
    69
 42
0.000000001
 43
0.0000000001
 44
0.00000001
 40
0.0
 40
0.0
 40
0.0
 40
0.0
 40
0.0342546099129709
 40
0.1245622414432364
 40
0.2522385480897554
 40
0.3985991922940733
 40
0.544959836498091
 40
0.6726361431438923
 40
0.7629437746737049
 40
0.7971983935298079
 40
1.101723623449674
 40
1.408591244036678
 40
1.433332471690386
 40
1.487763172450181
 40
1.542193873082011
 40
1.566935100592559
 40
1.923523931821872
 40
2.271755704953728
 40
2.590579755100915
 40
2.858943305581173
 40
2.889120339309194
 40
2.918305855191135
 40
2.941366645531258
 40
2.99635776097315
 40
3.061992318140697
 40
3.116983433626892
 40
3.140044223997572
 40
3.411273122936462
 40
3.732441619741155
 40
3.761068217532854
 40
3.837787499630416
 40
3.948858699126057
 40
4.080541049104434
 40
4.219093782625817
 40
4.350776132722373
 40
4.461847332405707
 40
4.538566614678441
 40
4.567193212544687
 40
4.594907573998945
 40
4.666381453557484
 40
4.764111044011095
 40
4.870592538125898
 40
4.968322128642349
 40
5.039796008287034
 40
5.067510369784493
 40
5.094263603185707
 40
5.153120716668344
 40
5.21197783015079
 40
5.238731063551795
 40
5.272290535139033
 40
5.363380529444894
 40
5.497618415781572
 40
5.660621563453814
 40
5.838007341749515
 40
6.015393119910867
 40
6.178396267038492
 40
6.312634151842444
 40
6.403724143059433
 40
6.437283612672529
 40
6.464036846261145
 40
6.52289396000476
 40
6.581751071484028
 40
6.608504301590973
 40
6.63725394128112
 40
6.711397748902971
 40
6.812778057283584
 40
6.92323719924936
 40
7.024617507624004
 40
7.098761315207657
 40
7.127510946007607
 40
7.127510946007607
 40
7.127510946007607
 40
7.127510946007607
 10
188.4418622390564
 20
14.95849128473263
 30
0.0
 10
188.4418622819707
 20
14.94707313408719
 30
0.0
 10
188.4418624481128
 20
14.90555257842627
 30
0.0
 10
188.4418593081787
 20
14.8214692200377
 30
0.0
 10
188.4418788279801
 20
14.70004497322327
 30
0.0
 10
188.4417912187737
 20
14.55980494047446
 30
0.0
 10
188.442111623523
 20
14.42006556794574
 30
0.0
 10
188.441160590974
 20
14.29745038894926
 30
0.0
 10
188.4431978595968
 20
14.21587074438041
 30
0.0
 10
188.4349433178744
 20
14.06271267077694
 30
0.0
 10
188.7430797940901
 20
14.2256023605472
 30
0.0
 10
189.0350645173738
 20
14.39482938688004
 30
0.0
 10
189.0408354448707
 20
14.25973235781909
 30
0.0
 10
189.0455471719891
 20
14.21617221160443
 30
0.0
 10
189.0482535411918
 20
14.17211249350543
 30
0.0
 10
189.0672545672959
 20
14.02272590363133
 30
0.0
 10
188.6583942247302
 20
14.08681172241259
 30
0.0
 10
188.3793710348832
 20
13.97296341411017
 30
0.0
 10
188.1018081587166
 20
13.87364095811139
 30
0.0
 10
187.8099837184399
 20
13.91630687596354
 30
0.0
 10
187.7869144678658
 20
13.81321679744538
 30
0.0
 10
187.7537474383333
 20
13.78691091244469
 30
0.0
 10
187.7480653962739
 20
13.83455309036303
 30
0.0
 10
187.7284214559043
 20
13.87180336115068
 30
0.0
 10
187.7095089485623
 20
13.93007387847563
 30
0.0
 10
187.6942849867707
 20
13.97385201007804
 30
0.0
 10
187.6477246372935
 20
14.0875942104631
 30
0.0
 10
187.989089731245
 20
14.05576301120046
 30
0.0
 10
188.2679649367386
 20
14.02161435106474
 30
0.0
 10
188.2617753034907
 20
14.1691397647965
 30
0.0
 10
188.2630935452773
 20
14.24013150908831
 30
0.0
 10
188.2624831689947
 20
14.34719767958659
 30
0.0
 10
188.2625871570725
 20
14.47398529785997
 30
0.0
 10
188.2629987964055
 20
14.60849243496048
 30
0.0
 10
188.2613907841969
 20
14.73395549951183
 30
0.0
 10
188.2659902567925
 20
14.84505246719116
 30
0.0
 10
188.256418650221
 20
14.90761886800687
 30
0.0
 10
188.2704001783691
 20
14.96595388295
 30
0.0
 10
188.2147384386704
 20
14.95289710582237
 30
0.0
 10
188.1575655197821
 20
14.96136307749497
 30
0.0
 10
188.0616048925648
 20
14.95729976080635
 30
0.0
 10
187.963376752282
 20
14.95970889852473
 30
0.0
 10
187.8672582457561
 20
14.95551600613387
 30
0.0
 10
187.8104648525811
 20
14.96429346441162
 30
0.0
 10
187.7550356873384
 20
14.9509493685012
 30
0.0
 10
187.7670679427917
 20
15.00036910959256
 30
0.0
 10
187.7592003173937
 20
15.04393988030394
 30
0.0
 10
187.7666295563828
 20
15.08830469118524
 30
0.0
 10
187.7551930564143
 20
15.1390229776399
 30
0.0
 10
187.8232102370133
 20
15.12162460757742
 30
0.0
 10
187.8968496879747
 20
15.13417450237187
 30
0.0
 10
188.0325064058211
 20
15.12799677011096
 30
0.0
 10
188.1884909024525
 20
15.13029203093083
 30
0.0
 10
188.3615926358143
 20
15.12940968262529
 30
0.0
 10
188.5346942964181
 20
15.13029207142407
 30
0.0
 10
188.6906789811216
 20
15.12799662955549
 30
0.0
 10
188.8263351889797
 20
15.1341748626243
 30
0.0
 10
188.8999756705652
 20
15.12162394218334
 30
0.0
 10
188.9679914174724
 20
15.13902373012141
 30
0.0
 10
188.9565590885922
 20
15.08830130414554
 30
0.0
 10
188.9639539458297
 20
15.04397060811107
 30
0.0
 10
188.956203991227
 20
15.00028307550195
 30
0.0
 10
188.9681203741877
 20
14.95063590098476
 30
0.0
 10
188.9108170223616
 20
14.96461411338424
 30
0.0
 10
188.8520145789772
 20
14.95539755673253
 30
0.0
 10
188.7525293633199
 20
14.95952268164928
 30
0.0
 10
188.649428009835
 20
14.95822760025887
 30
0.0
 10
188.5537846354573
 20
14.95854077077639
 30
0.0
 10
188.4857467971617
 20
14.95848776697144
 30
0.0
 10
188.4514462213443
 20
14.95849051871655
 30
0.0
 10
188.4418622390564
 20
14.95849128473263
 30
0.0
 11
188.4418622390564
 21
14.95849128473263
 31
0.0
 11
188.4418622390564
 21
14.92423666587183
 31
0.0
 11
188.4418622390564
 21
14.83392903432974
 31
0.0
 11
188.4418622390564
 21
14.70625272766678
 31
0.0
 11
188.4418622390564
 21
14.55989208344338
 31
0.0
 11
188.4418622390564
 21
14.41353143921998
 31
0.0
 11
188.4418622390564
 21
14.28585513255702
 31
0.0
 11
188.4418622390564
 21
14.19554750101493
 31
0.0
 11
188.4418622390564
 21
14.16129288215413
 31
0.0
 11
188.7391932644567
 21
14.22709475713767
 31
0.0
 11
189.0384623627245
 21
14.29496038212071
 31
0.0
 11
189.0405487124976
 21
14.27030727882826
 31
0.0
 11
189.0451386819987
 21
14.21607045158489
 31
0.0
 11
189.0497286514996
 21
14.1618336243415
 31
0.0
 11
189.0518150012728
 21
14.13718052104906
 31
0.0
 11
188.705639688924
 21
14.05163370140896
 31
0.0
 11
188.3669653138837
 21
13.97060877629899
 31
0.0
 11
188.0563731516688
 21
13.89862764024927
 31
0.0
 11
187.7944444777955
 21
13.84021218778989
 31
0.0
 11
187.7817515029292
 21
13.81283442738011
 31
0.0
 11
187.7569794787513
 21
13.79740260446734
 31
0.0
 11
187.7491867589501
 21
13.81910683390635
 31
0.0
 11
187.7306041194242
 21
13.87086307333785
 31
0.0
 11
187.70842483999
 21
13.9326366494335
 31
0.0
 11
187.689842200464
 21
13.984392888865
 31
0.0
 11
187.6820494806628
 21
14.00609711830401
 31
0.0
 11
187.9482776335931
 21
14.05794001759664
 31
0.0
 11
188.2626334936289
 21
14.12373968771908
 31
0.0
 11
188.2626334936289
 21
14.15236628569623
 31
0.0
 11
188.2626334936289
 21
14.22908556827497
 31
0.0
 11
188.2626334936289
 21
14.3401567684263
 31
0.0
 11
188.2626334936289
 21
14.47183911912116
 31
0.0
 11
188.2626334936289
 21
14.61039185333054
 31
0.0
 11
188.2626334936289
 21
14.74207420402542
 31
0.0
 11
188.2626334936289
 21
14.85314540417674
 31
0.0
 11
188.2626334936289
 21
14.92986468675549
 31
0.0
 11
188.2626334936289
 21
14.95849128473263
 31
0.0
 11
188.2349191321108
 21
14.95849128473263
 31
0.0
 11
188.1634452524063
 21
14.95849128473263
 31
0.0
 11
188.06571566179
 21
14.95849128473263
 31
0.0
 11
187.9592341675364
 21
14.95849128473263
 31
0.0
 11
187.8615045769201
 21
14.95849128473263
 31
0.0
 11
187.7900306972156
 21
14.95849128473263
 31
0.0
 11
187.7623163356975
 21
14.95849128473263
 31
0.0
 11
187.7623163356975
 21
14.98524451823288
 31
0.0
 11
187.7623163356975
 21
15.04410163193343
 31
0.0
 11
187.7623163356975
 21
15.10295874563398
 31
0.0
 11
187.7623163356975
 21
15.12971197913423
 31
0.0
 11
187.7958758072874
 21
15.12971197913423
 31
0.0
 11
187.8869658016031
 21
15.12971197913423
 31
0.0
 11
188.0212036879629
 21
15.12971197913423
 31
0.0
 11
188.1842068356856
 21
15.12971197913423
 31
0.0
 11
188.3615926140897
 21
15.12971197913423
 31
0.0
 11
188.5389783924938
 21
15.12971197913423
 31
0.0
 11
188.7019815402164
 21
15.12971197913423
 31
0.0
 11
188.8362194265763
 21
15.12971197913423
 31
0.0
 11
188.9273094208918
 21
15.12971197913423
 31
0.0
 11
188.9608688924818
 21
15.12971197913423
 31
0.0
 11
188.9608688924818
 21
15.10295874563398
 31
0.0
 11
188.9608688924818
 21
15.04410163193343
 31
0.0
 11
188.9608688924818
 21
14.98524451823288
 31
0.0
 11
188.9608688924818
 21
14.95849128473263
 31
0.0
 11
188.9321192527877
 21
14.95849128473263
 31
0.0
 11
188.8579754451555
 21
14.95849128473263
 31
0.0
 11
188.7565951367604
 21
14.95849128473263
 31
0.0
 11
188.6461359947778
 21
14.95849128473263
 31
0.0
 11
188.5447556863827
 21
14.95849128473263
 31
0.0
 11
188.4706118787505
 21
14.95849128473263
 31
0.0
 11
188.4418622390564
 21
14.95849128473263
 31
0.0
  0
SPLINE
  5
B9
102
{ACAD_REACTORS
330
D6
102
}
330
48
100
AcDbEntity
  8
_U_30EC_U_30A4_U_30E4_U_30FC_1
  6
Continuous
 62
     2
100
AcDbSpline
210
0.0
220
0.0
230
1.0
 70
    11
 71
     3
 72
    91
 73
    87
 74
    85
 42
0.000000001
 43
0.0000000001
 44
0.00000001
 40
0.0
 40
0.0
 40
0.0
 40
0.0
 40
0.0345987051695718
 40
0.1258134969461369
 40
0.2547723404888987
 40
0.4026032099154125
 40
0.5504340793416704
 40
0.679392922883608
 40
0.7706077146571035
 40
0.8052064287780925
 40
1.124852390615277
 40
1.427402236308871
 40
1.706356627453511
 40
1.955541417875194
 40
2.169485938566339
 40
2.344350786664807
 40
2.480568411561957
 40
2.590440557428979
 40
2.649189927151108
 40
2.74932064330631
 40
2.912632739880006
 40
3.147745656000206
 40
3.244827496385098
 40
3.338490056946689
 40
3.583815413207111
 40
3.761423943238469
 40
3.88695610436263
 40
3.985855451886836
 40
4.091766255337749
 40
4.250186473811914
 40
4.422734315084537
 40
4.62828568483863
 40
4.872093227758449
 40
5.152549652145558
 40
5.464967135837538
 40
5.803201477852457
 40
6.160362988813935
 40
6.19344944827599
 40
6.284170385501644
 40
6.419718138764514
 40
6.587285046385764
 40
6.774063446723678
 40
6.967245678113661
 40
7.154024078817647
 40
7.321590987026033
 40
7.457138740890391
 40
7.547859678556128
 40
7.580946138182687
 40
7.60853308471474
 40
7.669224367077716
 40
7.729915649429932
 40
7.757502595949983
 40
7.790278062553437
 40
7.880146277430935
 40
8.014419963180398
 40
8.180411842397898
 40
8.365434637679368
 40
8.556801071622669
 40
8.741823866830781
 40
8.907815745916292
 40
9.042089431507446
 40
9.131957646249571
 40
9.164733112797148
 40
9.415425063140075
 40
9.667986180958536
 40
9.694169807462675
 40
9.756607686047664
 40
9.831130315322556
 40
9.89356819390002
 40
9.919751820398837
 40
9.95096796469067
 40
9.996421631210781
 40
10.22087981037466
 40
10.44341866197555
 40
10.47847970788867
 40
10.57091337438768
 40
10.70159545461242
 40
10.85140174170373
 40
11.0012080288049
 40
11.13189010907395
 40
11.22432377583023
 40
11.25938480938969
 40
11.28697175596158
 40
11.34766303835932
 40
11.40835432042082
 40
11.43594125892117
 40
11.43594125892117
 40
11.43594125892117
 40
11.43594125892117
 10
190.0818114333289
 20
15.55242795125076
 30
0.0
 10
190.0702785844941
 20
15.55242790287914
 30
0.0
 10
190.0283409444998
 20
15.55242773704163
 30
0.0
 10
189.9434129719026
 20
15.55243125800908
 30
0.0
 10
189.8207688553128
 20
15.55240926435877
 30
0.0
 10
189.6791206916993
 20
15.55250801177053
 30
0.0
 10
189.537975369849
 20
15.5521468623242
 30
0.0
 10
189.4141351317905
 20
15.55321883609088
 30
0.0
 10
189.3317217825382
 20
15.55092249091268
 30
0.0
 10
189.1727791229692
 20
15.56048569373418
 30
0.0
 10
189.3503402353375
 20
15.19785394311369
 30
0.0
 10
189.3379739205452
 20
14.95243127723113
 30
0.0
 10
189.4064519473864
 20
14.66862501324834
 30
0.0
 10
189.469302432097
 20
14.43250999939035
 30
0.0
 10
189.5452253431728
 20
14.23326740396127
 30
0.0
 10
189.6303189577016
 20
14.07745347451373
 30
0.0
 10
189.7244607592935
 20
13.97657857781391
 30
0.0
 10
189.8282648207728
 20
13.92465852638963
 30
0.0
 10
189.9125872030773
 20
13.97606484379617
 30
0.0
 10
189.9351322179452
 20
14.09144544037516
 30
0.0
 10
189.974573097537
 20
14.21885149702379
 30
0.0
 10
189.9202919734942
 20
14.53622328086753
 30
0.0
 10
190.0451218072473
 20
14.38982180140904
 30
0.0
 10
190.2019291513603
 20
14.35795300331169
 30
0.0
 10
190.0947720007056
 20
14.12421357767626
 30
0.0
 10
190.0808711209868
 20
13.95972776583656
 30
0.0
 10
190.0234709467225
 20
13.83130869122479
 30
0.0
 10
189.9335020145008
 20
13.76018802352826
 30
0.0
 10
189.8095274657877
 20
13.74432324142252
 30
0.0
 10
189.6634273196859
 20
13.7799379755417
 30
0.0
 10
189.5243894320284
 20
13.90000570500277
 30
0.0
 10
189.4102003962144
 20
14.07435682550318
 30
0.0
 10
189.3146141301485
 20
14.2994660311124
 30
0.0
 10
189.2318652572626
 20
14.56388246006441
 30
0.0
 10
189.1807179256411
 20
14.88187933098541
 30
0.0
 10
189.0770189207338
 20
15.15543728488911
 30
0.0
 10
189.2042841208522
 20
15.56005818612866
 30
0.0
 10
189.0357890623018
 20
15.55112367849677
 30
0.0
 10
188.9511995787077
 20
15.55315961418362
 30
0.0
 10
188.8189876387627
 20
15.55213937388405
 30
0.0
 10
188.6560505094104
 20
15.55253230318428
 30
0.0
 10
188.4733759170532
 20
15.55235696313367
 30
0.0
 10
188.2847057373383
 20
15.55260105307467
 30
0.0
 10
188.1014469020189
 20
15.55185657906235
 30
0.0
 10
187.9404746832718
 20
15.55416360522424
 30
0.0
 10
187.8029808335276
 20
15.54799804883661
 30
0.0
 10
187.728959037231
 20
15.5603283845821
 30
0.0
 10
187.6613215186856
 20
15.54329323723555
 30
0.0
 10
187.673237371927
 20
15.59524438447527
 30
0.0
 10
187.6655677285694
 20
15.64071424966527
 30
0.0
 10
187.6732592225115
 20
15.68614453703704
 30
0.0
 10
187.6613141797762
 20
15.73802395984568
 30
0.0
 10
187.7283588305867
 20
15.72119143490262
 30
0.0
 10
187.8017375665677
 20
15.73335409092669
 30
0.0
 10
187.9379128305271
 20
15.72727231074956
 30
0.0
 10
188.0973811801513
 20
15.72954834315056
 30
0.0
 10
188.2789173085836
 20
15.7288123399896
 30
0.0
 10
188.4658034862179
 20
15.72905954196131
 30
0.0
 10
188.6468012316836
 20
15.72886400799251
 30
0.0
 10
188.8080802578878
 20
15.72932234714837
 30
0.0
 10
188.9393882124887
 20
15.72812673751204
 30
0.0
 10
189.0225051322596
 20
15.73051347319741
 30
0.0
 10
189.1556236547814
 20
15.72230605725462
 30
0.0
 10
189.0645893502659
 20
15.97752868952654
 30
0.0
 10
188.9789633074416
 20
16.24164358328242
 30
0.0
 10
189.0990589003455
 20
16.22904442969164
 30
0.0
 10
189.1514264948542
 20
16.22694235763072
 30
0.0
 10
189.2214497569716
 20
16.22535399889655
 30
0.0
 10
189.2671922337817
 20
16.2160256753811
 30
0.0
 10
189.3220812646934
 20
16.22545966915425
 30
0.0
 10
189.2963574785681
 20
16.17733028655171
 30
0.0
 10
189.1825397571453
 20
16.18266829744165
 30
0.0
 10
189.3159346621136
 20
15.95449174576775
 30
0.0
 10
189.1943658735471
 20
15.7215685659592
 30
0.0
 10
189.3223188769413
 20
15.73087258884437
 30
0.0
 10
189.4049048406461
 20
15.72801001754678
 30
0.0
 10
189.5307214850824
 20
15.729234374123
 30
0.0
 10
189.6741469838057
 20
15.72932431888962
 30
0.0
 10
189.8157420951728
 20
15.72746163183851
 30
0.0
 10
189.9459127249967
 20
15.73333075937161
 30
0.0
 10
190.0193452286191
 20
15.72070340823201
 30
0.0
 10
190.0891112922096
 20
15.7387756311041
 30
0.0
 10
190.0775772605396
 20
15.68612850546324
 30
0.0
 10
190.0833184346682
 20
15.64221317686545
 30
0.0
 10
190.0816615770912
 20
15.59089982676548
 30
0.0
 10
190.0817757561669
 20
15.56158792021633
 30
0.0
 10
190.0818114333289
 20
15.55242795125076
 30
0.0
 11
190.0818114333289
 21
15.55242795125076
 31
0.0
 11
190.0472127192051
 21
15.55242795125076
 31
0.0
 11
189.9559979274241
 21
15.55242795125076
 31
0.0
 11
189.8270390838717
 21
15.55242795125076
 31
0.0
 11
189.6792082144335
 21
15.55242795125076
 31
0.0
 11
189.5313773449954
 21
15.55242795125076
 31
0.0
 11
189.402418501443
 21
15.55242795125076
 31
0.0
 11
189.311203709662
 21
15.55242795125076
 31
0.0
 11
189.2766049955382
 21
15.55242795125076
 31
0.0
 11
189.3083140497693
 21
15.2343586493012
 31
0.0
 11
189.3527866656865
 21
14.93509522788079
 31
0.0
 11
189.4092389118319
 21
14.66191269512575
 31
0.0
 11
189.4768868567478
 21
14.42208605917226
 31
0.0
 11
189.5549465689761
 21
14.22289032815653
 31
0.0
 11
189.6426341170591
 21
14.07160051021476
 31
0.0
 11
189.7391655695388
 21
13.97549161348316
 31
0.0
 11
189.8437569949575
 21
13.94183864609791
 31
0.0
 11
189.8943077302785
 21
13.97177376978834
 31
0.0
 11
189.9310588991551
 21
14.06491619815046
 31
0.0
 11
189.9562640977527
 21
14.22627151712053
 31
0.0
 11
189.9721769222368
 21
14.4608453126348
 31
0.0
 11
190.0494082682583
 21
14.40202182306616
 31
0.0
 11
190.1327184184385
 21
14.35921885432688
 31
0.0
 11
190.1066365811217
 21
14.11528388661008
 31
0.0
 11
190.0673317805105
 21
13.94207902887561
 31
0.0
 11
190.0105702596765
 21
13.83011272445916
 31
0.0
 11
189.932118261691
 21
13.76989341669644
 31
0.0
 11
189.8277420296255
 21
13.75192954892316
 31
0.0
 11
189.6738595065096
 21
13.7895744001236
 31
0.0
 11
189.5388902376747
 21
13.89707348877402
 31
0.0
 11
189.4221739916162
 21
14.06627361744807
 31
0.0
 11
189.32305053683
 21
14.28902158871942
 31
0.0
 11
189.2408596418113
 21
14.5571642051617
 31
0.0
 11
189.1749410750559
 21
14.86254826934859
 31
0.0
 11
189.1246346050593
 21
15.19702058385372
 31
0.0
 11
189.0892800003171
 21
15.55242795125076
 31
0.0
 11
189.0561935405844
 21
15.55242795125076
 31
0.0
 11
188.9654726026075
 21
15.55242795125076
 31
0.0
 11
188.8299248482185
 21
15.55242795125076
 31
0.0
 11
188.6623579392495
 21
15.55242795125076
 31
0.0
 11
188.4755795375324
 21
15.55242795125076
 31
0.0
 11
188.2823973048992
 21
15.55242795125076
 31
0.0
 11
188.0956189031822
 21
15.55242795125076
 31
0.0
 11
187.9280519942131
 21
15.55242795125076
 31
0.0
 11
187.7925042398241
 21
15.55242795125076
 31
0.0
 11
187.7017833018473
 21
15.55242795125076
 31
0.0
 11
187.6686968421145
 21
15.55242795125076
 31
0.0
 11
187.6686968421145
 21
15.58001489785845
 31
0.0
 11
187.6686968421145
 21
15.64070618039536
 31
0.0
 11
187.6686968421145
 21
15.70139746293227
 31
0.0
 11
187.6686968421145
 21
15.72898440953996
 31
0.0
 11
187.7014723087631
 21
15.72898440953996
 31
0.0
 11
187.7913405237673
 21
15.72898440953996
 31
0.0
 11
187.9256142097148
 21
15.72898440953996
 31
0.0
 11
188.0916060891932
 21
15.72898440953996
 31
0.0
 11
188.2766288847901
 21
15.72898440953996
 31
0.0
 11
188.4679953190932
 21
15.72898440953996
 31
0.0
 11
188.6530181146902
 21
15.72898440953996
 31
0.0
 11
188.8190099941685
 21
15.72898440953996
 31
0.0
 11
188.953283680116
 21
15.72898440953996
 31
0.0
 11
189.0431518951202
 21
15.72898440953996
 31
0.0
 11
189.0759273617688
 21
15.72898440953996
 31
0.0
 11
189.0659183950103
 21
15.97947647544957
 31
0.0
 11
189.0599112510662
 21
16.23196614552529
 31
0.0
 11
189.0860575870658
 21
16.2305692160812
 31
0.0
 11
189.1484065421418
 21
16.22723807663759
 31
0.0
 11
189.2228230369099
 21
16.22326220052748
 31
0.0
 11
189.2851719919859
 21
16.21993106108387
 31
0.0
 11
189.3113183279855
 21
16.21853413163977
 31
0.0
 11
189.298293111304
 21
16.19016528616078
 31
0.0
 11
189.2551649266405
 21
16.17581274276162
 31
0.0
 11
189.2574991961821
 21
15.95136670115106
 31
0.0
 11
189.2658452735903
 21
15.72898440953996
 31
0.0
 11
189.3009063195165
 21
15.72898440953996
 31
0.0
 11
189.3933399860495
 21
15.72898440953996
 31
0.0
 11
189.5240220663201
 21
15.72898440953996
 31
0.0
 11
189.6738283534596
 21
15.72898440953996
 31
0.0
 11
189.8236346405991
 21
15.72898440953996
 31
0.0
 11
189.9543167208697
 21
15.72898440953996
 31
0.0
 11
190.0467503874027
 21
15.72898440953996
 31
0.0
 11
190.0818114333289
 21
15.72898440953996
 31
0.0
 11
190.0818114333289
 21
15.70139746293227
 31
0.0
 11
190.0818114333289
 21
15.64070618039536
 31
0.0
 11
190.0818114333289
 21
15.58001489785845
 31
0.0
 11
190.0818114333289
 21
15.55242795125076
 31
0.0
  0
SPLINE
  5
BA
102
{ACAD_REACTORS
330
D7
102
}
330
48
100
AcDbEntity
  8
_U_30EC_U_30A4_U_30E4_U_30FC_1
  6
Continuous
 62
     2
100
AcDbSpline
210
0.0
220
0.0
230
1.0
 70
    11
 71
     3
 72
   118
 73
   114
 74
   112
 42
0.000000001
 43
0.0000000001
 44
0.00000001
 40
0.0
 40
0.0
 40
0.0
 40
0.0
 40
0.1054708162973237
 40
0.2466098270051737
 40
0.3965912874591089
 40
0.5285525069753846
 40
0.6156245055642261
 40
0.6431434105797573
 40
0.7036850037986432
 40
0.7642265984504998
 40
0.7917455052355484
 40
0.9287404319990332
 40
1.106572819088057
 40
1.28754487968106
 40
1.317578308030577
 40
1.399928030857214
 40
1.522968204799988
 40
1.67507298659061
 40
1.84461653318069
 40
2.019973001638751
 40
2.189516548880063
 40
2.341621331585404
 40
2.46466150632054
 40
2.547011229647103
 40
2.577044658168067
 40
2.603797890893138
 40
2.66265500290891
 40
2.721512114949751
 40
2.74826534770293
 40
2.774215307345005
 40
2.845959313407335
 40
2.954338556588536
 40
3.090194227585711
 40
3.244367517100673
 40
3.407699615844433
 40
3.571031714539578
 40
3.725205003920256
 40
3.861060674729756
 40
3.969439917716447
 40
4.041183923629121
 40
4.067133883213113
 40
4.311886746012283
 40
4.547897258335627
 40
4.764747083044066
 40
4.952749679951869
 40
5.045772974195994
 40
5.137862019645079
 40
5.330543169793132
 40
5.553448265244127
 40
5.795083855888287
 40
6.043293412177351
 40
6.285761695541296
 40
6.31390290875278
 40
6.38425594179337
 40
6.475714884766958
 40
6.567173827759021
 40
6.637526860839799
 40
6.665668074074162
 40
6.692018920328133
 40
6.749990782071201
 40
6.807962643790567
 40
6.834313490018038
 40
6.856393084245289
 40
6.913335195649941
 40
6.991194817302576
 40
7.07602694228378
 40
7.153886563725299
 40
7.210828674844825
 40
7.23290826893116
 40
7.258199334923681
 40
7.324875781592331
 40
7.419142481924988
 40
7.527204308841927
 40
7.635266135230507
 40
7.72953283416849
 40
7.796209279292812
 40
7.821500344594758
 40
7.844652988850857
 40
7.899863140541664
 40
7.965759128053831
 40
8.020969279771172
 40
8.044121924046639
 40
8.069356610160726
 40
8.1091343954415
 40
8.132238100191211
 40
8.193147867786577
 40
8.279261678876749
 40
8.377977512673962
 40
8.476693347146744
 40
8.562807160411797
 40
8.623716930826584
 40
8.646820636853537
 40
8.67198879377435
 40
8.734909185828261
 40
8.816705695188976
 40
8.898502204815546
 40
8.961422597378007
 40
8.98659075455112
 40
9.012941600733274
 40
9.070913462380355
 40
9.128885324081846
 40
9.155236170325166
 40
9.180404327929208
 40
9.243324721948282
 40
9.325121234212075
 40
9.40691774663773
 40
9.469838141978185
 40
9.49500628827096
 40
9.5178111843791
 40
9.572192090487102
 40
9.63709833328133
 40
9.69147923951553
 40
9.71428412564357
 40
9.71428412564357
 40
9.71428412564357
 40
9.71428412564357
 10
185.2874469028653
 20
15.26889163187718
 30
0.0
 10
185.3090990569037
 20
15.2411186924281
 30
0.0
 10
185.3597257109473
 20
15.17618054561233
 30
0.0
 10
185.4349383202591
 20
15.06891060312897
 30
0.0
 10
185.5248482274346
 20
14.95377438266624
 30
0.0
 10
185.5709169676673
 20
14.85357045748317
 30
0.0
 10
185.6655825294654
 20
14.78434006814941
 30
0.0
 10
185.6204439320413
 20
14.73771639678271
 30
0.0
 10
185.5947047785789
 20
14.69660308866037
 30
0.0
 10
185.5645196708012
 20
14.66065971727937
 30
0.0
 10
185.519368473056
 20
14.58579782596093
 30
0.0
 10
185.4710504458562
 20
14.80782524253601
 30
0.0
 10
185.3968539713073
 20
14.8451067733771
 30
0.0
 10
185.2836047324607
 20
15.11610202130599
 30
0.0
 10
185.2885133578169
 20
15.00095328446228
 30
0.0
 10
185.2868486556306
 20
14.92836675781627
 30
0.0
 10
185.2876830076713
 20
14.80625588483985
 30
0.0
 10
185.2873609540264
 20
14.65913800810459
 30
0.0
 10
185.2875076912455
 20
14.49307063956556
 30
0.0
 10
185.2872950092722
 20
14.32187554608601
 30
0.0
 10
185.2879497252034
 20
14.15552828635497
 30
0.0
 10
185.2859192461139
 20
14.00935173055692
 30
0.0
 10
185.291346039993
 20
13.88471047474609
 30
0.0
 10
185.2804930868708
 20
13.81718656540625
 30
0.0
 10
185.2956739155555
 20
13.75549061417021
 30
0.0
 10
185.2457895108133
 20
13.76727503897002
 30
0.0
 10
185.2017150342521
 20
13.75943822779967
 30
0.0
 10
185.15823716302
 20
13.76760441372702
 30
0.0
 10
185.1092346786487
 20
13.75538056738467
 30
0.0
 10
185.1218731234823
 20
13.80960667249312
 30
0.0
 10
185.1130182968449
 20
13.86936918907557
 30
0.0
 10
185.1175058770312
 20
13.97922029044369
 30
0.0
 10
185.115796013599
 20
14.11029975405677
 30
0.0
 10
185.1163550915985
 20
14.26198011444326
 30
0.0
 10
185.1161928768693
 20
14.42211074929951
 30
0.0
 10
185.1162269924674
 20
14.58236865674565
 30
0.0
 10
185.1162514960125
 20
14.73370247520438
 30
0.0
 10
185.1161453543224
 20
14.86582156338599
 30
0.0
 10
185.116429914193
 20
14.97294802533191
 30
0.0
 10
185.1158675547567
 20
15.03808619579472
 30
0.0
 10
185.1180765083687
 20
15.16618957858671
 30
0.0
 10
185.0319435998602
 20
14.79097610391574
 30
0.0
 10
184.9555140818499
 20
14.63918193123392
 30
0.0
 10
184.8660040767834
 20
14.47766206446304
 30
0.0
 10
184.7640413217327
 20
14.2047184882017
 30
0.0
 10
184.7187976491038
 20
14.36717346596508
 30
0.0
 10
184.6102355941671
 20
14.45605432058118
 30
0.0
 10
184.7995791751753
 20
14.60549794961408
 30
0.0
 10
184.85653405457
 20
14.79749136974924
 30
0.0
 10
184.9717520993352
 20
15.02899622906756
 30
0.0
 10
184.9940151630132
 20
15.21797259759062
 30
0.0
 10
185.177190515214
 20
15.49454089325929
 30
0.0
 10
185.0538033597552
 20
15.48698978832093
 30
0.0
 10
184.9925684166834
 20
15.48856772366118
 30
0.0
 10
184.9081999617064
 20
15.48882592573671
 30
0.0
 10
184.8204235085966
 20
15.48544845751205
 30
0.0
 10
184.7656768696122
 20
15.49394814982019
 30
0.0
 10
184.7104703026024
 20
15.48048561049787
 30
0.0
 10
184.7222823035537
 20
15.52931442126762
 30
0.0
 10
184.7142496151793
 20
15.57269004896707
 30
0.0
 10
184.7228186104679
 20
15.61509438309571
 30
0.0
 10
184.7102943409156
 20
15.66267796552115
 30
0.0
 10
184.7555101538736
 20
15.65267212995107
 30
0.0
 10
184.8014815562723
 20
15.65894105174059
 30
0.0
 10
184.877722204771
 20
15.65593561405871
 30
0.0
 10
184.9561296131993
 20
15.65770448278539
 30
0.0
 10
185.0323992648932
 20
15.65464793981658
 30
0.0
 10
185.0783009459473
 20
15.66103971376175
 30
0.0
 10
185.1231733965399
 20
15.65093822978894
 30
0.0
 10
185.1105552275633
 20
15.70157201581897
 30
0.0
 10
185.1191936582705
 20
15.75501261882068
 30
0.0
 10
185.1152361595441
 20
15.84863255131678
 30
0.0
 10
185.1162325068334
 20
15.95112606688922
 30
0.0
 10
185.1171927413072
 20
16.05353270248161
 30
0.0
 10
185.1133211458005
 20
16.14735929609319
 30
0.0
 10
185.1217789814363
 20
16.20036542840351
 30
0.0
 10
185.1093075932834
 20
16.25211435651186
 30
0.0
 10
185.1542106389849
 20
16.23850747226755
 30
0.0
 10
185.1955083836771
 20
16.24100480320583
 30
0.0
 10
185.259534428105
 20
16.23648060574485
 30
0.0
 10
185.2986111148786
 20
16.22781003043306
 30
0.0
 10
185.3476543498742
 20
16.23515102070684
 30
0.0
 10
185.322508003059
 20
16.19602896051757
 30
0.0
 10
185.2815901333723
 20
16.20563842455806
 30
0.0
 10
185.2910109616604
 20
16.15540148169776
 30
0.0
 10
185.2855647318746
 20
16.10385945639488
 30
0.0
 10
185.2881699601803
 20
16.01959707584518
 30
0.0
 10
185.2870102202153
 20
15.92559135583406
 30
0.0
 10
185.2883591064231
 20
15.83196865395523
 30
0.0
 10
185.2849970101509
 20
15.74679517552221
 30
0.0
 10
185.2920959917769
 20
15.69716856072042
 30
0.0
 10
185.2812569154545
 20
15.64993694969987
 30
0.0
 10
185.3304010225245
 20
15.6620167493685
 30
0.0
 10
185.3794877630147
 20
15.65447393363009
 30
0.0
 10
185.4573714280641
 20
15.65686070361431
 30
0.0
 10
185.5350365172896
 20
15.65899381905413
 30
0.0
 10
185.5845393931354
 20
15.65193391922452
 30
0.0
 10
185.6344594750639
 20
15.66360151936212
 30
0.0
 10
185.622319851688
 20
15.61540235371391
 30
0.0
 10
185.6305838229143
 20
15.57249219801234
 30
0.0
 10
185.6223198650783
 20
15.52958201851383
 30
0.0
 10
185.6344594549854
 20
15.48138288754863
 30
0.0
 10
185.5845395158746
 20
15.49305034471509
 30
0.0
 10
185.5350350651202
 20
15.48599202435044
 30
0.0
 10
185.4573784382973
 20
15.48811665228602
 30
0.0
 10
185.379464386576
 20
15.49053389365759
 30
0.0
 10
185.3304500352716
 20
15.48291848194484
 30
0.0
 10
185.2813246108943
 20
15.49507952557592
 30
0.0
 10
185.2915559988571
 20
15.45073013424156
 30
0.0
 10
185.2856677678053
 20
15.4092543620291
 30
0.0
 10
185.2878788305568
 20
15.34915394315302
 30
0.0
 10
185.2874109346146
 20
15.30225782762887
 30
0.0
 10
185.2874386992913
 20
15.27650146418195
 30
0.0
 10
185.2874469028653
 20
15.26889163187718
 30
0.0
 11
185.2874469028653
 21
15.26889163187718
 31
0.0
 11
185.3516977534484
 21
15.18524999634255
 31
0.0
 11
185.4348258835499
 21
15.07118889748219
 31
0.0
 11
185.5216831568895
 21
14.94891767195722
 31
0.0
 11
185.5971214371872
 21
14.84064565642874
 31
0.0
 11
185.6459925881626
 21
14.76858218755788
 31
0.0
 11
185.6296821285093
 21
14.74641782124397
 31
0.0
 11
185.5937991172719
 21
14.69765621535338
 31
0.0
 11
185.5579161060346
 21
14.64889460946278
 31
0.0
 11
185.5416056463812
 21
14.62673024314887
 31
0.0
 11
185.4763067109445
 21
14.74716139023811
 31
0.0
 11
185.3848434243234
 21
14.89966983670205
 31
0.0
 11
185.2874469028653
 21
15.05219788193141
 31
0.0
 11
185.2874469028653
 21
15.02216445328252
 31
0.0
 11
185.2874469028653
 21
14.93981472956782
 31
0.0
 11
185.2874469028653
 21
14.81677455413527
 31
0.0
 11
185.2874469028653
 21
14.66466977033282
 31
0.0
 11
185.2874469028653
 21
14.49512622150844
 31
0.0
 11
185.2874469028653
 21
14.31976975101008
 31
0.0
 11
185.2874469028653
 21
14.1502262021857
 31
0.0
 11
185.2874469028653
 21
13.99812141838325
 31
0.0
 11
185.2874469028653
 21
13.8750812429507
 31
0.0
 11
185.2874469028653
 21
13.792731519236
 31
0.0
 11
185.2874469028653
 21
13.76269809058711
 31
0.0
 11
185.2606936700409
 21
13.76269809058711
 31
0.0
 11
185.2018365578271
 21
13.76269809058711
 31
0.0
 11
185.1429794456133
 21
13.76269809058711
 31
0.0
 11
185.1162262127889
 21
13.76269809058711
 31
0.0
 11
185.1162262127889
 21
13.78864805031249
 31
0.0
 11
185.1162262127889
 21
13.86039205661207
 31
0.0
 11
185.1162262127889
 21
13.968771300171
 31
0.0
 11
185.1162262127889
 21
14.10462697167446
 31
0.0
 11
185.1162262127889
 21
14.25880026180759
 31
0.0
 11
185.1162262127889
 21
14.42213236125557
 31
0.0
 11
185.1162262127889
 21
14.58546446070354
 31
0.0
 11
185.1162262127889
 21
14.73963775083668
 31
0.0
 11
185.1162262127889
 21
14.87549342234014
 31
0.0
 11
185.1162262127889
 21
14.98387266589907
 31
0.0
 11
185.1162262127889
 21
15.05561667219865
 31
0.0
 11
185.1162262127889
 21
15.08156663192403
 31
0.0
 11
185.0379865861721
 21
14.8496560330237
 31
0.0
 11
184.9497110789303
 21
14.63077616328676
 31
0.0
 11
184.8544106930045
 21
14.43598991333545
 31
0.0
 11
184.7550964303356
 21
14.276360173792
 31
0.0
 11
184.7109198342406
 21
14.35822446196597
 31
0.0
 11
184.658805738348
 21
14.43414885430809
 31
0.0
 11
184.7627302590299
 21
14.59640087926756
 31
0.0
 11
184.8629319864735
 21
14.79551465421779
 31
0.0
 11
184.9550446607901
 21
15.01890447916195
 31
0.0
 11
185.0347020220912
 21
15.25398465410318
 31
0.0
 11
185.097537810488
 21
15.48816947904464
 31
0.0
 11
185.0693965972142
 21
15.48816947904464
 31
0.0
 11
184.9990435640297
 21
15.48816947904464
 31
0.0
 11
184.9075846208898
 21
15.48816947904464
 31
0.0
 11
184.8161256777499
 21
15.48816947904464
 31
0.0
 11
184.7457726445654
 21
15.48816947904464
 31
0.0
 11
184.7176314312916
 21
15.48816947904464
 31
0.0
 11
184.7176314312916
 21
15.51452032539221
 31
0.0
 11
184.7176314312916
 21
15.57249218735687
 31
0.0
 11
184.7176314312916
 21
15.63046404932153
 31
0.0
 11
184.7176314312916
 21
15.6568148956691
 31
0.0
 11
184.7397110256019
 21
15.6568148956691
 31
0.0
 11
184.7966531372444
 21
15.6568148956691
 31
0.0
 11
184.8745127592862
 21
15.6568148956691
 31
0.0
 11
184.9593448847943
 21
15.6568148956691
 31
0.0
 11
185.0372045068361
 21
15.6568148956691
 31
0.0
 11
185.0941466184785
 21
15.6568148956691
 31
0.0
 11
185.1162262127889
 21
15.6568148956691
 31
0.0
 11
185.1162262127889
 21
15.68210596174351
 31
0.0
 11
185.1162262127889
 21
15.74878240866695
 31
0.0
 11
185.1162262127889
 21
15.84304910948975
 31
0.0
 11
185.1162262127889
 21
15.95111093726222
 31
0.0
 11
185.1162262127889
 21
16.0591727650347
 31
0.0
 11
185.1162262127889
 21
16.15343946585749
 31
0.0
 11
185.1162262127889
 21
16.22011591278093
 31
0.0
 11
185.1162262127889
 21
16.24540697885534
 31
0.0
 11
185.1393181988664
 21
16.24373213107798
 31
0.0
 11
185.1943837041284
 21
16.2397382633012
 31
0.0
 11
185.2601070491183
 21
16.23497138885794
 31
0.0
 11
185.3151725543802
 21
16.23097752108115
 31
0.0
 11
185.3382645404578
 21
16.22930267330379
 31
0.0
 11
185.3249012644362
 21
16.20789677921189
 31
0.0
 11
185.2874469028653
 21
16.19450114553467
 31
0.0
 11
185.2874469028653
 21
16.17139743948576
 31
0.0
 11
185.2874469028653
 21
16.11048766899317
 31
0.0
 11
185.2874469028653
 21
16.02437385553814
 31
0.0
 11
185.2874469028653
 21
15.92565802060188
 31
0.0
 11
185.2874469028653
 21
15.82694218566563
 31
0.0
 11
185.2874469028653
 21
15.7408283722106
 31
0.0
 11
185.2874469028653
 21
15.67991860171801
 31
0.0
 11
185.2874469028653
 21
15.6568148956691
 31
0.0
 11
185.3126150604809
 21
15.6568148956691
 31
0.0
 11
185.3755354545199
 21
15.6568148956691
 31
0.0
 11
185.4573319667706
 21
15.6568148956691
 31
0.0
 11
185.5391284790212
 21
15.6568148956691
 31
0.0
 11
185.6020488730602
 21
15.6568148956691
 31
0.0
 11
185.6272170306758
 21
15.6568148956691
 31
0.0
 11
185.6272170306758
 21
15.63046404932153
 31
0.0
 11
185.6272170306758
 21
15.57249218735687
 31
0.0
 11
185.6272170306758
 21
15.51452032539221
 31
0.0
 11
185.6272170306758
 21
15.48816947904464
 31
0.0
 11
185.6020488730602
 21
15.48816947904464
 31
0.0
 11
185.5391284790212
 21
15.48816947904464
 31
0.0
 11
185.4573319667705
 21
15.48816947904464
 31
0.0
 11
185.3755354545199
 21
15.48816947904464
 31
0.0
 11
185.3126150604809
 21
15.48816947904464
 31
0.0
 11
185.2874469028653
 21
15.48816947904464
 31
0.0
 11
185.2874469028653
 21
15.46536458293923
 31
0.0
 11
185.2874469028653
 21
15.41098367684169
 31
0.0
 11
185.2874469028653
 21
15.34607743408013
 31
0.0
 11
185.2874469028653
 21
15.2916965279826
 31
0.0
 11
185.2874469028653
 21
15.26889163187718
 31
0.0
  0
SPLINE
  5
BB
102
{ACAD_REACTORS
330
D8
102
}
330
48
100
AcDbEntity
  8
_U_30EC_U_30A4_U_30E4_U_30FC_1
  6
Continuous
 62
     2
100
AcDbSpline
210
0.0
220
0.0
230
1.0
 70
    11
 71
     3
 72
    47
 73
    43
 74
    41
 42
0.000000001
 43
0.0000000001
 44
0.00000001
 40
0.0
 40
0.0
 40
0.0
 40
0.0
 40
0.2207912809957248
 40
0.4459404186303168
 40
0.4902387190459955
 40
0.5327473892722059
 40
0.5742260451226233
 40
0.6155432630561809
 40
0.6568164066316726
 40
0.698251161878165
 40
0.7407663929318155
 40
0.7851366743176226
 40
1.010288833836428
 40
1.231080507002284
 40
1.451765243652505
 40
1.676638205891789
 40
1.720461045359762
 40
1.830018144043625
 40
1.972442372353259
 40
2.11486660067763
 40
2.224423699395257
 40
2.268246538883498
 40
2.493628801207321
 40
2.71560283028672
 40
2.934211330706475
 40
3.149502369855469
 40
3.231387784851114
 40
3.318231873854149
 40
3.405143198198137
 40
3.486970301720659
 40
3.702258172494103
 40
3.920866283534334
 40
4.142839325932124
 40
4.368221903865577
 40
4.412044743360057
 40
4.521601842096074
 40
4.664026070452556
 40
4.80645029880927
 40
4.916007397546962
 40
4.959830237043286
 40
5.184703515847317
 40
5.405387250767685
 40
5.405387250767685
 40
5.405387250767685
 40
5.405387250767685
 10
182.6507427258645
 20
15.7340644095387
 30
0.0
 10
182.6568139420002
 20
15.79758482501208
 30
0.0
 10
182.6690762107243
 20
15.92587938689626
 30
0.0
 10
182.5604706879411
 20
16.20166220174077
 30
0.0
 10
182.6761985896603
 20
16.17188133432052
 30
0.0
 10
182.7171842509015
 20
16.16765556262818
 30
0.0
 10
182.7591205797517
 20
16.16310446389605
 30
0.0
 10
182.800419662571
 20
16.16201982929483
 30
0.0
 10
182.8417032115555
 20
16.16310338195225
 30
0.0
 10
182.8836148270647
 20
16.16766112711343
 30
0.0
 10
182.9245983549019
 20
16.17187430209726
 30
0.0
 10
183.0404922843489
 20
16.20177611317535
 30
0.0
 10
182.9295652727455
 20
15.92339806609886
 30
0.0
 10
182.9574856365266
 20
15.74283140824952
 30
0.0
 10
182.9404267346968
 20
15.50961042346469
 30
0.0
 10
182.9414637282102
 20
15.34906622543145
 30
0.0
 10
182.9414099399404
 20
15.22284817558721
 30
0.0
 10
182.9414277372479
 20
15.12428963336239
 30
0.0
 10
182.9414188581079
 20
14.99280702442961
 30
0.0
 10
182.9414263928034
 20
14.86132844968648
 30
0.0
 10
182.9414129405127
 20
14.76276222694088
 30
0.0
 10
182.9414531717492
 20
14.63639735624151
 30
0.0
 10
182.9406746403816
 20
14.47482068822869
 30
0.0
 10
182.9565958319266
 20
14.24361821892913
 30
0.0
 10
182.9333468885407
 20
14.05874351972001
 30
0.0
 10
183.0360183444366
 20
13.78935602770055
 30
0.0
 10
182.8820238362836
 20
13.82660112685815
 30
0.0
 10
182.8004129802833
 20
13.82137994680534
 30
0.0
 10
182.7188192292581
 20
13.82660620378348
 30
0.0
 10
182.5648513666842
 20
13.78937069885384
 30
0.0
 10
182.6674183421918
 20
14.05875129862878
 30
0.0
 10
182.6442045316088
 20
14.24361585325414
 30
0.0
 10
182.6600444655139
 20
14.47482218565637
 30
0.0
 10
182.6593296313426
 20
14.63639712308501
 30
0.0
 10
182.6593664569907
 20
14.76276231210519
 30
0.0
 10
182.659354900027
 20
14.86132756635979
 30
0.0
 10
182.6593575019214
 20
14.99281127417218
 30
0.0
 10
182.6593648531779
 20
15.12427548031198
 30
0.0
 10
182.659344254135
 20
15.22287786275325
 30
0.0
 10
182.6594082192029
 20
15.34896149354426
 30
0.0
 10
182.658173394759
 20
15.5121009138377
 30
0.0
 10
182.6532040396744
 20
15.66054183777548
 30
0.0
 10
182.6507427258645
 20
15.7340644095387
 30
0.0
 11
182.6507427258645
 21
15.7340644095387
 31
0.0
 11
182.6417328200379
 21
15.95467178795576
 31
0.0
 11
182.6318769706145
 21
16.17960510387178
 31
0.0
 11
182.6756985840801
 21
16.17312391463727
 31
0.0
 11
182.7178400934214
 21
16.16754892331923
 31
0.0
 11
182.759137140979
 21
16.16367167505629
 31
0.0
 11
182.8004341885365
 21
16.16238072887606
 31
0.0
 11
182.841687138873
 21
16.16367167505629
 31
0.0
 11
182.8829400892097
 21
16.16754892331923
 31
0.0
 11
182.9250882131343
 21
16.17312391463727
 31
0.0
 11
182.9689825870145
 21
16.17960510387178
 31
0.0
 11
182.9590577693891
 21
15.95467178795576
 31
0.0
 11
182.9500384208309
 21
15.7340644095387
 31
0.0
 11
182.9435638463434
 21
15.51347467001053
 31
0.0
 11
182.9414218238285
 21
15.28861190965006
 31
0.0
 11
182.9414218238285
 21
15.24478907015484
 31
0.0
 11
182.9414218238285
 21
15.13523197141681
 31
0.0
 11
182.9414218238285
 21
14.99280774305736
 31
0.0
 11
182.9414218238285
 21
14.8503835146979
 31
0.0
 11
182.9414218238285
 21
14.74082641595987
 31
0.0
 11
182.9414218238285
 21
14.69700357646465
 31
0.0
 11
182.9435638463434
 21
14.47163149318765
 31
0.0
 11
182.9500384208309
 21
14.24975190990979
 31
0.0
 11
182.9590577693891
 21
14.03132954885328
 31
0.0
 11
182.9689825870145
 21
13.81626739612926
 31
0.0
 11
182.887261616877
 21
13.82145433189184
 31
0.0
 11
182.8004341885365
 21
13.82315538223861
 31
0.0
 11
182.7135395119339
 21
13.82145433189184
 31
0.0
 11
182.6318769706145
 21
13.81626739612926
 31
0.0
 11
182.6417328200379
 21
14.03132954885328
 31
0.0
 11
182.6507427258645
 21
14.24975190990979
 31
0.0
 11
182.6571833838798
 21
14.47163149318765
 31
0.0
 11
182.6593583588023
 21
14.69700357646465
 31
0.0
 11
182.6593583588023
 21
14.74082641595986
 31
0.0
 11
182.6593583588023
 21
14.85038351469791
 31
0.0
 11
182.6593583588023
 21
14.99280774305736
 31
0.0
 11
182.6593583588023
 21
15.13523197141681
 31
0.0
 11
182.6593583588023
 21
15.24478907015484
 31
0.0
 11
182.6593583588023
 21
15.28861190965006
 31
0.0
 11
182.6571833838798
 21
15.51347467001053
 31
0.0
 11
182.6507427258645
 21
15.7340644095387
 31
0.0
  0
SPLINE
  5
BC
102
{ACAD_REACTORS
330
D9
102
}
330
48
100
AcDbEntity
  8
_U_30EC_U_30A4_U_30E4_U_30FC_1
  6
Continuous
 62
     2
100
AcDbSpline
210
0.0
220
0.0
230
1.0
 70
    11
 71
     3
 72
   110
 73
   106
 74
   104
 42
0.000000001
 43
0.0000000001
 44
0.00000001
 40
0.0
 40
0.0
 40
0.0
 40
0.0
 40
0.2203406257277702
 40
0.4407808782838091
 40
0.5952494494615072
 40
0.7488431659393074
 40
0.9023581831309059
 40
1.056801968670404
 40
1.210736449099905
 40
1.363041386539783
 40
1.515315729683126
 40
1.669377239148077
 40
1.721611652756564
 40
1.773199502942944
 40
1.824933793210001
 40
1.877110426487978
 40
1.982682281206741
 40
2.07878166708755
 40
2.172809640822271
 40
2.271937807378925
 40
2.378349933379318
 40
2.494131557736507
 40
2.62668168394364
 40
2.783145050796068
 40
2.890701232940923
 40
2.993130312454817
 40
3.099869730691803
 40
3.220237816691299
 40
3.352695482737588
 40
3.481732806389839
 40
3.593499473690365
 40
3.674323013331886
 40
3.817951711952836
 40
3.946167120793833
 40
4.061405053453519
 40
4.166480796003159
 40
4.262478775059197
 40
4.350736673551153
 40
4.433071991254038
 40
4.511216293814639
 40
4.564262454117964
 40
4.618474415571575
 40
4.670128488754179
 40
4.722296879126368
 40
4.819540945314237
 40
4.931194984128093
 40
5.049996040257735
 40
5.168643755415281
 40
5.283970811762492
 40
5.392260784910317
 40
5.486512254876392
 40
5.559178233949791
 40
5.591425852853456
 40
5.626215969637846
 40
5.667155838674383
 40
5.717449290214188
 40
5.738402360944803
 40
5.784499116553772
 40
5.830595872164747
 40
5.851548942897606
 40
5.873019280661718
 40
5.92421777840826
 40
5.985325662817636
 40
6.036524160567647
 40
6.057994498334176
 40
6.236847789607428
 40
6.38140992894561
 40
6.493190424178631
 40
6.574067534230439
 40
6.691018086205533
 40
6.814881554220451
 40
6.944307823240403
 40
7.071266716066027
 40
7.193488604461872
 40
7.309042773128099
 40
7.414007203170724
 40
7.505140441886481
 40
7.531150360599647
 40
7.559221645322246
 40
7.587202218920905
 40
7.612569159499108
 40
7.662550809480988
 40
7.702878875764122
 40
7.857328205230965
 40
8.010799568088581
 40
8.165256399657531
 40
8.32223269871387
 40
8.479564855016557
 40
8.63521623029076
 40
8.790882550925678
 40
8.948305154947244
 40
9.16827183903293
 40
9.387358980987205
 40
9.608047961033447
 40
9.832914234792637
 40
9.858338694962972
 40
9.925366817229982
 40
10.02013071422756
 40
10.12876249858995
 40
10.23739428295245
 40
10.33215817995187
 40
10.3991863022239
 40
10.4246107623978
 40
10.64992019336939
 40
10.87188524531185
 40
10.87188524531185
 40
10.87188524531185
 40
10.87188524531185
 10
179.9057788376618
 20
15.73923260398189
 30
0.0
 10
179.9092864933541
 20
15.80616462073802
 30
0.0
 10
179.9163033987662
 20
15.94005891915857
 30
0.0
 10
179.8198027599073
 20
16.22548554971469
 30
0.0
 10
180.0510134726108
 20
16.16284386190281
 30
0.0
 10
180.1919290057156
 20
16.17001554055989
 30
0.0
 10
180.3490417757588
 20
16.16235883078243
 30
0.0
 10
180.5025913427288
 20
16.16252752283039
 30
0.0
 10
180.654510493508
 20
16.1618204053543
 30
0.0
 10
180.8142214813231
 20
16.17210158351638
 30
0.0
 10
180.9408972601118
 20
16.15496511080749
 30
0.0
 10
181.1370821122081
 20
16.22727260107145
 30
0.0
 10
181.1034395279078
 20
16.12640699080116
 30
0.0
 10
181.1052011317184
 20
16.07619253947669
 30
0.0
 10
181.1027342073458
 20
16.02712335586465
 30
0.0
 10
181.1347076966011
 20
15.94063490846997
 30
0.0
 10
181.0010399903256
 20
15.98997438608335
 30
0.0
 10
180.9172208688056
 20
15.98430634314166
 30
0.0
 10
180.8173861139324
 20
15.99465516706297
 30
0.0
 10
180.7186576720145
 20
16.00086450411085
 30
0.0
 10
180.6121532771111
 20
16.00697763816776
 30
0.0
 10
180.491051169806
 20
16.01588883484585
 30
0.0
 10
180.3703381502453
 20
16.00521605912382
 30
0.0
 10
180.1812553843437
 20
16.06468503080365
 30
0.0
 10
180.2129028505311
 20
15.90558320077538
 30
0.0
 10
180.1995563316833
 20
15.80839128339902
 30
0.0
 10
180.1974958426451
 20
15.69634065110101
 30
0.0
 10
180.195818804467
 20
15.57699685629348
 30
0.0
 10
180.1973336794233
 20
15.45032592155108
 30
0.0
 10
180.195658247867
 20
15.32301588016115
 30
0.0
 10
180.2058844271658
 20
15.22451566404462
 30
0.0
 10
180.1779006596582
 20
15.08388702625628
 30
0.0
 10
180.3508029999304
 20
15.13989551134093
 30
0.0
 10
180.4645020202772
 20
15.12719951478496
 30
0.0
 10
180.5840151672239
 20
15.13448377051252
 30
0.0
 10
180.6888491425071
 20
15.13878017056754
 30
0.0
 10
180.7843084898612
 20
15.14330568258976
 30
0.0
 10
180.8763823507032
 20
15.15149201146199
 30
0.0
 10
180.9476551782438
 20
15.1464385063811
 30
0.0
 10
181.0544931705685
 20
15.18536425031671
 30
0.0
 10
181.0226603598035
 20
15.10517122005878
 30
0.0
 10
181.026616450393
 20
15.05562936846032
 30
0.0
 10
181.0234502392013
 20
15.00557478039817
 30
0.0
 10
181.0550791490585
 20
14.92128847612021
 30
0.0
 10
180.9210133677691
 20
14.97425365495156
 30
0.0
 10
180.8292322793199
 20
14.96540080890439
 30
0.0
 10
180.7079729189603
 20
14.97570049965152
 30
0.0
 10
180.5914113119771
 20
14.97748911767502
 30
0.0
 10
180.4783375745878
 20
14.97787017109692
 30
0.0
 10
180.3679246308471
 20
14.98415449472179
 30
0.0
 10
180.289812406784
 20
14.97189133255362
 30
0.0
 10
180.1913625833644
 20
15.00453887616124
 30
0.0
 10
180.2012355173561
 20
14.94769748054204
 30
0.0
 10
180.1973923244402
 20
14.91392130557982
 30
0.0
 10
180.1966789884268
 20
14.87119604709409
 30
0.0
 10
180.1963369642975
 20
14.83401607262152
 30
0.0
 10
180.1963834255345
 20
14.79487237370769
 30
0.0
 10
180.1963649429927
 20
14.75716849497684
 30
0.0
 10
180.1963703431806
 20
14.71944955232401
 30
0.0
 10
180.19636972142
 20
14.68994324745147
 30
0.0
 10
180.1963698151546
 20
14.658735776993
 30
0.0
 10
180.196370428792
 20
14.61414424908083
 30
0.0
 10
180.1963671499337
 20
14.5596395650885
 30
0.0
 10
180.1963759623481
 20
14.51505540201446
 30
0.0
 10
180.1963359653415
 20
14.43117808585738
 30
0.0
 10
180.1976024270255
 20
14.31737520677677
 30
0.0
 10
180.1950274117841
 20
14.16830395933707
 30
0.0
 10
180.2065009381719
 20
14.06597203813904
 30
0.0
 10
180.1823506222264
 20
13.93338903885833
 30
0.0
 10
180.3332993946476
 20
13.9789573227202
 30
0.0
 10
180.4428436671556
 20
13.96427012162348
 30
0.0
 10
180.573397047392
 20
13.96920435125061
 30
0.0
 10
180.6990312209514
 20
13.9725770532336
 30
0.0
 10
180.8188730625601
 20
13.97711497498772
 30
0.0
 10
180.9391362611426
 20
13.99048536182003
 30
0.0
 10
181.0222761663515
 20
13.98068712782594
 30
0.0
 10
181.1456080421075
 20
14.04126214623318
 30
0.0
 10
181.1244269203956
 20
13.98532460134019
 30
0.0
 10
181.1235950270116
 20
13.95939249372345
 30
0.0
 10
181.1218963707557
 20
13.93197256190937
 30
0.0
 10
181.1217974888828
 20
13.89738195206383
 30
0.0
 10
181.1203659301329
 20
13.86050408220766
 30
0.0
 10
181.153280419219
 20
13.76846841021805
 30
0.0
 10
180.9551306988107
 20
13.8413201597483
 30
0.0
 10
180.830054829489
 20
13.81825726508605
 30
0.0
 10
180.6673071295156
 20
13.82454021985784
 30
0.0
 10
180.5129366450001
 20
13.82260943909925
 30
0.0
 10
180.3566670436944
 20
13.82393762599266
 30
0.0
 10
180.1970544465282
 20
13.82059872487861
 30
0.0
 10
180.0540326342237
 20
13.83265795728239
 30
0.0
 10
179.8197144881628
 20
13.76952001976917
 30
0.0
 10
179.9173810751197
 20
14.05620527466317
 30
0.0
 10
179.9006868780059
 20
14.2498830814266
 30
0.0
 10
179.9146296709683
 20
14.47848242880293
 30
0.0
 10
179.9142987846632
 20
14.63384593955046
 30
0.0
 10
179.9143078119264
 20
14.73966336444124
 30
0.0
 10
179.9143055876316
 20
14.80205784124212
 30
0.0
 10
179.9143065551888
 20
14.89220425248325
 30
0.0
 10
179.9143065473261
 20
14.99621167157436
 30
0.0
 10
179.9143053861102
 20
15.10022131375294
 30
0.0
 10
179.9143090971503
 20
15.19036243688765
 30
0.0
 10
179.9143011051051
 20
15.25276803097213
 30
0.0
 10
179.9143334275019
 20
15.35868835961117
 30
0.0
 10
179.9131440788318
 20
15.51626716544738
 30
0.0
 10
179.9082216489256
 20
15.66528219822064
 30
0.0
 10
179.9057788376618
 20
15.73923260398189
 30
0.0
 11
179.9057788376618
 21
15.73923260398189
 31
0.0
 11
179.896691822374
 21
15.95938578101016
 31
0.0
 11
179.8868249573133
 21
16.17960510387178
 31
0.0
 11
180.04115751414
 21
16.17312391463727
 31
0.0
 11
180.1946500189046
 21
16.16754892331923
 31
0.0
 11
180.3481160653366
 21
16.16367167505629
 31
0.0
 11
180.5025544554939
 21
16.16238072887606
 31
0.0
 11
180.6564835227473
 21
16.16367167505629
 31
0.0
 11
180.80873910046
 21
16.16754892331923
 31
0.0
 11
180.9609113551074
 21
16.17312391463727
 31
0.0
 11
181.1148364762483
 21
16.17960510387178
 31
0.0
 11
181.1070811703123
 21
16.12794961777357
 31
0.0
 11
181.1044991623591
 21
16.07642642334203
 31
0.0
 11
181.1070811703123
 21
16.02475660564658
 31
0.0
 11
181.1148364762483
 21
15.97315954836783
 31
0.0
 11
181.0094874054411
 21
15.98001446156056
 31
0.0
 11
180.913637570006
 21
15.98693552058656
 31
0.0
 11
180.8198593171903
 21
15.99378381919597
 31
0.0
 11
180.7209679915881
 21
16.00063211780538
 31
0.0
 11
180.6147532199924
 21
16.00710999974822
 31
0.0
 11
180.4991060528038
 21
16.01268829835793
 31
0.0
 11
180.3666126447258
 21
16.01656554662086
 31
0.0
 11
180.2101546018423
 21
16.0178564928011
 31
0.0
 11
180.2062663293721
 21
15.91037061609185
 31
0.0
 11
180.20153800484
 21
15.80805072896463
 31
0.0
 11
180.1976607566749
 21
15.70138175329685
 31
0.0
 11
180.1963698105272
 21
15.58102059013248
 31
0.0
 11
180.1967799146836
 21
15.44856355891563
 31
0.0
 11
180.1980896021502
 21
15.31953288186453
 31
0.0
 11
180.1994074577049
 21
15.20777398432307
 31
0.0
 11
180.199819115366
 21
15.12695149302382
 31
0.0
 11
180.3434452935874
 21
15.12780256941248
 31
0.0
 11
180.4716343930758
 21
15.13039989580075
 31
0.0
 11
180.5868078221795
 21
15.13425509545252
 31
0.0
 11
180.691775631222
 21
15.13901649302075
 31
0.0
 11
180.7876346289421
 21
15.14418027774174
 31
0.0
 11
180.8757413374193
 21
15.14934406246266
 31
0.0
 11
180.9578881438496
 21
15.15491243919737
 31
0.0
 11
181.0357692335571
 21
15.16132086801522
 31
0.0
 11
181.0280180445185
 21
15.10884407115335
 31
0.0
 11
181.0254328449317
 21
15.05469378470856
 31
0.0
 11
181.0280180445186
 21
15.00310444444365
 31
0.0
 11
181.0357692335571
 21
14.95151510417881
 31
0.0
 11
180.9389813454014
 21
14.96092324653756
 31
0.0
 11
180.8275950722015
 21
14.9686512847301
 31
0.0
 11
180.7089261429373
 21
14.97425273438143
 31
0.0
 11
180.5903167449213
 21
14.9772678819501
 31
0.0
 11
180.4750025117521
 21
14.97898767361637
 31
0.0
 11
180.36672619507
 21
14.98070746528256
 31
0.0
 11
180.2724839317708
 21
14.98202486979615
 31
0.0
 11
180.199819115366
 21
14.98243607639327
 31
0.0
 11
180.199407457705
 21
14.95019108508189
 31
0.0
 11
180.1980896021502
 21
14.91542593752115
 31
0.0
 11
180.1967799146836
 21
14.87450702260083
 31
0.0
 11
180.1963698105272
 21
14.8242152430995
 31
0.0
 11
180.1963698105272
 21
14.8032621723582
 31
0.0
 11
180.1963698105272
 21
14.75716541672734
 31
0.0
 11
180.1963698105272
 21
14.71106866109649
 31
0.0
 11
180.1963698105272
 21
14.69011559035519
 31
0.0
 11
180.1963698105272
 21
14.66864525258278
 31
0.0
 11
180.1963698105272
 21
14.61744675481782
 31
0.0
 11
180.1963698105272
 21
14.55633887038866
 31
0.0
 11
180.1963698105272
 21
14.5051403726237
 31
0.0
 11
180.1963698105272
 21
14.48367003485129
 31
0.0
 11
180.1967799146836
 21
14.30481721371546
 31
0.0
 11
180.1980896021502
 21
14.1602610071544
 31
0.0
 11
180.2002868589709
 21
14.04850210961288
 31
0.0
 11
180.2032586986985
 21
13.96767961831364
 31
0.0
 11
180.3202092517447
 21
13.96767961831364
 31
0.0
 11
180.4440727208746
 21
13.96767961831364
 31
0.0
 11
180.5734925526422
 21
13.96897056449388
 31
0.0
 11
180.7003922282244
 21
13.97284781275681
 31
0.0
 11
180.8224658067973
 21
13.97886708358864
 31
0.0
 11
180.9377587499463
 21
13.98663260442001
 31
0.0
 11
181.0421754573518
 21
13.99734161483401
 31
0.0
 11
181.1320599255448
 21
14.01237656274691
 31
0.0
 11
181.126425403119
 21
13.98698427976714
 31
0.0
 11
181.1234433285422
 21
13.959071840538
 31
0.0
 11
181.1221339881199
 21
13.93112191867
 31
0.0
 11
181.1217235369194
 21
13.90575829888471
 31
0.0
 11
181.1243087365064
 21
13.85584355063325
 31
0.0
 11
181.1320599255448
 21
13.81626739612926
 31
0.0
 11
180.9776977178344
 21
13.82145433189184
 31
0.0
 11
180.8242357818765
 21
13.82315538223861
 31
0.0
 11
180.6697789496483
 21
13.82315538223861
 31
0.0
 11
180.5128026496768
 21
13.82315538223861
 31
0.0
 11
180.3554704921536
 21
13.82315538223861
 31
0.0
 11
180.199819115366
 21
13.82315538223861
 31
0.0
 11
180.0441620874241
 21
13.82145433189184
 31
0.0
 11
179.8868249573133
 21
13.81626739612926
 31
0.0
 11
179.896691822374
 21
14.03601267385209
 31
0.0
 11
179.9057788376618
 21
14.2549112849085
 31
0.0
 11
179.91217215184
 21
14.47550763902002
 31
0.0
 11
179.9143063455009
 21
14.70036378479713
 31
0.0
 11
179.9143063455009
 21
14.72578824496872
 31
0.0
 11
179.9143063455009
 21
14.7928163672393
 31
0.0
 11
179.9143063455009
 21
14.88758026424251
 31
0.0
 11
179.9143063455009
 21
14.99621204861205
 31
0.0
 11
179.9143063455009
 21
15.1048438329816
 31
0.0
 11
179.9143063455009
 21
15.19960772998482
 31
0.0
 11
179.9143063455009
 21
15.26663585225539
 31
0.0
 11
179.9143063455009
 21
15.29206031242698
 31
0.0
 11
179.91217215184
 21
15.51735963528733
 31
0.0
 11
179.9057788376618
 21
15.73923260398189
 31
0.0
  0
SPLINE
  5
BD
102
{ACAD_REACTORS
330
DA
102
}
330
48
100
AcDbEntity
  8
_U_30EC_U_30A4_U_30E4_U_30FC_1
  6
Continuous
 62
     2
100
AcDbSpline
210
0.0
220
0.0
230
1.0
 70
    11
 71
     3
 72
    95
 73
    91
 74
    89
 42
0.000000001
 43
0.0000000001
 44
0.00000001
 40
0.0
 40
0.0
 40
0.0
 40
0.0
 40
0.6550406656911508
 40
1.308087289031938
 40
1.420803739835812
 40
1.566130759770818
 40
1.757067341888476
 40
2.006513545026479
 40
2.087328263121574
 40
2.18532887229564
 40
2.294612454748384
 40
2.408936380534834
 40
2.526802767798576
 40
2.646360524615619
 40
2.762535723971595
 40
2.870057342870169
 40
2.966883448431663
 40
3.050803243518307
 40
3.11581822243662
 40
3.156030057150255
 40
3.213914225080156
 40
3.276689026450557
 40
3.342960320981334
 40
3.404230667150583
 40
3.45382280949339
 40
3.532499827188448
 40
3.634775188507181
 40
3.754909333008182
 40
3.889736761660676
 40
4.035769602175247
 40
4.18725668119763
 40
4.338733685675979
 40
4.488478734676137
 40
4.634708317831598
 40
4.771493189921294
 40
4.892686571561222
 40
5.199775528944467
 40
5.460353566929658
 40
5.667603142345533
 40
5.814722905404506
 40
5.828990806219804
 40
5.855488336304501
 40
5.869756237118833
 40
6.189796507762839
 40
6.531890469873026
 40
6.883053637017015
 40
7.230512024911484
 40
7.566966656764594
 40
7.885203559707426
 40
8.172887439719224
 40
8.41801159406278
 40
8.443926721190701
 40
8.51076047061319
 40
8.602145393795702
 40
8.701714041647145
 40
8.793098965075378
 40
8.859932715057951
 40
8.885847842603601
 40
9.24230125661281
 40
9.589275455016761
 40
9.921808543164168
 40
10.23479624298468
 40
10.29968150889179
 40
10.35323493887767
 40
10.40154625355152
 40
10.46482922477827
 40
10.55973900668408
 40
10.6923954598562
 40
10.84920353475674
 40
11.01626328594783
 40
11.18672024367446
 40
11.35372582577214
 40
11.5025744229243
 40
11.61866495023294
 40
11.71329869152878
 40
11.82511050573911
 40
11.94464880845719
 40
12.0692924264251
 40
12.19707290435179
 40
12.32562632860532
 40
12.45034565331283
 40
12.56646595170331
 40
12.67099007414639
 40
12.76077625936785
 40
12.82703233506698
 40
12.87429132785996
 40
12.89831990323335
 40
12.92234847860023
 40
13.53984767410323
 40
14.18294284359368
 40
14.18294284359368
 40
14.18294284359368
 40
14.18294284359368
 10
177.3067935648021
 20
14.70898038201723
 30
0.0
 10
177.1752019758551
 20
14.8226505860323
 30
0.0
 10
176.9124193802728
 20
15.04964496316156
 30
0.0
 10
176.399739344102
 20
15.89214462956286
 30
0.0
 10
176.4106654595363
 20
15.53423377577018
 30
0.0
 10
176.4041226527991
 20
15.39267392272131
 30
0.0
 10
176.4028026631773
 20
15.19421305299279
 30
0.0
 10
176.4018117602538
 20
15.0215029604598
 30
0.0
 10
176.4024101751974
 20
14.87865373257578
 30
0.0
 10
176.4038994301882
 20
14.78265005413356
 30
0.0
 10
176.4055683588472
 20
14.6754550326314
 30
0.0
 10
176.4071934954619
 20
14.5616421151758
 30
0.0
 10
176.4092429501685
 20
14.44441572604587
 30
0.0
 10
176.4123165501927
 20
14.32656411232968
 30
0.0
 10
176.4156339697042
 20
14.21228087320619
 30
0.0
 10
176.419360534028
 20
14.10521401867275
 30
0.0
 10
176.4217338161424
 20
14.0100740876692
 30
0.0
 10
176.4278718888358
 20
13.92558557205694
 30
0.0
 10
176.4239784495947
 20
13.86923087298141
 30
0.0
 10
176.4455230443077
 20
13.79825022472354
 30
0.0
 10
176.3680940058618
 20
13.82902677604482
 30
0.0
 10
176.3116353240191
 20
13.82011242517612
 30
0.0
 10
176.2540495896806
 20
13.82896218398273
 30
0.0
 10
176.1690163478473
 20
13.79738225225944
 30
0.0
 10
176.2009714146382
 20
13.88095155992188
 30
0.0
 10
176.1990705282539
 20
13.94882608968308
 30
0.0
 10
176.21079600473
 20
14.05233256764417
 30
0.0
 10
176.2164241053
 20
14.17002125616694
 30
0.0
 10
176.2237902178941
 20
14.30388609164422
 30
0.0
 10
176.2320759701611
 20
14.4476415287263
 30
0.0
 10
176.2398851897426
 20
14.59714022843444
 30
0.0
 10
176.2457571222657
 20
14.74792549402076
 30
0.0
 10
176.2503667817969
 20
14.89699943878437
 30
0.0
 10
176.2542632117542
 20
15.04122913163021
 30
0.0
 10
176.2570715126564
 20
15.17583905213016
 30
0.0
 10
176.2576698755022
 20
15.36469614347353
 30
0.0
 10
176.261602386715
 20
15.58975494313152
 30
0.0
 10
176.2442175378499
 20
15.86367091125707
 30
0.0
 10
176.2850417342582
 20
16.02787112098594
 30
0.0
 10
176.1995153256004
 20
16.22749661465097
 30
0.0
 10
176.2660558907687
 20
16.22385458403975
 30
0.0
 10
176.283872427323
 20
16.22413447160852
 30
0.0
 10
176.4056801797505
 20
16.22632927398612
 30
0.0
 10
176.5080770335461
 20
15.94675118721511
 30
0.0
 10
176.7580021509356
 20
15.74563008536001
 30
0.0
 10
176.9870035331111
 20
15.47792614987915
 30
0.0
 10
177.2245151213108
 20
15.22646413862374
 30
0.0
 10
177.4486090740772
 20
14.98969974061358
 30
0.0
 10
177.6750716283009
 20
14.73218692583077
 30
0.0
 10
177.8325687886515
 20
14.6164933505692
 30
0.0
 10
178.0472129612673
 20
14.2799715253879
 30
0.0
 10
178.0422645974619
 20
14.40464754091602
 30
0.0
 10
178.0433931602546
 20
14.46327691935735
 30
0.0
 10
178.0428877841516
 20
14.55043662371975
 30
0.0
 10
178.0430475158114
 20
14.64416143182871
 30
0.0
 10
178.0430054891318
 20
14.73018971297033
 30
0.0
 10
178.0430202040372
 20
14.79153891945495
 30
0.0
 10
178.0429706255985
 20
14.9413523152099
 30
0.0
 10
178.045881152281
 20
15.17989612510103
 30
0.0
 10
178.0259521041162
 20
15.54486509868699
 30
0.0
 10
178.0750433936246
 20
15.80799631993411
 30
0.0
 10
177.9177951509181
 20
16.2192890494775
 30
0.0
 10
178.0762112872421
 20
16.16398282551747
 30
0.0
 10
178.1311680478629
 20
16.16199686500174
 30
0.0
 10
178.182788776674
 20
16.16264778248251
 30
0.0
 10
178.2713198965365
 20
16.20369527738244
 30
0.0
 10
178.2204898303169
 20
16.05696326622985
 30
0.0
 10
178.2313389930283
 20
15.95019971954432
 30
0.0
 10
178.2166036994848
 20
15.79085705414111
 30
0.0
 10
178.2099976446204
 20
15.62853061652872
 30
0.0
 10
178.2014961399914
 20
15.45992521892394
 30
0.0
 10
178.1943227202198
 20
15.29814814703539
 30
0.0
 10
178.1889063215389
 20
15.15422331457931
 30
0.0
 10
178.1871713967648
 20
15.03437493466923
 30
0.0
 10
178.1875440672319
 20
14.92686101590514
 30
0.0
 10
178.1873656126263
 20
14.81820024645584
 30
0.0
 10
178.187701086314
 20
14.69953570165529
 30
0.0
 10
178.1890040622184
 20
14.5755516351274
 30
0.0
 10
178.1908887351574
 20
14.44858294171103
 30
0.0
 10
178.192500445485
 20
14.3215386155103
 30
0.0
 10
178.194140313743
 20
14.19854884492176
 30
0.0
 10
178.1962570745751
 20
14.08300931383757
 30
0.0
 10
178.1963848422364
 20
13.98090903955835
 30
0.0
 10
178.2006514396554
 20
13.89009848838155
 30
0.0
 10
178.1908440085289
 20
13.83213621208785
 30
0.0
 10
178.2118474771689
 20
13.76517130132028
 30
0.0
 10
178.1725639739897
 20
13.77291153966686
 30
0.0
 10
177.9595307117748
 20
13.75755254145197
 30
0.0
 10
177.7636297943186
 20
14.31403058094466
 30
0.0
 10
177.4611197631544
 20
14.57556035348509
 30
0.0
 10
177.3067935648021
 20
14.70898038201723
 30
0.0
 11
177.3067935648021
 21
14.70898038201723
 31
0.0
 11
176.8595529338511
 21
15.18757635411976
 31
0.0
 11
176.4124049070643
 21
15.66352649288969
 31
0.0
 11
176.4089664262494
 21
15.55086249986231
 31
0.0
 11
176.40556101835
 21
15.40557538184308
 31
0.0
 11
176.4029636920274
 21
15.21465645827966
 31
0.0
 11
176.4021126156603
 21
14.96521170139755
 31
0.0
 11
176.4025239230289
 21
14.88439802954278
 31
0.0
 11
176.4038420329817
 21
14.7864062847756
 31
0.0
 11
176.4055192267718
 21
14.67713557299737
 31
0.0
 11
176.4072367127518
 21
14.56282454872037
 31
0.0
 11
176.4094007838772
 21
14.44497802965264
 31
0.0
 11
176.4124049070643
 21
14.32545802100198
 31
0.0
 11
176.4158359733138
 21
14.20933349846155
 31
0.0
 11
176.4192928929998
 21
14.10186746550228
 31
0.0
 11
176.4227085253088
 21
14.00510162351263
 31
0.0
 11
176.4261896983793
 21
13.92125406276971
 31
0.0
 11
176.4296006184313
 21
13.85632862007759
 31
0.0
 11
176.4330776843148
 21
13.81626739612926
 31
0.0
 11
176.3754263821571
 21
13.82145433189184
 31
0.0
 11
176.3126746318309
 21
13.82315538223861
 31
0.0
 11
176.2464251717157
 21
13.82145433189184
 31
0.0
 11
176.1853747739675
 21
13.81626739612926
 31
0.0
 11
176.1926772737812
 21
13.86531894125589
 31
0.0
 11
176.2008793569054
 21
13.94356725720854
 31
0.0
 11
176.2090098822348
 21
14.04551893253027
 31
0.0
 11
176.2163406441397
 21
14.16542920159751
 31
0.0
 11
176.2236358280421
 21
14.30005912343888
 31
0.0
 11
176.2318444255596
 21
14.44586107652744
 31
0.0
 11
176.2395504149465
 21
14.59715203135072
 31
0.0
 11
176.2455763002093
 21
14.74850913200733
 31
0.0
 11
176.2503046247416
 21
14.89817951391434
 31
0.0
 11
176.254192897212
 21
15.0443573958222
 31
0.0
 11
176.2567527408965
 21
15.18111831592695
 31
0.0
 11
176.2576324804574
 21
15.30230850686888
 31
0.0
 11
176.257192610677
 21
15.60939715262543
 31
0.0
 11
176.2559126888347
 21
15.86997204839364
 31
0.0
 11
176.2528658717893
 21
16.07719922716124
 31
0.0
 11
176.2473049112763
 21
16.2242138538606
 31
0.0
 11
176.2615728121469
 21
16.2242138538606
 31
0.0
 11
176.2880703423352
 21
16.2242138538606
 31
0.0
 11
176.3023382432058
 21
16.2242138538606
 31
0.0
 11
176.5194743650277
 21
15.98910179662771
 31
0.0
 11
176.7512744123079
 21
15.7375128123156
 31
0.0
 11
176.9894816018839
 21
15.47949555543569
 31
0.0
 11
177.2260074557521
 21
15.22497079855488
 31
0.0
 11
177.4555698717705
 21
14.97899759549136
 31
0.0
 11
177.6731797360103
 21
14.74678934034105
 31
0.0
 11
177.8713724913707
 21
14.53826680567098
 31
0.0
 11
178.0430143099086
 21
14.36326697932587
 31
0.0
 11
178.0430143099086
 21
14.38918210687041
 31
0.0
 11
178.0430143099086
 21
14.45601585685369
 31
0.0
 11
178.0430143099086
 21
14.54740078030023
 31
0.0
 11
178.0430143099086
 21
14.64696942823452
 31
0.0
 11
178.0430143099086
 21
14.73835435168105
 31
0.0
 11
178.0430143099086
 21
14.80518810166434
 31
0.0
 11
178.0430143099086
 21
14.83110322920888
 31
0.0
 11
178.0417233637609
 21
15.18755430550866
 31
0.0
 11
178.0378461155958
 21
15.53450684014413
 31
0.0
 11
178.0296197790002
 21
15.8669381595055
 31
0.0
 11
178.0154535467228
 21
16.17960510387178
 31
0.0
 11
178.0790351249618
 21
16.16666367158333
 31
0.0
 11
178.1324170159611
 21
16.16238072887606
 31
0.0
 11
178.1805381084833
 21
16.16666367158333
 31
0.0
 11
178.2424836798197
 21
16.17960510387178
 31
0.0
 11
178.2351216487575
 21
16.08498128445099
 31
0.0
 11
178.2269790968818
 21
15.95257496503963
 31
0.0
 11
178.2183705364004
 21
15.79600336785654
 31
0.0
 11
178.2097547223215
 21
15.62916593734269
 31
0.0
 11
178.2016187850288
 21
15.45890325509359
 31
0.0
 11
178.1942501393835
 21
15.29206031242698
 31
0.0
 11
178.1891406931522
 21
15.14329943572808
 31
0.0
 11
178.1874503478904
 21
15.027221215271
 31
0.0
 11
178.1874503478904
 21
14.93258747397517
 31
0.0
 11
178.1874503478904
 21
14.82077565976705
 31
0.0
 11
178.1878461204497
 21
14.70123801222747
 31
0.0
 11
178.1890819450708
 21
14.57660052093918
 31
0.0
 11
178.1908392193317
 21
14.4488321268739
 31
0.0
 11
178.1925303477608
 21
14.32028982655878
 31
0.0
 11
178.1942876220214
 21
14.19558288214553
 31
0.0
 11
178.1959787504505
 21
14.07947489606347
 31
0.0
 11
178.1972884379172
 21
13.97495896727015
 31
0.0
 11
178.1976985420735
 21
13.88517371555651
 31
0.0
 11
178.1976985420735
 21
13.81891763918414
 31
0.0
 11
178.1976985420735
 21
13.7716586461404
 31
0.0
 11
178.1736699662976
 21
13.7716586461404
 31
0.0
 11
178.1496413905217
 21
13.7716586461404
 31
0.0
 11
177.7410729200423
 21
14.23466735262189
 31
0.0
 11
177.3067935648021
 21
14.70898038201723
 31
0.0
  0
SPLINE
  5
BE
102
{ACAD_REACTORS
330
DB
102
}
330
48
100
AcDbEntity
  8
_U_30EC_U_30A4_U_30E4_U_30FC_1
  6
Continuous
 62
     2
100
AcDbSpline
210
0.0
220
0.0
230
1.0
 70
    11
 71
     3
 72
    25
 73
    21
 74
    19
 42
0.000000001
 43
0.0000000001
 44
0.00000001
 40
0.0
 40
0.0
 40
0.0
 40
0.0
 40
0.0911479969064822
 40
0.1858117896204668
 40
0.280412839973449
 40
0.3715889190714509
 40
0.4679080494218706
 40
0.5642683809229229
 40
0.6605683222644989
 40
0.7569653015810255
 40
0.8561348172522738
 40
1.092615965104292
 40
1.374867658141876
 40
1.611348812011599
 40
1.710518328425249
 40
1.809403163726567
 40
2.045205463294071
 40
2.326646917622131
 40
2.562449217190592
 40
2.661334043833911
 40
2.661334043833911
 40
2.661334043833911
 40
2.661334043833911
 10
173.2683700567199
 20
14.88614538197291
 30
0.0
 10
173.2987525917923
 20
14.88598079714553
 30
0.0
 10
173.3606895889111
 20
14.8856452868992
 30
0.0
 10
173.454135696033
 20
14.88269055451998
 30
0.0
 10
173.5475095236357
 20
14.8797775287715
 30
0.0
 10
173.6417760753476
 20
14.87894201643416
 30
0.0
 10
173.7354964790967
 20
14.87996644658045
 30
0.0
 10
173.8352040303204
 20
14.87916977470971
 30
0.0
 10
173.9188949546312
 20
14.88921410235218
 30
0.0
 10
174.0637996315045
 20
14.86234617674164
 30
0.0
 10
173.9396132444801
 20
15.03665530280047
 30
0.0
 10
173.8965867286282
 20
15.1965171100609
 30
0.0
 10
173.7808922142209
 20
15.45518458550214
 30
0.0
 10
173.7017565431257
 20
15.59231052861858
 30
0.0
 10
173.6431576621816
 20
15.80937033134076
 30
0.0
 10
173.5864803939438
 20
15.59266134213427
 30
0.0
 10
173.5052809900476
 20
15.45327012438234
 30
0.0
 10
173.4063701281489
 20
15.20406969370194
 30
0.0
 10
173.3253625094258
 20
15.01925830226072
 30
0.0
 10
173.2813683325838
 20
14.91650446856116
 30
0.0
 10
173.2683700567199
 20
14.88614538197291
 30
0.0
 11
173.2683700567199
 21
14.88614538197291
 31
0.0
 11
173.359513773782
 21
14.88526123266758
 31
0.0
 11
173.4541428297581
 21
14.88269697919597
 31
0.0
 11
173.5487082179706
 21
14.88009965280776
 31
0.0
 11
173.6398803250196
 21
14.87924857641909
 31
0.0
 11
173.7361985777706
 21
14.8796597830162
 31
0.0
 11
173.8325499034376
 21
14.8809771875297
 31
0.0
 11
173.9288262638286
 21
14.88310818579311
 31
0.0
 11
174.0251753846343
 21
14.88614538197291
 31
0.0
 11
173.9854633323141
 21
14.97701642195019
 31
0.0
 11
173.8907653613968
 21
15.19370890189601
 31
0.0
 11
173.7777387509471
 21
15.45234186183134
 31
0.0
 11
173.6830407800297
 21
15.66903434177716
 31
0.0
 11
173.6433287277095
 21
15.75990538175444
 31
0.0
 11
173.6043330259266
 21
15.66903434177716
 31
0.0
 11
173.5113432755212
 21
15.45234186183134
 31
0.0
 11
173.4003555089082
 21
15.19370890189601
 31
0.0
 11
173.3073657585028
 21
14.97701642195019
 31
0.0
 11
173.2683700567199
 21
14.88614538197291
 31
0.0
  0
SPLINE
  5
BF
102
{ACAD_REACTORS
330
DB
102
}
330
48
100
AcDbEntity
  8
_U_30EC_U_30A4_U_30E4_U_30FC_1
  6
Continuous
 62
     2
100
AcDbSpline
210
0.0
220
0.0
230
1.0
 70
    11
 71
     3
 72
    57
 73
    53
 74
    51
 42
0.000000001
 43
0.0000000001
 44
0.00000001
 40
0.0
 40
0.0
 40
0.0
 40
0.0
 40
0.0471632082809231
 40
0.091486105463215
 40
0.1357762519702386
 40
0.182652700161068
 40
0.2295203288572589
 40
0.2737751972220759
 40
0.3181310461543069
 40
0.3652607198398508
 40
0.4571007286314429
 40
0.5671851029165189
 40
0.6894623283868326
 40
0.8181758272545963
 40
0.9510087229273904
 40
1.085852229674046
 40
1.218126164475307
 40
1.343545131142383
 40
1.454537202956799
 40
1.567187607530808
 40
1.680710966642427
 40
1.794226869736791
 40
1.900009184247591
 40
2.004085860447871
 40
2.108162674451759
 40
2.214000150155303
 40
2.496038577352144
 40
2.762350745479288
 40
2.997275353279413
 40
3.185110082137733
 40
3.246407890063959
 40
3.31260755021269
 40
3.378877742711592
 40
3.440140399651447
 40
4.100501696006465
 40
4.754913085563522
 40
5.411331693423922
 40
6.077890432568702
 40
6.110575292670981
 40
6.143260152775761
 40
6.36798936339515
 40
6.610525374951542
 40
6.863389136467312
 40
7.119380025547597
 40
7.376036605091094
 40
7.631164770966293
 40
7.87672242545641
 40
8.104953735855952
 40
8.312916685924291
 40
8.497730294941302
 40
8.651018984313852
 40
8.764738853624578
 40
8.764738853624578
 40
8.764738853624578
 40
8.764738853624578
 10
174.7922649500513
 20
13.81626739612926
 30
0.0
 10
174.7766616726931
 20
13.81826231079077
 30
0.0
 10
174.7463947960302
 20
13.82213201360298
 30
0.0
 10
174.7010994202252
 20
13.82341984967267
 30
0.0
 10
174.6559553129349
 20
13.8230868355405
 30
0.0
 10
174.6099017123399
 20
13.82314658674223
 30
0.0
 10
174.5640496172097
 20
13.8232581365
 30
0.0
 10
174.5183711648165
 20
13.82277833456589
 30
0.0
 10
174.4750811541608
 20
13.8246110961872
 30
0.0
 10
174.4039947951514
 20
13.80049556814656
 30
0.0
 10
174.4057477261441
 20
13.92184693977249
 30
0.0
 10
174.358619637057
 20
14.00726239751232
 30
0.0
 10
174.3191478251762
 20
14.12486929345134
 30
0.0
 10
174.2706635532645
 20
14.24232752540437
 30
0.0
 10
174.2201017402522
 20
14.36405935761508
 30
0.0
 10
174.1718634610477
 20
14.49075967862463
 30
0.0
 10
174.1135232947594
 20
14.5993368778495
 30
0.0
 10
174.0980892667262
 20
14.7562065713441
 30
0.0
 10
173.9566586330636
 20
14.7237344654832
 30
0.0
 10
173.8508397414903
 20
14.73512888682177
 30
0.0
 10
173.7358569725222
 20
14.73392591514615
 30
0.0
 10
173.6253142252141
 20
14.73506945347406
 30
0.0
 10
173.5176583522783
 20
14.73418350037526
 30
0.0
 10
173.4121322529243
 20
14.73416602390517
 30
0.0
 10
173.3109192682012
 20
14.72714032472413
 30
0.0
 10
173.1266804827753
 20
14.75135859859867
 30
0.0
 10
173.1157393685411
 20
14.44741691121883
 30
0.0
 10
173.008769163475
 20
14.22353177253395
 30
0.0
 10
172.9098148604346
 20
14.03895314292495
 30
0.0
 10
172.9225090524008
 20
13.79530204804206
 30
0.0
 10
172.8050091716397
 20
13.82508046753196
 30
0.0
 10
172.742205586831
 20
13.82258089509602
 30
0.0
 10
172.67858720934
 20
13.82344075102804
 30
0.0
 10
172.3946014194074
 20
13.78098039941945
 30
0.0
 10
173.0251638499381
 20
14.50081952444785
 30
0.0
 10
173.1087645289071
 20
15.01276539435728
 30
0.0
 10
173.4929252789338
 20
15.53353743550042
 30
0.0
 10
173.4777208288567
 20
16.23519626253211
 30
0.0
 10
173.7239265722696
 20
16.22345633081255
 30
0.0
 10
173.8256346157561
 20
16.23225004452771
 30
0.0
 10
173.8249752035818
 20
15.98059650730345
 30
0.0
 10
173.9428317155828
 20
15.79818020733957
 30
0.0
 10
174.0315515260485
 20
15.55563740662864
 30
0.0
 10
174.1322292485259
 20
15.32340030530125
 30
0.0
 10
174.2311142712243
 20
15.08674644566911
 30
0.0
 10
174.3299676990669
 20
14.85461739170092
 30
0.0
 10
174.4256166390926
 20
14.63122222788786
 30
0.0
 10
174.5159904573271
 20
14.42272549049316
 30
0.0
 10
174.5989944568189
 20
14.23308448529318
 30
0.0
 10
174.6726088582799
 20
14.06663106068098
 30
0.0
 10
174.7342815895546
 20
13.92917699626096
 30
0.0
 10
174.7749458885604
 20
13.84999239430032
 30
0.0
 10
174.7922649500513
 20
13.81626739612926
 30
0.0
 11
174.7922649500513
 21
13.81626739612926
 31
0.0
 11
174.7453878317448
 21
13.82145433189184
 31
0.0
 11
174.7010975896125
 21
13.82315538223861
 31
0.0
 11
174.6568074431729
 21
13.82315538223861
 31
0.0
 11
174.6099309947159
 21
13.82315538223861
 31
0.0
 11
174.5630633657033
 21
13.82315538223861
 31
0.0
 11
174.5188084970408
 21
13.82315538223861
 31
0.0
 11
174.4744852776854
 21
13.82145433189184
 31
0.0
 11
174.4276419021443
 21
13.81626739612926
 31
0.0
 11
174.3992532136325
 21
13.90360966173243
 31
0.0
 11
174.3622721815898
 21
14.00729656274818
 31
0.0
 11
174.3188386236701
 21
14.12159987001126
 31
0.0
 11
174.2711055866936
 21
14.24113531268968
 31
0.0
 11
174.2208160133237
 21
14.36408057307563
 31
0.0
 11
174.1696467003932
 21
14.48883822929444
 31
0.0
 11
174.1197531801326
 21
14.6113414150277
 31
0.0
 11
174.0733119111841
 21
14.72784517367916
 31
0.0
 11
173.9623611907589
 21
14.73087465284504
 31
0.0
 11
173.8497309225089
 21
14.73300454867788
 31
0.0
 11
173.7362152069449
 21
14.73432195319139
 31
0.0
 11
173.62270004768
 21
14.73473315978851
 31
0.0
 11
173.5169185312816
 21
14.73432195319139
 31
0.0
 11
173.4128501919225
 21
14.73300454867788
 31
0.0
 11
173.3087951724045
 21
14.73087465284504
 31
0.0
 11
173.2030010615596
 21
14.72784517367916
 31
0.0
 11
173.0980914750139
 21
14.46604437513349
 31
0.0
 11
173.0034868690331
 21
14.21710232658458
 31
0.0
 11
172.9252231210298
 21
13.99559756969555
 31
0.0
 11
172.8693431224555
 21
13.81626739612926
 31
0.0
 11
172.8082651639442
 21
13.82145433189184
 31
0.0
 11
172.742087361813
 21
13.82315538223861
 31
0.0
 11
172.6758390041282
 21
13.82145433189184
 31
0.0
 11
172.6147963233938
 21
13.81626739612926
 31
0.0
 11
172.889968495193
 21
14.41656508695141
 31
0.0
 11
173.158294573417
 21
15.01343642360774
 31
0.0
 11
173.4240277350405
 21
15.6136624564438
 31
0.0
 11
173.6914740737033
 21
16.2242138538606
 31
0.0
 11
173.7241589339806
 21
16.2242138538606
 31
0.0
 11
173.7568437942579
 21
16.2242138538606
 31
0.0
 11
173.8428300681057
 21
16.01658539037082
 31
0.0
 11
173.9357285813609
 21
15.79254614563516
 31
0.0
 11
174.0328714521463
 21
15.55908663180466
 31
0.0
 11
174.1317936458031
 21
15.32298128464143
 31
0.0
 11
174.2315341249927
 21
15.08649780379782
 31
0.0
 11
174.3313071129353
 21
14.85168781253708
 31
0.0
 11
174.4280608257448
 21
14.62599492196849
 31
0.0
 11
174.5188084970408
 21
14.41658052097918
 31
0.0
 11
174.6022150834546
 21
14.22607611130459
 31
0.0
 11
174.6770293263377
 21
14.05708232662465
 31
0.0
 11
174.7410729186603
 21
13.91781337700666
 31
0.0
 11
174.7922649500513
 21
13.81626739612926
 31
0.0
  0
SPLINE
  5
C0
102
{ACAD_REACTORS
330
DC
102
}
330
48
100
AcDbEntity
  8
_U_30EC_U_30A4_U_30E4_U_30FC_1
  6
Continuous
 62
     2
100
AcDbSpline
210
0.0
220
0.0
230
1.0
 70
    11
 71
     3
 72
    99
 73
    95
 74
    93
 42
0.000000001
 43
0.0000000001
 44
0.00000001
 40
0.0
 40
0.0
 40
0.0
 40
0.0
 40
0.0796417172272562
 40
0.1621768542356107
 40
0.2486489160957713
 40
0.3404969668524671
 40
0.4381912511164694
 40
0.5434463660244996
 40
0.6518115192847311
 40
0.7530190937886874
 40
0.8492196919725161
 40
0.9419290312998191
 40
1.034249663570048
 40
1.129078600620194
 40
1.226697027573245
 40
1.327220425421712
 40
1.470572134938021
 40
1.595489863371217
 40
1.719934125348401
 40
1.85057662012742
 40
1.989059629987308
 40
2.134139054226928
 40
2.280698007207216
 40
2.42452973903948
 40
2.565929576985853
 40
2.70823926077354
 40
2.861717887443662
 40
3.04516854034737
 40
3.183798301138616
 40
3.314813961455459
 40
3.442083470447311
 40
3.569912708372976
 40
3.702177512509369
 40
3.842307559659533
 40
3.992872223245938
 40
4.156750662218327
 40
4.310981861107549
 40
4.445859909322594
 40
4.572393936131587
 40
4.701656719781981
 40
4.768279086008468
 40
4.835960697898411
 40
4.912788918729338
 40
5.006285208481544
 40
5.02690947875162
 40
5.047533749021185
 40
5.101808031471258
 40
5.162325165538537
 40
5.226919745995857
 40
5.29423180659673
 40
5.364544852554878
 40
5.438319055467923
 40
5.51787765132426
 40
5.607647714861572
 40
5.700449642544419
 40
5.78825114236415
 40
5.87271470603978
 40
5.955167292575298
 40
6.037192395190384
 40
6.12066918146911
 40
6.206848616686361
 40
6.296680855416772
 40
6.442558392872602
 40
6.56819037160829
 40
6.692904567360369
 40
6.824220446557149
 40
6.963121850329385
 40
7.107843738851169
 40
7.253431663907283
 40
7.395187468036703
 40
7.533140753237761
 40
7.670550457175253
 40
7.816236511769266
 40
7.987691657359225
 40
8.142277421969267
 40
8.293662615415034
 40
8.44296246087929
 40
8.591598316185335
 40
8.743678992361806
 40
8.903725323699195
 40
9.076307008890542
 40
9.265578604680595
 40
9.45920379536077
 40
9.617619810273554
 40
9.753609671361918
 40
9.874873300004085
 40
9.954520184977795
 40
10.02416413719247
 40
10.09769764405447
 40
10.18909955924973
 40
10.20974586420135
 40
10.2303921826338
 40
10.30057101881265
 40
10.37632012987545
 40
10.37632012987545
 40
10.37632012987545
 40
10.37632012987545
 10
170.1465954835851
 20
14.13795663215993
 30
0.0
 10
170.1632217851219
 20
14.11720608845312
 30
0.0
 10
170.1970784206578
 20
14.074951117119
 30
0.0
 10
170.2599822541036
 20
14.0202981139207
 30
0.0
 10
170.3332500940393
 20
13.97299025121049
 30
0.0
 10
170.4175969238636
 20
13.93527231437934
 30
0.0
 10
170.513224061546
 20
13.9104061973195
 30
0.0
 10
170.6171853775346
 20
13.90309559345936
 30
0.0
 10
170.7224020220405
 20
13.91142322794052
 30
0.0
 10
170.8206626371334
 20
13.94149179651526
 30
0.0
 10
170.9058986427548
 20
13.98848822971875
 30
0.0
 10
170.9779220206102
 20
14.04952991250855
 30
0.0
 10
171.0350917709096
 20
14.12412969578581
 30
0.0
 10
171.076786874744
 20
14.21002464660172
 30
0.0
 10
171.1026952846292
 20
14.30485850432209
 30
0.0
 10
171.1118037332653
 20
14.41854979038366
 30
0.0
 10
171.0986864796487
 20
14.54332587770777
 30
0.0
 10
171.0325330334414
 20
14.66014719171891
 30
0.0
 10
170.9369370919568
 20
14.74512539577371
 30
0.0
 10
170.8249681022369
 20
14.8141668445916
 30
0.0
 10
170.6993659583269
 20
14.87204142045888
 30
0.0
 10
170.5656691620857
 20
14.92373723284339
 30
0.0
 10
170.4313122818831
 20
14.9789909239718
 30
0.0
 10
170.3051983986877
 20
15.04939770641647
 30
0.0
 10
170.1926579987535
 20
15.13785540731248
 30
0.0
 10
170.0969963064458
 20
15.2498106786847
 30
0.0
 10
170.0334157151826
 20
15.39949910101381
 30
0.0
 10
170.0200706505016
 20
15.5593279438514
 30
0.0
 10
170.0320510987448
 20
15.71048405306843
 30
0.0
 10
170.071229892884
 20
15.83809244591537
 30
0.0
 10
170.1354987750911
 20
15.95080874030843
 30
0.0
 10
170.223820499974
 20
16.04648609268685
 30
0.0
 10
170.3338091207628
 20
16.12354214985751
 30
0.0
 10
170.4632284401265
 20
16.18151396936275
 30
0.0
 10
170.6111838967793
 20
16.21739177588821
 30
0.0
 10
170.7682069455486
 20
16.22746719050562
 30
0.0
 10
170.917494046643
 20
16.21863637762588
 30
0.0
 10
171.059625361417
 20
16.19074899340351
 30
0.0
 10
171.1595922609625
 20
16.13413314701136
 30
0.0
 10
171.3125074736185
 20
16.08674602105506
 30
0.0
 10
171.2455131717168
 20
16.00197553001183
 30
0.0
 10
171.2296479120269
 20
15.93438901873483
 30
0.0
 10
171.1978750531296
 20
15.86926092793188
 30
0.0
 10
171.2150202209572
 20
15.76723453256951
 30
0.0
 10
171.1666427208231
 20
15.774932116819
 30
0.0
 10
171.1315789440766
 20
15.76806771724806
 30
0.0
 10
171.1296697985718
 20
15.83263831158194
 30
0.0
 10
171.0985692931988
 20
15.87825639621393
 30
0.0
 10
171.0664551628455
 20
15.93561036628453
 30
0.0
 10
171.0208038475168
 20
15.98540462692557
 30
0.0
 10
170.9658508218386
 20
16.02994813718993
 30
0.0
 10
170.9010841173008
 20
16.06763988836548
 30
0.0
 10
170.8232377310596
 20
16.09283375791351
 30
0.0
 10
170.7355160553352
 20
16.09931230998109
 30
0.0
 10
170.6452903277807
 20
16.09235709285604
 30
0.0
 10
170.5594594694064
 20
16.06909190460919
 30
0.0
 10
170.4828343638596
 20
16.03131644107543
 30
0.0
 10
170.4165265636201
 20
15.98051641089572
 30
0.0
 10
170.3622560536964
 20
15.91731143407209
 30
0.0
 10
170.3224925345459
 20
15.84276455710366
 30
0.0
 10
170.2976775510587
 20
15.75917313997761
 30
0.0
 10
170.289212426287
 20
15.65192948382283
 30
0.0
 10
170.3019697987103
 20
15.52965457267557
 30
0.0
 10
170.3681548409273
 20
15.41149724291209
 30
0.0
 10
170.4640977399832
 20
15.32606325709526
 30
0.0
 10
170.5757914963182
 20
15.2558336230672
 30
0.0
 10
170.7010863668702
 20
15.19659162305302
 30
0.0
 10
170.8349823941447
 20
15.14616708086131
 30
0.0
 10
170.968993033315
 20
15.0932251698438
 30
0.0
 10
171.0950885316915
 20
15.02750170625175
 30
0.0
 10
171.2076216638417
 20
14.94480352537319
 30
0.0
 10
171.3031370284232
 20
14.83996006310072
 30
0.0
 10
171.3672706486962
 20
14.69937117251568
 30
0.0
 10
171.3811103725279
 20
14.54065409451591
 30
0.0
 10
171.367395471223
 20
14.38153155217873
 30
0.0
 10
171.3244739153985
 20
14.23483828819209
 30
0.0
 10
171.2545906329065
 20
14.1011979658714
 30
0.0
 10
171.1574592213829
 20
13.9853238769929
 30
0.0
 10
171.0347806023657
 20
13.89089981770087
 30
0.0
 10
170.8874408413168
 20
13.82179270651979
 30
0.0
 10
170.7177132497125
 20
13.77953210858852
 30
0.0
 10
170.5317404979596
 20
13.76781736230406
 30
0.0
 10
170.3528955926184
 20
13.77809486683436
 30
0.0
 10
170.1881733753743
 20
13.8196657376915
 30
0.0
 10
170.0834410841057
 20
13.8879764288394
 30
0.0
 10
169.9350960790366
 20
13.93675219032104
 30
0.0
 10
169.9980378194729
 20
14.0297659129084
 30
0.0
 10
170.007227443006
 20
14.10296536248279
 30
0.0
 10
170.0303711301232
 20
14.16936294501345
 30
0.0
 10
170.0034588335316
 20
14.26974809527577
 30
0.0
 10
170.0521338956339
 20
14.26234033517377
 30
0.0
 10
170.0916530580696
 20
14.26894063620892
 30
0.0
 10
170.0996204944702
 20
14.19078703218931
 30
0.0
 10
170.1305436967922
 20
14.15600927375855
 30
0.0
 10
170.1465954835851
 20
14.13795663215993
 30
0.0
 11
170.1465954835851
 21
14.13795663215993
 31
0.0
 11
170.1982038075864
 21
14.07729869814734
 31
0.0
 11
170.2601105501335
 21
14.02271295163318
 31
0.0
 11
170.3327764009802
 21
13.97583980928382
 31
0.0
 11
170.4166468655843
 21
13.93839906276536
 31
0.0
 11
170.511221073241
 21
13.91390636311876
 31
0.0
 11
170.6161603327165
 21
13.90575829888471
 31
0.0
 11
170.7240739497552
 21
13.91564048638221
 31
0.0
 11
170.8208419941616
 21
13.9452870488748
 31
0.0
 11
170.9050776083319
 21
13.99175118948817
 31
0.0
 11
170.9756144207686
 21
14.05191413218148
 31
0.0
 11
171.031944210998
 21
14.12505819466318
 31
0.0
 11
171.0736690016003
 21
14.2102143404752
 31
0.0
 11
171.0994680808032
 21
14.30436190989611
 31
0.0
 11
171.1080824729446
 21
14.40451552098219
 31
0.0
 11
171.0878517703357
 21
14.54643250879396
 31
0.0
 11
171.0272522666731
 21
14.65566684036385
 31
0.0
 11
170.9364971286285
 21
14.74081306430093
 31
0.0
 11
170.826010188474
 21
14.81052746532515
 31
0.0
 11
170.7008523531254
 21
14.86979854169921
 31
0.0
 11
170.5662951950998
 21
14.92404253474119
 31
0.0
 11
170.4316884277007
 21
14.98201274306003
 31
0.0
 11
170.3065802017258
 21
15.0529739930423
 31
0.0
 11
170.196027609828
 21
15.14113315968693
 31
0.0
 11
170.1053381235265
 21
15.25080295132615
 31
0.0
 11
170.0447055469484
 21
15.39179720476313
 31
0.0
 11
170.0245079172553
 21
15.57413260402312
 31
0.0
 11
170.0374030471347
 21
15.7121613192664
 31
0.0
 11
170.0761016659391
 21
15.83733128451287
 31
0.0
 11
170.1393141731506
 21
15.94779262129082
 31
0.0
 11
170.2257499954545
 21
16.0419688539062
 31
0.0
 11
170.3336492808962
 21
16.11846540770649
 31
0.0
 11
170.4613526283328
 21
16.17615670109485
 31
0.0
 11
170.6075393259923
 21
16.21220066809972
 31
0.0
 11
170.770976856545
 21
16.2242138538606
 31
0.0
 11
170.9248918431289
 21
16.21434269066862
 31
0.0
 11
171.0564887242607
 21
16.18477329831495
 31
0.0
 11
171.172563634494
 21
16.1343999389525
 31
0.0
 11
171.2800792741122
 21
16.06264163167876
 31
0.0
 11
171.2516994050444
 21
16.00236624106885
 31
0.0
 11
171.2284855254283
 21
15.93879017337646
 31
0.0
 11
171.2078381040801
 21
15.86478841992268
 31
0.0
 11
171.1871840681487
 21
15.77360197897326
 31
0.0
 11
171.1665597978415
 21
15.77360197897326
 31
0.0
 11
171.1459355275343
 21
15.77360197897326
 31
0.0
 11
171.1256706495791
 21
15.82395108486345
 31
0.0
 11
171.0994658759421
 21
15.87850045116927
 31
0.0
 11
171.0650468924451
 21
15.93316116296113
 31
0.0
 11
171.0203554612937
 21
15.98349593725409
 31
0.0
 11
170.9657333359511
 21
16.02777175321527
 31
0.0
 11
170.9016722004326
 21
16.06436142334499
 31
0.0
 11
170.825968296114
 21
16.08882545979725
 31
0.0
 11
170.7365722046449
 21
16.0970110066702
 31
0.0
 11
170.6440937174207
 21
16.08926973931099
 31
0.0
 11
170.5594072091645
 21
16.06609003445564
 31
0.0
 11
170.483702448884
 21
16.02863495634007
 31
0.0
 11
170.4183754766516
 21
15.978327742811
 31
0.0
 11
170.3650487887664
 21
15.91600293379878
 31
0.0
 11
170.3254809233901
 21
15.84249947895606
 31
0.0
 11
170.3009523754711
 21
15.75988443557389
 31
0.0
 11
170.2927954104108
 21
15.67042329844351
 31
0.0
 11
170.3130095765617
 21
15.52595308146572
 31
0.0
 11
170.373625616682
 21
15.41591177072935
 31
0.0
 11
170.4643479320758
 21
15.3303367013063
 31
0.0
 11
170.5748676948813
 21
15.25941954854623
 31
0.0
 11
170.7000089937719
 21
15.19914305550577
 31
0.0
 11
170.8345826882553
 21
15.1459044791302
 31
0.0
 11
170.9691729191968
 21
15.09039489581072
 31
0.0
 11
171.0942976816297
 21
15.02377281249409
 31
0.0
 11
171.204800907977
 21
14.94118863716748
 31
0.0
 11
171.2955397598288
 21
14.8380000347627
 31
0.0
 11
171.3561557999489
 21
14.70552315979583
 31
0.0
 11
171.3763699660998
 21
14.53526378483838
 31
0.0
 11
171.3621839747998
 21
14.3813303039741
 31
0.0
 11
171.3196087009193
 21
14.23605531269095
 31
0.0
 11
171.2499752884265
 21
14.10398854189066
 31
0.0
 11
171.1544992078713
 21
13.99007218775246
 31
0.0
 11
171.0341060772624
 21
13.89715272597017
 31
0.0
 11
170.8896160201846
 21
13.82832357668178
 31
0.0
 11
170.7223519532713
 21
13.78581275203966
 31
0.0
 11
170.5336103348226
 21
13.7716586461404
 31
0.0
 11
170.3405031726387
 21
13.78581275203966
 31
0.0
 11
170.1878975900911
 21
13.82832357668178
 31
0.0
 11
170.0661897942203
 21
13.88899033013888
 31
0.0
 11
169.9660261826363
 21
13.95734322942735
 31
0.0
 11
169.9922320587039
 21
14.03255545163075
 31
0.0
 11
170.0090121537618
 21
14.10014767383611
 31
0.0
 11
170.0206196447852
 21
14.17275926235961
 31
0.0
 11
170.0313606254139
 21
14.26352788212857
 31
0.0
 11
170.0520069443315
 21
14.26352788212857
 31
0.0
 11
170.0726532632492
 21
14.26352788212857
 31
0.0
 11
170.1048916391629
 21
14.20119204881082
 31
0.0
 11
170.1465954835851
 21
14.13795663215993
 31
0.0
  0
LWPOLYLINE
  5
C1
102
{ACAD_REACTORS
330
CE
102
}
330
48
100
AcDbEntity
  8
_U_30EC_U_30A4_U_30E4_U_30FC_1
  6
Continuous
 62
     2
100
AcDbPolyline
 90
        5
 70
     1
 43
0.0
 10
192.4578138032671
 20
15.39722336795623
 10
192.4578138032671
 20
15.22875434022056
 10
191.1602971697031
 20
15.22875434022056
 10
191.1602971697031
 20
15.39722336795623
 10
192.4578138032671
 20
15.39722336795623
  0
MTEXT
  5
C3
330
48
100
AcDbEntity
  8
1
 62
     2
100
AcDbMText
 10
32.5
 20
282.0000000000003
 30
0.0
 40
5.0
 41
0.0
 71
     5
 72
     1
  1
図番
  7
CONVERTER_11
 73
     1
 44
0.45454545454545
  0
MTEXT
  5
C4
330
48
100
AcDbEntity
  8
1
 62
     2
100
AcDbMText
 10
29.0
 20
33.99999999999999
 30
0.0
 40
3.5
 41
0.0
 71
     5
 72
     1
  1
備考
  7
CONVERTER_11
 73
     1
 44
0.45454545454545
  0
MTEXT
  5
C5
330
48
100
AcDbEntity
  8
1
 62
     2
100
AcDbMText
 10
29.0
 20
22.74999999999999
 30
0.0
 40
3.5
 41
0.0
 71
     5
 72
     1
  1
品名
  7
CONVERTER_11
 73
     1
 44
0.72727272727273
  0
MTEXT
  5
C6
330
48
100
AcDbEntity
  8
1
 62
     2
100
AcDbMText
 10
29.0
 20
14.24999999999999
 30
0.0
 40
3.5
 41
0.0
 71
     5
 72
     1
  1
品番
  7
CONVERTER_11
 73
     1
 44
0.72727272727273
  0
MTEXT
  5
C7
330
48
100
AcDbEntity
  8
1
 62
     2
100
AcDbMText
 10
101.5
 20
25.0
 30
0.0
 40
3.0
 41
0.0
 71
     5
 72
     1
  1
承認
  7
CONVERTER_11
 73
     1
 44
0.59090909090909
  0
MTEXT
  5
C8
330
48
100
AcDbEntity
  8
1
 62
     2
100
AcDbMText
 10
175.0
 20
23.5
 30
0.0
 40
3.5
 41
0.0
 71
     5
 72
     1
  1
第三角法
  7
CONVERTER_11
 73
     1
 44
0.54545454545455
  0
MTEXT
  5
C9
330
48
100
AcDbEntity
  8
1
 62
     2
100
AcDbMText
 10
118.5
 20
25.0
 30
0.0
 40
3.0
 41
0.0
 71
     5
 72
     1
  1
検図
  7
CONVERTER_11
 73
     1
 44
0.59090909090909
  0
MTEXT
  5
CA
330
48
100
AcDbEntity
  8
1
 62
     2
100
AcDbMText
 10
152.5
 20
25.0
 30
0.0
 40
3.0
 41
0.0
 71
     5
 72
     1
  1
設計
  7
CONVERTER_11
 73
     1
 44
0.59090909090909
  0
MTEXT
  5
CB
330
48
100
AcDbEntity
  8
1
 62
     2
100
AcDbMText
 10
135.5
 20
25.0
 30
0.0
 40
3.0
 41
0.0
 71
     5
 72
     1
  1
製図
  7
CONVERTER_11
 73
     1
 44
0.59090909090909
  0
MTEXT
  5
CC
330
48
100
AcDbEntity
  8
1
 62
     2
100
AcDbMText
 10
89.49999999999997
 20
24.0
 30
0.0
 40
3.5
 41
0.0
 71
     5
 72
     1
  1
尺度
  7
CONVERTER_11
 73
     1
 44
0.54545454545455
  0
MTEXT
  5
CD
330
48
100
AcDbEntity
  8
1
 62
   250
100
AcDbMText
 10
25.0
 20
4.99999999999999
 30
0.0
 40
3.5
 41
0.0
 71
     4
 72
     1
  1
備考欄の文字列 原点位置=4
  7
CONVERTER_11
 73
     1
 44
0.54545454545455
  0
HATCH
  5
CE
330
48
100
AcDbEntity
  8
1
  6
Continuous
 62
     2
100
AcDbHatch
 10
0.0
 20
0.0
 30
0.0
210
0.0
220
0.0
230
1.0
  2
CUSTOM0
 70
     0
 71
     1
 91
        1
 92
        1
 93
        4
 72
     1
 10
192.4578138032671
 20
15.39722336795623
 11
192.4578138032671
 21
15.22875434022056
 72
     1
 10
192.4578138032671
 20
15.22875434022056
 11
191.1602971697031
 21
15.22875434022056
 72
     1
 10
191.1602971697031
 20
15.22875434022056
 11
191.1602971697031
 21
15.39722336795623
 72
     1
 10
191.1602971697031
 20
15.39722336795623
 11
192.4578138032671
 21
15.39722336795623
 97
        1
330
C1
 75
     1
 76
     2
 52
45.0
 41
0.1
 77
     0
 78
     1
 53
45.0
 43
0.0
 44
0.0
 45
-0.282842712474619
 46
0.0
 79
     0
 98
        1
 10
0.0
 20
0.0
  0
HATCH
  5
CF
330
48
100
AcDbEntity
  8
1
  6
Continuous
 62
     2
100
AcDbHatch
 10
0.0
 20
0.0
 30
0.0
210
0.0
220
0.0
230
1.0
  2
CUSTOM1
 70
     0
 71
     1
 91
        1
 92
        1
 93
        3
 72
     4
 94
        3
 73
     0
 74
     0
 95
       24
 96
       20
 40
0.0
 40
0.0
 40
0.0
 40
0.0
 40
0.2211075008753934
 40
0.4273218586245242
 40
0.5080174679239252
 40
0.5914835907870132
 40
0.81432656901926
 40
1.054651302686571
 40
1.295452694023157
 40
1.518109231328808
 40
1.540864321905422
 40
1.595126460622683
 40
1.659890947895996
 40
1.714153085187354
 40
1.736908174961654
 40
1.764951100735344
 40
1.801562291220933
 40
1.953914424543609
 40
2.126104167379698
 40
2.126104167379698
 40
2.126104167379698
 40
2.126104167379698
 10
185.9375369556889
 20
15.58989295113014
 10
185.9112579081811
 20
15.53097628234372
 10
185.8604698894426
 20
15.41711139679257
 10
185.8131784839111
 20
15.14441958233114
 10
185.7043482802618
 20
15.24445482575453
 10
185.5514800279637
 20
15.27118593367329
 10
185.7686155181199
 20
15.4851813501763
 10
185.783848367438
 20
15.70332117782485
 10
185.8906889492001
 20
15.88451579066424
 10
185.8305380947077
 20
16.16913226311399
 10
185.9334317395402
 20
16.14114089222448
 10
185.977993346815
 20
16.13243251602298
 10
186.0380842395396
 20
16.12139654183354
 10
186.0756619587438
 20
16.10767523055558
 10
186.1252466928606
 20
16.10756076160222
 10
186.0930158919326
 20
16.07306592398622
 10
186.0171802221881
 20
16.08404104537963
 10
186.0429447159694
 20
15.89858969582448
 10
186.0055896763849
 20
15.80702313549587
 10
185.9857704961609
 20
15.75844135397703
 72
     4
 94
        3
 73
     0
 74
     0
 95
       70
 96
       66
 40
0.0
 40
0.0
 40
0.0
 40
0.0
 40
0.0241731073021472
 40
0.0846058988987013
 40
0.1631685280353284
 40
0.2417311571789756
 40
0.3021639488292751
 40
0.3263370654895541
 40
0.3533118254248899
 40
0.4228783438922129
 40
0.5179999095313402
 40
0.6216398239466084
 40
0.7167613891499688
 40
0.7863279069649846
 40
0.8133026791761818
 40
0.8372943998771656
 40
0.8945054261372849
 40
0.9627895541962621
 40
1.020000580349072
 40
1.04399230097517
 40
1.071934345522903
 40
1.113121768772915
 40
1.14522519933224
 40
1.225483775412775
 40
1.329819923771483
 40
1.434156071994373
 40
1.514414647795792
 40
1.5465180782084
 40
1.578974764260174
 40
1.662678849314169
 40
1.777131373668389
 40
1.90183337747478
 40
2.01628590050057
 40
2.099989982527937
 40
2.132446666570296
 40
2.15878235448602
 40
2.216720867907808
 40
2.274659381334232
 40
2.300995069256166
 40
2.333451754066138
 40
2.417155836543818
 40
2.531608358985258
 40
2.656310362283753
 40
2.770762886388885
 40
2.854466971340051
 40
2.886923657363857
 40
2.913597976833289
 40
2.982389642875093
 40
3.076451716946957
 40
3.178937260458566
 40
3.272999334739968
 40
3.341791001059191
 40
3.368465320663502
 40
3.396976080738723
 40
3.472140811845959
 40
3.578408190308648
 40
3.700226892456085
 40
3.822045594634302
 40
3.928312973256409
 40
4.003477705314806
 40
4.031988456866872
 40
4.058324144797671
 40
4.116262658236836
 40
4.17420117140064
 40
4.200536849608573
 40
4.200536849608573
 40
4.200536849608573
 40
4.200536849608573
 10
185.9857704961609
 20
15.75844135397703
 10
185.9938259544679
 20
15.75844359811684
 10
186.0220200663241
 20
15.75845146032796
 10
186.0765534803672
 20
15.7583075482837
 10
186.1482891808604
 20
15.75909120499896
 10
186.2236240137062
 20
15.75627570463809
 10
186.2713052366439
 20
15.76298403400955
 10
186.3195071245616
 20
15.7519756369243
 10
186.3062571799873
 20
15.80546402997031
 10
186.3151093964538
 20
15.86049583543089
 10
186.3108698036285
 20
15.95419908726107
 10
186.313348348128
 20
16.0495948221853
 10
186.309093870606
 20
16.14356821983385
 10
186.3179818665846
 20
16.1979506243801
 10
186.3046977409945
 20
16.25233997691458
 10
186.3514119277109
 20
16.23842216335355
 10
186.3943254545736
 20
16.24103877374042
 10
186.4605443456684
 20
16.23648422450752
 10
186.5013342271799
 20
16.2277816213416
 10
186.5525145690818
 20
16.23531799890193
 10
186.5253720487201
 20
16.19349970223283
 10
186.4803096055707
 20
16.20284992072594
 10
186.4942065045051
 20
16.13841207371835
 10
186.4858414431653
 20
16.07378219627397
 10
186.4903632178398
 20
15.97529141193885
 10
186.4854741311167
 20
15.87595932842568
 10
186.4950258992082
 20
15.81293115552967
 10
186.47997614552
 20
15.74964011499786
 10
186.5449159457208
 20
15.76515072944267
 10
186.6116246399496
 20
15.7549938769781
 10
186.7241435470828
 20
15.75988800099365
 10
186.8390235448954
 20
15.75691204732782
 10
186.9519871999747
 20
15.76221664184989
 10
187.0176267597678
 20
15.75107306472087
 10
187.0816276691053
 20
15.76744532319855
 10
187.070314288919
 20
15.71761689905273
 10
187.0775339871509
 20
15.67416715212121
 10
187.0703142611269
 20
15.63071745587442
 10
187.0816277175994
 20
15.58088895196875
 10
187.0176263598971
 20
15.5972616609136
 10
186.951992124046
 20
15.58611271661586
 10
186.838997431733
 20
15.59144857206852
 10
186.7242456548644
 20
15.5883434566382
 10
186.611318368686
 20
15.59364894682587
 10
186.5455220903584
 20
15.58257300019591
 10
186.4816097975358
 20
15.59887597847616
 10
186.4936015165125
 20
15.5442352439574
 10
186.4862104613005
 20
15.4885429504784
 10
186.4892684841983
 20
15.39649689140569
 10
186.4893422785682
 20
15.30179109873099
 10
186.486031357836
 20
15.20952782902264
 10
186.4939505989904
 20
15.15435768736138
 10
186.4815076611617
 20
15.10058169100135
 10
186.5389116551632
 20
15.1145376886278
 10
186.5994708140383
 20
15.10511457884225
 10
186.7048680855081
 20
15.10942885928704
 10
186.8204294070622
 20
15.1083550461203
 10
186.9359688877797
 20
15.10725965900994
 10
187.0414181130841
 20
15.11162525770632
 10
187.1018680471804
 20
15.1020942603067
 10
187.159283773911
 20
15.11617289606379
 10
187.1477773876709
 20
15.06707153265681
 10
187.153756678175
 20
15.02564658018647
 10
187.1520311050801
 20
14.97651677966694
 10
187.1521500122971
 20
14.94854428447606
 10
187.1521871691833
 20
14.93980288195948
 72
     4
 94
        3
 73
     0
 74
     0
 95
       62
 96
       58
 40
0.0
 40
0.0
 40
0.0
 40
0.0
 40
0.0598250028308769
 40
0.2024846486897616
 40
0.3727558389221315
 40
0.5154154847936923
 40
0.5752404975786192
 40
0.9332326775488206
 40
1.290451762839593
 40
1.602077253146015
 40
1.699931634112286
 40
1.799359756425191
 40
2.270120149657235
 40
2.804661928461699
 40
2.88234228738341
 40
3.076543185719263
 40
3.329004354835724
 40
3.581465524568551
 40
3.775666424543835
 40
3.853346784558455
 40
3.899120679595201
 40
3.984129341792199
 40
4.029903236817548
 40
4.105797496059701
 40
4.295533144152659
 40
4.542189486611901
 40
4.788845828875846
 40
4.978581476410229
 40
5.054475735244472
 40
5.621734664339482
 40
6.130867242037499
 40
6.225249780948761
 40
6.318913039727502
 40
6.663579954559165
 40
7.047498900225034
 40
7.435230791575962
 40
7.498943906668374
 40
7.650875181210368
 40
7.832212509001878
 40
7.984143783697264
 40
8.04785689890339
 40
8.0915546327329
 40
8.172707566964561
 40
8.216405300768287
 40
8.289021782161171
 40
8.462184160757545
 40
8.668861838005625
 40
8.842024215264217
 40
8.914640695475413
 40
8.989881580861615
 40
9.155411528827521
 40
9.320941477744304
 40
9.396182352487552
 40
9.454709011144098
 40
9.583467660171033
 40
9.712226309013312
 40
9.770752957989766
 40
9.770752957989766
 40
9.770752957989766
 40
9.770752957989766
 10
187.1521871691833
 20
14.93980288195948
 10
187.1322348171623
 20
14.93980875568669
 10
187.0647037716465
 20
14.93982863806155
 10
186.9410612161788
 20
14.93949362520324
 10
186.7863180150056
 20
14.9410767375051
 10
186.6697349482479
 20
14.93686078860493
 10
186.455094263424
 20
14.95215205331625
 10
186.8518948407228
 20
14.5919872128619
 10
186.8945656069266
 20
14.37510503397165
 10
187.3189162146612
 20
14.19325062511442
 10
187.1439821496074
 20
14.08985196568073
 10
187.0194523925083
 20
13.87831523212717
 10
186.7666277235943
 20
14.34806081001563
 10
186.4797602893626
 20
14.99511516984521
 10
186.490633592666
 20
14.68782672154693
 10
186.488289277796
 20
14.52288616971777
 10
186.4861096126411
 20
14.28879670711692
 10
186.4980774396346
 20
14.04498072421782
 10
186.468798474063
 20
13.89855796860983
 10
186.511452262547
 20
13.75113490174537
 10
186.4239814005639
 20
13.76685797306219
 10
186.3768527606744
 20
13.76694303543453
 10
186.2898973207712
 20
13.75109425482908
 10
186.3313474021722
 20
13.89527771422761
 10
186.3029875004285
 20
14.03855052698454
 10
186.31459737753
 20
14.27674947365263
 10
186.3124175648271
 20
14.50517235240345
 10
186.3103111127993
 20
14.66705729375992
 10
186.3208035438324
 20
14.98153709333751
 10
186.0128963252893
 20
14.29229470872432
 10
185.7055258267455
 20
13.81476750243053
 10
185.5851367066274
 20
14.03741112637426
 10
185.407460791072
 20
14.15011034955562
 10
185.8853326362894
 20
14.32548143465459
 10
185.9353959057207
 20
14.56091929252028
 10
186.3583799621717
 20
14.95322989344605
 10
186.127675427354
 20
14.93655307029064
 10
186.004968585934
 20
14.94269518948768
 10
185.8325483095661
 20
14.93312822699571
 10
185.7213224694449
 20
14.95448818489664
 10
185.6025779627447
 20
14.92136265357417
 10
185.6183169706686
 20
15.00203900606882
 10
185.6178550933762
 20
15.04645414290852
 10
185.6027881889931
 20
15.12967081778532
 10
185.7372380935442
 20
15.09062651983881
 10
185.8619755545747
 20
15.11739729328422
 10
186.062875523728
 20
15.10063949044051
 10
186.1921540949353
 20
15.12204225913003
 10
186.3328419928295
 20
15.0886877885342
 10
186.2980927452614
 20
15.22651875785066
 10
186.3222185666713
 20
15.34963257349479
 10
186.2967086182392
 20
15.47024055670333
 10
186.3333251146685
 20
15.60539865141493
 10
186.2211417027769
 20
15.58094545781888
 10
186.1280356457136
 20
15.59307749842021
 10
186.0191547579819
 20
15.58957630069991
 10
185.9569697640964
 20
15.58981755951601
 10
185.9375369557246
 20
15.58989295124142
 97
        3
330
B2
330
B0
330
B1
 75
     1
 76
     2
 52
45.0
 41
0.1
 77
     0
 78
     1
 53
45.0
 43
0.0
 44
0.0
 45
-0.282842712474619
 46
0.0
 79
     0
 98
        1
 10
0.0
 20
0.0
  0
HATCH
  5
D0
330
48
100
AcDbEntity
  8
1
  6
Continuous
 62
     2
100
AcDbHatch
 10
0.0
 20
0.0
 30
0.0
210
0.0
220
0.0
230
1.0
  2
CUSTOM2
 70
     0
 71
     1
 91
        1
 92
        1
 93
        1
 72
     4
 94
        3
 73
     0
 74
     0
 95
      124
 96
      120
 40
0.0
 40
0.0
 40
0.0
 40
0.0
 40
0.027818722962451
 40
0.1011590162384269
 40
0.2048470170590239
 40
0.3237088716559245
 40
0.4425707262522
 40
0.5462587270699547
 40
0.6195990203311798
 40
0.647417752257866
 40
0.6750060736115224
 40
0.7357003855242741
 40
0.7963946998054474
 40
0.8239830245571766
 40
0.854093381110286
 40
0.937339662940954
 40
1.063094687343235
 40
1.220731268638073
 40
1.399622220914748
 40
1.589140358637732
 40
1.778658496423898
 40
1.957549448940509
 40
2.115186030873159
 40
2.240941056914463
 40
2.324187341760532
 40
2.354297700109382
 40
2.38188602467189
 40
2.442580338710477
 40
2.503274652750499
 40
2.530862977314606
 40
2.560983949278559
 40
2.640393784452905
 40
2.752662861759128
 40
2.881361560118145
 40
3.010060258455192
 40
3.122329335705339
 40
3.201739170817953
 40
3.231860142753313
 40
3.26429802403037
 40
3.352343701778239
 40
3.48209522686876
 40
3.639650650173022
 40
3.811108022565478
 40
3.982565394927986
 40
4.140120818152565
 40
4.269872343141276
 40
4.357918020802336
 40
4.390355902043965
 40
4.423256253992535
 40
4.508104530073056
 40
4.624121560636824
 40
4.750528176031581
 40
4.866545206602027
 40
4.951393482691985
 40
4.984293834645386
 40
5.011450833242301
 40
5.071196230152087
 40
5.130941627057163
 40
5.158098625648829
 40
5.190998977601519
 40
5.275847253689345
 40
5.391864284256779
 40
5.518270899648324
 40
5.634287930209363
 40
5.719136206288037
 40
5.752036558235925
 40
5.78213094628295
 40
5.862783906229123
 40
5.979550131774992
 40
6.117984316640396
 40
6.263641154587943
 40
6.402075339414147
 40
6.518841564907944
 40
6.599494524815525
 40
6.629588912848763
 40
6.65440302822634
 40
6.713575149488107
 40
6.784199939329424
 40
6.843372060493526
 40
6.868186175802772
 40
6.896246243201858
 40
6.939586233758255
 40
6.967846564564886
 40
7.043584251089821
 40
7.153234334451677
 40
7.283231855734425
 40
7.420011856035457
 40
7.550009376579809
 40
7.659659458835207
 40
7.7353971444172
 40
7.763657474851372
 40
7.796409728011029
 40
7.880876065096303
 40
7.996370852465689
 40
8.122208446418584
 40
8.237703224799178
 40
8.322169562010872
 40
8.354921815205886
 40
8.382078813307666
 40
8.441824209206974
 40
8.501569605240123
 40
8.528726603485701
 40
8.56147885669575
 40
8.6459451938778
 40
8.761439980865312
 40
8.887277580764454
 40
9.002772362000975
 40
9.087238696661196
 40
9.11999094923565
 40
9.152428830613347
 40
9.240474508638563
 40
9.370226034149516
 40
9.527781457984398
 40
9.699238830981386
 40
9.870696203978577
 40
10.028251627814
 40
10.15800315332561
 40
10.24604883135116
 40
10.27848670378519
 40
10.27848670378519
 40
10.27848670378519
 40
10.27848670378519
 10
195.3821827564383
 20
14.01410517385756
 10
195.3914554737523
 20
14.01410498511273
 10
195.4251744536861
 20
14.01410430876713
 10
195.4934706812465
 20
14.01411807243304
 10
195.592014171158
 20
14.01403224219544
 10
195.7062066464812
 20
14.01441755612249
 10
195.818589441707
 20
14.01300835897544
 10
195.9214376600118
 20
14.01719117422242
 10
195.9806839874849
 20
14.00823089251982
 10
196.0371265937033
 20
14.0216443452606
 10
196.0246255586955
 20
13.97087198613361
 10
196.0329549635703
 20
13.92589320939065
 10
196.024817084112
 20
13.88056752990487
 10
196.0370529214457
 20
13.82931932408465
 10
195.9747773490333
 20
13.84447955365275
 10
195.9060513026868
 20
13.83359750710742
 10
195.7782756749592
 20
13.83911304747971
 10
195.6262984511643
 20
13.83700851253697
 10
195.4502695972523
 20
13.83771002588473
 10
195.2644431934287
 20
13.8374523753129
 10
195.0786167437175
 20
13.83771005144602
 10
194.9025880142168
 20
13.8370084184773
 10
194.7506104154195
 20
13.83911332229988
 10
194.6228357664554
 20
13.83359680767639
 10
194.5541077836581
 20
13.84448077125941
 10
194.4918349042883
 20
13.82931786684209
 10
194.5040616290017
 20
13.8805751080517
 10
194.4960004462597
 20
13.92582473272424
 10
194.5040675809892
 20
13.97106357955322
 10
194.4918238487083
 20
14.02234176909957
 10
194.5525017120697
 20
14.00749577363134
 10
194.6162810745736
 20
14.01756448170734
 10
194.7277314353502
 20
14.01294644211998
 10
194.8497533443824
 20
14.01413328905468
 10
194.9719538137823
 20
14.01515863900633
 10
195.0829794287392
 20
14.010924756234
 10
195.1476517413958
 20
14.02018584521738
 10
195.2091162810501
 20
14.00604423049682
 10
195.1930065601337
 20
14.07235527884515
 10
195.2042980327358
 20
14.14447790121975
 10
195.198740082256
 20
14.27513760888285
 10
195.2008035061691
 20
14.4260732370824
 10
195.2000167127295
 20
14.59335873107885
 10
195.2007845215628
 20
14.76061110332301
 10
195.1988038785627
 20
14.91163289269913
 10
195.204130615662
 20
15.04206069552993
 10
195.1933101388425
 20
15.11465442605898
 10
195.2090326429875
 20
15.18150469436797
 10
195.143270813249
 20
15.16580512490823
 10
195.0756367830764
 20
15.17609243083994
 10
194.9615885293809
 20
15.17113786847121
 10
194.8451242674902
 20
15.17414128030474
 10
194.7306554121477
 20
15.16880303143387
 10
194.6640324657812
 20
15.18001268074823
 10
194.5990769715186
 20
15.1634913266501
 10
194.6107989758707
 20
15.21473720477058
 10
194.6032830189121
 20
15.2595033378409
 10
194.6107989878835
 20
15.30426944897961
 10
194.5990769505346
 20
15.3555153612974
 10
194.66403263392
 20
15.33899381766814
 10
194.7306533339821
 20
15.35020571373943
 10
194.8451352858063
 20
15.34485436710663
 10
194.9615454436962
 20
15.34791188771116
 10
195.0757660174641
 20
15.34278499010707
 10
195.1430150439226
 20
15.35345733355597
 10
195.2083325941438
 20
15.33742082669076
 10
195.1941391448553
 20
15.39949685750052
 10
195.2036059462995
 20
15.46586761628761
 10
195.1990269004085
 20
15.58239972741965
 10
195.2007696555948
 20
15.71426685022374
 10
195.1997551495392
 20
15.85615960150272
 10
195.2017191344372
 20
15.98769050702579
 10
195.196466855385
 20
16.10524577283001
 10
195.2073408763475
 20
16.16947789001583
 10
195.1919536641853
 20
16.23108802545046
 10
195.24075915378
 20
16.21702407382109
 10
195.2853995564726
 20
16.21954742075313
 10
195.3538643946742
 20
16.21512797401709
 10
195.3959106169102
 20
16.20613025544034
 10
195.4487544758775
 20
16.2141171486651
 10
195.4207035002014
 20
16.17113917611672
 10
195.3749142248594
 20
16.18259552043835
 10
195.3869539073265
 20
16.12173520005135
 10
195.3796086070641
 20
16.05769299468771
 10
195.3831195826162
 20
15.9490936886391
 10
195.3819806760174
 20
15.82494319144751
 10
195.3819174780262
 20
15.69189719829876
 10
195.3832872966868
 20
15.56797381249554
 10
195.3791638801313
 20
15.45868337849337
 10
195.3877763103564
 20
15.39608580094169
 10
195.3746757454401
 20
15.33740133296364
 10
195.4393884328198
 20
15.35362113810901
 10
195.5060405953155
 20
15.34270260383311
 10
195.6198779541103
 20
15.34793740173754
 10
195.7357259122097
 20
15.34485547516912
 10
195.849692426328
 20
15.35018259812511
 10
195.91603410181
 20
15.33904208166542
 10
195.9807188525479
 20
15.35546979593177
 10
195.9689820772723
 20
15.3042592521005
 10
195.976516806304
 20
15.25950334120999
 10
195.9689820992258
 20
15.21474739010026
 10
195.9807188140736
 20
15.16353690871039
 10
195.9160344075252
 20
15.17996427794219
 10
195.8496886430824
 20
15.16882784447268
 10
195.7357459487012
 20
15.17413115893119
 10
195.6197995623054
 20
15.17114764593543
 10
195.5062756882122
 20
15.17606892268392
 10
195.4389231318804
 20
15.16585087513519
 10
195.3734285122495
 20
15.18145996138814
 10
195.3891713619218
 20
15.1146385182741
 10
195.3783275998212
 20
15.04207057815877
 10
195.3836581629793
 20
14.91162247614415
 10
195.3817136151855
 20
14.76064558185225
 10
195.3823133683214
 20
14.59322243934157
 10
195.3821506559605
 20
14.4265617611837
 10
195.3821895488135
 20
14.27360142921635
 10
195.38218164131
 20
14.14849178985704
 10
195.3821828382744
 20
14.06507890991418
 10
195.3821827716208
 20
14.02491778281975
 10
195.3821827564383
 20
14.01410517385756
 97
        1
330
B3
 75
     1
 76
     2
 52
45.0
 41
0.1
 77
     0
 78
     1
 53
45.0
 43
0.0
 44
0.0
 45
-0.282842712474619
 46
0.0
 79
     0
 98
        1
 10
0.0
 20
0.0
  0
HATCH
  5
D1
330
48
100
AcDbEntity
  8
1
  6
Continuous
 62
     2
100
AcDbHatch
 10
0.0
 20
0.0
 30
0.0
210
0.0
220
0.0
230
1.0
  2
CUSTOM3
 70
     0
 71
     1
 91
        1
 92
        1
 93
        1
 72
     4
 94
        3
 73
     0
 74
     0
 95
      131
 96
      127
 40
0.0
 40
0.0
 40
0.0
 40
0.0
 40
0.0195577029826372
 40
0.0426490537462198
 40
0.2863607575857025
 40
0.53449484361896
 40
0.7842238845573513
 40
0.8737315789467708
 40
0.9803832810312972
 40
1.092842274517043
 40
1.199761146656777
 40
1.289788768186503
 40
1.351573580786216
 40
1.370727117561458
 40
1.416400936017871
 40
1.47091484835603
 40
1.516588666791822
 40
1.535742203552918
 40
1.634216592293226
 40
1.760283341175041
 40
1.897966686682101
 40
2.031216387368922
 40
2.049689751137915
 40
2.10111560164685
 40
2.179502577739969
 40
2.278859318314083
 40
2.393194462258743
 40
2.516516648383854
 40
2.642834515405982
 40
2.766156701983487
 40
2.880491846754602
 40
2.979848588358641
 40
3.058235565443818
 40
3.109661416668972
 40
3.12813478070415
 40
3.146783742386466
 40
3.191254343315327
 40
3.244332157315986
 40
3.28880275822589
 40
3.307451719895132
 40
3.327717853844744
 40
3.383747753580105
 40
3.468388665924497
 40
3.574487837698801
 40
3.694892515728908
 40
3.822449946852046
 40
3.950007377920436
 40
4.070412055800526
 40
4.176511227368083
 40
4.261152139501529
 40
4.317182039076721
 40
4.337448172964642
 40
4.620011002696251
 40
4.885096638397521
 40
4.945373043518352
 40
5.014107710488683
 40
5.070481727652045
 40
5.31924695563657
 40
5.584812164506041
 40
5.859000912056894
 40
6.133746937542075
 40
6.401732212968879
 40
6.42073668399547
 40
6.47284571745112
 40
6.550702743894048
 40
6.646951193874257
 40
6.754234497930581
 40
6.865196086587359
 40
6.972479390357817
 40
7.068727839771979
 40
7.146584865450988
 40
7.198693898189218
 40
7.217698368905358
 40
7.234950401630835
 40
7.276089864269879
 40
7.325191803515988
 40
7.366331266090375
 40
7.383583298769727
 40
7.402779163492104
 40
7.453386443254535
 40
7.524934666445537
 40
7.606953361405877
 40
7.688972056429028
 40
7.760520279784279
 40
7.811127559734521
 40
7.830323424546142
 40
7.847844055299769
 40
7.894799345666812
 40
7.962779392744498
 40
8.043374293560543
 40
8.128174145149448
 40
8.208769044817249
 40
8.27674909037695
 40
8.323704379669511
 40
8.341225010056242
 40
8.35849761480039
 40
8.401679126686595
 40
8.457815092185653
 40
8.513951057728057
 40
8.557132569708013
 40
8.574405174505056
 40
8.60234066861642
 40
8.643455660539962
 40
8.66322527196663
 40
8.715345156564274
 40
8.789031889628609
 40
8.873502045520336
 40
8.957972194323958
 40
9.031658925567848
 40
9.083778811234536
 40
9.103548423002998
 40
9.119550083123535
 40
9.160817522379837
 40
9.217244429110202
 40
9.278724491644688
 40
9.335151398295473
 40
9.376418837357768
 40
9.392420497300556
 40
9.401196302734775
 40
9.41749422938425
 40
9.426270027749522
 40
9.440875075477555
 40
9.475702496998736
 40
9.517270709865898
 40
9.552098131994066
 40
9.566703169884274
 40
9.566703169884274
 40
9.566703169884274
 40
9.566703169884274
 10
194.6170254148479
 20
15.67015871511026
 10
194.6134345093371
 20
15.66453690702158
 10
194.6056039123625
 20
15.65227754419109
 10
194.5129968974545
 20
15.61601916040979
 10
194.4887622233247
 20
15.40148444212709
 10
194.3858709845938
 20
15.22197284509707
 10
194.1220492364305
 20
15.03615573798143
 10
194.284547156918
 20
14.95959336566079
 10
194.3607225760837
 20
14.89856693195438
 10
194.4492171072758
 20
14.83515804544759
 10
194.538993023311
 20
14.77525634219557
 10
194.5883817636045
 20
14.72102154849206
 10
194.6745708157382
 20
14.69286240541831
 10
194.6411260674229
 20
14.65713309652812
 10
194.621467116631
 20
14.62550387991903
 10
194.5919888217882
 20
14.5847587279607
 10
194.568898944603
 20
14.55504663489641
 10
194.5380205968356
 20
14.50211422668497
 10
194.4729193365739
 20
14.627403349389
 10
194.3796000122415
 20
14.68213900233934
 10
194.2950636285138
 20
14.73916423939341
 10
194.1722498125742
 20
14.89675287427521
 10
194.1764450847301
 20
14.82035806766834
 10
194.1751478652677
 20
14.77361280161294
 10
194.1758126448076
 20
14.69584785812599
 10
194.1755549986957
 20
14.59902068324421
 10
194.1756431239922
 20
14.48650279078807
 10
194.1756077302281
 20
14.36524085945698
 10
194.1756511758279
 20
14.2408689785896
 10
194.1755199942405
 20
14.11967683631334
 10
194.1759477562046
 20
14.00691148919741
 10
194.174667820231
 20
13.91082913768742
 10
194.1779759851044
 20
13.83113826468698
 10
194.1715197740086
 20
13.78815175788782
 10
194.1806208705556
 20
13.7495543237204
 10
194.1447910339935
 20
13.75810887724068
 10
194.1115223815252
 20
13.75342519985445
 10
194.0604562576041
 20
13.75351298759782
 10
194.0269723972812
 20
13.75794430283818
 10
193.9907585408754
 20
13.74960793842508
 10
194.0009782568666
 20
13.79145277179283
 10
193.9936487887773
 20
13.83778560820171
 10
193.9973633136102
 20
13.92374831106012
 10
193.9959480554896
 20
14.02605142704847
 10
193.9964105554638
 20
14.14453223931509
 10
193.996277368623
 20
14.26957683153354
 10
193.9963015910045
 20
14.39475828107048
 10
193.9963354925551
 20
14.51286645379056
 10
193.9962060293132
 20
14.61628748709514
 10
193.9965507549081
 20
14.69932036153665
 10
193.995869827869
 20
14.75143368521241
 10
193.9994586600621
 20
14.87912907821358
 10
193.7826171386438
 20
14.58048716819619
 10
193.602135492195
 20
14.35263981511513
 10
193.5490322295611
 20
14.49373443289813
 10
193.5200429133148
 20
14.54325767560939
 10
193.4196648062821
 20
14.64641779790111
 10
193.740512772326
 20
14.72695035023775
 10
193.8689897005429
 20
14.91066283036434
 10
194.090645432536
 20
15.11931995771761
 10
194.1770224894068
 20
15.29339211228342
 10
194.4549394229075
 20
15.56967051342511
 10
194.3346247839283
 20
15.56534559551113
 10
194.2863197351349
 20
15.56614856202552
 10
194.2102377454905
 20
15.56574582146583
 10
194.116701000975
 20
15.56590275611608
 10
194.0117594788557
 20
15.56582502576223
 10
193.9033887738717
 20
15.56595464378553
 10
193.7981454235897
 20
15.56554393490691
 10
193.7056237819412
 20
15.5668207367159
 10
193.6268130800707
 20
15.56340766534849
 10
193.5839674565379
 20
15.57023350036319
 10
193.5449499586516
 20
15.56065064201123
 10
193.5526365271863
 20
15.59420779565541
 10
193.5485464404312
 20
15.62523550322232
 10
193.5485531368814
 20
15.67236529270899
 10
193.5526239724911
 20
15.70340941646777
 10
193.5449495574582
 20
15.737018616359
 10
193.5834819405494
 20
15.72748410420871
 10
193.624122801448
 20
15.73397435498069
 10
193.6951471850463
 20
15.73100150650253
 10
193.7729318149633
 20
15.73174761399156
 10
193.8507292246474
 20
15.73247814044524
 10
193.9217232089907
 20
15.72954235514159
 10
193.962427979182
 20
15.7359546877295
 10
194.0009853489909
 20
15.72650524176003
 10
193.9927342754927
 20
15.76264692158783
 10
193.9982346669358
 20
15.80129837613225
 10
193.9955754206163
 20
15.86913528561838
 10
193.9965815471533
 20
15.94591641538738
 10
193.9960178018319
 20
16.02849393582755
 10
193.9970714526593
 20
16.10517329229876
 10
193.994267586313
 20
16.17331990776697
 10
194.0000702721303
 20
16.21132399809344
 10
193.9915654551159
 20
16.24758448077644
 10
194.0255610233125
 20
16.23755723771849
 10
194.0594575683099
 20
16.24073266813704
 10
194.1126669060346
 20
16.23508965640607
 10
194.1660768574482
 20
16.23434774436423
 10
194.1995914649491
 20
16.22819223482978
 10
194.2388086183038
 20
16.2334602977359
 10
194.2120263698492
 20
16.19253380793488
 10
194.1708111001724
 20
16.20371204538109
 10
194.1782641540874
 20
16.15867056192122
 10
194.1742227952184
 20
16.11412278028142
 10
194.1761714049641
 20
16.04223572621702
 10
194.1752364849758
 20
15.96168630588769
 10
194.176510719003
 20
15.88173995404993
 10
194.1732043793864
 20
15.80841837083182
 10
194.1802106179961
 20
15.76688643002566
 10
194.1701440380126
 20
15.72752418568112
 10
194.2029814803921
 20
15.7346806343098
 10
194.2364577296481
 20
15.73027243137943
 10
194.2915053476019
 20
15.73217943347897
 10
194.3489502595314
 20
15.73185366407287
 10
194.4023026248309
 20
15.73106308733081
 10
194.4398540896638
 20
15.73313959118073
 10
194.4623172523237
 20
15.73022338167108
 10
194.4751678073731
 20
15.73572552644056
 10
194.4858255685888
 20
15.73801118197789
 10
194.4986635650144
 20
15.74494972588052
 10
194.514599103307
 20
15.7285304631367
 10
194.5410623920892
 20
15.71709122319448
 10
194.5726805253757
 20
15.69644687835189
 10
194.5987255892151
 20
15.68116869628293
 10
194.6128517723973
 20
15.67266976323182
 10
194.6170254148479
 20
15.67015871511026
 97
        1
330
B4
 75
     1
 76
     2
 52
45.0
 41
0.1
 77
     0
 78
     1
 53
45.0
 43
0.0
 44
0.0
 45
-0.282842712474619
 46
0.0
 79
     0
 98
        1
 10
0.0
 20
0.0
  0
HATCH
  5
D2
330
48
100
AcDbEntity
  8
1
  6
Continuous
 62
     2
100
AcDbHatch
 10
0.0
 20
0.0
 30
0.0
210
0.0
220
0.0
230
1.0
  2
CUSTOM4
 70
     0
 71
     1
 91
        1
 92
        1
 93
        1
 72
     4
 94
        3
 73
     0
 74
     0
 95
       91
 96
       87
 40
0.0
 40
0.0
 40
0.0
 40
0.0
 40
0.0267532254356684
 40
0.0856103386464049
 40
0.1444674521996567
 40
0.1712206856618426
 40
0.2039416005642447
 40
0.2955601971652395
 40
0.4362601844616829
 40
0.6162252844507161
 40
0.8256392189704609
 40
1.054685709844402
 40
1.293548478893522
 40
1.532411247938294
 40
1.761457738799559
 40
1.970871673298528
 40
2.150836773256724
 40
2.291536760495585
 40
2.383155356836691
 40
2.415876284101311
 40
2.442629517487952
 40
2.501486630949082
 40
2.560343744424226
 40
2.587096977826497
 40
2.617068194440924
 40
2.699247336756065
 40
2.822032643466378
 40
2.973822353257908
 40
3.14301470482335
 40
3.318007936879929
 40
3.487200288186762
 40
3.638989997548243
 40
3.761775303794741
 40
3.843954445753076
 40
3.873925662229772
 40
3.890812773500481
 40
3.907699884771662
 40
3.937960767857261
 40
3.980983618142293
 40
4.199085915228444
 40
4.439444339237234
 40
4.677588241260874
 40
5.050698317837759
 40
5.448212454763145
 40
5.855291218044671
 40
6.13857543888534
 40
6.417434507584176
 40
6.444551104393833
 40
6.504207617363132
 40
6.56386413031443
 40
6.590980727103998
 40
6.848609460381398
 40
7.109611990668394
 40
7.352910904446056
 40
7.557830220705429
 40
7.587518925913348
 40
7.652834077375791
 40
7.7181492288458
 40
7.747837934062079
 40
7.854880190300989
 40
7.976511257403532
 40
8.369487896592332
 40
8.757514959223625
 40
9.126072419331088
 40
9.46063938039215
 40
9.746695593035891
 40
9.77756994311866
 40
9.80705032093176
 40
9.830377336128892
 40
9.886003295435968
 40
9.952395569429877
 40
10.00802152870623
 40
10.03134854388215
 40
10.21356951009586
 40
10.42203479292868
 40
10.66154556731061
 40
10.916937895643
 40
11.15832906556559
 40
11.18982674596616
 40
11.27286608520398
 40
11.39026653033342
 40
11.52484752840873
 40
11.65942852648429
 40
11.77682897161468
 40
11.85986831085664
 40
11.8913659823041
 40
11.8913659823041
 40
11.8913659823041
 40
11.8913659823041
 10
190.7027885008196
 20
14.70699600701771
 10
190.7028237765288
 20
14.71587847311984
 10
190.7029366710797
 20
14.74430237047346
 10
190.7012984568488
 20
14.79409639169801
 10
190.7069750292911
 20
14.83657564478153
 10
190.6956928731706
 20
14.88730154856845
 10
190.7632296979031
 20
14.87012900740107
 10
190.83880292107
 20
14.88290227165994
 10
190.9828357056
 20
14.87629729457379
 10
191.1569419185427
 20
14.87888462206464
 10
191.3639599611003
 20
14.87800591955551
 10
191.5894688172378
 20
14.87828207920026
 10
191.8251162293406
 20
14.8781833965866
 10
192.0607640531348
 20
14.87828184412765
 10
192.2862717580626
 20
14.87800678190787
 10
192.4932934632805
 20
14.87888186270733
 10
192.6673888915288
 20
14.87630522678445
 10
192.8114492071986
 20
14.88288290449211
 10
192.8869691915293
 20
14.87016243405602
 10
192.954577603703
 20
14.88726400191684
 10
192.9430840140676
 20
14.83674785802938
 10
192.9505104581733
 20
14.792532522265
 10
192.9428838927986
 20
14.74867966503608
 10
192.9546489459424
 20
14.69878374479326
 10
192.8930788491983
 20
14.71393227712511
 10
192.8256791738672
 20
14.70310665350672
 10
192.7013004056221
 20
14.70852031626235
 10
192.555442823657
 20
14.70649205390784
 10
192.3893576440085
 20
14.70715777578385
 10
192.2188412621724
 20
14.70689643521241
 10
192.0519790855388
 20
14.70721553391093
 10
191.9087346827105
 20
14.70635302590761
 10
191.7773313869834
 20
14.70863300482987
 10
191.7239859134656
 20
14.704077043742
 10
191.6485188456912
 20
14.70999914992877
 10
191.6769075779232
 20
14.70094169343351
 10
191.7033652409542
 20
14.69725912268927
 10
191.6633522907701
 20
14.66654271968273
 10
191.5713663691867
 20
14.67667591174633
 10
191.543939620707
 20
14.43032502247783
 10
191.4478793967234
 20
14.27499558764374
 10
191.1917277964474
 20
13.94525417931567
 10
191.7627537732762
 20
14.08430022210451
 10
192.0173656320516
 20
14.08291779973362
 10
192.6279647048617
 20
13.99790569242084
 10
192.3340698578083
 20
14.29685417558204
 10
192.0133304286517
 20
14.44330856901774
 10
192.1313543360433
 20
14.50025540818286
 10
192.1724716466261
 20
14.52420099873345
 10
192.2156812394411
 20
14.54599758811228
 10
192.3174574094448
 20
14.60928721253904
 10
192.4328867625247
 20
14.35147151408775
 10
192.6329591642278
 20
14.21616041113685
 10
192.7269077387227
 20
14.0379279513888
 10
192.9558829746393
 20
13.87997821027049
 10
192.8596031846708
 20
13.82915972576298
 10
192.8167959763779
 20
13.79881292523051
 10
192.7718243528778
 20
13.77466130281461
 10
192.7121720925213
 20
13.72552146747566
 10
192.6789731061325
 20
13.85997475673613
 10
192.5582013350795
 20
14.01594265286576
 10
192.1970976005979
 20
13.88569928059556
 10
191.838506195554
 20
13.90224694409481
 10
191.457092045008
 20
13.89331229351863
 10
191.1703455282891
 20
13.82882671672407
 10
190.8592055599714
 20
13.94230668192822
 10
190.8268737818788
 20
13.83122259927767
 10
190.7896178253318
 20
13.81196313850012
 10
190.7865737632753
 20
13.85874784087295
 10
190.7679892860608
 20
13.89806853919134
 10
190.7512436616777
 20
13.95765983478231
 10
190.7383730915753
 20
14.00201969871282
 10
190.7042327806429
 20
14.09106331120199
 10
190.9482714457754
 20
14.02181042943768
 10
191.1441394486671
 20
14.00030369057742
 10
191.2395426381277
 20
14.28226484478461
 10
191.2945135769596
 20
14.4436304542112
 10
191.5159619357155
 20
14.71391177589737
 10
191.3849239381215
 20
14.70548446853733
 10
191.3110026555853
 20
14.70779008496969
 10
191.1977459876243
 20
14.70671378321657
 10
191.0694251807484
 20
14.70707639076508
 10
190.9404252030415
 20
14.70697724466085
 10
190.8287840946291
 20
14.70699932712571
 10
190.7514663970027
 20
14.70699579189669
 10
190.713287653201
 20
14.7069959584508
 10
190.7027885008196
 20
14.70699600701771
 97
        1
330
B5
 75
     1
 76
     2
 52
45.0
 41
0.1
 77
     0
 78
     1
 53
45.0
 43
0.0
 44
0.0
 45
-0.282842712474619
 46
0.0
 79
     0
 98
        1
 10
0.0
 20
0.0
  0
HATCH
  5
D3
330
48
100
AcDbEntity
  8
1
  6
Continuous
 62
     2
100
AcDbHatch
 10
0.0
 20
0.0
 30
0.0
210
0.0
220
0.0
230
1.0
  2
CUSTOM5
 70
     0
 71
     1
 91
        1
 92
        1
 93
        1
 72
     4
 94
        3
 73
     0
 74
     0
 95
       35
 96
       31
 40
0.0
 40
0.0
 40
0.0
 40
0.0
 40
0.0335231036620645
 40
0.0713218571712064
 40
0.4278866681487015
 40
0.8116865841964002
 40
1.198190238000059
 40
1.561379546812689
 40
1.659983174622079
 40
1.759315573807195
 40
2.132719617231081
 40
2.525233363588828
 40
2.910815397779695
 40
3.265244364303284
 40
3.592606723582057
 40
3.964386154604002
 40
4.359942131737824
 40
4.758154118639284
 40
4.843846538699892
 40
4.936650065543216
 40
5.256616602537293
 40
5.58170740441603
 40
5.899719158308128
 40
6.198363494280696
 40
6.466301046615713
 40
6.493895311537063
 40
6.559697020196856
 40
6.63823454344246
 40
6.704036252154241
 40
6.731630508423047
 40
6.731630508423047
 40
6.731630508423047
 40
6.731630508423047
 10
191.9736010568669
 20
16.23463843719132
 10
191.9676006097788
 20
16.22480690542321
 10
191.9548344099157
 20
16.20388988579797
 10
191.7949362006553
 20
16.17127126532684
 10
192.2322025842337
 20
15.88206680336702
 10
192.4345394828261
 20
15.68041138358436
 10
192.6819564267973
 20
15.43749387603277
 10
193.1831513624605
 20
15.36047662757772
 10
193.012556219897
 20
15.21876939174656
 10
192.9383299463202
 20
15.01710366209105
 10
192.6131432248188
 20
15.36956287174726
 10
192.3277741670664
 20
15.5317521255956
 10
192.0337604077658
 20
15.73687130053047
 10
191.8084452691133
 20
16.21827488595452
 10
191.5993085055521
 20
15.75343046609223
 10
191.3207873674833
 20
15.54350952252909
 10
191.0371383177209
 20
15.37424456359986
 10
190.707863952783
 20
15.00142360907936
 10
190.6277012318224
 20
15.19708014459
 10
190.4759724909744
 20
15.32491104190594
 10
190.9083395826795
 20
15.40454031765933
 10
191.0962565329766
 20
15.60026634915472
 10
191.3468477420502
 20
15.81632996916752
 10
191.5714350470161
 20
15.9819099230006
 10
191.6259775409712
 20
16.26133964636826
 10
191.749466102901
 20
16.24737950408078
 10
191.806027334452
 20
16.24521268867646
 10
191.8761870984944
 20
16.24046859881359
 10
191.9333414022105
 20
16.23709429350539
 10
191.9644190320838
 20
16.23519854711117
 10
191.9736010568669
 20
16.23463843719132
 97
        1
330
B6
 75
     1
 76
     2
 52
45.0
 41
0.1
 77
     0
 78
     1
 53
45.0
 43
0.0
 44
0.0
 45
-0.282842712474619
 46
0.0
 79
     0
 98
        1
 10
0.0
 20
0.0
  0
HATCH
  5
D4
330
48
100
AcDbEntity
  8
1
  6
Continuous
 62
     2
100
AcDbHatch
 10
0.0
 20
0.0
 30
0.0
210
0.0
220
0.0
230
1.0
  2
CUSTOM6
 70
     0
 71
     1
 91
        1
 92
        1
 93
        1
 72
     4
 94
        3
 73
     0
 74
     0
 95
       15
 96
       11
 40
0.0
 40
0.0
 40
0.0
 40
0.0
 40
0.2785535985096532
 40
0.5215624748198807
 40
0.6076917376040443
 40
0.6938210001741165
 40
0.940501914645494
 40
1.221691403489126
 40
1.300471877081041
 40
1.379252341684806
 40
1.379252341684806
 40
1.379252341684806
 40
1.379252341684806
 10
189.5681493630999
 20
16.22930267330379
 10
189.6296017794178
 20
16.17691646592714
 10
189.7446649974113
 20
16.0788287679822
 10
190.0397348497244
 20
15.92889785897221
 10
189.9025147631856
 20
15.84343227515013
 10
189.8041227843778
 20
15.71085785201554
 10
189.7130033590651
 20
16.01616985781419
 10
189.3636839480654
 20
16.07967869465373
 10
189.5119258376571
 20
16.17896509880876
 10
189.5494081874236
 20
16.2125234840238
 10
189.5681493630999
 20
16.22930267330379
 97
        1
330
B7
 75
     1
 76
     2
 52
45.0
 41
0.1
 77
     0
 78
     1
 53
45.0
 43
0.0
 44
0.0
 45
-0.282842712474619
 46
0.0
 79
     0
 98
        1
 10
0.0
 20
0.0
  0
HATCH
  5
D5
330
48
100
AcDbEntity
  8
1
  6
Continuous
 62
     2
100
AcDbHatch
 10
0.0
 20
0.0
 30
0.0
210
0.0
220
0.0
230
1.0
  2
CUSTOM7
 70
     0
 71
     1
 91
        1
 92
        1
 93
        1
 72
     4
 94
        3
 73
     0
 74
     0
 95
       75
 96
       71
 40
0.0
 40
0.0
 40
0.0
 40
0.0
 40
0.0342546099129709
 40
0.1245622414432364
 40
0.2522385480897554
 40
0.3985991922940733
 40
0.544959836498091
 40
0.6726361431438923
 40
0.7629437746737049
 40
0.7971983935298079
 40
1.101723623449674
 40
1.408591244036678
 40
1.433332471690386
 40
1.487763172450181
 40
1.542193873082011
 40
1.566935100592559
 40
1.923523931821872
 40
2.271755704953728
 40
2.590579755100915
 40
2.858943305581173
 40
2.889120339309194
 40
2.918305855191135
 40
2.941366645531258
 40
2.99635776097315
 40
3.061992318140697
 40
3.116983433626892
 40
3.140044223997572
 40
3.411273122936462
 40
3.732441619741155
 40
3.761068217532854
 40
3.837787499630416
 40
3.948858699126057
 40
4.080541049104434
 40
4.219093782625817
 40
4.350776132722373
 40
4.461847332405707
 40
4.538566614678441
 40
4.567193212544687
 40
4.594907573998945
 40
4.666381453557484
 40
4.764111044011095
 40
4.870592538125898
 40
4.968322128642349
 40
5.039796008287034
 40
5.067510369784493
 40
5.094263603185707
 40
5.153120716668344
 40
5.21197783015079
 40
5.238731063551795
 40
5.272290535139033
 40
5.363380529444894
 40
5.497618415781572
 40
5.660621563453814
 40
5.838007341749515
 40
6.015393119910867
 40
6.178396267038492
 40
6.312634151842444
 40
6.403724143059433
 40
6.437283612672529
 40
6.464036846261145
 40
6.52289396000476
 40
6.581751071484028
 40
6.608504301590973
 40
6.63725394128112
 40
6.711397748902971
 40
6.812778057283584
 40
6.92323719924936
 40
7.024617507624004
 40
7.098761315207657
 40
7.127510946007607
 40
7.127510946007607
 40
7.127510946007607
 40
7.127510946007607
 10
188.4418622390564
 20
14.95849128473263
 10
188.4418622819707
 20
14.94707313408719
 10
188.4418624481128
 20
14.90555257842627
 10
188.4418593081787
 20
14.8214692200377
 10
188.4418788279801
 20
14.70004497322327
 10
188.4417912187737
 20
14.55980494047446
 10
188.442111623523
 20
14.42006556794574
 10
188.441160590974
 20
14.29745038894926
 10
188.4431978595968
 20
14.21587074438041
 10
188.4349433178744
 20
14.06271267077694
 10
188.7430797940901
 20
14.2256023605472
 10
189.0350645173738
 20
14.39482938688004
 10
189.0408354448707
 20
14.25973235781909
 10
189.0455471719891
 20
14.21617221160443
 10
189.0482535411918
 20
14.17211249350543
 10
189.0672545672959
 20
14.02272590363133
 10
188.6583942247302
 20
14.08681172241259
 10
188.3793710348832
 20
13.97296341411017
 10
188.1018081587166
 20
13.87364095811139
 10
187.8099837184399
 20
13.91630687596354
 10
187.7869144678658
 20
13.81321679744538
 10
187.7537474383333
 20
13.78691091244469
 10
187.7480653962739
 20
13.83455309036303
 10
187.7284214559043
 20
13.87180336115068
 10
187.7095089485623
 20
13.93007387847563
 10
187.6942849867707
 20
13.97385201007804
 10
187.6477246372935
 20
14.0875942104631
 10
187.989089731245
 20
14.05576301120046
 10
188.2679649367386
 20
14.02161435106474
 10
188.2617753034907
 20
14.1691397647965
 10
188.2630935452773
 20
14.24013150908831
 10
188.2624831689947
 20
14.34719767958659
 10
188.2625871570725
 20
14.47398529785997
 10
188.2629987964055
 20
14.60849243496048
 10
188.2613907841969
 20
14.73395549951183
 10
188.2659902567925
 20
14.84505246719116
 10
188.256418650221
 20
14.90761886800687
 10
188.2704001783691
 20
14.96595388295
 10
188.2147384386704
 20
14.95289710582237
 10
188.1575655197821
 20
14.96136307749497
 10
188.0616048925648
 20
14.95729976080635
 10
187.963376752282
 20
14.95970889852473
 10
187.8672582457561
 20
14.95551600613387
 10
187.8104648525811
 20
14.96429346441162
 10
187.7550356873384
 20
14.9509493685012
 10
187.7670679427917
 20
15.00036910959256
 10
187.7592003173937
 20
15.04393988030394
 10
187.7666295563828
 20
15.08830469118524
 10
187.7551930564143
 20
15.1390229776399
 10
187.8232102370133
 20
15.12162460757742
 10
187.8968496879747
 20
15.13417450237187
 10
188.0325064058211
 20
15.12799677011096
 10
188.1884909024525
 20
15.13029203093083
 10
188.3615926358143
 20
15.12940968262529
 10
188.5346942964181
 20
15.13029207142407
 10
188.6906789811216
 20
15.12799662955549
 10
188.8263351889797
 20
15.1341748626243
 10
188.8999756705652
 20
15.12162394218334
 10
188.9679914174724
 20
15.13902373012141
 10
188.9565590885922
 20
15.08830130414554
 10
188.9639539458297
 20
15.04397060811107
 10
188.956203991227
 20
15.00028307550195
 10
188.9681203741877
 20
14.95063590098476
 10
188.9108170223616
 20
14.96461411338424
 10
188.8520145789772
 20
14.95539755673253
 10
188.7525293633199
 20
14.95952268164928
 10
188.649428009835
 20
14.95822760025887
 10
188.5537846354573
 20
14.95854077077639
 10
188.4857467971617
 20
14.95848776697144
 10
188.4514462213443
 20
14.95849051871655
 10
188.4418622390564
 20
14.95849128473263
 97
        1
330
B8
 75
     1
 76
     2
 52
45.0
 41
0.1
 77
     0
 78
     1
 53
45.0
 43
0.0
 44
0.0
 45
-0.282842712474619
 46
0.0
 79
     0
 98
        1
 10
0.0
 20
0.0
  0
HATCH
  5
D6
330
48
100
AcDbEntity
  8
1
  6
Continuous
 62
     2
100
AcDbHatch
 10
0.0
 20
0.0
 30
0.0
210
0.0
220
0.0
230
1.0
  2
CUSTOM8
 70
     0
 71
     1
 91
        1
 92
        1
 93
        1
 72
     4
 94
        3
 73
     0
 74
     0
 95
       91
 96
       87
 40
0.0
 40
0.0
 40
0.0
 40
0.0
 40
0.0345987051695718
 40
0.1258134969461369
 40
0.2547723404888987
 40
0.4026032099154125
 40
0.5504340793416704
 40
0.679392922883608
 40
0.7706077146571035
 40
0.8052064287780925
 40
1.124852390615277
 40
1.427402236308871
 40
1.706356627453511
 40
1.955541417875194
 40
2.169485938566339
 40
2.344350786664807
 40
2.480568411561957
 40
2.590440557428979
 40
2.649189927151108
 40
2.74932064330631
 40
2.912632739880006
 40
3.147745656000206
 40
3.244827496385098
 40
3.338490056946689
 40
3.583815413207111
 40
3.761423943238469
 40
3.88695610436263
 40
3.985855451886836
 40
4.091766255337749
 40
4.250186473811914
 40
4.422734315084537
 40
4.62828568483863
 40
4.872093227758449
 40
5.152549652145558
 40
5.464967135837538
 40
5.803201477852457
 40
6.160362988813935
 40
6.19344944827599
 40
6.284170385501644
 40
6.419718138764514
 40
6.587285046385764
 40
6.774063446723678
 40
6.967245678113661
 40
7.154024078817647
 40
7.321590987026033
 40
7.457138740890391
 40
7.547859678556128
 40
7.580946138182687
 40
7.60853308471474
 40
7.669224367077716
 40
7.729915649429932
 40
7.757502595949983
 40
7.790278062553437
 40
7.880146277430935
 40
8.014419963180398
 40
8.180411842397898
 40
8.365434637679368
 40
8.556801071622669
 40
8.741823866830781
 40
8.907815745916292
 40
9.042089431507446
 40
9.131957646249571
 40
9.164733112797148
 40
9.415425063140075
 40
9.667986180958536
 40
9.694169807462675
 40
9.756607686047664
 40
9.831130315322556
 40
9.89356819390002
 40
9.919751820398837
 40
9.95096796469067
 40
9.996421631210781
 40
10.22087981037466
 40
10.44341866197555
 40
10.47847970788867
 40
10.57091337438768
 40
10.70159545461242
 40
10.85140174170373
 40
11.0012080288049
 40
11.13189010907395
 40
11.22432377583023
 40
11.25938480938969
 40
11.28697175596158
 40
11.34766303835932
 40
11.40835432042082
 40
11.43594125892117
 40
11.43594125892117
 40
11.43594125892117
 40
11.43594125892117
 10
190.0818114333289
 20
15.55242795125076
 10
190.0702785844941
 20
15.55242790287914
 10
190.0283409444998
 20
15.55242773704163
 10
189.9434129719026
 20
15.55243125800908
 10
189.8207688553128
 20
15.55240926435877
 10
189.6791206916993
 20
15.55250801177053
 10
189.537975369849
 20
15.5521468623242
 10
189.4141351317905
 20
15.55321883609088
 10
189.3317217825382
 20
15.55092249091268
 10
189.1727791229692
 20
15.56048569373418
 10
189.3503402353375
 20
15.19785394311369
 10
189.3379739205452
 20
14.95243127723113
 10
189.4064519473864
 20
14.66862501324834
 10
189.469302432097
 20
14.43250999939035
 10
189.5452253431728
 20
14.23326740396127
 10
189.6303189577016
 20
14.07745347451373
 10
189.7244607592935
 20
13.97657857781391
 10
189.8282648207728
 20
13.92465852638963
 10
189.9125872030773
 20
13.97606484379617
 10
189.9351322179452
 20
14.09144544037516
 10
189.974573097537
 20
14.21885149702379
 10
189.9202919734942
 20
14.53622328086753
 10
190.0451218072473
 20
14.38982180140904
 10
190.2019291513603
 20
14.35795300331169
 10
190.0947720007056
 20
14.12421357767626
 10
190.0808711209868
 20
13.95972776583656
 10
190.0234709467225
 20
13.83130869122479
 10
189.9335020145008
 20
13.76018802352826
 10
189.8095274657877
 20
13.74432324142252
 10
189.6634273196859
 20
13.7799379755417
 10
189.5243894320284
 20
13.90000570500277
 10
189.4102003962144
 20
14.07435682550318
 10
189.3146141301485
 20
14.2994660311124
 10
189.2318652572626
 20
14.56388246006441
 10
189.1807179256411
 20
14.88187933098541
 10
189.0770189207338
 20
15.15543728488911
 10
189.2042841208522
 20
15.56005818612866
 10
189.0357890623018
 20
15.55112367849677
 10
188.9511995787077
 20
15.55315961418362
 10
188.8189876387627
 20
15.55213937388405
 10
188.6560505094104
 20
15.55253230318428
 10
188.4733759170532
 20
15.55235696313367
 10
188.2847057373383
 20
15.55260105307467
 10
188.1014469020189
 20
15.55185657906235
 10
187.9404746832718
 20
15.55416360522424
 10
187.8029808335276
 20
15.54799804883661
 10
187.728959037231
 20
15.5603283845821
 10
187.6613215186856
 20
15.54329323723555
 10
187.673237371927
 20
15.59524438447527
 10
187.6655677285694
 20
15.64071424966527
 10
187.6732592225115
 20
15.68614453703704
 10
187.6613141797762
 20
15.73802395984568
 10
187.7283588305867
 20
15.72119143490262
 10
187.8017375665677
 20
15.73335409092669
 10
187.9379128305271
 20
15.72727231074956
 10
188.0973811801513
 20
15.72954834315056
 10
188.2789173085836
 20
15.7288123399896
 10
188.4658034862179
 20
15.72905954196131
 10
188.6468012316836
 20
15.72886400799251
 10
188.8080802578878
 20
15.72932234714837
 10
188.9393882124887
 20
15.72812673751204
 10
189.0225051322596
 20
15.73051347319741
 10
189.1556236547814
 20
15.72230605725462
 10
189.0645893502659
 20
15.97752868952654
 10
188.9789633074416
 20
16.24164358328242
 10
189.0990589003455
 20
16.22904442969164
 10
189.1514264948542
 20
16.22694235763072
 10
189.2214497569716
 20
16.22535399889655
 10
189.2671922337817
 20
16.2160256753811
 10
189.3220812646934
 20
16.22545966915425
 10
189.2963574785681
 20
16.17733028655171
 10
189.1825397571453
 20
16.18266829744165
 10
189.3159346621136
 20
15.95449174576775
 10
189.1943658735471
 20
15.7215685659592
 10
189.3223188769413
 20
15.73087258884437
 10
189.4049048406461
 20
15.72801001754678
 10
189.5307214850824
 20
15.729234374123
 10
189.6741469838057
 20
15.72932431888962
 10
189.8157420951728
 20
15.72746163183851
 10
189.9459127249967
 20
15.73333075937161
 10
190.0193452286191
 20
15.72070340823201
 10
190.0891112922096
 20
15.7387756311041
 10
190.0775772605396
 20
15.68612850546324
 10
190.0833184346682
 20
15.64221317686545
 10
190.0816615770912
 20
15.59089982676548
 10
190.0817757561669
 20
15.56158792021633
 10
190.0818114333289
 20
15.55242795125076
 97
        1
330
B9
 75
     1
 76
     2
 52
45.0
 41
0.1
 77
     0
 78
     1
 53
45.0
 43
0.0
 44
0.0
 45
-0.282842712474619
 46
0.0
 79
     0
 98
        1
 10
0.0
 20
0.0
  0
HATCH
  5
D7
330
48
100
AcDbEntity
  8
1
  6
Continuous
 62
     2
100
AcDbHatch
 10
0.0
 20
0.0
 30
0.0
210
0.0
220
0.0
230
1.0
  2
CUSTOM9
 70
     0
 71
     1
 91
        1
 92
        1
 93
        1
 72
     4
 94
        3
 73
     0
 74
     0
 95
      118
 96
      114
 40
0.0
 40
0.0
 40
0.0
 40
0.0
 40
0.1054708162973237
 40
0.2466098270051737
 40
0.3965912874591089
 40
0.5285525069753846
 40
0.6156245055642261
 40
0.6431434105797573
 40
0.7036850037986432
 40
0.7642265984504998
 40
0.7917455052355484
 40
0.9287404319990332
 40
1.106572819088057
 40
1.28754487968106
 40
1.317578308030577
 40
1.399928030857214
 40
1.522968204799988
 40
1.67507298659061
 40
1.84461653318069
 40
2.019973001638751
 40
2.189516548880063
 40
2.341621331585404
 40
2.46466150632054
 40
2.547011229647103
 40
2.577044658168067
 40
2.603797890893138
 40
2.66265500290891
 40
2.721512114949751
 40
2.74826534770293
 40
2.774215307345005
 40
2.845959313407335
 40
2.954338556588536
 40
3.090194227585711
 40
3.244367517100673
 40
3.407699615844433
 40
3.571031714539578
 40
3.725205003920256
 40
3.861060674729756
 40
3.969439917716447
 40
4.041183923629121
 40
4.067133883213113
 40
4.311886746012283
 40
4.547897258335627
 40
4.764747083044066
 40
4.952749679951869
 40
5.045772974195994
 40
5.137862019645079
 40
5.330543169793132
 40
5.553448265244127
 40
5.795083855888287
 40
6.043293412177351
 40
6.285761695541296
 40
6.31390290875278
 40
6.38425594179337
 40
6.475714884766958
 40
6.567173827759021
 40
6.637526860839799
 40
6.665668074074162
 40
6.692018920328133
 40
6.749990782071201
 40
6.807962643790567
 40
6.834313490018038
 40
6.856393084245289
 40
6.913335195649941
 40
6.991194817302576
 40
7.07602694228378
 40
7.153886563725299
 40
7.210828674844825
 40
7.23290826893116
 40
7.258199334923681
 40
7.324875781592331
 40
7.419142481924988
 40
7.527204308841927
 40
7.635266135230507
 40
7.72953283416849
 40
7.796209279292812
 40
7.821500344594758
 40
7.844652988850857
 40
7.899863140541664
 40
7.965759128053831
 40
8.020969279771172
 40
8.044121924046639
 40
8.069356610160726
 40
8.1091343954415
 40
8.132238100191211
 40
8.193147867786577
 40
8.279261678876749
 40
8.377977512673962
 40
8.476693347146744
 40
8.562807160411797
 40
8.623716930826584
 40
8.646820636853537
 40
8.67198879377435
 40
8.734909185828261
 40
8.816705695188976
 40
8.898502204815546
 40
8.961422597378007
 40
8.98659075455112
 40
9.012941600733274
 40
9.070913462380355
 40
9.128885324081846
 40
9.155236170325166
 40
9.180404327929208
 40
9.243324721948282
 40
9.325121234212075
 40
9.40691774663773
 40
9.469838141978185
 40
9.49500628827096
 40
9.5178111843791
 40
9.572192090487102
 40
9.63709833328133
 40
9.69147923951553
 40
9.71428412564357
 40
9.71428412564357
 40
9.71428412564357
 40
9.71428412564357
 10
185.2874469028653
 20
15.26889163187718
 10
185.3090990569037
 20
15.2411186924281
 10
185.3597257109473
 20
15.17618054561233
 10
185.4349383202591
 20
15.06891060312897
 10
185.5248482274346
 20
14.95377438266624
 10
185.5709169676673
 20
14.85357045748317
 10
185.6655825294654
 20
14.78434006814941
 10
185.6204439320413
 20
14.73771639678271
 10
185.5947047785789
 20
14.69660308866037
 10
185.5645196708012
 20
14.66065971727937
 10
185.519368473056
 20
14.58579782596093
 10
185.4710504458562
 20
14.80782524253601
 10
185.3968539713073
 20
14.8451067733771
 10
185.2836047324607
 20
15.11610202130599
 10
185.2885133578169
 20
15.00095328446228
 10
185.2868486556306
 20
14.92836675781627
 10
185.2876830076713
 20
14.80625588483985
 10
185.2873609540264
 20
14.65913800810459
 10
185.2875076912455
 20
14.49307063956556
 10
185.2872950092722
 20
14.32187554608601
 10
185.2879497252034
 20
14.15552828635497
 10
185.2859192461139
 20
14.00935173055692
 10
185.291346039993
 20
13.88471047474609
 10
185.2804930868708
 20
13.81718656540625
 10
185.2956739155555
 20
13.75549061417021
 10
185.2457895108133
 20
13.76727503897002
 10
185.2017150342521
 20
13.75943822779967
 10
185.15823716302
 20
13.76760441372702
 10
185.1092346786487
 20
13.75538056738467
 10
185.1218731234823
 20
13.80960667249312
 10
185.1130182968449
 20
13.86936918907557
 10
185.1175058770312
 20
13.97922029044369
 10
185.115796013599
 20
14.11029975405677
 10
185.1163550915985
 20
14.26198011444326
 10
185.1161928768693
 20
14.42211074929951
 10
185.1162269924674
 20
14.58236865674565
 10
185.1162514960125
 20
14.73370247520438
 10
185.1161453543224
 20
14.86582156338599
 10
185.116429914193
 20
14.97294802533191
 10
185.1158675547567
 20
15.03808619579472
 10
185.1180765083687
 20
15.16618957858671
 10
185.0319435998602
 20
14.79097610391574
 10
184.9555140818499
 20
14.63918193123392
 10
184.8660040767834
 20
14.47766206446304
 10
184.7640413217327
 20
14.2047184882017
 10
184.7187976491038
 20
14.36717346596508
 10
184.6102355941671
 20
14.45605432058118
 10
184.7995791751753
 20
14.60549794961408
 10
184.85653405457
 20
14.79749136974924
 10
184.9717520993352
 20
15.02899622906756
 10
184.9940151630132
 20
15.21797259759062
 10
185.177190515214
 20
15.49454089325929
 10
185.0538033597552
 20
15.48698978832093
 10
184.9925684166834
 20
15.48856772366118
 10
184.9081999617064
 20
15.48882592573671
 10
184.8204235085966
 20
15.48544845751205
 10
184.7656768696122
 20
15.49394814982019
 10
184.7104703026024
 20
15.48048561049787
 10
184.7222823035537
 20
15.52931442126762
 10
184.7142496151793
 20
15.57269004896707
 10
184.7228186104679
 20
15.61509438309571
 10
184.7102943409156
 20
15.66267796552115
 10
184.7555101538736
 20
15.65267212995107
 10
184.8014815562723
 20
15.65894105174059
 10
184.877722204771
 20
15.65593561405871
 10
184.9561296131993
 20
15.65770448278539
 10
185.0323992648932
 20
15.65464793981658
 10
185.0783009459473
 20
15.66103971376175
 10
185.1231733965399
 20
15.65093822978894
 10
185.1105552275633
 20
15.70157201581897
 10
185.1191936582705
 20
15.75501261882068
 10
185.1152361595441
 20
15.84863255131678
 10
185.1162325068334
 20
15.95112606688922
 10
185.1171927413072
 20
16.05353270248161
 10
185.1133211458005
 20
16.14735929609319
 10
185.1217789814363
 20
16.20036542840351
 10
185.1093075932834
 20
16.25211435651186
 10
185.1542106389849
 20
16.23850747226755
 10
185.1955083836771
 20
16.24100480320583
 10
185.259534428105
 20
16.23648060574485
 10
185.2986111148786
 20
16.22781003043306
 10
185.3476543498742
 20
16.23515102070684
 10
185.322508003059
 20
16.19602896051757
 10
185.2815901333723
 20
16.20563842455806
 10
185.2910109616604
 20
16.15540148169776
 10
185.2855647318746
 20
16.10385945639488
 10
185.2881699601803
 20
16.01959707584518
 10
185.2870102202153
 20
15.92559135583406
 10
185.2883591064231
 20
15.83196865395523
 10
185.2849970101509
 20
15.74679517552221
 10
185.2920959917769
 20
15.69716856072042
 10
185.2812569154545
 20
15.64993694969987
 10
185.3304010225245
 20
15.6620167493685
 10
185.3794877630147
 20
15.65447393363009
 10
185.4573714280641
 20
15.65686070361431
 10
185.5350365172896
 20
15.65899381905413
 10
185.5845393931354
 20
15.65193391922452
 10
185.6344594750639
 20
15.66360151936212
 10
185.622319851688
 20
15.61540235371391
 10
185.6305838229143
 20
15.57249219801234
 10
185.6223198650783
 20
15.52958201851383
 10
185.6344594549854
 20
15.48138288754863
 10
185.5845395158746
 20
15.49305034471509
 10
185.5350350651202
 20
15.48599202435044
 10
185.4573784382973
 20
15.48811665228602
 10
185.379464386576
 20
15.49053389365759
 10
185.3304500352716
 20
15.48291848194484
 10
185.2813246108943
 20
15.49507952557592
 10
185.2915559988571
 20
15.45073013424156
 10
185.2856677678053
 20
15.4092543620291
 10
185.2878788305568
 20
15.34915394315302
 10
185.2874109346146
 20
15.30225782762887
 10
185.2874386992913
 20
15.27650146418195
 10
185.2874469028653
 20
15.26889163187718
 97
        1
330
BA
 75
     1
 76
     2
 52
45.0
 41
0.1
 77
     0
 78
     1
 53
45.0
 43
0.0
 44
0.0
 45
-0.282842712474619
 46
0.0
 79
     0
 98
        1
 10
0.0
 20
0.0
  0
HATCH
  5
D8
330
48
100
AcDbEntity
  8
1
  6
Continuous
 62
     2
100
AcDbHatch
 10
0.0
 20
0.0
 30
0.0
210
0.0
220
0.0
230
1.0
  2
CUSTOM10
 70
     0
 71
     1
 91
        1
 92
        1
 93
        1
 72
     4
 94
        3
 73
     0
 74
     0
 95
       47
 96
       43
 40
0.0
 40
0.0
 40
0.0
 40
0.0
 40
0.2207912809957248
 40
0.4459404186303168
 40
0.4902387190459955
 40
0.5327473892722059
 40
0.5742260451226233
 40
0.6155432630561809
 40
0.6568164066316726
 40
0.698251161878165
 40
0.7407663929318155
 40
0.7851366743176226
 40
1.010288833836428
 40
1.231080507002284
 40
1.451765243652505
 40
1.676638205891789
 40
1.720461045359762
 40
1.830018144043625
 40
1.972442372353259
 40
2.11486660067763
 40
2.224423699395257
 40
2.268246538883498
 40
2.493628801207321
 40
2.71560283028672
 40
2.934211330706475
 40
3.149502369855469
 40
3.231387784851114
 40
3.318231873854149
 40
3.405143198198137
 40
3.486970301720659
 40
3.702258172494103
 40
3.920866283534334
 40
4.142839325932124
 40
4.368221903865577
 40
4.412044743360057
 40
4.521601842096074
 40
4.664026070452556
 40
4.80645029880927
 40
4.916007397546962
 40
4.959830237043286
 40
5.184703515847317
 40
5.405387250767685
 40
5.405387250767685
 40
5.405387250767685
 40
5.405387250767685
 10
182.6507427258645
 20
15.7340644095387
 10
182.6568139420002
 20
15.79758482501208
 10
182.6690762107243
 20
15.92587938689626
 10
182.5604706879411
 20
16.20166220174077
 10
182.6761985896603
 20
16.17188133432052
 10
182.7171842509015
 20
16.16765556262818
 10
182.7591205797517
 20
16.16310446389605
 10
182.800419662571
 20
16.16201982929483
 10
182.8417032115555
 20
16.16310338195225
 10
182.8836148270647
 20
16.16766112711343
 10
182.9245983549019
 20
16.17187430209726
 10
183.0404922843489
 20
16.20177611317535
 10
182.9295652727455
 20
15.92339806609886
 10
182.9574856365266
 20
15.74283140824952
 10
182.9404267346968
 20
15.50961042346469
 10
182.9414637282102
 20
15.34906622543145
 10
182.9414099399404
 20
15.22284817558721
 10
182.9414277372479
 20
15.12428963336239
 10
182.9414188581079
 20
14.99280702442961
 10
182.9414263928034
 20
14.86132844968648
 10
182.9414129405127
 20
14.76276222694088
 10
182.9414531717492
 20
14.63639735624151
 10
182.9406746403816
 20
14.47482068822869
 10
182.9565958319266
 20
14.24361821892913
 10
182.9333468885407
 20
14.05874351972001
 10
183.0360183444366
 20
13.78935602770055
 10
182.8820238362836
 20
13.82660112685815
 10
182.8004129802833
 20
13.82137994680534
 10
182.7188192292581
 20
13.82660620378348
 10
182.5648513666842
 20
13.78937069885384
 10
182.6674183421918
 20
14.05875129862878
 10
182.6442045316088
 20
14.24361585325414
 10
182.6600444655139
 20
14.47482218565637
 10
182.6593296313426
 20
14.63639712308501
 10
182.6593664569907
 20
14.76276231210519
 10
182.659354900027
 20
14.86132756635979
 10
182.6593575019214
 20
14.99281127417218
 10
182.6593648531779
 20
15.12427548031198
 10
182.659344254135
 20
15.22287786275325
 10
182.6594082192029
 20
15.34896149354426
 10
182.658173394759
 20
15.5121009138377
 10
182.6532040396744
 20
15.66054183777548
 10
182.6507427258645
 20
15.7340644095387
 97
        1
330
BB
 75
     1
 76
     2
 52
45.0
 41
0.1
 77
     0
 78
     1
 53
45.0
 43
0.0
 44
0.0
 45
-0.282842712474619
 46
0.0
 79
     0
 98
        1
 10
0.0
 20
0.0
  0
HATCH
  5
D9
330
48
100
AcDbEntity
  8
1
  6
Continuous
 62
     2
100
AcDbHatch
 10
0.0
 20
0.0
 30
0.0
210
0.0
220
0.0
230
1.0
  2
CUSTOM11
 70
     0
 71
     1
 91
        1
 92
        1
 93
        1
 72
     4
 94
        3
 73
     0
 74
     0
 95
      110
 96
      106
 40
0.0
 40
0.0
 40
0.0
 40
0.0
 40
0.2203406257277702
 40
0.4407808782838091
 40
0.5952494494615072
 40
0.7488431659393074
 40
0.9023581831309059
 40
1.056801968670404
 40
1.210736449099905
 40
1.363041386539783
 40
1.515315729683126
 40
1.669377239148077
 40
1.721611652756564
 40
1.773199502942944
 40
1.824933793210001
 40
1.877110426487978
 40
1.982682281206741
 40
2.07878166708755
 40
2.172809640822271
 40
2.271937807378925
 40
2.378349933379318
 40
2.494131557736507
 40
2.62668168394364
 40
2.783145050796068
 40
2.890701232940923
 40
2.993130312454817
 40
3.099869730691803
 40
3.220237816691299
 40
3.352695482737588
 40
3.481732806389839
 40
3.593499473690365
 40
3.674323013331886
 40
3.817951711952836
 40
3.946167120793833
 40
4.061405053453519
 40
4.166480796003159
 40
4.262478775059197
 40
4.350736673551153
 40
4.433071991254038
 40
4.511216293814639
 40
4.564262454117964
 40
4.618474415571575
 40
4.670128488754179
 40
4.722296879126368
 40
4.819540945314237
 40
4.931194984128093
 40
5.049996040257735
 40
5.168643755415281
 40
5.283970811762492
 40
5.392260784910317
 40
5.486512254876392
 40
5.559178233949791
 40
5.591425852853456
 40
5.626215969637846
 40
5.667155838674383
 40
5.717449290214188
 40
5.738402360944803
 40
5.784499116553772
 40
5.830595872164747
 40
5.851548942897606
 40
5.873019280661718
 40
5.92421777840826
 40
5.985325662817636
 40
6.036524160567647
 40
6.057994498334176
 40
6.236847789607428
 40
6.38140992894561
 40
6.493190424178631
 40
6.574067534230439
 40
6.691018086205533
 40
6.814881554220451
 40
6.944307823240403
 40
7.071266716066027
 40
7.193488604461872
 40
7.309042773128099
 40
7.414007203170724
 40
7.505140441886481
 40
7.531150360599647
 40
7.559221645322246
 40
7.587202218920905
 40
7.612569159499108
 40
7.662550809480988
 40
7.702878875764122
 40
7.857328205230965
 40
8.010799568088581
 40
8.165256399657531
 40
8.32223269871387
 40
8.479564855016557
 40
8.63521623029076
 40
8.790882550925678
 40
8.948305154947244
 40
9.16827183903293
 40
9.387358980987205
 40
9.608047961033447
 40
9.832914234792637
 40
9.858338694962972
 40
9.925366817229982
 40
10.02013071422756
 40
10.12876249858995
 40
10.23739428295245
 40
10.33215817995187
 40
10.3991863022239
 40
10.4246107623978
 40
10.64992019336939
 40
10.87188524531185
 40
10.87188524531185
 40
10.87188524531185
 40
10.87188524531185
 10
179.9057788376618
 20
15.73923260398189
 10
179.9092864933541
 20
15.80616462073802
 10
179.9163033987662
 20
15.94005891915857
 10
179.8198027599073
 20
16.22548554971469
 10
180.0510134726108
 20
16.16284386190281
 10
180.1919290057156
 20
16.17001554055989
 10
180.3490417757588
 20
16.16235883078243
 10
180.5025913427288
 20
16.16252752283039
 10
180.654510493508
 20
16.1618204053543
 10
180.8142214813231
 20
16.17210158351638
 10
180.9408972601118
 20
16.15496511080749
 10
181.1370821122081
 20
16.22727260107145
 10
181.1034395279078
 20
16.12640699080116
 10
181.1052011317184
 20
16.07619253947669
 10
181.1027342073458
 20
16.02712335586465
 10
181.1347076966011
 20
15.94063490846997
 10
181.0010399903256
 20
15.98997438608335
 10
180.9172208688056
 20
15.98430634314166
 10
180.8173861139324
 20
15.99465516706297
 10
180.7186576720145
 20
16.00086450411085
 10
180.6121532771111
 20
16.00697763816776
 10
180.491051169806
 20
16.01588883484585
 10
180.3703381502453
 20
16.00521605912382
 10
180.1812553843437
 20
16.06468503080365
 10
180.2129028505311
 20
15.90558320077538
 10
180.1995563316833
 20
15.80839128339902
 10
180.1974958426451
 20
15.69634065110101
 10
180.195818804467
 20
15.57699685629348
 10
180.1973336794233
 20
15.45032592155108
 10
180.195658247867
 20
15.32301588016115
 10
180.2058844271658
 20
15.22451566404462
 10
180.1779006596582
 20
15.08388702625628
 10
180.3508029999304
 20
15.13989551134093
 10
180.4645020202772
 20
15.12719951478496
 10
180.5840151672239
 20
15.13448377051252
 10
180.6888491425071
 20
15.13878017056754
 10
180.7843084898612
 20
15.14330568258976
 10
180.8763823507032
 20
15.15149201146199
 10
180.9476551782438
 20
15.1464385063811
 10
181.0544931705685
 20
15.18536425031671
 10
181.0226603598035
 20
15.10517122005878
 10
181.026616450393
 20
15.05562936846032
 10
181.0234502392013
 20
15.00557478039817
 10
181.0550791490585
 20
14.92128847612021
 10
180.9210133677691
 20
14.97425365495156
 10
180.8292322793199
 20
14.96540080890439
 10
180.7079729189603
 20
14.97570049965152
 10
180.5914113119771
 20
14.97748911767502
 10
180.4783375745878
 20
14.97787017109692
 10
180.3679246308471
 20
14.98415449472179
 10
180.289812406784
 20
14.97189133255362
 10
180.1913625833644
 20
15.00453887616124
 10
180.2012355173561
 20
14.94769748054204
 10
180.1973923244402
 20
14.91392130557982
 10
180.1966789884268
 20
14.87119604709409
 10
180.1963369642975
 20
14.83401607262152
 10
180.1963834255345
 20
14.79487237370769
 10
180.1963649429927
 20
14.75716849497684
 10
180.1963703431806
 20
14.71944955232401
 10
180.19636972142
 20
14.68994324745147
 10
180.1963698151546
 20
14.658735776993
 10
180.196370428792
 20
14.61414424908083
 10
180.1963671499337
 20
14.5596395650885
 10
180.1963759623481
 20
14.51505540201446
 10
180.1963359653415
 20
14.43117808585738
 10
180.1976024270255
 20
14.31737520677677
 10
180.1950274117841
 20
14.16830395933707
 10
180.2065009381719
 20
14.06597203813904
 10
180.1823506222264
 20
13.93338903885833
 10
180.3332993946476
 20
13.9789573227202
 10
180.4428436671556
 20
13.96427012162348
 10
180.573397047392
 20
13.96920435125061
 10
180.6990312209514
 20
13.9725770532336
 10
180.8188730625601
 20
13.97711497498772
 10
180.9391362611426
 20
13.99048536182003
 10
181.0222761663515
 20
13.98068712782594
 10
181.1456080421075
 20
14.04126214623318
 10
181.1244269203956
 20
13.98532460134019
 10
181.1235950270116
 20
13.95939249372345
 10
181.1218963707557
 20
13.93197256190937
 10
181.1217974888828
 20
13.89738195206383
 10
181.1203659301329
 20
13.86050408220766
 10
181.153280419219
 20
13.76846841021805
 10
180.9551306988107
 20
13.8413201597483
 10
180.830054829489
 20
13.81825726508605
 10
180.6673071295156
 20
13.82454021985784
 10
180.5129366450001
 20
13.82260943909925
 10
180.3566670436944
 20
13.82393762599266
 10
180.1970544465282
 20
13.82059872487861
 10
180.0540326342237
 20
13.83265795728239
 10
179.8197144881628
 20
13.76952001976917
 10
179.9173810751197
 20
14.05620527466317
 10
179.9006868780059
 20
14.2498830814266
 10
179.9146296709683
 20
14.47848242880293
 10
179.9142987846632
 20
14.63384593955046
 10
179.9143078119264
 20
14.73966336444124
 10
179.9143055876316
 20
14.80205784124212
 10
179.9143065551888
 20
14.89220425248325
 10
179.9143065473261
 20
14.99621167157436
 10
179.9143053861102
 20
15.10022131375294
 10
179.9143090971503
 20
15.19036243688765
 10
179.9143011051051
 20
15.25276803097213
 10
179.9143334275019
 20
15.35868835961117
 10
179.9131440788318
 20
15.51626716544738
 10
179.9082216489256
 20
15.66528219822064
 10
179.9057788376618
 20
15.73923260398189
 97
        1
330
BC
 75
     1
 76
     2
 52
45.0
 41
0.1
 77
     0
 78
     1
 53
45.0
 43
0.0
 44
0.0
 45
-0.282842712474619
 46
0.0
 79
     0
 98
        1
 10
0.0
 20
0.0
  0
HATCH
  5
DA
330
48
100
AcDbEntity
  8
1
  6
Continuous
 62
     2
100
AcDbHatch
 10
0.0
 20
0.0
 30
0.0
210
0.0
220
0.0
230
1.0
  2
CUSTOM12
 70
     0
 71
     1
 91
        1
 92
        1
 93
        1
 72
     4
 94
        3
 73
     0
 74
     0
 95
       95
 96
       91
 40
0.0
 40
0.0
 40
0.0
 40
0.0
 40
0.6550406656911508
 40
1.308087289031938
 40
1.420803739835812
 40
1.566130759770818
 40
1.757067341888476
 40
2.006513545026479
 40
2.087328263121574
 40
2.18532887229564
 40
2.294612454748384
 40
2.408936380534834
 40
2.526802767798576
 40
2.646360524615619
 40
2.762535723971595
 40
2.870057342870169
 40
2.966883448431663
 40
3.050803243518307
 40
3.11581822243662
 40
3.156030057150255
 40
3.213914225080156
 40
3.276689026450557
 40
3.342960320981334
 40
3.404230667150583
 40
3.45382280949339
 40
3.532499827188448
 40
3.634775188507181
 40
3.754909333008182
 40
3.889736761660676
 40
4.035769602175247
 40
4.18725668119763
 40
4.338733685675979
 40
4.488478734676137
 40
4.634708317831598
 40
4.771493189921294
 40
4.892686571561222
 40
5.199775528944467
 40
5.460353566929658
 40
5.667603142345533
 40
5.814722905404506
 40
5.828990806219804
 40
5.855488336304501
 40
5.869756237118833
 40
6.189796507762839
 40
6.531890469873026
 40
6.883053637017015
 40
7.230512024911484
 40
7.566966656764594
 40
7.885203559707426
 40
8.172887439719224
 40
8.41801159406278
 40
8.443926721190701
 40
8.51076047061319
 40
8.602145393795702
 40
8.701714041647145
 40
8.793098965075378
 40
8.859932715057951
 40
8.885847842603601
 40
9.24230125661281
 40
9.589275455016761
 40
9.921808543164168
 40
10.23479624298468
 40
10.29968150889179
 40
10.35323493887767
 40
10.40154625355152
 40
10.46482922477827
 40
10.55973900668408
 40
10.6923954598562
 40
10.84920353475674
 40
11.01626328594783
 40
11.18672024367446
 40
11.35372582577214
 40
11.5025744229243
 40
11.61866495023294
 40
11.71329869152878
 40
11.82511050573911
 40
11.94464880845719
 40
12.0692924264251
 40
12.19707290435179
 40
12.32562632860532
 40
12.45034565331283
 40
12.56646595170331
 40
12.67099007414639
 40
12.76077625936785
 40
12.82703233506698
 40
12.87429132785996
 40
12.89831990323335
 40
12.92234847860023
 40
13.53984767410323
 40
14.18294284359368
 40
14.18294284359368
 40
14.18294284359368
 40
14.18294284359368
 10
177.3067935648021
 20
14.70898038201723
 10
177.1752019758551
 20
14.8226505860323
 10
176.9124193802728
 20
15.04964496316156
 10
176.399739344102
 20
15.89214462956286
 10
176.4106654595363
 20
15.53423377577018
 10
176.4041226527991
 20
15.39267392272131
 10
176.4028026631773
 20
15.19421305299279
 10
176.4018117602538
 20
15.0215029604598
 10
176.4024101751974
 20
14.87865373257578
 10
176.4038994301882
 20
14.78265005413356
 10
176.4055683588472
 20
14.6754550326314
 10
176.4071934954619
 20
14.5616421151758
 10
176.4092429501685
 20
14.44441572604587
 10
176.4123165501927
 20
14.32656411232968
 10
176.4156339697042
 20
14.21228087320619
 10
176.419360534028
 20
14.10521401867275
 10
176.4217338161424
 20
14.0100740876692
 10
176.4278718888358
 20
13.92558557205694
 10
176.4239784495947
 20
13.86923087298141
 10
176.4455230443077
 20
13.79825022472354
 10
176.3680940058618
 20
13.82902677604482
 10
176.3116353240191
 20
13.82011242517612
 10
176.2540495896806
 20
13.82896218398273
 10
176.1690163478473
 20
13.79738225225944
 10
176.2009714146382
 20
13.88095155992188
 10
176.1990705282539
 20
13.94882608968308
 10
176.21079600473
 20
14.05233256764417
 10
176.2164241053
 20
14.17002125616694
 10
176.2237902178941
 20
14.30388609164422
 10
176.2320759701611
 20
14.4476415287263
 10
176.2398851897426
 20
14.59714022843444
 10
176.2457571222657
 20
14.74792549402076
 10
176.2503667817969
 20
14.89699943878437
 10
176.2542632117542
 20
15.04122913163021
 10
176.2570715126564
 20
15.17583905213016
 10
176.2576698755022
 20
15.36469614347353
 10
176.261602386715
 20
15.58975494313152
 10
176.2442175378499
 20
15.86367091125707
 10
176.2850417342582
 20
16.02787112098594
 10
176.1995153256004
 20
16.22749661465097
 10
176.2660558907687
 20
16.22385458403975
 10
176.283872427323
 20
16.22413447160852
 10
176.4056801797505
 20
16.22632927398612
 10
176.5080770335461
 20
15.94675118721511
 10
176.7580021509356
 20
15.74563008536001
 10
176.9870035331111
 20
15.47792614987915
 10
177.2245151213108
 20
15.22646413862374
 10
177.4486090740772
 20
14.98969974061358
 10
177.6750716283009
 20
14.73218692583077
 10
177.8325687886515
 20
14.6164933505692
 10
178.0472129612673
 20
14.2799715253879
 10
178.0422645974619
 20
14.40464754091602
 10
178.0433931602546
 20
14.46327691935735
 10
178.0428877841516
 20
14.55043662371975
 10
178.0430475158114
 20
14.64416143182871
 10
178.0430054891318
 20
14.73018971297033
 10
178.0430202040372
 20
14.79153891945495
 10
178.0429706255985
 20
14.9413523152099
 10
178.045881152281
 20
15.17989612510103
 10
178.0259521041162
 20
15.54486509868699
 10
178.0750433936246
 20
15.80799631993411
 10
177.9177951509181
 20
16.2192890494775
 10
178.0762112872421
 20
16.16398282551747
 10
178.1311680478629
 20
16.16199686500174
 10
178.182788776674
 20
16.16264778248251
 10
178.2713198965365
 20
16.20369527738244
 10
178.2204898303169
 20
16.05696326622985
 10
178.2313389930283
 20
15.95019971954432
 10
178.2166036994848
 20
15.79085705414111
 10
178.2099976446204
 20
15.62853061652872
 10
178.2014961399914
 20
15.45992521892394
 10
178.1943227202198
 20
15.29814814703539
 10
178.1889063215389
 20
15.15422331457931
 10
178.1871713967648
 20
15.03437493466923
 10
178.1875440672319
 20
14.92686101590514
 10
178.1873656126263
 20
14.81820024645584
 10
178.187701086314
 20
14.69953570165529
 10
178.1890040622184
 20
14.5755516351274
 10
178.1908887351574
 20
14.44858294171103
 10
178.192500445485
 20
14.3215386155103
 10
178.194140313743
 20
14.19854884492176
 10
178.1962570745751
 20
14.08300931383757
 10
178.1963848422364
 20
13.98090903955835
 10
178.2006514396554
 20
13.89009848838155
 10
178.1908440085289
 20
13.83213621208785
 10
178.2118474771689
 20
13.76517130132028
 10
178.1725639739897
 20
13.77291153966686
 10
177.9595307117748
 20
13.75755254145197
 10
177.7636297943186
 20
14.31403058094466
 10
177.4611197631544
 20
14.57556035348509
 10
177.3067935648021
 20
14.70898038201723
 97
        1
330
BD
 75
     1
 76
     2
 52
45.0
 41
0.1
 77
     0
 78
     1
 53
45.0
 43
0.0
 44
0.0
 45
-0.282842712474619
 46
0.0
 79
     0
 98
        1
 10
0.0
 20
0.0
  0
HATCH
  5
DB
330
48
100
AcDbEntity
  8
1
  6
Continuous
 62
     2
100
AcDbHatch
 10
0.0
 20
0.0
 30
0.0
210
0.0
220
0.0
230
1.0
  2
CUSTOM13
 70
     0
 71
     1
 91
        2
 92
        1
 93
        1
 72
     4
 94
        3
 73
     0
 74
     0
 95
       57
 96
       53
 40
0.0
 40
0.0
 40
0.0
 40
0.0
 40
0.0471632082809231
 40
0.091486105463215
 40
0.1357762519702386
 40
0.182652700161068
 40
0.2295203288572589
 40
0.2737751972220759
 40
0.3181310461543069
 40
0.3652607198398508
 40
0.4571007286314429
 40
0.5671851029165189
 40
0.6894623283868326
 40
0.8181758272545963
 40
0.9510087229273904
 40
1.085852229674046
 40
1.218126164475307
 40
1.343545131142383
 40
1.454537202956799
 40
1.567187607530808
 40
1.680710966642427
 40
1.794226869736791
 40
1.900009184247591
 40
2.004085860447871
 40
2.108162674451759
 40
2.214000150155303
 40
2.496038577352144
 40
2.762350745479288
 40
2.997275353279413
 40
3.185110082137733
 40
3.246407890063959
 40
3.31260755021269
 40
3.378877742711592
 40
3.440140399651447
 40
4.100501696006465
 40
4.754913085563522
 40
5.411331693423922
 40
6.077890432568702
 40
6.110575292670981
 40
6.143260152775761
 40
6.36798936339515
 40
6.610525374951542
 40
6.863389136467312
 40
7.119380025547597
 40
7.376036605091094
 40
7.631164770966293
 40
7.87672242545641
 40
8.104953735855952
 40
8.312916685924291
 40
8.497730294941302
 40
8.651018984313852
 40
8.764738853624578
 40
8.764738853624578
 40
8.764738853624578
 40
8.764738853624578
 10
174.7922649500513
 20
13.81626739612926
 10
174.7766616726931
 20
13.81826231079077
 10
174.7463947960302
 20
13.82213201360298
 10
174.7010994202252
 20
13.82341984967267
 10
174.6559553129349
 20
13.8230868355405
 10
174.6099017123399
 20
13.82314658674223
 10
174.5640496172097
 20
13.8232581365
 10
174.5183711648165
 20
13.82277833456589
 10
174.4750811541608
 20
13.8246110961872
 10
174.4039947951514
 20
13.80049556814656
 10
174.4057477261441
 20
13.92184693977249
 10
174.358619637057
 20
14.00726239751232
 10
174.3191478251762
 20
14.12486929345134
 10
174.2706635532645
 20
14.24232752540437
 10
174.2201017402522
 20
14.36405935761508
 10
174.1718634610477
 20
14.49075967862463
 10
174.1135232947594
 20
14.5993368778495
 10
174.0980892667262
 20
14.7562065713441
 10
173.9566586330636
 20
14.7237344654832
 10
173.8508397414903
 20
14.73512888682177
 10
173.7358569725222
 20
14.73392591514615
 10
173.6253142252141
 20
14.73506945347406
 10
173.5176583522783
 20
14.73418350037526
 10
173.4121322529243
 20
14.73416602390517
 10
173.3109192682012
 20
14.72714032472413
 10
173.1266804827753
 20
14.75135859859867
 10
173.1157393685411
 20
14.44741691121883
 10
173.008769163475
 20
14.22353177253395
 10
172.9098148604346
 20
14.03895314292495
 10
172.9225090524008
 20
13.79530204804206
 10
172.8050091716397
 20
13.82508046753196
 10
172.742205586831
 20
13.82258089509602
 10
172.67858720934
 20
13.82344075102804
 10
172.3946014194074
 20
13.78098039941945
 10
173.0251638499381
 20
14.50081952444785
 10
173.1087645289071
 20
15.01276539435728
 10
173.4929252789338
 20
15.53353743550042
 10
173.4777208288567
 20
16.23519626253211
 10
173.7239265722696
 20
16.22345633081255
 10
173.8256346157561
 20
16.23225004452771
 10
173.8249752035818
 20
15.98059650730345
 10
173.9428317155828
 20
15.79818020733957
 10
174.0315515260485
 20
15.55563740662864
 10
174.1322292485259
 20
15.32340030530125
 10
174.2311142712243
 20
15.08674644566911
 10
174.3299676990669
 20
14.85461739170092
 10
174.4256166390926
 20
14.63122222788786
 10
174.5159904573271
 20
14.42272549049316
 10
174.5989944568189
 20
14.23308448529318
 10
174.6726088582799
 20
14.06663106068098
 10
174.7342815895546
 20
13.92917699626096
 10
174.7749458885604
 20
13.84999239430032
 10
174.7922649500513
 20
13.81626739612926
 97
        1
330
BF
 92
       16
 93
        1
 72
     4
 94
        3
 73
     0
 74
     0
 95
       25
 96
       21
 40
0.0
 40
0.0
 40
0.0
 40
0.0
 40
0.0911479969064822
 40
0.1858117896204668
 40
0.280412839973449
 40
0.3715889190714509
 40
0.4679080494218706
 40
0.5642683809229229
 40
0.6605683222644989
 40
0.7569653015810255
 40
0.8561348172522738
 40
1.092615965104292
 40
1.374867658141876
 40
1.611348812011599
 40
1.710518328425249
 40
1.809403163726567
 40
2.045205463294071
 40
2.326646917622131
 40
2.562449217190592
 40
2.661334043833911
 40
2.661334043833911
 40
2.661334043833911
 40
2.661334043833911
 10
173.2683700567199
 20
14.88614538197291
 10
173.2987525917923
 20
14.88598079714553
 10
173.3606895889111
 20
14.8856452868992
 10
173.454135696033
 20
14.88269055451998
 10
173.5475095236357
 20
14.8797775287715
 10
173.6417760753476
 20
14.87894201643416
 10
173.7354964790967
 20
14.87996644658045
 10
173.8352040303204
 20
14.87916977470971
 10
173.9188949546312
 20
14.88921410235218
 10
174.0637996315045
 20
14.86234617674164
 10
173.9396132444801
 20
15.03665530280047
 10
173.8965867286282
 20
15.1965171100609
 10
173.7808922142209
 20
15.45518458550214
 10
173.7017565431257
 20
15.59231052861858
 10
173.6431576621816
 20
15.80937033134076
 10
173.5864803939438
 20
15.59266134213427
 10
173.5052809900476
 20
15.45327012438234
 10
173.4063701281489
 20
15.20406969370194
 10
173.3253625094258
 20
15.01925830226072
 10
173.2813683325838
 20
14.91650446856116
 10
173.2683700567199
 20
14.88614538197291
 97
        1
330
BE
 75
     1
 76
     2
 52
45.0
 41
0.1
 77
     0
 78
     1
 53
45.0
 43
0.0
 44
0.0
 45
-0.282842712474619
 46
0.0
 79
     0
 98
        1
 10
0.0
 20
0.0
  0
HATCH
  5
DC
330
48
100
AcDbEntity
  8
1
  6
Continuous
 62
     2
100
AcDbHatch
 10
0.0
 20
0.0
 30
0.0
210
0.0
220
0.0
230
1.0
  2
CUSTOM14
 70
     0
 71
     1
 91
        1
 92
        1
 93
        1
 72
     4
 94
        3
 73
     0
 74
     0
 95
       99
 96
       95
 40
0.0
 40
0.0
 40
0.0
 40
0.0
 40
0.0796417172272562
 40
0.1621768542356107
 40
0.2486489160957713
 40
0.3404969668524671
 40
0.4381912511164694
 40
0.5434463660244996
 40
0.6518115192847311
 40
0.7530190937886874
 40
0.8492196919725161
 40
0.9419290312998191
 40
1.034249663570048
 40
1.129078600620194
 40
1.226697027573245
 40
1.327220425421712
 40
1.470572134938021
 40
1.595489863371217
 40
1.719934125348401
 40
1.85057662012742
 40
1.989059629987308
 40
2.134139054226928
 40
2.280698007207216
 40
2.42452973903948
 40
2.565929576985853
 40
2.70823926077354
 40
2.861717887443662
 40
3.04516854034737
 40
3.183798301138616
 40
3.314813961455459
 40
3.442083470447311
 40
3.569912708372976
 40
3.702177512509369
 40
3.842307559659533
 40
3.992872223245938
 40
4.156750662218327
 40
4.310981861107549
 40
4.445859909322594
 40
4.572393936131587
 40
4.701656719781981
 40
4.768279086008468
 40
4.835960697898411
 40
4.912788918729338
 40
5.006285208481544
 40
5.02690947875162
 40
5.047533749021185
 40
5.101808031471258
 40
5.162325165538537
 40
5.226919745995857
 40
5.29423180659673
 40
5.364544852554878
 40
5.438319055467923
 40
5.51787765132426
 40
5.607647714861572
 40
5.700449642544419
 40
5.78825114236415
 40
5.87271470603978
 40
5.955167292575298
 40
6.037192395190384
 40
6.12066918146911
 40
6.206848616686361
 40
6.296680855416772
 40
6.442558392872602
 40
6.56819037160829
 40
6.692904567360369
 40
6.824220446557149
 40
6.963121850329385
 40
7.107843738851169
 40
7.253431663907283
 40
7.395187468036703
 40
7.533140753237761
 40
7.670550457175253
 40
7.816236511769266
 40
7.987691657359225
 40
8.142277421969267
 40
8.293662615415034
 40
8.44296246087929
 40
8.591598316185335
 40
8.743678992361806
 40
8.903725323699195
 40
9.076307008890542
 40
9.265578604680595
 40
9.45920379536077
 40
9.617619810273554
 40
9.753609671361918
 40
9.874873300004085
 40
9.954520184977795
 40
10.02416413719247
 40
10.09769764405447
 40
10.18909955924973
 40
10.20974586420135
 40
10.2303921826338
 40
10.30057101881265
 40
10.37632012987545
 40
10.37632012987545
 40
10.37632012987545
 40
10.37632012987545
 10
170.1465954835851
 20
14.13795663215993
 10
170.1632217851219
 20
14.11720608845312
 10
170.1970784206578
 20
14.074951117119
 10
170.2599822541036
 20
14.0202981139207
 10
170.3332500940393
 20
13.97299025121049
 10
170.4175969238636
 20
13.93527231437934
 10
170.513224061546
 20
13.9104061973195
 10
170.6171853775346
 20
13.90309559345936
 10
170.7224020220405
 20
13.91142322794052
 10
170.8206626371334
 20
13.94149179651526
 10
170.9058986427548
 20
13.98848822971875
 10
170.9779220206102
 20
14.04952991250855
 10
171.0350917709096
 20
14.12412969578581
 10
171.076786874744
 20
14.21002464660172
 10
171.1026952846292
 20
14.30485850432209
 10
171.1118037332653
 20
14.41854979038366
 10
171.0986864796487
 20
14.54332587770777
 10
171.0325330334414
 20
14.66014719171891
 10
170.9369370919568
 20
14.74512539577371
 10
170.8249681022369
 20
14.8141668445916
 10
170.6993659583269
 20
14.87204142045888
 10
170.5656691620857
 20
14.92373723284339
 10
170.4313122818831
 20
14.9789909239718
 10
170.3051983986877
 20
15.04939770641647
 10
170.1926579987535
 20
15.13785540731248
 10
170.0969963064458
 20
15.2498106786847
 10
170.0334157151826
 20
15.39949910101381
 10
170.0200706505016
 20
15.5593279438514
 10
170.0320510987448
 20
15.71048405306843
 10
170.071229892884
 20
15.83809244591537
 10
170.1354987750911
 20
15.95080874030843
 10
170.223820499974
 20
16.04648609268685
 10
170.3338091207628
 20
16.12354214985751
 10
170.4632284401265
 20
16.18151396936275
 10
170.6111838967793
 20
16.21739177588821
 10
170.7682069455486
 20
16.22746719050562
 10
170.917494046643
 20
16.21863637762588
 10
171.059625361417
 20
16.19074899340351
 10
171.1595922609625
 20
16.13413314701136
 10
171.3125074736185
 20
16.08674602105506
 10
171.2455131717168
 20
16.00197553001183
 10
171.2296479120269
 20
15.93438901873483
 10
171.1978750531296
 20
15.86926092793188
 10
171.2150202209572
 20
15.76723453256951
 10
171.1666427208231
 20
15.774932116819
 10
171.1315789440766
 20
15.76806771724806
 10
171.1296697985718
 20
15.83263831158194
 10
171.0985692931988
 20
15.87825639621393
 10
171.0664551628455
 20
15.93561036628453
 10
171.0208038475168
 20
15.98540462692557
 10
170.9658508218386
 20
16.02994813718993
 10
170.9010841173008
 20
16.06763988836548
 10
170.8232377310596
 20
16.09283375791351
 10
170.7355160553352
 20
16.09931230998109
 10
170.6452903277807
 20
16.09235709285604
 10
170.5594594694064
 20
16.06909190460919
 10
170.4828343638596
 20
16.03131644107543
 10
170.4165265636201
 20
15.98051641089572
 10
170.3622560536964
 20
15.91731143407209
 10
170.3224925345459
 20
15.84276455710366
 10
170.2976775510587
 20
15.75917313997761
 10
170.289212426287
 20
15.65192948382283
 10
170.3019697987103
 20
15.52965457267557
 10
170.3681548409273
 20
15.41149724291209
 10
170.4640977399832
 20
15.32606325709526
 10
170.5757914963182
 20
15.2558336230672
 10
170.7010863668702
 20
15.19659162305302
 10
170.8349823941447
 20
15.14616708086131
 10
170.968993033315
 20
15.0932251698438
 10
171.0950885316915
 20
15.02750170625175
 10
171.2076216638417
 20
14.94480352537319
 10
171.3031370284232
 20
14.83996006310072
 10
171.3672706486962
 20
14.69937117251568
 10
171.3811103725279
 20
14.54065409451591
 10
171.367395471223
 20
14.38153155217873
 10
171.3244739153985
 20
14.23483828819209
 10
171.2545906329065
 20
14.1011979658714
 10
171.1574592213829
 20
13.9853238769929
 10
171.0347806023657
 20
13.89089981770087
 10
170.8874408413168
 20
13.82179270651979
 10
170.7177132497125
 20
13.77953210858852
 10
170.5317404979596
 20
13.76781736230406
 10
170.3528955926184
 20
13.77809486683436
 10
170.1881733753743
 20
13.8196657376915
 10
170.0834410841057
 20
13.8879764288394
 10
169.9350960790366
 20
13.93675219032104
 10
169.9980378194729
 20
14.0297659129084
 10
170.007227443006
 20
14.10296536248279
 10
170.0303711301232
 20
14.16936294501345
 10
170.0034588335316
 20
14.26974809527577
 10
170.0521338956339
 20
14.26234033517377
 10
170.0916530580696
 20
14.26894063620892
 10
170.0996204944702
 20
14.19078703218931
 10
170.1305436967922
 20
14.15600927375855
 10
170.1465954835851
 20
14.13795663215993
 97
        1
330
C0
 75
     1
 76
     2
 52
45.0
 41
0.1
 77
     0
 78
     1
 53
45.0
 43
0.0
 44
0.0
 45
-0.282842712474619
 46
0.0
 79
     0
 98
        1
 10
0.0
 20
0.0
  0
ENDBLK
  5
4A
330
48
100
AcDbEntity
  8
0
100
AcDbBlockEnd
  0
BLOCK
  5
4D
330
4B
100
AcDbEntity
  8
0
100
AcDbBlockBegin
  2
開示A4枠
 70
     0
 10
-0.00000000000006
 20
0.0
 30
0.0
  3
開示A4枠
  1

  0
INSERT
  5
4C
330
4B
100
AcDbEntity
  8
1
100
AcDbBlockReference
  2
開示A4
 10
0.0
 20
-0.00000000000003
 30
0.0
 41
2.0
 42
2.0
 43
2.0
  0
ENDBLK
  5
4E
330
4B
100
AcDbEntity
  8
0
100
AcDbBlockEnd
  0
BLOCK
  5
50
330
4F
100
AcDbEntity
  8
0
100
AcDbBlockBegin
  2
tote
 70
     0
 10
158.15
 20
253.3224847485706
 30
0.0
  3
tote
  1

  0
LINE
  5
DD
330
4F
100
AcDbEntity
  8
1
  6
Continuous
 62
     7
100
AcDbLine
 10
170.0109510941841
 20
446.6233204031664
 30
0.0
 11
279.9914753490067
 21
446.6233204031664
 31
0.0
  0
LINE
  5
DE
330
4F
100
AcDbEntity
  8
1
  6
Continuous
 62
     7
100
AcDbLine
 10
287.4999999999999
 20
241.3224847485706
 30
0.0
 11
287.4999999999999
 21
240.3224847485706
 31
0.0
  0
LINE
  5
DF
330
4F
100
AcDbEntity
  8
0
  6
Continuous
 62
     7
100
AcDbLine
 10
280.9999999999999
 20
239.3224847485706
 30
0.0
 11
286.4999999999999
 21
239.3224847485706
 31
0.0
  0
LINE
  5
E0
330
4F
100
AcDbEntity
  8
0
  6
Continuous
 62
     7
100
AcDbLine
 10
280.9999999999999
 20
241.3224847485706
 30
0.0
 11
287.4999999999999
 21
241.3224847485706
 31
0.0
  0
LINE
  5
E1
330
4F
100
AcDbEntity
  8
1
  6
Continuous
 62
     7
100
AcDbLine
 10
162.5
 20
240.3224847485706
 30
0.0
 11
162.5
 21
241.3224847485706
 31
0.0
  0
LINE
  5
E2
330
4F
100
AcDbEntity
  8
0
  6
Continuous
 62
     7
100
AcDbLine
 10
163.5
 20
239.3224847485706
 30
0.0
 11
169.0
 21
239.3224847485706
 31
0.0
  0
LINE
  5
E3
330
4F
100
AcDbEntity
  8
0
  6
Continuous
 62
     7
100
AcDbLine
 10
162.5
 20
241.3224847485706
 30
0.0
 11
169.0
 21
241.3224847485706
 31
0.0
  0
LINE
  5
E4
330
4F
100
AcDbEntity
  8
1
  6
Continuous
 62
     7
100
AcDbLine
 10
279.9914753490067
 20
444.6233204031663
 30
0.0
 11
170.0109510941841
 21
444.6233204031663
 31
0.0
  0
ARC
  5
E5
330
4F
100
AcDbEntity
  8
0
  6
Continuous
 62
     7
100
AcDbCircle
 10
225.0
 20
241.8224847485706
 30
0.0
 40
50.00000000000004
100
AcDbArc
 50
0.57296734485715
 51
90.0
  0
ARC
  5
E6
330
4F
100
AcDbEntity
  8
0
  6
Continuous
 62
     7
100
AcDbCircle
 10
225.0
 20
241.8224847485706
 30
0.0
 40
51.99999999999999
100
AcDbArc
 50
0.55889606281485
 51
90.0
  0
ARC
  5
E7
330
4F
100
AcDbEntity
  8
0
  6
Continuous
 62
     7
100
AcDbCircle
 10
225.0
 20
241.8224847485706
 30
0.0
 40
50.00000000000003
100
AcDbArc
 50
90.0
 51
179.4270326551429
  0
ARC
  5
E8
330
4F
100
AcDbEntity
  8
0
  6
Continuous
 62
     7
100
AcDbCircle
 10
225.0
 20
241.8224847485706
 30
0.0
 40
52.00000000000003
100
AcDbArc
 50
90.0
 51
179.4411039371851
  0
ARC
  5
E9
330
4F
100
AcDbEntity
  8
0
  6
Continuous
 62
     7
100
AcDbCircle
 10
286.4999999999999
 20
240.3224847485706
 30
0.0
 40
1.0
100
AcDbArc
 50
270.0
 51
0.0
  0
ARC
  5
EA
330
4F
100
AcDbEntity
  8
0
  6
Continuous
 62
     7
100
AcDbCircle
 10
163.5
 20
240.3224847485706
 30
0.0
 40
1.0
100
AcDbArc
 50
180.0
 51
270.0
  0
ENDBLK
  5
51
330
4F
100
AcDbEntity
  8
0
100
AcDbBlockEnd
  0
BLOCK
  5
53
330
52
100
AcDbEntity
  8
0
100
AcDbBlockBegin
  2
futi
 70
     0
 10
153.0
 20
248.3224847485706
 30
0.0
  3
futi
  1

  0
LINE
  5
EB
330
52
100
AcDbEntity
  8
1
  6
Continuous
 62
     7
100
AcDbLine
 10
153.25
 20
241.8224847485706
 30
0.0
 11
296.7499999999999
 21
241.8224847485706
 31
0.0
  0
LINE
  5
EC
330
52
100
AcDbEntity
  8
1
  6
Continuous
 62
     7
100
AcDbLine
 10
153.25
 20
242.3224847485706
 30
0.0
 11
296.7499999999999
 21
242.3224847485706
 31
0.0
  0
LINE
  5
ED
330
52
100
AcDbEntity
  8
0
  6
Continuous
 62
     7
100
AcDbLine
 10
296.7499999999999
 20
241.8224847485706
 30
0.0
 11
296.7499999999999
 21
242.3224847485706
 31
0.0
  0
LINE
  5
EE
330
52
100
AcDbEntity
  8
0
  6
Continuous
 62
     7
100
AcDbLine
 10
153.25
 20
242.3224847485706
 30
0.0
 11
153.25
 21
241.8224847485706
 31
0.0
  0
CIRCLE
  5
EF
330
52
100
AcDbEntity
  8
0
  6
Continuous
 62
     7
100
AcDbCircle
 10
225.0
 20
445.6233204031664
 30
0.0
 40
71.74999999999989
  0
CIRCLE
  5
F0
330
52
100
AcDbEntity
  8
0
  6
Continuous
 62
     7
100
AcDbCircle
 10
225.0
 20
445.6233204031664
 30
0.0
 40
55.0
  0
ENDBLK
  5
54
330
52
100
AcDbEntity
  8
0
100
AcDbBlockEnd
  0
BLOCK
  5
56
330
55
100
AcDbEntity
  8
0
100
AcDbBlockBegin
  2
ami
 70
     0
 10
163.15
 20
154.3224847485706
 30
0.0
  3
ami
  1

  0
LINE
  5
F1
330
55
100
AcDbEntity
  8
0
  6
Continuous
 62
     7
100
AcDbLine
 10
169.0000000000001
 20
236.8224847485706
 30
0.0
 11
280.9999999999999
 21
236.8224847485706
 31
0.0
  0
LINE
  5
F2
330
55
100
AcDbEntity
  8
0
  6
Continuous
 62
     7
100
AcDbLine
 10
169.0000000000001
 20
242.3224847485706
 30
0.0
 11
225.0
 21
242.3224847485706
 31
0.0
  0
LINE
  5
F3
330
55
100
AcDbEntity
  8
0
  6
Continuous
 62
     7
100
AcDbLine
 10
225.0
 20
242.3224847485706
 30
0.0
 11
280.9999999999999
 21
242.3224847485706
 31
0.0
  0
LINE
  5
F4
330
55
100
AcDbEntity
  8
0
  6
Continuous
 62
     7
100
AcDbLine
 10
168.9999999999999
 20
132.6513757590695
 30
0.0
 11
169.0000000000001
 21
132.6513757590678
 31
0.0
  0
LINE
  5
F5
330
55
100
AcDbEntity
  8
1
  6
Continuous
 62
     2
100
AcDbLine
 10
186.5081039699988
 20
467.7861897732488
 30
0.0
 11
206.5081039699988
 21
479.3331951570413
 31
0.0
  0
LINE
  5
F6
330
55
100
AcDbEntity
  8
1
  6
Continuous
 62
     2
100
AcDbLine
 10
186.5081039699988
 20
465.4767886964903
 30
0.0
 11
210.5081039699988
 21
479.3331951570413
 31
0.0
  0
LINE
  5
F7
330
55
100
AcDbEntity
  8
1
  6
Continuous
 62
     2
100
AcDbLine
 10
186.5081039699988
 20
463.1673876197318
 30
0.0
 11
212.5081039699988
 21
478.1784946186621
 31
0.0
  0
LINE
  5
F8
330
55
100
AcDbEntity
  8
1
  6
Continuous
 62
     2
100
AcDbLine
 10
186.5081039699988
 20
460.8579865429733
 30
0.0
 11
214.5081039699988
 21
477.0237940802828
 31
0.0
  0
LINE
  5
F9
330
55
100
AcDbEntity
  8
1
  6
Continuous
 62
     2
100
AcDbLine
 10
188.5081039699988
 20
459.703286004594
 30
0.0
 11
216.5081039699988
 21
475.8690935419035
 31
0.0
  0
LINE
  5
FA
330
55
100
AcDbEntity
  8
1
  6
Continuous
 62
     2
100
AcDbLine
 10
192.5081039699988
 20
459.703286004594
 30
0.0
 11
216.5081039699988
 21
473.559692465145
 31
0.0
  0
LINE
  5
FB
330
55
100
AcDbEntity
  8
1
  6
Continuous
 62
     2
100
AcDbLine
 10
196.5081039699988
 20
459.703286004594
 30
0.0
 11
216.5081039699988
 21
471.2502913883865
 31
0.0
  0
LINE
  5
FC
330
55
100
AcDbEntity
  8
1
  6
Continuous
 62
     2
100
AcDbLine
 10
200.5081039699988
 20
459.703286004594
 30
0.0
 11
216.5081039699988
 21
468.9408903116281
 31
0.0
  0
LINE
  5
FD
330
55
100
AcDbEntity
  8
1
  6
Continuous
 62
     2
100
AcDbLine
 10
204.5081039699988
 20
459.703286004594
 30
0.0
 11
216.5081039699988
 21
466.6314892348696
 31
0.0
  0
LINE
  5
FE
330
55
100
AcDbEntity
  8
1
  6
Continuous
 62
     2
100
AcDbLine
 10
208.5081039699988
 20
459.703286004594
 30
0.0
 11
210.5081039699988
 21
460.8579865429733
 31
0.0
  0
LINE
  5
FF
330
55
100
AcDbEntity
  8
1
  6
Continuous
 62
     2
100
AcDbLine
 10
202.5081039699988
 20
479.3331951570413
 30
0.0
 11
218.5081039699988
 21
470.0955908500073
 31
0.0
  0
LINE
  5
100
330
55
100
AcDbEntity
  8
1
  6
Continuous
 62
     2
100
AcDbLine
 10
200.5081039699988
 20
478.1784946186621
 30
0.0
 11
216.5081039699988
 21
468.9408903116281
 31
0.0
  0
LINE
  5
101
330
55
100
AcDbEntity
  8
1
  6
Continuous
 62
     2
100
AcDbLine
 10
198.5081039699988
 20
477.0237940802828
 30
0.0
 11
216.5081039699988
 21
466.6314892348696
 31
0.0
  0
LINE
  5
102
330
55
100
AcDbEntity
  8
1
  6
Continuous
 62
     2
100
AcDbLine
 10
196.5081039699988
 20
475.8690935419036
 30
0.0
 11
216.5081039699988
 21
464.3220881581111
 31
0.0
  0
LINE
  5
103
330
55
100
AcDbEntity
  8
1
  6
Continuous
 62
     2
100
AcDbLine
 10
194.5081039699988
 20
474.7143930035243
 30
0.0
 11
216.5081039699988
 21
462.0126870813525
 31
0.0
  0
LINE
  5
104
330
55
100
AcDbEntity
  8
1
  6
Continuous
 62
     2
100
AcDbLine
 10
192.5081039699988
 20
473.559692465145
 30
0.0
 11
214.5081039699988
 21
460.8579865429733
 31
0.0
  0
LINE
  5
105
330
55
100
AcDbEntity
  8
1
  6
Continuous
 62
     2
100
AcDbLine
 10
190.5081039699988
 20
472.4049919267658
 30
0.0
 11
210.5081039699988
 21
460.8579865429733
 31
0.0
  0
LINE
  5
106
330
55
100
AcDbEntity
  8
1
  6
Continuous
 62
     2
100
AcDbLine
 10
210.5081039699988
 20
460.8579865429733
 30
0.0
 11
216.5081039699988
 21
464.3220881581111
 31
0.0
  0
LINE
  5
107
330
55
100
AcDbEntity
  8
1
  6
Continuous
 62
     2
100
AcDbLine
 10
188.5081039699988
 20
471.2502913883865
 30
0.0
 11
208.5081039699988
 21
459.703286004594
 31
0.0
  0
LINE
  5
108
330
55
100
AcDbEntity
  8
1
  6
Continuous
 62
     2
100
AcDbLine
 10
186.5081039699988
 20
470.0955908500073
 30
0.0
 11
204.5081039699988
 21
459.703286004594
 31
0.0
  0
LINE
  5
109
330
55
100
AcDbEntity
  8
1
  6
Continuous
 62
     2
100
AcDbLine
 10
186.5081039699988
 20
467.7861897732488
 30
0.0
 11
200.5081039699988
 21
459.703286004594
 31
0.0
  0
LINE
  5
10A
330
55
100
AcDbEntity
  8
1
  6
Continuous
 62
     2
100
AcDbLine
 10
187.245527813643
 20
465.0510368418555
 30
0.0
 11
196.5081039699988
 21
459.703286004594
 31
0.0
  0
LINE
  5
10B
330
55
100
AcDbEntity
  8
1
  6
Continuous
 62
     2
100
AcDbLine
 10
186.5081039699988
 20
463.1673876197318
 30
0.0
 11
192.5081039699988
 21
459.703286004594
 31
0.0
  0
LINE
  5
10C
330
55
100
AcDbEntity
  8
1
  6
Continuous
 62
     2
100
AcDbLine
 10
244.0081039699988
 20
190.7861897732489
 30
0.0
 11
264.0081039699987
 21
202.3331951570414
 31
0.0
  0
LINE
  5
10D
330
55
100
AcDbEntity
  8
1
  6
Continuous
 62
     2
100
AcDbLine
 10
244.0081039699988
 20
188.4767886964904
 30
0.0
 11
268.0081039699987
 21
202.3331951570414
 31
0.0
  0
LINE
  5
10E
330
55
100
AcDbEntity
  8
1
  6
Continuous
 62
     2
100
AcDbLine
 10
244.0081039699988
 20
186.1673876197319
 30
0.0
 11
270.0081039699987
 21
201.1784946186621
 31
0.0
  0
LINE
  5
10F
330
55
100
AcDbEntity
  8
1
  6
Continuous
 62
     2
100
AcDbLine
 10
244.0081039699988
 20
183.8579865429733
 30
0.0
 11
272.0081039699987
 21
200.0237940802829
 31
0.0
  0
LINE
  5
110
330
55
100
AcDbEntity
  8
1
  6
Continuous
 62
     2
100
AcDbLine
 10
246.0081039699988
 20
182.7032860045941
 30
0.0
 11
274.0081039699987
 21
198.8690935419036
 31
0.0
  0
LINE
  5
111
330
55
100
AcDbEntity
  8
1
  6
Continuous
 62
     2
100
AcDbLine
 10
250.0081039699988
 20
182.7032860045941
 30
0.0
 11
274.0081039699987
 21
196.5596924651451
 31
0.0
  0
LINE
  5
112
330
55
100
AcDbEntity
  8
1
  6
Continuous
 62
     2
100
AcDbLine
 10
254.0081039699988
 20
182.7032860045941
 30
0.0
 11
274.0081039699987
 21
194.2502913883866
 31
0.0
  0
LINE
  5
113
330
55
100
AcDbEntity
  8
1
  6
Continuous
 62
     2
100
AcDbLine
 10
258.0081039699988
 20
182.7032860045941
 30
0.0
 11
274.0081039699987
 21
191.9408903116281
 31
0.0
  0
LINE
  5
114
330
55
100
AcDbEntity
  8
1
  6
Continuous
 62
     2
100
AcDbLine
 10
262.0081039699987
 20
182.7032860045941
 30
0.0
 11
274.0081039699987
 21
189.6314892348696
 31
0.0
  0
LINE
  5
115
330
55
100
AcDbEntity
  8
1
  6
Continuous
 62
     2
100
AcDbLine
 10
266.0081039699987
 20
182.7032860045941
 30
0.0
 11
268.0081039699987
 21
183.8579865429733
 31
0.0
  0
LINE
  5
116
330
55
100
AcDbEntity
  8
1
  6
Continuous
 62
     2
100
AcDbLine
 10
260.0081039699988
 20
202.3331951570414
 30
0.0
 11
276.0081039699987
 21
193.0955908500073
 31
0.0
  0
LINE
  5
117
330
55
100
AcDbEntity
  8
1
  6
Continuous
 62
     2
100
AcDbLine
 10
258.0081039699988
 20
201.1784946186621
 30
0.0
 11
274.0081039699987
 21
191.9408903116281
 31
0.0
  0
LINE
  5
118
330
55
100
AcDbEntity
  8
1
  6
Continuous
 62
     2
100
AcDbLine
 10
256.0081039699988
 20
200.0237940802829
 30
0.0
 11
274.0081039699987
 21
189.6314892348696
 31
0.0
  0
LINE
  5
119
330
55
100
AcDbEntity
  8
1
  6
Continuous
 62
     2
100
AcDbLine
 10
254.0081039699988
 20
198.8690935419036
 30
0.0
 11
274.0081039699987
 21
187.3220881581111
 31
0.0
  0
LINE
  5
11A
330
55
100
AcDbEntity
  8
1
  6
Continuous
 62
     2
100
AcDbLine
 10
252.0081039699988
 20
197.7143930035244
 30
0.0
 11
274.0081039699987
 21
185.0126870813526
 31
0.0
  0
LINE
  5
11B
330
55
100
AcDbEntity
  8
1
  6
Continuous
 62
     2
100
AcDbLine
 10
250.0081039699988
 20
196.5596924651451
 30
0.0
 11
272.0081039699987
 21
183.8579865429733
 31
0.0
  0
LINE
  5
11C
330
55
100
AcDbEntity
  8
1
  6
Continuous
 62
     2
100
AcDbLine
 10
248.0081039699988
 20
195.4049919267659
 30
0.0
 11
268.0081039699987
 21
183.8579865429733
 31
0.0
  0
LINE
  5
11D
330
55
100
AcDbEntity
  8
1
  6
Continuous
 62
     2
100
AcDbLine
 10
268.0081039699987
 20
183.8579865429733
 30
0.0
 11
274.0081039699987
 21
187.3220881581111
 31
0.0
  0
LINE
  5
11E
330
55
100
AcDbEntity
  8
1
  6
Continuous
 62
     2
100
AcDbLine
 10
246.0081039699988
 20
194.2502913883866
 30
0.0
 11
266.0081039699987
 21
182.7032860045941
 31
0.0
  0
LINE
  5
11F
330
55
100
AcDbEntity
  8
1
  6
Continuous
 62
     2
100
AcDbLine
 10
244.0081039699988
 20
193.0955908500073
 30
0.0
 11
262.0081039699987
 21
182.7032860045941
 31
0.0
  0
LINE
  5
120
330
55
100
AcDbEntity
  8
1
  6
Continuous
 62
     2
100
AcDbLine
 10
244.0081039699988
 20
190.7861897732489
 30
0.0
 11
258.0081039699988
 21
182.7032860045941
 31
0.0
  0
LINE
  5
121
330
55
100
AcDbEntity
  8
1
  6
Continuous
 62
     2
100
AcDbLine
 10
244.745527813643
 20
188.0510368418555
 30
0.0
 11
254.0081039699988
 21
182.7032860045941
 31
0.0
  0
LINE
  5
122
330
55
100
AcDbEntity
  8
1
  6
Continuous
 62
     2
100
AcDbLine
 10
244.0081039699988
 20
186.1673876197319
 30
0.0
 11
250.0081039699988
 21
182.7032860045941
 31
0.0
  0
LINE
  5
123
330
55
100
AcDbEntity
  8
0
  6
Continuous
 62
     7
100
AcDbLine
 10
280.9999999999999
 20
132.6513757590695
 30
0.0
 11
280.9999999999999
 21
231.8224847485706
 31
0.0
  0
LINE
  5
124
330
55
100
AcDbEntity
  8
0
  6
Continuous
 62
     7
100
AcDbLine
 10
280.9999999999999
 20
236.8224847485706
 30
0.0
 11
280.9999999999999
 21
242.3224847485706
 31
0.0
  0
LINE
  5
125
330
55
100
AcDbEntity
  8
0
  6
Continuous
 62
     7
100
AcDbLine
 10
169.0000000000001
 20
242.3224847485706
 30
0.0
 11
169.0000000000001
 21
236.8224847485706
 31
0.0
  0
LINE
  5
126
330
55
100
AcDbEntity
  8
0
  6
Continuous
 62
     7
100
AcDbLine
 10
169.0000000000001
 20
231.8224847485706
 30
0.0
 11
168.9999999999999
 21
132.6513757590695
 31
0.0
  0
LINE
  5
127
330
55
100
AcDbEntity
  8
0
  6
Continuous
 62
     7
100
AcDbLine
 10
169.0000000000001
 20
231.8224847485706
 30
0.0
 11
280.9999999999999
 21
231.8224847485706
 31
0.0
  0
LINE
  5
128
330
55
100
AcDbEntity
  8
1
  6
Continuous
 62
     2
100
AcDbLine
 10
233.0081039699988
 20
420.6314892348696
 30
0.0
 11
253.0081039699988
 21
432.1784946186621
 31
0.0
  0
LINE
  5
129
330
55
100
AcDbEntity
  8
1
  6
Continuous
 62
     2
100
AcDbLine
 10
233.0081039699988
 20
418.3220881581111
 30
0.0
 11
257.0081039699988
 21
432.1784946186621
 31
0.0
  0
LINE
  5
12A
330
55
100
AcDbEntity
  8
1
  6
Continuous
 62
     2
100
AcDbLine
 10
233.0081039699988
 20
416.0126870813525
 30
0.0
 11
259.0081039699988
 21
431.0237940802828
 31
0.0
  0
LINE
  5
12B
330
55
100
AcDbEntity
  8
1
  6
Continuous
 62
     2
100
AcDbLine
 10
233.0081039699988
 20
413.703286004594
 30
0.0
 11
261.0081039699988
 21
429.8690935419035
 31
0.0
  0
LINE
  5
12C
330
55
100
AcDbEntity
  8
1
  6
Continuous
 62
     2
100
AcDbLine
 10
235.0081039699988
 20
412.5485854662148
 30
0.0
 11
263.0081039699987
 21
428.7143930035243
 31
0.0
  0
LINE
  5
12D
330
55
100
AcDbEntity
  8
1
  6
Continuous
 62
     2
100
AcDbLine
 10
239.0081039699988
 20
412.5485854662148
 30
0.0
 11
263.0081039699987
 21
426.4049919267658
 31
0.0
  0
LINE
  5
12E
330
55
100
AcDbEntity
  8
1
  6
Continuous
 62
     2
100
AcDbLine
 10
243.0081039699988
 20
412.5485854662148
 30
0.0
 11
263.0081039699987
 21
424.0955908500073
 31
0.0
  0
LINE
  5
12F
330
55
100
AcDbEntity
  8
1
  6
Continuous
 62
     2
100
AcDbLine
 10
247.0081039699988
 20
412.5485854662148
 30
0.0
 11
263.0081039699987
 21
421.7861897732488
 31
0.0
  0
LINE
  5
130
330
55
100
AcDbEntity
  8
1
  6
Continuous
 62
     2
100
AcDbLine
 10
251.0081039699988
 20
412.5485854662148
 30
0.0
 11
263.0081039699987
 21
419.4767886964903
 31
0.0
  0
LINE
  5
131
330
55
100
AcDbEntity
  8
1
  6
Continuous
 62
     2
100
AcDbLine
 10
255.0081039699988
 20
412.5485854662148
 30
0.0
 11
257.0081039699988
 21
413.703286004594
 31
0.0
  0
LINE
  5
132
330
55
100
AcDbEntity
  8
1
  6
Continuous
 62
     2
100
AcDbLine
 10
249.0081039699988
 20
432.1784946186621
 30
0.0
 11
265.0081039699987
 21
422.9408903116281
 31
0.0
  0
LINE
  5
133
330
55
100
AcDbEntity
  8
1
  6
Continuous
 62
     2
100
AcDbLine
 10
247.0081039699988
 20
431.0237940802828
 30
0.0
 11
263.0081039699987
 21
421.7861897732488
 31
0.0
  0
LINE
  5
134
330
55
100
AcDbEntity
  8
1
  6
Continuous
 62
     2
100
AcDbLine
 10
245.0081039699988
 20
429.8690935419036
 30
0.0
 11
263.0081039699987
 21
419.4767886964903
 31
0.0
  0
LINE
  5
135
330
55
100
AcDbEntity
  8
1
  6
Continuous
 62
     2
100
AcDbLine
 10
243.0081039699988
 20
428.7143930035243
 30
0.0
 11
263.0081039699987
 21
417.1673876197318
 31
0.0
  0
LINE
  5
136
330
55
100
AcDbEntity
  8
1
  6
Continuous
 62
     2
100
AcDbLine
 10
241.0081039699988
 20
427.5596924651451
 30
0.0
 11
263.0081039699987
 21
414.8579865429733
 31
0.0
  0
LINE
  5
137
330
55
100
AcDbEntity
  8
1
  6
Continuous
 62
     2
100
AcDbLine
 10
239.0081039699988
 20
426.4049919267658
 30
0.0
 11
261.0081039699988
 21
413.703286004594
 31
0.0
  0
LINE
  5
138
330
55
100
AcDbEntity
  8
1
  6
Continuous
 62
     2
100
AcDbLine
 10
237.0081039699988
 20
425.2502913883865
 30
0.0
 11
257.0081039699988
 21
413.703286004594
 31
0.0
  0
LINE
  5
139
330
55
100
AcDbEntity
  8
1
  6
Continuous
 62
     2
100
AcDbLine
 10
257.0081039699988
 20
413.703286004594
 30
0.0
 11
263.0081039699987
 21
417.1673876197318
 31
0.0
  0
LINE
  5
13A
330
55
100
AcDbEntity
  8
1
  6
Continuous
 62
     2
100
AcDbLine
 10
235.0081039699988
 20
424.0955908500073
 30
0.0
 11
255.0081039699988
 21
412.5485854662148
 31
0.0
  0
LINE
  5
13B
330
55
100
AcDbEntity
  8
1
  6
Continuous
 62
     2
100
AcDbLine
 10
233.0081039699988
 20
422.9408903116281
 30
0.0
 11
251.0081039699988
 21
412.5485854662148
 31
0.0
  0
LINE
  5
13C
330
55
100
AcDbEntity
  8
1
  6
Continuous
 62
     2
100
AcDbLine
 10
233.0081039699988
 20
420.6314892348696
 30
0.0
 11
247.0081039699988
 21
412.5485854662148
 31
0.0
  0
LINE
  5
13D
330
55
100
AcDbEntity
  8
1
  6
Continuous
 62
     2
100
AcDbLine
 10
233.745527813643
 20
417.8963363034762
 30
0.0
 11
243.0081039699988
 21
412.5485854662148
 31
0.0
  0
LINE
  5
13E
330
55
100
AcDbEntity
  8
1
  6
Continuous
 62
     2
100
AcDbLine
 10
233.0081039699988
 20
416.0126870813525
 30
0.0
 11
239.0081039699988
 21
412.5485854662148
 31
0.0
  0
LINE
  5
13F
330
55
100
AcDbEntity
  8
1
  6
Continuous
 62
     2
100
AcDbLine
 10
178.5081039699988
 20
208.7861897732488
 30
0.0
 11
198.5081039699988
 21
220.3331951570413
 31
0.0
  0
LINE
  5
140
330
55
100
AcDbEntity
  8
1
  6
Continuous
 62
     2
100
AcDbLine
 10
178.5081039699988
 20
206.4767886964903
 30
0.0
 11
202.5081039699988
 21
220.3331951570413
 31
0.0
  0
LINE
  5
141
330
55
100
AcDbEntity
  8
1
  6
Continuous
 62
     2
100
AcDbLine
 10
178.5081039699988
 20
204.1673876197318
 30
0.0
 11
204.5081039699988
 21
219.1784946186621
 31
0.0
  0
LINE
  5
142
330
55
100
AcDbEntity
  8
1
  6
Continuous
 62
     2
100
AcDbLine
 10
178.5081039699988
 20
201.8579865429733
 30
0.0
 11
206.5081039699988
 21
218.0237940802828
 31
0.0
  0
LINE
  5
143
330
55
100
AcDbEntity
  8
1
  6
Continuous
 62
     2
100
AcDbLine
 10
180.5081039699988
 20
200.703286004594
 30
0.0
 11
208.5081039699988
 21
216.8690935419035
 31
0.0
  0
LINE
  5
144
330
55
100
AcDbEntity
  8
1
  6
Continuous
 62
     2
100
AcDbLine
 10
184.5081039699988
 20
200.703286004594
 30
0.0
 11
208.5081039699988
 21
214.559692465145
 31
0.0
  0
LINE
  5
145
330
55
100
AcDbEntity
  8
1
  6
Continuous
 62
     2
100
AcDbLine
 10
188.5081039699988
 20
200.703286004594
 30
0.0
 11
208.5081039699988
 21
212.2502913883865
 31
0.0
  0
LINE
  5
146
330
55
100
AcDbEntity
  8
1
  6
Continuous
 62
     2
100
AcDbLine
 10
192.5081039699988
 20
200.703286004594
 30
0.0
 11
208.5081039699988
 21
209.940890311628
 31
0.0
  0
LINE
  5
147
330
55
100
AcDbEntity
  8
1
  6
Continuous
 62
     2
100
AcDbLine
 10
196.5081039699988
 20
200.703286004594
 30
0.0
 11
208.5081039699988
 21
207.6314892348696
 31
0.0
  0
LINE
  5
148
330
55
100
AcDbEntity
  8
1
  6
Continuous
 62
     2
100
AcDbLine
 10
200.5081039699988
 20
200.703286004594
 30
0.0
 11
202.5081039699988
 21
201.8579865429733
 31
0.0
  0
LINE
  5
149
330
55
100
AcDbEntity
  8
1
  6
Continuous
 62
     2
100
AcDbLine
 10
194.5081039699988
 20
220.3331951570413
 30
0.0
 11
210.5081039699988
 21
211.0955908500073
 31
0.0
  0
LINE
  5
14A
330
55
100
AcDbEntity
  8
1
  6
Continuous
 62
     2
100
AcDbLine
 10
192.5081039699988
 20
219.1784946186621
 30
0.0
 11
208.5081039699988
 21
209.940890311628
 31
0.0
  0
LINE
  5
14B
330
55
100
AcDbEntity
  8
1
  6
Continuous
 62
     2
100
AcDbLine
 10
190.5081039699988
 20
218.0237940802828
 30
0.0
 11
208.5081039699988
 21
207.6314892348696
 31
0.0
  0
LINE
  5
14C
330
55
100
AcDbEntity
  8
1
  6
Continuous
 62
     2
100
AcDbLine
 10
188.5081039699988
 20
216.8690935419036
 30
0.0
 11
208.5081039699988
 21
205.3220881581111
 31
0.0
  0
LINE
  5
14D
330
55
100
AcDbEntity
  8
1
  6
Continuous
 62
     2
100
AcDbLine
 10
186.5081039699988
 20
215.7143930035243
 30
0.0
 11
208.5081039699988
 21
203.0126870813525
 31
0.0
  0
LINE
  5
14E
330
55
100
AcDbEntity
  8
1
  6
Continuous
 62
     2
100
AcDbLine
 10
184.5081039699988
 20
214.559692465145
 30
0.0
 11
206.5081039699988
 21
201.8579865429733
 31
0.0
  0
LINE
  5
14F
330
55
100
AcDbEntity
  8
1
  6
Continuous
 62
     2
100
AcDbLine
 10
182.5081039699988
 20
213.4049919267658
 30
0.0
 11
202.5081039699988
 21
201.8579865429733
 31
0.0
  0
LINE
  5
150
330
55
100
AcDbEntity
  8
1
  6
Continuous
 62
     2
100
AcDbLine
 10
202.5081039699988
 20
201.8579865429733
 30
0.0
 11
208.5081039699988
 21
205.3220881581111
 31
0.0
  0
LINE
  5
151
330
55
100
AcDbEntity
  8
1
  6
Continuous
 62
     2
100
AcDbLine
 10
180.5081039699988
 20
212.2502913883865
 30
0.0
 11
200.5081039699988
 21
200.703286004594
 31
0.0
  0
LINE
  5
152
330
55
100
AcDbEntity
  8
1
  6
Continuous
 62
     2
100
AcDbLine
 10
178.5081039699988
 20
211.0955908500073
 30
0.0
 11
196.5081039699988
 21
200.703286004594
 31
0.0
  0
LINE
  5
153
330
55
100
AcDbEntity
  8
1
  6
Continuous
 62
     2
100
AcDbLine
 10
178.5081039699988
 20
208.7861897732488
 30
0.0
 11
192.5081039699988
 21
200.703286004594
 31
0.0
  0
LINE
  5
154
330
55
100
AcDbEntity
  8
1
  6
Continuous
 62
     2
100
AcDbLine
 10
179.245527813643
 20
206.0510368418555
 30
0.0
 11
188.5081039699988
 21
200.703286004594
 31
0.0
  0
LINE
  5
155
330
55
100
AcDbEntity
  8
1
  6
Continuous
 62
     2
100
AcDbLine
 10
178.5081039699988
 20
204.1673876197318
 30
0.0
 11
184.5081039699988
 21
200.703286004594
 31
0.0
  0
ARC
  5
156
330
55
100
AcDbEntity
  8
0
  6
Continuous
 62
     7
100
AcDbCircle
 10
174.9616554356277
 20
133.328623473618
 30
0.0
 40
6.000000000000989
100
AcDbArc
 50
186.4810514622841
 51
228.6790816590631
  0
ARC
  5
157
330
55
100
AcDbEntity
  8
0
  6
Continuous
 62
     7
100
AcDbCircle
 10
275.0383445643722
 20
133.328623473618
 30
0.0
 40
6.000000000000849
100
AcDbArc
 50
311.3209183409358
 51
353.5189485377157
  0
ARC
  5
158
330
55
100
AcDbEntity
  8
0
  6
Continuous
 62
     7
100
AcDbCircle
 10
283.6249999999999
 20
234.3224847485706
 30
0.0
 40
3.625
100
AcDbArc
 50
136.3971810272964
 51
223.6028189727036
  0
ARC
  5
159
330
55
100
AcDbEntity
  8
0
  6
Continuous
 62
     7
100
AcDbCircle
 10
166.3750000000001
 20
234.3224847485706
 30
0.0
 40
3.625
100
AcDbArc
 50
316.3971810272964
 51
43.60281897270363
  0
ENDBLK
  5
57
330
55
100
AcDbEntity
  8
0
100
AcDbBlockEnd
  0
BLOCK
  5
59
330
58
100
AcDbEntity
  8
0
100
AcDbBlockBegin
  2
mezoko
 70
     0
 10
168.9999999999999
 20
122.3224847485706
 30
0.0
  3
mezoko
  1

  0
LINE
  5
15A
330
58
100
AcDbEntity
  8
0
  6
Continuous
 62
     7
100
AcDbLine
 10
170.9999999999999
 20
128.8224847485706
 30
0.0
 11
225.0
 21
128.8224847485706
 31
0.0
  0
LINE
  5
15B
330
58
100
AcDbEntity
  8
0
  6
Continuous
 62
     7
100
AcDbLine
 10
168.9999999999999
 20
122.3224847485706
 30
0.0
 11
171.4999999999999
 21
122.3224847485706
 31
0.0
  0
LINE
  5
15C
330
58
100
AcDbEntity
  8
0
  6
Continuous
 62
     7
100
AcDbLine
 10
171.4999999999999
 20
122.3224847485706
 30
0.0
 11
225.0
 21
122.3224847485706
 31
0.0
  0
LINE
  5
15D
330
58
100
AcDbEntity
  8
0
  6
Continuous
 62
     7
100
AcDbLine
 10
225.0
 20
128.8224847485706
 30
0.0
 11
278.9999999999999
 21
128.8224847485706
 31
0.0
  0
LINE
  5
15E
330
58
100
AcDbEntity
  8
0
  6
Continuous
 62
     7
100
AcDbLine
 10
278.4999999999999
 20
122.3224847485706
 30
0.0
 11
280.9999999999999
 21
122.3224847485706
 31
0.0
  0
LINE
  5
15F
330
58
100
AcDbEntity
  8
0
  6
Continuous
 62
     7
100
AcDbLine
 10
225.0
 20
122.3224847485706
 30
0.0
 11
278.4999999999999
 21
122.3224847485706
 31
0.0
  0
ARC
  5
160
330
58
100
AcDbEntity
  8
0
  6
Continuous
 62
     7
100
AcDbCircle
 10
180.5625
 20
122.3224847485706
 30
0.0
 40
11.56250000000009
100
AcDbArc
 50
145.7945420618956
 51
180.0
  0
ARC
  5
161
330
58
100
AcDbEntity
  8
0
  6
Continuous
 62
     7
100
AcDbCircle
 10
269.4374999999999
 20
122.3224847485706
 30
0.0
 40
11.5625
100
AcDbArc
 50
0.0
 51
34.20545793810469
  0
ENDBLK
  5
5A
330
58
100
AcDbEntity
  8
0
100
AcDbBlockEnd
  0
BLOCK
  5
17A
330
172
100
AcDbEntity
  8
0
100
AcDbBlockBegin
  2
*D7
 70
     1
 10
0.0
 20
0.0
 30
0.0
  3
*D7
  1

  0
LINE
  5
173
330
172
100
AcDbEntity
  8
0
  6
Continuous
 62
     2
100
AcDbLine
 10
280.9999999999999
 20
175.5965237507419
 30
0.0
 11
168.9999999999998
 21
175.5965237507419
 31
0.0
  0
LINE
  5
174
330
172
100
AcDbEntity
  8
0
  6
Continuous
 62
     2
100
AcDbLine
 10
312.0284328859599
 20
175.5965237507419
 30
0.0
 11
280.9999999999999
 21
175.5965237507419
 31
0.0
  0
LINE
  5
175
330
172
100
AcDbEntity
  8
0
  6
Continuous
 62
     2
100
AcDbLine
 10
168.9999999999998
 20
132.6513757590695
 30
0.0
 11
168.9999999999998
 21
177.5965237507419
 31
0.0
  0
LINE
  5
176
330
172
100
AcDbEntity
  8
0
  6
Continuous
 62
     2
100
AcDbLine
 10
280.9999999999999
 20
132.6513757590695
 30
0.0
 11
280.9999999999999
 21
177.5965237507419
 31
0.0
  0
SOLID
  5
177
330
172
100
AcDbEntity
  8
0
 62
     2
100
AcDbTrace
 10
273.9999999999999
 20
174.6749562676301
 30
0.0
 11
273.9999999999999
 21
176.5180912338537
 31
0.0
 12
280.9999999999999
 22
175.5965237507419
 32
0.0
 13
280.9999999999999
 23
175.5965237507419
 33
0.0
  0
SOLID
  5
178
330
172
100
AcDbEntity
  8
0
 62
     2
100
AcDbTrace
 10
175.9999999999998
 20
176.5180912338537
 30
0.0
 11
175.9999999999998
 21
174.6749562676301
 31
0.0
 12
168.9999999999998
 22
175.5965237507419
 32
0.0
 13
168.9999999999998
 23
175.5965237507419
 33
0.0
  0
MTEXT
  5
179
330
172
100
AcDbEntity
  8
0
 62
     7
100
AcDbMText
 10
293.6884328859767
 20
177.5965098365893
 30
0.0
 40
7.0
 41
0.0
 71
     7
 72
     1
  1
\C7;{\Fgdt;n}\C7;112
  7
CONVERTER_12
 11
0.9999999999970619
 21
2.424068405545306E-6
 31
0.0
 73
     1
 44
0.60024009603842
  0
ENDBLK
  5
17B
330
172
100
AcDbEntity
  8
0
100
AcDbBlockEnd
  0
BLOCK
  5
185
330
17E
100
AcDbEntity
  8
0
100
AcDbBlockBegin
  2
*D8
 70
     1
 10
0.0
 20
0.0
 30
0.0
  3
*D8
  1

  0
LINE
  5
17F
330
17E
100
AcDbEntity
  8
0
  6
Continuous
 62
     2
100
AcDbLine
 10
131.25
 20
122.3224847485706
 30
0.0
 11
131.25
 21
242.3224847485706
 31
0.0
  0
LINE
  5
180
330
17E
100
AcDbEntity
  8
0
  6
Continuous
 62
     2
100
AcDbLine
 10
153.25
 20
242.3224847485706
 30
0.0
 11
129.25
 21
242.3224847485706
 31
0.0
  0
LINE
  5
181
330
17E
100
AcDbEntity
  8
0
  6
Continuous
 62
     2
100
AcDbLine
 10
168.9999999999999
 20
122.3224847485706
 30
0.0
 11
129.25
 21
122.3224847485706
 31
0.0
  0
SOLID
  5
182
330
17E
100
AcDbEntity
  8
0
 62
     2
100
AcDbTrace
 10
130.3284325168882
 20
129.3224847485706
 30
0.0
 11
132.1715674831118
 21
129.3224847485706
 31
0.0
 12
131.25
 22
122.3224847485706
 32
0.0
 13
131.25
 23
122.3224847485706
 33
0.0
  0
SOLID
  5
183
330
17E
100
AcDbEntity
  8
0
 62
     2
100
AcDbTrace
 10
132.1715674831118
 20
235.3224847485706
 30
0.0
 11
130.3284325168882
 21
235.3224847485706
 31
0.0
 12
131.25
 22
242.3224847485706
 32
0.0
 13
131.25
 23
242.3224847485706
 33
0.0
  0
MTEXT
  5
184
330
17E
100
AcDbEntity
  8
0
 62
     7
100
AcDbMText
 10
129.25
 20
173.7787951602582
 30
0.0
 40
7.0
 41
0.0
 71
     7
 72
     1
  1
120
  7
CONVERTER_12
 11
0.0
 21
1.0
 31
0.0
 73
     1
 44
0.60024009603842
  0
ENDBLK
  5
186
330
17E
100
AcDbEntity
  8
0
100
AcDbBlockEnd
  0
BLOCK
  5
190
330
189
100
AcDbEntity
  8
0
100
AcDbBlockBegin
  2
*D9
 70
     1
 10
0.0
 20
0.0
 30
0.0
  3
*D9
  1

  0
LINE
  5
18A
330
189
100
AcDbEntity
  8
0
  6
Continuous
 62
     2
100
AcDbLine
 10
153.25
 20
315.8224847485706
 30
0.0
 11
296.75
 21
315.8224847485706
 31
0.0
  0
LINE
  5
18B
330
189
100
AcDbEntity
  8
0
  6
Continuous
 62
     2
100
AcDbLine
 10
296.75
 20
242.3224847485706
 30
0.0
 11
296.75
 21
317.8224847485706
 31
0.0
  0
LINE
  5
18C
330
189
100
AcDbEntity
  8
0
  6
Continuous
 62
     2
100
AcDbLine
 10
153.25
 20
242.3224847485706
 30
0.0
 11
153.25
 21
317.8224847485706
 31
0.0
  0
SOLID
  5
18D
330
189
100
AcDbEntity
  8
0
 62
     2
100
AcDbTrace
 10
160.25
 20
316.7440522316824
 30
0.0
 11
160.25
 21
314.9009172654589
 31
0.0
 12
153.25
 22
315.8224847485706
 32
0.0
 13
153.25
 23
315.8224847485706
 33
0.0
  0
SOLID
  5
18E
330
189
100
AcDbEntity
  8
0
 62
     2
100
AcDbTrace
 10
289.75
 20
314.9009172654589
 30
0.0
 11
289.75
 21
316.7440522316824
 31
0.0
 12
296.75
 22
315.8224847485706
 32
0.0
 13
296.75
 23
315.8224847485706
 33
0.0
  0
MTEXT
  5
18F
330
189
100
AcDbEntity
  8
0
 62
     7
100
AcDbMText
 10
216.1100000000169
 20
317.822470834418
 30
0.0
 40
7.0
 41
0.0
 71
     7
 72
     1
  1
\C7;{\Fgdt;n}\C7;144
  7
CONVERTER_12
 11
0.9999999999970619
 21
2.424068405545306E-6
 31
0.0
 73
     1
 44
0.60024009603842
  0
ENDBLK
  5
191
330
189
100
AcDbEntity
  8
0
100
AcDbBlockEnd
  0
BLOCK
  5
199
330
194
100
AcDbEntity
  8
0
100
AcDbBlockBegin
  2
*D10
 70
     1
 10
0.0
 20
0.0
 30
0.0
  3
*D10
  1

  0
LINE
  5
195
330
194
100
AcDbEntity
  8
0
  6
Continuous
 62
     2
100
AcDbLine
 10
163.5211561173667
 20
423.0268216731684
 30
0.0
 11
319.5567537124095
 21
480.3775778068059
 31
0.0
  0
SOLID
  5
196
330
194
100
AcDbEntity
  8
0
 62
     2
100
AcDbTrace
 10
282.87578812613
 20
467.8773635280738
 30
0.0
 11
283.5116415142749
 21
466.14738174421
 31
0.0
 12
276.6234566953409
 22
464.5974796420961
 32
0.0
 13
276.6234566953409
 23
464.5974796420961
 33
0.0
  0
SOLID
  5
197
330
194
100
AcDbEntity
  8
0
 62
     2
100
AcDbTrace
 10
167.1242118738699
 20
423.3692772782592
 30
0.0
 11
166.488358485725
 21
425.099259062123
 31
0.0
 12
173.376543304659
 22
426.6491611642368
 32
0.0
 13
173.376543304659
 23
426.6491611642368
 33
0.0
  0
MTEXT
  5
198
330
194
100
AcDbEntity
  8
0
 62
     7
100
AcDbMText
 10
301.652707998402
 20
475.9277747695098
 30
0.0
 40
7.0
 41
0.0
 71
     7
 72
     1
  1
\C7;{\Fgdt;n}\C7;110
  7
CONVERTER_12
 11
0.9386083035516533
 21
0.3449847134350848
 31
0.0
 73
     1
 44
0.60024009603842
  0
ENDBLK
  5
19A
330
194
100
AcDbEntity
  8
0
100
AcDbBlockEnd
  0
ENDSEC
  0
SECTION
  2
ENTITIES
  0
INSERT
  5
5B
330
1F
100
AcDbEntity
  8
0
100
AcDbBlockReference
  2
開示A4枠
 10
-0.00000000000006
 20
0.0
 30
0.0
  0
INSERT
  5
5C
330
1F
100
AcDbEntity
  8
1
100
AcDbBlockReference
  2
tote
 10
158.15
 20
253.3224847485706
 30
0.0
  0
INSERT
  5
5D
330
1F
100
AcDbEntity
  8
1
100
AcDbBlockReference
  2
futi
 10
153.0
 20
248.3224847485706
 30
0.0
  0
INSERT
  5
5E
330
1F
100
AcDbEntity
  8
1
100
AcDbBlockReference
  2
ami
 10
163.15
 20
154.3224847485706
 30
0.0
  0
INSERT
  5
5F
330
1F
100
AcDbEntity
  8
0
100
AcDbBlockReference
  2
mezoko
 10
168.9999999999999
 20
122.3224847485706
 30
0.0
  0
LINE
  5
162
330
1F
100
AcDbEntity
  8
1
  6
DASH_CENTER
 62
     2
100
AcDbLine
 10
146.8974117200036
 20
445.6233204031664
 30
0.0
 11
302.7499999999999
 21
445.6233204031664
 31
0.0
  0
LINE
  5
163
330
1F
100
AcDbEntity
  8
0
  6
DASH_CENTER
 62
     2
100
AcDbLine
 10
225.0
 20
367.8733204031664
 30
0.0
 11
225.0
 21
523.3733204031664
 31
0.0
  0
LINE
  5
164
330
1F
100
AcDbEntity
  8
1
  6
DASH_CENTER
 62
     2
100
AcDbLine
 10
225.0
 20
299.8224847485706
 30
0.0
 11
225.0
 21
116.3224847485705
 31
0.0
  0
MTEXT
  5
166
330
1F
100
AcDbEntity
  8
1
 62
     7
100
AcDbMText
 10
314.9999999999999
 20
24.99999999999997
 30
0.0
 40
5.0
 41
0.0
 71
     5
 72
     1
  1
6
  7
CONVERTER_12
 73
     1
 44
0.7202881152461
  0
MTEXT
  5
167
330
1F
100
AcDbEntity
  8
1
 62
     7
100
AcDbMText
 10
303.4999999999999
 20
24.99999999999997
 30
0.0
 40
5.0
 41
0.0
 71
     5
 72
     1
  1
04
  7
CONVERTER_12
 73
     1
 44
0.7202881152461
  0
MTEXT
  5
168
330
1F
100
AcDbEntity
  8
1
 62
     7
100
AcDbMText
 10
280.9999999999999
 20
24.99999999999997
 30
0.0
 40
5.0
 41
0.0
 71
     5
 72
     1
  1
6
  7
CONVERTER_12
 73
     1
 44
0.7202881152461
  0
MTEXT
  5
169
330
1F
100
AcDbEntity
  8
1
 62
     7
100
AcDbMText
 10
269.4999999999999
 20
24.99999999999997
 30
0.0
 40
5.0
 41
0.0
 71
     5
 72
     1
  1
04
  7
CONVERTER_12
 73
     1
 44
0.7202881152461
  0
MTEXT
  5
16A
330
1F
100
AcDbEntity
  8
1
 62
     7
100
AcDbMText
 10
246.9999999999999
 20
24.99999999999997
 30
0.0
 40
5.0
 41
0.0
 71
     5
 72
     1
  1
6
  7
CONVERTER_12
 73
     1
 44
0.7202881152461
  0
MTEXT
  5
16B
330
1F
100
AcDbEntity
  8
1
 62
     7
100
AcDbMText
 10
235.4999999999999
 20
24.99999999999997
 30
0.0
 40
5.0
 41
0.0
 71
     5
 72
     1
  1
04
  7
CONVERTER_12
 73
     1
 44
0.7202881152461
  0
MTEXT
  5
16C
330
1F
100
AcDbEntity
  8
1
 62
     7
100
AcDbMText
 10
201.4999999999999
 20
24.99999999999997
 30
0.0
 40
5.0
 41
0.0
 71
     5
 72
     1
  1
04
  7
CONVERTER_12
 73
     1
 44
0.7202881152461
  0
MTEXT
  5
16D
330
1F
100
AcDbEntity
  8
1
 62
     7
100
AcDbMText
 10
212.9999999999999
 20
24.99999999999997
 30
0.0
 40
5.0
 41
0.0
 71
     5
 72
     1
  1
6
  7
CONVERTER_12
 73
     1
 44
0.7202881152461
  0
MTEXT
  5
16E
330
1F
100
AcDbEntity
  8
1
 62
     7
100
AcDbMText
 10
170.4999999999999
 20
34.0
 30
0.0
 40
7.0
 41
0.0
 71
     5
 72
     1
  1
1
  7
CONVERTER_12
 73
     1
 44
0.7202881152461
  0
MTEXT
  5
16F
330
1F
100
AcDbEntity
  8
1
 62
     7
100
AcDbMText
 10
114.0
 20
45.5
 30
0.0
 40
7.0
 41
0.0
 71
     5
 72
     1
  1
流し排水栓カゴ
  7
CONVERTER_11
 73
     1
 44
0.54545454545455
  0
MTEXT
  5
170
330
1F
100
AcDbEntity
  8
1
 62
     7
100
AcDbMText
 10
114.0
 20
28.5
 30
0.0
 40
7.0
 41
0.0
 71
     5
 72
     1
  1
H6501AF-2-L
  7
CONVERTER_12
 73
     1
 44
0.7202881152461
  0
MTEXT
  5
171
330
1F
100
AcDbEntity
  8
1
 62
     7
100
AcDbMText
 10
187.4999999999999
 20
34.0
 30
0.0
 40
7.0
 41
0.0
 71
     5
 72
     1
  1
2
  7
CONVERTER_12
 73
     1
 44
0.7202881152461
  0
DIMENSION
  5
17D
330
1F
100
AcDbEntity
  8
0
100
AcDbDimension
  2
*D7
 10
280.9999999999999
 20
175.5965237507419
 30
0.0
 11
301.5284328859599
 21
181.0965237507419
 31
0.0
 70
    32
  1
<>
 71
     5
 42
-1.0
 53
0.00013888888889
  3
ME10_DIM_10
100
AcDbAlignedDimension
 13
168.9999999999999
 23
132.6513757590695
 33
0.0
 14
280.9999999999999
 24
132.6513757590695
 34
0.0
100
AcDbRotatedDimension
  0
DIMENSION
  5
188
330
1F
100
AcDbEntity
  8
0
100
AcDbDimension
  2
*D8
 10
131.25
 20
122.3224847485706
 30
0.0
 11
125.75
 21
181.1287951602582
 31
0.0
 70
    32
  1
<>
 71
     5
 42
-1.0
 53
90.0
  3
ME10_DIM_11
100
AcDbAlignedDimension
 13
153.25
 23
242.3224847485706
 33
0.0
 14
168.9999999999999
 24
122.3224847485706
 34
0.0
 50
90.0
100
AcDbRotatedDimension
  0
DIMENSION
  5
193
330
1F
100
AcDbEntity
  8
0
100
AcDbDimension
  2
*D9
 10
153.25
 20
315.8224847485706
 30
0.0
 11
225.0
 21
321.3224847485706
 31
0.0
 70
    32
  1
{\Fgdt;n}144
 71
     5
 42
-1.0
 53
0.00013888888889
  3
ME10_DIM_12
100
AcDbAlignedDimension
 13
296.7499999999999
 23
242.3224847485706
 33
0.0
 14
153.25
 24
242.3224847485706
 34
0.0
100
AcDbRotatedDimension
  0
INSERT
  5
19B
330
1F
100
AcDbEntity
  8
0
100
AcDbBlockReference
  2
*D10
 10
0.0
 20
0.0
 30
0.0
  0
ENDSEC
  0
SECTION
  2
OBJECTS
  0
DICTIONARY
  5
C
330
0
100
AcDbDictionary
281
     1
  3
ACAD_GROUP
350
D
  3
ACAD_LAYOUT
350
1A
  3
ACAD_MATERIAL
350
3B
  3
ACAD_MLEADERSTYLE
350
19E
  3
ACAD_MLINESTYLE
350
17
  3
ACAD_PLOTSETTINGS
350
19
  3
ACAD_PLOTSTYLENAME
350
E
  3
ACAD_VISUALSTYLE
350
2A
  3
AcDbVariableDictionary
350
19C
  0
DICTIONARY
  5
D
102
{ACAD_REACTORS
330
C
102
}
330
C
100
AcDbDictionary
281
     1
  0
DICTIONARY
  5
1A
102
{ACAD_REACTORS
330
C
102
}
330
C
100
AcDbDictionary
281
     1
  3
Layout1
350
1E
  3
Layout2
350
26
  3
Model
350
22
  0
DICTIONARY
  5
3B
102
{ACAD_REACTORS
330
C
102
}
330
C
100
AcDbDictionary
281
     1
  3
ByBlock
350
3D
  3
ByLayer
350
3C
  3
Global
350
3E
  0
DICTIONARY
  5
19E
102
{ACAD_REACTORS
330
C
102
}
330
C
100
AcDbDictionary
281
     1
  0
DICTIONARY
  5
17
102
{ACAD_REACTORS
330
C
102
}
330
C
100
AcDbDictionary
281
     1
  3
Standard
350
18
  0
DICTIONARY
  5
19
102
{ACAD_REACTORS
330
C
102
}
330
C
100
AcDbDictionary
281
     1
  0
ACDBDICTIONARYWDFLT
  5
E
102
{ACAD_REACTORS
330
C
102
}
330
C
100
AcDbDictionary
281
     1
  3
Normal
350
F
100
AcDbDictionaryWithDefault
340
F
  0
DICTIONARY
  5
2A
102
{ACAD_REACTORS
330
C
102
}
330
C
100
AcDbDictionary
281
     1
  3
2dWireframe
350
2F
  3
3D Hidden
350
31
  3
3dWireframe
350
30
  3
Basic
350
32
  3
Brighten
350
36
  3
ColorChange
350
3A
  3
Conceptual
350
34
  3
Dim
350
35
  3
Facepattern
350
39
  3
Flat
350
2B
  3
FlatWithEdges
350
2C
  3
Gouraud
350
2D
  3
GouraudWithEdges
350
2E
  3
Linepattern
350
38
  3
Realistic
350
33
  3
Thicken
350
37
  0
DICTIONARY
  5
19C
102
{ACAD_REACTORS
330
C
102
}
330
C
100
AcDbDictionary
281
     1
  3
DIMASSOC
350
19F
  3
HIDETEXT
350
1A0
  0
LAYOUT
  5
1E
102
{ACAD_REACTORS
330
1A
102
}
330
1A
100
AcDbPlotSettings
  1

  2
none_device
  4

  6

 40
0.0
 41
0.0
 42
0.0
 43
0.0
 44
0.0
 45
0.0
 46
0.0
 47
0.0
 48
0.0
 49
0.0
140
0.0
141
0.0
142
1.0
143
1.0
 70
   688
 72
     0
 73
     0
 74
     5
  7

 75
    16
147
1.0
148
0.0
149
0.0
100
AcDbLayout
  1
Layout1
 70
     1
 71
     1
 10
0.0
 20
0.0
 11
12.0
 21
9.0
 12
0.0
 22
0.0
 32
0.0
 14
1.00000000000000E+20
 24
1.00000000000000E+20
 34
1.00000000000000E+20
 15
-1.00000000000000E+20
 25
-1.00000000000000E+20
 35
-1.00000000000000E+20
146
0.0
 13
0.0
 23
0.0
 33
0.0
 16
1.0
 26
0.0
 36
0.0
 17
0.0
 27
1.0
 37
0.0
 76
     0
330
1B
  0
LAYOUT
  5
26
102
{ACAD_REACTORS
330
1A
102
}
330
1A
100
AcDbPlotSettings
  1

  2
none_device
  4

  6

 40
0.0
 41
0.0
 42
0.0
 43
0.0
 44
0.0
 45
0.0
 46
0.0
 47
0.0
 48
0.0
 49
0.0
140
0.0
141
0.0
142
1.0
143
1.0
 70
   688
 72
     0
 73
     0
 74
     5
  7

 75
    16
147
1.0
148
0.0
149
0.0
100
AcDbLayout
  1
Layout2
 70
     1
 71
     2
 10
0.0
 20
0.0
 11
0.0
 21
0.0
 12
0.0
 22
0.0
 32
0.0
 14
0.0
 24
0.0
 34
0.0
 15
0.0
 25
0.0
 35
0.0
146
0.0
 13
0.0
 23
0.0
 33
0.0
 16
1.0
 26
0.0
 36
0.0
 17
0.0
 27
1.0
 37
0.0
 76
     0
330
23
  0
LAYOUT
  5
22
102
{ACAD_REACTORS
330
1A
102
}
330
1A
100
AcDbPlotSettings
  1

  2
none_device
  4

  6

 40
0.0
 41
0.0
 42
0.0
 43
0.0
 44
0.0
 45
0.0
 46
0.0
 47
0.0
 48
0.0
 49
0.0
140
0.0
141
0.0
142
1.0
143
1.0
 70
  1712
 72
     0
 73
     0
 74
     0
  7

 75
     0
147
1.0
148
0.0
149
0.0
100
AcDbLayout
  1
Model
 70
     1
 71
     0
 10
0.0
 20
0.0
 11
12.0
 21
9.0
 12
0.0
 22
0.0
 32
0.0
 14
0.0
 24
-0.00000000000003
 34
0.0
 15
419.9999999999998
 25
594.0
 35
0.0
146
0.0
 13
0.0
 23
0.0
 33
0.0
 16
1.0
 26
0.0
 36
0.0
 17
0.0
 27
1.0
 37
0.0
 76
     0
330
1F
331
29
  0
MATERIAL
  5
3D
102
{ACAD_REACTORS
330
3B
102
}
102
{ACAD_XDICTIONARY
360
1C3
102
}
330
3B
100
AcDbMaterial
  1
ByBlock
  0
MATERIAL
  5
3C
102
{ACAD_REACTORS
330
3B
102
}
102
{ACAD_XDICTIONARY
360
1C1
102
}
330
3B
100
AcDbMaterial
  1
ByLayer
  0
MATERIAL
  5
3E
102
{ACAD_REACTORS
330
3B
102
}
102
{ACAD_XDICTIONARY
360
1C5
102
}
330
3B
100
AcDbMaterial
  1
Global
  0
MLINESTYLE
  5
18
102
{ACAD_REACTORS
330
17
102
}
330
17
100
AcDbMlineStyle
  2
Standard
 70
     0
  3

 62
   256
 51
90.0
 52
90.0
 71
     2
 49
0.5
 62
   256
  6
BYLAYER
 49
-0.5
 62
   256
  6
BYLAYER
  0
ACDBPLACEHOLDER
  5
F
102
{ACAD_REACTORS
330
E
102
}
330
E
  0
VISUALSTYLE
  5
2F
102
{ACAD_REACTORS
330
2A
102
}
102
{ACAD_XDICTIONARY
360
1A9
102
}
330
2A
100
AcDbVisualStyle
  2
2dWireframe
 70
     4
 71
     0
 72
     2
 73
     0
 90
        0
 40
-0.6
 41
-30.0
 62
     5
 63
     7
 74
     1
 91
        4
 64
     7
 65
   257
 75
     1
175
     1
 42
1.0
 92
        0
 66
   257
 43
1.0
 76
     1
 77
     6
 78
     2
 67
     7
 79
     5
170
     0
171
     0
290
     0
174
     0
 93
        1
 44
0.0
173
     0
291
     0
 45
0.0
1001
ACAD
1000
AcDbSavedByObjectVersion
1070
     0
  0
VISUALSTYLE
  5
31
102
{ACAD_REACTORS
330
2A
102
}
102
{ACAD_XDICTIONARY
360
1AD
102
}
330
2A
100
AcDbVisualStyle
  2
3D Hidden
 70
     6
 71
     1
 72
     2
 73
     2
 90
        0
 40
-0.6
 41
-30.0
 62
     5
 63
     7
 74
     2
 91
        2
 64
     7
 65
   257
 75
     2
175
     1
 42
40.0
 92
        0
 66
   257
 43
1.0
 76
     1
 77
     6
 78
     2
 67
     7
 79
     3
170
     0
171
     0
290
     0
174
     0
 93
        1
 44
0.0
173
     0
291
     0
 45
0.0
1001
ACAD
1000
AcDbSavedByObjectVersion
1070
     0
  0
VISUALSTYLE
  5
30
102
{ACAD_REACTORS
330
2A
102
}
102
{ACAD_XDICTIONARY
360
1AB
102
}
330
2A
100
AcDbVisualStyle
  2
3dWireframe
 70
     5
 71
     0
 72
     2
 73
     0
 90
        0
 40
-0.6
 41
-30.0
 62
     5
 63
     7
 74
     1
 91
        4
 64
     7
 65
   257
 75
     1
175
     1
 42
1.0
 92
        0
 66
   257
 43
1.0
 76
     1
 77
     6
 78
     2
 67
     7
 79
     5
170
     0
171
     0
290
     0
174
     0
 93
        1
 44
0.0
173
     0
291
     0
 45
0.0
1001
ACAD
1000
AcDbSavedByObjectVersion
1070
     0
  0
VISUALSTYLE
  5
32
102
{ACAD_REACTORS
330
2A
102
}
102
{ACAD_XDICTIONARY
360
1AF
102
}
330
2A
100
AcDbVisualStyle
  2
Basic
 70
     7
 71
     1
 72
     0
 73
     1
 90
        0
 40
-0.6
 41
-30.0
 62
     5
 63
     7
 74
     0
 91
        4
 64
     7
 65
   257
 75
     1
175
     1
 42
1.0
 92
        8
 66
     7
 43
1.0
 76
     1
 77
     6
 78
     2
 67
     7
 79
     5
170
     0
171
     0
290
     0
174
     0
 93
        1
 44
0.0
173
     0
291
     1
 45
0.0
1001
ACAD
1000
AcDbSavedByObjectVersion
1070
     0
  0
VISUALSTYLE
  5
36
102
{ACAD_REACTORS
330
2A
102
}
102
{ACAD_XDICTIONARY
360
1B7
102
}
330
2A
100
AcDbVisualStyle
  2
Brighten
 70
    12
 71
     2
 72
     2
 73
     0
 90
        0
 40
-0.6
 41
-30.0
 62
     5
 63
     7
 74
     1
 91
        4
 64
     7
 65
   257
 75
     1
175
     1
 42
1.0
 92
        8
 66
     7
 43
1.0
 76
     1
 77
     6
 78
     2
 67
     7
 79
     5
170
     0
171
     0
290
     0
174
     0
 93
        1
 44
50.0
173
     0
291
     1
 45
0.0
1001
ACAD
1000
AcDbSavedByObjectVersion
1070
     0
  0
VISUALSTYLE
  5
3A
102
{ACAD_REACTORS
330
2A
102
}
102
{ACAD_XDICTIONARY
360
1BF
102
}
330
2A
100
AcDbVisualStyle
  2
ColorChange
 70
    16
 71
     2
 72
     2
 73
     3
 90
        0
 40
-0.6
 41
-30.0
 62
     5
 63
     8
 74
     1
 91
        4
 64
     7
 65
   257
 75
     1
175
     1
 42
1.0
 92
        8
 66
     8
 43
1.0
 76
     1
 77
     6
 78
     2
 67
     7
 79
     5
170
     0
171
     0
290
     0
174
     0
 93
        1
 44
0.0
173
     0
291
     1
 45
0.0
1001
ACAD
1000
AcDbSavedByObjectVersion
1070
     0
  0
VISUALSTYLE
  5
34
102
{ACAD_REACTORS
330
2A
102
}
102
{ACAD_XDICTIONARY
360
1B3
102
}
330
2A
100
AcDbVisualStyle
  2
Conceptual
 70
     9
 71
     3
 72
     2
 73
     0
 90
        0
 40
-0.6
 41
-30.0
 62
     5
 63
     7
 74
     2
 91
        2
 64
     7
 65
   257
 75
     1
175
     1
 42
40.0
 92
        8
 66
     7
 43
1.0
 76
     1
 77
     6
 78
     2
 67
     7
 79
     3
170
     0
171
     0
290
     0
174
     0
 93
        1
 44
0.0
173
     0
291
     0
 45
0.0
1001
ACAD
1000
AcDbSavedByObjectVersion
1070
     0
  0
VISUALSTYLE
  5
35
102
{ACAD_REACTORS
330
2A
102
}
102
{ACAD_XDICTIONARY
360
1B5
102
}
330
2A
100
AcDbVisualStyle
  2
Dim
 70
    11
 71
     2
 72
     2
 73
     0
 90
        0
 40
-0.6
 41
-30.0
 62
     5
 63
     7
 74
     1
 91
        4
 64
     7
 65
   257
 75
     1
175
     1
 42
1.0
 92
        8
 66
     7
 43
1.0
 76
     1
 77
     6
 78
     2
 67
     7
 79
     5
170
     0
171
     0
290
     0
174
     0
 93
        1
 44
-50.0
173
     0
291
     1
 45
0.0
1001
ACAD
1000
AcDbSavedByObjectVersion
1070
     0
  0
VISUALSTYLE
  5
39
102
{ACAD_REACTORS
330
2A
102
}
102
{ACAD_XDICTIONARY
360
1BD
102
}
330
2A
100
AcDbVisualStyle
  2
Facepattern
 70
    15
 71
     2
 72
     2
 73
     0
 90
        0
 40
-0.6
 41
-30.0
 62
     5
 63
     7
 74
     1
 91
        4
 64
     7
 65
   257
 75
     1
175
     1
 42
1.0
 92
        8
 66
     7
 43
1.0
 76
     1
 77
     6
 78
     2
 67
     7
 79
     5
170
     0
171
     0
290
     0
174
     0
 93
        1
 44
0.0
173
     0
291
     1
 45
0.0
1001
ACAD
1000
AcDbSavedByObjectVersion
1070
     0
  0
VISUALSTYLE
  5
2B
102
{ACAD_REACTORS
330
2A
102
}
102
{ACAD_XDICTIONARY
360
1A1
102
}
330
2A
100
AcDbVisualStyle
  2
Flat
 70
     0
 71
     2
 72
     1
 73
     1
 90
        2
 40
-0.6
 41
30.0
 62
     5
 63
     7
 74
     0
 91
        4
 64
     7
 65
   257
 75
     1
175
     1
 42
1.0
 92
        8
 66
     7
 43
1.0
 76
     1
 77
     6
 78
     2
 67
     7
 79
     5
170
     0
171
     0
290
     0
174
     0
 93
       13
 44
0.0
173
     0
291
     1
 45
0.0
1001
ACAD
1000
AcDbSavedByObjectVersion
1070
     0
  0
VISUALSTYLE
  5
2C
102
{ACAD_REACTORS
330
2A
102
}
102
{ACAD_XDICTIONARY
360
1A3
102
}
330
2A
100
AcDbVisualStyle
  2
FlatWithEdges
 70
     1
 71
     2
 72
     1
 73
     1
 90
        2
 40
-0.6
 41
30.0
 62
     5
 63
     7
 74
     1
 91
        4
 64
     7
 65
   257
 75
     1
175
     1
 42
1.0
 92
        0
 66
   257
 43
1.0
 76
     1
 77
     6
 78
     2
 67
     7
 79
     5
170
     0
171
     0
290
     0
174
     0
 93
       13
 44
0.0
173
     0
291
     1
 45
0.0
1001
ACAD
1000
AcDbSavedByObjectVersion
1070
     0
  0
VISUALSTYLE
  5
2D
102
{ACAD_REACTORS
330
2A
102
}
102
{ACAD_XDICTIONARY
360
1A5
102
}
330
2A
100
AcDbVisualStyle
  2
Gouraud
 70
     2
 71
     2
 72
     2
 73
     1
 90
        2
 40
-0.6
 41
30.0
 62
     5
 63
     7
 74
     0
 91
        4
 64
     7
 65
   257
 75
     1
175
     1
 42
1.0
 92
        0
 66
     7
 43
1.0
 76
     1
 77
     6
 78
     2
 67
     7
 79
     5
170
     0
171
     0
290
     0
174
     0
 93
       13
 44
0.0
173
     0
291
     1
 45
0.0
1001
ACAD
1000
AcDbSavedByObjectVersion
1070
     0
  0
VISUALSTYLE
  5
2E
102
{ACAD_REACTORS
330
2A
102
}
102
{ACAD_XDICTIONARY
360
1A7
102
}
330
2A
100
AcDbVisualStyle
  2
GouraudWithEdges
 70
     3
 71
     2
 72
     2
 73
     1
 90
        2
 40
-0.6
 41
30.0
 62
     5
 63
     7
 74
     1
 91
        4
 64
     7
 65
   257
 75
     1
175
     1
 42
1.0
 92
        0
 66
   257
 43
1.0
 76
     1
 77
     6
 78
     2
 67
     7
 79
     5
170
     0
171
     0
290
     0
174
     0
 93
       13
 44
0.0
173
     0
291
     1
 45
0.0
1001
ACAD
1000
AcDbSavedByObjectVersion
1070
     0
  0
VISUALSTYLE
  5
38
102
{ACAD_REACTORS
330
2A
102
}
102
{ACAD_XDICTIONARY
360
1BB
102
}
330
2A
100
AcDbVisualStyle
  2
Linepattern
 70
    14
 71
     2
 72
     2
 73
     0
 90
        0
 40
-0.6
 41
-30.0
 62
     5
 63
     7
 74
     1
 91
        4
 64
     7
 65
   257
 75
     7
175
     7
 42
1.0
 92
        8
 66
     7
 43
1.0
 76
     1
 77
     6
 78
     2
 67
     7
 79
     5
170
     0
171
     0
290
     0
174
     0
 93
        1
 44
0.0
173
     0
291
     1
 45
0.0
1001
ACAD
1000
AcDbSavedByObjectVersion
1070
     0
  0
VISUALSTYLE
  5
33
102
{ACAD_REACTORS
330
2A
102
}
102
{ACAD_XDICTIONARY
360
1B1
102
}
330
2A
100
AcDbVisualStyle
  2
Realistic
 70
     8
 71
     2
 72
     2
 73
     0
 90
        0
 40
-0.6
 41
-30.0
 62
     5
 63
     7
 74
     1
 91
        0
 64
     7
 65
   257
 75
     1
175
     1
 42
1.0
 92
        8
 66
     8
 43
1.0
 76
     1
 77
     6
 78
     2
 67
     7
 79
     5
170
     0
171
     0
290
     0
174
     0
 93
       13
 44
0.0
173
     0
291
     0
 45
0.0
1001
ACAD
1000
AcDbSavedByObjectVersion
1070
     0
  0
VISUALSTYLE
  5
37
102
{ACAD_REACTORS
330
2A
102
}
102
{ACAD_XDICTIONARY
360
1B9
102
}
330
2A
100
AcDbVisualStyle
  2
Thicken
 70
    13
 71
     2
 72
     2
 73
     0
 90
        0
 40
-0.6
 41
-30.0
 62
     5
 63
     7
 74
     1
 91
        4
 64
     7
 65
   257
 75
     1
175
     1
 42
1.0
 92
       12
 66
     7
 43
1.0
 76
     1
 77
     6
 78
     2
 67
     7
 79
     5
170
     0
171
     0
290
     0
174
     0
 93
        1
 44
0.0
173
     0
291
     1
 45
0.0
1001
ACAD
1000
AcDbSavedByObjectVersion
1070
     0
  0
DICTIONARYVAR
  5
19F
102
{ACAD_REACTORS
330
19C
102
}
330
19C
100
DictionaryVariables
280
     0
  1
2
  0
DICTIONARYVAR
  5
1A0
102
{ACAD_REACTORS
330
19C
102
}
330
19C
100
DictionaryVariables
280
     0
  1
1
  0
DICTIONARY
  5
1C3
330
3D
100
AcDbDictionary
280
     1
281
     1
  3
ACAD_XREC_ROUNDTRIP
360
1C4
  0
DICTIONARY
  5
1C1
330
3C
100
AcDbDictionary
280
     1
281
     1
  3
ACAD_XREC_ROUNDTRIP
360
1C2
  0
DICTIONARY
  5
1C5
330
3E
100
AcDbDictionary
280
     1
281
     1
  3
ACAD_XREC_ROUNDTRIP
360
1C6
  0
DICTIONARY
  5
1A9
330
2F
100
AcDbDictionary
280
     1
281
     1
  3
ACAD_XREC_ROUNDTRIP
360
1AA
  0
DICTIONARY
  5
1AD
330
31
100
AcDbDictionary
280
     1
281
     1
  3
ACAD_XREC_ROUNDTRIP
360
1AE
  0
DICTIONARY
  5
1AB
330
30
100
AcDbDictionary
280
     1
281
     1
  3
ACAD_XREC_ROUNDTRIP
360
1AC
  0
DICTIONARY
  5
1AF
330
32
100
AcDbDictionary
280
     1
281
     1
  3
ACAD_XREC_ROUNDTRIP
360
1B0
  0
DICTIONARY
  5
1B7
330
36
100
AcDbDictionary
280
     1
281
     1
  3
ACAD_XREC_ROUNDTRIP
360
1B8
  0
DICTIONARY
  5
1BF
330
3A
100
AcDbDictionary
280
     1
281
     1
  3
ACAD_XREC_ROUNDTRIP
360
1C0
  0
DICTIONARY
  5
1B3
330
34
100
AcDbDictionary
280
     1
281
     1
  3
ACAD_XREC_ROUNDTRIP
360
1B4
  0
DICTIONARY
  5
1B5
330
35
100
AcDbDictionary
280
     1
281
     1
  3
ACAD_XREC_ROUNDTRIP
360
1B6
  0
DICTIONARY
  5
1BD
330
39
100
AcDbDictionary
280
     1
281
     1
  3
ACAD_XREC_ROUNDTRIP
360
1BE
  0
DICTIONARY
  5
1A1
330
2B
100
AcDbDictionary
280
     1
281
     1
  3
ACAD_XREC_ROUNDTRIP
360
1A2
  0
DICTIONARY
  5
1A3
330
2C
100
AcDbDictionary
280
     1
281
     1
  3
ACAD_XREC_ROUNDTRIP
360
1A4
  0
DICTIONARY
  5
1A5
330
2D
100
AcDbDictionary
280
     1
281
     1
  3
ACAD_XREC_ROUNDTRIP
360
1A6
  0
DICTIONARY
  5
1A7
330
2E
100
AcDbDictionary
280
     1
281
     1
  3
ACAD_XREC_ROUNDTRIP
360
1A8
  0
DICTIONARY
  5
1BB
330
38
100
AcDbDictionary
280
     1
281
     1
  3
ACAD_XREC_ROUNDTRIP
360
1BC
  0
DICTIONARY
  5
1B1
330
33
100
AcDbDictionary
280
     1
281
     1
  3
ACAD_XREC_ROUNDTRIP
360
1B2
  0
DICTIONARY
  5
1B9
330
37
100
AcDbDictionary
280
     1
281
     1
  3
ACAD_XREC_ROUNDTRIP
360
1BA
  0
XRECORD
  5
1C4
102
{ACAD_REACTORS
330
1C3
102
}
330
1C3
100
AcDbXrecord
280
     1
102
MATERIAL
148
0.0
149
0.0
149
0.0
 93
        0
 94
      127
282
     0
 72
     1
 77
     1
171
     1
175
     1
179
     1
273
     0
  0
XRECORD
  5
1C2
102
{ACAD_REACTORS
330
1C1
102
}
330
1C1
100
AcDbXrecord
280
     1
102
MATERIAL
148
0.0
149
0.0
149
0.0
 93
        0
 94
      127
282
     0
 72
     1
 77
     1
171
     1
175
     1
179
     1
273
     0
  0
XRECORD
  5
1C6
102
{ACAD_REACTORS
330
1C5
102
}
330
1C5
100
AcDbXrecord
280
     1
102
MATERIAL
148
0.0
149
0.0
149
0.0
 93
        0
 94
      127
282
     0
 72
     1
 77
     1
171
     1
175
     1
179
     1
273
     0
  0
XRECORD
  5
1AA
102
{ACAD_REACTORS
330
1A9
102
}
330
1A9
100
AcDbXrecord
280
     1
102
RTVSPropertyOp0
 70
     1
102
RTVSPropertyOp1
 70
     1
102
RTVSPropertyOp2
 70
     1
102
RTVSPropertyOp3
 70
     1
102
RTVSPropertyOp4
 70
     1
102
RTVSPropertyOp5
 70
     1
102
RTVSPropertyOp6
 70
     1
102
RTVSPropertyOp7
 70
     1
102
RTVSPropertyOp8
 70
     1
102
RTVSPropertyOp9
 70
     1
102
RTVSPropertyOp10
 70
     1
102
RTVSPropertyOp11
 70
     1
102
RTVSPropertyOp12
 70
     1
102
RTVSPropertyOp13
 70
     1
102
RTVSPropertyOp14
 70
     1
102
RTVSPropertyOp15
 70
     1
102
RTVSPropertyOp16
 70
     1
102
RTVSPropertyOp17
 70
     1
102
RTVSPropertyOp18
 70
     1
102
RTVSPropertyOp19
 70
     1
102
RTVSPropertyOp20
 70
     1
102
RTVSPropertyOp21
 70
     1
102
RTVSPropertyOp22
 70
     1
102
RTVSPropertyOp23
 70
     1
102
RTVSPropertyOp24
 70
     1
102
RTVSPropertyOp25
 70
     1
102
RTVSPropertyOp26
 70
     1
102
RTVSPropertyOp27
 70
     1
102
RTVSPropertyOp28
 70
     1
102
RTVSPropertyOp29
 70
     1
102
RTVSPropertyOp30
 70
     1
102
RTVSPropertyOp31
 70
     1
102
RTVSPropertyOp32
 70
     1
  0
XRECORD
  5
1AE
102
{ACAD_REACTORS
330
1AD
102
}
330
1AD
100
AcDbXrecord
280
     1
102
RTVSPropertyOp0
 70
     1
102
RTVSPropertyOp1
 70
     1
102
RTVSPropertyOp2
 70
     1
102
RTVSPropertyOp3
 70
     1
102
RTVSPropertyOp4
 70
     1
102
RTVSPropertyOp5
 70
     1
102
RTVSPropertyOp6
 70
     1
102
RTVSPropertyOp7
 70
     1
102
RTVSPropertyOp8
 70
     1
102
RTVSPropertyOp9
 70
     1
102
RTVSPropertyOp10
 70
     1
102
RTVSPropertyOp11
 70
     1
102
RTVSPropertyOp12
 70
     1
102
RTVSPropertyOp13
 70
     1
102
RTVSPropertyOp14
 70
     1
102
RTVSPropertyOp15
 70
     1
102
RTVSPropertyOp16
 70
     1
102
RTVSPropertyOp17
 70
     1
102
RTVSPropertyOp18
 70
     1
102
RTVSPropertyOp19
 70
     1
102
RTVSPropertyOp20
 70
     1
102
RTVSPropertyOp21
 70
     1
102
RTVSPropertyOp22
 70
     1
102
RTVSPropertyOp23
 70
     1
102
RTVSPropertyOp24
 70
     1
102
RTVSPropertyOp25
 70
     1
102
RTVSPropertyOp26
 70
     1
102
RTVSPropertyOp27
 70
     1
102
RTVSPropertyOp28
 70
     1
102
RTVSPropertyOp29
 70
     1
102
RTVSPropertyOp30
 70
     1
102
RTVSPropertyOp31
 70
     1
102
RTVSPropertyOp32
 70
     1
  0
XRECORD
  5
1AC
102
{ACAD_REACTORS
330
1AB
102
}
330
1AB
100
AcDbXrecord
280
     1
102
RTVSPropertyOp0
 70
     1
102
RTVSPropertyOp1
 70
     1
102
RTVSPropertyOp2
 70
     1
102
RTVSPropertyOp3
 70
     1
102
RTVSPropertyOp4
 70
     1
102
RTVSPropertyOp5
 70
     1
102
RTVSPropertyOp6
 70
     1
102
RTVSPropertyOp7
 70
     1
102
RTVSPropertyOp8
 70
     1
102
RTVSPropertyOp9
 70
     1
102
RTVSPropertyOp10
 70
     1
102
RTVSPropertyOp11
 70
     1
102
RTVSPropertyOp12
 70
     1
102
RTVSPropertyOp13
 70
     1
102
RTVSPropertyOp14
 70
     1
102
RTVSPropertyOp15
 70
     1
102
RTVSPropertyOp16
 70
     1
102
RTVSPropertyOp17
 70
     1
102
RTVSPropertyOp18
 70
     1
102
RTVSPropertyOp19
 70
     1
102
RTVSPropertyOp20
 70
     1
102
RTVSPropertyOp21
 70
     1
102
RTVSPropertyOp22
 70
     1
102
RTVSPropertyOp23
 70
     1
102
RTVSPropertyOp24
 70
     1
102
RTVSPropertyOp25
 70
     1
102
RTVSPropertyOp26
 70
     1
102
RTVSPropertyOp27
 70
     1
102
RTVSPropertyOp28
 70
     1
102
RTVSPropertyOp29
 70
     1
102
RTVSPropertyOp30
 70
     1
102
RTVSPropertyOp31
 70
     1
102
RTVSPropertyOp32
 70
     1
  0
XRECORD
  5
1B0
102
{ACAD_REACTORS
330
1AF
102
}
330
1AF
100
AcDbXrecord
280
     1
102
RTVSPropertyOp0
 70
     1
102
RTVSPropertyOp1
 70
     1
102
RTVSPropertyOp2
 70
     1
102
RTVSPropertyOp3
 70
     1
102
RTVSPropertyOp4
 70
     1
102
RTVSPropertyOp5
 70
     1
102
RTVSPropertyOp6
 70
     1
102
RTVSPropertyOp7
 70
     1
102
RTVSPropertyOp8
 70
     1
102
RTVSPropertyOp9
 70
     1
102
RTVSPropertyOp10
 70
     1
102
RTVSPropertyOp11
 70
     1
102
RTVSPropertyOp12
 70
     1
102
RTVSPropertyOp13
 70
     1
102
RTVSPropertyOp14
 70
     1
102
RTVSPropertyOp15
 70
     1
102
RTVSPropertyOp16
 70
     1
102
RTVSPropertyOp17
 70
     1
102
RTVSPropertyOp18
 70
     1
102
RTVSPropertyOp19
 70
     1
102
RTVSPropertyOp20
 70
     1
102
RTVSPropertyOp21
 70
     1
102
RTVSPropertyOp22
 70
     1
102
RTVSPropertyOp23
 70
     1
102
RTVSPropertyOp24
 70
     1
102
RTVSPropertyOp25
 70
     1
102
RTVSPropertyOp26
 70
     1
102
RTVSPropertyOp27
 70
     1
102
RTVSPropertyOp28
 70
     1
102
RTVSPropertyOp29
 70
     1
102
RTVSPropertyOp30
 70
     1
102
RTVSPropertyOp31
 70
     1
102
RTVSPropertyOp32
 70
     1
  0
XRECORD
  5
1B8
102
{ACAD_REACTORS
330
1B7
102
}
330
1B7
100
AcDbXrecord
280
     1
102
RTVSPropertyOp0
 70
     1
102
RTVSPropertyOp1
 70
     1
102
RTVSPropertyOp2
 70
     1
102
RTVSPropertyOp3
 70
     1
102
RTVSPropertyOp4
 70
     1
102
RTVSPropertyOp5
 70
     1
102
RTVSPropertyOp6
 70
     1
102
RTVSPropertyOp7
 70
     1
102
RTVSPropertyOp8
 70
     1
102
RTVSPropertyOp9
 70
     1
102
RTVSPropertyOp10
 70
     1
102
RTVSPropertyOp11
 70
     1
102
RTVSPropertyOp12
 70
     1
102
RTVSPropertyOp13
 70
     1
102
RTVSPropertyOp14
 70
     1
102
RTVSPropertyOp15
 70
     1
102
RTVSPropertyOp16
 70
     1
102
RTVSPropertyOp17
 70
     1
102
RTVSPropertyOp18
 70
     1
102
RTVSPropertyOp19
 70
     1
102
RTVSPropertyOp20
 70
     1
102
RTVSPropertyOp21
 70
     1
102
RTVSPropertyOp22
 70
     1
102
RTVSPropertyOp23
 70
     1
102
RTVSPropertyOp24
 70
     1
102
RTVSPropertyOp25
 70
     1
102
RTVSPropertyOp26
 70
     1
102
RTVSPropertyOp27
 70
     1
102
RTVSPropertyOp28
 70
     1
102
RTVSPropertyOp29
 70
     1
102
RTVSPropertyOp30
 70
     1
102
RTVSPropertyOp31
 70
     1
102
RTVSPropertyOp32
 70
     1
  0
XRECORD
  5
1C0
102
{ACAD_REACTORS
330
1BF
102
}
330
1BF
100
AcDbXrecord
280
     1
102
RTVSPropertyOp0
 70
     1
102
RTVSPropertyOp1
 70
     1
102
RTVSPropertyOp2
 70
     1
102
RTVSPropertyOp3
 70
     1
102
RTVSPropertyOp4
 70
     1
102
RTVSPropertyOp5
 70
     1
102
RTVSPropertyOp6
 70
     1
102
RTVSPropertyOp7
 70
     1
102
RTVSPropertyOp8
 70
     1
102
RTVSPropertyOp9
 70
     1
102
RTVSPropertyOp10
 70
     1
102
RTVSPropertyOp11
 70
     1
102
RTVSPropertyOp12
 70
     1
102
RTVSPropertyOp13
 70
     1
102
RTVSPropertyOp14
 70
     1
102
RTVSPropertyOp15
 70
     1
102
RTVSPropertyOp16
 70
     1
102
RTVSPropertyOp17
 70
     1
102
RTVSPropertyOp18
 70
     1
102
RTVSPropertyOp19
 70
     1
102
RTVSPropertyOp20
 70
     1
102
RTVSPropertyOp21
 70
     1
102
RTVSPropertyOp22
 70
     1
102
RTVSPropertyOp23
 70
     1
102
RTVSPropertyOp24
 70
     1
102
RTVSPropertyOp25
 70
     1
102
RTVSPropertyOp26
 70
     1
102
RTVSPropertyOp27
 70
     1
102
RTVSPropertyOp28
 70
     1
102
RTVSPropertyOp29
 70
     1
102
RTVSPropertyOp30
 70
     1
102
RTVSPropertyOp31
 70
     1
102
RTVSPropertyOp32
 70
     1
  0
XRECORD
  5
1B4
102
{ACAD_REACTORS
330
1B3
102
}
330
1B3
100
AcDbXrecord
280
     1
102
RTVSPropertyOp0
 70
     1
102
RTVSPropertyOp1
 70
     1
102
RTVSPropertyOp2
 70
     1
102
RTVSPropertyOp3
 70
     1
102
RTVSPropertyOp4
 70
     1
102
RTVSPropertyOp5
 70
     1
102
RTVSPropertyOp6
 70
     1
102
RTVSPropertyOp7
 70
     1
102
RTVSPropertyOp8
 70
     1
102
RTVSPropertyOp9
 70
     1
102
RTVSPropertyOp10
 70
     1
102
RTVSPropertyOp11
 70
     1
102
RTVSPropertyOp12
 70
     1
102
RTVSPropertyOp13
 70
     1
102
RTVSPropertyOp14
 70
     1
102
RTVSPropertyOp15
 70
     1
102
RTVSPropertyOp16
 70
     1
102
RTVSPropertyOp17
 70
     1
102
RTVSPropertyOp18
 70
     1
102
RTVSPropertyOp19
 70
     1
102
RTVSPropertyOp20
 70
     1
102
RTVSPropertyOp21
 70
     1
102
RTVSPropertyOp22
 70
     1
102
RTVSPropertyOp23
 70
     1
102
RTVSPropertyOp24
 70
     1
102
RTVSPropertyOp25
 70
     1
102
RTVSPropertyOp26
 70
     1
102
RTVSPropertyOp27
 70
     1
102
RTVSPropertyOp28
 70
     1
102
RTVSPropertyOp29
 70
     1
102
RTVSPropertyOp30
 70
     1
102
RTVSPropertyOp31
 70
     1
102
RTVSPropertyOp32
 70
     1
  0
XRECORD
  5
1B6
102
{ACAD_REACTORS
330
1B5
102
}
330
1B5
100
AcDbXrecord
280
     1
102
RTVSPropertyOp0
 70
     1
102
RTVSPropertyOp1
 70
     1
102
RTVSPropertyOp2
 70
     1
102
RTVSPropertyOp3
 70
     1
102
RTVSPropertyOp4
 70
     1
102
RTVSPropertyOp5
 70
     1
102
RTVSPropertyOp6
 70
     1
102
RTVSPropertyOp7
 70
     1
102
RTVSPropertyOp8
 70
     1
102
RTVSPropertyOp9
 70
     1
102
RTVSPropertyOp10
 70
     1
102
RTVSPropertyOp11
 70
     1
102
RTVSPropertyOp12
 70
     1
102
RTVSPropertyOp13
 70
     1
102
RTVSPropertyOp14
 70
     1
102
RTVSPropertyOp15
 70
     1
102
RTVSPropertyOp16
 70
     1
102
RTVSPropertyOp17
 70
     1
102
RTVSPropertyOp18
 70
     1
102
RTVSPropertyOp19
 70
     1
102
RTVSPropertyOp20
 70
     1
102
RTVSPropertyOp21
 70
     1
102
RTVSPropertyOp22
 70
     1
102
RTVSPropertyOp23
 70
     1
102
RTVSPropertyOp24
 70
     1
102
RTVSPropertyOp25
 70
     1
102
RTVSPropertyOp26
 70
     1
102
RTVSPropertyOp27
 70
     1
102
RTVSPropertyOp28
 70
     1
102
RTVSPropertyOp29
 70
     1
102
RTVSPropertyOp30
 70
     1
102
RTVSPropertyOp31
 70
     1
102
RTVSPropertyOp32
 70
     1
  0
XRECORD
  5
1BE
102
{ACAD_REACTORS
330
1BD
102
}
330
1BD
100
AcDbXrecord
280
     1
102
RTVSPropertyOp0
 70
     1
102
RTVSPropertyOp1
 70
     1
102
RTVSPropertyOp2
 70
     1
102
RTVSPropertyOp3
 70
     1
102
RTVSPropertyOp4
 70
     1
102
RTVSPropertyOp5
 70
     1
102
RTVSPropertyOp6
 70
     1
102
RTVSPropertyOp7
 70
     1
102
RTVSPropertyOp8
 70
     1
102
RTVSPropertyOp9
 70
     1
102
RTVSPropertyOp10
 70
     1
102
RTVSPropertyOp11
 70
     1
102
RTVSPropertyOp12
 70
     1
102
RTVSPropertyOp13
 70
     1
102
RTVSPropertyOp14
 70
     1
102
RTVSPropertyOp15
 70
     1
102
RTVSPropertyOp16
 70
     1
102
RTVSPropertyOp17
 70
     1
102
RTVSPropertyOp18
 70
     1
102
RTVSPropertyOp19
 70
     1
102
RTVSPropertyOp20
 70
     1
102
RTVSPropertyOp21
 70
     1
102
RTVSPropertyOp22
 70
     1
102
RTVSPropertyOp23
 70
     1
102
RTVSPropertyOp24
 70
     1
102
RTVSPropertyOp25
 70
     1
102
RTVSPropertyOp26
 70
     1
102
RTVSPropertyOp27
 70
     1
102
RTVSPropertyOp28
 70
     1
102
RTVSPropertyOp29
 70
     1
102
RTVSPropertyOp30
 70
     1
102
RTVSPropertyOp31
 70
     1
102
RTVSPropertyOp32
 70
     1
  0
XRECORD
  5
1A2
102
{ACAD_REACTORS
330
1A1
102
}
330
1A1
100
AcDbXrecord
280
     1
102
RTVSPropertyOp0
 70
     1
102
RTVSPropertyOp1
 70
     1
102
RTVSPropertyOp2
 70
     1
102
RTVSPropertyOp3
 70
     1
102
RTVSPropertyOp4
 70
     1
102
RTVSPropertyOp5
 70
     1
102
RTVSPropertyOp6
 70
     1
102
RTVSPropertyOp7
 70
     1
102
RTVSPropertyOp8
 70
     1
102
RTVSPropertyOp9
 70
     1
102
RTVSPropertyOp10
 70
     1
102
RTVSPropertyOp11
 70
     1
102
RTVSPropertyOp12
 70
     1
102
RTVSPropertyOp13
 70
     1
102
RTVSPropertyOp14
 70
     1
102
RTVSPropertyOp15
 70
     1
102
RTVSPropertyOp16
 70
     1
102
RTVSPropertyOp17
 70
     1
102
RTVSPropertyOp18
 70
     1
102
RTVSPropertyOp19
 70
     1
102
RTVSPropertyOp20
 70
     1
102
RTVSPropertyOp21
 70
     1
102
RTVSPropertyOp22
 70
     1
102
RTVSPropertyOp23
 70
     1
102
RTVSPropertyOp24
 70
     1
102
RTVSPropertyOp25
 70
     1
102
RTVSPropertyOp26
 70
     1
102
RTVSPropertyOp27
 70
     1
102
RTVSPropertyOp28
 70
     1
102
RTVSPropertyOp29
 70
     1
102
RTVSPropertyOp30
 70
     1
102
RTVSPropertyOp31
 70
     1
102
RTVSPropertyOp32
 70
     1
  0
XRECORD
  5
1A4
102
{ACAD_REACTORS
330
1A3
102
}
330
1A3
100
AcDbXrecord
280
     1
102
RTVSPropertyOp0
 70
     1
102
RTVSPropertyOp1
 70
     1
102
RTVSPropertyOp2
 70
     1
102
RTVSPropertyOp3
 70
     1
102
RTVSPropertyOp4
 70
     1
102
RTVSPropertyOp5
 70
     1
102
RTVSPropertyOp6
 70
     1
102
RTVSPropertyOp7
 70
     1
102
RTVSPropertyOp8
 70
     1
102
RTVSPropertyOp9
 70
     1
102
RTVSPropertyOp10
 70
     1
102
RTVSPropertyOp11
 70
     1
102
RTVSPropertyOp12
 70
     1
102
RTVSPropertyOp13
 70
     1
102
RTVSPropertyOp14
 70
     1
102
RTVSPropertyOp15
 70
     1
102
RTVSPropertyOp16
 70
     1
102
RTVSPropertyOp17
 70
     1
102
RTVSPropertyOp18
 70
     1
102
RTVSPropertyOp19
 70
     1
102
RTVSPropertyOp20
 70
     1
102
RTVSPropertyOp21
 70
     1
102
RTVSPropertyOp22
 70
     1
102
RTVSPropertyOp23
 70
     1
102
RTVSPropertyOp24
 70
     1
102
RTVSPropertyOp25
 70
     1
102
RTVSPropertyOp26
 70
     1
102
RTVSPropertyOp27
 70
     1
102
RTVSPropertyOp28
 70
     1
102
RTVSPropertyOp29
 70
     1
102
RTVSPropertyOp30
 70
     1
102
RTVSPropertyOp31
 70
     1
102
RTVSPropertyOp32
 70
     1
  0
XRECORD
  5
1A6
102
{ACAD_REACTORS
330
1A5
102
}
330
1A5
100
AcDbXrecord
280
     1
102
RTVSPropertyOp0
 70
     1
102
RTVSPropertyOp1
 70
     1
102
RTVSPropertyOp2
 70
     1
102
RTVSPropertyOp3
 70
     1
102
RTVSPropertyOp4
 70
     1
102
RTVSPropertyOp5
 70
     1
102
RTVSPropertyOp6
 70
     1
102
RTVSPropertyOp7
 70
     1
102
RTVSPropertyOp8
 70
     1
102
RTVSPropertyOp9
 70
     1
102
RTVSPropertyOp10
 70
     1
102
RTVSPropertyOp11
 70
     1
102
RTVSPropertyOp12
 70
     1
102
RTVSPropertyOp13
 70
     1
102
RTVSPropertyOp14
 70
     1
102
RTVSPropertyOp15
 70
     1
102
RTVSPropertyOp16
 70
     1
102
RTVSPropertyOp17
 70
     1
102
RTVSPropertyOp18
 70
     1
102
RTVSPropertyOp19
 70
     1
102
RTVSPropertyOp20
 70
     1
102
RTVSPropertyOp21
 70
     1
102
RTVSPropertyOp22
 70
     1
102
RTVSPropertyOp23
 70
     1
102
RTVSPropertyOp24
 70
     1
102
RTVSPropertyOp25
 70
     1
102
RTVSPropertyOp26
 70
     1
102
RTVSPropertyOp27
 70
     1
102
RTVSPropertyOp28
 70
     1
102
RTVSPropertyOp29
 70
     1
102
RTVSPropertyOp30
 70
     1
102
RTVSPropertyOp31
 70
     1
102
RTVSPropertyOp32
 70
     1
  0
XRECORD
  5
1A8
102
{ACAD_REACTORS
330
1A7
102
}
330
1A7
100
AcDbXrecord
280
     1
102
RTVSPropertyOp0
 70
     1
102
RTVSPropertyOp1
 70
     1
102
RTVSPropertyOp2
 70
     1
102
RTVSPropertyOp3
 70
     1
102
RTVSPropertyOp4
 70
     1
102
RTVSPropertyOp5
 70
     1
102
RTVSPropertyOp6
 70
     1
102
RTVSPropertyOp7
 70
     1
102
RTVSPropertyOp8
 70
     1
102
RTVSPropertyOp9
 70
     1
102
RTVSPropertyOp10
 70
     1
102
RTVSPropertyOp11
 70
     1
102
RTVSPropertyOp12
 70
     1
102
RTVSPropertyOp13
 70
     1
102
RTVSPropertyOp14
 70
     1
102
RTVSPropertyOp15
 70
     1
102
RTVSPropertyOp16
 70
     1
102
RTVSPropertyOp17
 70
     1
102
RTVSPropertyOp18
 70
     1
102
RTVSPropertyOp19
 70
     1
102
RTVSPropertyOp20
 70
     1
102
RTVSPropertyOp21
 70
     1
102
RTVSPropertyOp22
 70
     1
102
RTVSPropertyOp23
 70
     1
102
RTVSPropertyOp24
 70
     1
102
RTVSPropertyOp25
 70
     1
102
RTVSPropertyOp26
 70
     1
102
RTVSPropertyOp27
 70
     1
102
RTVSPropertyOp28
 70
     1
102
RTVSPropertyOp29
 70
     1
102
RTVSPropertyOp30
 70
     1
102
RTVSPropertyOp31
 70
     1
102
RTVSPropertyOp32
 70
     1
  0
XRECORD
  5
1BC
102
{ACAD_REACTORS
330
1BB
102
}
330
1BB
100
AcDbXrecord
280
     1
102
RTVSPropertyOp0
 70
     1
102
RTVSPropertyOp1
 70
     1
102
RTVSPropertyOp2
 70
     1
102
RTVSPropertyOp3
 70
     1
102
RTVSPropertyOp4
 70
     1
102
RTVSPropertyOp5
 70
     1
102
RTVSPropertyOp6
 70
     1
102
RTVSPropertyOp7
 70
     1
102
RTVSPropertyOp8
 70
     1
102
RTVSPropertyOp9
 70
     1
102
RTVSPropertyOp10
 70
     1
102
RTVSPropertyOp11
 70
     1
102
RTVSPropertyOp12
 70
     1
102
RTVSPropertyOp13
 70
     1
102
RTVSPropertyOp14
 70
     1
102
RTVSPropertyOp15
 70
     1
102
RTVSPropertyOp16
 70
     1
102
RTVSPropertyOp17
 70
     1
102
RTVSPropertyOp18
 70
     1
102
RTVSPropertyOp19
 70
     1
102
RTVSPropertyOp20
 70
     1
102
RTVSPropertyOp21
 70
     1
102
RTVSPropertyOp22
 70
     1
102
RTVSPropertyOp23
 70
     1
102
RTVSPropertyOp24
 70
     1
102
RTVSPropertyOp25
 70
     1
102
RTVSPropertyOp26
 70
     1
102
RTVSPropertyOp27
 70
     1
102
RTVSPropertyOp28
 70
     1
102
RTVSPropertyOp29
 70
     1
102
RTVSPropertyOp30
 70
     1
102
RTVSPropertyOp31
 70
     1
102
RTVSPropertyOp32
 70
     1
  0
XRECORD
  5
1B2
102
{ACAD_REACTORS
330
1B1
102
}
330
1B1
100
AcDbXrecord
280
     1
102
RTVSPropertyOp0
 70
     1
102
RTVSPropertyOp1
 70
     1
102
RTVSPropertyOp2
 70
     1
102
RTVSPropertyOp3
 70
     1
102
RTVSPropertyOp4
 70
     1
102
RTVSPropertyOp5
 70
     1
102
RTVSPropertyOp6
 70
     1
102
RTVSPropertyOp7
 70
     1
102
RTVSPropertyOp8
 70
     1
102
RTVSPropertyOp9
 70
     1
102
RTVSPropertyOp10
 70
     1
102
RTVSPropertyOp11
 70
     1
102
RTVSPropertyOp12
 70
     1
102
RTVSPropertyOp13
 70
     1
102
RTVSPropertyOp14
 70
     1
102
RTVSPropertyOp15
 70
     1
102
RTVSPropertyOp16
 70
     1
102
RTVSPropertyOp17
 70
     1
102
RTVSPropertyOp18
 70
     1
102
RTVSPropertyOp19
 70
     1
102
RTVSPropertyOp20
 70
     1
102
RTVSPropertyOp21
 70
     1
102
RTVSPropertyOp22
 70
     1
102
RTVSPropertyOp23
 70
     1
102
RTVSPropertyOp24
 70
     1
102
RTVSPropertyOp25
 70
     1
102
RTVSPropertyOp26
 70
     1
102
RTVSPropertyOp27
 70
     1
102
RTVSPropertyOp28
 70
     1
102
RTVSPropertyOp29
 70
     1
102
RTVSPropertyOp30
 70
     1
102
RTVSPropertyOp31
 70
     1
102
RTVSPropertyOp32
 70
     1
  0
XRECORD
  5
1BA
102
{ACAD_REACTORS
330
1B9
102
}
330
1B9
100
AcDbXrecord
280
     1
102
RTVSPropertyOp0
 70
     1
102
RTVSPropertyOp1
 70
     1
102
RTVSPropertyOp2
 70
     1
102
RTVSPropertyOp3
 70
     1
102
RTVSPropertyOp4
 70
     1
102
RTVSPropertyOp5
 70
     1
102
RTVSPropertyOp6
 70
     1
102
RTVSPropertyOp7
 70
     1
102
RTVSPropertyOp8
 70
     1
102
RTVSPropertyOp9
 70
     1
102
RTVSPropertyOp10
 70
     1
102
RTVSPropertyOp11
 70
     1
102
RTVSPropertyOp12
 70
     1
102
RTVSPropertyOp13
 70
     1
102
RTVSPropertyOp14
 70
     1
102
RTVSPropertyOp15
 70
     1
102
RTVSPropertyOp16
 70
     1
102
RTVSPropertyOp17
 70
     1
102
RTVSPropertyOp18
 70
     1
102
RTVSPropertyOp19
 70
     1
102
RTVSPropertyOp20
 70
     1
102
RTVSPropertyOp21
 70
     1
102
RTVSPropertyOp22
 70
     1
102
RTVSPropertyOp23
 70
     1
102
RTVSPropertyOp24
 70
     1
102
RTVSPropertyOp25
 70
     1
102
RTVSPropertyOp26
 70
     1
102
RTVSPropertyOp27
 70
     1
102
RTVSPropertyOp28
 70
     1
102
RTVSPropertyOp29
 70
     1
102
RTVSPropertyOp30
 70
     1
102
RTVSPropertyOp31
 70
     1
102
RTVSPropertyOp32
 70
     1
  0
ENDSEC
  0
EOF
