  0
SECTION
  2
HEADER
  9
$ACADVER
  1
AC1015
  9
$ACADMAINTVER
 70
     6
  9
$DWGCODEPAGE
  3
ANSI_932
  9
$INSBASE
 10
0.0
 20
0.0
 30
0.0
  9
$EXTMIN
 10
-0.00000000000002
 20
0.0
 30
0.0
  9
$EXTMAX
 10
315.0
 20
445.5
 30
0.0
  9
$LIMMIN
 10
0.0
 20
0.0
  9
$LIMMAX
 10
12.0
 20
9.0
  9
$ORTHOMODE
 70
     0
  9
$REGENMODE
 70
     1
  9
$FILLMODE
 70
     1
  9
$QTEXTMODE
 70
     0
  9
$MIRRTEXT
 70
     1
  9
$LTSCALE
 40
1.0
  9
$ATTMODE
 70
     1
  9
$TEXTSIZE
 40
0.2
  9
$TRACEWID
 40
0.05
  9
$TEXTSTYLE
  7
Standard
  9
$CLAYER
  8
0
  9
$CELTYPE
  6
ByLayer
  9
$CECOLOR
 62
   256
  9
$CELTSCALE
 40
1.0
  9
$DISPSILH
 70
     0
  9
$DIMSCALE
 40
1.0
  9
$DIMASZ
 40
0.18
  9
$DIMEXO
 40
0.0625
  9
$DIMDLI
 40
0.38
  9
$DIMRND
 40
0.0
  9
$DIMDLE
 40
0.0
  9
$DIMEXE
 40
0.18
  9
$DIMTP
 40
0.0
  9
$DIMTM
 40
0.0
  9
$DIMTXT
 40
0.18
  9
$DIMCEN
 40
0.09
  9
$DIMTSZ
 40
0.0
  9
$DIMTOL
 70
     0
  9
$DIMLIM
 70
     0
  9
$DIMTIH
 70
     1
  9
$DIMTOH
 70
     1
  9
$DIMSE1
 70
     0
  9
$DIMSE2
 70
     0
  9
$DIMTAD
 70
     0
  9
$DIMZIN
 70
     0
  9
$DIMBLK
  1

  9
$DIMASO
 70
     1
  9
$DIMSHO
 70
     1
  9
$DIMPOST
  1

  9
$DIMAPOST
  1

  9
$DIMALT
 70
     0
  9
$DIMALTD
 70
     2
  9
$DIMALTF
 40
25.4
  9
$DIMLFAC
 40
1.0
  9
$DIMTOFL
 70
     0
  9
$DIMTVP
 40
0.0
  9
$DIMTIX
 70
     0
  9
$DIMSOXD
 70
     0
  9
$DIMSAH
 70
     0
  9
$DIMBLK1
  1

  9
$DIMBLK2
  1

  9
$DIMSTYLE
  2
Standard
  9
$DIMCLRD
 70
     0
  9
$DIMCLRE
 70
     0
  9
$DIMCLRT
 70
     0
  9
$DIMTFAC
 40
1.0
  9
$DIMGAP
 40
0.09
  9
$DIMJUST
 70
     0
  9
$DIMSD1
 70
     0
  9
$DIMSD2
 70
     0
  9
$DIMTOLJ
 70
     1
  9
$DIMTZIN
 70
     0
  9
$DIMALTZ
 70
     0
  9
$DIMALTTZ
 70
     0
  9
$DIMUPT
 70
     0
  9
$DIMDEC
 70
     4
  9
$DIMTDEC
 70
     4
  9
$DIMALTU
 70
     2
  9
$DIMALTTD
 70
     2
  9
$DIMTXSTY
  7
Standard
  9
$DIMAUNIT
 70
     0
  9
$DIMADEC
 70
     0
  9
$DIMALTRND
 40
0.0
  9
$DIMAZIN
 70
     0
  9
$DIMDSEP
 70
    46
  9
$DIMATFIT
 70
     3
  9
$DIMFRAC
 70
     0
  9
$DIMLDRBLK
  1

  9
$DIMLUNIT
 70
     2
  9
$DIMLWD
 70
    -2
  9
$DIMLWE
 70
    -2
  9
$DIMTMOVE
 70
     0
  9
$LUNITS
 70
     2
  9
$LUPREC
 70
     4
  9
$SKETCHINC
 40
0.1
  9
$FILLETRAD
 40
0.5
  9
$AUNITS
 70
     0
  9
$AUPREC
 70
     0
  9
$MENU
  1
.
  9
$ELEVATION
 40
0.0
  9
$PELEVATION
 40
0.0
  9
$THICKNESS
 40
0.0
  9
$LIMCHECK
 70
     0
  9
$CHAMFERA
 40
0.5
  9
$CHAMFERB
 40
0.5
  9
$CHAMFERC
 40
1.0
  9
$CHAMFERD
 40
0.0
  9
$SKPOLY
 70
     0
  9
$TDCREATE
 40
2459760.638220556
  9
$TDUCREATE
 40
2459760.263220556
  9
$TDUPDATE
 40
2459760.638222187
  9
$TDUUPDATE
 40
2459760.263222187
  9
$TDINDWG
 40
0.0000000116
  9
$TDUSRTIMER
 40
0.0000000116
  9
$USRTIMER
 70
     1
  9
$ANGBASE
 50
0.0
  9
$ANGDIR
 70
     0
  9
$PDMODE
 70
     0
  9
$PDSIZE
 40
0.0
  9
$PLINEWID
 40
0.0
  9
$SPLFRAME
 70
     0
  9
$SPLINETYPE
 70
     6
  9
$SPLINESEGS
 70
     8
  9
$HANDSEED
  5
17D
  9
$SURFTAB1
 70
     6
  9
$SURFTAB2
 70
     6
  9
$SURFTYPE
 70
     6
  9
$SURFU
 70
     6
  9
$SURFV
 70
     6
  9
$UCSBASE
  2

  9
$UCSNAME
  2

  9
$UCSORG
 10
0.0
 20
0.0
 30
0.0
  9
$UCSXDIR
 10
1.0
 20
0.0
 30
0.0
  9
$UCSYDIR
 10
0.0
 20
1.0
 30
0.0
  9
$UCSORTHOREF
  2

  9
$UCSORTHOVIEW
 70
     0
  9
$UCSORGTOP
 10
0.0
 20
0.0
 30
0.0
  9
$UCSORGBOTTOM
 10
0.0
 20
0.0
 30
0.0
  9
$UCSORGLEFT
 10
0.0
 20
0.0
 30
0.0
  9
$UCSORGRIGHT
 10
0.0
 20
0.0
 30
0.0
  9
$UCSORGFRONT
 10
0.0
 20
0.0
 30
0.0
  9
$UCSORGBACK
 10
0.0
 20
0.0
 30
0.0
  9
$PUCSBASE
  2

  9
$PUCSNAME
  2

  9
$PUCSORG
 10
0.0
 20
0.0
 30
0.0
  9
$PUCSXDIR
 10
1.0
 20
0.0
 30
0.0
  9
$PUCSYDIR
 10
0.0
 20
1.0
 30
0.0
  9
$PUCSORTHOREF
  2

  9
$PUCSORTHOVIEW
 70
     0
  9
$PUCSORGTOP
 10
0.0
 20
0.0
 30
0.0
  9
$PUCSORGBOTTOM
 10
0.0
 20
0.0
 30
0.0
  9
$PUCSORGLEFT
 10
0.0
 20
0.0
 30
0.0
  9
$PUCSORGRIGHT
 10
0.0
 20
0.0
 30
0.0
  9
$PUCSORGFRONT
 10
0.0
 20
0.0
 30
0.0
  9
$PUCSORGBACK
 10
0.0
 20
0.0
 30
0.0
  9
$USERI1
 70
     0
  9
$USERI2
 70
     0
  9
$USERI3
 70
     0
  9
$USERI4
 70
     0
  9
$USERI5
 70
     0
  9
$USERR1
 40
18.1
  9
$USERR2
 40
0.0
  9
$USERR3
 40
0.0
  9
$USERR4
 40
0.0
  9
$USERR5
 40
0.0
  9
$WORLDVIEW
 70
     1
  9
$SHADEDGE
 70
     3
  9
$SHADEDIF
 70
    70
  9
$TILEMODE
 70
     1
  9
$MAXACTVP
 70
    64
  9
$PINSBASE
 10
0.0
 20
0.0
 30
0.0
  9
$PLIMCHECK
 70
     0
  9
$PEXTMIN
 10
1.00000000000000E+20
 20
1.00000000000000E+20
 30
1.00000000000000E+20
  9
$PEXTMAX
 10
-1.00000000000000E+20
 20
-1.00000000000000E+20
 30
-1.00000000000000E+20
  9
$PLIMMIN
 10
0.0
 20
0.0
  9
$PLIMMAX
 10
12.0
 20
9.0
  9
$UNITMODE
 70
     0
  9
$VISRETAIN
 70
     1
  9
$PLINEGEN
 70
     0
  9
$PSLTSCALE
 70
     1
  9
$TREEDEPTH
 70
  3020
  9
$CMLSTYLE
  2
Standard
  9
$CMLJUST
 70
     0
  9
$CMLSCALE
 40
1.0
  9
$PROXYGRAPHICS
 70
     1
  9
$MEASUREMENT
 70
     1
  9
$CELWEIGHT
370
    -1
  9
$ENDCAPS
280
     0
  9
$JOINSTYLE
280
     0
  9
$LWDISPLAY
290
     0
  9
$INSUNITS
 70
     4
  9
$HYPERLINKBASE
  1

  9
$STYLESHEET
  1

  9
$XEDIT
290
     1
  9
$CEPSNTYPE
380
     0
  9
$PSTYLEMODE
290
     1
  9
$FINGERPRINTGUID
  2
{6C2C562A-3E8C-4430-BEC1-C2BB01F571E4}
  9
$VERSIONGUID
  2
{FAEB1C32-E019-11D5-929B-00C0DF256EC4}
  9
$EXTNAMES
290
     1
  9
$PSVPSCALE
 40
0.0
  9
$OLESTARTUP
290
     0
  0
ENDSEC
  0
SECTION
  2
CLASSES
  0
CLASS
  1
ACDBDICTIONARYWDFLT
  2
AcDbDictionaryWithDefault
  3
ObjectDBX Classes
 90
        0
280
     0
281
     0
  0
CLASS
  1
VISUALSTYLE
  2
AcDbVisualStyle
  3
ObjectDBX Classes
 90
     4095
280
     0
281
     0
  0
CLASS
  1
MATERIAL
  2
AcDbMaterial
  3
ObjectDBX Classes
 90
     1153
280
     0
281
     0
  0
CLASS
  1
DICTIONARYVAR
  2
AcDbDictionaryVar
  3
ObjectDBX Classes
 90
        0
280
     0
281
     0
  0
CLASS
  1
ACDBPLACEHOLDER
  2
AcDbPlaceHolder
  3
ObjectDBX Classes
 90
        0
280
     0
281
     0
  0
CLASS
  1
LAYOUT
  2
AcDbLayout
  3
ObjectDBX Classes
 90
        0
280
     0
281
     0
  0
ENDSEC
  0
SECTION
  2
TABLES
  0
TABLE
  2
VPORT
  5
8
330
0
100
AcDbSymbolTable
 70
     1
  0
VPORT
  5
29
330
8
100
AcDbSymbolTableRecord
100
AcDbViewportTableRecord
  2
*Active
 70
     0
 10
0.0
 20
0.0
 11
1.0
 21
1.0
 12
157.5
 22
222.75
 13
0.0
 23
0.0
 14
0.5
 24
0.5
 15
0.5
 25
0.5
 16
0.0
 26
0.0
 36
1.0
 17
0.0
 27
0.0
 37
0.0
 40
490.05
 41
1.60267857142857
 42
50.0
 43
0.0
 44
0.0
 50
0.0
 51
0.0
 71
     0
 72
   100
 73
     1
 74
     3
 75
     0
 76
     0
 77
     0
 78
     0
281
     0
 65
     1
110
0.0
120
0.0
130
0.0
111
1.0
121
0.0
131
0.0
112
0.0
122
1.0
132
0.0
 79
     0
146
0.0
  0
ENDTAB
  0
TABLE
  2
LTYPE
  5
5
330
0
100
AcDbSymbolTable
 70
     8
  0
LTYPE
  5
14
330
5
100
AcDbSymbolTableRecord
100
AcDbLinetypeTableRecord
  2
ByBlock
 70
     0
  3

 72
    65
 73
     0
 40
0.0
  0
LTYPE
  5
15
330
5
100
AcDbSymbolTableRecord
100
AcDbLinetypeTableRecord
  2
ByLayer
 70
     0
  3

 72
    65
 73
     0
 40
0.0
  0
LTYPE
  5
16
330
5
100
AcDbSymbolTableRecord
100
AcDbLinetypeTableRecord
  2
Continuous
 70
     0
  3
Solid line
 72
    65
 73
     0
 40
0.0
  0
LTYPE
  5
3F
330
5
100
AcDbSymbolTableRecord
100
AcDbLinetypeTableRecord
  2
DASHED
 70
     0
  3
Dashed
 72
    65
 73
     2
 40
15.0
 49
7.0
 74
     0
 49
-8.0
 74
     0
  0
LTYPE
  5
40
330
5
100
AcDbSymbolTableRecord
100
AcDbLinetypeTableRecord
  2
DOTTED
 70
     0
  3
Dotted
 72
    65
 73
     2
 40
1.0
 49
0.0
 74
     0
 49
-1.0
 74
     0
  0
LTYPE
  5
41
330
5
100
AcDbSymbolTableRecord
100
AcDbLinetypeTableRecord
  2
DOT_CENTER
 70
     0
  3
Dot_Center
 72
    65
 73
     4
 40
14.0
 49
12.0
 74
     0
 49
-1.0
 74
     0
 49
0.0
 74
     0
 49
-1.0
 74
     0
  0
LTYPE
  5
42
330
5
100
AcDbSymbolTableRecord
100
AcDbLinetypeTableRecord
  2
LONG_DASHED
 70
     0
  3
Long_Dashed
 72
    65
 73
     2
 40
15.0
 49
10.0
 74
     0
 49
-5.0
 74
     0
  0
LTYPE
  5
43
330
5
100
AcDbSymbolTableRecord
100
AcDbLinetypeTableRecord
  2
DASH_CENTER
 70
     0
  3
Dash_Center
 72
    65
 73
     4
 40
14.0
 49
11.0
 74
     0
 49
-1.0
 74
     0
 49
1.0
 74
     0
 49
-1.0
 74
     0
  0
LTYPE
  5
44
330
5
100
AcDbSymbolTableRecord
100
AcDbLinetypeTableRecord
  2
PHANTOM
 70
     0
  3
Phantom
 72
    65
 73
     6
 40
13.0
 49
10.0
 74
     0
 49
-1.0
 74
     0
 49
0.0
 74
     0
 49
-1.0
 74
     0
 49
0.0
 74
     0
 49
-1.0
 74
     0
  0
LTYPE
  5
45
330
5
100
AcDbSymbolTableRecord
100
AcDbLinetypeTableRecord
  2
CENTER_DASH_DASH
 70
     0
  3
Center_Dash_Dash
 72
    65
 73
     6
 40
14.0
 49
9.0
 74
     0
 49
-1.0
 74
     0
 49
1.0
 74
     0
 49
-1.0
 74
     0
 49
1.0
 74
     0
 49
-1.0
 74
     0
  0
ENDTAB
  0
TABLE
  2
LAYER
  5
2
330
0
100
AcDbSymbolTable
 70
     3
  0
LAYER
  5
10
330
2
100
AcDbSymbolTableRecord
100
AcDbLayerTableRecord
  2
0
 70
     0
 62
     7
  6
Continuous
370
    -3
390
F
  0
LAYER
  5
46
330
2
100
AcDbSymbolTableRecord
100
AcDbLayerTableRecord
  2
1
 70
     0
 62
     7
  6
Continuous
370
    -3
390
F
  0
LAYER
  5
47
330
2
100
AcDbSymbolTableRecord
100
AcDbLayerTableRecord
  2
_U_30EC_U_30A4_U_30E4_U_30FC_1
 70
     0
 62
     7
  6
Continuous
370
    -3
390
F
  0
ENDTAB
  0
TABLE
  2
STYLE
  5
3
330
0
100
AcDbSymbolTable
 70
     3
  0
STYLE
  5
11
330
3
100
AcDbSymbolTableRecord
100
AcDbTextStyleTableRecord
  2
Standard
 70
     0
 40
0.0
 41
1.0
 50
0.0
 71
     0
 42
0.2
  3
txt
  4

  0
STYLE
  5
B2
330
3
100
AcDbSymbolTableRecord
100
AcDbTextStyleTableRecord
  2
CONVERTER_11
 70
     0
 40
0.0
 41
0.89
 50
0.0
 71
     0
 42
0.2
  3
MS Mincho.ttf
  4

1001
ACAD
1000
MS Mincho
1071
    32785
  0
STYLE
  5
116
330
3
100
AcDbSymbolTableRecord
100
AcDbTextStyleTableRecord
  2
CONVERTER_12
 70
     0
 40
0.0
 41
0.9
 50
0.0
 71
     0
 42
0.2
  3
txt.shx
  4

  0
ENDTAB
  0
TABLE
  2
VIEW
  5
6
330
0
100
AcDbSymbolTable
 70
     0
  0
ENDTAB
  0
TABLE
  2
UCS
  5
7
330
0
100
AcDbSymbolTable
 70
     0
  0
ENDTAB
  0
TABLE
  2
APPID
  5
9
330
0
100
AcDbSymbolTable
 70
     1
  0
APPID
  5
12
330
9
100
AcDbSymbolTableRecord
100
AcDbRegAppTableRecord
  2
ACAD
 70
     0
  0
ENDTAB
  0
TABLE
  2
DIMSTYLE
  5
A
330
0
100
AcDbSymbolTable
 70
     4
100
AcDbDimStyleTable
  0
DIMSTYLE
105
27
330
A
100
AcDbSymbolTableRecord
100
AcDbDimStyleTableRecord
  2
Standard
 70
     0
178
     0
340
11
  0
DIMSTYLE
105
12C
102
{ACAD_REACTORS
330
12D
102
}
330
A
100
AcDbSymbolTableRecord
100
AcDbDimStyleTableRecord
  2
ME10_DIM_10
 70
     0
  3
{\Fgdt;n}<>
 41
5.25
 42
0.0
 44
1.5
 73
     0
 74
     0
 77
     1
 78
     8
140
5.25
147
1.5
172
     1
173
     1
174
     1
175
     1
176
     2
177
     2
271
     2
178
     7
271
     2
340
116
  0
DIMSTYLE
105
137
102
{ACAD_REACTORS
330
138
102
}
330
A
100
AcDbSymbolTableRecord
100
AcDbDimStyleTableRecord
  2
ME10_DIM_11
 70
     0
 41
5.25
 42
0.0
 44
1.5
 73
     0
 74
     0
 77
     1
 78
     8
140
5.25
147
1.5
172
     1
173
     1
174
     1
175
     1
176
     2
177
     2
271
     2
178
     7
271
     2
340
116
  0
DIMSTYLE
105
142
102
{ACAD_REACTORS
330
143
102
}
330
A
100
AcDbSymbolTableRecord
100
AcDbDimStyleTableRecord
  2
ME10_DIM_12
 70
     0
 41
5.25
 42
0.0
 44
1.5
 73
     0
 74
     0
 77
     1
 78
     8
140
5.25
147
1.5
172
     1
173
     1
174
     1
175
     1
176
     2
177
     2
271
     2
178
     7
271
     2
340
116
  0
ENDTAB
  0
TABLE
  2
BLOCK_RECORD
  5
1
330
0
100
AcDbSymbolTable
 70
     8
  0
BLOCK_RECORD
  5
1F
330
1
100
AcDbSymbolTableRecord
100
AcDbBlockTableRecord
  2
*Model_Space
340
22
  0
BLOCK_RECORD
  5
1B
330
1
100
AcDbSymbolTableRecord
100
AcDbBlockTableRecord
  2
*Paper_Space
340
1E
  0
BLOCK_RECORD
  5
23
330
1
100
AcDbSymbolTableRecord
100
AcDbBlockTableRecord
  2
*Paper_Space0
340
26
  0
BLOCK_RECORD
  5
48
330
1
100
AcDbSymbolTableRecord
100
AcDbBlockTableRecord
  2
開示A4
340
0
102
{BLKREFS
331
4C
102
}
  0
BLOCK_RECORD
  5
4B
330
1
100
AcDbSymbolTableRecord
100
AcDbBlockTableRecord
  2
開示A4枠
340
0
102
{BLKREFS
331
4F
102
}
  0
BLOCK_RECORD
  5
123
330
1
100
AcDbSymbolTableRecord
100
AcDbBlockTableRecord
  2
*D3
340
0
  0
BLOCK_RECORD
  5
12E
330
1
100
AcDbSymbolTableRecord
100
AcDbBlockTableRecord
  2
*D4
340
0
  0
BLOCK_RECORD
  5
139
330
1
100
AcDbSymbolTableRecord
100
AcDbBlockTableRecord
  2
*D5
340
0
  0
BLOCK_RECORD
  5
144
330
1
100
AcDbSymbolTableRecord
100
AcDbBlockTableRecord
  2
*D6
340
0
102
{BLKREFS
331
14A
102
}
  0
BLOCK_RECORD
  5
14B
330
1
100
AcDbSymbolTableRecord
100
AcDbBlockTableRecord
  2
*D7
340
0
102
{BLKREFS
331
151
102
}
  0
ENDTAB
  0
ENDSEC
  0
SECTION
  2
BLOCKS
  0
BLOCK
  5
20
330
1F
100
AcDbEntity
  8
0
100
AcDbBlockBegin
  2
*Model_Space
 70
     0
 10
0.0
 20
0.0
 30
0.0
  3
*Model_Space
  1

  0
ENDBLK
  5
21
330
1F
100
AcDbEntity
  8
0
100
AcDbBlockEnd
  0
BLOCK
  5
1C
330
1B
100
AcDbEntity
 67
     1
  8
0
100
AcDbBlockBegin
  2
*Paper_Space
 70
     0
 10
0.0
 20
0.0
 30
0.0
  3
*Paper_Space
  1

  0
ENDBLK
  5
1D
330
1B
100
AcDbEntity
 67
     1
  8
0
100
AcDbBlockEnd
  0
BLOCK
  5
24
330
23
100
AcDbEntity
  8
0
100
AcDbBlockBegin
  2
*Paper_Space0
 70
     0
 10
0.0
 20
0.0
 30
0.0
  3
*Paper_Space0
  1

  0
ENDBLK
  5
25
330
23
100
AcDbEntity
  8
0
100
AcDbBlockEnd
  0
BLOCK
  5
49
330
48
100
AcDbEntity
  8
0
100
AcDbBlockBegin
  2
開示A4
 70
     0
 10
-0.00000000000001
 20
0.0
 30
0.0
  3
開示A4
  1

  0
POINT
  5
50
330
48
100
AcDbEntity
  8
1
 62
     4
100
AcDbPoint
 10
183.0
 20
15.00000000000002
 30
0.0
  0
POINT
  5
51
330
48
100
AcDbEntity
  8
1
 62
     4
100
AcDbPoint
 10
93.74999999999999
 20
17.0
 30
0.0
  0
POINT
  5
52
330
48
100
AcDbEntity
  8
1
 62
     4
100
AcDbPoint
 10
85.24999999999999
 20
17.0
 30
0.0
  0
POINT
  5
53
330
48
100
AcDbEntity
  8
1
 62
     4
100
AcDbPoint
 10
106.5
 20
19.00000000000002
 30
0.0
  0
POINT
  5
54
330
48
100
AcDbEntity
  8
1
 62
     4
100
AcDbPoint
 10
106.5
 20
12.5
 30
0.0
  0
POINT
  5
55
330
48
100
AcDbEntity
  8
1
 62
     4
100
AcDbPoint
 10
112.25
 20
12.5
 30
0.0
  0
POINT
  5
56
330
48
100
AcDbEntity
  8
1
 62
     4
100
AcDbPoint
 10
100.75
 20
12.5
 30
0.0
  0
POINT
  5
57
330
48
100
AcDbEntity
  8
1
 62
     4
100
AcDbPoint
 10
123.5
 20
19.00000000000002
 30
0.0
  0
POINT
  5
58
330
48
100
AcDbEntity
  8
1
 62
     4
100
AcDbPoint
 10
123.5
 20
12.5
 30
0.0
  0
POINT
  5
59
330
48
100
AcDbEntity
  8
1
 62
     4
100
AcDbPoint
 10
129.25
 20
12.5
 30
0.0
  0
POINT
  5
5A
330
48
100
AcDbEntity
  8
1
 62
     4
100
AcDbPoint
 10
117.75
 20
12.5
 30
0.0
  0
POINT
  5
5B
330
48
100
AcDbEntity
  8
1
 62
     4
100
AcDbPoint
 10
140.5
 20
19.00000000000002
 30
0.0
  0
POINT
  5
5C
330
48
100
AcDbEntity
  8
1
 62
     4
100
AcDbPoint
 10
140.5
 20
12.5
 30
0.0
  0
POINT
  5
5D
330
48
100
AcDbEntity
  8
1
 62
     4
100
AcDbPoint
 10
146.25
 20
12.5
 30
0.0
  0
POINT
  5
5E
330
48
100
AcDbEntity
  8
1
 62
     4
100
AcDbPoint
 10
134.75
 20
12.5
 30
0.0
  0
POINT
  5
5F
330
48
100
AcDbEntity
  8
1
 62
     4
100
AcDbPoint
 10
151.75
 20
12.5
 30
0.0
  0
POINT
  5
60
330
48
100
AcDbEntity
  8
1
 62
     4
100
AcDbPoint
 10
163.25
 20
12.5
 30
0.0
  0
POINT
  5
61
330
48
100
AcDbEntity
  8
1
 62
     4
100
AcDbPoint
 10
157.5
 20
12.5
 30
0.0
  0
POINT
  5
62
330
48
100
AcDbEntity
  8
1
 62
     4
100
AcDbPoint
 10
56.99999999999999
 20
14.25
 30
0.0
  0
POINT
  5
63
330
48
100
AcDbEntity
  8
1
 62
     4
100
AcDbPoint
 10
56.99999999999999
 20
22.75000000000002
 30
0.0
  0
POINT
  5
64
330
48
100
AcDbEntity
  8
1
 62
     4
100
AcDbPoint
 10
47.49999999999998
 20
282.0000000000003
 30
0.0
  0
POINT
  5
65
330
48
100
AcDbEntity
  8
1
 62
     4
100
AcDbPoint
 10
157.5
 20
19.00000000000002
 30
0.0
  0
POINT
  5
66
330
48
100
AcDbEntity
  8
1
 62
     4
100
AcDbPoint
 10
56.99999999999999
 20
16.25
 30
0.0
  0
POINT
  5
67
330
48
100
AcDbEntity
  8
1
 62
     4
100
AcDbPoint
 10
56.99999999999999
 20
24.75000000000002
 30
0.0
  0
POINT
  5
68
330
48
100
AcDbEntity
  8
1
 62
     4
100
AcDbPoint
 10
56.99999999999999
 20
20.75000000000002
 30
0.0
  0
POINT
  5
69
330
48
100
AcDbEntity
  8
1
 62
     4
100
AcDbPoint
 10
56.99999999999999
 20
12.25
 30
0.0
  0
POINT
  5
6A
330
48
100
AcDbEntity
  8
1
 62
     4
100
AcDbPoint
 10
33.99999999999999
 20
34.0
 30
0.0
  0
LINE
  5
6F
330
48
100
AcDbEntity
  8
1
  6
Continuous
 62
     7
100
AcDbLine
 10
105.0
 20
10.0
 30
0.0
 11
200.0
 21
10.0
 31
0.0
  0
LINE
  5
70
330
48
100
AcDbEntity
  8
1
  6
Continuous
 62
     2
100
AcDbLine
 10
105.0
 20
10.0
 30
0.0
 11
105.0
 21
5.0
 31
0.0
  0
LINE
  5
71
330
48
100
AcDbEntity
  8
1
  6
Continuous
 62
     7
100
AcDbLine
 10
200.0
 20
148.5000000000001
 30
0.0
 11
200.0
 21
287.0000000000003
 31
0.0
  0
LINE
  5
72
330
48
100
AcDbEntity
  8
1
  6
Continuous
 62
     2
100
AcDbLine
 10
200.0
 20
148.5000000000001
 30
0.0
 11
205.0
 21
148.5000000000001
 31
0.0
  0
LINE
  5
73
330
48
100
AcDbEntity
  8
1
  6
Continuous
 62
     7
100
AcDbLine
 10
24.99999999999998
 20
148.5000000000001
 30
0.0
 11
24.99999999999998
 21
287.0000000000003
 31
0.0
  0
LINE
  5
74
330
48
100
AcDbEntity
  8
1
  6
Continuous
 62
     2
100
AcDbLine
 10
24.99999999999998
 20
148.5000000000001
 30
0.0
 11
19.99999999999998
 21
148.5000000000001
 31
0.0
  0
LINE
  5
75
330
48
100
AcDbEntity
  8
1
  6
Continuous
 62
     7
100
AcDbLine
 10
105.0
 20
287.0000000000003
 30
0.0
 11
24.99999999999998
 21
287.0000000000003
 31
0.0
  0
LINE
  5
76
330
48
100
AcDbEntity
  8
1
  6
Continuous
 62
     2
100
AcDbLine
 10
105.0
 20
287.0000000000003
 30
0.0
 11
105.0
 21
292.0000000000003
 31
0.0
  0
LINE
  5
77
330
48
100
AcDbEntity
  8
1
  6
Continuous
 62
     2
100
AcDbLine
 10
166.0
 20
20.00000000000002
 30
0.0
 11
200.0
 21
20.00000000000002
 31
0.0
  0
LINE
  5
78
330
48
100
AcDbEntity
  8
1
  6
Continuous
 62
     2
100
AcDbLine
 10
97.99999999999999
 20
27.00000000000002
 30
0.0
 11
97.99999999999999
 21
10.0
 31
0.0
  0
LINE
  5
79
330
48
100
AcDbEntity
  8
1
  6
Continuous
 62
     2
100
AcDbLine
 10
115.0
 20
27.00000000000002
 30
0.0
 11
115.0
 21
9.99999999999999
 31
0.0
  0
LINE
  5
7A
330
48
100
AcDbEntity
  8
1
  6
Continuous
 62
     2
100
AcDbLine
 10
149.0
 20
27.00000000000002
 30
0.0
 11
149.0
 21
10.0
 31
0.0
  0
LINE
  5
7B
330
48
100
AcDbEntity
  8
1
  6
Continuous
 62
     2
100
AcDbLine
 10
132.0
 20
27.00000000000002
 30
0.0
 11
132.0
 21
9.99999999999999
 31
0.0
  0
LINE
  5
7C
330
48
100
AcDbEntity
  8
1
  6
Continuous
 62
     2
100
AcDbLine
 10
166.0
 20
27.00000000000002
 30
0.0
 11
166.0
 21
10.0
 31
0.0
  0
LINE
  5
7D
330
48
100
AcDbEntity
  8
1
  6
Continuous
 62
     2
100
AcDbLine
 10
54.99999999999999
 20
277.0000000000003
 30
0.0
 11
24.99999999999998
 21
277.0000000000003
 31
0.0
  0
LINE
  5
7E
330
48
100
AcDbEntity
  8
1
  6
Continuous
 62
     7
100
AcDbLine
 10
24.99999999999998
 20
10.0
 30
0.0
 11
24.99999999999998
 21
148.5000000000001
 31
0.0
  0
LINE
  5
7F
330
48
100
AcDbEntity
  8
1
  6
Continuous
 62
     2
100
AcDbLine
 10
39.99999999999998
 20
287.0000000000003
 30
0.0
 11
39.99999999999998
 21
277.0000000000003
 31
0.0
  0
LINE
  5
80
330
48
100
AcDbEntity
  8
1
  6
Continuous
 62
     2
100
AcDbLine
 10
54.99999999999999
 20
287.0000000000003
 30
0.0
 11
54.99999999999999
 21
277.0000000000003
 31
0.0
  0
LINE
  5
81
330
48
100
AcDbEntity
  8
1
  6
Continuous
 62
     2
100
AcDbLine
 10
32.99999999999999
 20
41.0
 30
0.0
 11
32.99999999999999
 21
27.0
 31
0.0
  0
LINE
  5
82
330
48
100
AcDbEntity
  8
1
  6
Continuous
 62
     7
100
AcDbLine
 10
200.0
 20
27.00000000000002
 30
0.0
 11
24.99999999999998
 21
27.00000000000002
 31
0.0
  0
LINE
  5
83
330
48
100
AcDbEntity
  8
1
  6
Continuous
 62
     7
100
AcDbLine
 10
24.99999999999998
 20
41.0
 30
0.0
 11
200.0
 21
41.0
 31
0.0
  0
LINE
  5
84
330
48
100
AcDbEntity
  8
1
  6
PHANTOM
 62
     4
100
AcDbLine
 10
-0.00000000000001
 20
0.0
 30
0.0
 11
210.0
 21
0.0
 31
0.0
  0
LINE
  5
85
330
48
100
AcDbEntity
  8
1
  6
PHANTOM
 62
     4
100
AcDbLine
 10
210.0
 20
0.0
 30
0.0
 11
210.0
 21
297.0
 31
0.0
  0
LINE
  5
86
330
48
100
AcDbEntity
  8
1
  6
PHANTOM
 62
     4
100
AcDbLine
 10
210.0
 20
297.0
 30
0.0
 11
-0.00000000000001
 21
297.0
 31
0.0
  0
LINE
  5
87
330
48
100
AcDbEntity
  8
1
  6
PHANTOM
 62
     4
100
AcDbLine
 10
-0.00000000000001
 20
297.0
 30
0.0
 11
-0.00000000000001
 21
0.0
 31
0.0
  0
LINE
  5
88
330
48
100
AcDbEntity
  8
1
  6
Continuous
 62
     7
100
AcDbLine
 10
24.99999999999998
 20
10.0
 30
0.0
 11
105.0
 21
10.0
 31
0.0
  0
LINE
  5
89
330
48
100
AcDbEntity
  8
1
  6
Continuous
 62
     7
100
AcDbLine
 10
200.0
 20
10.0
 30
0.0
 11
200.0
 21
148.5000000000001
 31
0.0
  0
LINE
  5
8A
330
48
100
AcDbEntity
  8
1
  6
Continuous
 62
     7
100
AcDbLine
 10
200.0
 20
287.0000000000003
 30
0.0
 11
105.0
 21
287.0000000000003
 31
0.0
  0
LINE
  5
8B
330
48
100
AcDbEntity
  8
1
  6
Continuous
 62
     2
100
AcDbLine
 10
24.99999999999998
 20
18.50000000000002
 30
0.0
 11
80.99999999999999
 21
18.50000000000002
 31
0.0
  0
LINE
  5
8C
330
48
100
AcDbEntity
  8
1
  6
Continuous
 62
     2
100
AcDbLine
 10
32.99999999999999
 20
27.0
 30
0.0
 11
32.99999999999999
 21
10.0
 31
0.0
  0
LINE
  5
8D
330
48
100
AcDbEntity
  8
1
  6
Continuous
 62
     7
100
AcDbLine
 10
191.0
 20
24.70000000000002
 30
0.0
 11
191.0
 21
22.30000000000002
 31
0.0
  0
LINE
  5
8E
330
48
100
AcDbEntity
  8
1
  6
Continuous
 62
     7
100
AcDbLine
 10
191.0
 20
24.70000000000002
 30
0.0
 11
196.0
 21
25.50000000000002
 31
0.0
  0
LINE
  5
8F
330
48
100
AcDbEntity
  8
1
  6
Continuous
 62
     7
100
AcDbLine
 10
196.0
 20
25.50000000000002
 30
0.0
 11
196.0
 21
21.50000000000002
 31
0.0
  0
LINE
  5
90
330
48
100
AcDbEntity
  8
1
  6
Continuous
 62
     7
100
AcDbLine
 10
196.0
 20
21.50000000000002
 30
0.0
 11
191.0
 21
22.30000000000002
 31
0.0
  0
LINE
  5
91
330
48
100
AcDbEntity
  8
1
  6
DOT_CENTER
 62
     2
100
AcDbLine
 10
184.0
 20
23.50000000000002
 30
0.0
 11
197.0
 21
23.50000000000002
 31
0.0
  0
LINE
  5
92
330
48
100
AcDbEntity
  8
1
  6
DOT_CENTER
 62
     2
100
AcDbLine
 10
187.0
 20
26.50000000000002
 30
0.0
 11
187.0
 21
20.50000000000002
 31
0.0
  0
LINE
  5
93
330
48
100
AcDbEntity
  8
1
  6
Continuous
 62
     2
100
AcDbLine
 10
80.99999999999999
 20
27.00000000000002
 30
0.0
 11
80.99999999999999
 21
10.0
 31
0.0
  0
CIRCLE
  5
94
330
48
100
AcDbEntity
  8
1
  6
Continuous
 62
     7
100
AcDbCircle
 10
103.5
 20
12.5
 30
0.0
 40
0.2999999999999972
  0
CIRCLE
  5
95
330
48
100
AcDbEntity
  8
1
  6
Continuous
 62
     7
100
AcDbCircle
 10
109.5
 20
12.5
 30
0.0
 40
0.2999999999999972
  0
CIRCLE
  5
96
330
48
100
AcDbEntity
  8
1
  6
Continuous
 62
     7
100
AcDbCircle
 10
120.5
 20
12.5
 30
0.0
 40
0.2999999999999972
  0
CIRCLE
  5
97
330
48
100
AcDbEntity
  8
1
  6
Continuous
 62
     7
100
AcDbCircle
 10
126.5
 20
12.5
 30
0.0
 40
0.2999999999999972
  0
CIRCLE
  5
98
330
48
100
AcDbEntity
  8
1
  6
Continuous
 62
     7
100
AcDbCircle
 10
137.5
 20
12.5
 30
0.0
 40
0.3000000000000114
  0
CIRCLE
  5
99
330
48
100
AcDbEntity
  8
1
  6
Continuous
 62
     7
100
AcDbCircle
 10
143.5
 20
12.5
 30
0.0
 40
0.3000000000000114
  0
CIRCLE
  5
9A
330
48
100
AcDbEntity
  8
1
  6
Continuous
 62
     7
100
AcDbCircle
 10
160.5
 20
12.5
 30
0.0
 40
0.3000000000000114
  0
CIRCLE
  5
9B
330
48
100
AcDbEntity
  8
1
  6
Continuous
 62
     7
100
AcDbCircle
 10
154.5
 20
12.5
 30
0.0
 40
0.3000000000000114
  0
CIRCLE
  5
9C
330
48
100
AcDbEntity
  8
1
  6
Continuous
 62
     7
100
AcDbCircle
 10
187.0
 20
23.50000000000002
 30
0.0
 40
1.200000000000102
  0
CIRCLE
  5
9D
330
48
100
AcDbEntity
  8
1
  6
Continuous
 62
     7
100
AcDbCircle
 10
187.0
 20
23.50000000000002
 30
0.0
 40
2.0
  0
CIRCLE
  5
9E
330
48
100
AcDbEntity
  8
1
  6
DOT_CENTER
 62
     7
100
AcDbCircle
 10
89.49999999999999
 20
16.0
 30
0.0
 40
0.1000000000000085
  0
CIRCLE
  5
9F
330
48
100
AcDbEntity
  8
1
  6
DOT_CENTER
 62
     7
100
AcDbCircle
 10
89.49999999999999
 20
18.0
 30
0.0
 40
0.1000000000000085
  0
SPLINE
  5
A0
102
{ACAD_REACTORS
330
BF
102
}
330
48
100
AcDbEntity
  8
_U_30EC_U_30A4_U_30E4_U_30FC_1
  6
Continuous
 62
     2
100
AcDbSpline
210
0.0
220
0.0
230
1.0
 70
     8
 71
     3
 72
    24
 73
    20
 74
    18
 42
0.000000001
 43
0.0000000001
 44
0.00000001
 40
0.0
 40
0.0
 40
0.0
 40
0.0
 40
0.2211075008753644
 40
0.4273218586245512
 40
0.508017467923906
 40
0.5914835907869685
 40
0.8143265690192154
 40
1.054651302686517
 40
1.295452694023105
 40
1.51810923132874
 40
1.540864321905355
 40
1.595126460622643
 40
1.659890947896012
 40
1.714153085187397
 40
1.736908174961697
 40
1.764951100735405
 40
1.801562291221077
 40
1.953914424543738
 40
2.126104167379819
 40
2.126104167379819
 40
2.126104167379819
 40
2.126104167379819
 10
185.9375369556888
 20
15.58989295113017
 30
0.0
 10
185.9112579081811
 20
15.53097628234374
 30
0.0
 10
185.8604698894426
 20
15.41711139679254
 30
0.0
 10
185.813178483911
 20
15.14441958233114
 30
0.0
 10
185.7043482802617
 20
15.24445482575455
 30
0.0
 10
185.5514800279637
 20
15.27118593367333
 30
0.0
 10
185.7686155181199
 20
15.48518135017632
 30
0.0
 10
185.783848367438
 20
15.70332117782488
 30
0.0
 10
185.8906889492001
 20
15.88451579066425
 30
0.0
 10
185.8305380947075
 20
16.16913226311401
 30
0.0
 10
185.9334317395401
 20
16.1411408922245
 30
0.0
 10
185.9779933468149
 20
16.13243251602299
 30
0.0
 10
186.0380842395397
 20
16.12139654183356
 30
0.0
 10
186.0756619587438
 20
16.10767523055561
 30
0.0
 10
186.1252466928606
 20
16.10756076160223
 30
0.0
 10
186.0930158919325
 20
16.07306592398622
 30
0.0
 10
186.0171802221879
 20
16.0840410453797
 30
0.0
 10
186.0429447159694
 20
15.89858969582449
 30
0.0
 10
186.005589676385
 20
15.80702313549589
 30
0.0
 10
185.9857704961609
 20
15.75844135397705
 30
0.0
 11
185.9375369556888
 21
15.58989295113017
 31
0.0
 11
185.8616471328552
 21
15.3822170831856
 31
0.0
 11
185.7717402238432
 21
15.19663392356192
 31
0.0
 11
185.7011493923109
 21
15.23573272563551
 31
0.0
 11
185.6245525192651
 21
15.2688916318772
 31
0.0
 11
185.7214026947455
 21
15.46958801203538
 31
0.0
 11
185.7994641467471
 21
15.69688163177024
 31
0.0
 11
185.858971692972
 21
15.93021436608692
 31
0.0
 11
185.9001601511225
 21
16.14902808999054
 31
0.0
 11
185.9224183822213
 21
16.14429889221395
 31
0.0
 11
185.9754957025339
 21
16.133021574439
 31
0.0
 11
186.0388460525844
 21
16.11956154999793
 31
0.0
 11
186.091923372897
 21
16.10828423222297
 31
0.0
 11
186.1141816039958
 21
16.10355503444638
 31
0.0
 11
186.096409715746
 21
16.0818625084101
 31
0.0
 11
186.060612299807
 21
16.07418628445368
 31
0.0
 11
186.028195330148
 21
15.92532288171314
 31
0.0
 11
185.9857704961609
 21
15.75844135397705
 31
0.0
  0
SPLINE
  5
A1
102
{ACAD_REACTORS
330
BF
102
}
330
48
100
AcDbEntity
  8
_U_30EC_U_30A4_U_30E4_U_30FC_1
  6
Continuous
 62
     2
100
AcDbSpline
210
0.0
220
0.0
230
1.0
 70
     8
 71
     3
 72
    70
 73
    66
 74
    64
 42
0.000000001
 43
0.0000000001
 44
0.00000001
 40
0.0
 40
0.0
 40
0.0
 40
0.0
 40
0.0241731073021188
 40
0.0846058988987013
 40
0.1631685280352715
 40
0.2417311571788903
 40
0.3021639488291614
 40
0.3263370654894688
 40
0.3533118254248028
 40
0.4228783438921259
 40
0.517999909531255
 40
0.621639823946525
 40
0.7167613891498853
 40
0.7863279069649011
 40
0.8133026791760983
 40
0.8372943998771104
 40
0.8945054261372299
 40
0.9627895541962352
 40
1.020000580349045
 40
1.043992300975172
 40
1.071934345522947
 40
1.113121768772879
 40
1.145225199332204
 40
1.225483775412739
 40
1.329819923771447
 40
1.434156071994337
 40
1.514414647795759
 40
1.546518078208367
 40
1.578974764260112
 40
1.662678849314106
 40
1.777131373668327
 40
1.901833377474689
 40
2.016285900500479
 40
2.09998998252779
 40
2.132446666570148
 40
2.15878235448587
 40
2.216720867907661
 40
2.274659381334084
 40
2.300995069256018
 40
2.33345175406599
 40
2.417155836543643
 40
2.531608358985054
 40
2.65631036228352
 40
2.770762886388653
 40
2.854466971339789
 40
2.886923657363596
 40
2.91359797683303
 40
2.982389642874832
 40
3.076451716946695
 40
3.178937260458307
 40
3.272999334739708
 40
3.341791001058928
 40
3.36846532066324
 40
3.396976080738462
 40
3.472140811845698
 40
3.578408190308387
 40
3.700226892455824
 40
3.822045594634041
 40
3.928312973256148
 40
4.003477705314545
 40
4.03198845686661
 40
4.05832414479741
 40
4.116262658236575
 40
4.174201171400378
 40
4.200536849608312
 40
4.200536849608312
 40
4.200536849608312
 40
4.200536849608312
 10
185.9857704961609
 20
15.75844135397705
 30
0.0
 10
185.9938259544679
 20
15.75844359811687
 30
0.0
 10
186.0220200663241
 20
15.75845146032798
 30
0.0
 10
186.0765534803672
 20
15.75830754828371
 30
0.0
 10
186.1482891808603
 20
15.75909120499898
 30
0.0
 10
186.2236240137062
 20
15.75627570463811
 30
0.0
 10
186.2713052366438
 20
15.76298403400957
 30
0.0
 10
186.3195071245615
 20
15.75197563692431
 30
0.0
 10
186.3062571799873
 20
15.80546402997033
 30
0.0
 10
186.3151093964537
 20
15.86049583543092
 30
0.0
 10
186.3108698036285
 20
15.95419908726109
 30
0.0
 10
186.3133483481278
 20
16.04959482218532
 30
0.0
 10
186.3090938706059
 20
16.14356821983387
 30
0.0
 10
186.3179818665846
 20
16.19795062438013
 30
0.0
 10
186.3046977409944
 20
16.25233997691461
 30
0.0
 10
186.3514119277108
 20
16.23842216335357
 30
0.0
 10
186.3943254545736
 20
16.24103877374043
 30
0.0
 10
186.4605443456684
 20
16.23648422450755
 30
0.0
 10
186.5013342271798
 20
16.22778162134162
 30
0.0
 10
186.5525145690819
 20
16.23531799890194
 30
0.0
 10
186.52537204872
 20
16.19349970223292
 30
0.0
 10
186.4803096055707
 20
16.20284992072592
 30
0.0
 10
186.4942065045051
 20
16.13841207371838
 30
0.0
 10
186.4858414431653
 20
16.07378219627399
 30
0.0
 10
186.4903632178398
 20
15.97529141193888
 30
0.0
 10
186.4854741311167
 20
15.8759593284257
 30
0.0
 10
186.4950258992082
 20
15.81293115552969
 30
0.0
 10
186.47997614552
 20
15.7496401149979
 30
0.0
 10
186.5449159457208
 20
15.76515072944268
 30
0.0
 10
186.6116246399496
 20
15.75499387697813
 30
0.0
 10
186.7241435470827
 20
15.75988800099366
 30
0.0
 10
186.8390235448953
 20
15.75691204732784
 30
0.0
 10
186.9519871999746
 20
15.7622166418499
 30
0.0
 10
187.0176267597676
 20
15.7510730647209
 30
0.0
 10
187.0816276691052
 20
15.76744532319857
 30
0.0
 10
187.0703142889188
 20
15.71761689905275
 30
0.0
 10
187.0775339871508
 20
15.67416715212123
 30
0.0
 10
187.0703142611268
 20
15.63071745587445
 30
0.0
 10
187.0816277175993
 20
15.58088895196876
 30
0.0
 10
187.0176263598971
 20
15.59726166091362
 30
0.0
 10
186.9519921240458
 20
15.58611271661588
 30
0.0
 10
186.838997431733
 20
15.59144857206854
 30
0.0
 10
186.7242456548642
 20
15.58834345663821
 30
0.0
 10
186.6113183686861
 20
15.59364894682589
 30
0.0
 10
186.5455220903584
 20
15.58257300019593
 30
0.0
 10
186.4816097975358
 20
15.59887597847618
 30
0.0
 10
186.4936015165126
 20
15.54423524395741
 30
0.0
 10
186.4862104613006
 20
15.48854295047843
 30
0.0
 10
186.4892684841982
 20
15.39649689140569
 30
0.0
 10
186.4893422785683
 20
15.30179109873102
 30
0.0
 10
186.4860313578359
 20
15.20952782902266
 30
0.0
 10
186.4939505989903
 20
15.1543576873614
 30
0.0
 10
186.4815076611617
 20
15.10058169100137
 30
0.0
 10
186.5389116551632
 20
15.11453768862782
 30
0.0
 10
186.5994708140382
 20
15.10511457884227
 30
0.0
 10
186.7048680855081
 20
15.10942885928705
 30
0.0
 10
186.8204294070622
 20
15.10835504612032
 30
0.0
 10
186.9359688877797
 20
15.10725965900995
 30
0.0
 10
187.0414181130841
 20
15.11162525770633
 30
0.0
 10
187.1018680471804
 20
15.10209426030672
 30
0.0
 10
187.159283773911
 20
15.11617289606381
 30
0.0
 10
187.1477773876709
 20
15.06707153265683
 30
0.0
 10
187.153756678175
 20
15.02564658018649
 30
0.0
 10
187.1520311050801
 20
14.97651677966696
 30
0.0
 10
187.1521500122971
 20
14.94854428447608
 30
0.0
 10
187.1521871691833
 20
14.9398028819595
 30
0.0
 11
185.9857704961609
 21
15.75844135397705
 31
0.0
 11
186.0099436128281
 21
15.75844135397705
 31
0.0
 11
186.0703764044962
 21
15.75844135397705
 31
0.0
 11
186.1489390336648
 21
15.75844135397705
 31
0.0
 11
186.2275016628333
 21
15.75844135397705
 31
0.0
 11
186.2879344545013
 21
15.75844135397705
 31
0.0
 11
186.3121075711686
 21
15.75844135397705
 31
0.0
 11
186.3121075711686
 21
15.78541612620063
 31
0.0
 11
186.3121075711686
 21
15.85498264404039
 31
0.0
 11
186.3121075711686
 21
15.95010420924985
 31
0.0
 11
186.3121075711686
 21
16.05374412358256
 31
0.0
 11
186.3121075711686
 21
16.14886568879202
 31
0.0
 11
186.3121075711686
 21
16.21843220663178
 31
0.0
 11
186.3121075711686
 21
16.24540697885536
 31
0.0
 11
186.3360407604891
 21
16.243732131078
 31
0.0
 11
186.3931122119457
 21
16.23973826330121
 31
0.0
 11
186.461229750781
 21
16.23497138885795
 31
0.0
 11
186.5183012022376
 21
16.23097752108117
 31
0.0
 11
186.5422343915581
 21
16.22930267330381
 31
0.0
 11
186.5274972731229
 21
16.2055629337264
 31
0.0
 11
186.4886640249976
 21
16.19183767331312
 31
0.0
 11
186.4886640249976
 21
16.15973424225119
 31
0.0
 11
186.4886640249976
 21
16.07947566459636
 31
0.0
 11
186.4886640249976
 21
15.97513951364509
 31
0.0
 11
186.4886640249976
 21
15.87080336269381
 31
0.0
 11
186.4886640249976
 21
15.79054478503898
 31
0.0
 11
186.4886640249976
 21
15.75844135397705
 31
0.0
 11
186.5211207110824
 21
15.75844135397705
 31
0.0
 11
186.6048247962485
 21
15.75844135397705
 31
0.0
 11
186.7192773208634
 21
15.75844135397705
 31
0.0
 11
186.8439793252945
 21
15.75844135397705
 31
0.0
 11
186.9584318499094
 21
15.75844135397705
 31
0.0
 11
187.0421359350755
 21
15.75844135397705
 31
0.0
 11
187.0745926211603
 21
15.75844135397705
 31
0.0
 11
187.0745926211603
 21
15.73210566604961
 31
0.0
 11
187.0745926211603
 21
15.67416715260924
 31
0.0
 11
187.0745926211603
 21
15.61622863916888
 31
0.0
 11
187.0745926211603
 21
15.58989295124144
 31
0.0
 11
187.0421359350755
 21
15.58989295124144
 31
0.0
 11
186.9584318499094
 21
15.58989295124144
 31
0.0
 11
186.8439793252945
 21
15.58989295124144
 31
0.0
 11
186.7192773208634
 21
15.58989295124144
 31
0.0
 11
186.6048247962485
 21
15.58989295124144
 31
0.0
 11
186.5211207110824
 21
15.58989295124144
 31
0.0
 11
186.4886640249976
 21
15.58989295124144
 31
0.0
 11
186.4886640249976
 21
15.56321863152022
 31
0.0
 11
186.4886640249976
 21
15.49442696487075
 31
0.0
 11
186.4886640249976
 21
15.40036489006434
 31
0.0
 11
186.4886640249976
 21
15.29787934587228
 31
0.0
 11
186.4886640249976
 21
15.20381727106587
 31
0.0
 11
186.4886640249976
 21
15.1350256044164
 31
0.0
 11
186.4886640249976
 21
15.10835128469518
 31
0.0
 11
186.5171747850993
 21
15.10835128469518
 31
0.0
 11
186.5923395162766
 21
15.10835128469518
 31
0.0
 11
186.6986068948376
 21
15.10835128469518
 31
0.0
 11
186.8204255970904
 21
15.10835128469518
 31
0.0
 11
186.9422442993433
 21
15.10835128469518
 31
0.0
 11
187.0485116779043
 21
15.10835128469518
 31
0.0
 11
187.1236764090816
 21
15.10835128469518
 31
0.0
 11
187.1521871691833
 21
15.10835128469518
 31
0.0
 11
187.1521871691833
 21
15.08201559676773
 31
0.0
 11
187.1521871691833
 21
15.02407708332734
 31
0.0
 11
187.1521871691833
 21
14.96613856988695
 31
0.0
 11
187.1521871691833
 21
14.9398028819595
 31
0.0
  0
SPLINE
  5
A2
102
{ACAD_REACTORS
330
BF
102
}
330
48
100
AcDbEntity
  8
_U_30EC_U_30A4_U_30E4_U_30FC_1
  6
Continuous
 62
     2
100
AcDbSpline
210
0.0
220
0.0
230
1.0
 70
     8
 71
     3
 72
    62
 73
    58
 74
    56
 42
0.000000001
 43
0.0000000001
 44
0.00000001
 40
0.0
 40
0.0
 40
0.0
 40
0.0
 40
0.0598250028308485
 40
0.2024846486897331
 40
0.3727558389221031
 40
0.515415484793607
 40
0.5752404975785339
 40
0.933232677548708
 40
1.290451762839459
 40
1.602077253145798
 40
1.699931634111985
 40
1.799359756424888
 40
2.270120149656965
 40
2.804661928461394
 40
2.882342287383107
 40
3.076543185718956
 40
3.329004354835414
 40
3.581465524568237
 40
3.77566642454352
 40
3.85334678455814
 40
3.899120679594914
 40
3.98412934179194
 40
4.029903236817317
 40
4.105797496059472
 40
4.295533144152429
 40
4.542189486611671
 40
4.788845828875615
 40
4.978581476409998
 40
5.054475735244241
 40
5.621734664339238
 40
6.130867242037293
 40
6.225249780948469
 40
6.318913039727168
 40
6.663579954558763
 40
7.047498900224612
 40
7.43523079157556
 40
7.498943906667972
 40
7.650875181209965
 40
7.832212509001476
 40
7.984143783696862
 40
8.047856898902989
 40
8.091554632732498
 40
8.17270756696416
 40
8.216405300767885
 40
8.289021782160741
 40
8.462184160757058
 40
8.668861838005224
 40
8.84202421526373
 40
8.914640695474926
 40
8.989881580861132
 40
9.155411528827035
 40
9.320941477743816
 40
9.396182352487065
 40
9.454709011143583
 40
9.583467660170575
 40
9.712226309012797
 40
9.770752957989279
 40
9.770752957989279
 40
9.770752957989279
 40
9.770752957989279
 10
187.1521871691833
 20
14.9398028819595
 30
0.0
 10
187.1322348171623
 20
14.93980875568671
 30
0.0
 10
187.0647037716466
 20
14.93982863806157
 30
0.0
 10
186.9410612161788
 20
14.93949362520326
 30
0.0
 10
186.7863180150056
 20
14.94107673750512
 30
0.0
 10
186.669734948248
 20
14.93686078860495
 30
0.0
 10
186.455094263424
 20
14.95215205331626
 30
0.0
 10
186.8518948407228
 20
14.59198721286191
 30
0.0
 10
186.8945656069267
 20
14.37510503397167
 30
0.0
 10
187.318916214661
 20
14.19325062511451
 30
0.0
 10
187.1439821496073
 20
14.0898519656807
 30
0.0
 10
187.0194523925084
 20
13.87831523212722
 30
0.0
 10
186.7666277235942
 20
14.34806081001558
 30
0.0
 10
186.4797602893627
 20
14.9951151698452
 30
0.0
 10
186.490633592666
 20
14.68782672154694
 30
0.0
 10
186.488289277796
 20
14.52288616971779
 30
0.0
 10
186.4861096126411
 20
14.28879670711694
 30
0.0
 10
186.4980774396346
 20
14.04498072421784
 30
0.0
 10
186.4687984740631
 20
13.89855796860985
 30
0.0
 10
186.511452262547
 20
13.75113490174538
 30
0.0
 10
186.4239814005639
 20
13.76685797306221
 30
0.0
 10
186.3768527606744
 20
13.76694303543455
 30
0.0
 10
186.2898973207712
 20
13.7510942548291
 30
0.0
 10
186.3313474021722
 20
13.89527771422762
 30
0.0
 10
186.3029875004284
 20
14.03855052698456
 30
0.0
 10
186.3145973775299
 20
14.27674947365265
 30
0.0
 10
186.3124175648271
 20
14.50517235240346
 30
0.0
 10
186.3103111127993
 20
14.66705729375995
 30
0.0
 10
186.3208035438321
 20
14.98153709333751
 30
0.0
 10
186.0128963252894
 20
14.29229470872438
 30
0.0
 10
185.7055258267453
 20
13.8147675024304
 30
0.0
 10
185.5851367066275
 20
14.0374111263743
 30
0.0
 10
185.4074607910721
 20
14.15011034955565
 30
0.0
 10
185.8853326362894
 20
14.32548143465462
 30
0.0
 10
185.9353959057208
 20
14.56091929252032
 30
0.0
 10
186.3583799621717
 20
14.95322989344606
 30
0.0
 10
186.127675427354
 20
14.93655307029067
 30
0.0
 10
186.004968585934
 20
14.9426951894877
 30
0.0
 10
185.8325483095662
 20
14.93312822699574
 30
0.0
 10
185.7213224694449
 20
14.95448818489666
 30
0.0
 10
185.6025779627448
 20
14.9213626535742
 30
0.0
 10
185.6183169706686
 20
15.00203900606883
 30
0.0
 10
185.6178550933763
 20
15.04645414290854
 30
0.0
 10
185.6027881889931
 20
15.12967081778533
 30
0.0
 10
185.7372380935443
 20
15.09062651983884
 30
0.0
 10
185.8619755545745
 20
15.11739729328423
 30
0.0
 10
186.0628755237279
 20
15.10063949044053
 30
0.0
 10
186.1921540949353
 20
15.12204225913004
 30
0.0
 10
186.3328419928293
 20
15.08868778853421
 30
0.0
 10
186.2980927452614
 20
15.22651875785069
 30
0.0
 10
186.3222185666711
 20
15.34963257349482
 30
0.0
 10
186.2967086182392
 20
15.47024055670336
 30
0.0
 10
186.3333251146684
 20
15.60539865141494
 30
0.0
 10
186.2211417027769
 20
15.58094545781891
 30
0.0
 10
186.1280356457135
 20
15.59307749842022
 30
0.0
 10
186.0191547579819
 20
15.58957630069994
 30
0.0
 10
185.9569697640963
 20
15.58981755951602
 30
0.0
 10
185.9375369557245
 20
15.58989295124144
 30
0.0
 11
187.1521871691833
 21
14.9398028819595
 31
0.0
 11
187.0923621563982
 21
14.9398028819595
 31
0.0
 11
186.949702510526
 21
14.9398028819595
 31
0.0
 11
186.7794313202913
 21
14.9398028819595
 31
0.0
 11
186.6367716744191
 21
14.9398028819595
 31
0.0
 11
186.576946661634
 21
14.9398028819595
 31
0.0
 11
186.7679960754842
 21
14.63705127966891
 31
0.0
 11
186.9941272785629
 21
14.36051890576684
 31
0.0
 11
187.224452617337
 21
14.15061253493457
 31
0.0
 11
187.1521596330703
 21
14.08466403668717
 31
0.0
 11
187.0879364402643
 21
14.0087605905256
 31
0.0
 11
186.7732818215557
 21
14.35891458349363
 31
0.0
 11
186.4886640249976
 21
14.81138295143601
 31
0.0
 11
186.4886640249976
 21
14.73370259137313
 31
0.0
 11
186.4886640249976
 21
14.53950169121593
 31
0.0
 11
186.4886640249976
 21
14.28704052101157
 31
0.0
 11
186.4886640249976
 21
14.03457935080721
 31
0.0
 11
186.4886640249976
 21
13.84037845065001
 31
0.0
 11
186.4886640249976
 21
13.76269809058713
 31
0.0
 11
186.4428901295605
 21
13.76269809058713
 31
0.0
 11
186.3578814666058
 21
13.76269809058713
 31
0.0
 11
186.3121075711686
 21
13.76269809058713
 31
0.0
 11
186.3121075711686
 21
13.83859234982741
 31
0.0
 11
186.3121075711686
 21
14.02832799792812
 31
0.0
 11
186.3121075711686
 21
14.27498434045904
 31
0.0
 11
186.3121075711686
 21
14.52164068298996
 31
0.0
 11
186.3121075711686
 21
14.71137633109067
 31
0.0
 11
186.3121075711686
 21
14.78727059033095
 31
0.0
 11
185.9987626399266
 21
14.31440946197694
 31
0.0
 11
185.6352328662147
 21
13.95795177109382
 31
0.0
 11
185.5773927461627
 21
14.03253450545022
 31
0.0
 11
185.5094852305341
 21
14.09704322939243
 31
0.0
 11
185.7750721898319
 21
14.3167221979589
 31
0.0
 11
186.0233764972061
 21
14.60953395971697
 31
0.0
 11
186.226498280526
 21
14.9398028819595
 31
0.0
 11
186.1627851652721
 21
14.9398028819595
 31
0.0
 11
186.0108538904359
 21
14.9398028819595
 31
0.0
 11
185.8295165624055
 21
14.9398028819595
 31
0.0
 11
185.6775852875693
 21
14.9398028819595
 31
0.0
 11
185.6138721723154
 21
14.9398028819595
 31
0.0
 11
185.6138721723154
 21
14.98350061600208
 31
0.0
 11
185.6138721723154
 21
15.0646535506526
 31
0.0
 11
185.6138721723154
 21
15.10835128469518
 31
0.0
 11
185.6864886537961
 21
15.10835128469518
 31
0.0
 11
185.8596510327117
 21
15.10835128469518
 31
0.0
 11
186.0663287107723
 21
15.10835128469518
 31
0.0
 11
186.2394910896879
 21
15.10835128469518
 31
0.0
 11
186.3121075711686
 21
15.10835128469518
 31
0.0
 11
186.3121075711686
 21
15.18359217009304
 31
0.0
 11
186.3121075711686
 21
15.34912211796831
 31
0.0
 11
186.3121075711686
 21
15.51465206584359
 31
0.0
 11
186.3121075711686
 21
15.58989295124144
 31
0.0
 11
186.2535809125055
 21
15.58989295124144
 31
0.0
 11
186.1248222634466
 21
15.58989295124144
 31
0.0
 11
185.9960636143877
 21
15.58989295124144
 31
0.0
 11
185.9375369557245
 21
15.58989295124144
 31
0.0
  0
SPLINE
  5
A3
102
{ACAD_REACTORS
330
C0
102
}
330
48
100
AcDbEntity
  8
_U_30EC_U_30A4_U_30E4_U_30FC_1
  6
Continuous
 62
     2
100
AcDbSpline
210
0.0
220
0.0
230
1.0
 70
    11
 71
     3
 72
   124
 73
   120
 74
   118
 42
0.000000001
 43
0.0000000001
 44
0.00000001
 40
0.0
 40
0.0
 40
0.0
 40
0.0
 40
0.027818722962451
 40
0.1011590162384269
 40
0.2048470170590239
 40
0.3237088716559245
 40
0.4425707262522
 40
0.5462587270699547
 40
0.6195990203311798
 40
0.647417752257866
 40
0.6750060736115224
 40
0.7357003855242741
 40
0.7963946998054474
 40
0.8239830245571766
 40
0.854093381110286
 40
0.937339662940954
 40
1.063094687343235
 40
1.220731268638102
 40
1.399622220914776
 40
1.589140358637817
 40
1.778658496423955
 40
1.957549448940622
 40
2.115186030873244
 40
2.240941056914548
 40
2.324187341760646
 40
2.354297700109496
 40
2.381886024672002
 40
2.442580338710589
 40
2.503274652750611
 40
2.53086297731472
 40
2.560983949278673
 40
2.640393784453047
 40
2.75266286175927
 40
2.881361560118315
 40
3.010060258455362
 40
3.122329335705538
 40
3.20173917081818
 40
3.231860142753541
 40
3.264298024030597
 40
3.352343701778467
 40
3.48209522686899
 40
3.639650650173249
 40
3.811108022565706
 40
3.982565394928213
 40
4.140120818152794
 40
4.269872343141503
 40
4.357918020802566
 40
4.390355902044193
 40
4.423256253992791
 40
4.508104530073312
 40
4.62412156063708
 40
4.750528176031865
 40
4.866545206602312
 40
4.951393482692297
 40
4.984293834645698
 40
5.011450833242614
 40
5.071196230152402
 40
5.130941627057477
 40
5.158098625649143
 40
5.190998977601805
 40
5.275847253689688
 40
5.39186428425715
 40
5.518270899648667
 40
5.634287930209735
 40
5.719136206288408
 40
5.752036558236324
 40
5.78213094628335
 40
5.862783906229523
 40
5.979550131775391
 40
6.117984316640796
 40
6.263641154588343
 40
6.402075339414547
 40
6.518841564908343
 40
6.599494524815925
 40
6.629588912849163
 40
6.654403028226739
 40
6.713575149488507
 40
6.784199939329824
 40
6.843372060493926
 40
6.868186175803172
 40
6.896246243202258
 40
6.939586233758655
 40
6.967846564565283
 40
7.043584251090218
 40
7.153234334452078
 40
7.283231855734824
 40
7.420011856035856
 40
7.550009376580206
 40
7.659659458835606
 40
7.735397144417597
 40
7.763657474851769
 40
7.796409728011426
 40
7.8808760650967
 40
7.996370852466086
 40
8.12220844641898
 40
8.237703224799574
 40
8.322169562011268
 40
8.354921815206282
 40
8.382078813308063
 40
8.44182420920737
 40
8.501569605240519
 40
8.5287266034861
 40
8.561478856696148
 40
8.645945193878198
 40
8.76143998086571
 40
8.887277580764852
 40
9.002772362001373
 40
9.087238696661593
 40
9.119990949236048
 40
9.152428830613747
 40
9.240474508638961
 40
9.370226034149912
 40
9.527781457984796
 40
9.699238830981782
 40
9.870696203978975
 40
10.02825162781439
 40
10.15800315332601
 40
10.24604883135156
 40
10.27848670378559
 40
10.27848670378559
 40
10.27848670378559
 40
10.27848670378559
 10
195.3821827564383
 20
14.01410517385758
 30
0.0
 10
195.3914554737523
 20
14.01410498511275
 30
0.0
 10
195.4251744536861
 20
14.01410430876715
 30
0.0
 10
195.4934706812465
 20
14.01411807243305
 30
0.0
 10
195.592014171158
 20
14.01403224219546
 30
0.0
 10
195.7062066464812
 20
14.01441755612252
 30
0.0
 10
195.818589441707
 20
14.01300835897546
 30
0.0
 10
195.9214376600118
 20
14.01719117422244
 30
0.0
 10
195.9806839874849
 20
14.00823089251984
 30
0.0
 10
196.0371265937033
 20
14.02164434526062
 30
0.0
 10
196.0246255586955
 20
13.97087198613362
 30
0.0
 10
196.0329549635703
 20
13.92589320939068
 30
0.0
 10
196.024817084112
 20
13.88056752990489
 30
0.0
 10
196.0370529214457
 20
13.82931932408467
 30
0.0
 10
195.9747773490333
 20
13.84447955365277
 30
0.0
 10
195.9060513026868
 20
13.83359750710743
 30
0.0
 10
195.7782756749591
 20
13.83911304747973
 30
0.0
 10
195.6262984511644
 20
13.837008512537
 30
0.0
 10
195.4502695972521
 20
13.83771002588474
 30
0.0
 10
195.2644431934287
 20
13.83745237531293
 30
0.0
 10
195.0786167437174
 20
13.83771005144604
 30
0.0
 10
194.9025880142167
 20
13.83700841847732
 30
0.0
 10
194.7506104154193
 20
13.83911332229989
 30
0.0
 10
194.6228357664554
 20
13.83359680767641
 30
0.0
 10
194.5541077836579
 20
13.84448077125944
 30
0.0
 10
194.4918349042882
 20
13.8293178668421
 30
0.0
 10
194.5040616290017
 20
13.88057510805172
 30
0.0
 10
194.4960004462595
 20
13.92582473272426
 30
0.0
 10
194.5040675809891
 20
13.97106357955324
 30
0.0
 10
194.4918238487082
 20
14.02234176909959
 30
0.0
 10
194.5525017120696
 20
14.00749577363135
 30
0.0
 10
194.6162810745735
 20
14.01756448170736
 30
0.0
 10
194.7277314353502
 20
14.01294644212001
 30
0.0
 10
194.8497533443823
 20
14.01413328905469
 30
0.0
 10
194.9719538137823
 20
14.01515863900635
 30
0.0
 10
195.0829794287392
 20
14.01092475623403
 30
0.0
 10
195.1476517413958
 20
14.0201858452174
 30
0.0
 10
195.2091162810501
 20
14.00604423049683
 30
0.0
 10
195.1930065601337
 20
14.07235527884518
 30
0.0
 10
195.2042980327358
 20
14.14447790121976
 30
0.0
 10
195.198740082256
 20
14.27513760888286
 30
0.0
 10
195.200803506169
 20
14.42607323708242
 30
0.0
 10
195.2000167127295
 20
14.59335873107887
 30
0.0
 10
195.2007845215627
 20
14.76061110332303
 30
0.0
 10
195.1988038785628
 20
14.91163289269915
 30
0.0
 10
195.2041306156621
 20
15.04206069552995
 30
0.0
 10
195.1933101388425
 20
15.11465442605901
 30
0.0
 10
195.2090326429875
 20
15.18150469436799
 30
0.0
 10
195.143270813249
 20
15.16580512490825
 30
0.0
 10
195.0756367830764
 20
15.17609243083997
 30
0.0
 10
194.9615885293809
 20
15.17113786847122
 30
0.0
 10
194.8451242674902
 20
15.17414128030476
 30
0.0
 10
194.7306554121477
 20
15.1688030314339
 30
0.0
 10
194.6640324657811
 20
15.18001268074825
 30
0.0
 10
194.5990769715185
 20
15.16349132665012
 30
0.0
 10
194.6107989758707
 20
15.2147372047706
 30
0.0
 10
194.603283018912
 20
15.25950333784091
 30
0.0
 10
194.6107989878835
 20
15.30426944897962
 30
0.0
 10
194.5990769505345
 20
15.35551536129741
 30
0.0
 10
194.6640326339199
 20
15.33899381766816
 30
0.0
 10
194.730653333982
 20
15.35020571373945
 30
0.0
 10
194.8451352858063
 20
15.34485436710665
 30
0.0
 10
194.9615454436962
 20
15.34791188771118
 30
0.0
 10
195.075766017464
 20
15.34278499010709
 30
0.0
 10
195.1430150439226
 20
15.353457333556
 30
0.0
 10
195.2083325941439
 20
15.33742082669077
 30
0.0
 10
195.1941391448552
 20
15.39949685750054
 30
0.0
 10
195.2036059462995
 20
15.46586761628764
 30
0.0
 10
195.1990269004085
 20
15.58239972741967
 30
0.0
 10
195.2007696555948
 20
15.71426685022377
 30
0.0
 10
195.1997551495392
 20
15.85615960150274
 30
0.0
 10
195.2017191344372
 20
15.98769050702581
 30
0.0
 10
195.196466855385
 20
16.10524577283002
 30
0.0
 10
195.2073408763475
 20
16.16947789001586
 30
0.0
 10
195.1919536641853
 20
16.23108802545048
 30
0.0
 10
195.24075915378
 20
16.21702407382112
 30
0.0
 10
195.2853995564726
 20
16.21954742075315
 30
0.0
 10
195.3538643946742
 20
16.21512797401711
 30
0.0
 10
195.3959106169102
 20
16.20613025544036
 30
0.0
 10
195.4487544758775
 20
16.21411714866512
 30
0.0
 10
195.4207035002014
 20
16.17113917611674
 30
0.0
 10
195.3749142248594
 20
16.18259552043837
 30
0.0
 10
195.3869539073265
 20
16.12173520005137
 30
0.0
 10
195.3796086070641
 20
16.05769299468773
 30
0.0
 10
195.3831195826162
 20
15.94909368863912
 30
0.0
 10
195.3819806760173
 20
15.82494319144753
 30
0.0
 10
195.3819174780263
 20
15.69189719829879
 30
0.0
 10
195.3832872966868
 20
15.56797381249556
 30
0.0
 10
195.3791638801313
 20
15.45868337849339
 30
0.0
 10
195.3877763103564
 20
15.39608580094171
 30
0.0
 10
195.3746757454402
 20
15.33740133296367
 30
0.0
 10
195.4393884328198
 20
15.35362113810903
 30
0.0
 10
195.5060405953156
 20
15.34270260383313
 30
0.0
 10
195.6198779541102
 20
15.34793740173756
 30
0.0
 10
195.7357259122097
 20
15.34485547516915
 30
0.0
 10
195.849692426328
 20
15.35018259812513
 30
0.0
 10
195.9160341018099
 20
15.33904208166545
 30
0.0
 10
195.980718852548
 20
15.35546979593179
 30
0.0
 10
195.9689820772722
 20
15.30425925210052
 30
0.0
 10
195.9765168063041
 20
15.25950334121002
 30
0.0
 10
195.9689820992257
 20
15.21474739010028
 30
0.0
 10
195.9807188140737
 20
15.16353690871041
 30
0.0
 10
195.9160344075252
 20
15.1799642779422
 30
0.0
 10
195.8496886430824
 20
15.1688278444727
 30
0.0
 10
195.7357459487012
 20
15.17413115893121
 30
0.0
 10
195.6197995623054
 20
15.17114764593544
 30
0.0
 10
195.5062756882122
 20
15.17606892268395
 30
0.0
 10
195.4389231318804
 20
15.1658508751352
 30
0.0
 10
195.3734285122495
 20
15.18145996138817
 30
0.0
 10
195.3891713619218
 20
15.11463851827412
 30
0.0
 10
195.3783275998213
 20
15.0420705781588
 30
0.0
 10
195.3836581629792
 20
14.91162247614417
 30
0.0
 10
195.3817136151854
 20
14.76064558185226
 30
0.0
 10
195.3823133683215
 20
14.59322243934159
 30
0.0
 10
195.3821506559604
 20
14.42656176118373
 30
0.0
 10
195.3821895488136
 20
14.27360142921636
 30
0.0
 10
195.3821816413099
 20
14.14849178985706
 30
0.0
 10
195.3821828382746
 20
14.06507890991421
 30
0.0
 10
195.3821827716207
 20
14.02491778281976
 30
0.0
 10
195.3821827564383
 20
14.01410517385758
 30
0.0
 11
195.3821827564383
 21
14.01410517385758
 31
0.0
 11
195.4100014883675
 21
14.01410517385758
 31
0.0
 11
195.4833417816353
 21
14.01410517385758
 31
0.0
 11
195.5870297824622
 21
14.01410517385758
 31
0.0
 11
195.7058916370687
 21
14.01410517385758
 31
0.0
 11
195.8247534916751
 21
14.01410517385758
 31
0.0
 11
195.928441492502
 21
14.01410517385758
 31
0.0
 11
196.0017817857698
 21
14.01410517385758
 31
0.0
 11
196.029600517699
 21
14.01410517385758
 31
0.0
 11
196.029600517699
 21
13.98651684921171
 31
0.0
 11
196.029600517699
 21
13.92582253499078
 31
0.0
 11
196.029600517699
 21
13.86512822076985
 31
0.0
 11
196.029600517699
 21
13.83753989612398
 31
0.0
 11
195.9994901593494
 21
13.83753989612398
 31
0.0
 11
195.9162438745004
 21
13.83753989612398
 31
0.0
 11
195.7904888484521
 21
13.83753989612398
 31
0.0
 11
195.6328522665041
 21
13.83753989612398
 31
0.0
 11
195.4539613139564
 21
13.83753989612398
 31
0.0
 11
195.2644431761088
 21
13.83753989612398
 31
0.0
 11
195.0749250382612
 21
13.83753989612398
 31
0.0
 11
194.8960340857135
 21
13.83753989612398
 31
0.0
 11
194.7383975037655
 21
13.83753989612398
 31
0.0
 11
194.6126424777171
 21
13.83753989612398
 31
0.0
 11
194.5293961928682
 21
13.83753989612398
 31
0.0
 11
194.4992858345186
 21
13.83753989612398
 31
0.0
 11
194.4992858345186
 21
13.86512822076985
 31
0.0
 11
194.4992858345186
 21
13.92582253499078
 31
0.0
 11
194.4992858345186
 21
13.9865168492117
 31
0.0
 11
194.4992858345186
 21
14.01410517385758
 31
0.0
 11
194.5294068064946
 21
14.01410517385758
 31
0.0
 11
194.6088166417039
 21
14.01410517385758
 31
0.0
 11
194.7210857190689
 21
14.01410517385758
 31
0.0
 11
194.8497844175117
 21
14.01410517385758
 31
0.0
 11
194.9784831159545
 21
14.01410517385758
 31
0.0
 11
195.0907521933194
 21
14.01410517385758
 31
0.0
 11
195.1701620285289
 21
14.01410517385758
 31
0.0
 11
195.2002830005048
 21
14.01410517385758
 31
0.0
 11
195.2002830005048
 21
14.04654305523836
 31
0.0
 11
195.2002830005048
 21
14.13458873327191
 31
0.0
 11
195.2002830005048
 21
14.26434025879503
 31
0.0
 11
195.2002830005048
 21
14.42189568264454
 31
0.0
 11
195.2002830005048
 21
14.59335305565724
 31
0.0
 11
195.2002830005048
 21
14.76481042866995
 31
0.0
 11
195.2002830005048
 21
14.92236585251946
 31
0.0
 11
195.2002830005048
 21
15.05211737804258
 31
0.0
 11
195.2002830005048
 21
15.14016305607613
 31
0.0
 11
195.2002830005048
 21
15.17260093745691
 31
0.0
 11
195.1673826485528
 21
15.17260093745691
 31
0.0
 11
195.0825343724662
 21
15.17260093745691
 31
0.0
 11
194.9665173418988
 21
15.17260093745691
 31
0.0
 11
194.8401107265043
 21
15.17260093745691
 31
0.0
 11
194.7240936959369
 21
15.17260093745691
 31
0.0
 11
194.6392454198503
 21
15.17260093745691
 31
0.0
 11
194.6063450678983
 21
15.17260093745691
 31
0.0
 11
194.6063450678983
 21
15.19975793614803
 31
0.0
 11
194.6063450678983
 21
15.25950333326851
 31
0.0
 11
194.6063450678983
 21
15.31924873038899
 31
0.0
 11
194.6063450678983
 21
15.34640572908011
 31
0.0
 11
194.6392454198503
 21
15.34640572908011
 31
0.0
 11
194.7240936959369
 21
15.34640572908011
 31
0.0
 11
194.8401107265044
 21
15.34640572908011
 31
0.0
 11
194.9665173418987
 21
15.34640572908011
 31
0.0
 11
195.0825343724662
 21
15.34640572908011
 31
0.0
 11
195.1673826485528
 21
15.34640572908011
 31
0.0
 11
195.2002830005048
 21
15.34640572908011
 31
0.0
 11
195.2002830005048
 21
15.37650011731371
 31
0.0
 11
195.2002830005048
 21
15.45715307777975
 31
0.0
 11
195.2002830005048
 21
15.5739193041261
 31
0.0
 11
195.2002830005048
 21
15.71235349000064
 31
0.0
 11
195.2002830005048
 21
15.85801032905125
 31
0.0
 11
195.2002830005048
 21
15.99644451492579
 31
0.0
 11
195.2002830005048
 21
16.11321074127215
 31
0.0
 11
195.2002830005048
 21
16.19386370173818
 31
0.0
 11
195.2002830005048
 21
16.22395808997178
 31
0.0
 11
195.2250405288618
 21
16.22228324219443
 31
0.0
 11
195.2840777118669
 21
16.21828937441766
 31
0.0
 11
195.3545414464214
 21
16.21352249997442
 31
0.0
 11
195.4135786294265
 21
16.20952863219765
 31
0.0
 11
195.4383361577835
 21
16.2078537844203
 31
0.0
 11
195.423306722403
 21
16.1841581420651
 31
0.0
 11
195.3821827564383
 21
16.17047697887404
 31
0.0
 11
195.3821827564383
 21
16.14221664794832
 31
0.0
 11
195.3821827564383
 21
16.0664789610674
 31
0.0
 11
195.3821827564383
 21
15.95682887707561
 31
0.0
 11
195.3821827564383
 21
15.82683135481731
 31
0.0
 11
195.3821827564383
 21
15.69005135313684
 31
0.0
 11
195.3821827564383
 21
15.56005383087854
 31
0.0
 11
195.3821827564383
 21
15.45040374688675
 31
0.0
 11
195.3821827564383
 21
15.37466606000583
 31
0.0
 11
195.3821827564383
 21
15.34640572908011
 31
0.0
 11
195.4149350096115
 21
15.34640572908011
 31
0.0
 11
195.4994013467422
 21
15.34640572908011
 31
0.0
 11
195.6148961342476
 21
15.34640572908011
 31
0.0
 11
195.7407337385445
 21
15.34640572908011
 31
0.0
 11
195.8562285260498
 21
15.34640572908011
 31
0.0
 11
195.9406948631806
 21
15.34640572908011
 31
0.0
 11
195.9734471163538
 21
15.34640572908011
 31
0.0
 11
195.9734471163538
 21
15.31924873038899
 31
0.0
 11
195.9734471163538
 21
15.25950333326851
 31
0.0
 11
195.9734471163538
 21
15.19975793614804
 31
0.0
 11
195.9734471163538
 21
15.17260093745691
 31
0.0
 11
195.9406948631806
 21
15.17260093745691
 31
0.0
 11
195.8562285260498
 21
15.17260093745691
 31
0.0
 11
195.7407337385445
 21
15.17260093745691
 31
0.0
 11
195.6148961342476
 21
15.17260093745691
 31
0.0
 11
195.4994013467422
 21
15.17260093745691
 31
0.0
 11
195.4149350096114
 21
15.17260093745691
 31
0.0
 11
195.3821827564383
 21
15.17260093745691
 31
0.0
 11
195.3821827564383
 21
15.14016305607613
 31
0.0
 11
195.3821827564383
 21
15.05211737804258
 31
0.0
 11
195.3821827564383
 21
14.92236585251946
 31
0.0
 11
195.3821827564383
 21
14.76481042866995
 31
0.0
 11
195.3821827564383
 21
14.59335305565725
 31
0.0
 11
195.3821827564383
 21
14.42189568264454
 31
0.0
 11
195.3821827564383
 21
14.26434025879504
 31
0.0
 11
195.3821827564383
 21
14.13458873327191
 31
0.0
 11
195.3821827564383
 21
14.04654305523836
 31
0.0
 11
195.3821827564383
 21
14.01410517385758
 31
0.0
  0
SPLINE
  5
A4
102
{ACAD_REACTORS
330
C1
102
}
330
48
100
AcDbEntity
  8
_U_30EC_U_30A4_U_30E4_U_30FC_1
  6
Continuous
 62
     2
100
AcDbSpline
210
0.0
220
0.0
230
1.0
 70
    11
 71
     3
 72
   131
 73
   127
 74
   125
 42
0.000000001
 43
0.0000000001
 44
0.00000001
 40
0.0
 40
0.0
 40
0.0
 40
0.0
 40
0.0195577029826533
 40
0.0426490537461325
 40
0.286360757585659
 40
0.5344948436189464
 40
0.7842238845573559
 40
0.8737315789467979
 40
0.9803832810313707
 40
1.092842274517093
 40
1.199761146656876
 40
1.289788768186557
 40
1.351573580786229
 40
1.370727117561456
 40
1.416400936017849
 40
1.470914848355988
 40
1.516588666791744
 40
1.535742203552823
 40
1.634216592293171
 40
1.760283341175005
 40
1.897966686682065
 40
2.031216387368888
 40
2.049689751137882
 40
2.101115601646818
 40
2.179502577739936
 40
2.27885931831405
 40
2.393194462258708
 40
2.516516648383821
 40
2.64283451540595
 40
2.766156701983452
 40
2.880491846754567
 40
2.979848588358609
 40
3.058235565443786
 40
3.109661416668941
 40
3.128134780704116
 40
3.146783742386433
 40
3.191254343315294
 40
3.244332157315953
 40
3.288802758225856
 40
3.307451719895099
 40
3.327717853844713
 40
3.383747753580071
 40
3.468388665924462
 40
3.574487837698771
 40
3.694892515728875
 40
3.822449946852013
 40
3.950007377920402
 40
4.070412055800494
 40
4.176511227368049
 40
4.261152139501496
 40
4.317182039076689
 40
4.337448172964608
 40
4.620011002696242
 40
4.885096638397555
 40
4.945373043518351
 40
5.01410771048868
 40
5.070481727652094
 40
5.319246955636642
 40
5.584812164506155
 40
5.859000912057008
 40
6.13374693754219
 40
6.401732212968993
 40
6.420736683995584
 40
6.472845717451234
 40
6.550702743894162
 40
6.64695119387437
 40
6.754234497930694
 40
6.865196086587472
 40
6.972479390357931
 40
7.068727839772093
 40
7.146584865451102
 40
7.198693898189331
 40
7.217698368905472
 40
7.234950401630948
 40
7.276089864269991
 40
7.325191803516098
 40
7.366331266090482
 40
7.383583298769832
 40
7.402779163492209
 40
7.45338644325464
 40
7.524934666445642
 40
7.606953361405981
 40
7.688972056429133
 40
7.760520279784384
 40
7.811127559734626
 40
7.830323424546247
 40
7.847844055299877
 40
7.894799345666918
 40
7.962779392744606
 40
8.043374293560653
 40
8.12817414514956
 40
8.208769044817364
 40
8.276749090377065
 40
8.323704379669623
 40
8.341225010056357
 40
8.358497614800505
 40
8.401679126686682
 40
8.457815092185712
 40
8.513951057728116
 40
8.557132569708015
 40
8.574405174505086
 40
8.602340668616403
 40
8.643455660539946
 40
8.663225271966613
 40
8.715345156564261
 40
8.789031889628596
 40
8.873502045520326
 40
8.957972194323949
 40
9.03165892556784
 40
9.08377881123453
 40
9.103548423002993
 40
9.11955008312353
 40
9.160817522379832
 40
9.217244429110197
 40
9.278724491644683
 40
9.335151398295467
 40
9.376418837357763
 40
9.39242049730055
 40
9.40119630273477
 40
9.417494229384246
 40
9.426270027749519
 40
9.440875075477551
 40
9.47570249699873
 40
9.517270709865894
 40
9.552098131994063
 40
9.56670316988427
 40
9.56670316988427
 40
9.56670316988427
 40
9.56670316988427
 10
194.6170254148479
 20
15.67015871511028
 30
0.0
 10
194.6134345093371
 20
15.6645369070216
 30
0.0
 10
194.6056039123624
 20
15.65227754419115
 30
0.0
 10
194.5129968974549
 20
15.61601916040961
 30
0.0
 10
194.4887622233245
 20
15.40148444212719
 30
0.0
 10
194.3858709845938
 20
15.22197284509707
 30
0.0
 10
194.1220492364303
 20
15.03615573798144
 30
0.0
 10
194.2845471569179
 20
14.95959336566081
 30
0.0
 10
194.3607225760838
 20
14.89856693195444
 30
0.0
 10
194.4492171072758
 20
14.83515804544757
 30
0.0
 10
194.538993023311
 20
14.77525634219563
 30
0.0
 10
194.5883817636046
 20
14.72102154849208
 30
0.0
 10
194.674570815738
 20
14.69286240541834
 30
0.0
 10
194.6411260674229
 20
14.65713309652812
 30
0.0
 10
194.621467116631
 20
14.62550387991904
 30
0.0
 10
194.5919888217882
 20
14.58475872796073
 30
0.0
 10
194.568898944603
 20
14.55504663489642
 30
0.0
 10
194.5380205968357
 20
14.50211422668496
 30
0.0
 10
194.4729193365739
 20
14.62740334938902
 30
0.0
 10
194.3796000122416
 20
14.68213900233935
 30
0.0
 10
194.2950636285138
 20
14.73916423939343
 30
0.0
 10
194.1722498125743
 20
14.89675287427523
 30
0.0
 10
194.1764450847301
 20
14.82035806766836
 30
0.0
 10
194.1751478652677
 20
14.77361280161296
 30
0.0
 10
194.1758126448076
 20
14.695847858126
 30
0.0
 10
194.1755549986957
 20
14.59902068324423
 30
0.0
 10
194.1756431239921
 20
14.48650279078809
 30
0.0
 10
194.1756077302282
 20
14.365240859457
 30
0.0
 10
194.1756511758278
 20
14.24086897858961
 30
0.0
 10
194.1755199942406
 20
14.11967683631337
 30
0.0
 10
194.1759477562046
 20
14.00691148919743
 30
0.0
 10
194.174667820231
 20
13.91082913768744
 30
0.0
 10
194.1779759851044
 20
13.831138264687
 30
0.0
 10
194.1715197740086
 20
13.78815175788784
 30
0.0
 10
194.1806208705556
 20
13.74955432372043
 30
0.0
 10
194.1447910339935
 20
13.7581088772407
 30
0.0
 10
194.1115223815252
 20
13.75342519985446
 30
0.0
 10
194.060456257604
 20
13.75351298759784
 30
0.0
 10
194.0269723972813
 20
13.75794430283821
 30
0.0
 10
193.9907585408754
 20
13.74960793842509
 30
0.0
 10
194.0009782568665
 20
13.79145277179284
 30
0.0
 10
193.9936487887773
 20
13.83778560820173
 30
0.0
 10
193.9973633136103
 20
13.92374831106015
 30
0.0
 10
193.9959480554896
 20
14.02605142704849
 30
0.0
 10
193.9964105554638
 20
14.14453223931512
 30
0.0
 10
193.996277368623
 20
14.26957683153355
 30
0.0
 10
193.9963015910045
 20
14.3947582810705
 30
0.0
 10
193.9963354925551
 20
14.51286645379058
 30
0.0
 10
193.9962060293132
 20
14.61628748709516
 30
0.0
 10
193.9965507549081
 20
14.69932036153667
 30
0.0
 10
193.995869827869
 20
14.75143368521243
 30
0.0
 10
193.9994586600622
 20
14.87912907821362
 30
0.0
 10
193.7826171386436
 20
14.5804871681962
 30
0.0
 10
193.6021354921949
 20
14.35263981511509
 30
0.0
 10
193.5490322295611
 20
14.49373443289816
 30
0.0
 10
193.5200429133149
 20
14.54325767560944
 30
0.0
 10
193.4196648062818
 20
14.64641779790105
 30
0.0
 10
193.7405127723261
 20
14.72695035023781
 30
0.0
 10
193.8689897005429
 20
14.91066283036433
 30
0.0
 10
194.0906454325359
 20
15.11931995771764
 30
0.0
 10
194.1770224894068
 20
15.29339211228345
 30
0.0
 10
194.4549394229074
 20
15.56967051342512
 30
0.0
 10
194.3346247839284
 20
15.56534559551115
 30
0.0
 10
194.2863197351348
 20
15.56614856202553
 30
0.0
 10
194.2102377454905
 20
15.56574582146585
 30
0.0
 10
194.116701000975
 20
15.56590275611611
 30
0.0
 10
194.0117594788557
 20
15.56582502576224
 30
0.0
 10
193.9033887738717
 20
15.56595464378556
 30
0.0
 10
193.7981454235897
 20
15.56554393490692
 30
0.0
 10
193.7056237819412
 20
15.56682073671592
 30
0.0
 10
193.6268130800707
 20
15.5634076653485
 30
0.0
 10
193.5839674565379
 20
15.57023350036321
 30
0.0
 10
193.5449499586516
 20
15.56065064201124
 30
0.0
 10
193.5526365271863
 20
15.59420779565543
 30
0.0
 10
193.5485464404312
 20
15.62523550322234
 30
0.0
 10
193.5485531368814
 20
15.672365292709
 30
0.0
 10
193.5526239724911
 20
15.70340941646779
 30
0.0
 10
193.5449495574582
 20
15.73701861635901
 30
0.0
 10
193.5834819405495
 20
15.72748410420872
 30
0.0
 10
193.624122801448
 20
15.73397435498071
 30
0.0
 10
193.6951471850463
 20
15.73100150650254
 30
0.0
 10
193.7729318149633
 20
15.73174761399158
 30
0.0
 10
193.8507292246474
 20
15.73247814044525
 30
0.0
 10
193.9217232089907
 20
15.7295423551416
 30
0.0
 10
193.962427979182
 20
15.73595468772952
 30
0.0
 10
194.000985348991
 20
15.72650524176004
 30
0.0
 10
193.9927342754927
 20
15.76264692158784
 30
0.0
 10
193.9982346669359
 20
15.80129837613227
 30
0.0
 10
193.9955754206163
 20
15.86913528561839
 30
0.0
 10
193.9965815471533
 20
15.9459164153874
 30
0.0
 10
193.9960178018319
 20
16.02849393582757
 30
0.0
 10
193.9970714526592
 20
16.10517329229878
 30
0.0
 10
193.994267586313
 20
16.173319907767
 30
0.0
 10
194.0000702721304
 20
16.21132399809346
 30
0.0
 10
193.9915654551158
 20
16.24758448077646
 30
0.0
 10
194.0255610233125
 20
16.23755723771853
 30
0.0
 10
194.0594575683099
 20
16.24073266813706
 30
0.0
 10
194.1126669060345
 20
16.23508965640609
 30
0.0
 10
194.1660768574482
 20
16.23434774436425
 30
0.0
 10
194.1995914649489
 20
16.22819223482979
 30
0.0
 10
194.2388086183038
 20
16.23346029773594
 30
0.0
 10
194.2120263698492
 20
16.19253380793487
 30
0.0
 10
194.1708111001723
 20
16.20371204538111
 30
0.0
 10
194.1782641540874
 20
16.15867056192124
 30
0.0
 10
194.1742227952184
 20
16.11412278028144
 30
0.0
 10
194.1761714049641
 20
16.04223572621703
 30
0.0
 10
194.1752364849758
 20
15.96168630588771
 30
0.0
 10
194.176510719003
 20
15.88173995404994
 30
0.0
 10
194.1732043793863
 20
15.80841837083183
 30
0.0
 10
194.1802106179961
 20
15.76688643002568
 30
0.0
 10
194.1701440380126
 20
15.72752418568113
 30
0.0
 10
194.2029814803921
 20
15.73468063430981
 30
0.0
 10
194.236457729648
 20
15.73027243137945
 30
0.0
 10
194.2915053476019
 20
15.73217943347897
 30
0.0
 10
194.3489502595314
 20
15.73185366407288
 30
0.0
 10
194.4023026248309
 20
15.73106308733081
 30
0.0
 10
194.4398540896639
 20
15.73313959118074
 30
0.0
 10
194.4623172523237
 20
15.73022338167109
 30
0.0
 10
194.4751678073731
 20
15.73572552644056
 30
0.0
 10
194.4858255685888
 20
15.7380111819779
 30
0.0
 10
194.4986635650144
 20
15.74494972588054
 30
0.0
 10
194.514599103307
 20
15.72853046313672
 30
0.0
 10
194.5410623920891
 20
15.71709122319449
 30
0.0
 10
194.5726805253757
 20
15.69644687835191
 30
0.0
 10
194.5987255892151
 20
15.68116869628295
 30
0.0
 10
194.6128517723973
 20
15.67266976323184
 30
0.0
 10
194.6170254148479
 20
15.67015871511028
 30
0.0
 11
194.6170254148479
 21
15.67015871511028
 31
0.0
 11
194.6049990002243
 21
15.65473571164188
 31
0.0
 11
194.5848961795565
 21
15.64337406233918
 31
0.0
 11
194.4778986355813
 21
15.4244062023116
 31
0.0
 11
194.3477039934324
 21
15.21317201512161
 31
0.0
 11
194.199654036607
 21
15.01206059027479
 31
0.0
 11
194.2734958253734
 21
14.96147384935379
 31
0.0
 11
194.36056643118
 21
14.89988411653739
 31
0.0
 11
194.4518003750404
 21
14.83413160594426
 31
0.0
 11
194.5381321779687
 21
14.77105653169304
 31
0.0
 11
194.6104963609787
 21
14.71749910790242
 31
0.0
 11
194.6598274450842
 21
14.68029954869104
 31
0.0
 11
194.6486940702212
 21
14.66471410869494
 31
0.0
 11
194.6221452532402
 21
14.62754882870424
 31
0.0
 11
194.5904579555532
 21
14.58319026871533
 31
0.0
 11
194.5639091385723
 21
14.54602498872463
 31
0.0
 11
194.5527757637093
 21
14.53043954872853
 31
0.0
 11
194.4807013362947
 21
14.59754008690618
 31
0.0
 11
194.385285698538
 21
14.6799335417467
 31
0.0
 11
194.279326415217
 21
14.76785017366916
 31
0.0
 11
194.175621051109
 21
14.85152024309267
 31
0.0
 11
194.175621051109
 21
14.83304687900863
 31
0.0
 11
194.175621051109
 21
14.78162102763955
 31
0.0
 11
194.175621051109
 21
14.70323405030999
 31
0.0
 11
194.175621051109
 21
14.60387730834449
 31
0.0
 11
194.175621051109
 21
14.4895421630676
 31
0.0
 11
194.175621051109
 21
14.36621997580389
 31
0.0
 11
194.175621051109
 21
14.2399021078779
 31
0.0
 11
194.175621051109
 21
14.11657992061419
 31
0.0
 11
194.175621051109
 21
14.0022447753373
 31
0.0
 11
194.175621051109
 21
13.9028880333718
 31
0.0
 11
194.175621051109
 21
13.82450105604223
 31
0.0
 11
194.175621051109
 21
13.77307520467316
 31
0.0
 11
194.175621051109
 21
13.75460184058912
 31
0.0
 11
194.1569720893626
 21
13.75460184058912
 31
0.0
 11
194.1125014882749
 21
13.75460184058912
 31
0.0
 11
194.0594236740736
 21
13.75460184058912
 31
0.0
 11
194.0149530729859
 21
13.75460184058912
 31
0.0
 11
193.9963041112395
 21
13.75460184058912
 31
0.0
 11
193.9963041112395
 21
13.77486797460219
 31
0.0
 11
193.9963041112395
 21
13.83089787452066
 31
0.0
 11
193.9963041112395
 21
13.91553878716347
 31
0.0
 11
193.9963041112395
 21
14.02163795934953
 31
0.0
 11
193.9963041112395
 21
14.14204263789775
 31
0.0
 11
193.9963041112395
 21
14.26960006962705
 31
0.0
 11
193.9963041112395
 21
14.39715750135636
 31
0.0
 11
193.9963041112395
 21
14.51756217990458
 31
0.0
 11
193.9963041112395
 21
14.62366135209064
 31
0.0
 11
193.9963041112395
 21
14.70830226473344
 31
0.0
 11
193.9963041112395
 21
14.76433216465193
 31
0.0
 11
193.9963041112395
 21
14.78459829866499
 31
0.0
 11
193.7883272849481
 21
14.59331998274056
 31
0.0
 11
193.5763486358424
 21
14.43414885430811
 31
0.0
 11
193.5495629014482
 21
14.48814671952095
 31
0.0
 11
193.5138765415024
 21
14.54689140572027
 31
0.0
 11
193.4799697494123
 21
14.59192871537977
 31
0.0
 11
193.6830287742318
 21
14.73563387201055
 31
0.0
 11
193.881853195826
 21
14.91168423529989
 31
0.0
 11
194.0677041444178
 21
15.11327514524951
 31
0.0
 11
194.2318427502303
 21
15.3336019418611
 31
0.0
 11
194.3655301434864
 21
15.56585996513636
 31
0.0
 11
194.3465256724482
 21
15.56585996513636
 31
0.0
 11
194.2944166389562
 21
15.56585996513636
 31
0.0
 11
194.2165596124447
 21
15.56585996513636
 31
0.0
 11
194.1203111623478
 21
15.56585996513636
 31
0.0
 11
194.0130278580997
 21
15.56585996513636
 31
0.0
 11
193.9020662691345
 21
15.56585996513636
 31
0.0
 11
193.7947829648864
 21
15.56585996513636
 31
0.0
 11
193.6985345147895
 21
15.56585996513636
 31
0.0
 11
193.620677488278
 21
15.56585996513636
 31
0.0
 11
193.568568454786
 21
15.56585996513636
 31
0.0
 11
193.5495639837478
 21
15.56585996513636
 31
0.0
 11
193.5495639837478
 21
15.58311199790982
 31
0.0
 11
193.5495639837478
 21
15.62425146067732
 31
0.0
 11
193.5495639837478
 21
15.67335340010949
 31
0.0
 11
193.5495639837478
 21
15.71449286287699
 31
0.0
 11
193.5495639837478
 21
15.73174489565045
 31
0.0
 11
193.5687598486009
 21
15.73174489565045
 31
0.0
 11
193.6193671286684
 21
15.73174489565045
 31
0.0
 11
193.690915352212
 21
15.73174489565045
 31
0.0
 11
193.7729340474937
 21
15.73174489565045
 31
0.0
 11
193.8549527427753
 21
15.73174489565045
 31
0.0
 11
193.9265009663189
 21
15.73174489565045
 31
0.0
 11
193.9771082463864
 21
15.73174489565045
 31
0.0
 11
193.9963041112395
 21
15.73174489565045
 31
0.0
 11
193.9963041112395
 21
15.74926552655218
 31
0.0
 11
193.9963041112395
 21
15.79622081736882
 31
0.0
 11
193.9963041112395
 21
15.86420086526753
 31
0.0
 11
193.9963041112395
 21
15.94479576741549
 31
0.0
 11
193.9963041112395
 21
16.02959562097986
 31
0.0
 11
193.9963041112395
 21
16.11019052312782
 31
0.0
 11
193.9963041112395
 21
16.17817057102653
 31
0.0
 11
193.9963041112395
 21
16.22512586184317
 31
0.0
 11
193.9963041112395
 21
16.2426464927449
 31
0.0
 11
194.0135484112111
 21
16.24165806167519
 31
0.0
 11
194.05665916114
 21
16.23918698400091
 31
0.0
 11
194.1127031360477
 21
16.23597458302435
 31
0.0
 11
194.1687471109553
 21
16.2327621820478
 31
0.0
 11
194.2118578608842
 21
16.23029110437352
 31
0.0
 11
194.2291021608558
 21
16.22930267330381
 31
0.0
 11
194.2143774674851
 21
16.2055629337264
 31
0.0
 11
194.175621051109
 21
16.19183767331312
 31
0.0
 11
194.175621051109
 21
16.17206806177293
 31
0.0
 11
194.175621051109
 21
16.11994817680333
 31
0.0
 11
194.175621051109
 21
16.04626144288079
 31
0.0
 11
194.175621051109
 21
15.96179128448179
 31
0.0
 11
194.175621051109
 21
15.87732112608278
 31
0.0
 11
194.175621051109
 21
15.80363439216024
 31
0.0
 11
194.175621051109
 21
15.75151450719064
 31
0.0
 11
194.175621051109
 21
15.73174489565045
 31
0.0
 11
194.1916227112935
 21
15.73174489565045
 31
0.0
 11
194.232890150717
 21
15.73174489565045
 31
0.0
 11
194.2893170576837
 21
15.73174489565045
 31
0.0
 11
194.3507971204981
 21
15.73174489565045
 31
0.0
 11
194.4072240274648
 21
15.73174489565045
 31
0.0
 11
194.4484914668882
 21
15.73174489565045
 31
0.0
 11
194.4644931270728
 21
15.73174489565045
 31
0.0
 11
194.4728206422924
 21
15.73451387455921
 31
0.0
 11
194.4882860277004
 21
15.73965626396119
 31
0.0
 11
194.49661354292
 21
15.74242524286995
 31
0.0
 11
194.5091363776005
 21
15.73490952398294
 31
0.0
 11
194.5389985218386
 21
15.71698742509855
 31
0.0
 11
194.5746404359293
 21
15.69559653288168
 31
0.0
 11
194.6045025801674
 21
15.67767443399729
 31
0.0
 11
194.6170254148479
 21
15.67015871511028
 31
0.0
  0
SPLINE
  5
A5
102
{ACAD_REACTORS
330
C2
102
}
330
48
100
AcDbEntity
  8
_U_30EC_U_30A4_U_30E4_U_30FC_1
  6
Continuous
 62
     2
100
AcDbSpline
210
0.0
220
0.0
230
1.0
 70
    11
 71
     3
 72
    91
 73
    87
 74
    85
 42
0.000000001
 43
0.0000000001
 44
0.00000001
 40
0.0
 40
0.0
 40
0.0
 40
0.0
 40
0.0267532254356666
 40
0.0856103386464049
 40
0.1444674521996532
 40
0.1712206856618408
 40
0.203941600564243
 40
0.2955601971652377
 40
0.4362601844617096
 40
0.6162252844507428
 40
0.8256392189704875
 40
1.054685709844485
 40
1.293548478893549
 40
1.532411247938349
 40
1.761457738799614
 40
1.970871673298583
 40
2.150836773256779
 40
2.29153676049564
 40
2.383155356836775
 40
2.415876284101395
 40
2.442629517488036
 40
2.501486630949164
 40
2.560343744424308
 40
2.587096977826579
 40
2.617068194441006
 40
2.699247336756147
 40
2.822032643466488
 40
2.973822353258018
 40
3.14301470482346
 40
3.318007936880039
 40
3.487200288186901
 40
3.638989997548381
 40
3.761775303794937
 40
3.843954445753243
 40
3.873925662229939
 40
3.890812773500649
 40
3.907699884771802
 40
3.937960767857339
 40
3.980983618142343
 40
4.199085915228506
 40
4.439444339237296
 40
4.677588241260922
 40
5.050698317837807
 40
5.448212454763193
 40
5.855291218044718
 40
6.138575438885407
 40
6.417434507584227
 40
6.44455110439391
 40
6.50420761736321
 40
6.563864130314534
 40
6.590980727104127
 40
6.848609460381505
 40
7.109611990668461
 40
7.352910904446125
 40
7.557830220705496
 40
7.587518925913414
 40
7.652834077375833
 40
7.718149228845769
 40
7.747837934062074
 40
7.854880190301029
 40
7.976511257403567
 40
8.369487896592368
 40
8.75751495922369
 40
9.126072419331152
 40
9.460639380392243
 40
9.74669559303604
 40
9.777569943118786
 40
9.807050320931834
 40
9.830377336128967
 40
9.886003295436042
 40
9.952395569429958
 40
10.00802152870631
 40
10.03134854388223
 40
10.21356951009591
 40
10.42203479292877
 40
10.66154556731069
 40
10.9169378956431
 40
11.15832906556571
 40
11.18982674596629
 40
11.27286608520416
 40
11.39026653033358
 40
11.52484752840897
 40
11.65942852648457
 40
11.77682897161501
 40
11.85986831085694
 40
11.89136598230443
 40
11.89136598230443
 40
11.89136598230443
 40
11.89136598230443
 10
190.7027885008195
 20
14.70699600701773
 30
0.0
 10
190.7028237765287
 20
14.71587847311986
 30
0.0
 10
190.7029366710795
 20
14.74430237047347
 30
0.0
 10
190.7012984568487
 20
14.79409639169804
 30
0.0
 10
190.706975029291
 20
14.83657564478154
 30
0.0
 10
190.6956928731705
 20
14.88730154856847
 30
0.0
 10
190.7632296979031
 20
14.87012900740108
 30
0.0
 10
190.83880292107
 20
14.88290227165997
 30
0.0
 10
190.9828357056
 20
14.87629729457382
 30
0.0
 10
191.1569419185426
 20
14.87888462206466
 30
0.0
 10
191.3639599611002
 20
14.87800591955552
 30
0.0
 10
191.5894688172376
 20
14.87828207920027
 30
0.0
 10
191.8251162293406
 20
14.87818339658663
 30
0.0
 10
192.0607640531347
 20
14.87828184412767
 30
0.0
 10
192.2862717580626
 20
14.87800678190789
 30
0.0
 10
192.4932934632804
 20
14.87888186270735
 30
0.0
 10
192.6673888915288
 20
14.87630522678446
 30
0.0
 10
192.8114492071985
 20
14.88288290449213
 30
0.0
 10
192.8869691915293
 20
14.87016243405604
 30
0.0
 10
192.9545776037029
 20
14.88726400191686
 30
0.0
 10
192.9430840140676
 20
14.83674785802941
 30
0.0
 10
192.9505104581733
 20
14.79253252226502
 30
0.0
 10
192.9428838927986
 20
14.7486796650361
 30
0.0
 10
192.9546489459425
 20
14.69878374479329
 30
0.0
 10
192.8930788491983
 20
14.71393227712513
 30
0.0
 10
192.8256791738671
 20
14.70310665350675
 30
0.0
 10
192.7013004056221
 20
14.70852031626237
 30
0.0
 10
192.555442823657
 20
14.70649205390786
 30
0.0
 10
192.3893576440086
 20
14.70715777578388
 30
0.0
 10
192.2188412621724
 20
14.70689643521242
 30
0.0
 10
192.0519790855388
 20
14.70721553391095
 30
0.0
 10
191.9087346827105
 20
14.70635302590763
 30
0.0
 10
191.7773313869832
 20
14.70863300482989
 30
0.0
 10
191.7239859134655
 20
14.70407704374203
 30
0.0
 10
191.6485188456912
 20
14.70999914992879
 30
0.0
 10
191.6769075779231
 20
14.70094169343354
 30
0.0
 10
191.7033652409541
 20
14.69725912268929
 30
0.0
 10
191.6633522907701
 20
14.66654271968274
 30
0.0
 10
191.5713663691867
 20
14.67667591174638
 30
0.0
 10
191.5439396207069
 20
14.43032502247785
 30
0.0
 10
191.4478793967234
 20
14.27499558764377
 30
0.0
 10
191.1917277964473
 20
13.94525417931569
 30
0.0
 10
191.7627537732762
 20
14.08430022210453
 30
0.0
 10
192.0173656320516
 20
14.08291779973363
 30
0.0
 10
192.6279647048618
 20
13.99790569242087
 30
0.0
 10
192.3340698578082
 20
14.29685417558201
 30
0.0
 10
192.0133304286518
 20
14.44330856901782
 30
0.0
 10
192.1313543360433
 20
14.50025540818287
 30
0.0
 10
192.1724716466262
 20
14.52420099873348
 30
0.0
 10
192.2156812394411
 20
14.54599758811231
 30
0.0
 10
192.317457409445
 20
14.60928721253902
 30
0.0
 10
192.4328867625247
 20
14.35147151408781
 30
0.0
 10
192.6329591642277
 20
14.21616041113683
 30
0.0
 10
192.7269077387228
 20
14.03792795138883
 30
0.0
 10
192.9558829746392
 20
13.87997821027049
 30
0.0
 10
192.8596031846708
 20
13.82915972576301
 30
0.0
 10
192.8167959763779
 20
13.79881292523055
 30
0.0
 10
192.7718243528779
 20
13.7746613028146
 30
0.0
 10
192.7121720925213
 20
13.72552146747568
 30
0.0
 10
192.6789731061325
 20
13.8599747567361
 30
0.0
 10
192.5582013350795
 20
14.0159426528658
 30
0.0
 10
192.1970976005979
 20
13.88569928059556
 30
0.0
 10
191.838506195554
 20
13.90224694409482
 30
0.0
 10
191.4570920450079
 20
13.89331229351866
 30
0.0
 10
191.1703455282891
 20
13.82882671672403
 30
0.0
 10
190.8592055599711
 20
13.94230668192835
 30
0.0
 10
190.8268737818787
 20
13.83122259927769
 30
0.0
 10
190.7896178253318
 20
13.81196313850014
 30
0.0
 10
190.7865737632754
 20
13.85874784087297
 30
0.0
 10
190.7679892860607
 20
13.89806853919134
 30
0.0
 10
190.7512436616778
 20
13.95765983478233
 30
0.0
 10
190.7383730915753
 20
14.00201969871284
 30
0.0
 10
190.7042327806428
 20
14.091063311202
 30
0.0
 10
190.9482714457754
 20
14.0218104294377
 30
0.0
 10
191.1441394486671
 20
14.00030369057743
 30
0.0
 10
191.2395426381277
 20
14.28226484478463
 30
0.0
 10
191.2945135769597
 20
14.44363045421124
 30
0.0
 10
191.5159619357156
 20
14.71391177589739
 30
0.0
 10
191.3849239381216
 20
14.70548446853735
 30
0.0
 10
191.3110026555854
 20
14.70779008496972
 30
0.0
 10
191.1977459876243
 20
14.70671378321659
 30
0.0
 10
191.0694251807484
 20
14.7070763907651
 30
0.0
 10
190.9404252030414
 20
14.70697724466088
 30
0.0
 10
190.828784094629
 20
14.70699932712573
 30
0.0
 10
190.7514663970025
 20
14.70699579189671
 30
0.0
 10
190.7132876532009
 20
14.70699595845083
 30
0.0
 10
190.7027885008195
 20
14.70699600701773
 30
0.0
 11
190.7027885008195
 21
14.70699600701773
 31
0.0
 11
190.7027885008195
 21
14.73374924051798
 31
0.0
 11
190.7027885008195
 21
14.79260635421854
 31
0.0
 11
190.7027885008195
 21
14.8514634679191
 31
0.0
 11
190.7027885008195
 21
14.87821670141935
 31
0.0
 11
190.7355094280988
 21
14.87821670141935
 31
0.0
 11
190.8271280244808
 21
14.87821670141935
 31
0.0
 11
190.9678280117818
 21
14.87821670141935
 31
0.0
 11
191.1477931118179
 21
14.87821670141935
 31
0.0
 11
191.3572070464053
 21
14.87821670141935
 31
0.0
 11
191.5862535373604
 21
14.87821670141935
 31
0.0
 11
191.8251163064992
 21
14.87821670141935
 31
0.0
 11
192.0639790756381
 21
14.87821670141935
 31
0.0
 11
192.2930255665931
 21
14.87821670141935
 31
0.0
 11
192.5024395011805
 21
14.87821670141935
 31
0.0
 11
192.6824046012167
 21
14.87821670141935
 31
0.0
 11
192.8231045885176
 21
14.87821670141935
 31
0.0
 11
192.9147231848996
 21
14.87821670141935
 31
0.0
 11
192.9474441121789
 21
14.87821670141935
 31
0.0
 11
192.9474441121789
 21
14.8514634679191
 31
0.0
 11
192.9474441121789
 21
14.79260635421854
 31
0.0
 11
192.9474441121789
 21
14.73374924051798
 31
0.0
 11
192.9474441121789
 21
14.70699600701773
 31
0.0
 11
192.9174728954758
 21
14.70699600701773
 31
0.0
 11
192.8352937529027
 21
14.70699600701773
 31
0.0
 11
192.7125084457639
 21
14.70699600701773
 31
0.0
 11
192.5607187353642
 21
14.70699600701773
 31
0.0
 11
192.3915263830077
 21
14.70699600701773
 31
0.0
 11
192.216533149999
 21
14.70699600701773
 31
0.0
 11
192.0473407976426
 21
14.70699600701773
 31
0.0
 11
191.8955510872428
 21
14.70699600701773
 31
0.0
 11
191.7727657801041
 21
14.70699600701773
 31
0.0
 11
191.6905866375309
 21
14.70699600701773
 31
0.0
 11
191.6606154208278
 21
14.70699600701773
 31
0.0
 11
191.6766359412524
 21
14.70165583340794
 31
0.0
 11
191.692656461677
 21
14.69631565979815
 31
0.0
 11
191.670615568142
 21
14.67558114591444
 31
0.0
 11
191.6284861855363
 21
14.66685871536111
 31
0.0
 11
191.5365235541377
 21
14.46909247312657
 31
0.0
 11
191.4279078521763
 21
14.25467511978509
 31
0.0
 11
191.3127500824807
 21
14.04622559051621
 31
0.0
 11
191.685736667502
 21
14.0558244125303
 31
0.0
 11
192.083070003615
 21
14.06781232404995
 31
0.0
 11
192.4899342191145
 21
14.08102711828532
 31
0.0
 11
192.2983119496978
 21
14.28966761302481
 31
0.0
 11
192.0966752013698
 21
14.48229420151832
 31
0.0
 11
192.1204947794749
 21
14.49525327269565
 31
0.0
 11
192.1728978513061
 21
14.52376322928576
 31
0.0
 11
192.2253009231374
 21
14.55227318587588
 31
0.0
 11
192.2491205012425
 21
14.5652322570532
 31
0.0
 11
192.4387101558627
 21
14.39079508370269
 31
0.0
 11
192.6200310940435
 21
14.20305846374092
 31
0.0
 11
192.7777729231147
 21
14.01782380992437
 31
0.0
 11
192.8966252504058
 21
13.8508925350095
 31
0.0
 11
192.8715408217923
 21
13.8350120228607
 31
0.0
 11
192.8163550788425
 21
13.80007489613333
 31
0.0
 11
192.7611693358928
 21
13.76513776940596
 31
0.0
 11
192.7360849072793
 21
13.74925725725716
 31
0.0
 11
192.6775518151612
 21
13.8388782468181
 31
0.0
 11
192.6050015078457
 21
13.93650288221032
 31
0.0
 11
192.2125412924095
 21
13.91636286943759
 31
0.0
 11
191.824947406956
 21
13.89803302999773
 31
0.0
 11
191.4567378976213
 21
13.88202178722395
 31
0.0
 11
191.1224308105412
 21
13.86883756444947
 31
0.0
 11
190.8365441918517
 21
13.8589887850075
 31
0.0
 11
190.8211862321739
 21
13.83220523466695
 31
0.0
 11
190.7937434290546
 21
13.82143559057245
 31
0.0
 11
190.7867927192319
 21
13.84370299445577
 31
0.0
 11
190.7702179496548
 21
13.89680218833139
 31
0.0
 11
190.7504351601596
 21
13.96017864553777
 31
0.0
 11
190.7338603905825
 21
14.01327783941338
 31
0.0
 11
190.7269096807598
 21
14.0355452432967
 31
0.0
 11
190.9091199859153
 21
14.03751638912953
 31
0.0
 11
191.1174975848588
 21
14.04356211829472
 31
0.0
 11
191.2303203127216
 21
14.25483550301554
 31
0.0
 11
191.3407936722035
 21
14.48509813155879
 31
0.0
 11
191.4358254265627
 21
14.70699600701773
 31
0.0
 11
191.4043277461597
 21
14.70699600701773
 31
0.0
 11
191.3212884069153
 21
14.70699600701773
 31
0.0
 11
191.2038879617768
 21
14.70699600701773
 31
0.0
 11
191.0693069636911
 21
14.70699600701773
 31
0.0
 11
190.9347259656055
 21
14.70699600701773
 31
0.0
 11
190.8173255204669
 21
14.70699600701773
 31
0.0
 11
190.7342861812226
 21
14.70699600701773
 31
0.0
 11
190.7027885008195
 21
14.70699600701773
 31
0.0
  0
SPLINE
  5
A6
102
{ACAD_REACTORS
330
C3
102
}
330
48
100
AcDbEntity
  8
_U_30EC_U_30A4_U_30E4_U_30FC_1
  6
Continuous
 62
     2
100
AcDbSpline
210
0.0
220
0.0
230
1.0
 70
    11
 71
     3
 72
    35
 73
    31
 74
    29
 42
0.000000001
 43
0.0000000001
 44
0.00000001
 40
0.0
 40
0.0
 40
0.0
 40
0.0
 40
0.0335231036620232
 40
0.0713218571712192
 40
0.4278866681487343
 40
0.8116865841964557
 40
1.19819023800014
 40
1.561379546812771
 40
1.659983174622138
 40
1.759315573807268
 40
2.132719617231151
 40
2.525233363588901
 40
2.910815397779769
 40
3.265244364303355
 40
3.592606723582091
 40
3.964386154604038
 40
4.359942131737904
 40
4.758154118639463
 40
4.84384653870004
 40
4.936650065543328
 40
5.256616602537407
 40
5.581707404416143
 40
5.899719158308241
 40
6.198363494280846
 40
6.466301046615879
 40
6.493895311537144
 40
6.559697020196965
 40
6.638234543442512
 40
6.704036252154265
 40
6.731630508423043
 40
6.731630508423043
 40
6.731630508423043
 40
6.731630508423043
 10
191.9736010568668
 20
16.23463843719134
 30
0.0
 10
191.9676006097789
 20
16.22480690542323
 30
0.0
 10
191.9548344099156
 20
16.20388988579796
 30
0.0
 10
191.7949362006553
 20
16.17127126532701
 30
0.0
 10
192.2322025842337
 20
15.88206680336698
 30
0.0
 10
192.434539482826
 20
15.6804113835844
 30
0.0
 10
192.6819564267974
 20
15.43749387603278
 30
0.0
 10
193.1831513624605
 20
15.36047662757776
 30
0.0
 10
193.012556219897
 20
15.21876939174657
 30
0.0
 10
192.9383299463201
 20
15.01710366209109
 30
0.0
 10
192.6131432248188
 20
15.36956287174726
 30
0.0
 10
192.3277741670664
 20
15.53175212559562
 30
0.0
 10
192.0337604077658
 20
15.73687130053049
 30
0.0
 10
191.8084452691134
 20
16.21827488595455
 30
0.0
 10
191.5993085055521
 20
15.75343046609223
 30
0.0
 10
191.3207873674834
 20
15.5435095225291
 30
0.0
 10
191.0371383177208
 20
15.37424456359988
 30
0.0
 10
190.707863952783
 20
15.00142360907933
 30
0.0
 10
190.6277012318223
 20
15.19708014459001
 30
0.0
 10
190.4759724909745
 20
15.32491104190601
 30
0.0
 10
190.9083395826794
 20
15.40454031765934
 30
0.0
 10
191.0962565329766
 20
15.60026634915474
 30
0.0
 10
191.3468477420502
 20
15.81632996916757
 30
0.0
 10
191.5714350470162
 20
15.98190992300058
 30
0.0
 10
191.6259775409712
 20
16.26133964636827
 30
0.0
 10
191.7494661029011
 20
16.24737950408079
 30
0.0
 10
191.806027334452
 20
16.24521268867648
 30
0.0
 10
191.8761870984943
 20
16.2404685988136
 30
0.0
 10
191.9333414022105
 20
16.23709429350543
 30
0.0
 10
191.9644190320838
 20
16.23519854711119
 30
0.0
 10
191.9736010568668
 20
16.23463843719134
 30
0.0
 11
191.9736010568668
 21
16.23463843719134
 31
0.0
 11
191.9525319069884
 21
16.20856374969786
 31
0.0
 11
191.9174464559424
 21
16.19450114553469
 31
0.0
 11
192.1512374769094
 21
15.92527961131382
 31
0.0
 11
192.4414585957566
 21
15.6741340796926
 31
0.0
 11
192.7612797483684
 21
15.45710987618784
 31
0.0
 11
193.0838708706289
 21
15.29025232631637
 31
0.0
 11
193.0213299868076
 21
15.21402035584928
 31
0.0
 11
192.9688035818975
 21
15.12971197913425
 31
0.0
 11
192.6436279095814
 21
15.3132640483158
 31
0.0
 11
192.3237227768436
 21
15.54070139743428
 31
0.0
 11
192.0354200158608
 21
15.7967385512331
 31
0.0
 11
191.8050514588095
 21
16.06609003445566
 31
0.0
 11
191.5995531719516
 21
15.81126348721036
 31
0.0
 11
191.3288301341535
 21
15.55645182277756
 31
0.0
 11
191.0119538423246
 21
15.31969466354856
 31
0.0
 11
190.667995793374
 21
15.11903163191467
 31
0.0
 11
190.6218855341337
 21
15.19126067703553
 31
0.0
 11
190.5636970460348
 21
15.26355586798967
 31
0.0
 11
190.8433040489015
 21
15.41911456961745
 31
0.0
 11
191.1093004621154
 21
15.60601009790405
 31
0.0
 11
191.3499997459746
 21
15.81384496285209
 31
0.0
 11
191.5537153607774
 21
16.03222167446417
 31
0.0
 11
191.7087607668218
 21
16.25074274274288
 31
0.0
 11
191.7363041569864
 21
16.24906789496552
 31
0.0
 11
191.8019845489177
 21
16.24507402718874
 31
0.0
 11
191.880377274771
 21
16.24030715274548
 31
0.0
 11
191.9460576667021
 21
16.2363132849687
 31
0.0
 11
191.9736010568668
 21
16.23463843719134
 31
0.0
  0
SPLINE
  5
A7
102
{ACAD_REACTORS
330
C4
102
}
330
48
100
AcDbEntity
  8
_U_30EC_U_30A4_U_30E4_U_30FC_1
  6
Continuous
 62
     2
100
AcDbSpline
210
0.0
220
0.0
230
1.0
 70
    11
 71
     3
 72
    15
 73
    11
 74
     9
 42
0.000000001
 43
0.0000000001
 44
0.00000001
 40
0.0
 40
0.0
 40
0.0
 40
0.0
 40
0.2785535985096532
 40
0.5215624748198819
 40
0.6076917376040479
 40
0.693821000174125
 40
0.9405019146455466
 40
1.221691403489136
 40
1.300471877081053
 40
1.379252341684818
 40
1.379252341684818
 40
1.379252341684818
 40
1.379252341684818
 10
189.5681493630999
 20
16.22930267330381
 30
0.0
 10
189.6296017794178
 20
16.17691646592716
 30
0.0
 10
189.7446649974114
 20
16.07882876798223
 30
0.0
 10
190.0397348497243
 20
15.92889785897223
 30
0.0
 10
189.9025147631857
 20
15.84343227515014
 30
0.0
 10
189.8041227843778
 20
15.71085785201554
 30
0.0
 10
189.7130033590649
 20
16.01616985781416
 30
0.0
 10
189.3636839480654
 20
16.07967869465375
 30
0.0
 10
189.511925837657
 20
16.17896509880878
 30
0.0
 10
189.5494081874236
 20
16.21252348402382
 30
0.0
 10
189.5681493630999
 20
16.22930267330381
 30
0.0
 11
189.5681493630999
 21
16.22930267330381
 31
0.0
 11
189.7919222440596
 21
16.06341774278973
 31
0.0
 11
189.9695046306383
 21
15.89753281227565
 31
0.0
 11
189.9066308127979
 21
15.83866743034593
 31
0.0
 11
189.8437569949575
 21
15.7798020484162
 31
0.0
 11
189.6688535117724
 21
15.95375677059491
 31
0.0
 11
189.447825685614
 21
16.12757920110703
 31
0.0
 11
189.507987524357
 21
16.17844093720542
 31
0.0
 11
189.5681493630999
 21
16.22930267330381
 31
0.0
  0
SPLINE
  5
A8
102
{ACAD_REACTORS
330
C5
102
}
330
48
100
AcDbEntity
  8
_U_30EC_U_30A4_U_30E4_U_30FC_1
  6
Continuous
 62
     2
100
AcDbSpline
210
0.0
220
0.0
230
1.0
 70
    11
 71
     3
 72
    75
 73
    71
 74
    69
 42
0.000000001
 43
0.0000000001
 44
0.00000001
 40
0.0
 40
0.0
 40
0.0
 40
0.0
 40
0.0342546099129691
 40
0.1245622414432346
 40
0.2522385480897518
 40
0.398599192294068
 40
0.5449598364980821
 40
0.6726361431438816
 40
0.762943774673696
 40
0.7971983935297973
 40
1.101723623449743
 40
1.408591244036774
 40
1.433332471690478
 40
1.487763172450268
 40
1.542193873082094
 40
1.566935100592639
 40
1.923523931821897
 40
2.271755704953697
 40
2.590579755100911
 40
2.858943305581168
 40
2.889120339309193
 40
2.918305855191142
 40
2.941366645531264
 40
2.996357760973157
 40
3.061992318140702
 40
3.116983433626897
 40
3.140044223997577
 40
3.411273122936469
 40
3.732441619741079
 40
3.761068217532777
 40
3.837787499630342
 40
3.948858699125979
 40
4.080541049104357
 40
4.219093782625744
 40
4.350776132722296
 40
4.46184733240563
 40
4.538566614678364
 40
4.567193212544612
 40
4.59490757399887
 40
4.666381453557409
 40
4.764111044010991
 40
4.870592538125794
 40
4.968322128642217
 40
5.039796008286873
 40
5.067510369784332
 40
5.094263603185548
 40
5.153120716668183
 40
5.211977830150627
 40
5.238731063551634
 40
5.272290535138873
 40
5.363380529444734
 40
5.497618415781411
 40
5.660621563453653
 40
5.838007341749354
 40
6.015393119910706
 40
6.178396267038331
 40
6.312634151842283
 40
6.403724143059272
 40
6.437283612672368
 40
6.464036846260986
 40
6.522893960004601
 40
6.581751071483866
 40
6.608504301590812
 40
6.637253941280988
 40
6.711397748902839
 40
6.812778057283452
 40
6.923237199249228
 40
7.024617507623929
 40
7.09876131520761
 40
7.12751094600756
 40
7.12751094600756
 40
7.12751094600756
 40
7.12751094600756
 10
188.4418622390563
 20
14.95849128473265
 30
0.0
 10
188.4418622819705
 20
14.9470731340872
 30
0.0
 10
188.4418624481127
 20
14.9055525784263
 30
0.0
 10
188.4418593081785
 20
14.82146922003772
 30
0.0
 10
188.4418788279799
 20
14.70004497322329
 30
0.0
 10
188.4417912187736
 20
14.55980494047449
 30
0.0
 10
188.4421116235229
 20
14.42006556794577
 30
0.0
 10
188.4411605909738
 20
14.2974503889493
 30
0.0
 10
188.4431978595966
 20
14.21587074438044
 30
0.0
 10
188.4349433178743
 20
14.06271267077695
 30
0.0
 10
188.7430797940902
 20
14.2256023605472
 30
0.0
 10
189.0350645173733
 20
14.39482938688003
 30
0.0
 10
189.0408354448708
 20
14.25973235781911
 30
0.0
 10
189.045547171989
 20
14.21617221160444
 30
0.0
 10
189.0482535411917
 20
14.17211249350545
 30
0.0
 10
189.0672545672956
 20
14.02272590363135
 30
0.0
 10
188.6583942247303
 20
14.08681172241261
 30
0.0
 10
188.3793710348831
 20
13.97296341411017
 30
0.0
 10
188.1018081587166
 20
13.87364095811142
 30
0.0
 10
187.8099837184402
 20
13.91630687596357
 30
0.0
 10
187.7869144678658
 20
13.81321679744541
 30
0.0
 10
187.7537474383333
 20
13.78691091244469
 30
0.0
 10
187.7480653962739
 20
13.83455309036304
 30
0.0
 10
187.7284214559044
 20
13.87180336115069
 30
0.0
 10
187.7095089485623
 20
13.93007387847564
 30
0.0
 10
187.6942849867707
 20
13.97385201007805
 30
0.0
 10
187.6477246372936
 20
14.0875942104631
 30
0.0
 10
187.989089731245
 20
14.05576301120048
 30
0.0
 10
188.2679649367385
 20
14.02161435106481
 30
0.0
 10
188.2617753034906
 20
14.16913976479652
 30
0.0
 10
188.2630935452772
 20
14.24013150908832
 30
0.0
 10
188.2624831689947
 20
14.34719767958661
 30
0.0
 10
188.2625871570724
 20
14.47398529785998
 30
0.0
 10
188.2629987964055
 20
14.6084924349605
 30
0.0
 10
188.2613907841967
 20
14.73395549951185
 30
0.0
 10
188.2659902567924
 20
14.84505246719118
 30
0.0
 10
188.2564186502209
 20
14.90761886800689
 30
0.0
 10
188.270400178369
 20
14.96595388295002
 30
0.0
 10
188.2147384386703
 20
14.95289710582239
 30
0.0
 10
188.1575655197821
 20
14.961363077495
 30
0.0
 10
188.0616048925646
 20
14.95729976080636
 30
0.0
 10
187.9633767522821
 20
14.95970889852476
 30
0.0
 10
187.8672582457559
 20
14.95551600613388
 30
0.0
 10
187.8104648525812
 20
14.96429346441164
 30
0.0
 10
187.7550356873384
 20
14.95094936850122
 30
0.0
 10
187.7670679427917
 20
15.00036910959258
 30
0.0
 10
187.7592003173938
 20
15.04393988030396
 30
0.0
 10
187.7666295563828
 20
15.08830469118526
 30
0.0
 10
187.7551930564143
 20
15.13902297763992
 30
0.0
 10
187.8232102370133
 20
15.12162460757744
 30
0.0
 10
187.8968496879747
 20
15.1341745023719
 30
0.0
 10
188.0325064058211
 20
15.12799677011098
 30
0.0
 10
188.1884909024525
 20
15.13029203093085
 30
0.0
 10
188.3615926358143
 20
15.1294096826253
 30
0.0
 10
188.5346942964181
 20
15.13029207142409
 30
0.0
 10
188.6906789811216
 20
15.12799662955551
 30
0.0
 10
188.8263351889797
 20
15.13417486262432
 30
0.0
 10
188.8999756705652
 20
15.12162394218336
 30
0.0
 10
188.9679914174724
 20
15.13902373012143
 30
0.0
 10
188.9565590885922
 20
15.08830130414556
 30
0.0
 10
188.9639539458297
 20
15.04397060811109
 30
0.0
 10
188.9562039912269
 20
15.00028307550196
 30
0.0
 10
188.9681203741877
 20
14.95063590098477
 30
0.0
 10
188.9108170223616
 20
14.96461411338426
 30
0.0
 10
188.8520145789772
 20
14.95539755673255
 30
0.0
 10
188.7525293633199
 20
14.9595226816493
 30
0.0
 10
188.6494280098348
 20
14.95822760025888
 30
0.0
 10
188.5537846354573
 20
14.95854077077642
 30
0.0
 10
188.4857467971616
 20
14.95848776697146
 30
0.0
 10
188.4514462213442
 20
14.95849051871657
 30
0.0
 10
188.4418622390563
 20
14.95849128473265
 30
0.0
 11
188.4418622390563
 21
14.95849128473265
 31
0.0
 11
188.4418622390563
 21
14.92423666587186
 31
0.0
 11
188.4418622390563
 21
14.83392903432976
 31
0.0
 11
188.4418622390563
 21
14.7062527276668
 31
0.0
 11
188.4418622390563
 21
14.5598920834434
 31
0.0
 11
188.4418622390563
 21
14.41353143922001
 31
0.0
 11
188.4418622390563
 21
14.28585513255705
 31
0.0
 11
188.4418622390563
 21
14.19554750101495
 31
0.0
 11
188.4418622390563
 21
14.16129288215416
 31
0.0
 11
188.7391932644567
 21
14.22709475713769
 31
0.0
 11
189.0384623627245
 21
14.29496038212072
 31
0.0
 11
189.0405487124976
 21
14.27030727882828
 31
0.0
 11
189.0451386819986
 21
14.2160704515849
 31
0.0
 11
189.0497286514995
 21
14.16183362434152
 31
0.0
 11
189.0518150012727
 21
14.13718052104908
 31
0.0
 11
188.705639688924
 21
14.05163370140898
 31
0.0
 11
188.3669653138838
 21
13.97060877629901
 31
0.0
 11
188.0563731516688
 21
13.89862764024929
 31
0.0
 11
187.7944444777955
 21
13.84021218778992
 31
0.0
 11
187.7817515029292
 21
13.81283442738013
 31
0.0
 11
187.7569794787513
 21
13.79740260446735
 31
0.0
 11
187.7491867589501
 21
13.81910683390636
 31
0.0
 11
187.7306041194242
 21
13.87086307333786
 31
0.0
 11
187.70842483999
 21
13.93263664943351
 31
0.0
 11
187.689842200464
 21
13.98439288886501
 31
0.0
 11
187.6820494806628
 21
14.00609711830402
 31
0.0
 11
187.9482776335931
 21
14.05794001759666
 31
0.0
 11
188.2626334936288
 21
14.1237396877191
 31
0.0
 11
188.2626334936288
 21
14.15236628569624
 31
0.0
 11
188.2626334936288
 21
14.22908556827499
 31
0.0
 11
188.2626334936288
 21
14.34015676842631
 31
0.0
 11
188.2626334936288
 21
14.47183911912118
 31
0.0
 11
188.2626334936288
 21
14.61039185333057
 31
0.0
 11
188.2626334936288
 21
14.74207420402543
 31
0.0
 11
188.2626334936288
 21
14.85314540417675
 31
0.0
 11
188.2626334936288
 21
14.9298646867555
 31
0.0
 11
188.2626334936288
 21
14.95849128473265
 31
0.0
 11
188.2349191321107
 21
14.95849128473265
 31
0.0
 11
188.1634452524063
 21
14.95849128473265
 31
0.0
 11
188.06571566179
 21
14.95849128473265
 31
0.0
 11
187.9592341675364
 21
14.95849128473265
 31
0.0
 11
187.86150457692
 21
14.95849128473265
 31
0.0
 11
187.7900306972156
 21
14.95849128473265
 31
0.0
 11
187.7623163356975
 21
14.95849128473265
 31
0.0
 11
187.7623163356975
 21
14.9852445182329
 31
0.0
 11
187.7623163356975
 21
15.04410163193345
 31
0.0
 11
187.7623163356975
 21
15.102958745634
 31
0.0
 11
187.7623163356975
 21
15.12971197913425
 31
0.0
 11
187.7958758072874
 21
15.12971197913425
 31
0.0
 11
187.8869658016031
 21
15.12971197913425
 31
0.0
 11
188.0212036879629
 21
15.12971197913425
 31
0.0
 11
188.1842068356856
 21
15.12971197913425
 31
0.0
 11
188.3615926140897
 21
15.12971197913425
 31
0.0
 11
188.5389783924938
 21
15.12971197913425
 31
0.0
 11
188.7019815402164
 21
15.12971197913425
 31
0.0
 11
188.8362194265763
 21
15.12971197913425
 31
0.0
 11
188.9273094208918
 21
15.12971197913425
 31
0.0
 11
188.9608688924818
 21
15.12971197913425
 31
0.0
 11
188.9608688924818
 21
15.102958745634
 31
0.0
 11
188.9608688924818
 21
15.04410163193345
 31
0.0
 11
188.9608688924818
 21
14.9852445182329
 31
0.0
 11
188.9608688924818
 21
14.95849128473265
 31
0.0
 11
188.9321192527877
 21
14.95849128473265
 31
0.0
 11
188.8579754451555
 21
14.95849128473265
 31
0.0
 11
188.7565951367604
 21
14.95849128473265
 31
0.0
 11
188.6461359947777
 21
14.95849128473265
 31
0.0
 11
188.5447556863826
 21
14.95849128473265
 31
0.0
 11
188.4706118787504
 21
14.95849128473265
 31
0.0
 11
188.4418622390563
 21
14.95849128473265
 31
0.0
  0
SPLINE
  5
A9
102
{ACAD_REACTORS
330
C6
102
}
330
48
100
AcDbEntity
  8
_U_30EC_U_30A4_U_30E4_U_30FC_1
  6
Continuous
 62
     2
100
AcDbSpline
210
0.0
220
0.0
230
1.0
 70
    11
 71
     3
 72
    91
 73
    87
 74
    85
 42
0.000000001
 43
0.0000000001
 44
0.00000001
 40
0.0
 40
0.0
 40
0.0
 40
0.0
 40
0.0345987051695718
 40
0.1258134969461369
 40
0.2547723404888987
 40
0.4026032099154125
 40
0.5504340793416704
 40
0.679392922883608
 40
0.7706077146571035
 40
0.8052064287780925
 40
1.124852390615279
 40
1.427402236308872
 40
1.706356627453514
 40
1.955541417875197
 40
2.169485938566341
 40
2.344350786664798
 40
2.480568411561946
 40
2.590440557428968
 40
2.649189927151122
 40
2.749320643306326
 40
2.912632739880031
 40
3.147745656000228
 40
3.244827496385098
 40
3.338490056946638
 40
3.583815413207062
 40
3.761423943238414
 40
3.88695610436256
 40
3.985855451886743
 40
4.0917662553376
 40
4.250186473811821
 40
4.422734315084487
 40
4.628285684838564
 40
4.872093227758404
 40
5.152549652145505
 40
5.464967135837485
 40
5.8032014778524
 40
6.160362988813872
 40
6.193449448275927
 40
6.284170385501581
 40
6.419718138764451
 40
6.587285046385701
 40
6.774063446723615
 40
6.967245678113598
 40
7.154024078817584
 40
7.32159098702597
 40
7.457138740890328
 40
7.547859678556065
 40
7.580946138182624
 40
7.608533084714677
 40
7.669224367077656
 40
7.729915649429878
 40
7.757502595949929
 40
7.790278062553383
 40
7.880146277430881
 40
8.014419963180316
 40
8.180411842397817
 40
8.365434637679257
 40
8.55680107162253
 40
8.741823866830615
 40
8.907815745916125
 40
9.042089431507279
 40
9.131957646249404
 40
9.16473311279698
 40
9.415425063139905
 40
9.667986180958362
 40
9.69416980746253
 40
9.756607686047488
 40
9.831130315322294
 40
9.893568193899759
 40
9.919751820398576
 40
9.950967964690406
 40
9.996421631210518
 40
10.2208798103744
 40
10.44341866197528
 40
10.47847970788841
 40
10.57091337438741
 40
10.70159545461216
 40
10.85140174170347
 40
11.00120802880464
 40
11.13189010907369
 40
11.22432377582997
 40
11.25938480938943
 40
11.28697175596131
 40
11.34766303835906
 40
11.40835432042057
 40
11.43594125892091
 40
11.43594125892091
 40
11.43594125892091
 40
11.43594125892091
 10
190.0818114333289
 20
15.55242795125077
 30
0.0
 10
190.0702785844941
 20
15.55242790287915
 30
0.0
 10
190.0283409444998
 20
15.55242773704164
 30
0.0
 10
189.9434129719026
 20
15.55243125800909
 30
0.0
 10
189.8207688553128
 20
15.55240926435879
 30
0.0
 10
189.6791206916993
 20
15.55250801177054
 30
0.0
 10
189.537975369849
 20
15.55214686232421
 30
0.0
 10
189.4141351317904
 20
15.55321883609088
 30
0.0
 10
189.3317217825382
 20
15.55092249091268
 30
0.0
 10
189.1727791229692
 20
15.5604856937342
 30
0.0
 10
189.3503402353376
 20
15.19785394311371
 30
0.0
 10
189.3379739205452
 20
14.95243127723114
 30
0.0
 10
189.4064519473864
 20
14.66862501324835
 30
0.0
 10
189.469302432097
 20
14.43250999939035
 30
0.0
 10
189.5452253431729
 20
14.2332674039613
 30
0.0
 10
189.6303189577016
 20
14.07745347451373
 30
0.0
 10
189.7244607592935
 20
13.97657857781392
 30
0.0
 10
189.8282648207727
 20
13.92465852638965
 30
0.0
 10
189.9125872030774
 20
13.97606484379617
 30
0.0
 10
189.9351322179451
 20
14.09144544037517
 30
0.0
 10
189.9745730975371
 20
14.2188514970238
 30
0.0
 10
189.9202919734942
 20
14.53622328086756
 30
0.0
 10
190.0451218072473
 20
14.38982180140907
 30
0.0
 10
190.2019291513602
 20
14.35795300331168
 30
0.0
 10
190.0947720007056
 20
14.12421357767628
 30
0.0
 10
190.0808711209866
 20
13.95972776583658
 30
0.0
 10
190.0234709467225
 20
13.83130869122482
 30
0.0
 10
189.9335020145008
 20
13.76018802352828
 30
0.0
 10
189.8095274657878
 20
13.74432324142255
 30
0.0
 10
189.6634273196859
 20
13.77993797554173
 30
0.0
 10
189.5243894320283
 20
13.90000570500276
 30
0.0
 10
189.4102003962144
 20
14.07435682550323
 30
0.0
 10
189.3146141301485
 20
14.29946603111239
 30
0.0
 10
189.2318652572626
 20
14.56388246006444
 30
0.0
 10
189.1807179256411
 20
14.88187933098543
 30
0.0
 10
189.0770189207338
 20
15.15543728488913
 30
0.0
 10
189.204284120852
 20
15.56005818612866
 30
0.0
 10
189.0357890623019
 20
15.55112367849679
 30
0.0
 10
188.9511995787077
 20
15.55315961418363
 30
0.0
 10
188.8189876387627
 20
15.55213937388406
 30
0.0
 10
188.6560505094104
 20
15.55253230318429
 30
0.0
 10
188.4733759170532
 20
15.55235696313368
 30
0.0
 10
188.2847057373383
 20
15.55260105307468
 30
0.0
 10
188.1014469020189
 20
15.55185657906236
 30
0.0
 10
187.9404746832718
 20
15.55416360522425
 30
0.0
 10
187.8029808335276
 20
15.54799804883662
 30
0.0
 10
187.728959037231
 20
15.56032838458211
 30
0.0
 10
187.6613215186856
 20
15.54329323723556
 30
0.0
 10
187.6732373719269
 20
15.59524438447528
 30
0.0
 10
187.6655677285694
 20
15.64071424966529
 30
0.0
 10
187.6732592225115
 20
15.68614453703705
 30
0.0
 10
187.6613141797762
 20
15.7380239598457
 30
0.0
 10
187.7283588305866
 20
15.72119143490264
 30
0.0
 10
187.8017375665676
 20
15.73335409092671
 30
0.0
 10
187.9379128305272
 20
15.72727231074959
 30
0.0
 10
188.0973811801511
 20
15.72954834315058
 30
0.0
 10
188.2789173085835
 20
15.72881233998962
 30
0.0
 10
188.4658034862178
 20
15.72905954196134
 30
0.0
 10
188.6468012316834
 20
15.72886400799253
 30
0.0
 10
188.8080802578877
 20
15.72932234714839
 30
0.0
 10
188.9393882124886
 20
15.72812673751206
 30
0.0
 10
189.0225051322595
 20
15.73051347319743
 30
0.0
 10
189.1556236547813
 20
15.72230605725464
 30
0.0
 10
189.0645893502658
 20
15.97752868952655
 30
0.0
 10
188.9789633074419
 20
16.24164358328245
 30
0.0
 10
189.0990589003455
 20
16.22904442969165
 30
0.0
 10
189.1514264948544
 20
16.22694235763075
 30
0.0
 10
189.2214497569715
 20
16.22535399889657
 30
0.0
 10
189.2671922337817
 20
16.21602567538113
 30
0.0
 10
189.3220812646933
 20
16.22545966915426
 30
0.0
 10
189.2963574785681
 20
16.17733028655173
 30
0.0
 10
189.1825397571453
 20
16.18266829744167
 30
0.0
 10
189.3159346621135
 20
15.95449174576777
 30
0.0
 10
189.1943658735471
 20
15.72156856595922
 30
0.0
 10
189.3223188769413
 20
15.73087258884439
 30
0.0
 10
189.4049048406461
 20
15.7280100175468
 30
0.0
 10
189.5307214850824
 20
15.72923437412302
 30
0.0
 10
189.6741469838057
 20
15.72932431888965
 30
0.0
 10
189.8157420951728
 20
15.72746163183853
 30
0.0
 10
189.9459127249967
 20
15.73333075937163
 30
0.0
 10
190.0193452286191
 20
15.72070340823203
 30
0.0
 10
190.0891112922096
 20
15.73877563110412
 30
0.0
 10
190.0775772605396
 20
15.68612850546326
 30
0.0
 10
190.0833184346682
 20
15.64221317686547
 30
0.0
 10
190.0816615770911
 20
15.59089982676549
 30
0.0
 10
190.0817757561669
 20
15.56158792021634
 30
0.0
 10
190.0818114333289
 20
15.55242795125077
 30
0.0
 11
190.0818114333289
 21
15.55242795125077
 31
0.0
 11
190.0472127192051
 21
15.55242795125077
 31
0.0
 11
189.9559979274241
 21
15.55242795125077
 31
0.0
 11
189.8270390838717
 21
15.55242795125077
 31
0.0
 11
189.6792082144335
 21
15.55242795125077
 31
0.0
 11
189.5313773449954
 21
15.55242795125077
 31
0.0
 11
189.402418501443
 21
15.55242795125077
 31
0.0
 11
189.311203709662
 21
15.55242795125077
 31
0.0
 11
189.2766049955382
 21
15.55242795125077
 31
0.0
 11
189.3083140497693
 21
15.23435864930121
 31
0.0
 11
189.3527866656865
 21
14.9350952278808
 31
0.0
 11
189.4092389118319
 21
14.66191269512576
 31
0.0
 11
189.4768868567478
 21
14.42208605917227
 31
0.0
 11
189.5549465689761
 21
14.22289032815655
 31
0.0
 11
189.6426341170591
 21
14.07160051021477
 31
0.0
 11
189.7391655695388
 21
13.97549161348317
 31
0.0
 11
189.8437569949575
 21
13.94183864609792
 31
0.0
 11
189.8943077302786
 21
13.97177376978835
 31
0.0
 11
189.9310588991551
 21
14.06491619815047
 31
0.0
 11
189.9562640977528
 21
14.22627151712055
 31
0.0
 11
189.9721769222368
 21
14.46084531263482
 31
0.0
 11
190.0494082682583
 21
14.40202182306618
 31
0.0
 11
190.1327184184384
 21
14.3592188543269
 31
0.0
 11
190.1066365811216
 21
14.1152838866101
 31
0.0
 11
190.0673317805105
 21
13.94207902887562
 31
0.0
 11
190.0105702596765
 21
13.83011272445918
 31
0.0
 11
189.932118261691
 21
13.76989341669646
 31
0.0
 11
189.8277420296256
 21
13.75192954892318
 31
0.0
 11
189.6738595065096
 21
13.78957440012362
 31
0.0
 11
189.5388902376747
 21
13.89707348877404
 31
0.0
 11
189.4221739916162
 21
14.06627361744809
 31
0.0
 11
189.3230505368299
 21
14.28902158871944
 31
0.0
 11
189.2408596418113
 21
14.55716420516172
 31
0.0
 11
189.1749410750559
 21
14.8625482693486
 31
0.0
 11
189.1246346050593
 21
15.19702058385374
 31
0.0
 11
189.0892800003171
 21
15.55242795125077
 31
0.0
 11
189.0561935405844
 21
15.55242795125077
 31
0.0
 11
188.9654726026075
 21
15.55242795125077
 31
0.0
 11
188.8299248482185
 21
15.55242795125077
 31
0.0
 11
188.6623579392495
 21
15.55242795125077
 31
0.0
 11
188.4755795375324
 21
15.55242795125077
 31
0.0
 11
188.2823973048992
 21
15.55242795125077
 31
0.0
 11
188.0956189031822
 21
15.55242795125077
 31
0.0
 11
187.9280519942131
 21
15.55242795125077
 31
0.0
 11
187.7925042398241
 21
15.55242795125077
 31
0.0
 11
187.7017833018473
 21
15.55242795125077
 31
0.0
 11
187.6686968421145
 21
15.55242795125077
 31
0.0
 11
187.6686968421145
 21
15.58001489785846
 31
0.0
 11
187.6686968421145
 21
15.64070618039537
 31
0.0
 11
187.6686968421145
 21
15.70139746293229
 31
0.0
 11
187.6686968421145
 21
15.72898440953998
 31
0.0
 11
187.7014723087631
 21
15.72898440953998
 31
0.0
 11
187.7913405237673
 21
15.72898440953998
 31
0.0
 11
187.9256142097148
 21
15.72898440953998
 31
0.0
 11
188.0916060891932
 21
15.72898440953998
 31
0.0
 11
188.2766288847901
 21
15.72898440953998
 31
0.0
 11
188.4679953190931
 21
15.72898440953998
 31
0.0
 11
188.65301811469
 21
15.72898440953998
 31
0.0
 11
188.8190099941684
 21
15.72898440953998
 31
0.0
 11
188.9532836801159
 21
15.72898440953998
 31
0.0
 11
189.0431518951201
 21
15.72898440953998
 31
0.0
 11
189.0759273617687
 21
15.72898440953998
 31
0.0
 11
189.0659183950103
 21
15.97947647544959
 31
0.0
 11
189.0599112510663
 21
16.23196614552531
 31
0.0
 11
189.0860575870659
 21
16.23056921608122
 31
0.0
 11
189.1484065421419
 21
16.22723807663761
 31
0.0
 11
189.2228230369099
 21
16.22326220052749
 31
0.0
 11
189.2851719919859
 21
16.21993106108388
 31
0.0
 11
189.3113183279855
 21
16.21853413163979
 31
0.0
 11
189.298293111304
 21
16.1901652861608
 31
0.0
 11
189.2551649266405
 21
16.17581274276164
 31
0.0
 11
189.2574991961821
 21
15.95136670115108
 31
0.0
 11
189.2658452735903
 21
15.72898440953998
 31
0.0
 11
189.3009063195165
 21
15.72898440953998
 31
0.0
 11
189.3933399860495
 21
15.72898440953998
 31
0.0
 11
189.5240220663201
 21
15.72898440953998
 31
0.0
 11
189.6738283534596
 21
15.72898440953998
 31
0.0
 11
189.8236346405991
 21
15.72898440953998
 31
0.0
 11
189.9543167208697
 21
15.72898440953998
 31
0.0
 11
190.0467503874027
 21
15.72898440953998
 31
0.0
 11
190.0818114333289
 21
15.72898440953998
 31
0.0
 11
190.0818114333289
 21
15.70139746293229
 31
0.0
 11
190.0818114333289
 21
15.64070618039537
 31
0.0
 11
190.0818114333289
 21
15.58001489785846
 31
0.0
 11
190.0818114333289
 21
15.55242795125077
 31
0.0
  0
SPLINE
  5
AA
102
{ACAD_REACTORS
330
C7
102
}
330
48
100
AcDbEntity
  8
_U_30EC_U_30A4_U_30E4_U_30FC_1
  6
Continuous
 62
     2
100
AcDbSpline
210
0.0
220
0.0
230
1.0
 70
    11
 71
     3
 72
   118
 73
   114
 74
   112
 42
0.000000001
 43
0.0000000001
 44
0.00000001
 40
0.0
 40
0.0
 40
0.0
 40
0.0
 40
0.105470816297341
 40
0.246609827005191
 40
0.3965912874591263
 40
0.5285525069754005
 40
0.6156245055642274
 40
0.6431434105797587
 40
0.7036850037986291
 40
0.7642265984504688
 40
0.7917455052354992
 40
0.9287404319989929
 40
1.106572819088046
 40
1.287544879681046
 40
1.317578308030563
 40
1.3999280308572
 40
1.522968204799974
 40
1.675072986590594
 40
1.844616533180669
 40
2.019973001638733
 40
2.189516548880046
 40
2.341621331585382
 40
2.464661506320517
 40
2.54701122964708
 40
2.577044658168044
 40
2.603797890893115
 40
2.662655002908802
 40
2.721512114949614
 40
2.748265347702794
 40
2.77421530734487
 40
2.845959313407199
 40
2.954338556588398
 40
3.090194227585573
 40
3.244367517100538
 40
3.407699615844296
 40
3.571031714539445
 40
3.725205003920117
 40
3.861060674729619
 40
3.96943991771631
 40
4.041183923628982
 40
4.067133883212976
 40
4.311886746012162
 40
4.547897258335528
 40
4.764747083043982
 40
4.952749679951769
 40
5.045772974195907
 40
5.137862019644976
 40
5.330543169793032
 40
5.553448265244026
 40
5.795083855888182
 40
6.043293412177244
 40
6.285761695541185
 40
6.313902908752669
 40
6.384255941793259
 40
6.475714884766847
 40
6.56717382775891
 40
6.637526860839688
 40
6.665668074074051
 40
6.692018920328024
 40
6.749990782071094
 40
6.807962643790462
 40
6.834313490017936
 40
6.856393084245215
 40
6.913335195649839
 40
6.991194817302502
 40
7.076026942283764
 40
7.153886563725254
 40
7.210828674844836
 40
7.232908268931172
 40
7.258199334923693
 40
7.324875781592342
 40
7.419142481924999
 40
7.527204308841939
 40
7.635266135230517
 40
7.729532834168503
 40
7.796209279292825
 40
7.821500344594772
 40
7.844652988850842
 40
7.899863140541592
 40
7.965759128053702
 40
8.020969279770958
 40
8.044121924046424
 40
8.069356610160447
 40
8.10913439544122
 40
8.132238100190932
 40
8.193147867786298
 40
8.27926167887647
 40
8.377977512673684
 40
8.476693347146467
 40
8.562807160411522
 40
8.623716930826308
 40
8.64682063685326
 40
8.671988793774073
 40
8.734909185827984
 40
8.816705695188698
 40
8.89850220481527
 40
8.96142259737773
 40
8.986590754550843
 40
9.012941600732997
 40
9.070913462380082
 40
9.128885324081578
 40
9.155236170324898
 40
9.18040432792894
 40
9.243324721948014
 40
9.325121234211807
 40
9.406917746637461
 40
9.469838141977917
 40
9.495006288270691
 40
9.517811184378832
 40
9.57219209048683
 40
9.637098333281058
 40
9.691479239515253
 40
9.714284125643292
 40
9.714284125643292
 40
9.714284125643292
 40
9.714284125643292
 10
185.2874469028653
 20
15.2688916318772
 30
0.0
 10
185.3090990569037
 20
15.24111869242812
 30
0.0
 10
185.3597257109473
 20
15.17618054561237
 30
0.0
 10
185.4349383202592
 20
15.06891060312899
 30
0.0
 10
185.5248482274346
 20
14.95377438266626
 30
0.0
 10
185.5709169676672
 20
14.8535704574832
 30
0.0
 10
185.6655825294655
 20
14.78434006814943
 30
0.0
 10
185.6204439320413
 20
14.73771639678274
 30
0.0
 10
185.594704778579
 20
14.69660308866039
 30
0.0
 10
185.5645196708011
 20
14.66065971727939
 30
0.0
 10
185.5193684730562
 20
14.58579782596094
 30
0.0
 10
185.4710504458562
 20
14.80782524253605
 30
0.0
 10
185.3968539713074
 20
14.84510677337709
 30
0.0
 10
185.2836047324606
 20
15.116102021306
 30
0.0
 10
185.288513357817
 20
15.00095328446229
 30
0.0
 10
185.2868486556306
 20
14.92836675781627
 30
0.0
 10
185.2876830076714
 20
14.80625588483987
 30
0.0
 10
185.2873609540265
 20
14.65913800810461
 30
0.0
 10
185.2875076912455
 20
14.49307063956557
 30
0.0
 10
185.2872950092722
 20
14.32187554608603
 30
0.0
 10
185.2879497252034
 20
14.15552828635499
 30
0.0
 10
185.2859192461139
 20
14.00935173055694
 30
0.0
 10
185.291346039993
 20
13.88471047474612
 30
0.0
 10
185.2804930868708
 20
13.81718656540627
 30
0.0
 10
185.2956739155555
 20
13.75549061417023
 30
0.0
 10
185.2457895108133
 20
13.76727503897002
 30
0.0
 10
185.2017150342522
 20
13.7594382277997
 30
0.0
 10
185.15823716302
 20
13.76760441372704
 30
0.0
 10
185.1092346786489
 20
13.75538056738469
 30
0.0
 10
185.1218731234825
 20
13.80960667249314
 30
0.0
 10
185.113018296845
 20
13.86936918907558
 30
0.0
 10
185.1175058770314
 20
13.97922029044371
 30
0.0
 10
185.1157960135991
 20
14.11029975405679
 30
0.0
 10
185.1163550915987
 20
14.26198011444329
 30
0.0
 10
185.1161928768694
 20
14.42211074929954
 30
0.0
 10
185.1162269924675
 20
14.58236865674567
 30
0.0
 10
185.1162514960126
 20
14.73370247520439
 30
0.0
 10
185.1161453543226
 20
14.86582156338601
 30
0.0
 10
185.1164299141932
 20
14.97294802533193
 30
0.0
 10
185.1158675547567
 20
15.03808619579473
 30
0.0
 10
185.118076508369
 20
15.16618957858676
 30
0.0
 10
185.0319435998602
 20
14.79097610391575
 30
0.0
 10
184.95551408185
 20
14.63918193123394
 30
0.0
 10
184.8660040767833
 20
14.47766206446307
 30
0.0
 10
184.7640413217326
 20
14.20471848820173
 30
0.0
 10
184.7187976491038
 20
14.36717346596509
 30
0.0
 10
184.610235594167
 20
14.45605432058122
 30
0.0
 10
184.7995791751753
 20
14.60549794961409
 30
0.0
 10
184.85653405457
 20
14.79749136974926
 30
0.0
 10
184.9717520993353
 20
15.02899622906757
 30
0.0
 10
184.9940151630132
 20
15.21797259759063
 30
0.0
 10
185.1771905152139
 20
15.4945408932593
 30
0.0
 10
185.0538033597552
 20
15.48698978832094
 30
0.0
 10
184.9925684166834
 20
15.48856772366119
 30
0.0
 10
184.9081999617064
 20
15.48882592573672
 30
0.0
 10
184.8204235085966
 20
15.48544845751206
 30
0.0
 10
184.7656768696122
 20
15.4939481498202
 30
0.0
 10
184.7104703026024
 20
15.48048561049788
 30
0.0
 10
184.7222823035536
 20
15.52931442126763
 30
0.0
 10
184.7142496151793
 20
15.57269004896708
 30
0.0
 10
184.7228186104678
 20
15.61509438309573
 30
0.0
 10
184.7102943409157
 20
15.66267796552118
 30
0.0
 10
184.7555101538735
 20
15.65267212995109
 30
0.0
 10
184.8014815562723
 20
15.65894105174061
 30
0.0
 10
184.877722204771
 20
15.65593561405872
 30
0.0
 10
184.9561296131993
 20
15.65770448278541
 30
0.0
 10
185.0323992648932
 20
15.65464793981659
 30
0.0
 10
185.0783009459475
 20
15.66103971376177
 30
0.0
 10
185.12317339654
 20
15.65093822978896
 30
0.0
 10
185.1105552275634
 20
15.70157201581898
 30
0.0
 10
185.1191936582707
 20
15.7550126188207
 30
0.0
 10
185.1152361595443
 20
15.8486325513168
 30
0.0
 10
185.1162325068335
 20
15.95112606688924
 30
0.0
 10
185.1171927413073
 20
16.05353270248163
 30
0.0
 10
185.1133211458005
 20
16.14735929609321
 30
0.0
 10
185.1217789814364
 20
16.20036542840353
 30
0.0
 10
185.1093075932835
 20
16.25211435651188
 30
0.0
 10
185.154210638985
 20
16.23850747226757
 30
0.0
 10
185.1955083836771
 20
16.24100480320585
 30
0.0
 10
185.259534428105
 20
16.23648060574488
 30
0.0
 10
185.2986111148785
 20
16.22781003043308
 30
0.0
 10
185.3476543498741
 20
16.23515102070689
 30
0.0
 10
185.322508003059
 20
16.19602896051755
 30
0.0
 10
185.2815901333724
 20
16.20563842455809
 30
0.0
 10
185.2910109616604
 20
16.15540148169778
 30
0.0
 10
185.2855647318746
 20
16.10385945639491
 30
0.0
 10
185.2881699601804
 20
16.0195970758452
 30
0.0
 10
185.2870102202153
 20
15.92559135583408
 30
0.0
 10
185.2883591064231
 20
15.83196865395525
 30
0.0
 10
185.2849970101508
 20
15.74679517552223
 30
0.0
 10
185.2920959917769
 20
15.69716856072044
 30
0.0
 10
185.2812569154545
 20
15.64993694969989
 30
0.0
 10
185.3304010225245
 20
15.66201674936851
 30
0.0
 10
185.3794877630147
 20
15.65447393363011
 30
0.0
 10
185.4573714280641
 20
15.65686070361432
 30
0.0
 10
185.5350365172897
 20
15.65899381905415
 30
0.0
 10
185.5845393931354
 20
15.65193391922455
 30
0.0
 10
185.6344594750639
 20
15.66360151936214
 30
0.0
 10
185.622319851688
 20
15.61540235371393
 30
0.0
 10
185.6305838229143
 20
15.57249219801236
 30
0.0
 10
185.6223198650783
 20
15.52958201851384
 30
0.0
 10
185.6344594549855
 20
15.48138288754865
 30
0.0
 10
185.5845395158746
 20
15.4930503447151
 30
0.0
 10
185.5350350651203
 20
15.48599202435046
 30
0.0
 10
185.4573784382972
 20
15.48811665228603
 30
0.0
 10
185.379464386576
 20
15.4905338936576
 30
0.0
 10
185.3304500352716
 20
15.48291848194485
 30
0.0
 10
185.2813246108943
 20
15.49507952557592
 30
0.0
 10
185.2915559988571
 20
15.45073013424158
 30
0.0
 10
185.2856677678054
 20
15.40925436202912
 30
0.0
 10
185.2878788305568
 20
15.34915394315303
 30
0.0
 10
185.2874109346147
 20
15.3022578276289
 30
0.0
 10
185.2874386992913
 20
15.27650146418197
 30
0.0
 10
185.2874469028653
 20
15.2688916318772
 30
0.0
 11
185.2874469028653
 21
15.2688916318772
 31
0.0
 11
185.3516977534484
 21
15.18524999634257
 31
0.0
 11
185.4348258835499
 21
15.07118889748221
 31
0.0
 11
185.5216831568896
 21
14.94891767195724
 31
0.0
 11
185.5971214371872
 21
14.84064565642877
 31
0.0
 11
185.6459925881626
 21
14.7685821875579
 31
0.0
 11
185.6296821285093
 21
14.74641782124399
 31
0.0
 11
185.5937991172719
 21
14.69765621535339
 31
0.0
 11
185.5579161060346
 21
14.6488946094628
 31
0.0
 11
185.5416056463813
 21
14.62673024314889
 31
0.0
 11
185.4763067109446
 21
14.74716139023813
 31
0.0
 11
185.3848434243234
 21
14.89966983670207
 31
0.0
 11
185.2874469028653
 21
15.05219788193142
 31
0.0
 11
185.2874469028653
 21
15.02216445328253
 31
0.0
 11
185.2874469028653
 21
14.93981472956783
 31
0.0
 11
185.2874469028653
 21
14.81677455413528
 31
0.0
 11
185.2874469028653
 21
14.66466977033284
 31
0.0
 11
185.2874469028653
 21
14.49512622150846
 31
0.0
 11
185.2874469028653
 21
14.3197697510101
 31
0.0
 11
185.2874469028653
 21
14.15022620218571
 31
0.0
 11
185.2874469028653
 21
13.99812141838327
 31
0.0
 11
185.2874469028653
 21
13.87508124295072
 31
0.0
 11
185.2874469028653
 21
13.79273151923602
 31
0.0
 11
185.2874469028653
 21
13.76269809058713
 31
0.0
 11
185.2606936700409
 21
13.76269809058713
 31
0.0
 11
185.2018365578272
 21
13.76269809058713
 31
0.0
 11
185.1429794456134
 21
13.76269809058713
 31
0.0
 11
185.116226212789
 21
13.76269809058713
 31
0.0
 11
185.116226212789
 21
13.78864805031251
 31
0.0
 11
185.116226212789
 21
13.86039205661208
 31
0.0
 11
185.116226212789
 21
13.96877130017102
 31
0.0
 11
185.116226212789
 21
14.10462697167448
 31
0.0
 11
185.116226212789
 21
14.25880026180761
 31
0.0
 11
185.116226212789
 21
14.42213236125559
 31
0.0
 11
185.116226212789
 21
14.58546446070357
 31
0.0
 11
185.116226212789
 21
14.7396377508367
 31
0.0
 11
185.116226212789
 21
14.87549342234016
 31
0.0
 11
185.116226212789
 21
14.98387266589909
 31
0.0
 11
185.116226212789
 21
15.05561667219867
 31
0.0
 11
185.116226212789
 21
15.08156663192405
 31
0.0
 11
185.0379865861721
 21
14.84965603302372
 31
0.0
 11
184.9497110789303
 21
14.63077616328678
 31
0.0
 11
184.8544106930045
 21
14.43598991333547
 31
0.0
 11
184.7550964303356
 21
14.27636017379202
 31
0.0
 11
184.7109198342405
 21
14.35822446196599
 31
0.0
 11
184.658805738348
 21
14.43414885430811
 31
0.0
 11
184.7627302590299
 21
14.59640087926758
 31
0.0
 11
184.8629319864735
 21
14.79551465421781
 31
0.0
 11
184.9550446607901
 21
15.01890447916197
 31
0.0
 11
185.0347020220912
 21
15.2539846541032
 31
0.0
 11
185.097537810488
 21
15.48816947904465
 31
0.0
 11
185.0693965972142
 21
15.48816947904465
 31
0.0
 11
184.9990435640297
 21
15.48816947904465
 31
0.0
 11
184.9075846208898
 21
15.48816947904465
 31
0.0
 11
184.8161256777499
 21
15.48816947904465
 31
0.0
 11
184.7457726445654
 21
15.48816947904465
 31
0.0
 11
184.7176314312916
 21
15.48816947904465
 31
0.0
 11
184.7176314312916
 21
15.51452032539222
 31
0.0
 11
184.7176314312916
 21
15.57249218735688
 31
0.0
 11
184.7176314312916
 21
15.63046404932155
 31
0.0
 11
184.7176314312916
 21
15.65681489566912
 31
0.0
 11
184.739711025602
 21
15.65681489566912
 31
0.0
 11
184.7966531372444
 21
15.65681489566912
 31
0.0
 11
184.8745127592862
 21
15.65681489566912
 31
0.0
 11
184.9593448847944
 21
15.65681489566912
 31
0.0
 11
185.0372045068361
 21
15.65681489566912
 31
0.0
 11
185.0941466184786
 21
15.65681489566912
 31
0.0
 11
185.116226212789
 21
15.65681489566912
 31
0.0
 11
185.116226212789
 21
15.68210596174353
 31
0.0
 11
185.116226212789
 21
15.74878240866697
 31
0.0
 11
185.116226212789
 21
15.84304910948977
 31
0.0
 11
185.116226212789
 21
15.95111093726224
 31
0.0
 11
185.116226212789
 21
16.05917276503471
 31
0.0
 11
185.116226212789
 21
16.15343946585751
 31
0.0
 11
185.116226212789
 21
16.22011591278095
 31
0.0
 11
185.116226212789
 21
16.24540697885536
 31
0.0
 11
185.1393181988665
 21
16.243732131078
 31
0.0
 11
185.1943837041284
 21
16.23973826330122
 31
0.0
 11
185.2601070491183
 21
16.23497138885796
 31
0.0
 11
185.3151725543801
 21
16.23097752108117
 31
0.0
 11
185.3382645404577
 21
16.22930267330381
 31
0.0
 11
185.3249012644362
 21
16.20789677921192
 31
0.0
 11
185.2874469028653
 21
16.19450114553469
 31
0.0
 11
185.2874469028653
 21
16.17139743948578
 31
0.0
 11
185.2874469028653
 21
16.11048766899319
 31
0.0
 11
185.2874469028653
 21
16.02437385553816
 31
0.0
 11
185.2874469028653
 21
15.9256580206019
 31
0.0
 11
185.2874469028653
 21
15.82694218566565
 31
0.0
 11
185.2874469028653
 21
15.74082837221061
 31
0.0
 11
185.2874469028653
 21
15.67991860171803
 31
0.0
 11
185.2874469028653
 21
15.65681489566912
 31
0.0
 11
185.3126150604809
 21
15.65681489566912
 31
0.0
 11
185.3755354545199
 21
15.65681489566912
 31
0.0
 11
185.4573319667706
 21
15.65681489566912
 31
0.0
 11
185.5391284790212
 21
15.65681489566912
 31
0.0
 11
185.6020488730602
 21
15.65681489566912
 31
0.0
 11
185.6272170306758
 21
15.65681489566912
 31
0.0
 11
185.6272170306758
 21
15.63046404932155
 31
0.0
 11
185.6272170306758
 21
15.57249218735689
 31
0.0
 11
185.6272170306758
 21
15.51452032539222
 31
0.0
 11
185.6272170306758
 21
15.48816947904465
 31
0.0
 11
185.6020488730602
 21
15.48816947904465
 31
0.0
 11
185.5391284790212
 21
15.48816947904465
 31
0.0
 11
185.4573319667705
 21
15.48816947904465
 31
0.0
 11
185.3755354545199
 21
15.48816947904465
 31
0.0
 11
185.3126150604809
 21
15.48816947904465
 31
0.0
 11
185.2874469028653
 21
15.48816947904465
 31
0.0
 11
185.2874469028653
 21
15.46536458293924
 31
0.0
 11
185.2874469028653
 21
15.41098367684171
 31
0.0
 11
185.2874469028653
 21
15.34607743408014
 31
0.0
 11
185.2874469028653
 21
15.29169652798262
 31
0.0
 11
185.2874469028653
 21
15.2688916318772
 31
0.0
  0
SPLINE
  5
AB
102
{ACAD_REACTORS
330
C8
102
}
330
48
100
AcDbEntity
  8
_U_30EC_U_30A4_U_30E4_U_30FC_1
  6
Continuous
 62
     2
100
AcDbSpline
210
0.0
220
0.0
230
1.0
 70
    11
 71
     3
 72
    47
 73
    43
 74
    41
 42
0.000000001
 43
0.0000000001
 44
0.00000001
 40
0.0
 40
0.0
 40
0.0
 40
0.0
 40
0.2207912809957272
 40
0.4459404186303112
 40
0.490238719045877
 40
0.5327473892722291
 40
0.5742260451225046
 40
0.6155432630560906
 40
0.6568164066315539
 40
0.6982511618780743
 40
0.7407663929316975
 40
0.7851366743174479
 40
1.010288833836248
 40
1.231080507002104
 40
1.451765243652329
 40
1.676638205891609
 40
1.72046104535958
 40
1.830018144043446
 40
1.97244237235308
 40
2.114866600677451
 40
2.224423699395078
 40
2.268246538883319
 40
2.493628801207143
 40
2.715602830286541
 40
2.934211330706296
 40
3.149502369855293
 40
3.231387784850854
 40
3.318231873853889
 40
3.405143198197877
 40
3.486970301720314
 40
3.702258172493758
 40
3.920866283533992
 40
4.142839325931785
 40
4.368221903865238
 40
4.412044743359718
 40
4.521601842095735
 40
4.664026070452219
 40
4.806450298808929
 40
4.916007397546623
 40
4.959830237042946
 40
5.184703515846974
 40
5.405387250767347
 40
5.405387250767347
 40
5.405387250767347
 40
5.405387250767347
 10
182.6507427258644
 20
15.73406440953872
 30
0.0
 10
182.6568139420002
 20
15.7975848250121
 30
0.0
 10
182.6690762107242
 20
15.92587938689626
 30
0.0
 10
182.5604706879412
 20
16.20166220174079
 30
0.0
 10
182.6761985896603
 20
16.17188133432053
 30
0.0
 10
182.7171842509015
 20
16.16765556262821
 30
0.0
 10
182.7591205797518
 20
16.16310446389607
 30
0.0
 10
182.800419662571
 20
16.16201982929486
 30
0.0
 10
182.8417032115555
 20
16.16310338195228
 30
0.0
 10
182.8836148270647
 20
16.16766112711343
 30
0.0
 10
182.9245983549018
 20
16.17187430209728
 30
0.0
 10
183.0404922843487
 20
16.20177611317536
 30
0.0
 10
182.9295652727457
 20
15.92339806609888
 30
0.0
 10
182.9574856365267
 20
15.74283140824953
 30
0.0
 10
182.9404267346969
 20
15.50961042346472
 30
0.0
 10
182.9414637282103
 20
15.34906622543146
 30
0.0
 10
182.9414099399404
 20
15.22284817558722
 30
0.0
 10
182.941427737248
 20
15.12428963336241
 30
0.0
 10
182.941418858108
 20
14.99280702442964
 30
0.0
 10
182.9414263928034
 20
14.8613284496865
 30
0.0
 10
182.9414129405128
 20
14.76276222694091
 30
0.0
 10
182.9414531717492
 20
14.63639735624152
 30
0.0
 10
182.9406746403816
 20
14.4748206882287
 30
0.0
 10
182.9565958319267
 20
14.24361821892915
 30
0.0
 10
182.9333468885407
 20
14.05874351972003
 30
0.0
 10
183.0360183444365
 20
13.78935602770056
 30
0.0
 10
182.8820238362836
 20
13.82660112685818
 30
0.0
 10
182.8004129802832
 20
13.82137994680535
 30
0.0
 10
182.7188192292582
 20
13.82660620378351
 30
0.0
 10
182.5648513666842
 20
13.78937069885385
 30
0.0
 10
182.6674183421916
 20
14.05875129862881
 30
0.0
 10
182.6442045316087
 20
14.24361585325416
 30
0.0
 10
182.6600444655139
 20
14.47482218565639
 30
0.0
 10
182.6593296313427
 20
14.63639712308503
 30
0.0
 10
182.6593664569907
 20
14.76276231210521
 30
0.0
 10
182.659354900027
 20
14.86132756635982
 30
0.0
 10
182.6593575019214
 20
14.9928112741722
 30
0.0
 10
182.6593648531778
 20
15.124275480312
 30
0.0
 10
182.6593442541352
 20
15.22287786275327
 30
0.0
 10
182.6594082192027
 20
15.34896149354427
 30
0.0
 10
182.658173394759
 20
15.51210091383772
 30
0.0
 10
182.6532040396744
 20
15.6605418377755
 30
0.0
 10
182.6507427258644
 20
15.73406440953872
 30
0.0
 11
182.6507427258644
 21
15.73406440953872
 31
0.0
 11
182.6417328200378
 21
15.95467178795578
 31
0.0
 11
182.6318769706146
 21
16.1796051038718
 31
0.0
 11
182.67569858408
 21
16.17312391463729
 31
0.0
 11
182.7178400934215
 21
16.16754892331925
 31
0.0
 11
182.759137140979
 21
16.16367167505631
 31
0.0
 11
182.8004341885365
 21
16.16238072887608
 31
0.0
 11
182.841687138873
 21
16.16367167505631
 31
0.0
 11
182.8829400892097
 21
16.16754892331925
 31
0.0
 11
182.9250882131343
 21
16.17312391463729
 31
0.0
 11
182.9689825870144
 21
16.1796051038718
 31
0.0
 11
182.9590577693891
 21
15.95467178795578
 31
0.0
 11
182.950038420831
 21
15.73406440953872
 31
0.0
 11
182.9435638463435
 21
15.51347467001055
 31
0.0
 11
182.9414218238286
 21
15.28861190965008
 31
0.0
 11
182.9414218238286
 21
15.24478907015486
 31
0.0
 11
182.9414218238286
 21
15.13523197141683
 31
0.0
 11
182.9414218238286
 21
14.99280774305737
 31
0.0
 11
182.9414218238286
 21
14.85038351469792
 31
0.0
 11
182.9414218238286
 21
14.74082641595989
 31
0.0
 11
182.9414218238286
 21
14.69700357646467
 31
0.0
 11
182.9435638463435
 21
14.47163149318767
 31
0.0
 11
182.950038420831
 21
14.24975190990981
 31
0.0
 11
182.9590577693891
 21
14.0313295488533
 31
0.0
 11
182.9689825870144
 21
13.81626739612927
 31
0.0
 11
182.887261616877
 21
13.82145433189186
 31
0.0
 11
182.8004341885365
 21
13.82315538223863
 31
0.0
 11
182.7135395119339
 21
13.82145433189186
 31
0.0
 11
182.6318769706146
 21
13.81626739612927
 31
0.0
 11
182.6417328200378
 21
14.0313295488533
 31
0.0
 11
182.6507427258644
 21
14.24975190990981
 31
0.0
 11
182.6571833838798
 21
14.47163149318767
 31
0.0
 11
182.6593583588023
 21
14.69700357646467
 31
0.0
 11
182.6593583588023
 21
14.74082641595988
 31
0.0
 11
182.6593583588023
 21
14.85038351469793
 31
0.0
 11
182.6593583588023
 21
14.99280774305738
 31
0.0
 11
182.6593583588023
 21
15.13523197141683
 31
0.0
 11
182.6593583588023
 21
15.24478907015486
 31
0.0
 11
182.6593583588023
 21
15.28861190965008
 31
0.0
 11
182.6571833838798
 21
15.51347467001055
 31
0.0
 11
182.6507427258644
 21
15.73406440953872
 31
0.0
  0
SPLINE
  5
AC
102
{ACAD_REACTORS
330
C9
102
}
330
48
100
AcDbEntity
  8
_U_30EC_U_30A4_U_30E4_U_30FC_1
  6
Continuous
 62
     2
100
AcDbSpline
210
0.0
220
0.0
230
1.0
 70
    11
 71
     3
 72
   110
 73
   106
 74
   104
 42
0.000000001
 43
0.0000000001
 44
0.00000001
 40
0.0
 40
0.0
 40
0.0
 40
0.0
 40
0.2203406257277696
 40
0.4407808782838107
 40
0.5952494494615087
 40
0.7488431659393092
 40
0.9023581831309075
 40
1.056801968670406
 40
1.21073644909985
 40
1.363041386539785
 40
1.515315729683071
 40
1.669377239148079
 40
1.721611652756566
 40
1.773199502942949
 40
1.824933793210003
 40
1.877110426487982
 40
1.982682281206745
 40
2.078781667087553
 40
2.172809640822331
 40
2.271937807378928
 40
2.37834993337935
 40
2.494131557736595
 40
2.6266816839437
 40
2.783145050796071
 40
2.890701232940925
 40
2.993130312454818
 40
3.099869730691806
 40
3.220237816691302
 40
3.352695482737591
 40
3.481732806389841
 40
3.593499473690369
 40
3.674323013331886
 40
3.817951711952808
 40
3.946167120793748
 40
4.061405053453462
 40
4.166480796003074
 40
4.262478775059196
 40
4.350736673551152
 40
4.433071991254009
 40
4.511216293814554
 40
4.564262454117864
 40
4.618474415571475
 40
4.670128488754076
 40
4.722296879126257
 40
4.819540945314126
 40
4.931194984127982
 40
5.049996040257596
 40
5.168643755415085
 40
5.283970811762296
 40
5.392260784910121
 40
5.486512254876224
 40
5.559178233949595
 40
5.591425852853258
 40
5.626215969637641
 40
5.667155838674184
 40
5.717449290213991
 40
5.738402360944606
 40
5.784499116553575
 40
5.830595872164548
 40
5.851548942897407
 40
5.873019280661521
 40
5.924217778408063
 40
5.985325662817442
 40
6.036524160567459
 40
6.057994498333987
 40
6.236847789607237
 40
6.381409928945412
 40
6.493190424178438
 40
6.574067534230243
 40
6.691018086205337
 40
6.814881554220254
 40
6.944307823240178
 40
7.071266716065746
 40
7.193488604461619
 40
7.309042773127903
 40
7.4140072031705
 40
7.505140441886284
 40
7.531150360599451
 40
7.559221645322037
 40
7.587202218920692
 40
7.612569159498907
 40
7.662550809480775
 40
7.702878875763918
 40
7.857328205230733
 40
8.010799568088379
 40
8.165256399657329
 40
8.322232698713668
 40
8.479564855016354
 40
8.635216230290558
 40
8.790882550925476
 40
8.948305154947041
 40
9.168271839032732
 40
9.387358980987004
 40
9.608047961033252
 40
9.832914234792447
 40
9.858338694962782
 40
9.92536681722979
 40
10.02013071422737
 40
10.12876249858976
 40
10.23739428295226
 40
10.33215817995168
 40
10.39918630222371
 40
10.42461076239761
 40
10.6499201933692
 40
10.87188524531166
 40
10.87188524531166
 40
10.87188524531166
 40
10.87188524531166
 10
179.9057788376618
 20
15.73923260398191
 30
0.0
 10
179.909286493354
 20
15.80616462073804
 30
0.0
 10
179.9163033987662
 20
15.94005891915859
 30
0.0
 10
179.8198027599073
 20
16.22548554971472
 30
0.0
 10
180.0510134726109
 20
16.16284386190284
 30
0.0
 10
180.1919290057155
 20
16.17001554055991
 30
0.0
 10
180.3490417757588
 20
16.16235883078245
 30
0.0
 10
180.5025913427287
 20
16.16252752283041
 30
0.0
 10
180.654510493508
 20
16.16182040535433
 30
0.0
 10
180.8142214813231
 20
16.17210158351639
 30
0.0
 10
180.9408972601117
 20
16.15496511080752
 30
0.0
 10
181.137082112208
 20
16.22727260107149
 30
0.0
 10
181.1034395279078
 20
16.12640699080118
 30
0.0
 10
181.1052011317184
 20
16.07619253947671
 30
0.0
 10
181.1027342073457
 20
16.02712335586466
 30
0.0
 10
181.1347076966012
 20
15.94063490847
 30
0.0
 10
181.0010399903256
 20
15.98997438608337
 30
0.0
 10
180.9172208688056
 20
15.98430634314168
 30
0.0
 10
180.8173861139323
 20
15.99465516706297
 30
0.0
 10
180.7186576720146
 20
16.00086450411087
 30
0.0
 10
180.612153277111
 20
16.00697763816778
 30
0.0
 10
180.4910511698059
 20
16.01588883484586
 30
0.0
 10
180.3703381502453
 20
16.00521605912384
 30
0.0
 10
180.1812553843437
 20
16.06468503080365
 30
0.0
 10
180.2129028505311
 20
15.9055832007754
 30
0.0
 10
180.1995563316834
 20
15.80839128339904
 30
0.0
 10
180.1974958426449
 20
15.69634065110103
 30
0.0
 10
180.1958188044671
 20
15.57699685629351
 30
0.0
 10
180.1973336794233
 20
15.4503259215511
 30
0.0
 10
180.1956582478668
 20
15.32301588016117
 30
0.0
 10
180.2058844271657
 20
15.22451566404464
 30
0.0
 10
180.1779006596582
 20
15.08388702625631
 30
0.0
 10
180.3508029999305
 20
15.13989551134095
 30
0.0
 10
180.4645020202771
 20
15.12719951478498
 30
0.0
 10
180.5840151672238
 20
15.13448377051254
 30
0.0
 10
180.6888491425071
 20
15.13878017056758
 30
0.0
 10
180.7843084898612
 20
15.14330568258976
 30
0.0
 10
180.8763823507032
 20
15.15149201146201
 30
0.0
 10
180.9476551782438
 20
15.14643850638111
 30
0.0
 10
181.0544931705683
 20
15.18536425031673
 30
0.0
 10
181.0226603598036
 20
15.10517122005878
 30
0.0
 10
181.0266164503929
 20
15.05562936846033
 30
0.0
 10
181.0234502392013
 20
15.0055747803982
 30
0.0
 10
181.0550791490583
 20
14.92128847612022
 30
0.0
 10
180.921013367769
 20
14.97425365495159
 30
0.0
 10
180.8292322793199
 20
14.96540080890441
 30
0.0
 10
180.7079729189602
 20
14.97570049965154
 30
0.0
 10
180.5914113119771
 20
14.97748911767503
 30
0.0
 10
180.4783375745879
 20
14.97787017109694
 30
0.0
 10
180.3679246308471
 20
14.9841544947218
 30
0.0
 10
180.289812406784
 20
14.97189133255364
 30
0.0
 10
180.1913625833643
 20
15.00453887616125
 30
0.0
 10
180.2012355173561
 20
14.94769748054206
 30
0.0
 10
180.1973923244401
 20
14.91392130557985
 30
0.0
 10
180.1966789884269
 20
14.87119604709411
 30
0.0
 10
180.1963369642974
 20
14.83401607262154
 30
0.0
 10
180.1963834255345
 20
14.79487237370771
 30
0.0
 10
180.1963649429927
 20
14.75716849497686
 30
0.0
 10
180.1963703431806
 20
14.71944955232402
 30
0.0
 10
180.1963697214201
 20
14.6899432474515
 30
0.0
 10
180.1963698151545
 20
14.65873577699301
 30
0.0
 10
180.1963704287921
 20
14.61414424908085
 30
0.0
 10
180.1963671499336
 20
14.5596395650885
 30
0.0
 10
180.1963759623481
 20
14.51505540201448
 30
0.0
 10
180.1963359653417
 20
14.4311780858574
 30
0.0
 10
180.1976024270255
 20
14.31737520677678
 30
0.0
 10
180.1950274117841
 20
14.16830395933709
 30
0.0
 10
180.2065009381719
 20
14.06597203813906
 30
0.0
 10
180.1823506222264
 20
13.93338903885834
 30
0.0
 10
180.3332993946476
 20
13.97895732272022
 30
0.0
 10
180.4428436671556
 20
13.9642701216235
 30
0.0
 10
180.573397047392
 20
13.96920435125064
 30
0.0
 10
180.6990312209513
 20
13.97257705323362
 30
0.0
 10
180.8188730625601
 20
13.97711497498773
 30
0.0
 10
180.9391362611426
 20
13.99048536182006
 30
0.0
 10
181.0222761663516
 20
13.98068712782598
 30
0.0
 10
181.1456080421074
 20
14.04126214623321
 30
0.0
 10
181.1244269203956
 20
13.98532460134021
 30
0.0
 10
181.1235950270117
 20
13.95939249372346
 30
0.0
 10
181.1218963707558
 20
13.93197256190939
 30
0.0
 10
181.1217974888829
 20
13.89738195206385
 30
0.0
 10
181.1203659301329
 20
13.86050408220767
 30
0.0
 10
181.1532804192191
 20
13.76846841021807
 30
0.0
 10
180.9551306988106
 20
13.84132015974832
 30
0.0
 10
180.8300548294891
 20
13.81825726508606
 30
0.0
 10
180.6673071295156
 20
13.82454021985787
 30
0.0
 10
180.5129366450001
 20
13.82260943909927
 30
0.0
 10
180.3566670436943
 20
13.82393762599269
 30
0.0
 10
180.1970544465282
 20
13.82059872487863
 30
0.0
 10
180.0540326342236
 20
13.83265795728241
 30
0.0
 10
179.8197144881628
 20
13.76952001976917
 30
0.0
 10
179.9173810751197
 20
14.05620527466318
 30
0.0
 10
179.9006868780058
 20
14.2498830814266
 30
0.0
 10
179.9146296709684
 20
14.47848242880294
 30
0.0
 10
179.9142987846633
 20
14.63384593955049
 30
0.0
 10
179.9143078119263
 20
14.73966336444125
 30
0.0
 10
179.9143055876316
 20
14.80205784124214
 30
0.0
 10
179.9143065551888
 20
14.89220425248327
 30
0.0
 10
179.9143065473261
 20
14.99621167157438
 30
0.0
 10
179.9143053861102
 20
15.10022131375296
 30
0.0
 10
179.9143090971502
 20
15.19036243688768
 30
0.0
 10
179.9143011051051
 20
15.25276803097215
 30
0.0
 10
179.9143334275018
 20
15.35868835961119
 30
0.0
 10
179.9131440788319
 20
15.5162671654474
 30
0.0
 10
179.9082216489256
 20
15.66528219822066
 30
0.0
 10
179.9057788376618
 20
15.73923260398191
 30
0.0
 11
179.9057788376618
 21
15.73923260398191
 31
0.0
 11
179.896691822374
 21
15.95938578101018
 31
0.0
 11
179.8868249573133
 21
16.1796051038718
 31
0.0
 11
180.04115751414
 21
16.17312391463729
 31
0.0
 11
180.1946500189046
 21
16.16754892331925
 31
0.0
 11
180.3481160653366
 21
16.16367167505631
 31
0.0
 11
180.5025544554939
 21
16.16238072887608
 31
0.0
 11
180.6564835227472
 21
16.16367167505631
 31
0.0
 11
180.80873910046
 21
16.16754892331925
 31
0.0
 11
180.9609113551073
 21
16.17312391463729
 31
0.0
 11
181.1148364762483
 21
16.1796051038718
 31
0.0
 11
181.1070811703123
 21
16.12794961777359
 31
0.0
 11
181.1044991623591
 21
16.07642642334205
 31
0.0
 11
181.1070811703123
 21
16.0247566056466
 31
0.0
 11
181.1148364762483
 21
15.97315954836785
 31
0.0
 11
181.0094874054411
 21
15.98001446156058
 31
0.0
 11
180.913637570006
 21
15.98693552058657
 31
0.0
 11
180.8198593171903
 21
15.99378381919598
 31
0.0
 11
180.7209679915881
 21
16.0006321178054
 31
0.0
 11
180.6147532199923
 21
16.00710999974824
 31
0.0
 11
180.4991060528037
 21
16.01268829835795
 31
0.0
 11
180.3666126447257
 21
16.01656554662088
 31
0.0
 11
180.2101546018423
 21
16.01785649280112
 31
0.0
 11
180.2062663293721
 21
15.91037061609187
 31
0.0
 11
180.20153800484
 21
15.80805072896465
 31
0.0
 11
180.1976607566749
 21
15.70138175329687
 31
0.0
 11
180.1963698105272
 21
15.5810205901325
 31
0.0
 11
180.1967799146835
 21
15.44856355891565
 31
0.0
 11
180.1980896021501
 21
15.31953288186455
 31
0.0
 11
180.1994074577049
 21
15.20777398432309
 31
0.0
 11
180.199819115366
 21
15.12695149302384
 31
0.0
 11
180.3434452935874
 21
15.1278025694125
 31
0.0
 11
180.4716343930757
 21
15.13039989580077
 31
0.0
 11
180.5868078221795
 21
15.13425509545254
 31
0.0
 11
180.6917756312219
 21
15.13901649302077
 31
0.0
 11
180.7876346289421
 21
15.14418027774176
 31
0.0
 11
180.8757413374193
 21
15.14934406246268
 31
0.0
 11
180.9578881438496
 21
15.15491243919739
 31
0.0
 11
181.035769233557
 21
15.16132086801524
 31
0.0
 11
181.0280180445186
 21
15.10884407115336
 31
0.0
 11
181.0254328449317
 21
15.05469378470858
 31
0.0
 11
181.0280180445185
 21
15.00310444444367
 31
0.0
 11
181.035769233557
 21
14.95151510417883
 31
0.0
 11
180.9389813454013
 21
14.96092324653758
 31
0.0
 11
180.8275950722014
 21
14.96865128473012
 31
0.0
 11
180.7089261429372
 21
14.97425273438146
 31
0.0
 11
180.5903167449213
 21
14.97726788195012
 31
0.0
 11
180.4750025117521
 21
14.97898767361638
 31
0.0
 11
180.36672619507
 21
14.98070746528257
 31
0.0
 11
180.2724839317708
 21
14.98202486979617
 31
0.0
 11
180.199819115366
 21
14.98243607639329
 31
0.0
 11
180.1994074577049
 21
14.95019108508191
 31
0.0
 11
180.1980896021501
 21
14.91542593752118
 31
0.0
 11
180.1967799146835
 21
14.87450702260085
 31
0.0
 11
180.1963698105272
 21
14.82421524309952
 31
0.0
 11
180.1963698105272
 21
14.80326217235822
 31
0.0
 11
180.1963698105272
 21
14.75716541672736
 31
0.0
 11
180.1963698105272
 21
14.71106866109651
 31
0.0
 11
180.1963698105272
 21
14.69011559035521
 31
0.0
 11
180.1963698105272
 21
14.6686452525828
 31
0.0
 11
180.1963698105272
 21
14.61744675481784
 31
0.0
 11
180.1963698105272
 21
14.55633887038868
 31
0.0
 11
180.1963698105272
 21
14.50514037262371
 31
0.0
 11
180.1963698105272
 21
14.4836700348513
 31
0.0
 11
180.1967799146835
 21
14.30481721371548
 31
0.0
 11
180.1980896021501
 21
14.16026100715442
 31
0.0
 11
180.2002868589709
 21
14.04850210961289
 31
0.0
 11
180.2032586986985
 21
13.96767961831366
 31
0.0
 11
180.3202092517447
 21
13.96767961831366
 31
0.0
 11
180.4440727208746
 21
13.96767961831366
 31
0.0
 11
180.5734925526422
 21
13.9689705644939
 31
0.0
 11
180.7003922282243
 21
13.97284781275683
 31
0.0
 11
180.8224658067973
 21
13.97886708358866
 31
0.0
 11
180.9377587499463
 21
13.98663260442003
 31
0.0
 11
181.0421754573518
 21
13.99734161483403
 31
0.0
 11
181.1320599255448
 21
14.01237656274693
 31
0.0
 11
181.1264254031191
 21
13.98698427976715
 31
0.0
 11
181.1234433285423
 21
13.95907184053802
 31
0.0
 11
181.12213398812
 21
13.93112191867002
 31
0.0
 11
181.1217235369195
 21
13.90575829888472
 31
0.0
 11
181.1243087365064
 21
13.85584355063326
 31
0.0
 11
181.1320599255448
 21
13.81626739612927
 31
0.0
 11
180.9776977178344
 21
13.82145433189186
 31
0.0
 11
180.8242357818765
 21
13.82315538223863
 31
0.0
 11
180.6697789496483
 21
13.82315538223863
 31
0.0
 11
180.5128026496768
 21
13.82315538223863
 31
0.0
 11
180.3554704921536
 21
13.82315538223863
 31
0.0
 11
180.199819115366
 21
13.82315538223863
 31
0.0
 11
180.0441620874241
 21
13.82145433189186
 31
0.0
 11
179.8868249573133
 21
13.81626739612927
 31
0.0
 11
179.896691822374
 21
14.0360126738521
 31
0.0
 11
179.9057788376618
 21
14.25491128490851
 31
0.0
 11
179.91217215184
 21
14.47550763902003
 31
0.0
 11
179.9143063455009
 21
14.70036378479715
 31
0.0
 11
179.9143063455009
 21
14.72578824496874
 31
0.0
 11
179.9143063455009
 21
14.79281636723931
 31
0.0
 11
179.9143063455009
 21
14.88758026424253
 31
0.0
 11
179.9143063455009
 21
14.99621204861207
 31
0.0
 11
179.9143063455009
 21
15.10484383298162
 31
0.0
 11
179.9143063455009
 21
15.19960772998484
 31
0.0
 11
179.9143063455009
 21
15.2666358522554
 31
0.0
 11
179.9143063455009
 21
15.292060312427
 31
0.0
 11
179.91217215184
 21
15.51735963528735
 31
0.0
 11
179.9057788376618
 21
15.73923260398191
 31
0.0
  0
SPLINE
  5
AD
102
{ACAD_REACTORS
330
CA
102
}
330
48
100
AcDbEntity
  8
_U_30EC_U_30A4_U_30E4_U_30FC_1
  6
Continuous
 62
     2
100
AcDbSpline
210
0.0
220
0.0
230
1.0
 70
    11
 71
     3
 72
    95
 73
    91
 74
    89
 42
0.000000001
 43
0.0000000001
 44
0.00000001
 40
0.0
 40
0.0
 40
0.0
 40
0.0
 40
0.6550406656911715
 40
1.308087289031939
 40
1.420803739835818
 40
1.566130759770811
 40
1.757067341888479
 40
2.006513545026483
 40
2.087328263121577
 40
2.185328872295655
 40
2.294612454748389
 40
2.408936380534839
 40
2.526802767798586
 40
2.646360524615625
 40
2.762535723971603
 40
2.870057342870175
 40
2.966883448431669
 40
3.050803243518323
 40
3.115818222436629
 40
3.156030057150271
 40
3.21391422508023
 40
3.276689026450688
 40
3.342960320981351
 40
3.404230667150601
 40
3.453822809493416
 40
3.532499827188452
 40
3.634775188507198
 40
3.75490933300819
 40
3.889736761660696
 40
4.035769602175261
 40
4.187256681197653
 40
4.338733685676002
 40
4.488478734676162
 40
4.63470831783162
 40
4.771493189921312
 40
4.892686571561247
 40
5.19977552894449
 40
5.460353566929673
 40
5.667603142345556
 40
5.814722905404532
 40
5.828990806219887
 40
5.855488336304612
 40
5.869756237118972
 40
6.189796507762939
 40
6.531890469873164
 40
6.883053637017114
 40
7.230512024911622
 40
7.566966656764693
 40
7.885203559707563
 40
8.172887439719364
 40
8.418011594062918
 40
8.44392672119084
 40
8.510760470613329
 40
8.60214539379584
 40
8.701714041647282
 40
8.793098965075515
 40
8.859932715058092
 40
8.88584784260374
 40
9.242301256612949
 40
9.5892754550169
 40
9.92180854316431
 40
10.23479624298482
 40
10.29968150889193
 40
10.35323493887781
 40
10.40154625355166
 40
10.46482922477841
 40
10.55973900668422
 40
10.69239545985634
 40
10.84920353475689
 40
11.01626328594797
 40
11.18672024367461
 40
11.35372582577228
 40
11.50257442292444
 40
11.61866495023308
 40
11.71329869152892
 40
11.82511050573925
 40
11.94464880845734
 40
12.06929242642524
 40
12.19707290435194
 40
12.32562632860546
 40
12.45034565331297
 40
12.56646595170346
 40
12.67099007414653
 40
12.76077625936801
 40
12.82703233506712
 40
12.87429132786011
 40
12.8983199032335
 40
12.92234847860039
 40
13.53984767410344
 40
14.18294284359384
 40
14.18294284359384
 40
14.18294284359384
 40
14.18294284359384
 10
177.3067935648021
 20
14.70898038201725
 30
0.0
 10
177.175201975855
 20
14.82265058603232
 30
0.0
 10
176.9124193802727
 20
15.04964496316156
 30
0.0
 10
176.3997393441023
 20
15.89214462956287
 30
0.0
 10
176.4106654595361
 20
15.53423377577021
 30
0.0
 10
176.4041226527992
 20
15.39267392272133
 30
0.0
 10
176.4028026631771
 20
15.19421305299281
 30
0.0
 10
176.4018117602538
 20
15.02150296045982
 30
0.0
 10
176.4024101751972
 20
14.8786537325758
 30
0.0
 10
176.4038994301883
 20
14.78265005413358
 30
0.0
 10
176.4055683588471
 20
14.67545503263141
 30
0.0
 10
176.4071934954619
 20
14.56164211517582
 30
0.0
 10
176.4092429501684
 20
14.44441572604589
 30
0.0
 10
176.4123165501927
 20
14.3265641123297
 30
0.0
 10
176.4156339697042
 20
14.21228087320621
 30
0.0
 10
176.4193605340279
 20
14.10521401867277
 30
0.0
 10
176.4217338161424
 20
14.01007408766922
 30
0.0
 10
176.4278718888357
 20
13.92558557205695
 30
0.0
 10
176.4239784495947
 20
13.86923087298141
 30
0.0
 10
176.4455230443076
 20
13.79825022472353
 30
0.0
 10
176.3680940058618
 20
13.82902677604485
 30
0.0
 10
176.3116353240189
 20
13.82011242517614
 30
0.0
 10
176.2540495896807
 20
13.82896218398274
 30
0.0
 10
176.1690163478472
 20
13.79738225225944
 30
0.0
 10
176.2009714146382
 20
13.8809515599219
 30
0.0
 10
176.1990705282537
 20
13.9488260896831
 30
0.0
 10
176.21079600473
 20
14.05233256764418
 30
0.0
 10
176.2164241052998
 20
14.17002125616695
 30
0.0
 10
176.2237902178941
 20
14.30388609164423
 30
0.0
 10
176.232075970161
 20
14.44764152872632
 30
0.0
 10
176.2398851897426
 20
14.59714022843445
 30
0.0
 10
176.2457571222658
 20
14.74792549402079
 30
0.0
 10
176.2503667817968
 20
14.89699943878438
 30
0.0
 10
176.2542632117541
 20
15.04122913163022
 30
0.0
 10
176.2570715126564
 20
15.17583905213017
 30
0.0
 10
176.2576698755022
 20
15.36469614347355
 30
0.0
 10
176.2616023867151
 20
15.58975494313155
 30
0.0
 10
176.2442175378497
 20
15.86367091125707
 30
0.0
 10
176.2850417342584
 20
16.02787112098599
 30
0.0
 10
176.1995153255999
 20
16.22749661465095
 30
0.0
 10
176.2660558907687
 20
16.22385458403978
 30
0.0
 10
176.283872427323
 20
16.22413447160853
 30
0.0
 10
176.4056801797504
 20
16.22632927398617
 30
0.0
 10
176.5080770335461
 20
15.94675118721508
 30
0.0
 10
176.7580021509356
 20
15.74563008536007
 30
0.0
 10
176.987003533111
 20
15.47792614987912
 30
0.0
 10
177.2245151213109
 20
15.22646413862381
 30
0.0
 10
177.4486090740771
 20
14.98969974061355
 30
0.0
 10
177.6750716283009
 20
14.73218692583081
 30
0.0
 10
177.8325687886515
 20
14.61649335056922
 30
0.0
 10
178.0472129612672
 20
14.27997152538792
 30
0.0
 10
178.0422645974619
 20
14.40464754091604
 30
0.0
 10
178.0433931602546
 20
14.46327691935737
 30
0.0
 10
178.0428877841517
 20
14.55043662371977
 30
0.0
 10
178.0430475158113
 20
14.64416143182873
 30
0.0
 10
178.0430054891318
 20
14.73018971297035
 30
0.0
 10
178.0430202040372
 20
14.79153891945496
 30
0.0
 10
178.0429706255985
 20
14.94135231520993
 30
0.0
 10
178.045881152281
 20
15.17989612510105
 30
0.0
 10
178.0259521041162
 20
15.54486509868701
 30
0.0
 10
178.0750433936246
 20
15.80799631993412
 30
0.0
 10
177.917795150918
 20
16.21928904947752
 30
0.0
 10
178.0762112872421
 20
16.16398282551749
 30
0.0
 10
178.1311680478629
 20
16.16199686500176
 30
0.0
 10
178.182788776674
 20
16.16264778248254
 30
0.0
 10
178.2713198965366
 20
16.20369527738246
 30
0.0
 10
178.2204898303169
 20
16.05696326622988
 30
0.0
 10
178.2313389930283
 20
15.95019971954434
 30
0.0
 10
178.2166036994846
 20
15.79085705414113
 30
0.0
 10
178.2099976446204
 20
15.62853061652875
 30
0.0
 10
178.2014961399915
 20
15.45992521892395
 30
0.0
 10
178.1943227202199
 20
15.29814814703541
 30
0.0
 10
178.1889063215388
 20
15.15422331457933
 30
0.0
 10
178.1871713967647
 20
15.03437493466926
 30
0.0
 10
178.1875440672318
 20
14.92686101590515
 30
0.0
 10
178.1873656126261
 20
14.81820024645586
 30
0.0
 10
178.1877010863139
 20
14.6995357016553
 30
0.0
 10
178.1890040622184
 20
14.57555163512741
 30
0.0
 10
178.1908887351573
 20
14.44858294171105
 30
0.0
 10
178.1925004454851
 20
14.32153861551032
 30
0.0
 10
178.1941403137429
 20
14.19854884492178
 30
0.0
 10
178.1962570745752
 20
14.08300931383759
 30
0.0
 10
178.1963848422363
 20
13.98090903955837
 30
0.0
 10
178.2006514396554
 20
13.89009848838156
 30
0.0
 10
178.1908440085289
 20
13.83213621208786
 30
0.0
 10
178.2118474771689
 20
13.76517130132029
 30
0.0
 10
178.1725639739896
 20
13.77291153966688
 30
0.0
 10
177.9595307117748
 20
13.75755254145193
 30
0.0
 10
177.7636297943184
 20
14.31403058094463
 30
0.0
 10
177.4611197631544
 20
14.57556035348509
 30
0.0
 10
177.3067935648021
 20
14.70898038201725
 30
0.0
 11
177.3067935648021
 21
14.70898038201725
 31
0.0
 11
176.859552933851
 21
15.18757635411978
 31
0.0
 11
176.4124049070643
 21
15.66352649288971
 31
0.0
 11
176.4089664262493
 21
15.55086249986233
 31
0.0
 11
176.40556101835
 21
15.40557538184311
 31
0.0
 11
176.4029636920274
 21
15.21465645827968
 31
0.0
 11
176.4021126156602
 21
14.96521170139757
 31
0.0
 11
176.4025239230288
 21
14.8843980295428
 31
0.0
 11
176.4038420329817
 21
14.78640628477561
 31
0.0
 11
176.4055192267718
 21
14.67713557299739
 31
0.0
 11
176.4072367127518
 21
14.56282454872039
 31
0.0
 11
176.4094007838772
 21
14.44497802965266
 31
0.0
 11
176.4124049070643
 21
14.325458021002
 31
0.0
 11
176.4158359733138
 21
14.20933349846156
 31
0.0
 11
176.4192928929998
 21
14.1018674655023
 31
0.0
 11
176.4227085253088
 21
14.00510162351265
 31
0.0
 11
176.4261896983793
 21
13.92125406276972
 31
0.0
 11
176.4296006184313
 21
13.8563286200776
 31
0.0
 11
176.4330776843148
 21
13.81626739612927
 31
0.0
 11
176.3754263821571
 21
13.82145433189186
 31
0.0
 11
176.3126746318308
 21
13.82315538223863
 31
0.0
 11
176.2464251717157
 21
13.82145433189186
 31
0.0
 11
176.1853747739675
 21
13.81626739612927
 31
0.0
 11
176.1926772737812
 21
13.86531894125591
 31
0.0
 11
176.2008793569053
 21
13.94356725720855
 31
0.0
 11
176.2090098822348
 21
14.04551893253029
 31
0.0
 11
176.2163406441396
 21
14.16542920159752
 31
0.0
 11
176.2236358280421
 21
14.3000591234389
 31
0.0
 11
176.2318444255596
 21
14.44586107652745
 31
0.0
 11
176.2395504149465
 21
14.59715203135073
 31
0.0
 11
176.2455763002093
 21
14.74850913200735
 31
0.0
 11
176.2503046247415
 21
14.89817951391436
 31
0.0
 11
176.2541928972119
 21
15.04435739582222
 31
0.0
 11
176.2567527408965
 21
15.18111831592696
 31
0.0
 11
176.2576324804574
 21
15.3023085068689
 31
0.0
 11
176.257192610677
 21
15.60939715262545
 31
0.0
 11
176.2559126888347
 21
15.86997204839365
 31
0.0
 11
176.2528658717892
 21
16.07719922716126
 31
0.0
 11
176.2473049112762
 21
16.22421385386062
 31
0.0
 11
176.2615728121468
 21
16.22421385386062
 31
0.0
 11
176.2880703423352
 21
16.22421385386062
 31
0.0
 11
176.3023382432058
 21
16.22421385386062
 31
0.0
 11
176.5194743650276
 21
15.98910179662773
 31
0.0
 11
176.7512744123079
 21
15.73751281231562
 31
0.0
 11
176.9894816018839
 21
15.47949555543571
 31
0.0
 11
177.2260074557521
 21
15.2249707985549
 31
0.0
 11
177.4555698717705
 21
14.97899759549138
 31
0.0
 11
177.6731797360103
 21
14.74678934034107
 31
0.0
 11
177.8713724913707
 21
14.538266805671
 31
0.0
 11
178.0430143099086
 21
14.36326697932589
 31
0.0
 11
178.0430143099086
 21
14.38918210687043
 31
0.0
 11
178.0430143099086
 21
14.45601585685371
 31
0.0
 11
178.0430143099086
 21
14.54740078030025
 31
0.0
 11
178.0430143099086
 21
14.64696942823454
 31
0.0
 11
178.0430143099086
 21
14.73835435168107
 31
0.0
 11
178.0430143099086
 21
14.80518810166436
 31
0.0
 11
178.0430143099086
 21
14.8311032292089
 31
0.0
 11
178.0417233637609
 21
15.18755430550867
 31
0.0
 11
178.0378461155958
 21
15.53450684014415
 31
0.0
 11
178.0296197790001
 21
15.86693815950552
 31
0.0
 11
178.0154535467228
 21
16.1796051038718
 31
0.0
 11
178.0790351249618
 21
16.16666367158335
 31
0.0
 11
178.1324170159611
 21
16.16238072887608
 31
0.0
 11
178.1805381084833
 21
16.16666367158335
 31
0.0
 11
178.2424836798197
 21
16.1796051038718
 31
0.0
 11
178.2351216487575
 21
16.08498128445101
 31
0.0
 11
178.2269790968818
 21
15.95257496503965
 31
0.0
 11
178.2183705364004
 21
15.79600336785656
 31
0.0
 11
178.2097547223214
 21
15.62916593734271
 31
0.0
 11
178.2016187850288
 21
15.4589032550936
 31
0.0
 11
178.1942501393835
 21
15.292060312427
 31
0.0
 11
178.1891406931521
 21
15.1432994357281
 31
0.0
 11
178.1874503478903
 21
15.02722121527102
 31
0.0
 11
178.1874503478903
 21
14.93258747397519
 31
0.0
 11
178.1874503478903
 21
14.82077565976707
 31
0.0
 11
178.1878461204496
 21
14.70123801222749
 31
0.0
 11
178.1890819450708
 21
14.5766005209392
 31
0.0
 11
178.1908392193317
 21
14.44883212687392
 31
0.0
 11
178.1925303477608
 21
14.3202898265588
 31
0.0
 11
178.1942876220214
 21
14.19558288214555
 31
0.0
 11
178.1959787504505
 21
14.07947489606349
 31
0.0
 11
178.1972884379172
 21
13.97495896727017
 31
0.0
 11
178.1976985420735
 21
13.88517371555652
 31
0.0
 11
178.1976985420735
 21
13.81891763918416
 31
0.0
 11
178.1976985420735
 21
13.77165864614041
 31
0.0
 11
178.1736699662976
 21
13.77165864614041
 31
0.0
 11
178.1496413905217
 21
13.77165864614041
 31
0.0
 11
177.7410729200422
 21
14.2346673526219
 31
0.0
 11
177.3067935648021
 21
14.70898038201725
 31
0.0
  0
SPLINE
  5
AE
102
{ACAD_REACTORS
330
CB
102
}
330
48
100
AcDbEntity
  8
_U_30EC_U_30A4_U_30E4_U_30FC_1
  6
Continuous
 62
     2
100
AcDbSpline
210
0.0
220
0.0
230
1.0
 70
    11
 71
     3
 72
    25
 73
    21
 74
    19
 42
0.000000001
 43
0.0000000001
 44
0.00000001
 40
0.0
 40
0.0
 40
0.0
 40
0.0
 40
0.0911479969064254
 40
0.1858117896204668
 40
0.280412839973449
 40
0.3715889190714509
 40
0.4679080494218706
 40
0.5642683809229228
 40
0.6605683222644706
 40
0.7569653015810256
 40
0.8561348172522739
 40
1.092615965104289
 40
1.374867658141869
 40
1.611348812011593
 40
1.710518328425239
 40
1.809403163726556
 40
2.045205463294059
 40
2.326646917622114
 40
2.562449217190573
 40
2.661334043833892
 40
2.661334043833892
 40
2.661334043833892
 40
2.661334043833892
 10
173.2683700567199
 20
14.88614538197293
 30
0.0
 10
173.2987525917923
 20
14.88598079714556
 30
0.0
 10
173.3606895889111
 20
14.88564528689922
 30
0.0
 10
173.454135696033
 20
14.88269055451999
 30
0.0
 10
173.5475095236357
 20
14.87977752877152
 30
0.0
 10
173.6417760753477
 20
14.87894201643418
 30
0.0
 10
173.7354964790966
 20
14.87996644658047
 30
0.0
 10
173.8352040303205
 20
14.87916977470971
 30
0.0
 10
173.9188949546312
 20
14.8892141023522
 30
0.0
 10
174.0637996315045
 20
14.86234617674165
 30
0.0
 10
173.9396132444801
 20
15.03665530280049
 30
0.0
 10
173.8965867286282
 20
15.19651711006092
 30
0.0
 10
173.780892214221
 20
15.45518458550217
 30
0.0
 10
173.7017565431257
 20
15.59231052861858
 30
0.0
 10
173.6431576621816
 20
15.80937033134077
 30
0.0
 10
173.5864803939437
 20
15.59266134213428
 30
0.0
 10
173.5052809900478
 20
15.45327012438237
 30
0.0
 10
173.4063701281488
 20
15.20406969370195
 30
0.0
 10
173.3253625094259
 20
15.01925830226074
 30
0.0
 10
173.2813683325838
 20
14.91650446856117
 30
0.0
 10
173.2683700567199
 20
14.88614538197293
 30
0.0
 11
173.2683700567199
 21
14.88614538197293
 31
0.0
 11
173.3595137737819
 21
14.8852612326676
 31
0.0
 11
173.4541428297581
 21
14.88269697919599
 31
0.0
 11
173.5487082179706
 21
14.88009965280779
 31
0.0
 11
173.6398803250196
 21
14.87924857641911
 31
0.0
 11
173.7361985777706
 21
14.87965978301622
 31
0.0
 11
173.8325499034376
 21
14.88097718752971
 31
0.0
 11
173.9288262638286
 21
14.88310818579313
 31
0.0
 11
174.0251753846343
 21
14.88614538197293
 31
0.0
 11
173.9854633323141
 21
14.97701642195021
 31
0.0
 11
173.8907653613968
 21
15.19370890189603
 31
0.0
 11
173.7777387509471
 21
15.45234186183135
 31
0.0
 11
173.6830407800297
 21
15.66903434177717
 31
0.0
 11
173.6433287277095
 21
15.75990538175445
 31
0.0
 11
173.6043330259266
 21
15.66903434177717
 31
0.0
 11
173.5113432755212
 21
15.45234186183135
 31
0.0
 11
173.4003555089082
 21
15.19370890189603
 31
0.0
 11
173.3073657585028
 21
14.97701642195021
 31
0.0
 11
173.2683700567199
 21
14.88614538197293
 31
0.0
  0
SPLINE
  5
AF
102
{ACAD_REACTORS
330
CB
102
}
330
48
100
AcDbEntity
  8
_U_30EC_U_30A4_U_30E4_U_30FC_1
  6
Continuous
 62
     2
100
AcDbSpline
210
0.0
220
0.0
230
1.0
 70
    11
 71
     3
 72
    57
 73
    53
 74
    51
 42
0.000000001
 43
0.0000000001
 44
0.00000001
 40
0.0
 40
0.0
 40
0.0
 40
0.0
 40
0.0471632082808395
 40
0.0914861054631882
 40
0.1357762519701834
 40
0.182652700160956
 40
0.2295203288571469
 40
0.2737751972219639
 40
0.3181310461542233
 40
0.3652607198398529
 40
0.4571007286314305
 40
0.5671851029164954
 40
0.6894623283868041
 40
0.8181758272545727
 40
0.9510087229273759
 40
1.085852229674066
 40
1.218126164475305
 40
1.343545131142392
 40
1.454537202956752
 40
1.567187607530704
 40
1.680710966642323
 40
1.794226869736687
 40
1.900009184247487
 40
2.004085860447766
 40
2.108162674451683
 40
2.214000150155312
 40
2.496038577352113
 40
2.762350745479245
 40
2.997275353279407
 40
3.18511008213773
 40
3.246407890063872
 40
3.312607550212603
 40
3.378877742711534
 40
3.440140399651445
 40
4.100501696006509
 40
4.754913085563556
 40
5.41133169342393
 40
6.077890432568709
 40
6.110575292670988
 40
6.143260152775768
 40
6.367989363395179
 40
6.610525374951536
 40
6.863389136467315
 40
7.119380025547627
 40
7.376036605091119
 40
7.63116477096632
 40
7.876722425456436
 40
8.104953735855988
 40
8.312916685924318
 40
8.497730294941295
 40
8.65101898431389
 40
8.764738853624575
 40
8.764738853624575
 40
8.764738853624575
 40
8.764738853624575
 10
174.7922649500512
 20
13.81626739612927
 30
0.0
 10
174.776661672693
 20
13.81826231079078
 30
0.0
 10
174.7463947960301
 20
13.822132013603
 30
0.0
 10
174.7010994202252
 20
13.82341984967269
 30
0.0
 10
174.6559553129348
 20
13.82308683554051
 30
0.0
 10
174.60990171234
 20
13.82314658674225
 30
0.0
 10
174.5640496172096
 20
13.82325813650002
 30
0.0
 10
174.5183711648165
 20
13.82277833456591
 30
0.0
 10
174.4750811541608
 20
13.82461109618722
 30
0.0
 10
174.4039947951512
 20
13.80049556814654
 30
0.0
 10
174.4057477261441
 20
13.92184693977252
 30
0.0
 10
174.358619637057
 20
14.00726239751235
 30
0.0
 10
174.3191478251762
 20
14.12486929345136
 30
0.0
 10
174.2706635532645
 20
14.24232752540439
 30
0.0
 10
174.2201017402522
 20
14.36405935761512
 30
0.0
 10
174.1718634610475
 20
14.49075967862462
 30
0.0
 10
174.1135232947594
 20
14.59933687784955
 30
0.0
 10
174.098089266726
 20
14.75620657134407
 30
0.0
 10
173.9566586330635
 20
14.72373446548323
 30
0.0
 10
173.8508397414903
 20
14.73512888682179
 30
0.0
 10
173.7358569725222
 20
14.73392591514616
 30
0.0
 10
173.625314225214
 20
14.73506945347407
 30
0.0
 10
173.5176583522783
 20
14.73418350037527
 30
0.0
 10
173.4121322529242
 20
14.73416602390519
 30
0.0
 10
173.3109192682012
 20
14.72714032472414
 30
0.0
 10
173.1266804827752
 20
14.7513585985987
 30
0.0
 10
173.1157393685411
 20
14.44741691121884
 30
0.0
 10
173.008769163475
 20
14.22353177253393
 30
0.0
 10
172.9098148604345
 20
14.03895314292502
 30
0.0
 10
172.9225090524006
 20
13.79530204804207
 30
0.0
 10
172.8050091716397
 20
13.82508046753198
 30
0.0
 10
172.742205586831
 20
13.82258089509604
 30
0.0
 10
172.67858720934
 20
13.82344075102806
 30
0.0
 10
172.3946014194073
 20
13.78098039941943
 30
0.0
 10
173.0251638499381
 20
14.50081952444784
 30
0.0
 10
173.1087645289071
 20
15.01276539435727
 30
0.0
 10
173.4929252789338
 20
15.53353743550047
 30
0.0
 10
173.4777208288565
 20
16.23519626253211
 30
0.0
 10
173.7239265722696
 20
16.22345633081257
 30
0.0
 10
173.8256346157561
 20
16.23225004452772
 30
0.0
 10
173.8249752035818
 20
15.98059650730352
 30
0.0
 10
173.9428317155827
 20
15.79818020733955
 30
0.0
 10
174.0315515260484
 20
15.55563740662865
 30
0.0
 10
174.1322292485259
 20
15.3234003053013
 30
0.0
 10
174.2311142712242
 20
15.08674644566912
 30
0.0
 10
174.3299676990669
 20
14.85461739170095
 30
0.0
 10
174.4256166390925
 20
14.63122222788787
 30
0.0
 10
174.5159904573271
 20
14.42272549049318
 30
0.0
 10
174.5989944568189
 20
14.23308448529322
 30
0.0
 10
174.6726088582797
 20
14.06663106068094
 30
0.0
 10
174.7342815895545
 20
13.92917699626103
 30
0.0
 10
174.7749458885603
 20
13.84999239430035
 30
0.0
 10
174.7922649500512
 20
13.81626739612927
 30
0.0
 11
174.7922649500512
 21
13.81626739612927
 31
0.0
 11
174.7453878317447
 21
13.82145433189186
 31
0.0
 11
174.7010975896124
 21
13.82315538223863
 31
0.0
 11
174.6568074431729
 21
13.82315538223863
 31
0.0
 11
174.6099309947159
 21
13.82315538223863
 31
0.0
 11
174.5630633657033
 21
13.82315538223863
 31
0.0
 11
174.5188084970408
 21
13.82315538223863
 31
0.0
 11
174.4744852776853
 21
13.82145433189186
 31
0.0
 11
174.4276419021442
 21
13.81626739612927
 31
0.0
 11
174.3992532136325
 21
13.90360966173245
 31
0.0
 11
174.3622721815898
 21
14.0072965627482
 31
0.0
 11
174.3188386236701
 21
14.12159987001127
 31
0.0
 11
174.2711055866936
 21
14.2411353126897
 31
0.0
 11
174.2208160133237
 21
14.36408057307565
 31
0.0
 11
174.1696467003931
 21
14.48883822929446
 31
0.0
 11
174.1197531801325
 21
14.61134141502772
 31
0.0
 11
174.073311911184
 21
14.72784517367917
 31
0.0
 11
173.9623611907588
 21
14.73087465284506
 31
0.0
 11
173.8497309225089
 21
14.7330045486779
 31
0.0
 11
173.7362152069449
 21
14.73432195319141
 31
0.0
 11
173.62270004768
 21
14.73473315978852
 31
0.0
 11
173.5169185312816
 21
14.73432195319141
 31
0.0
 11
173.4128501919225
 21
14.7330045486779
 31
0.0
 11
173.3087951724045
 21
14.73087465284506
 31
0.0
 11
173.2030010615595
 21
14.72784517367917
 31
0.0
 11
173.0980914750138
 21
14.46604437513351
 31
0.0
 11
173.0034868690331
 21
14.2171023265846
 31
0.0
 11
172.9252231210297
 21
13.99559756969557
 31
0.0
 11
172.8693431224554
 21
13.81626739612927
 31
0.0
 11
172.8082651639442
 21
13.82145433189186
 31
0.0
 11
172.742087361813
 21
13.82315538223863
 31
0.0
 11
172.6758390041282
 21
13.82145433189186
 31
0.0
 11
172.6147963233937
 21
13.81626739612927
 31
0.0
 11
172.889968495193
 21
14.41656508695143
 31
0.0
 11
173.158294573417
 21
15.01343642360775
 31
0.0
 11
173.4240277350404
 21
15.61366245644382
 31
0.0
 11
173.6914740737032
 21
16.22421385386062
 31
0.0
 11
173.7241589339805
 21
16.22421385386062
 31
0.0
 11
173.7568437942578
 21
16.22421385386062
 31
0.0
 11
173.8428300681057
 21
16.01658539037084
 31
0.0
 11
173.9357285813608
 21
15.79254614563518
 31
0.0
 11
174.0328714521463
 21
15.55908663180469
 31
0.0
 11
174.1317936458031
 21
15.32298128464146
 31
0.0
 11
174.2315341249926
 21
15.08649780379784
 31
0.0
 11
174.3313071129353
 21
14.85168781253711
 31
0.0
 11
174.4280608257448
 21
14.62599492196851
 31
0.0
 11
174.5188084970408
 21
14.4165805209792
 31
0.0
 11
174.6022150834546
 21
14.22607611130461
 31
0.0
 11
174.6770293263376
 21
14.05708232662467
 31
0.0
 11
174.7410729186603
 21
13.91781337700668
 31
0.0
 11
174.7922649500512
 21
13.81626739612927
 31
0.0
  0
SPLINE
  5
B0
102
{ACAD_REACTORS
330
CC
102
}
330
48
100
AcDbEntity
  8
_U_30EC_U_30A4_U_30E4_U_30FC_1
  6
Continuous
 62
     2
100
AcDbSpline
210
0.0
220
0.0
230
1.0
 70
    11
 71
     3
 72
    99
 73
    95
 74
    93
 42
0.000000001
 43
0.0000000001
 44
0.00000001
 40
0.0
 40
0.0
 40
0.0
 40
0.0
 40
0.0796417172272377
 40
0.1621768542356136
 40
0.2486489160957771
 40
0.3404969668524743
 40
0.4381912511164757
 40
0.5434463660245061
 40
0.6518115192847381
 40
0.7530190937886954
 40
0.8492196919724744
 40
0.9419290312998206
 40
1.034249663569976
 40
1.129078600620177
 40
1.226697027573227
 40
1.327220425421695
 40
1.470572134938007
 40
1.595489863371179
 40
1.719934125348385
 40
1.85057662012738
 40
1.989059629987321
 40
2.134139054226966
 40
2.280698007207227
 40
2.424529739039442
 40
2.565929576985833
 40
2.708239260773507
 40
2.861717887443659
 40
3.045168540347374
 40
3.18379830113862
 40
3.314813961455471
 40
3.442083470447321
 40
3.569912708373044
 40
3.702177512509441
 40
3.842307559659604
 40
3.992872223245982
 40
4.156750662218314
 40
4.31098186110762
 40
4.445859909322666
 40
4.572393936131632
 40
4.701656719782049
 40
4.768279086008537
 40
4.835960697898482
 40
4.91278891872942
 40
5.006285208481635
 40
5.026909478751683
 40
5.04753374902119
 40
5.101808031471263
 40
5.162325165538542
 40
5.226919745995877
 40
5.294231806596788
 40
5.364544852554891
 40
5.438319055467912
 40
5.517877651324274
 40
5.607647714861643
 40
5.700449642544461
 40
5.788251142364137
 40
5.872714706039767
 40
5.955167292575284
 40
6.03719239519037
 40
6.120669181469097
 40
6.206848616686346
 40
6.296680855416757
 40
6.442558392872589
 40
6.568190371608277
 40
6.692904567360356
 40
6.824220446557041
 40
6.963121850329354
 40
7.107843738851169
 40
7.253431663907278
 40
7.395187468036698
 40
7.533140753237757
 40
7.670550457175248
 40
7.81623651176926
 40
7.98769165735922
 40
8.142277421969258
 40
8.293662615415057
 40
8.442962460879286
 40
8.591598316185296
 40
8.74367899236179
 40
8.903725323699256
 40
9.076307008890492
 40
9.265578604680547
 40
9.459203795360779
 40
9.61761981027351
 40
9.753609671361874
 40
9.87487330000404
 40
9.954520184977715
 40
10.02416413719238
 40
10.09769764405439
 40
10.18909955924966
 40
10.20974586420136
 40
10.23039218263381
 40
10.30057101881266
 40
10.37632012987546
 40
10.37632012987546
 40
10.37632012987546
 40
10.37632012987546
 10
170.1465954835851
 20
14.13795663215995
 30
0.0
 10
170.1632217851219
 20
14.11720608845313
 30
0.0
 10
170.1970784206577
 20
14.07495111711899
 30
0.0
 10
170.2599822541036
 20
14.02029811392073
 30
0.0
 10
170.3332500940393
 20
13.97299025121051
 30
0.0
 10
170.4175969238635
 20
13.93527231437935
 30
0.0
 10
170.5132240615459
 20
13.91040619731951
 30
0.0
 10
170.6171853775346
 20
13.90309559345937
 30
0.0
 10
170.7224020220405
 20
13.91142322794053
 30
0.0
 10
170.8206626371333
 20
13.94149179651526
 30
0.0
 10
170.9058986427548
 20
13.98848822971881
 30
0.0
 10
170.9779220206103
 20
14.04952991250851
 30
0.0
 10
171.0350917709095
 20
14.1241296957859
 30
0.0
 10
171.076786874744
 20
14.2100246466017
 30
0.0
 10
171.1026952846292
 20
14.30485850432212
 30
0.0
 10
171.1118037332653
 20
14.41854979038368
 30
0.0
 10
171.0986864796486
 20
14.54332587770776
 30
0.0
 10
171.0325330334414
 20
14.66014719171895
 30
0.0
 10
170.9369370919568
 20
14.74512539577371
 30
0.0
 10
170.8249681022369
 20
14.81416684459165
 30
0.0
 10
170.6993659583268
 20
14.8720414204589
 30
0.0
 10
170.5656691620855
 20
14.92373723284341
 30
0.0
 10
170.431312281883
 20
14.97899092397181
 30
0.0
 10
170.3051983986877
 20
15.04939770641652
 30
0.0
 10
170.1926579987534
 20
15.13785540731247
 30
0.0
 10
170.0969963064458
 20
15.24981067868476
 30
0.0
 10
170.0334157151824
 20
15.3994991010138
 30
0.0
 10
170.0200706505015
 20
15.55932794385142
 30
0.0
 10
170.0320510987447
 20
15.71048405306846
 30
0.0
 10
170.071229892884
 20
15.83809244591538
 30
0.0
 10
170.135498775091
 20
15.95080874030848
 30
0.0
 10
170.223820499974
 20
16.04648609268684
 30
0.0
 10
170.3338091207627
 20
16.12354214985754
 30
0.0
 10
170.4632284401265
 20
16.18151396936277
 30
0.0
 10
170.6111838967792
 20
16.21739177588823
 30
0.0
 10
170.7682069455486
 20
16.22746719050564
 30
0.0
 10
170.917494046643
 20
16.21863637762591
 30
0.0
 10
171.059625361417
 20
16.19074899340353
 30
0.0
 10
171.1595922609625
 20
16.13413314701136
 30
0.0
 10
171.3125074736186
 20
16.08674602105509
 30
0.0
 10
171.2455131717168
 20
16.00197553001185
 30
0.0
 10
171.2296479120269
 20
15.93438901873485
 30
0.0
 10
171.1978750531297
 20
15.8692609279319
 30
0.0
 10
171.2150202209569
 20
15.76723453256954
 30
0.0
 10
171.1666427208231
 20
15.77493211681902
 30
0.0
 10
171.1315789440765
 20
15.76806771724809
 30
0.0
 10
171.1296697985718
 20
15.83263831158196
 30
0.0
 10
171.0985692931989
 20
15.87825639621396
 30
0.0
 10
171.0664551628455
 20
15.93561036628455
 30
0.0
 10
171.0208038475167
 20
15.98540462692555
 30
0.0
 10
170.9658508218387
 20
16.02994813718996
 30
0.0
 10
170.9010841173007
 20
16.06763988836551
 30
0.0
 10
170.8232377310596
 20
16.09283375791352
 30
0.0
 10
170.7355160553352
 20
16.09931230998111
 30
0.0
 10
170.6452903277806
 20
16.09235709285608
 30
0.0
 10
170.5594594694064
 20
16.06909190460919
 30
0.0
 10
170.4828343638596
 20
16.03131644107545
 30
0.0
 10
170.4165265636202
 20
15.98051641089574
 30
0.0
 10
170.3622560536964
 20
15.91731143407211
 30
0.0
 10
170.3224925345459
 20
15.84276455710368
 30
0.0
 10
170.2976775510588
 20
15.75917313997764
 30
0.0
 10
170.289212426287
 20
15.65192948382286
 30
0.0
 10
170.3019697987103
 20
15.52965457267559
 30
0.0
 10
170.3681548409273
 20
15.41149724291211
 30
0.0
 10
170.4640977399831
 20
15.32606325709532
 30
0.0
 10
170.5757914963182
 20
15.25583362306716
 30
0.0
 10
170.7010863668702
 20
15.19659162305306
 30
0.0
 10
170.8349823941447
 20
15.14616708086131
 30
0.0
 10
170.9689930333149
 20
15.09322516984383
 30
0.0
 10
171.0950885316915
 20
15.02750170625177
 30
0.0
 10
171.2076216638417
 20
14.94480352537322
 30
0.0
 10
171.3031370284232
 20
14.83996006310073
 30
0.0
 10
171.3672706486963
 20
14.6993711725157
 30
0.0
 10
171.3811103725279
 20
14.54065409451593
 30
0.0
 10
171.367395471223
 20
14.38153155217874
 30
0.0
 10
171.3244739153983
 20
14.23483828819214
 30
0.0
 10
171.2545906329065
 20
14.10119796587142
 30
0.0
 10
171.157459221383
 20
13.9853238769929
 30
0.0
 10
171.0347806023657
 20
13.89089981770087
 30
0.0
 10
170.8874408413167
 20
13.82179270651985
 30
0.0
 10
170.7177132497124
 20
13.77953210858851
 30
0.0
 10
170.5317404979596
 20
13.76781736230408
 30
0.0
 10
170.3528955926182
 20
13.77809486683435
 30
0.0
 10
170.1881733753742
 20
13.81966573769154
 30
0.0
 10
170.0834410841057
 20
13.88797642883942
 30
0.0
 10
169.9350960790366
 20
13.93675219032105
 30
0.0
 10
169.9980378194728
 20
14.02976591290842
 30
0.0
 10
170.0072274430058
 20
14.10296536248281
 30
0.0
 10
170.0303711301231
 20
14.16936294501346
 30
0.0
 10
170.0034588335316
 20
14.26974809527584
 30
0.0
 10
170.0521338956339
 20
14.26234033517377
 30
0.0
 10
170.0916530580696
 20
14.26894063620895
 30
0.0
 10
170.0996204944702
 20
14.19078703218932
 30
0.0
 10
170.1305436967922
 20
14.15600927375857
 30
0.0
 10
170.1465954835851
 20
14.13795663215995
 30
0.0
 11
170.1465954835851
 21
14.13795663215995
 31
0.0
 11
170.1982038075863
 21
14.07729869814736
 31
0.0
 11
170.2601105501335
 21
14.0227129516332
 31
0.0
 11
170.3327764009802
 21
13.97583980928383
 31
0.0
 11
170.4166468655843
 21
13.93839906276537
 31
0.0
 11
170.511221073241
 21
13.91390636311878
 31
0.0
 11
170.6161603327165
 21
13.90575829888472
 31
0.0
 11
170.7240739497552
 21
13.91564048638223
 31
0.0
 11
170.8208419941616
 21
13.94528704887482
 31
0.0
 11
170.9050776083318
 21
13.99175118948819
 31
0.0
 11
170.9756144207686
 21
14.0519141321815
 31
0.0
 11
171.0319442109979
 21
14.1250581946632
 31
0.0
 11
171.0736690016003
 21
14.21021434047522
 31
0.0
 11
171.0994680808032
 21
14.30436190989613
 31
0.0
 11
171.1080824729446
 21
14.40451552098221
 31
0.0
 11
171.0878517703356
 21
14.54643250879397
 31
0.0
 11
171.0272522666731
 21
14.65566684036387
 31
0.0
 11
170.9364971286285
 21
14.74081306430095
 31
0.0
 11
170.826010188474
 21
14.81052746532517
 31
0.0
 11
170.7008523531254
 21
14.86979854169923
 31
0.0
 11
170.5662951950997
 21
14.92404253474121
 31
0.0
 11
170.4316884277006
 21
14.98201274306005
 31
0.0
 11
170.3065802017258
 21
15.05297399304232
 31
0.0
 11
170.196027609828
 21
15.14113315968694
 31
0.0
 11
170.1053381235265
 21
15.25080295132617
 31
0.0
 11
170.0447055469483
 21
15.39179720476315
 31
0.0
 11
170.0245079172552
 21
15.57413260402314
 31
0.0
 11
170.0374030471346
 21
15.71216131926642
 31
0.0
 11
170.076101665939
 21
15.83733128451289
 31
0.0
 11
170.1393141731506
 21
15.94779262129084
 31
0.0
 11
170.2257499954545
 21
16.04196885390622
 31
0.0
 11
170.3336492808962
 21
16.11846540770651
 31
0.0
 11
170.4613526283328
 21
16.17615670109487
 31
0.0
 11
170.6075393259922
 21
16.21220066809974
 31
0.0
 11
170.7709768565449
 21
16.22421385386062
 31
0.0
 11
170.9248918431289
 21
16.21434269066864
 31
0.0
 11
171.0564887242607
 21
16.18477329831497
 31
0.0
 11
171.1725636344939
 21
16.13439993895252
 31
0.0
 11
171.2800792741122
 21
16.06264163167878
 31
0.0
 11
171.2516994050444
 21
16.00236624106887
 31
0.0
 11
171.2284855254283
 21
15.93879017337648
 31
0.0
 11
171.20783810408
 21
15.86478841992269
 31
0.0
 11
171.1871840681486
 21
15.77360197897328
 31
0.0
 11
171.1665597978414
 21
15.77360197897328
 31
0.0
 11
171.1459355275343
 21
15.77360197897328
 31
0.0
 11
171.1256706495791
 21
15.82395108486347
 31
0.0
 11
171.0994658759421
 21
15.87850045116929
 31
0.0
 11
171.0650468924451
 21
15.93316116296115
 31
0.0
 11
171.0203554612936
 21
15.98349593725411
 31
0.0
 11
170.965733335951
 21
16.02777175321529
 31
0.0
 11
170.9016722004326
 21
16.06436142334501
 31
0.0
 11
170.825968296114
 21
16.08882545979727
 31
0.0
 11
170.7365722046448
 21
16.09701100667022
 31
0.0
 11
170.6440937174207
 21
16.08926973931101
 31
0.0
 11
170.5594072091645
 21
16.06609003445566
 31
0.0
 11
170.483702448884
 21
16.02863495634008
 31
0.0
 11
170.4183754766516
 21
15.97832774281102
 31
0.0
 11
170.3650487887664
 21
15.9160029337988
 31
0.0
 11
170.3254809233901
 21
15.84249947895608
 31
0.0
 11
170.3009523754711
 21
15.75988443557391
 31
0.0
 11
170.2927954104108
 21
15.67042329844353
 31
0.0
 11
170.3130095765617
 21
15.52595308146574
 31
0.0
 11
170.373625616682
 21
15.41591177072937
 31
0.0
 11
170.4643479320758
 21
15.33033670130632
 31
0.0
 11
170.5748676948812
 21
15.25941954854625
 31
0.0
 11
170.7000089937719
 21
15.19914305550579
 31
0.0
 11
170.8345826882553
 21
15.14590447913021
 31
0.0
 11
170.9691729191968
 21
15.09039489581074
 31
0.0
 11
171.0942976816297
 21
15.02377281249411
 31
0.0
 11
171.204800907977
 21
14.9411886371675
 31
0.0
 11
171.2955397598288
 21
14.83800003476272
 31
0.0
 11
171.3561557999489
 21
14.70552315979585
 31
0.0
 11
171.3763699660998
 21
14.5352637848384
 31
0.0
 11
171.3621839747998
 21
14.38133030397413
 31
0.0
 11
171.3196087009192
 21
14.23605531269097
 31
0.0
 11
171.2499752884264
 21
14.10398854189068
 31
0.0
 11
171.1544992078713
 21
13.99007218775248
 31
0.0
 11
171.0341060772624
 21
13.89715272597018
 31
0.0
 11
170.8896160201845
 21
13.8283235766818
 31
0.0
 11
170.7223519532713
 21
13.78581275203967
 31
0.0
 11
170.5336103348226
 21
13.77165864614041
 31
0.0
 11
170.3405031726387
 21
13.78581275203967
 31
0.0
 11
170.1878975900911
 21
13.8283235766818
 31
0.0
 11
170.0661897942203
 21
13.8889903301389
 31
0.0
 11
169.9660261826363
 21
13.95734322942737
 31
0.0
 11
169.9922320587038
 21
14.03255545163076
 31
0.0
 11
170.0090121537617
 21
14.10014767383612
 31
0.0
 11
170.0206196447851
 21
14.17275926235962
 31
0.0
 11
170.0313606254138
 21
14.26352788212859
 31
0.0
 11
170.0520069443315
 21
14.26352788212859
 31
0.0
 11
170.0726532632492
 21
14.26352788212859
 31
0.0
 11
170.1048916391629
 21
14.20119204881084
 31
0.0
 11
170.1465954835851
 21
14.13795663215995
 31
0.0
  0
LWPOLYLINE
  5
B1
102
{ACAD_REACTORS
330
BE
102
}
330
48
100
AcDbEntity
  8
_U_30EC_U_30A4_U_30E4_U_30FC_1
  6
Continuous
 62
     2
100
AcDbPolyline
 90
        5
 70
     1
 43
0.0
 10
192.4578138032672
 20
15.39722336795626
 10
192.4578138032672
 20
15.22875434022058
 10
191.1602971697031
 20
15.22875434022058
 10
191.1602971697031
 20
15.39722336795626
 10
192.4578138032672
 20
15.39722336795626
  0
MTEXT
  5
B3
330
48
100
AcDbEntity
  8
1
 62
     2
100
AcDbMText
 10
32.49999999999999
 20
282.0000000000003
 30
0.0
 40
5.0
 41
0.0
 71
     5
 72
     1
  1
図番
  7
CONVERTER_11
 73
     1
 44
0.45454545454545
  0
MTEXT
  5
B4
330
48
100
AcDbEntity
  8
1
 62
     2
100
AcDbMText
 10
28.99999999999998
 20
34.0
 30
0.0
 40
3.5
 41
0.0
 71
     5
 72
     1
  1
備考
  7
CONVERTER_11
 73
     1
 44
0.45454545454545
  0
MTEXT
  5
B5
330
48
100
AcDbEntity
  8
1
 62
     2
100
AcDbMText
 10
28.99999999999998
 20
22.75
 30
0.0
 40
3.5
 41
0.0
 71
     5
 72
     1
  1
品名
  7
CONVERTER_11
 73
     1
 44
0.72727272727273
  0
MTEXT
  5
B6
330
48
100
AcDbEntity
  8
1
 62
     2
100
AcDbMText
 10
28.99999999999998
 20
14.25
 30
0.0
 40
3.5
 41
0.0
 71
     5
 72
     1
  1
品番
  7
CONVERTER_11
 73
     1
 44
0.72727272727273
  0
MTEXT
  5
B7
330
48
100
AcDbEntity
  8
1
 62
     2
100
AcDbMText
 10
101.5
 20
25.00000000000002
 30
0.0
 40
3.0
 41
0.0
 71
     5
 72
     1
  1
承認
  7
CONVERTER_11
 73
     1
 44
0.59090909090909
  0
MTEXT
  5
B8
330
48
100
AcDbEntity
  8
1
 62
     2
100
AcDbMText
 10
175.0
 20
23.50000000000002
 30
0.0
 40
3.5
 41
0.0
 71
     5
 72
     1
  1
第三角法
  7
CONVERTER_11
 73
     1
 44
0.54545454545455
  0
MTEXT
  5
B9
330
48
100
AcDbEntity
  8
1
 62
     2
100
AcDbMText
 10
118.5
 20
25.00000000000002
 30
0.0
 40
3.0
 41
0.0
 71
     5
 72
     1
  1
検図
  7
CONVERTER_11
 73
     1
 44
0.59090909090909
  0
MTEXT
  5
BA
330
48
100
AcDbEntity
  8
1
 62
     2
100
AcDbMText
 10
152.5
 20
25.00000000000002
 30
0.0
 40
3.0
 41
0.0
 71
     5
 72
     1
  1
設計
  7
CONVERTER_11
 73
     1
 44
0.59090909090909
  0
MTEXT
  5
BB
330
48
100
AcDbEntity
  8
1
 62
     2
100
AcDbMText
 10
135.5
 20
25.00000000000002
 30
0.0
 40
3.0
 41
0.0
 71
     5
 72
     1
  1
製図
  7
CONVERTER_11
 73
     1
 44
0.59090909090909
  0
MTEXT
  5
BC
330
48
100
AcDbEntity
  8
1
 62
     2
100
AcDbMText
 10
89.49999999999999
 20
24.00000000000002
 30
0.0
 40
3.5
 41
0.0
 71
     5
 72
     1
  1
尺度
  7
CONVERTER_11
 73
     1
 44
0.54545454545455
  0
MTEXT
  5
BD
330
48
100
AcDbEntity
  8
1
 62
   250
100
AcDbMText
 10
24.99999999999998
 20
5.0
 30
0.0
 40
3.5
 41
0.0
 71
     4
 72
     1
  1
備考欄の文字列 原点位置=4
  7
CONVERTER_11
 73
     1
 44
0.54545454545455
  0
HATCH
  5
BE
330
48
100
AcDbEntity
  8
1
  6
Continuous
 62
     2
100
AcDbHatch
 10
0.0
 20
0.0
 30
0.0
210
0.0
220
0.0
230
1.0
  2
CUSTOM0
 70
     0
 71
     1
 91
        1
 92
        1
 93
        4
 72
     1
 10
192.4578138032672
 20
15.39722336795626
 11
192.4578138032672
 21
15.22875434022058
 72
     1
 10
192.4578138032672
 20
15.22875434022058
 11
191.1602971697031
 21
15.22875434022058
 72
     1
 10
191.1602971697031
 20
15.22875434022058
 11
191.1602971697031
 21
15.39722336795626
 72
     1
 10
191.1602971697031
 20
15.39722336795626
 11
192.4578138032672
 21
15.39722336795626
 97
        1
330
B1
 75
     1
 76
     2
 52
45.0
 41
0.1
 77
     0
 78
     1
 53
45.0
 43
0.0
 44
0.0
 45
-0.282842712474619
 46
0.0
 79
     0
 98
        1
 10
0.0
 20
0.0
  0
HATCH
  5
BF
330
48
100
AcDbEntity
  8
1
  6
Continuous
 62
     2
100
AcDbHatch
 10
0.0
 20
0.0
 30
0.0
210
0.0
220
0.0
230
1.0
  2
CUSTOM1
 70
     0
 71
     1
 91
        1
 92
        1
 93
        3
 72
     4
 94
        3
 73
     0
 74
     0
 95
       24
 96
       20
 40
0.0
 40
0.0
 40
0.0
 40
0.0
 40
0.2211075008753644
 40
0.4273218586245512
 40
0.508017467923906
 40
0.5914835907869685
 40
0.8143265690192154
 40
1.054651302686517
 40
1.295452694023105
 40
1.51810923132874
 40
1.540864321905355
 40
1.595126460622643
 40
1.659890947896012
 40
1.714153085187397
 40
1.736908174961697
 40
1.764951100735405
 40
1.801562291221077
 40
1.953914424543738
 40
2.126104167379819
 40
2.126104167379819
 40
2.126104167379819
 40
2.126104167379819
 10
185.9375369556888
 20
15.58989295113017
 10
185.9112579081811
 20
15.53097628234374
 10
185.8604698894426
 20
15.41711139679254
 10
185.813178483911
 20
15.14441958233114
 10
185.7043482802617
 20
15.24445482575455
 10
185.5514800279637
 20
15.27118593367333
 10
185.7686155181199
 20
15.48518135017632
 10
185.783848367438
 20
15.70332117782488
 10
185.8906889492001
 20
15.88451579066425
 10
185.8305380947075
 20
16.16913226311401
 10
185.9334317395401
 20
16.1411408922245
 10
185.9779933468149
 20
16.13243251602299
 10
186.0380842395397
 20
16.12139654183356
 10
186.0756619587438
 20
16.10767523055561
 10
186.1252466928606
 20
16.10756076160223
 10
186.0930158919325
 20
16.07306592398622
 10
186.0171802221879
 20
16.0840410453797
 10
186.0429447159694
 20
15.89858969582449
 10
186.005589676385
 20
15.80702313549589
 10
185.9857704961609
 20
15.75844135397705
 72
     4
 94
        3
 73
     0
 74
     0
 95
       70
 96
       66
 40
0.0
 40
0.0
 40
0.0
 40
0.0
 40
0.0241731073021188
 40
0.0846058988987013
 40
0.1631685280352715
 40
0.2417311571788903
 40
0.3021639488291614
 40
0.3263370654894688
 40
0.3533118254248028
 40
0.4228783438921259
 40
0.517999909531255
 40
0.621639823946525
 40
0.7167613891498853
 40
0.7863279069649011
 40
0.8133026791760983
 40
0.8372943998771104
 40
0.8945054261372299
 40
0.9627895541962352
 40
1.020000580349045
 40
1.043992300975172
 40
1.071934345522947
 40
1.113121768772879
 40
1.145225199332204
 40
1.225483775412739
 40
1.329819923771447
 40
1.434156071994337
 40
1.514414647795759
 40
1.546518078208367
 40
1.578974764260112
 40
1.662678849314106
 40
1.777131373668327
 40
1.901833377474689
 40
2.016285900500479
 40
2.09998998252779
 40
2.132446666570148
 40
2.15878235448587
 40
2.216720867907661
 40
2.274659381334084
 40
2.300995069256018
 40
2.33345175406599
 40
2.417155836543643
 40
2.531608358985054
 40
2.65631036228352
 40
2.770762886388653
 40
2.854466971339789
 40
2.886923657363596
 40
2.91359797683303
 40
2.982389642874832
 40
3.076451716946695
 40
3.178937260458307
 40
3.272999334739708
 40
3.341791001058928
 40
3.36846532066324
 40
3.396976080738462
 40
3.472140811845698
 40
3.578408190308387
 40
3.700226892455824
 40
3.822045594634041
 40
3.928312973256148
 40
4.003477705314545
 40
4.03198845686661
 40
4.05832414479741
 40
4.116262658236575
 40
4.174201171400378
 40
4.200536849608312
 40
4.200536849608312
 40
4.200536849608312
 40
4.200536849608312
 10
185.9857704961609
 20
15.75844135397705
 10
185.9938259544679
 20
15.75844359811687
 10
186.0220200663241
 20
15.75845146032798
 10
186.0765534803672
 20
15.75830754828371
 10
186.1482891808603
 20
15.75909120499898
 10
186.2236240137062
 20
15.75627570463811
 10
186.2713052366438
 20
15.76298403400957
 10
186.3195071245615
 20
15.75197563692431
 10
186.3062571799873
 20
15.80546402997033
 10
186.3151093964537
 20
15.86049583543092
 10
186.3108698036285
 20
15.95419908726109
 10
186.3133483481278
 20
16.04959482218532
 10
186.3090938706059
 20
16.14356821983387
 10
186.3179818665846
 20
16.19795062438013
 10
186.3046977409944
 20
16.25233997691461
 10
186.3514119277108
 20
16.23842216335357
 10
186.3943254545736
 20
16.24103877374043
 10
186.4605443456684
 20
16.23648422450755
 10
186.5013342271798
 20
16.22778162134162
 10
186.5525145690819
 20
16.23531799890194
 10
186.52537204872
 20
16.19349970223292
 10
186.4803096055707
 20
16.20284992072592
 10
186.4942065045051
 20
16.13841207371838
 10
186.4858414431653
 20
16.07378219627399
 10
186.4903632178398
 20
15.97529141193888
 10
186.4854741311167
 20
15.8759593284257
 10
186.4950258992082
 20
15.81293115552969
 10
186.47997614552
 20
15.7496401149979
 10
186.5449159457208
 20
15.76515072944268
 10
186.6116246399496
 20
15.75499387697813
 10
186.7241435470827
 20
15.75988800099366
 10
186.8390235448953
 20
15.75691204732784
 10
186.9519871999746
 20
15.7622166418499
 10
187.0176267597676
 20
15.7510730647209
 10
187.0816276691052
 20
15.76744532319857
 10
187.0703142889188
 20
15.71761689905275
 10
187.0775339871508
 20
15.67416715212123
 10
187.0703142611268
 20
15.63071745587445
 10
187.0816277175993
 20
15.58088895196876
 10
187.0176263598971
 20
15.59726166091362
 10
186.9519921240458
 20
15.58611271661588
 10
186.838997431733
 20
15.59144857206854
 10
186.7242456548642
 20
15.58834345663821
 10
186.6113183686861
 20
15.59364894682589
 10
186.5455220903584
 20
15.58257300019593
 10
186.4816097975358
 20
15.59887597847618
 10
186.4936015165126
 20
15.54423524395741
 10
186.4862104613006
 20
15.48854295047843
 10
186.4892684841982
 20
15.39649689140569
 10
186.4893422785683
 20
15.30179109873102
 10
186.4860313578359
 20
15.20952782902266
 10
186.4939505989903
 20
15.1543576873614
 10
186.4815076611617
 20
15.10058169100137
 10
186.5389116551632
 20
15.11453768862782
 10
186.5994708140382
 20
15.10511457884227
 10
186.7048680855081
 20
15.10942885928705
 10
186.8204294070622
 20
15.10835504612032
 10
186.9359688877797
 20
15.10725965900995
 10
187.0414181130841
 20
15.11162525770633
 10
187.1018680471804
 20
15.10209426030672
 10
187.159283773911
 20
15.11617289606381
 10
187.1477773876709
 20
15.06707153265683
 10
187.153756678175
 20
15.02564658018649
 10
187.1520311050801
 20
14.97651677966696
 10
187.1521500122971
 20
14.94854428447608
 10
187.1521871691833
 20
14.9398028819595
 72
     4
 94
        3
 73
     0
 74
     0
 95
       62
 96
       58
 40
0.0
 40
0.0
 40
0.0
 40
0.0
 40
0.0598250028308485
 40
0.2024846486897331
 40
0.3727558389221031
 40
0.515415484793607
 40
0.5752404975785339
 40
0.933232677548708
 40
1.290451762839459
 40
1.602077253145798
 40
1.699931634111985
 40
1.799359756424888
 40
2.270120149656965
 40
2.804661928461394
 40
2.882342287383107
 40
3.076543185718956
 40
3.329004354835414
 40
3.581465524568237
 40
3.77566642454352
 40
3.85334678455814
 40
3.899120679594914
 40
3.98412934179194
 40
4.029903236817317
 40
4.105797496059472
 40
4.295533144152429
 40
4.542189486611671
 40
4.788845828875615
 40
4.978581476409998
 40
5.054475735244241
 40
5.621734664339238
 40
6.130867242037293
 40
6.225249780948469
 40
6.318913039727168
 40
6.663579954558763
 40
7.047498900224612
 40
7.43523079157556
 40
7.498943906667972
 40
7.650875181209965
 40
7.832212509001476
 40
7.984143783696862
 40
8.047856898902989
 40
8.091554632732498
 40
8.17270756696416
 40
8.216405300767885
 40
8.289021782160741
 40
8.462184160757058
 40
8.668861838005224
 40
8.84202421526373
 40
8.914640695474926
 40
8.989881580861132
 40
9.155411528827035
 40
9.320941477743816
 40
9.396182352487065
 40
9.454709011143583
 40
9.583467660170575
 40
9.712226309012797
 40
9.770752957989279
 40
9.770752957989279
 40
9.770752957989279
 40
9.770752957989279
 10
187.1521871691833
 20
14.9398028819595
 10
187.1322348171623
 20
14.93980875568671
 10
187.0647037716466
 20
14.93982863806157
 10
186.9410612161788
 20
14.93949362520326
 10
186.7863180150056
 20
14.94107673750512
 10
186.669734948248
 20
14.93686078860495
 10
186.455094263424
 20
14.95215205331626
 10
186.8518948407228
 20
14.59198721286191
 10
186.8945656069267
 20
14.37510503397167
 10
187.318916214661
 20
14.19325062511451
 10
187.1439821496073
 20
14.0898519656807
 10
187.0194523925084
 20
13.87831523212722
 10
186.7666277235942
 20
14.34806081001558
 10
186.4797602893627
 20
14.9951151698452
 10
186.490633592666
 20
14.68782672154694
 10
186.488289277796
 20
14.52288616971779
 10
186.4861096126411
 20
14.28879670711694
 10
186.4980774396346
 20
14.04498072421784
 10
186.4687984740631
 20
13.89855796860985
 10
186.511452262547
 20
13.75113490174538
 10
186.4239814005639
 20
13.76685797306221
 10
186.3768527606744
 20
13.76694303543455
 10
186.2898973207712
 20
13.7510942548291
 10
186.3313474021722
 20
13.89527771422762
 10
186.3029875004284
 20
14.03855052698456
 10
186.3145973775299
 20
14.27674947365265
 10
186.3124175648271
 20
14.50517235240346
 10
186.3103111127993
 20
14.66705729375995
 10
186.3208035438321
 20
14.98153709333751
 10
186.0128963252894
 20
14.29229470872438
 10
185.7055258267453
 20
13.8147675024304
 10
185.5851367066275
 20
14.0374111263743
 10
185.4074607910721
 20
14.15011034955565
 10
185.8853326362894
 20
14.32548143465462
 10
185.9353959057208
 20
14.56091929252032
 10
186.3583799621717
 20
14.95322989344606
 10
186.127675427354
 20
14.93655307029067
 10
186.004968585934
 20
14.9426951894877
 10
185.8325483095662
 20
14.93312822699574
 10
185.7213224694449
 20
14.95448818489666
 10
185.6025779627448
 20
14.9213626535742
 10
185.6183169706686
 20
15.00203900606883
 10
185.6178550933763
 20
15.04645414290854
 10
185.6027881889931
 20
15.12967081778533
 10
185.7372380935443
 20
15.09062651983884
 10
185.8619755545745
 20
15.11739729328423
 10
186.0628755237279
 20
15.10063949044053
 10
186.1921540949353
 20
15.12204225913004
 10
186.3328419928293
 20
15.08868778853421
 10
186.2980927452614
 20
15.22651875785069
 10
186.3222185666711
 20
15.34963257349482
 10
186.2967086182392
 20
15.47024055670336
 10
186.3333251146684
 20
15.60539865141494
 10
186.2211417027769
 20
15.58094545781891
 10
186.1280356457135
 20
15.59307749842022
 10
186.0191547579819
 20
15.58957630069994
 10
185.9569697640963
 20
15.58981755951602
 10
185.9375369557245
 20
15.58989295124144
 97
        3
330
A2
330
A0
330
A1
 75
     1
 76
     2
 52
45.0
 41
0.1
 77
     0
 78
     1
 53
45.0
 43
0.0
 44
0.0
 45
-0.282842712474619
 46
0.0
 79
     0
 98
        1
 10
0.0
 20
0.0
  0
HATCH
  5
C0
330
48
100
AcDbEntity
  8
1
  6
Continuous
 62
     2
100
AcDbHatch
 10
0.0
 20
0.0
 30
0.0
210
0.0
220
0.0
230
1.0
  2
CUSTOM2
 70
     0
 71
     1
 91
        1
 92
        1
 93
        1
 72
     4
 94
        3
 73
     0
 74
     0
 95
      124
 96
      120
 40
0.0
 40
0.0
 40
0.0
 40
0.0
 40
0.027818722962451
 40
0.1011590162384269
 40
0.2048470170590239
 40
0.3237088716559245
 40
0.4425707262522
 40
0.5462587270699547
 40
0.6195990203311798
 40
0.647417752257866
 40
0.6750060736115224
 40
0.7357003855242741
 40
0.7963946998054474
 40
0.8239830245571766
 40
0.854093381110286
 40
0.937339662940954
 40
1.063094687343235
 40
1.220731268638102
 40
1.399622220914776
 40
1.589140358637817
 40
1.778658496423955
 40
1.957549448940622
 40
2.115186030873244
 40
2.240941056914548
 40
2.324187341760646
 40
2.354297700109496
 40
2.381886024672002
 40
2.442580338710589
 40
2.503274652750611
 40
2.53086297731472
 40
2.560983949278673
 40
2.640393784453047
 40
2.75266286175927
 40
2.881361560118315
 40
3.010060258455362
 40
3.122329335705538
 40
3.20173917081818
 40
3.231860142753541
 40
3.264298024030597
 40
3.352343701778467
 40
3.48209522686899
 40
3.639650650173249
 40
3.811108022565706
 40
3.982565394928213
 40
4.140120818152794
 40
4.269872343141503
 40
4.357918020802566
 40
4.390355902044193
 40
4.423256253992791
 40
4.508104530073312
 40
4.62412156063708
 40
4.750528176031865
 40
4.866545206602312
 40
4.951393482692297
 40
4.984293834645698
 40
5.011450833242614
 40
5.071196230152402
 40
5.130941627057477
 40
5.158098625649143
 40
5.190998977601805
 40
5.275847253689688
 40
5.39186428425715
 40
5.518270899648667
 40
5.634287930209735
 40
5.719136206288408
 40
5.752036558236324
 40
5.78213094628335
 40
5.862783906229523
 40
5.979550131775391
 40
6.117984316640796
 40
6.263641154588343
 40
6.402075339414547
 40
6.518841564908343
 40
6.599494524815925
 40
6.629588912849163
 40
6.654403028226739
 40
6.713575149488507
 40
6.784199939329824
 40
6.843372060493926
 40
6.868186175803172
 40
6.896246243202258
 40
6.939586233758655
 40
6.967846564565283
 40
7.043584251090218
 40
7.153234334452078
 40
7.283231855734824
 40
7.420011856035856
 40
7.550009376580206
 40
7.659659458835606
 40
7.735397144417597
 40
7.763657474851769
 40
7.796409728011426
 40
7.8808760650967
 40
7.996370852466086
 40
8.12220844641898
 40
8.237703224799574
 40
8.322169562011268
 40
8.354921815206282
 40
8.382078813308063
 40
8.44182420920737
 40
8.501569605240519
 40
8.5287266034861
 40
8.561478856696148
 40
8.645945193878198
 40
8.76143998086571
 40
8.887277580764852
 40
9.002772362001373
 40
9.087238696661593
 40
9.119990949236048
 40
9.152428830613747
 40
9.240474508638961
 40
9.370226034149912
 40
9.527781457984796
 40
9.699238830981782
 40
9.870696203978975
 40
10.02825162781439
 40
10.15800315332601
 40
10.24604883135156
 40
10.27848670378559
 40
10.27848670378559
 40
10.27848670378559
 40
10.27848670378559
 10
195.3821827564383
 20
14.01410517385758
 10
195.3914554737523
 20
14.01410498511275
 10
195.4251744536861
 20
14.01410430876715
 10
195.4934706812465
 20
14.01411807243305
 10
195.592014171158
 20
14.01403224219546
 10
195.7062066464812
 20
14.01441755612252
 10
195.818589441707
 20
14.01300835897546
 10
195.9214376600118
 20
14.01719117422244
 10
195.9806839874849
 20
14.00823089251984
 10
196.0371265937033
 20
14.02164434526062
 10
196.0246255586955
 20
13.97087198613362
 10
196.0329549635703
 20
13.92589320939068
 10
196.024817084112
 20
13.88056752990489
 10
196.0370529214457
 20
13.82931932408467
 10
195.9747773490333
 20
13.84447955365277
 10
195.9060513026868
 20
13.83359750710743
 10
195.7782756749591
 20
13.83911304747973
 10
195.6262984511644
 20
13.837008512537
 10
195.4502695972521
 20
13.83771002588474
 10
195.2644431934287
 20
13.83745237531293
 10
195.0786167437174
 20
13.83771005144604
 10
194.9025880142167
 20
13.83700841847732
 10
194.7506104154193
 20
13.83911332229989
 10
194.6228357664554
 20
13.83359680767641
 10
194.5541077836579
 20
13.84448077125944
 10
194.4918349042882
 20
13.8293178668421
 10
194.5040616290017
 20
13.88057510805172
 10
194.4960004462595
 20
13.92582473272426
 10
194.5040675809891
 20
13.97106357955324
 10
194.4918238487082
 20
14.02234176909959
 10
194.5525017120696
 20
14.00749577363135
 10
194.6162810745735
 20
14.01756448170736
 10
194.7277314353502
 20
14.01294644212001
 10
194.8497533443823
 20
14.01413328905469
 10
194.9719538137823
 20
14.01515863900635
 10
195.0829794287392
 20
14.01092475623403
 10
195.1476517413958
 20
14.0201858452174
 10
195.2091162810501
 20
14.00604423049683
 10
195.1930065601337
 20
14.07235527884518
 10
195.2042980327358
 20
14.14447790121976
 10
195.198740082256
 20
14.27513760888286
 10
195.200803506169
 20
14.42607323708242
 10
195.2000167127295
 20
14.59335873107887
 10
195.2007845215627
 20
14.76061110332303
 10
195.1988038785628
 20
14.91163289269915
 10
195.2041306156621
 20
15.04206069552995
 10
195.1933101388425
 20
15.11465442605901
 10
195.2090326429875
 20
15.18150469436799
 10
195.143270813249
 20
15.16580512490825
 10
195.0756367830764
 20
15.17609243083997
 10
194.9615885293809
 20
15.17113786847122
 10
194.8451242674902
 20
15.17414128030476
 10
194.7306554121477
 20
15.1688030314339
 10
194.6640324657811
 20
15.18001268074825
 10
194.5990769715185
 20
15.16349132665012
 10
194.6107989758707
 20
15.2147372047706
 10
194.603283018912
 20
15.25950333784091
 10
194.6107989878835
 20
15.30426944897962
 10
194.5990769505345
 20
15.35551536129741
 10
194.6640326339199
 20
15.33899381766816
 10
194.730653333982
 20
15.35020571373945
 10
194.8451352858063
 20
15.34485436710665
 10
194.9615454436962
 20
15.34791188771118
 10
195.075766017464
 20
15.34278499010709
 10
195.1430150439226
 20
15.353457333556
 10
195.2083325941439
 20
15.33742082669077
 10
195.1941391448552
 20
15.39949685750054
 10
195.2036059462995
 20
15.46586761628764
 10
195.1990269004085
 20
15.58239972741967
 10
195.2007696555948
 20
15.71426685022377
 10
195.1997551495392
 20
15.85615960150274
 10
195.2017191344372
 20
15.98769050702581
 10
195.196466855385
 20
16.10524577283002
 10
195.2073408763475
 20
16.16947789001586
 10
195.1919536641853
 20
16.23108802545048
 10
195.24075915378
 20
16.21702407382112
 10
195.2853995564726
 20
16.21954742075315
 10
195.3538643946742
 20
16.21512797401711
 10
195.3959106169102
 20
16.20613025544036
 10
195.4487544758775
 20
16.21411714866512
 10
195.4207035002014
 20
16.17113917611674
 10
195.3749142248594
 20
16.18259552043837
 10
195.3869539073265
 20
16.12173520005137
 10
195.3796086070641
 20
16.05769299468773
 10
195.3831195826162
 20
15.94909368863912
 10
195.3819806760173
 20
15.82494319144753
 10
195.3819174780263
 20
15.69189719829879
 10
195.3832872966868
 20
15.56797381249556
 10
195.3791638801313
 20
15.45868337849339
 10
195.3877763103564
 20
15.39608580094171
 10
195.3746757454402
 20
15.33740133296367
 10
195.4393884328198
 20
15.35362113810903
 10
195.5060405953156
 20
15.34270260383313
 10
195.6198779541102
 20
15.34793740173756
 10
195.7357259122097
 20
15.34485547516915
 10
195.849692426328
 20
15.35018259812513
 10
195.9160341018099
 20
15.33904208166545
 10
195.980718852548
 20
15.35546979593179
 10
195.9689820772722
 20
15.30425925210052
 10
195.9765168063041
 20
15.25950334121002
 10
195.9689820992257
 20
15.21474739010028
 10
195.9807188140737
 20
15.16353690871041
 10
195.9160344075252
 20
15.1799642779422
 10
195.8496886430824
 20
15.1688278444727
 10
195.7357459487012
 20
15.17413115893121
 10
195.6197995623054
 20
15.17114764593544
 10
195.5062756882122
 20
15.17606892268395
 10
195.4389231318804
 20
15.1658508751352
 10
195.3734285122495
 20
15.18145996138817
 10
195.3891713619218
 20
15.11463851827412
 10
195.3783275998213
 20
15.0420705781588
 10
195.3836581629792
 20
14.91162247614417
 10
195.3817136151854
 20
14.76064558185226
 10
195.3823133683215
 20
14.59322243934159
 10
195.3821506559604
 20
14.42656176118373
 10
195.3821895488136
 20
14.27360142921636
 10
195.3821816413099
 20
14.14849178985706
 10
195.3821828382746
 20
14.06507890991421
 10
195.3821827716207
 20
14.02491778281976
 10
195.3821827564383
 20
14.01410517385758
 97
        1
330
A3
 75
     1
 76
     2
 52
45.0
 41
0.1
 77
     0
 78
     1
 53
45.0
 43
0.0
 44
0.0
 45
-0.282842712474619
 46
0.0
 79
     0
 98
        1
 10
0.0
 20
0.0
  0
HATCH
  5
C1
330
48
100
AcDbEntity
  8
1
  6
Continuous
 62
     2
100
AcDbHatch
 10
0.0
 20
0.0
 30
0.0
210
0.0
220
0.0
230
1.0
  2
CUSTOM3
 70
     0
 71
     1
 91
        1
 92
        1
 93
        1
 72
     4
 94
        3
 73
     0
 74
     0
 95
      131
 96
      127
 40
0.0
 40
0.0
 40
0.0
 40
0.0
 40
0.0195577029826533
 40
0.0426490537461325
 40
0.286360757585659
 40
0.5344948436189464
 40
0.7842238845573559
 40
0.8737315789467979
 40
0.9803832810313707
 40
1.092842274517093
 40
1.199761146656876
 40
1.289788768186557
 40
1.351573580786229
 40
1.370727117561456
 40
1.416400936017849
 40
1.470914848355988
 40
1.516588666791744
 40
1.535742203552823
 40
1.634216592293171
 40
1.760283341175005
 40
1.897966686682065
 40
2.031216387368888
 40
2.049689751137882
 40
2.101115601646818
 40
2.179502577739936
 40
2.27885931831405
 40
2.393194462258708
 40
2.516516648383821
 40
2.64283451540595
 40
2.766156701983452
 40
2.880491846754567
 40
2.979848588358609
 40
3.058235565443786
 40
3.109661416668941
 40
3.128134780704116
 40
3.146783742386433
 40
3.191254343315294
 40
3.244332157315953
 40
3.288802758225856
 40
3.307451719895099
 40
3.327717853844713
 40
3.383747753580071
 40
3.468388665924462
 40
3.574487837698771
 40
3.694892515728875
 40
3.822449946852013
 40
3.950007377920402
 40
4.070412055800494
 40
4.176511227368049
 40
4.261152139501496
 40
4.317182039076689
 40
4.337448172964608
 40
4.620011002696242
 40
4.885096638397555
 40
4.945373043518351
 40
5.01410771048868
 40
5.070481727652094
 40
5.319246955636642
 40
5.584812164506155
 40
5.859000912057008
 40
6.13374693754219
 40
6.401732212968993
 40
6.420736683995584
 40
6.472845717451234
 40
6.550702743894162
 40
6.64695119387437
 40
6.754234497930694
 40
6.865196086587472
 40
6.972479390357931
 40
7.068727839772093
 40
7.146584865451102
 40
7.198693898189331
 40
7.217698368905472
 40
7.234950401630948
 40
7.276089864269991
 40
7.325191803516098
 40
7.366331266090482
 40
7.383583298769832
 40
7.402779163492209
 40
7.45338644325464
 40
7.524934666445642
 40
7.606953361405981
 40
7.688972056429133
 40
7.760520279784384
 40
7.811127559734626
 40
7.830323424546247
 40
7.847844055299877
 40
7.894799345666918
 40
7.962779392744606
 40
8.043374293560653
 40
8.12817414514956
 40
8.208769044817364
 40
8.276749090377065
 40
8.323704379669623
 40
8.341225010056357
 40
8.358497614800505
 40
8.401679126686682
 40
8.457815092185712
 40
8.513951057728116
 40
8.557132569708015
 40
8.574405174505086
 40
8.602340668616403
 40
8.643455660539946
 40
8.663225271966613
 40
8.715345156564261
 40
8.789031889628596
 40
8.873502045520326
 40
8.957972194323949
 40
9.03165892556784
 40
9.08377881123453
 40
9.103548423002993
 40
9.11955008312353
 40
9.160817522379832
 40
9.217244429110197
 40
9.278724491644683
 40
9.335151398295467
 40
9.376418837357763
 40
9.39242049730055
 40
9.40119630273477
 40
9.417494229384246
 40
9.426270027749519
 40
9.440875075477551
 40
9.47570249699873
 40
9.517270709865894
 40
9.552098131994063
 40
9.56670316988427
 40
9.56670316988427
 40
9.56670316988427
 40
9.56670316988427
 10
194.6170254148479
 20
15.67015871511028
 10
194.6134345093371
 20
15.6645369070216
 10
194.6056039123624
 20
15.65227754419115
 10
194.5129968974549
 20
15.61601916040961
 10
194.4887622233245
 20
15.40148444212719
 10
194.3858709845938
 20
15.22197284509707
 10
194.1220492364303
 20
15.03615573798144
 10
194.2845471569179
 20
14.95959336566081
 10
194.3607225760838
 20
14.89856693195444
 10
194.4492171072758
 20
14.83515804544757
 10
194.538993023311
 20
14.77525634219563
 10
194.5883817636046
 20
14.72102154849208
 10
194.674570815738
 20
14.69286240541834
 10
194.6411260674229
 20
14.65713309652812
 10
194.621467116631
 20
14.62550387991904
 10
194.5919888217882
 20
14.58475872796073
 10
194.568898944603
 20
14.55504663489642
 10
194.5380205968357
 20
14.50211422668496
 10
194.4729193365739
 20
14.62740334938902
 10
194.3796000122416
 20
14.68213900233935
 10
194.2950636285138
 20
14.73916423939343
 10
194.1722498125743
 20
14.89675287427523
 10
194.1764450847301
 20
14.82035806766836
 10
194.1751478652677
 20
14.77361280161296
 10
194.1758126448076
 20
14.695847858126
 10
194.1755549986957
 20
14.59902068324423
 10
194.1756431239921
 20
14.48650279078809
 10
194.1756077302282
 20
14.365240859457
 10
194.1756511758278
 20
14.24086897858961
 10
194.1755199942406
 20
14.11967683631337
 10
194.1759477562046
 20
14.00691148919743
 10
194.174667820231
 20
13.91082913768744
 10
194.1779759851044
 20
13.831138264687
 10
194.1715197740086
 20
13.78815175788784
 10
194.1806208705556
 20
13.74955432372043
 10
194.1447910339935
 20
13.7581088772407
 10
194.1115223815252
 20
13.75342519985446
 10
194.060456257604
 20
13.75351298759784
 10
194.0269723972813
 20
13.75794430283821
 10
193.9907585408754
 20
13.74960793842509
 10
194.0009782568665
 20
13.79145277179284
 10
193.9936487887773
 20
13.83778560820173
 10
193.9973633136103
 20
13.92374831106015
 10
193.9959480554896
 20
14.02605142704849
 10
193.9964105554638
 20
14.14453223931512
 10
193.996277368623
 20
14.26957683153355
 10
193.9963015910045
 20
14.3947582810705
 10
193.9963354925551
 20
14.51286645379058
 10
193.9962060293132
 20
14.61628748709516
 10
193.9965507549081
 20
14.69932036153667
 10
193.995869827869
 20
14.75143368521243
 10
193.9994586600622
 20
14.87912907821362
 10
193.7826171386436
 20
14.5804871681962
 10
193.6021354921949
 20
14.35263981511509
 10
193.5490322295611
 20
14.49373443289816
 10
193.5200429133149
 20
14.54325767560944
 10
193.4196648062818
 20
14.64641779790105
 10
193.7405127723261
 20
14.72695035023781
 10
193.8689897005429
 20
14.91066283036433
 10
194.0906454325359
 20
15.11931995771764
 10
194.1770224894068
 20
15.29339211228345
 10
194.4549394229074
 20
15.56967051342512
 10
194.3346247839284
 20
15.56534559551115
 10
194.2863197351348
 20
15.56614856202553
 10
194.2102377454905
 20
15.56574582146585
 10
194.116701000975
 20
15.56590275611611
 10
194.0117594788557
 20
15.56582502576224
 10
193.9033887738717
 20
15.56595464378556
 10
193.7981454235897
 20
15.56554393490692
 10
193.7056237819412
 20
15.56682073671592
 10
193.6268130800707
 20
15.5634076653485
 10
193.5839674565379
 20
15.57023350036321
 10
193.5449499586516
 20
15.56065064201124
 10
193.5526365271863
 20
15.59420779565543
 10
193.5485464404312
 20
15.62523550322234
 10
193.5485531368814
 20
15.672365292709
 10
193.5526239724911
 20
15.70340941646779
 10
193.5449495574582
 20
15.73701861635901
 10
193.5834819405495
 20
15.72748410420872
 10
193.624122801448
 20
15.73397435498071
 10
193.6951471850463
 20
15.73100150650254
 10
193.7729318149633
 20
15.73174761399158
 10
193.8507292246474
 20
15.73247814044525
 10
193.9217232089907
 20
15.7295423551416
 10
193.962427979182
 20
15.73595468772952
 10
194.000985348991
 20
15.72650524176004
 10
193.9927342754927
 20
15.76264692158784
 10
193.9982346669359
 20
15.80129837613227
 10
193.9955754206163
 20
15.86913528561839
 10
193.9965815471533
 20
15.9459164153874
 10
193.9960178018319
 20
16.02849393582757
 10
193.9970714526592
 20
16.10517329229878
 10
193.994267586313
 20
16.173319907767
 10
194.0000702721304
 20
16.21132399809346
 10
193.9915654551158
 20
16.24758448077646
 10
194.0255610233125
 20
16.23755723771853
 10
194.0594575683099
 20
16.24073266813706
 10
194.1126669060345
 20
16.23508965640609
 10
194.1660768574482
 20
16.23434774436425
 10
194.1995914649489
 20
16.22819223482979
 10
194.2388086183038
 20
16.23346029773594
 10
194.2120263698492
 20
16.19253380793487
 10
194.1708111001723
 20
16.20371204538111
 10
194.1782641540874
 20
16.15867056192124
 10
194.1742227952184
 20
16.11412278028144
 10
194.1761714049641
 20
16.04223572621703
 10
194.1752364849758
 20
15.96168630588771
 10
194.176510719003
 20
15.88173995404994
 10
194.1732043793863
 20
15.80841837083183
 10
194.1802106179961
 20
15.76688643002568
 10
194.1701440380126
 20
15.72752418568113
 10
194.2029814803921
 20
15.73468063430981
 10
194.236457729648
 20
15.73027243137945
 10
194.2915053476019
 20
15.73217943347897
 10
194.3489502595314
 20
15.73185366407288
 10
194.4023026248309
 20
15.73106308733081
 10
194.4398540896639
 20
15.73313959118074
 10
194.4623172523237
 20
15.73022338167109
 10
194.4751678073731
 20
15.73572552644056
 10
194.4858255685888
 20
15.7380111819779
 10
194.4986635650144
 20
15.74494972588054
 10
194.514599103307
 20
15.72853046313672
 10
194.5410623920891
 20
15.71709122319449
 10
194.5726805253757
 20
15.69644687835191
 10
194.5987255892151
 20
15.68116869628295
 10
194.6128517723973
 20
15.67266976323184
 10
194.6170254148479
 20
15.67015871511028
 97
        1
330
A4
 75
     1
 76
     2
 52
45.0
 41
0.1
 77
     0
 78
     1
 53
45.0
 43
0.0
 44
0.0
 45
-0.282842712474619
 46
0.0
 79
     0
 98
        1
 10
0.0
 20
0.0
  0
HATCH
  5
C2
330
48
100
AcDbEntity
  8
1
  6
Continuous
 62
     2
100
AcDbHatch
 10
0.0
 20
0.0
 30
0.0
210
0.0
220
0.0
230
1.0
  2
CUSTOM4
 70
     0
 71
     1
 91
        1
 92
        1
 93
        1
 72
     4
 94
        3
 73
     0
 74
     0
 95
       91
 96
       87
 40
0.0
 40
0.0
 40
0.0
 40
0.0
 40
0.0267532254356666
 40
0.0856103386464049
 40
0.1444674521996532
 40
0.1712206856618408
 40
0.203941600564243
 40
0.2955601971652377
 40
0.4362601844617096
 40
0.6162252844507428
 40
0.8256392189704875
 40
1.054685709844485
 40
1.293548478893549
 40
1.532411247938349
 40
1.761457738799614
 40
1.970871673298583
 40
2.150836773256779
 40
2.29153676049564
 40
2.383155356836775
 40
2.415876284101395
 40
2.442629517488036
 40
2.501486630949164
 40
2.560343744424308
 40
2.587096977826579
 40
2.617068194441006
 40
2.699247336756147
 40
2.822032643466488
 40
2.973822353258018
 40
3.14301470482346
 40
3.318007936880039
 40
3.487200288186901
 40
3.638989997548381
 40
3.761775303794937
 40
3.843954445753243
 40
3.873925662229939
 40
3.890812773500649
 40
3.907699884771802
 40
3.937960767857339
 40
3.980983618142343
 40
4.199085915228506
 40
4.439444339237296
 40
4.677588241260922
 40
5.050698317837807
 40
5.448212454763193
 40
5.855291218044718
 40
6.138575438885407
 40
6.417434507584227
 40
6.44455110439391
 40
6.50420761736321
 40
6.563864130314534
 40
6.590980727104127
 40
6.848609460381505
 40
7.109611990668461
 40
7.352910904446125
 40
7.557830220705496
 40
7.587518925913414
 40
7.652834077375833
 40
7.718149228845769
 40
7.747837934062074
 40
7.854880190301029
 40
7.976511257403567
 40
8.369487896592368
 40
8.75751495922369
 40
9.126072419331152
 40
9.460639380392243
 40
9.74669559303604
 40
9.777569943118786
 40
9.807050320931834
 40
9.830377336128967
 40
9.886003295436042
 40
9.952395569429958
 40
10.00802152870631
 40
10.03134854388223
 40
10.21356951009591
 40
10.42203479292877
 40
10.66154556731069
 40
10.9169378956431
 40
11.15832906556571
 40
11.18982674596629
 40
11.27286608520416
 40
11.39026653033358
 40
11.52484752840897
 40
11.65942852648457
 40
11.77682897161501
 40
11.85986831085694
 40
11.89136598230443
 40
11.89136598230443
 40
11.89136598230443
 40
11.89136598230443
 10
190.7027885008195
 20
14.70699600701773
 10
190.7028237765287
 20
14.71587847311986
 10
190.7029366710795
 20
14.74430237047347
 10
190.7012984568487
 20
14.79409639169804
 10
190.706975029291
 20
14.83657564478154
 10
190.6956928731705
 20
14.88730154856847
 10
190.7632296979031
 20
14.87012900740108
 10
190.83880292107
 20
14.88290227165997
 10
190.9828357056
 20
14.87629729457382
 10
191.1569419185426
 20
14.87888462206466
 10
191.3639599611002
 20
14.87800591955552
 10
191.5894688172376
 20
14.87828207920027
 10
191.8251162293406
 20
14.87818339658663
 10
192.0607640531347
 20
14.87828184412767
 10
192.2862717580626
 20
14.87800678190789
 10
192.4932934632804
 20
14.87888186270735
 10
192.6673888915288
 20
14.87630522678446
 10
192.8114492071985
 20
14.88288290449213
 10
192.8869691915293
 20
14.87016243405604
 10
192.9545776037029
 20
14.88726400191686
 10
192.9430840140676
 20
14.83674785802941
 10
192.9505104581733
 20
14.79253252226502
 10
192.9428838927986
 20
14.7486796650361
 10
192.9546489459425
 20
14.69878374479329
 10
192.8930788491983
 20
14.71393227712513
 10
192.8256791738671
 20
14.70310665350675
 10
192.7013004056221
 20
14.70852031626237
 10
192.555442823657
 20
14.70649205390786
 10
192.3893576440086
 20
14.70715777578388
 10
192.2188412621724
 20
14.70689643521242
 10
192.0519790855388
 20
14.70721553391095
 10
191.9087346827105
 20
14.70635302590763
 10
191.7773313869832
 20
14.70863300482989
 10
191.7239859134655
 20
14.70407704374203
 10
191.6485188456912
 20
14.70999914992879
 10
191.6769075779231
 20
14.70094169343354
 10
191.7033652409541
 20
14.69725912268929
 10
191.6633522907701
 20
14.66654271968274
 10
191.5713663691867
 20
14.67667591174638
 10
191.5439396207069
 20
14.43032502247785
 10
191.4478793967234
 20
14.27499558764377
 10
191.1917277964473
 20
13.94525417931569
 10
191.7627537732762
 20
14.08430022210453
 10
192.0173656320516
 20
14.08291779973363
 10
192.6279647048618
 20
13.99790569242087
 10
192.3340698578082
 20
14.29685417558201
 10
192.0133304286518
 20
14.44330856901782
 10
192.1313543360433
 20
14.50025540818287
 10
192.1724716466262
 20
14.52420099873348
 10
192.2156812394411
 20
14.54599758811231
 10
192.317457409445
 20
14.60928721253902
 10
192.4328867625247
 20
14.35147151408781
 10
192.6329591642277
 20
14.21616041113683
 10
192.7269077387228
 20
14.03792795138883
 10
192.9558829746392
 20
13.87997821027049
 10
192.8596031846708
 20
13.82915972576301
 10
192.8167959763779
 20
13.79881292523055
 10
192.7718243528779
 20
13.7746613028146
 10
192.7121720925213
 20
13.72552146747568
 10
192.6789731061325
 20
13.8599747567361
 10
192.5582013350795
 20
14.0159426528658
 10
192.1970976005979
 20
13.88569928059556
 10
191.838506195554
 20
13.90224694409482
 10
191.4570920450079
 20
13.89331229351866
 10
191.1703455282891
 20
13.82882671672403
 10
190.8592055599711
 20
13.94230668192835
 10
190.8268737818787
 20
13.83122259927769
 10
190.7896178253318
 20
13.81196313850014
 10
190.7865737632754
 20
13.85874784087297
 10
190.7679892860607
 20
13.89806853919134
 10
190.7512436616778
 20
13.95765983478233
 10
190.7383730915753
 20
14.00201969871284
 10
190.7042327806428
 20
14.091063311202
 10
190.9482714457754
 20
14.0218104294377
 10
191.1441394486671
 20
14.00030369057743
 10
191.2395426381277
 20
14.28226484478463
 10
191.2945135769597
 20
14.44363045421124
 10
191.5159619357156
 20
14.71391177589739
 10
191.3849239381216
 20
14.70548446853735
 10
191.3110026555854
 20
14.70779008496972
 10
191.1977459876243
 20
14.70671378321659
 10
191.0694251807484
 20
14.7070763907651
 10
190.9404252030414
 20
14.70697724466088
 10
190.828784094629
 20
14.70699932712573
 10
190.7514663970025
 20
14.70699579189671
 10
190.7132876532009
 20
14.70699595845083
 10
190.7027885008195
 20
14.70699600701773
 97
        1
330
A5
 75
     1
 76
     2
 52
45.0
 41
0.1
 77
     0
 78
     1
 53
45.0
 43
0.0
 44
0.0
 45
-0.282842712474619
 46
0.0
 79
     0
 98
        1
 10
0.0
 20
0.0
  0
HATCH
  5
C3
330
48
100
AcDbEntity
  8
1
  6
Continuous
 62
     2
100
AcDbHatch
 10
0.0
 20
0.0
 30
0.0
210
0.0
220
0.0
230
1.0
  2
CUSTOM5
 70
     0
 71
     1
 91
        1
 92
        1
 93
        1
 72
     4
 94
        3
 73
     0
 74
     0
 95
       35
 96
       31
 40
0.0
 40
0.0
 40
0.0
 40
0.0
 40
0.0335231036620232
 40
0.0713218571712192
 40
0.4278866681487343
 40
0.8116865841964557
 40
1.19819023800014
 40
1.561379546812771
 40
1.659983174622138
 40
1.759315573807268
 40
2.132719617231151
 40
2.525233363588901
 40
2.910815397779769
 40
3.265244364303355
 40
3.592606723582091
 40
3.964386154604038
 40
4.359942131737904
 40
4.758154118639463
 40
4.84384653870004
 40
4.936650065543328
 40
5.256616602537407
 40
5.581707404416143
 40
5.899719158308241
 40
6.198363494280846
 40
6.466301046615879
 40
6.493895311537144
 40
6.559697020196965
 40
6.638234543442512
 40
6.704036252154265
 40
6.731630508423043
 40
6.731630508423043
 40
6.731630508423043
 40
6.731630508423043
 10
191.9736010568668
 20
16.23463843719134
 10
191.9676006097789
 20
16.22480690542323
 10
191.9548344099156
 20
16.20388988579796
 10
191.7949362006553
 20
16.17127126532701
 10
192.2322025842337
 20
15.88206680336698
 10
192.434539482826
 20
15.6804113835844
 10
192.6819564267974
 20
15.43749387603278
 10
193.1831513624605
 20
15.36047662757776
 10
193.012556219897
 20
15.21876939174657
 10
192.9383299463201
 20
15.01710366209109
 10
192.6131432248188
 20
15.36956287174726
 10
192.3277741670664
 20
15.53175212559562
 10
192.0337604077658
 20
15.73687130053049
 10
191.8084452691134
 20
16.21827488595455
 10
191.5993085055521
 20
15.75343046609223
 10
191.3207873674834
 20
15.5435095225291
 10
191.0371383177208
 20
15.37424456359988
 10
190.707863952783
 20
15.00142360907933
 10
190.6277012318223
 20
15.19708014459001
 10
190.4759724909745
 20
15.32491104190601
 10
190.9083395826794
 20
15.40454031765934
 10
191.0962565329766
 20
15.60026634915474
 10
191.3468477420502
 20
15.81632996916757
 10
191.5714350470162
 20
15.98190992300058
 10
191.6259775409712
 20
16.26133964636827
 10
191.7494661029011
 20
16.24737950408079
 10
191.806027334452
 20
16.24521268867648
 10
191.8761870984943
 20
16.2404685988136
 10
191.9333414022105
 20
16.23709429350543
 10
191.9644190320838
 20
16.23519854711119
 10
191.9736010568668
 20
16.23463843719134
 97
        1
330
A6
 75
     1
 76
     2
 52
45.0
 41
0.1
 77
     0
 78
     1
 53
45.0
 43
0.0
 44
0.0
 45
-0.282842712474619
 46
0.0
 79
     0
 98
        1
 10
0.0
 20
0.0
  0
HATCH
  5
C4
330
48
100
AcDbEntity
  8
1
  6
Continuous
 62
     2
100
AcDbHatch
 10
0.0
 20
0.0
 30
0.0
210
0.0
220
0.0
230
1.0
  2
CUSTOM6
 70
     0
 71
     1
 91
        1
 92
        1
 93
        1
 72
     4
 94
        3
 73
     0
 74
     0
 95
       15
 96
       11
 40
0.0
 40
0.0
 40
0.0
 40
0.0
 40
0.2785535985096532
 40
0.5215624748198819
 40
0.6076917376040479
 40
0.693821000174125
 40
0.9405019146455466
 40
1.221691403489136
 40
1.300471877081053
 40
1.379252341684818
 40
1.379252341684818
 40
1.379252341684818
 40
1.379252341684818
 10
189.5681493630999
 20
16.22930267330381
 10
189.6296017794178
 20
16.17691646592716
 10
189.7446649974114
 20
16.07882876798223
 10
190.0397348497243
 20
15.92889785897223
 10
189.9025147631857
 20
15.84343227515014
 10
189.8041227843778
 20
15.71085785201554
 10
189.7130033590649
 20
16.01616985781416
 10
189.3636839480654
 20
16.07967869465375
 10
189.511925837657
 20
16.17896509880878
 10
189.5494081874236
 20
16.21252348402382
 10
189.5681493630999
 20
16.22930267330381
 97
        1
330
A7
 75
     1
 76
     2
 52
45.0
 41
0.1
 77
     0
 78
     1
 53
45.0
 43
0.0
 44
0.0
 45
-0.282842712474619
 46
0.0
 79
     0
 98
        1
 10
0.0
 20
0.0
  0
HATCH
  5
C5
330
48
100
AcDbEntity
  8
1
  6
Continuous
 62
     2
100
AcDbHatch
 10
0.0
 20
0.0
 30
0.0
210
0.0
220
0.0
230
1.0
  2
CUSTOM7
 70
     0
 71
     1
 91
        1
 92
        1
 93
        1
 72
     4
 94
        3
 73
     0
 74
     0
 95
       75
 96
       71
 40
0.0
 40
0.0
 40
0.0
 40
0.0
 40
0.0342546099129691
 40
0.1245622414432346
 40
0.2522385480897518
 40
0.398599192294068
 40
0.5449598364980821
 40
0.6726361431438816
 40
0.762943774673696
 40
0.7971983935297973
 40
1.101723623449743
 40
1.408591244036774
 40
1.433332471690478
 40
1.487763172450268
 40
1.542193873082094
 40
1.566935100592639
 40
1.923523931821897
 40
2.271755704953697
 40
2.590579755100911
 40
2.858943305581168
 40
2.889120339309193
 40
2.918305855191142
 40
2.941366645531264
 40
2.996357760973157
 40
3.061992318140702
 40
3.116983433626897
 40
3.140044223997577
 40
3.411273122936469
 40
3.732441619741079
 40
3.761068217532777
 40
3.837787499630342
 40
3.948858699125979
 40
4.080541049104357
 40
4.219093782625744
 40
4.350776132722296
 40
4.46184733240563
 40
4.538566614678364
 40
4.567193212544612
 40
4.59490757399887
 40
4.666381453557409
 40
4.764111044010991
 40
4.870592538125794
 40
4.968322128642217
 40
5.039796008286873
 40
5.067510369784332
 40
5.094263603185548
 40
5.153120716668183
 40
5.211977830150627
 40
5.238731063551634
 40
5.272290535138873
 40
5.363380529444734
 40
5.497618415781411
 40
5.660621563453653
 40
5.838007341749354
 40
6.015393119910706
 40
6.178396267038331
 40
6.312634151842283
 40
6.403724143059272
 40
6.437283612672368
 40
6.464036846260986
 40
6.522893960004601
 40
6.581751071483866
 40
6.608504301590812
 40
6.637253941280988
 40
6.711397748902839
 40
6.812778057283452
 40
6.923237199249228
 40
7.024617507623929
 40
7.09876131520761
 40
7.12751094600756
 40
7.12751094600756
 40
7.12751094600756
 40
7.12751094600756
 10
188.4418622390563
 20
14.95849128473265
 10
188.4418622819705
 20
14.9470731340872
 10
188.4418624481127
 20
14.9055525784263
 10
188.4418593081785
 20
14.82146922003772
 10
188.4418788279799
 20
14.70004497322329
 10
188.4417912187736
 20
14.55980494047449
 10
188.4421116235229
 20
14.42006556794577
 10
188.4411605909738
 20
14.2974503889493
 10
188.4431978595966
 20
14.21587074438044
 10
188.4349433178743
 20
14.06271267077695
 10
188.7430797940902
 20
14.2256023605472
 10
189.0350645173733
 20
14.39482938688003
 10
189.0408354448708
 20
14.25973235781911
 10
189.045547171989
 20
14.21617221160444
 10
189.0482535411917
 20
14.17211249350545
 10
189.0672545672956
 20
14.02272590363135
 10
188.6583942247303
 20
14.08681172241261
 10
188.3793710348831
 20
13.97296341411017
 10
188.1018081587166
 20
13.87364095811142
 10
187.8099837184402
 20
13.91630687596357
 10
187.7869144678658
 20
13.81321679744541
 10
187.7537474383333
 20
13.78691091244469
 10
187.7480653962739
 20
13.83455309036304
 10
187.7284214559044
 20
13.87180336115069
 10
187.7095089485623
 20
13.93007387847564
 10
187.6942849867707
 20
13.97385201007805
 10
187.6477246372936
 20
14.0875942104631
 10
187.989089731245
 20
14.05576301120048
 10
188.2679649367385
 20
14.02161435106481
 10
188.2617753034906
 20
14.16913976479652
 10
188.2630935452772
 20
14.24013150908832
 10
188.2624831689947
 20
14.34719767958661
 10
188.2625871570724
 20
14.47398529785998
 10
188.2629987964055
 20
14.6084924349605
 10
188.2613907841967
 20
14.73395549951185
 10
188.2659902567924
 20
14.84505246719118
 10
188.2564186502209
 20
14.90761886800689
 10
188.270400178369
 20
14.96595388295002
 10
188.2147384386703
 20
14.95289710582239
 10
188.1575655197821
 20
14.961363077495
 10
188.0616048925646
 20
14.95729976080636
 10
187.9633767522821
 20
14.95970889852476
 10
187.8672582457559
 20
14.95551600613388
 10
187.8104648525812
 20
14.96429346441164
 10
187.7550356873384
 20
14.95094936850122
 10
187.7670679427917
 20
15.00036910959258
 10
187.7592003173938
 20
15.04393988030396
 10
187.7666295563828
 20
15.08830469118526
 10
187.7551930564143
 20
15.13902297763992
 10
187.8232102370133
 20
15.12162460757744
 10
187.8968496879747
 20
15.1341745023719
 10
188.0325064058211
 20
15.12799677011098
 10
188.1884909024525
 20
15.13029203093085
 10
188.3615926358143
 20
15.1294096826253
 10
188.5346942964181
 20
15.13029207142409
 10
188.6906789811216
 20
15.12799662955551
 10
188.8263351889797
 20
15.13417486262432
 10
188.8999756705652
 20
15.12162394218336
 10
188.9679914174724
 20
15.13902373012143
 10
188.9565590885922
 20
15.08830130414556
 10
188.9639539458297
 20
15.04397060811109
 10
188.9562039912269
 20
15.00028307550196
 10
188.9681203741877
 20
14.95063590098477
 10
188.9108170223616
 20
14.96461411338426
 10
188.8520145789772
 20
14.95539755673255
 10
188.7525293633199
 20
14.9595226816493
 10
188.6494280098348
 20
14.95822760025888
 10
188.5537846354573
 20
14.95854077077642
 10
188.4857467971616
 20
14.95848776697146
 10
188.4514462213442
 20
14.95849051871657
 10
188.4418622390563
 20
14.95849128473265
 97
        1
330
A8
 75
     1
 76
     2
 52
45.0
 41
0.1
 77
     0
 78
     1
 53
45.0
 43
0.0
 44
0.0
 45
-0.282842712474619
 46
0.0
 79
     0
 98
        1
 10
0.0
 20
0.0
  0
HATCH
  5
C6
330
48
100
AcDbEntity
  8
1
  6
Continuous
 62
     2
100
AcDbHatch
 10
0.0
 20
0.0
 30
0.0
210
0.0
220
0.0
230
1.0
  2
CUSTOM8
 70
     0
 71
     1
 91
        1
 92
        1
 93
        1
 72
     4
 94
        3
 73
     0
 74
     0
 95
       91
 96
       87
 40
0.0
 40
0.0
 40
0.0
 40
0.0
 40
0.0345987051695718
 40
0.1258134969461369
 40
0.2547723404888987
 40
0.4026032099154125
 40
0.5504340793416704
 40
0.679392922883608
 40
0.7706077146571035
 40
0.8052064287780925
 40
1.124852390615279
 40
1.427402236308872
 40
1.706356627453514
 40
1.955541417875197
 40
2.169485938566341
 40
2.344350786664798
 40
2.480568411561946
 40
2.590440557428968
 40
2.649189927151122
 40
2.749320643306326
 40
2.912632739880031
 40
3.147745656000228
 40
3.244827496385098
 40
3.338490056946638
 40
3.583815413207062
 40
3.761423943238414
 40
3.88695610436256
 40
3.985855451886743
 40
4.0917662553376
 40
4.250186473811821
 40
4.422734315084487
 40
4.628285684838564
 40
4.872093227758404
 40
5.152549652145505
 40
5.464967135837485
 40
5.8032014778524
 40
6.160362988813872
 40
6.193449448275927
 40
6.284170385501581
 40
6.419718138764451
 40
6.587285046385701
 40
6.774063446723615
 40
6.967245678113598
 40
7.154024078817584
 40
7.32159098702597
 40
7.457138740890328
 40
7.547859678556065
 40
7.580946138182624
 40
7.608533084714677
 40
7.669224367077656
 40
7.729915649429878
 40
7.757502595949929
 40
7.790278062553383
 40
7.880146277430881
 40
8.014419963180316
 40
8.180411842397817
 40
8.365434637679257
 40
8.55680107162253
 40
8.741823866830615
 40
8.907815745916125
 40
9.042089431507279
 40
9.131957646249404
 40
9.16473311279698
 40
9.415425063139905
 40
9.667986180958362
 40
9.69416980746253
 40
9.756607686047488
 40
9.831130315322294
 40
9.893568193899759
 40
9.919751820398576
 40
9.950967964690406
 40
9.996421631210518
 40
10.2208798103744
 40
10.44341866197528
 40
10.47847970788841
 40
10.57091337438741
 40
10.70159545461216
 40
10.85140174170347
 40
11.00120802880464
 40
11.13189010907369
 40
11.22432377582997
 40
11.25938480938943
 40
11.28697175596131
 40
11.34766303835906
 40
11.40835432042057
 40
11.43594125892091
 40
11.43594125892091
 40
11.43594125892091
 40
11.43594125892091
 10
190.0818114333289
 20
15.55242795125077
 10
190.0702785844941
 20
15.55242790287915
 10
190.0283409444998
 20
15.55242773704164
 10
189.9434129719026
 20
15.55243125800909
 10
189.8207688553128
 20
15.55240926435879
 10
189.6791206916993
 20
15.55250801177054
 10
189.537975369849
 20
15.55214686232421
 10
189.4141351317904
 20
15.55321883609088
 10
189.3317217825382
 20
15.55092249091268
 10
189.1727791229692
 20
15.5604856937342
 10
189.3503402353376
 20
15.19785394311371
 10
189.3379739205452
 20
14.95243127723114
 10
189.4064519473864
 20
14.66862501324835
 10
189.469302432097
 20
14.43250999939035
 10
189.5452253431729
 20
14.2332674039613
 10
189.6303189577016
 20
14.07745347451373
 10
189.7244607592935
 20
13.97657857781392
 10
189.8282648207727
 20
13.92465852638965
 10
189.9125872030774
 20
13.97606484379617
 10
189.9351322179451
 20
14.09144544037517
 10
189.9745730975371
 20
14.2188514970238
 10
189.9202919734942
 20
14.53622328086756
 10
190.0451218072473
 20
14.38982180140907
 10
190.2019291513602
 20
14.35795300331168
 10
190.0947720007056
 20
14.12421357767628
 10
190.0808711209866
 20
13.95972776583658
 10
190.0234709467225
 20
13.83130869122482
 10
189.9335020145008
 20
13.76018802352828
 10
189.8095274657878
 20
13.74432324142255
 10
189.6634273196859
 20
13.77993797554173
 10
189.5243894320283
 20
13.90000570500276
 10
189.4102003962144
 20
14.07435682550323
 10
189.3146141301485
 20
14.29946603111239
 10
189.2318652572626
 20
14.56388246006444
 10
189.1807179256411
 20
14.88187933098543
 10
189.0770189207338
 20
15.15543728488913
 10
189.204284120852
 20
15.56005818612866
 10
189.0357890623019
 20
15.55112367849679
 10
188.9511995787077
 20
15.55315961418363
 10
188.8189876387627
 20
15.55213937388406
 10
188.6560505094104
 20
15.55253230318429
 10
188.4733759170532
 20
15.55235696313368
 10
188.2847057373383
 20
15.55260105307468
 10
188.1014469020189
 20
15.55185657906236
 10
187.9404746832718
 20
15.55416360522425
 10
187.8029808335276
 20
15.54799804883662
 10
187.728959037231
 20
15.56032838458211
 10
187.6613215186856
 20
15.54329323723556
 10
187.6732373719269
 20
15.59524438447528
 10
187.6655677285694
 20
15.64071424966529
 10
187.6732592225115
 20
15.68614453703705
 10
187.6613141797762
 20
15.7380239598457
 10
187.7283588305866
 20
15.72119143490264
 10
187.8017375665676
 20
15.73335409092671
 10
187.9379128305272
 20
15.72727231074959
 10
188.0973811801511
 20
15.72954834315058
 10
188.2789173085835
 20
15.72881233998962
 10
188.4658034862178
 20
15.72905954196134
 10
188.6468012316834
 20
15.72886400799253
 10
188.8080802578877
 20
15.72932234714839
 10
188.9393882124886
 20
15.72812673751206
 10
189.0225051322595
 20
15.73051347319743
 10
189.1556236547813
 20
15.72230605725464
 10
189.0645893502658
 20
15.97752868952655
 10
188.9789633074419
 20
16.24164358328245
 10
189.0990589003455
 20
16.22904442969165
 10
189.1514264948544
 20
16.22694235763075
 10
189.2214497569715
 20
16.22535399889657
 10
189.2671922337817
 20
16.21602567538113
 10
189.3220812646933
 20
16.22545966915426
 10
189.2963574785681
 20
16.17733028655173
 10
189.1825397571453
 20
16.18266829744167
 10
189.3159346621135
 20
15.95449174576777
 10
189.1943658735471
 20
15.72156856595922
 10
189.3223188769413
 20
15.73087258884439
 10
189.4049048406461
 20
15.7280100175468
 10
189.5307214850824
 20
15.72923437412302
 10
189.6741469838057
 20
15.72932431888965
 10
189.8157420951728
 20
15.72746163183853
 10
189.9459127249967
 20
15.73333075937163
 10
190.0193452286191
 20
15.72070340823203
 10
190.0891112922096
 20
15.73877563110412
 10
190.0775772605396
 20
15.68612850546326
 10
190.0833184346682
 20
15.64221317686547
 10
190.0816615770911
 20
15.59089982676549
 10
190.0817757561669
 20
15.56158792021634
 10
190.0818114333289
 20
15.55242795125077
 97
        1
330
A9
 75
     1
 76
     2
 52
45.0
 41
0.1
 77
     0
 78
     1
 53
45.0
 43
0.0
 44
0.0
 45
-0.282842712474619
 46
0.0
 79
     0
 98
        1
 10
0.0
 20
0.0
  0
HATCH
  5
C7
330
48
100
AcDbEntity
  8
1
  6
Continuous
 62
     2
100
AcDbHatch
 10
0.0
 20
0.0
 30
0.0
210
0.0
220
0.0
230
1.0
  2
CUSTOM9
 70
     0
 71
     1
 91
        1
 92
        1
 93
        1
 72
     4
 94
        3
 73
     0
 74
     0
 95
      118
 96
      114
 40
0.0
 40
0.0
 40
0.0
 40
0.0
 40
0.105470816297341
 40
0.246609827005191
 40
0.3965912874591263
 40
0.5285525069754005
 40
0.6156245055642274
 40
0.6431434105797587
 40
0.7036850037986291
 40
0.7642265984504688
 40
0.7917455052354992
 40
0.9287404319989929
 40
1.106572819088046
 40
1.287544879681046
 40
1.317578308030563
 40
1.3999280308572
 40
1.522968204799974
 40
1.675072986590594
 40
1.844616533180669
 40
2.019973001638733
 40
2.189516548880046
 40
2.341621331585382
 40
2.464661506320517
 40
2.54701122964708
 40
2.577044658168044
 40
2.603797890893115
 40
2.662655002908802
 40
2.721512114949614
 40
2.748265347702794
 40
2.77421530734487
 40
2.845959313407199
 40
2.954338556588398
 40
3.090194227585573
 40
3.244367517100538
 40
3.407699615844296
 40
3.571031714539445
 40
3.725205003920117
 40
3.861060674729619
 40
3.96943991771631
 40
4.041183923628982
 40
4.067133883212976
 40
4.311886746012162
 40
4.547897258335528
 40
4.764747083043982
 40
4.952749679951769
 40
5.045772974195907
 40
5.137862019644976
 40
5.330543169793032
 40
5.553448265244026
 40
5.795083855888182
 40
6.043293412177244
 40
6.285761695541185
 40
6.313902908752669
 40
6.384255941793259
 40
6.475714884766847
 40
6.56717382775891
 40
6.637526860839688
 40
6.665668074074051
 40
6.692018920328024
 40
6.749990782071094
 40
6.807962643790462
 40
6.834313490017936
 40
6.856393084245215
 40
6.913335195649839
 40
6.991194817302502
 40
7.076026942283764
 40
7.153886563725254
 40
7.210828674844836
 40
7.232908268931172
 40
7.258199334923693
 40
7.324875781592342
 40
7.419142481924999
 40
7.527204308841939
 40
7.635266135230517
 40
7.729532834168503
 40
7.796209279292825
 40
7.821500344594772
 40
7.844652988850842
 40
7.899863140541592
 40
7.965759128053702
 40
8.020969279770958
 40
8.044121924046424
 40
8.069356610160447
 40
8.10913439544122
 40
8.132238100190932
 40
8.193147867786298
 40
8.27926167887647
 40
8.377977512673684
 40
8.476693347146467
 40
8.562807160411522
 40
8.623716930826308
 40
8.64682063685326
 40
8.671988793774073
 40
8.734909185827984
 40
8.816705695188698
 40
8.89850220481527
 40
8.96142259737773
 40
8.986590754550843
 40
9.012941600732997
 40
9.070913462380082
 40
9.128885324081578
 40
9.155236170324898
 40
9.18040432792894
 40
9.243324721948014
 40
9.325121234211807
 40
9.406917746637461
 40
9.469838141977917
 40
9.495006288270691
 40
9.517811184378832
 40
9.57219209048683
 40
9.637098333281058
 40
9.691479239515253
 40
9.714284125643292
 40
9.714284125643292
 40
9.714284125643292
 40
9.714284125643292
 10
185.2874469028653
 20
15.2688916318772
 10
185.3090990569037
 20
15.24111869242812
 10
185.3597257109473
 20
15.17618054561237
 10
185.4349383202592
 20
15.06891060312899
 10
185.5248482274346
 20
14.95377438266626
 10
185.5709169676672
 20
14.8535704574832
 10
185.6655825294655
 20
14.78434006814943
 10
185.6204439320413
 20
14.73771639678274
 10
185.594704778579
 20
14.69660308866039
 10
185.5645196708011
 20
14.66065971727939
 10
185.5193684730562
 20
14.58579782596094
 10
185.4710504458562
 20
14.80782524253605
 10
185.3968539713074
 20
14.84510677337709
 10
185.2836047324606
 20
15.116102021306
 10
185.288513357817
 20
15.00095328446229
 10
185.2868486556306
 20
14.92836675781627
 10
185.2876830076714
 20
14.80625588483987
 10
185.2873609540265
 20
14.65913800810461
 10
185.2875076912455
 20
14.49307063956557
 10
185.2872950092722
 20
14.32187554608603
 10
185.2879497252034
 20
14.15552828635499
 10
185.2859192461139
 20
14.00935173055694
 10
185.291346039993
 20
13.88471047474612
 10
185.2804930868708
 20
13.81718656540627
 10
185.2956739155555
 20
13.75549061417023
 10
185.2457895108133
 20
13.76727503897002
 10
185.2017150342522
 20
13.7594382277997
 10
185.15823716302
 20
13.76760441372704
 10
185.1092346786489
 20
13.75538056738469
 10
185.1218731234825
 20
13.80960667249314
 10
185.113018296845
 20
13.86936918907558
 10
185.1175058770314
 20
13.97922029044371
 10
185.1157960135991
 20
14.11029975405679
 10
185.1163550915987
 20
14.26198011444329
 10
185.1161928768694
 20
14.42211074929954
 10
185.1162269924675
 20
14.58236865674567
 10
185.1162514960126
 20
14.73370247520439
 10
185.1161453543226
 20
14.86582156338601
 10
185.1164299141932
 20
14.97294802533193
 10
185.1158675547567
 20
15.03808619579473
 10
185.118076508369
 20
15.16618957858676
 10
185.0319435998602
 20
14.79097610391575
 10
184.95551408185
 20
14.63918193123394
 10
184.8660040767833
 20
14.47766206446307
 10
184.7640413217326
 20
14.20471848820173
 10
184.7187976491038
 20
14.36717346596509
 10
184.610235594167
 20
14.45605432058122
 10
184.7995791751753
 20
14.60549794961409
 10
184.85653405457
 20
14.79749136974926
 10
184.9717520993353
 20
15.02899622906757
 10
184.9940151630132
 20
15.21797259759063
 10
185.1771905152139
 20
15.4945408932593
 10
185.0538033597552
 20
15.48698978832094
 10
184.9925684166834
 20
15.48856772366119
 10
184.9081999617064
 20
15.48882592573672
 10
184.8204235085966
 20
15.48544845751206
 10
184.7656768696122
 20
15.4939481498202
 10
184.7104703026024
 20
15.48048561049788
 10
184.7222823035536
 20
15.52931442126763
 10
184.7142496151793
 20
15.57269004896708
 10
184.7228186104678
 20
15.61509438309573
 10
184.7102943409157
 20
15.66267796552118
 10
184.7555101538735
 20
15.65267212995109
 10
184.8014815562723
 20
15.65894105174061
 10
184.877722204771
 20
15.65593561405872
 10
184.9561296131993
 20
15.65770448278541
 10
185.0323992648932
 20
15.65464793981659
 10
185.0783009459475
 20
15.66103971376177
 10
185.12317339654
 20
15.65093822978896
 10
185.1105552275634
 20
15.70157201581898
 10
185.1191936582707
 20
15.7550126188207
 10
185.1152361595443
 20
15.8486325513168
 10
185.1162325068335
 20
15.95112606688924
 10
185.1171927413073
 20
16.05353270248163
 10
185.1133211458005
 20
16.14735929609321
 10
185.1217789814364
 20
16.20036542840353
 10
185.1093075932835
 20
16.25211435651188
 10
185.154210638985
 20
16.23850747226757
 10
185.1955083836771
 20
16.24100480320585
 10
185.259534428105
 20
16.23648060574488
 10
185.2986111148785
 20
16.22781003043308
 10
185.3476543498741
 20
16.23515102070689
 10
185.322508003059
 20
16.19602896051755
 10
185.2815901333724
 20
16.20563842455809
 10
185.2910109616604
 20
16.15540148169778
 10
185.2855647318746
 20
16.10385945639491
 10
185.2881699601804
 20
16.0195970758452
 10
185.2870102202153
 20
15.92559135583408
 10
185.2883591064231
 20
15.83196865395525
 10
185.2849970101508
 20
15.74679517552223
 10
185.2920959917769
 20
15.69716856072044
 10
185.2812569154545
 20
15.64993694969989
 10
185.3304010225245
 20
15.66201674936851
 10
185.3794877630147
 20
15.65447393363011
 10
185.4573714280641
 20
15.65686070361432
 10
185.5350365172897
 20
15.65899381905415
 10
185.5845393931354
 20
15.65193391922455
 10
185.6344594750639
 20
15.66360151936214
 10
185.622319851688
 20
15.61540235371393
 10
185.6305838229143
 20
15.57249219801236
 10
185.6223198650783
 20
15.52958201851384
 10
185.6344594549855
 20
15.48138288754865
 10
185.5845395158746
 20
15.4930503447151
 10
185.5350350651203
 20
15.48599202435046
 10
185.4573784382972
 20
15.48811665228603
 10
185.379464386576
 20
15.4905338936576
 10
185.3304500352716
 20
15.48291848194485
 10
185.2813246108943
 20
15.49507952557592
 10
185.2915559988571
 20
15.45073013424158
 10
185.2856677678054
 20
15.40925436202912
 10
185.2878788305568
 20
15.34915394315303
 10
185.2874109346147
 20
15.3022578276289
 10
185.2874386992913
 20
15.27650146418197
 10
185.2874469028653
 20
15.2688916318772
 97
        1
330
AA
 75
     1
 76
     2
 52
45.0
 41
0.1
 77
     0
 78
     1
 53
45.0
 43
0.0
 44
0.0
 45
-0.282842712474619
 46
0.0
 79
     0
 98
        1
 10
0.0
 20
0.0
  0
HATCH
  5
C8
330
48
100
AcDbEntity
  8
1
  6
Continuous
 62
     2
100
AcDbHatch
 10
0.0
 20
0.0
 30
0.0
210
0.0
220
0.0
230
1.0
  2
CUSTOM10
 70
     0
 71
     1
 91
        1
 92
        1
 93
        1
 72
     4
 94
        3
 73
     0
 74
     0
 95
       47
 96
       43
 40
0.0
 40
0.0
 40
0.0
 40
0.0
 40
0.2207912809957272
 40
0.4459404186303112
 40
0.490238719045877
 40
0.5327473892722291
 40
0.5742260451225046
 40
0.6155432630560906
 40
0.6568164066315539
 40
0.6982511618780743
 40
0.7407663929316975
 40
0.7851366743174479
 40
1.010288833836248
 40
1.231080507002104
 40
1.451765243652329
 40
1.676638205891609
 40
1.72046104535958
 40
1.830018144043446
 40
1.97244237235308
 40
2.114866600677451
 40
2.224423699395078
 40
2.268246538883319
 40
2.493628801207143
 40
2.715602830286541
 40
2.934211330706296
 40
3.149502369855293
 40
3.231387784850854
 40
3.318231873853889
 40
3.405143198197877
 40
3.486970301720314
 40
3.702258172493758
 40
3.920866283533992
 40
4.142839325931785
 40
4.368221903865238
 40
4.412044743359718
 40
4.521601842095735
 40
4.664026070452219
 40
4.806450298808929
 40
4.916007397546623
 40
4.959830237042946
 40
5.184703515846974
 40
5.405387250767347
 40
5.405387250767347
 40
5.405387250767347
 40
5.405387250767347
 10
182.6507427258644
 20
15.73406440953872
 10
182.6568139420002
 20
15.7975848250121
 10
182.6690762107242
 20
15.92587938689626
 10
182.5604706879412
 20
16.20166220174079
 10
182.6761985896603
 20
16.17188133432053
 10
182.7171842509015
 20
16.16765556262821
 10
182.7591205797518
 20
16.16310446389607
 10
182.800419662571
 20
16.16201982929486
 10
182.8417032115555
 20
16.16310338195228
 10
182.8836148270647
 20
16.16766112711343
 10
182.9245983549018
 20
16.17187430209728
 10
183.0404922843487
 20
16.20177611317536
 10
182.9295652727457
 20
15.92339806609888
 10
182.9574856365267
 20
15.74283140824953
 10
182.9404267346969
 20
15.50961042346472
 10
182.9414637282103
 20
15.34906622543146
 10
182.9414099399404
 20
15.22284817558722
 10
182.941427737248
 20
15.12428963336241
 10
182.941418858108
 20
14.99280702442964
 10
182.9414263928034
 20
14.8613284496865
 10
182.9414129405128
 20
14.76276222694091
 10
182.9414531717492
 20
14.63639735624152
 10
182.9406746403816
 20
14.4748206882287
 10
182.9565958319267
 20
14.24361821892915
 10
182.9333468885407
 20
14.05874351972003
 10
183.0360183444365
 20
13.78935602770056
 10
182.8820238362836
 20
13.82660112685818
 10
182.8004129802832
 20
13.82137994680535
 10
182.7188192292582
 20
13.82660620378351
 10
182.5648513666842
 20
13.78937069885385
 10
182.6674183421916
 20
14.05875129862881
 10
182.6442045316087
 20
14.24361585325416
 10
182.6600444655139
 20
14.47482218565639
 10
182.6593296313427
 20
14.63639712308503
 10
182.6593664569907
 20
14.76276231210521
 10
182.659354900027
 20
14.86132756635982
 10
182.6593575019214
 20
14.9928112741722
 10
182.6593648531778
 20
15.124275480312
 10
182.6593442541352
 20
15.22287786275327
 10
182.6594082192027
 20
15.34896149354427
 10
182.658173394759
 20
15.51210091383772
 10
182.6532040396744
 20
15.6605418377755
 10
182.6507427258644
 20
15.73406440953872
 97
        1
330
AB
 75
     1
 76
     2
 52
45.0
 41
0.1
 77
     0
 78
     1
 53
45.0
 43
0.0
 44
0.0
 45
-0.282842712474619
 46
0.0
 79
     0
 98
        1
 10
0.0
 20
0.0
  0
HATCH
  5
C9
330
48
100
AcDbEntity
  8
1
  6
Continuous
 62
     2
100
AcDbHatch
 10
0.0
 20
0.0
 30
0.0
210
0.0
220
0.0
230
1.0
  2
CUSTOM11
 70
     0
 71
     1
 91
        1
 92
        1
 93
        1
 72
     4
 94
        3
 73
     0
 74
     0
 95
      110
 96
      106
 40
0.0
 40
0.0
 40
0.0
 40
0.0
 40
0.2203406257277696
 40
0.4407808782838107
 40
0.5952494494615087
 40
0.7488431659393092
 40
0.9023581831309075
 40
1.056801968670406
 40
1.21073644909985
 40
1.363041386539785
 40
1.515315729683071
 40
1.669377239148079
 40
1.721611652756566
 40
1.773199502942949
 40
1.824933793210003
 40
1.877110426487982
 40
1.982682281206745
 40
2.078781667087553
 40
2.172809640822331
 40
2.271937807378928
 40
2.37834993337935
 40
2.494131557736595
 40
2.6266816839437
 40
2.783145050796071
 40
2.890701232940925
 40
2.993130312454818
 40
3.099869730691806
 40
3.220237816691302
 40
3.352695482737591
 40
3.481732806389841
 40
3.593499473690369
 40
3.674323013331886
 40
3.817951711952808
 40
3.946167120793748
 40
4.061405053453462
 40
4.166480796003074
 40
4.262478775059196
 40
4.350736673551152
 40
4.433071991254009
 40
4.511216293814554
 40
4.564262454117864
 40
4.618474415571475
 40
4.670128488754076
 40
4.722296879126257
 40
4.819540945314126
 40
4.931194984127982
 40
5.049996040257596
 40
5.168643755415085
 40
5.283970811762296
 40
5.392260784910121
 40
5.486512254876224
 40
5.559178233949595
 40
5.591425852853258
 40
5.626215969637641
 40
5.667155838674184
 40
5.717449290213991
 40
5.738402360944606
 40
5.784499116553575
 40
5.830595872164548
 40
5.851548942897407
 40
5.873019280661521
 40
5.924217778408063
 40
5.985325662817442
 40
6.036524160567459
 40
6.057994498333987
 40
6.236847789607237
 40
6.381409928945412
 40
6.493190424178438
 40
6.574067534230243
 40
6.691018086205337
 40
6.814881554220254
 40
6.944307823240178
 40
7.071266716065746
 40
7.193488604461619
 40
7.309042773127903
 40
7.4140072031705
 40
7.505140441886284
 40
7.531150360599451
 40
7.559221645322037
 40
7.587202218920692
 40
7.612569159498907
 40
7.662550809480775
 40
7.702878875763918
 40
7.857328205230733
 40
8.010799568088379
 40
8.165256399657329
 40
8.322232698713668
 40
8.479564855016354
 40
8.635216230290558
 40
8.790882550925476
 40
8.948305154947041
 40
9.168271839032732
 40
9.387358980987004
 40
9.608047961033252
 40
9.832914234792447
 40
9.858338694962782
 40
9.92536681722979
 40
10.02013071422737
 40
10.12876249858976
 40
10.23739428295226
 40
10.33215817995168
 40
10.39918630222371
 40
10.42461076239761
 40
10.6499201933692
 40
10.87188524531166
 40
10.87188524531166
 40
10.87188524531166
 40
10.87188524531166
 10
179.9057788376618
 20
15.73923260398191
 10
179.909286493354
 20
15.80616462073804
 10
179.9163033987662
 20
15.94005891915859
 10
179.8198027599073
 20
16.22548554971472
 10
180.0510134726109
 20
16.16284386190284
 10
180.1919290057155
 20
16.17001554055991
 10
180.3490417757588
 20
16.16235883078245
 10
180.5025913427287
 20
16.16252752283041
 10
180.654510493508
 20
16.16182040535433
 10
180.8142214813231
 20
16.17210158351639
 10
180.9408972601117
 20
16.15496511080752
 10
181.137082112208
 20
16.22727260107149
 10
181.1034395279078
 20
16.12640699080118
 10
181.1052011317184
 20
16.07619253947671
 10
181.1027342073457
 20
16.02712335586466
 10
181.1347076966012
 20
15.94063490847
 10
181.0010399903256
 20
15.98997438608337
 10
180.9172208688056
 20
15.98430634314168
 10
180.8173861139323
 20
15.99465516706297
 10
180.7186576720146
 20
16.00086450411087
 10
180.612153277111
 20
16.00697763816778
 10
180.4910511698059
 20
16.01588883484586
 10
180.3703381502453
 20
16.00521605912384
 10
180.1812553843437
 20
16.06468503080365
 10
180.2129028505311
 20
15.9055832007754
 10
180.1995563316834
 20
15.80839128339904
 10
180.1974958426449
 20
15.69634065110103
 10
180.1958188044671
 20
15.57699685629351
 10
180.1973336794233
 20
15.4503259215511
 10
180.1956582478668
 20
15.32301588016117
 10
180.2058844271657
 20
15.22451566404464
 10
180.1779006596582
 20
15.08388702625631
 10
180.3508029999305
 20
15.13989551134095
 10
180.4645020202771
 20
15.12719951478498
 10
180.5840151672238
 20
15.13448377051254
 10
180.6888491425071
 20
15.13878017056758
 10
180.7843084898612
 20
15.14330568258976
 10
180.8763823507032
 20
15.15149201146201
 10
180.9476551782438
 20
15.14643850638111
 10
181.0544931705683
 20
15.18536425031673
 10
181.0226603598036
 20
15.10517122005878
 10
181.0266164503929
 20
15.05562936846033
 10
181.0234502392013
 20
15.0055747803982
 10
181.0550791490583
 20
14.92128847612022
 10
180.921013367769
 20
14.97425365495159
 10
180.8292322793199
 20
14.96540080890441
 10
180.7079729189602
 20
14.97570049965154
 10
180.5914113119771
 20
14.97748911767503
 10
180.4783375745879
 20
14.97787017109694
 10
180.3679246308471
 20
14.9841544947218
 10
180.289812406784
 20
14.97189133255364
 10
180.1913625833643
 20
15.00453887616125
 10
180.2012355173561
 20
14.94769748054206
 10
180.1973923244401
 20
14.91392130557985
 10
180.1966789884269
 20
14.87119604709411
 10
180.1963369642974
 20
14.83401607262154
 10
180.1963834255345
 20
14.79487237370771
 10
180.1963649429927
 20
14.75716849497686
 10
180.1963703431806
 20
14.71944955232402
 10
180.1963697214201
 20
14.6899432474515
 10
180.1963698151545
 20
14.65873577699301
 10
180.1963704287921
 20
14.61414424908085
 10
180.1963671499336
 20
14.5596395650885
 10
180.1963759623481
 20
14.51505540201448
 10
180.1963359653417
 20
14.4311780858574
 10
180.1976024270255
 20
14.31737520677678
 10
180.1950274117841
 20
14.16830395933709
 10
180.2065009381719
 20
14.06597203813906
 10
180.1823506222264
 20
13.93338903885834
 10
180.3332993946476
 20
13.97895732272022
 10
180.4428436671556
 20
13.9642701216235
 10
180.573397047392
 20
13.96920435125064
 10
180.6990312209513
 20
13.97257705323362
 10
180.8188730625601
 20
13.97711497498773
 10
180.9391362611426
 20
13.99048536182006
 10
181.0222761663516
 20
13.98068712782598
 10
181.1456080421074
 20
14.04126214623321
 10
181.1244269203956
 20
13.98532460134021
 10
181.1235950270117
 20
13.95939249372346
 10
181.1218963707558
 20
13.93197256190939
 10
181.1217974888829
 20
13.89738195206385
 10
181.1203659301329
 20
13.86050408220767
 10
181.1532804192191
 20
13.76846841021807
 10
180.9551306988106
 20
13.84132015974832
 10
180.8300548294891
 20
13.81825726508606
 10
180.6673071295156
 20
13.82454021985787
 10
180.5129366450001
 20
13.82260943909927
 10
180.3566670436943
 20
13.82393762599269
 10
180.1970544465282
 20
13.82059872487863
 10
180.0540326342236
 20
13.83265795728241
 10
179.8197144881628
 20
13.76952001976917
 10
179.9173810751197
 20
14.05620527466318
 10
179.9006868780058
 20
14.2498830814266
 10
179.9146296709684
 20
14.47848242880294
 10
179.9142987846633
 20
14.63384593955049
 10
179.9143078119263
 20
14.73966336444125
 10
179.9143055876316
 20
14.80205784124214
 10
179.9143065551888
 20
14.89220425248327
 10
179.9143065473261
 20
14.99621167157438
 10
179.9143053861102
 20
15.10022131375296
 10
179.9143090971502
 20
15.19036243688768
 10
179.9143011051051
 20
15.25276803097215
 10
179.9143334275018
 20
15.35868835961119
 10
179.9131440788319
 20
15.5162671654474
 10
179.9082216489256
 20
15.66528219822066
 10
179.9057788376618
 20
15.73923260398191
 97
        1
330
AC
 75
     1
 76
     2
 52
45.0
 41
0.1
 77
     0
 78
     1
 53
45.0
 43
0.0
 44
0.0
 45
-0.282842712474619
 46
0.0
 79
     0
 98
        1
 10
0.0
 20
0.0
  0
HATCH
  5
CA
330
48
100
AcDbEntity
  8
1
  6
Continuous
 62
     2
100
AcDbHatch
 10
0.0
 20
0.0
 30
0.0
210
0.0
220
0.0
230
1.0
  2
CUSTOM12
 70
     0
 71
     1
 91
        1
 92
        1
 93
        1
 72
     4
 94
        3
 73
     0
 74
     0
 95
       95
 96
       91
 40
0.0
 40
0.0
 40
0.0
 40
0.0
 40
0.6550406656911715
 40
1.308087289031939
 40
1.420803739835818
 40
1.566130759770811
 40
1.757067341888479
 40
2.006513545026483
 40
2.087328263121577
 40
2.185328872295655
 40
2.294612454748389
 40
2.408936380534839
 40
2.526802767798586
 40
2.646360524615625
 40
2.762535723971603
 40
2.870057342870175
 40
2.966883448431669
 40
3.050803243518323
 40
3.115818222436629
 40
3.156030057150271
 40
3.21391422508023
 40
3.276689026450688
 40
3.342960320981351
 40
3.404230667150601
 40
3.453822809493416
 40
3.532499827188452
 40
3.634775188507198
 40
3.75490933300819
 40
3.889736761660696
 40
4.035769602175261
 40
4.187256681197653
 40
4.338733685676002
 40
4.488478734676162
 40
4.63470831783162
 40
4.771493189921312
 40
4.892686571561247
 40
5.19977552894449
 40
5.460353566929673
 40
5.667603142345556
 40
5.814722905404532
 40
5.828990806219887
 40
5.855488336304612
 40
5.869756237118972
 40
6.189796507762939
 40
6.531890469873164
 40
6.883053637017114
 40
7.230512024911622
 40
7.566966656764693
 40
7.885203559707563
 40
8.172887439719364
 40
8.418011594062918
 40
8.44392672119084
 40
8.510760470613329
 40
8.60214539379584
 40
8.701714041647282
 40
8.793098965075515
 40
8.859932715058092
 40
8.88584784260374
 40
9.242301256612949
 40
9.5892754550169
 40
9.92180854316431
 40
10.23479624298482
 40
10.29968150889193
 40
10.35323493887781
 40
10.40154625355166
 40
10.46482922477841
 40
10.55973900668422
 40
10.69239545985634
 40
10.84920353475689
 40
11.01626328594797
 40
11.18672024367461
 40
11.35372582577228
 40
11.50257442292444
 40
11.61866495023308
 40
11.71329869152892
 40
11.82511050573925
 40
11.94464880845734
 40
12.06929242642524
 40
12.19707290435194
 40
12.32562632860546
 40
12.45034565331297
 40
12.56646595170346
 40
12.67099007414653
 40
12.76077625936801
 40
12.82703233506712
 40
12.87429132786011
 40
12.8983199032335
 40
12.92234847860039
 40
13.53984767410344
 40
14.18294284359384
 40
14.18294284359384
 40
14.18294284359384
 40
14.18294284359384
 10
177.3067935648021
 20
14.70898038201725
 10
177.175201975855
 20
14.82265058603232
 10
176.9124193802727
 20
15.04964496316156
 10
176.3997393441023
 20
15.89214462956287
 10
176.4106654595361
 20
15.53423377577021
 10
176.4041226527992
 20
15.39267392272133
 10
176.4028026631771
 20
15.19421305299281
 10
176.4018117602538
 20
15.02150296045982
 10
176.4024101751972
 20
14.8786537325758
 10
176.4038994301883
 20
14.78265005413358
 10
176.4055683588471
 20
14.67545503263141
 10
176.4071934954619
 20
14.56164211517582
 10
176.4092429501684
 20
14.44441572604589
 10
176.4123165501927
 20
14.3265641123297
 10
176.4156339697042
 20
14.21228087320621
 10
176.4193605340279
 20
14.10521401867277
 10
176.4217338161424
 20
14.01007408766922
 10
176.4278718888357
 20
13.92558557205695
 10
176.4239784495947
 20
13.86923087298141
 10
176.4455230443076
 20
13.79825022472353
 10
176.3680940058618
 20
13.82902677604485
 10
176.3116353240189
 20
13.82011242517614
 10
176.2540495896807
 20
13.82896218398274
 10
176.1690163478472
 20
13.79738225225944
 10
176.2009714146382
 20
13.8809515599219
 10
176.1990705282537
 20
13.9488260896831
 10
176.21079600473
 20
14.05233256764418
 10
176.2164241052998
 20
14.17002125616695
 10
176.2237902178941
 20
14.30388609164423
 10
176.232075970161
 20
14.44764152872632
 10
176.2398851897426
 20
14.59714022843445
 10
176.2457571222658
 20
14.74792549402079
 10
176.2503667817968
 20
14.89699943878438
 10
176.2542632117541
 20
15.04122913163022
 10
176.2570715126564
 20
15.17583905213017
 10
176.2576698755022
 20
15.36469614347355
 10
176.2616023867151
 20
15.58975494313155
 10
176.2442175378497
 20
15.86367091125707
 10
176.2850417342584
 20
16.02787112098599
 10
176.1995153255999
 20
16.22749661465095
 10
176.2660558907687
 20
16.22385458403978
 10
176.283872427323
 20
16.22413447160853
 10
176.4056801797504
 20
16.22632927398617
 10
176.5080770335461
 20
15.94675118721508
 10
176.7580021509356
 20
15.74563008536007
 10
176.987003533111
 20
15.47792614987912
 10
177.2245151213109
 20
15.22646413862381
 10
177.4486090740771
 20
14.98969974061355
 10
177.6750716283009
 20
14.73218692583081
 10
177.8325687886515
 20
14.61649335056922
 10
178.0472129612672
 20
14.27997152538792
 10
178.0422645974619
 20
14.40464754091604
 10
178.0433931602546
 20
14.46327691935737
 10
178.0428877841517
 20
14.55043662371977
 10
178.0430475158113
 20
14.64416143182873
 10
178.0430054891318
 20
14.73018971297035
 10
178.0430202040372
 20
14.79153891945496
 10
178.0429706255985
 20
14.94135231520993
 10
178.045881152281
 20
15.17989612510105
 10
178.0259521041162
 20
15.54486509868701
 10
178.0750433936246
 20
15.80799631993412
 10
177.917795150918
 20
16.21928904947752
 10
178.0762112872421
 20
16.16398282551749
 10
178.1311680478629
 20
16.16199686500176
 10
178.182788776674
 20
16.16264778248254
 10
178.2713198965366
 20
16.20369527738246
 10
178.2204898303169
 20
16.05696326622988
 10
178.2313389930283
 20
15.95019971954434
 10
178.2166036994846
 20
15.79085705414113
 10
178.2099976446204
 20
15.62853061652875
 10
178.2014961399915
 20
15.45992521892395
 10
178.1943227202199
 20
15.29814814703541
 10
178.1889063215388
 20
15.15422331457933
 10
178.1871713967647
 20
15.03437493466926
 10
178.1875440672318
 20
14.92686101590515
 10
178.1873656126261
 20
14.81820024645586
 10
178.1877010863139
 20
14.6995357016553
 10
178.1890040622184
 20
14.57555163512741
 10
178.1908887351573
 20
14.44858294171105
 10
178.1925004454851
 20
14.32153861551032
 10
178.1941403137429
 20
14.19854884492178
 10
178.1962570745752
 20
14.08300931383759
 10
178.1963848422363
 20
13.98090903955837
 10
178.2006514396554
 20
13.89009848838156
 10
178.1908440085289
 20
13.83213621208786
 10
178.2118474771689
 20
13.76517130132029
 10
178.1725639739896
 20
13.77291153966688
 10
177.9595307117748
 20
13.75755254145193
 10
177.7636297943184
 20
14.31403058094463
 10
177.4611197631544
 20
14.57556035348509
 10
177.3067935648021
 20
14.70898038201725
 97
        1
330
AD
 75
     1
 76
     2
 52
45.0
 41
0.1
 77
     0
 78
     1
 53
45.0
 43
0.0
 44
0.0
 45
-0.282842712474619
 46
0.0
 79
     0
 98
        1
 10
0.0
 20
0.0
  0
HATCH
  5
CB
330
48
100
AcDbEntity
  8
1
  6
Continuous
 62
     2
100
AcDbHatch
 10
0.0
 20
0.0
 30
0.0
210
0.0
220
0.0
230
1.0
  2
CUSTOM13
 70
     0
 71
     1
 91
        2
 92
        1
 93
        1
 72
     4
 94
        3
 73
     0
 74
     0
 95
       57
 96
       53
 40
0.0
 40
0.0
 40
0.0
 40
0.0
 40
0.0471632082808395
 40
0.0914861054631882
 40
0.1357762519701834
 40
0.182652700160956
 40
0.2295203288571469
 40
0.2737751972219639
 40
0.3181310461542233
 40
0.3652607198398529
 40
0.4571007286314305
 40
0.5671851029164954
 40
0.6894623283868041
 40
0.8181758272545727
 40
0.9510087229273759
 40
1.085852229674066
 40
1.218126164475305
 40
1.343545131142392
 40
1.454537202956752
 40
1.567187607530704
 40
1.680710966642323
 40
1.794226869736687
 40
1.900009184247487
 40
2.004085860447766
 40
2.108162674451683
 40
2.214000150155312
 40
2.496038577352113
 40
2.762350745479245
 40
2.997275353279407
 40
3.18511008213773
 40
3.246407890063872
 40
3.312607550212603
 40
3.378877742711534
 40
3.440140399651445
 40
4.100501696006509
 40
4.754913085563556
 40
5.41133169342393
 40
6.077890432568709
 40
6.110575292670988
 40
6.143260152775768
 40
6.367989363395179
 40
6.610525374951536
 40
6.863389136467315
 40
7.119380025547627
 40
7.376036605091119
 40
7.63116477096632
 40
7.876722425456436
 40
8.104953735855988
 40
8.312916685924318
 40
8.497730294941295
 40
8.65101898431389
 40
8.764738853624575
 40
8.764738853624575
 40
8.764738853624575
 40
8.764738853624575
 10
174.7922649500512
 20
13.81626739612927
 10
174.776661672693
 20
13.81826231079078
 10
174.7463947960301
 20
13.822132013603
 10
174.7010994202252
 20
13.82341984967269
 10
174.6559553129348
 20
13.82308683554051
 10
174.60990171234
 20
13.82314658674225
 10
174.5640496172096
 20
13.82325813650002
 10
174.5183711648165
 20
13.82277833456591
 10
174.4750811541608
 20
13.82461109618722
 10
174.4039947951512
 20
13.80049556814654
 10
174.4057477261441
 20
13.92184693977252
 10
174.358619637057
 20
14.00726239751235
 10
174.3191478251762
 20
14.12486929345136
 10
174.2706635532645
 20
14.24232752540439
 10
174.2201017402522
 20
14.36405935761512
 10
174.1718634610475
 20
14.49075967862462
 10
174.1135232947594
 20
14.59933687784955
 10
174.098089266726
 20
14.75620657134407
 10
173.9566586330635
 20
14.72373446548323
 10
173.8508397414903
 20
14.73512888682179
 10
173.7358569725222
 20
14.73392591514616
 10
173.625314225214
 20
14.73506945347407
 10
173.5176583522783
 20
14.73418350037527
 10
173.4121322529242
 20
14.73416602390519
 10
173.3109192682012
 20
14.72714032472414
 10
173.1266804827752
 20
14.7513585985987
 10
173.1157393685411
 20
14.44741691121884
 10
173.008769163475
 20
14.22353177253393
 10
172.9098148604345
 20
14.03895314292502
 10
172.9225090524006
 20
13.79530204804207
 10
172.8050091716397
 20
13.82508046753198
 10
172.742205586831
 20
13.82258089509604
 10
172.67858720934
 20
13.82344075102806
 10
172.3946014194073
 20
13.78098039941943
 10
173.0251638499381
 20
14.50081952444784
 10
173.1087645289071
 20
15.01276539435727
 10
173.4929252789338
 20
15.53353743550047
 10
173.4777208288565
 20
16.23519626253211
 10
173.7239265722696
 20
16.22345633081257
 10
173.8256346157561
 20
16.23225004452772
 10
173.8249752035818
 20
15.98059650730352
 10
173.9428317155827
 20
15.79818020733955
 10
174.0315515260484
 20
15.55563740662865
 10
174.1322292485259
 20
15.3234003053013
 10
174.2311142712242
 20
15.08674644566912
 10
174.3299676990669
 20
14.85461739170095
 10
174.4256166390925
 20
14.63122222788787
 10
174.5159904573271
 20
14.42272549049318
 10
174.5989944568189
 20
14.23308448529322
 10
174.6726088582797
 20
14.06663106068094
 10
174.7342815895545
 20
13.92917699626103
 10
174.7749458885603
 20
13.84999239430035
 10
174.7922649500512
 20
13.81626739612927
 97
        1
330
AF
 92
       16
 93
        1
 72
     4
 94
        3
 73
     0
 74
     0
 95
       25
 96
       21
 40
0.0
 40
0.0
 40
0.0
 40
0.0
 40
0.0911479969064254
 40
0.1858117896204668
 40
0.280412839973449
 40
0.3715889190714509
 40
0.4679080494218706
 40
0.5642683809229228
 40
0.6605683222644706
 40
0.7569653015810256
 40
0.8561348172522739
 40
1.092615965104289
 40
1.374867658141869
 40
1.611348812011593
 40
1.710518328425239
 40
1.809403163726556
 40
2.045205463294059
 40
2.326646917622114
 40
2.562449217190573
 40
2.661334043833892
 40
2.661334043833892
 40
2.661334043833892
 40
2.661334043833892
 10
173.2683700567199
 20
14.88614538197293
 10
173.2987525917923
 20
14.88598079714556
 10
173.3606895889111
 20
14.88564528689922
 10
173.454135696033
 20
14.88269055451999
 10
173.5475095236357
 20
14.87977752877152
 10
173.6417760753477
 20
14.87894201643418
 10
173.7354964790966
 20
14.87996644658047
 10
173.8352040303205
 20
14.87916977470971
 10
173.9188949546312
 20
14.8892141023522
 10
174.0637996315045
 20
14.86234617674165
 10
173.9396132444801
 20
15.03665530280049
 10
173.8965867286282
 20
15.19651711006092
 10
173.780892214221
 20
15.45518458550217
 10
173.7017565431257
 20
15.59231052861858
 10
173.6431576621816
 20
15.80937033134077
 10
173.5864803939437
 20
15.59266134213428
 10
173.5052809900478
 20
15.45327012438237
 10
173.4063701281488
 20
15.20406969370195
 10
173.3253625094259
 20
15.01925830226074
 10
173.2813683325838
 20
14.91650446856117
 10
173.2683700567199
 20
14.88614538197293
 97
        1
330
AE
 75
     1
 76
     2
 52
45.0
 41
0.1
 77
     0
 78
     1
 53
45.0
 43
0.0
 44
0.0
 45
-0.282842712474619
 46
0.0
 79
     0
 98
        1
 10
0.0
 20
0.0
  0
HATCH
  5
CC
330
48
100
AcDbEntity
  8
1
  6
Continuous
 62
     2
100
AcDbHatch
 10
0.0
 20
0.0
 30
0.0
210
0.0
220
0.0
230
1.0
  2
CUSTOM14
 70
     0
 71
     1
 91
        1
 92
        1
 93
        1
 72
     4
 94
        3
 73
     0
 74
     0
 95
       99
 96
       95
 40
0.0
 40
0.0
 40
0.0
 40
0.0
 40
0.0796417172272377
 40
0.1621768542356136
 40
0.2486489160957771
 40
0.3404969668524743
 40
0.4381912511164757
 40
0.5434463660245061
 40
0.6518115192847381
 40
0.7530190937886954
 40
0.8492196919724744
 40
0.9419290312998206
 40
1.034249663569976
 40
1.129078600620177
 40
1.226697027573227
 40
1.327220425421695
 40
1.470572134938007
 40
1.595489863371179
 40
1.719934125348385
 40
1.85057662012738
 40
1.989059629987321
 40
2.134139054226966
 40
2.280698007207227
 40
2.424529739039442
 40
2.565929576985833
 40
2.708239260773507
 40
2.861717887443659
 40
3.045168540347374
 40
3.18379830113862
 40
3.314813961455471
 40
3.442083470447321
 40
3.569912708373044
 40
3.702177512509441
 40
3.842307559659604
 40
3.992872223245982
 40
4.156750662218314
 40
4.31098186110762
 40
4.445859909322666
 40
4.572393936131632
 40
4.701656719782049
 40
4.768279086008537
 40
4.835960697898482
 40
4.91278891872942
 40
5.006285208481635
 40
5.026909478751683
 40
5.04753374902119
 40
5.101808031471263
 40
5.162325165538542
 40
5.226919745995877
 40
5.294231806596788
 40
5.364544852554891
 40
5.438319055467912
 40
5.517877651324274
 40
5.607647714861643
 40
5.700449642544461
 40
5.788251142364137
 40
5.872714706039767
 40
5.955167292575284
 40
6.03719239519037
 40
6.120669181469097
 40
6.206848616686346
 40
6.296680855416757
 40
6.442558392872589
 40
6.568190371608277
 40
6.692904567360356
 40
6.824220446557041
 40
6.963121850329354
 40
7.107843738851169
 40
7.253431663907278
 40
7.395187468036698
 40
7.533140753237757
 40
7.670550457175248
 40
7.81623651176926
 40
7.98769165735922
 40
8.142277421969258
 40
8.293662615415057
 40
8.442962460879286
 40
8.591598316185296
 40
8.74367899236179
 40
8.903725323699256
 40
9.076307008890492
 40
9.265578604680547
 40
9.459203795360779
 40
9.61761981027351
 40
9.753609671361874
 40
9.87487330000404
 40
9.954520184977715
 40
10.02416413719238
 40
10.09769764405439
 40
10.18909955924966
 40
10.20974586420136
 40
10.23039218263381
 40
10.30057101881266
 40
10.37632012987546
 40
10.37632012987546
 40
10.37632012987546
 40
10.37632012987546
 10
170.1465954835851
 20
14.13795663215995
 10
170.1632217851219
 20
14.11720608845313
 10
170.1970784206577
 20
14.07495111711899
 10
170.2599822541036
 20
14.02029811392073
 10
170.3332500940393
 20
13.97299025121051
 10
170.4175969238635
 20
13.93527231437935
 10
170.5132240615459
 20
13.91040619731951
 10
170.6171853775346
 20
13.90309559345937
 10
170.7224020220405
 20
13.91142322794053
 10
170.8206626371333
 20
13.94149179651526
 10
170.9058986427548
 20
13.98848822971881
 10
170.9779220206103
 20
14.04952991250851
 10
171.0350917709095
 20
14.1241296957859
 10
171.076786874744
 20
14.2100246466017
 10
171.1026952846292
 20
14.30485850432212
 10
171.1118037332653
 20
14.41854979038368
 10
171.0986864796486
 20
14.54332587770776
 10
171.0325330334414
 20
14.66014719171895
 10
170.9369370919568
 20
14.74512539577371
 10
170.8249681022369
 20
14.81416684459165
 10
170.6993659583268
 20
14.8720414204589
 10
170.5656691620855
 20
14.92373723284341
 10
170.431312281883
 20
14.97899092397181
 10
170.3051983986877
 20
15.04939770641652
 10
170.1926579987534
 20
15.13785540731247
 10
170.0969963064458
 20
15.24981067868476
 10
170.0334157151824
 20
15.3994991010138
 10
170.0200706505015
 20
15.55932794385142
 10
170.0320510987447
 20
15.71048405306846
 10
170.071229892884
 20
15.83809244591538
 10
170.135498775091
 20
15.95080874030848
 10
170.223820499974
 20
16.04648609268684
 10
170.3338091207627
 20
16.12354214985754
 10
170.4632284401265
 20
16.18151396936277
 10
170.6111838967792
 20
16.21739177588823
 10
170.7682069455486
 20
16.22746719050564
 10
170.917494046643
 20
16.21863637762591
 10
171.059625361417
 20
16.19074899340353
 10
171.1595922609625
 20
16.13413314701136
 10
171.3125074736186
 20
16.08674602105509
 10
171.2455131717168
 20
16.00197553001185
 10
171.2296479120269
 20
15.93438901873485
 10
171.1978750531297
 20
15.8692609279319
 10
171.2150202209569
 20
15.76723453256954
 10
171.1666427208231
 20
15.77493211681902
 10
171.1315789440765
 20
15.76806771724809
 10
171.1296697985718
 20
15.83263831158196
 10
171.0985692931989
 20
15.87825639621396
 10
171.0664551628455
 20
15.93561036628455
 10
171.0208038475167
 20
15.98540462692555
 10
170.9658508218387
 20
16.02994813718996
 10
170.9010841173007
 20
16.06763988836551
 10
170.8232377310596
 20
16.09283375791352
 10
170.7355160553352
 20
16.09931230998111
 10
170.6452903277806
 20
16.09235709285608
 10
170.5594594694064
 20
16.06909190460919
 10
170.4828343638596
 20
16.03131644107545
 10
170.4165265636202
 20
15.98051641089574
 10
170.3622560536964
 20
15.91731143407211
 10
170.3224925345459
 20
15.84276455710368
 10
170.2976775510588
 20
15.75917313997764
 10
170.289212426287
 20
15.65192948382286
 10
170.3019697987103
 20
15.52965457267559
 10
170.3681548409273
 20
15.41149724291211
 10
170.4640977399831
 20
15.32606325709532
 10
170.5757914963182
 20
15.25583362306716
 10
170.7010863668702
 20
15.19659162305306
 10
170.8349823941447
 20
15.14616708086131
 10
170.9689930333149
 20
15.09322516984383
 10
171.0950885316915
 20
15.02750170625177
 10
171.2076216638417
 20
14.94480352537322
 10
171.3031370284232
 20
14.83996006310073
 10
171.3672706486963
 20
14.6993711725157
 10
171.3811103725279
 20
14.54065409451593
 10
171.367395471223
 20
14.38153155217874
 10
171.3244739153983
 20
14.23483828819214
 10
171.2545906329065
 20
14.10119796587142
 10
171.157459221383
 20
13.9853238769929
 10
171.0347806023657
 20
13.89089981770087
 10
170.8874408413167
 20
13.82179270651985
 10
170.7177132497124
 20
13.77953210858851
 10
170.5317404979596
 20
13.76781736230408
 10
170.3528955926182
 20
13.77809486683435
 10
170.1881733753742
 20
13.81966573769154
 10
170.0834410841057
 20
13.88797642883942
 10
169.9350960790366
 20
13.93675219032105
 10
169.9980378194728
 20
14.02976591290842
 10
170.0072274430058
 20
14.10296536248281
 10
170.0303711301231
 20
14.16936294501346
 10
170.0034588335316
 20
14.26974809527584
 10
170.0521338956339
 20
14.26234033517377
 10
170.0916530580696
 20
14.26894063620895
 10
170.0996204944702
 20
14.19078703218932
 10
170.1305436967922
 20
14.15600927375857
 10
170.1465954835851
 20
14.13795663215995
 97
        1
330
B0
 75
     1
 76
     2
 52
45.0
 41
0.1
 77
     0
 78
     1
 53
45.0
 43
0.0
 44
0.0
 45
-0.282842712474619
 46
0.0
 79
     0
 98
        1
 10
0.0
 20
0.0
  0
ENDBLK
  5
4A
330
48
100
AcDbEntity
  8
0
100
AcDbBlockEnd
  0
BLOCK
  5
4D
330
4B
100
AcDbEntity
  8
0
100
AcDbBlockBegin
  2
開示A4枠
 70
     0
 10
-0.00000000000003
 20
0.0
 30
0.0
  3
開示A4枠
  1

  0
INSERT
  5
4C
330
4B
100
AcDbEntity
  8
1
100
AcDbBlockReference
  2
開示A4
 10
-0.00000000000002
 20
0.0
 30
0.0
 41
1.5
 42
1.5
 43
1.5
  0
ENDBLK
  5
4E
330
4B
100
AcDbEntity
  8
0
100
AcDbBlockEnd
  0
BLOCK
  5
12A
330
123
100
AcDbEntity
  8
0
100
AcDbBlockBegin
  2
*D3
 70
     1
 10
0.0
 20
0.0
 30
0.0
  3
*D3
  1

  0
LINE
  5
124
330
123
100
AcDbEntity
  8
1
  6
Continuous
 62
     2
100
AcDbLine
 10
104.9984542460947
 20
165.0919770202359
 30
0.0
 11
249.3984542460947
 21
165.0919770202359
 31
0.0
  0
LINE
  5
125
330
123
100
AcDbEntity
  8
1
  6
Continuous
 62
     2
100
AcDbLine
 10
249.3984542460947
 20
146.6025211679273
 30
0.0
 11
249.3984542460947
 21
166.5919770202359
 31
0.0
  0
LINE
  5
126
330
123
100
AcDbEntity
  8
1
  6
Continuous
 62
     2
100
AcDbLine
 10
104.9984542460947
 20
146.6025211679273
 30
0.0
 11
104.9984542460947
 21
166.5919770202359
 31
0.0
  0
SOLID
  5
127
330
123
100
AcDbEntity
  8
1
 62
     2
100
AcDbTrace
 10
110.2484542460947
 20
165.7831526325697
 30
0.0
 11
110.2484542460947
 21
164.4008014079021
 31
0.0
 12
104.9984542460947
 22
165.0919770202359
 32
0.0
 13
104.9984542460947
 23
165.0919770202359
 33
0.0
  0
SOLID
  5
128
330
123
100
AcDbEntity
  8
1
 62
     2
100
AcDbTrace
 10
244.1484542460947
 20
164.4008014079021
 30
0.0
 11
244.1484542460947
 21
165.7831526325697
 31
0.0
 12
249.3984542460947
 22
165.0919770202359
 32
0.0
 13
249.3984542460947
 23
165.0919770202359
 33
0.0
  0
MTEXT
  5
129
330
123
100
AcDbEntity
  8
1
 62
     7
100
AcDbMText
 10
171.1507733572238
 20
166.5919665846214
 30
0.0
 40
5.25
 41
0.0
 71
     7
 72
     1
  1
\C7;{\Fgdt;n}\C7;145
  7
CONVERTER_12
 11
0.9999999999970619
 21
2.424068405545306E-6
 31
0.0
 73
     1
 44
0.60024009603842
  0
ENDBLK
  5
12B
330
123
100
AcDbEntity
  8
0
100
AcDbBlockEnd
  0
BLOCK
  5
135
330
12E
100
AcDbEntity
  8
0
100
AcDbBlockBegin
  2
*D4
 70
     1
 10
0.0
 20
0.0
 30
0.0
  3
*D4
  1

  0
LINE
  5
12F
330
12E
100
AcDbEntity
  8
1
  6
Continuous
 62
     2
100
AcDbLine
 10
76.4984542460947
 20
148.5919770202359
 30
0.0
 11
76.4984542460947
 21
126.5893067667797
 31
0.0
  0
LINE
  5
130
330
12E
100
AcDbEntity
  8
1
  6
Continuous
 62
     2
100
AcDbLine
 10
137.1538148848734
 20
126.5893067667797
 30
0.0
 11
74.9984542460947
 21
126.5893067667797
 31
0.0
  0
LINE
  5
131
330
12E
100
AcDbEntity
  8
1
  6
Continuous
 62
     2
100
AcDbLine
 10
107.2035527875699
 20
148.5919770202359
 30
0.0
 11
74.9984542460947
 21
148.5919770202359
 31
0.0
  0
SOLID
  5
132
330
12E
100
AcDbEntity
  8
1
 62
     2
100
AcDbTrace
 10
77.18962985842852
 20
143.3419770202359
 30
0.0
 11
75.80727863376087
 21
143.3419770202359
 31
0.0
 12
76.4984542460947
 22
148.5919770202359
 32
0.0
 13
76.4984542460947
 23
148.5919770202359
 33
0.0
  0
SOLID
  5
133
330
12E
100
AcDbEntity
  8
1
 62
     2
100
AcDbTrace
 10
75.80727863376087
 20
131.8393067667797
 30
0.0
 11
77.18962985842852
 21
131.8393067667797
 31
0.0
 12
76.4984542460947
 22
126.5893067667797
 32
0.0
 13
76.4984542460947
 23
126.5893067667797
 33
0.0
  0
MTEXT
  5
134
330
12E
100
AcDbEntity
  8
1
 62
     7
100
AcDbMText
 10
74.9984542460947
 20
133.6066172282354
 30
0.0
 40
5.25
 41
0.0
 71
     7
 72
     1
  1
22
  7
CONVERTER_12
 11
0.0
 21
1.0
 31
0.0
 73
     1
 44
0.60024009603842
  0
ENDBLK
  5
136
330
12E
100
AcDbEntity
  8
0
100
AcDbBlockEnd
  0
BLOCK
  5
140
330
139
100
AcDbEntity
  8
0
100
AcDbBlockBegin
  2
*D5
 70
     1
 10
0.0
 20
0.0
 30
0.0
  3
*D5
  1

  0
LINE
  5
13A
330
139
100
AcDbEntity
  8
1
  6
Continuous
 62
     2
100
AcDbLine
 10
88.4984542460947
 20
148.5919770202359
 30
0.0
 11
88.4984542460947
 21
131.0893067667797
 31
0.0
  0
LINE
  5
13B
330
139
100
AcDbEntity
  8
1
  6
Continuous
 62
     2
100
AcDbLine
 10
105.9984542460947
 20
131.0893067667797
 30
0.0
 11
86.9984542460947
 21
131.0893067667797
 31
0.0
  0
LINE
  5
13C
330
139
100
AcDbEntity
  8
1
  6
Continuous
 62
     2
100
AcDbLine
 10
107.2035527875699
 20
148.5919770202359
 30
0.0
 11
86.9984542460947
 21
148.5919770202359
 31
0.0
  0
SOLID
  5
13D
330
139
100
AcDbEntity
  8
1
 62
     2
100
AcDbTrace
 10
89.18962985842852
 20
143.3419770202359
 30
0.0
 11
87.80727863376087
 21
143.3419770202359
 31
0.0
 12
88.4984542460947
 22
148.5919770202359
 32
0.0
 13
88.4984542460947
 23
148.5919770202359
 33
0.0
  0
SOLID
  5
13E
330
139
100
AcDbEntity
  8
1
 62
     2
100
AcDbTrace
 10
87.80727863376087
 20
136.3393067667797
 30
0.0
 11
89.18962985842852
 21
136.3393067667797
 31
0.0
 12
88.4984542460947
 22
131.0893067667797
 32
0.0
 13
88.4984542460947
 23
131.0893067667797
 33
0.0
  0
MTEXT
  5
13F
330
139
100
AcDbEntity
  8
1
 62
     7
100
AcDbMText
 10
86.9984542460947
 20
136.6560777834687
 30
0.0
 40
5.25
 41
0.0
 71
     7
 72
     1
  1
18
  7
CONVERTER_12
 11
0.0
 21
1.0
 31
0.0
 73
     1
 44
0.60024009603842
  0
ENDBLK
  5
141
330
139
100
AcDbEntity
  8
0
100
AcDbBlockEnd
  0
BLOCK
  5
148
330
144
100
AcDbEntity
  8
0
100
AcDbBlockBegin
  2
*D6
 70
     1
 10
0.0
 20
0.0
 30
0.0
  3
*D6
  1

  0
LINE
  5
145
330
144
100
AcDbEntity
  8
1
  6
Continuous
 62
     2
100
AcDbLine
 10
177.1984542460947
 20
263.6956603333487
 30
0.0
 11
117.4613654445249
 21
186.4775113823848
 31
0.0
  0
SOLID
  5
146
330
144
100
AcDbEntity
  8
1
 62
     2
100
AcDbTrace
 10
136.2898021162398
 20
209.6861944533235
 30
0.0
 11
135.1964379012182
 21
210.5320369928369
 31
0.0
 12
138.9555259828422
 22
214.2615785895585
 32
0.0
 13
138.9555259828422
 23
214.2615785895585
 33
0.0
  0
MTEXT
  5
147
330
144
100
AcDbEntity
  8
1
 62
     7
100
AcDbMText
 10
117.495661752837
 20
188.9732775499646
 30
0.0
 40
5.25
 41
0.0
 71
     7
 72
     1
  1
\C7;{\Fgdt;n}\C7;125
  7
CONVERTER_12
 11
0.6118868522120389
 21
0.7909453079006427
 31
0.0
 73
     1
 44
0.60024009603842
  0
ENDBLK
  5
149
330
144
100
AcDbEntity
  8
0
100
AcDbBlockEnd
  0
BLOCK
  5
14F
330
14B
100
AcDbEntity
  8
0
100
AcDbBlockBegin
  2
*D7
 70
     1
 10
0.0
 20
0.0
 30
0.0
  3
*D7
  1

  0
LINE
  5
14C
330
14B
100
AcDbEntity
  8
1
  6
Continuous
 62
     2
100
AcDbLine
 10
177.1984542460947
 20
263.6956603333487
 30
0.0
 11
146.7180943046033
 21
246.4925310297269
 31
0.0
  0
SOLID
  5
14D
330
14B
100
AcDbEntity
  8
1
 62
     2
100
AcDbTrace
 10
150.9504230549559
 20
249.6749227523192
 30
0.0
 11
151.6298735366981
 21
248.4710780982211
 31
0.0
 12
146.7180943046033
 22
246.4925310297269
 32
0.0
 13
146.7180943046033
 23
246.4925310297269
 33
0.0
  0
MTEXT
  5
14E
330
14B
100
AcDbEntity
  8
1
 62
     7
100
AcDbMText
 10
153.3910752083385
 20
251.981185154832
 30
0.0
 40
5.25
 41
0.0
 71
     7
 72
     1
  1
\C7;{\Fgdt;n}\C7;70
  7
CONVERTER_12
 11
0.870867426899753
 21
0.4915179801034784
 31
0.0
 73
     1
 44
0.60024009603842
  0
ENDBLK
  5
150
330
14B
100
AcDbEntity
  8
0
100
AcDbBlockEnd
  0
ENDSEC
  0
SECTION
  2
ENTITIES
  0
INSERT
  5
4F
330
1F
100
AcDbEntity
  8
0
100
AcDbBlockReference
  2
開示A4枠
 10
-0.00000000000003
 20
0.0
 30
0.0
  0
LINE
  5
CD
330
1F
100
AcDbEntity
  8
0
  6
Continuous
 62
     7
100
AcDbLine
 10
177.1984542460947
 20
148.5919770202359
 30
0.0
 11
247.1933557046195
 21
148.5919770202359
 31
0.0
  0
LINE
  5
CE
330
1F
100
AcDbEntity
  8
0
  6
DASH_CENTER
 62
     2
100
AcDbLine
 10
177.1984542460947
 20
263.6956603333487
 30
0.0
 11
134.6984542460947
 21
263.6956603333487
 31
0.0
  0
LINE
  5
CF
330
1F
100
AcDbEntity
  8
0
  6
DASH_CENTER
 62
     2
100
AcDbLine
 10
177.1984542460947
 20
326.1956603333487
 30
0.0
 11
177.1984542460947
 21
338.5281941008262
 31
0.0
  0
LINE
  5
D0
330
1F
100
AcDbEntity
  8
0
  6
DASH_CENTER
 62
     2
100
AcDbLine
 10
177.1984542460947
 20
302.3635673230101
 30
0.0
 11
177.1984542460947
 21
326.1956603333487
 31
0.0
  0
LINE
  5
D1
330
1F
100
AcDbEntity
  8
0
  6
DASH_CENTER
 62
     2
100
AcDbLine
 10
177.1984542460947
 20
298.6956603333487
 30
0.0
 11
177.1984542460947
 21
302.3635673230101
 31
0.0
  0
LINE
  5
D2
330
1F
100
AcDbEntity
  8
0
  6
DASH_CENTER
 62
     2
100
AcDbLine
 10
177.1984542460947
 20
150.8193067667797
 30
0.0
 11
177.1984542460947
 21
148.5919770202359
 31
0.0
  0
LINE
  5
D3
330
1F
100
AcDbEntity
  8
0
  6
Continuous
 62
     7
100
AcDbLine
 10
145.5756776444109
 20
278.6956603333487
 30
0.0
 11
145.0277071000557
 21
280.5580668639047
 31
0.0
  0
LINE
  5
D4
330
1F
100
AcDbEntity
  8
0
  6
DASH_CENTER
 62
     2
100
AcDbLine
 10
134.6984542460947
 20
263.6956603333487
 30
0.0
 11
102.3659204786172
 21
263.6956603333487
 31
0.0
  0
LINE
  5
D5
330
1F
100
AcDbEntity
  8
0
  6
Continuous
 62
     7
100
AcDbLine
 10
209.3692013921336
 20
280.5580668639047
 30
0.0
 11
208.8212308477785
 21
278.6956603333487
 31
0.0
  0
LINE
  5
D6
330
1F
100
AcDbEntity
  8
0
  6
Continuous
 62
     7
100
AcDbLine
 10
249.3984542460947
 20
146.6025211679273
 30
0.0
 11
249.3984542460947
 21
132.0893067667797
 31
0.0
  0
LINE
  5
D7
330
1F
100
AcDbEntity
  8
0
  6
Continuous
 62
     7
100
AcDbLine
 10
248.3984542460947
 20
131.0893067667797
 30
0.0
 11
133.1647310792077
 21
131.0893067667797
 31
0.0
  0
LINE
  5
D8
330
1F
100
AcDbEntity
  8
0
  6
Continuous
 62
     7
100
AcDbLine
 10
218.3327142364029
 20
127.3614255397499
 30
0.0
 11
221.2321774129816
 21
131.0893067667797
 31
0.0
  0
LINE
  5
D9
330
1F
100
AcDbEntity
  8
0
  6
DASH_CENTER
 62
     2
100
AcDbLine
 10
177.1984542460947
 20
148.5919770202359
 30
0.0
 11
177.1984542460947
 21
124.5893067667797
 31
0.0
  0
LINE
  5
DA
330
1F
100
AcDbEntity
  8
0
  6
Continuous
 62
     7
100
AcDbLine
 10
137.1538148848734
 20
126.5893067667797
 30
0.0
 11
216.7540098016502
 21
126.5893067667797
 31
0.0
  0
LINE
  5
DB
330
1F
100
AcDbEntity
  8
0
  6
DASH_CENTER
 62
     2
100
AcDbLine
 10
177.1984542460947
 20
263.6956603333487
 30
0.0
 11
249.3984542460947
 21
263.6956603333487
 31
0.0
  0
LINE
  5
DC
330
1F
100
AcDbEntity
  8
0
  6
DASH_CENTER
 62
     2
100
AcDbLine
 10
177.1984542460947
 20
265.6956603333487
 30
0.0
 11
177.1984542460947
 21
298.6956603333487
 31
0.0
  0
LINE
  5
DD
330
1F
100
AcDbEntity
  8
0
  6
DASH_CENTER
 62
     2
100
AcDbLine
 10
249.3984542460947
 20
263.6956603333487
 30
0.0
 11
252.0309880135722
 21
263.6956603333487
 31
0.0
  0
LINE
  5
DE
330
1F
100
AcDbEntity
  8
0
  6
Continuous
 62
     7
100
AcDbLine
 10
145.0277071000557
 20
246.8332538027927
 30
0.0
 11
145.5756776444109
 21
248.6956603333487
 31
0.0
  0
LINE
  5
DF
330
1F
100
AcDbEntity
  8
0
  6
Continuous
 62
     7
100
AcDbLine
 10
208.8212308477785
 20
248.6956603333487
 30
0.0
 11
209.3692013921336
 21
246.8332538027927
 31
0.0
  0
LINE
  5
E0
330
1F
100
AcDbEntity
  8
0
  6
DASH_CENTER
 62
     2
100
AcDbLine
 10
177.1984542460947
 20
228.6956603333487
 30
0.0
 11
177.1984542460947
 21
263.6956603333487
 31
0.0
  0
LINE
  5
E1
330
1F
100
AcDbEntity
  8
0
  6
DASH_CENTER
 62
     2
100
AcDbLine
 10
177.1984542460947
 20
201.1956603333487
 30
0.0
 11
177.1984542460947
 21
225.0277533436873
 31
0.0
  0
LINE
  5
E2
330
1F
100
AcDbEntity
  8
0
  6
DASH_CENTER
 62
     2
100
AcDbLine
 10
177.1984542460947
 20
225.0277533436873
 30
0.0
 11
177.1984542460947
 21
228.6956603333487
 31
0.0
  0
LINE
  5
E3
330
1F
100
AcDbEntity
  8
0
  6
DASH_CENTER
 62
     2
100
AcDbLine
 10
177.1984542460947
 20
188.8631265658712
 30
0.0
 11
177.1984542460947
 21
201.1956603333487
 31
0.0
  0
LINE
  5
E4
330
1F
100
AcDbEntity
  8
0
  6
DASH_CENTER
 62
     2
100
AcDbLine
 10
177.1984542460947
 20
263.6956603333487
 30
0.0
 11
177.1984542460947
 21
265.6956603333487
 31
0.0
  0
LINE
  5
E5
330
1F
100
AcDbEntity
  8
0
  6
Continuous
 62
     7
100
AcDbLine
 10
104.9984542460947
 20
132.0893067667797
 30
0.0
 11
104.9984542460947
 21
146.6025211679273
 31
0.0
  0
LINE
  5
E6
330
1F
100
AcDbEntity
  8
0
  6
Continuous
 62
     7
100
AcDbLine
 10
133.1647310792077
 20
131.0893067667797
 30
0.0
 11
105.9984542460947
 21
131.0893067667797
 31
0.0
  0
LINE
  5
E7
330
1F
100
AcDbEntity
  8
0
  6
Continuous
 62
     7
100
AcDbLine
 10
133.1647310792077
 20
131.0893067667797
 30
0.0
 11
136.0641942557865
 21
127.3614255397499
 31
0.0
  0
LINE
  5
E8
330
1F
100
AcDbEntity
  8
0
  6
Continuous
 62
     7
100
AcDbLine
 10
137.6428986905392
 20
126.5893067667797
 30
0.0
 11
137.6600860591219
 21
126.5893067667797
 31
0.0
  0
LINE
  5
E9
330
1F
100
AcDbEntity
  8
0
  6
Continuous
 62
     7
100
AcDbLine
 10
107.2035527875699
 20
148.5919770202359
 30
0.0
 11
177.1984542460947
 21
148.5919770202359
 31
0.0
  0
ARC
  5
EA
330
1F
100
AcDbEntity
  8
0
  6
Continuous
 62
     7
100
AcDbCircle
 10
177.1984542460947
 20
263.6956603333487
 30
0.0
 40
35.0
100
AcDbArc
 50
90.0
 51
154.6230664748477
  0
ARC
  5
EB
330
1F
100
AcDbEntity
  8
0
  6
Continuous
 62
     7
100
AcDbCircle
 10
177.1984542460947
 20
263.6956603333487
 30
0.0
 40
38.66790698966139
100
AcDbArc
 50
90.0
 51
143.4967254785904
  0
ARC
  5
EC
330
1F
100
AcDbEntity
  8
0
  6
Continuous
 62
     7
100
AcDbCircle
 10
139.6984542460947
 20
263.6956603333487
 30
0.0
 40
5.000000000000052
100
AcDbArc
 50
131.3981513838996
 51
180.0
  0
ARC
  5
ED
330
1F
100
AcDbEntity
  8
0
  6
Continuous
 62
     7
100
AcDbCircle
 10
119.5950955912807
 20
286.4999278867143
 30
0.0
 40
25.40032315370292
100
AcDbArc
 50
311.3981513838983
 51
353.6614625464186
  0
ARC
  5
EE
330
1F
100
AcDbEntity
  8
0
  6
Continuous
 62
     7
100
AcDbCircle
 10
177.1984542460947
 20
263.6956603333487
 30
0.0
 40
35.00000000000003
100
AcDbArc
 50
154.6230664748477
 51
180.0
  0
ARC
  5
EF
330
1F
100
AcDbEntity
  8
0
  6
Continuous
 62
     7
100
AcDbCircle
 10
177.1984542460947
 20
263.6956603333487
 30
0.0
 40
35.0
100
AcDbArc
 50
25.3769335251523
 51
90.0
  0
ARC
  5
F0
330
1F
100
AcDbEntity
  8
0
  6
Continuous
 62
     7
100
AcDbCircle
 10
177.1984542460947
 20
263.6956603333487
 30
0.0
 40
38.6679069896615
100
AcDbArc
 50
36.5032745214096
 51
90.0
  0
ARC
  5
F1
330
1F
100
AcDbEntity
  8
0
  6
Continuous
 62
     7
100
AcDbCircle
 10
234.8018129009087
 20
286.4999278867143
 30
0.0
 40
25.40032315370301
100
AcDbArc
 50
186.3385374535814
 51
228.6018486161016
  0
ARC
  5
F2
330
1F
100
AcDbEntity
  8
0
  6
Continuous
 62
     7
100
AcDbCircle
 10
177.1984542460947
 20
263.6956603333487
 30
0.0
 40
35.0
100
AcDbArc
 50
0.0
 51
25.3769335251523
  0
ARC
  5
F3
330
1F
100
AcDbEntity
  8
0
  6
Continuous
 62
     7
100
AcDbCircle
 10
214.6984542460947
 20
263.6956603333487
 30
0.0
 40
5.0
100
AcDbArc
 50
0.0
 51
48.60184861610161
  0
ARC
  5
F4
330
1F
100
AcDbEntity
  8
0
  6
Continuous
 62
     7
100
AcDbCircle
 10
177.1984542460947
 20
263.6956603333487
 30
0.0
 40
62.5
100
AcDbArc
 50
90.0
 51
180.0
  0
ARC
  5
F5
330
1F
100
AcDbEntity
  8
0
  6
Continuous
 62
     7
100
AcDbCircle
 10
177.1984542460947
 20
263.6956603333487
 30
0.0
 40
62.5
100
AcDbArc
 50
0.0
 51
90.0
  0
ARC
  5
F6
330
1F
100
AcDbEntity
  8
0
  6
Continuous
 62
     7
100
AcDbCircle
 10
177.1984542460947
 20
263.6956603333487
 30
0.0
 40
72.19999999999999
100
AcDbArc
 50
0.0
 51
180.0
  0
ARC
  5
F7
330
1F
100
AcDbEntity
  8
0
  6
Continuous
 62
     7
100
AcDbCircle
 10
177.1984542460947
 20
263.6956603333487
 30
0.0
 40
72.20000000000002
100
AcDbArc
 50
180.0
 51
0.0
  0
ARC
  5
F8
330
1F
100
AcDbEntity
  8
0
  6
Continuous
 62
     7
100
AcDbCircle
 10
177.1984542460947
 20
263.6956603333487
 30
0.0
 40
62.50000000000001
100
AcDbArc
 50
180.0
 51
270.0
  0
ARC
  5
F9
330
1F
100
AcDbEntity
  8
0
  6
Continuous
 62
     7
100
AcDbCircle
 10
177.1984542460947
 20
263.6956603333487
 30
0.0
 40
62.5
100
AcDbArc
 50
270.0
 51
0.0
  0
ARC
  5
FA
330
1F
100
AcDbEntity
  8
0
  6
Continuous
 62
     7
100
AcDbCircle
 10
177.1984542460947
 20
263.6956603333487
 30
0.0
 40
38.66790698966154
100
AcDbArc
 50
216.5032745214096
 51
270.0
  0
ARC
  5
FB
330
1F
100
AcDbEntity
  8
0
  6
Continuous
 62
     7
100
AcDbCircle
 10
177.1984542460947
 20
263.6956603333487
 30
0.0
 40
35.00000000000003
100
AcDbArc
 50
205.3769335251523
 51
270.0
  0
ARC
  5
FC
330
1F
100
AcDbEntity
  8
0
  6
Continuous
 62
     7
100
AcDbCircle
 10
177.1984542460947
 20
263.6956603333487
 30
0.0
 40
35.0
100
AcDbArc
 50
180.0
 51
205.3769335251523
  0
ARC
  5
FD
330
1F
100
AcDbEntity
  8
0
  6
Continuous
 62
     7
100
AcDbCircle
 10
119.5950955912807
 20
240.8913927799831
 30
0.0
 40
25.40032315370291
100
AcDbArc
 50
6.33853745358138
 51
48.60184861610175
  0
ARC
  5
FE
330
1F
100
AcDbEntity
  8
0
  6
Continuous
 62
     7
100
AcDbCircle
 10
139.6984542460947
 20
263.6956603333487
 30
0.0
 40
5.0
100
AcDbArc
 50
180.0
 51
228.6018486161004
  0
ARC
  5
FF
330
1F
100
AcDbEntity
  8
0
  6
Continuous
 62
     7
100
AcDbCircle
 10
177.1984542460947
 20
263.6956603333487
 30
0.0
 40
35.0
100
AcDbArc
 50
270.0
 51
334.6230664748477
  0
ARC
  5
100
330
1F
100
AcDbEntity
  8
0
  6
Continuous
 62
     7
100
AcDbCircle
 10
177.1984542460947
 20
263.6956603333487
 30
0.0
 40
38.66790698966142
100
AcDbArc
 50
270.0
 51
323.4967254785903
  0
ARC
  5
101
330
1F
100
AcDbEntity
  8
0
  6
Continuous
 62
     7
100
AcDbCircle
 10
234.8018129009087
 20
240.8913927799831
 30
0.0
 40
25.40032315370298
100
AcDbArc
 50
131.3981513838984
 51
173.6614625464186
  0
ARC
  5
102
330
1F
100
AcDbEntity
  8
0
  6
Continuous
 62
     7
100
AcDbCircle
 10
177.1984542460947
 20
263.6956603333487
 30
0.0
 40
35.0
100
AcDbArc
 50
334.6230664748477
 51
0.0
  0
ARC
  5
103
330
1F
100
AcDbEntity
  8
0
  6
Continuous
 62
     7
100
AcDbCircle
 10
214.6984542460947
 20
263.6956603333487
 30
0.0
 40
4.999999999999957
100
AcDbArc
 50
311.3981513838984
 51
0.0
  0
ARC
  5
104
330
1F
100
AcDbEntity
  8
0
  6
Continuous
 62
     7
100
AcDbCircle
 10
151.7430665375703
 20
282.5339078557315
 30
0.0
 40
6.999999999999943
100
AcDbArc
 50
170.4467230769009
 51
196.3953140901814
  0
ARC
  5
105
330
1F
100
AcDbEntity
  8
0
  6
Continuous
 62
     7
100
AcDbCircle
 10
151.7430665375703
 20
282.5339078557315
 30
0.0
 40
6.999999999999919
100
AcDbArc
 50
143.4967254785905
 51
170.4467230769009
  0
ARC
  5
106
330
1F
100
AcDbEntity
  8
0
  6
Continuous
 62
     7
100
AcDbCircle
 10
202.653841954619
 20
282.5339078557315
 30
0.0
 40
6.999999999999966
100
AcDbArc
 50
343.6046859098186
 51
9.55327692309912
  0
ARC
  5
107
330
1F
100
AcDbEntity
  8
0
  6
Continuous
 62
     7
100
AcDbCircle
 10
202.653841954619
 20
282.5339078557315
 30
0.0
 40
6.999999999999943
100
AcDbArc
 50
9.55327692309912
 51
36.50327452140899
  0
ARC
  5
108
330
1F
100
AcDbEntity
  8
0
  6
Continuous
 62
     7
100
AcDbCircle
 10
248.3984542460946
 20
132.0893067667797
 30
0.0
 40
1.0
100
AcDbArc
 50
270.0000000000065
 51
0.0
  0
ARC
  5
109
330
1F
100
AcDbEntity
  8
0
  6
Continuous
 62
     7
100
AcDbCircle
 10
247.3984542460946
 20
146.6025211679273
 30
0.0
 40
2.000000000000114
100
AcDbArc
 50
0.0
 51
95.88598783302736
  0
ARC
  5
10A
330
1F
100
AcDbEntity
  8
0
  6
Continuous
 62
     7
100
AcDbCircle
 10
216.7540098016502
 20
128.5893067667797
 30
0.0
 40
2.000000000000014
100
AcDbArc
 50
270.0
 51
322.1250163489032
  0
ARC
  5
10B
330
1F
100
AcDbEntity
  8
0
  6
Continuous
 62
     7
100
AcDbCircle
 10
151.7430665375703
 20
244.8574128109659
 30
0.0
 40
6.999999999999958
100
AcDbArc
 50
163.6046859098188
 51
189.5532769230991
  0
ARC
  5
10C
330
1F
100
AcDbEntity
  8
0
  6
Continuous
 62
     7
100
AcDbCircle
 10
151.7430665375703
 20
244.8574128109659
 30
0.0
 40
6.999999999999943
100
AcDbArc
 50
189.5532769230991
 51
216.5032745214097
  0
ARC
  5
10D
330
1F
100
AcDbEntity
  8
0
  6
Continuous
 62
     7
100
AcDbCircle
 10
202.653841954619
 20
244.8574128109659
 30
0.0
 40
6.999999999999943
100
AcDbArc
 50
350.4467230769009
 51
16.39531409018117
  0
ARC
  5
10E
330
1F
100
AcDbEntity
  8
0
  6
Continuous
 62
     7
100
AcDbCircle
 10
202.653841954619
 20
244.8574128109659
 30
0.0
 40
7.000000000000028
100
AcDbArc
 50
323.4967254785908
 51
350.4467230769009
  0
ARC
  5
10F
330
1F
100
AcDbEntity
  8
0
  6
Continuous
 62
     7
100
AcDbCircle
 10
105.9984542460948
 20
132.0893067667797
 30
0.0
 40
1.000000000000099
100
AcDbArc
 50
180.0
 51
269.9999999999943
  0
ARC
  5
110
330
1F
100
AcDbEntity
  8
0
  6
Continuous
 62
     7
100
AcDbCircle
 10
106.9984542460948
 20
146.6025211679273
 30
0.0
 40
2.000000000000034
100
AcDbArc
 50
84.11401216697183
 51
180.0
  0
ARC
  5
111
330
1F
100
AcDbEntity
  8
0
  6
Continuous
 62
     7
100
AcDbCircle
 10
137.6428986905392
 20
128.5893067667797
 30
0.0
 40
2.000000000000015
100
AcDbArc
 50
217.8749836510968
 51
270.0
  0
SOLID
  5
112
330
1F
100
AcDbEntity
  8
1
 62
     2
100
AcDbTrace
 10
212.2053898702542
 20
309.0007889826863
 30
0.0
 11
211.1014139747005
 21
309.8327337707441
 31
0.0
 12
214.8130259452024
 22
313.6095261012161
 32
0.0
 13
214.8130259452024
 23
313.6095261012161
 33
0.0
  0
LEADER
  5
113
330
1F
100
AcDbEntity
  8
1
  6
Continuous
 62
     2
100
AcDbLeader
  3
Standard
 71
     0
 76
     2
 10
214.8130259452024
 20
313.6095261012161
 30
0.0
 10
177.1984542460947
 20
263.6956603333487
 30
0.0
  0
SOLID
  5
114
330
1F
100
AcDbEntity
  8
1
 62
     2
100
AcDbTrace
 10
202.6689109050501
 20
279.0838396054836
 30
0.0
 11
201.9267946780118
 21
280.250097901877
 31
0.0
 12
206.7271584171961
 22
282.4854349455036
 32
0.0
 13
206.7271584171961
 23
282.4854349455036
 33
0.0
  0
LEADER
  5
115
330
1F
100
AcDbEntity
  8
1
  6
Continuous
 62
     2
100
AcDbLeader
  3
Standard
 71
     0
 76
     2
 10
206.7271584171961
 20
282.4854349455036
 30
0.0
 10
177.1984542460947
 20
263.6956603333487
 30
0.0
  0
MTEXT
  5
117
330
1F
100
AcDbEntity
  8
1
 62
     7
100
AcDbMText
 10
236.2499999999999
 20
18.75000000000001
 30
0.0
 40
3.75
 41
0.0
 71
     5
 72
     1
  1
6
  7
CONVERTER_12
 73
     1
 44
0.7202881152461
  0
MTEXT
  5
118
330
1F
100
AcDbEntity
  8
1
 62
     7
100
AcDbMText
 10
227.6249999999999
 20
18.75000000000001
 30
0.0
 40
3.75
 41
0.0
 71
     5
 72
     1
  1
04
  7
CONVERTER_12
 73
     1
 44
0.7202881152461
  0
MTEXT
  5
119
330
1F
100
AcDbEntity
  8
1
 62
     7
100
AcDbMText
 10
210.7499999999999
 20
18.75000000000001
 30
0.0
 40
3.75
 41
0.0
 71
     5
 72
     1
  1
6
  7
CONVERTER_12
 73
     1
 44
0.7202881152461
  0
MTEXT
  5
11A
330
1F
100
AcDbEntity
  8
1
 62
     7
100
AcDbMText
 10
202.1249999999999
 20
18.75000000000001
 30
0.0
 40
3.75
 41
0.0
 71
     5
 72
     1
  1
04
  7
CONVERTER_12
 73
     1
 44
0.7202881152461
  0
MTEXT
  5
11B
330
1F
100
AcDbEntity
  8
1
 62
     7
100
AcDbMText
 10
185.2499999999999
 20
18.75000000000001
 30
0.0
 40
3.75
 41
0.0
 71
     5
 72
     1
  1
6
  7
CONVERTER_12
 73
     1
 44
0.7202881152461
  0
MTEXT
  5
11C
330
1F
100
AcDbEntity
  8
1
 62
     7
100
AcDbMText
 10
176.6249999999999
 20
18.75000000000001
 30
0.0
 40
3.75
 41
0.0
 71
     5
 72
     1
  1
04
  7
CONVERTER_12
 73
     1
 44
0.7202881152461
  0
MTEXT
  5
11D
330
1F
100
AcDbEntity
  8
1
 62
     7
100
AcDbMText
 10
151.125
 20
18.75000000000001
 30
0.0
 40
3.75
 41
0.0
 71
     5
 72
     1
  1
04
  7
CONVERTER_12
 73
     1
 44
0.7202881152461
  0
MTEXT
  5
11E
330
1F
100
AcDbEntity
  8
1
 62
     7
100
AcDbMText
 10
159.7499999999999
 20
18.75000000000001
 30
0.0
 40
3.75
 41
0.0
 71
     5
 72
     1
  1
6
  7
CONVERTER_12
 73
     1
 44
0.7202881152461
  0
MTEXT
  5
11F
330
1F
100
AcDbEntity
  8
1
 62
     7
100
AcDbMText
 10
127.8749999999999
 20
25.50000000000001
 30
0.0
 40
5.25
 41
0.0
 71
     5
 72
     1
  1
1
  7
CONVERTER_12
 73
     1
 44
0.7202881152461
  0
MTEXT
  5
120
330
1F
100
AcDbEntity
  8
1
 62
     7
100
AcDbMText
 10
85.49999999999994
 20
34.12500000000003
 30
0.0
 40
5.25
 41
0.0
 71
     5
 72
     1
  1
PC排水栓フタ
  7
CONVERTER_11
 73
     1
 44
0.54545454545455
  0
MTEXT
  5
121
330
1F
100
AcDbEntity
  8
1
 62
     7
100
AcDbMText
 10
85.49999999999994
 20
21.37500000000001
 30
0.0
 40
5.25
 41
0.0
 71
     5
 72
     1
  1
H653F
  7
CONVERTER_12
 73
     1
 44
0.7202881152461
  0
MTEXT
  5
122
330
1F
100
AcDbEntity
  8
1
 62
     7
100
AcDbMText
 10
140.6249999999999
 20
25.50000000000001
 30
0.0
 40
5.25
 41
0.0
 71
     5
 72
     1
  1
1.5
  7
CONVERTER_12
 73
     1
 44
0.7202881152461
  0
DIMENSION
  5
12D
330
1F
100
AcDbEntity
  8
1
100
AcDbDimension
  2
*D3
 10
104.9984542460947
 20
165.0919770202359
 30
0.0
 11
177.8182733572112
 21
169.2169770202359
 31
0.0
 70
    32
  1
{\Fgdt;n}145
 71
     5
 42
-1.0
 53
0.00013888888889
  3
ME10_DIM_10
100
AcDbAlignedDimension
 13
249.3984542460947
 23
146.6025211679273
 33
0.0
 14
104.9984542460947
 24
146.6025211679273
 34
0.0
100
AcDbRotatedDimension
  0
DIMENSION
  5
138
330
1F
100
AcDbEntity
  8
1
100
AcDbDimension
  2
*D4
 10
76.4984542460947
 20
148.5919770202359
 30
0.0
 11
72.3734542460947
 21
137.5441172282354
 31
0.0
 70
    32
  1
<>
 71
     5
 42
-1.0
 53
90.0
  3
ME10_DIM_11
100
AcDbAlignedDimension
 13
137.1538148848734
 23
126.5893067667797
 33
0.0
 14
107.2035527875699
 24
148.5919770202359
 34
0.0
 50
90.0
100
AcDbRotatedDimension
  0
DIMENSION
  5
143
330
1F
100
AcDbEntity
  8
1
100
AcDbDimension
  2
*D5
 10
88.4984542460947
 20
148.5919770202359
 30
0.0
 11
84.3734542460947
 21
139.8060777834687
 31
0.0
 70
    32
  1
18
 71
     5
 42
-1.0
 53
90.0
  3
ME10_DIM_12
100
AcDbAlignedDimension
 13
105.9984542460947
 23
131.0893067667797
 33
0.0
 14
107.2035527875699
 24
148.5919770202359
 34
0.0
 50
90.0
100
AcDbRotatedDimension
  0
INSERT
  5
14A
330
1F
100
AcDbEntity
  8
1
100
AcDbBlockReference
  2
*D6
 10
0.0
 20
0.0
 30
0.0
  0
INSERT
  5
151
330
1F
100
AcDbEntity
  8
1
100
AcDbBlockReference
  2
*D7
 10
0.0
 20
0.0
 30
0.0
  0
ENDSEC
  0
SECTION
  2
OBJECTS
  0
DICTIONARY
  5
C
330
0
100
AcDbDictionary
281
     1
  3
ACAD_GROUP
350
D
  3
ACAD_LAYOUT
350
1A
  3
ACAD_MATERIAL
350
3B
  3
ACAD_MLEADERSTYLE
350
154
  3
ACAD_MLINESTYLE
350
17
  3
ACAD_PLOTSETTINGS
350
19
  3
ACAD_PLOTSTYLENAME
350
E
  3
ACAD_VISUALSTYLE
350
2A
  3
AcDbVariableDictionary
350
152
  0
DICTIONARY
  5
D
102
{ACAD_REACTORS
330
C
102
}
330
C
100
AcDbDictionary
281
     1
  0
DICTIONARY
  5
1A
102
{ACAD_REACTORS
330
C
102
}
330
C
100
AcDbDictionary
281
     1
  3
Layout1
350
1E
  3
Layout2
350
26
  3
Model
350
22
  0
DICTIONARY
  5
3B
102
{ACAD_REACTORS
330
C
102
}
330
C
100
AcDbDictionary
281
     1
  3
ByBlock
350
3D
  3
ByLayer
350
3C
  3
Global
350
3E
  0
DICTIONARY
  5
154
102
{ACAD_REACTORS
330
C
102
}
330
C
100
AcDbDictionary
281
     1
  0
DICTIONARY
  5
17
102
{ACAD_REACTORS
330
C
102
}
330
C
100
AcDbDictionary
281
     1
  3
Standard
350
18
  0
DICTIONARY
  5
19
102
{ACAD_REACTORS
330
C
102
}
330
C
100
AcDbDictionary
281
     1
  0
ACDBDICTIONARYWDFLT
  5
E
102
{ACAD_REACTORS
330
C
102
}
330
C
100
AcDbDictionary
281
     1
  3
Normal
350
F
100
AcDbDictionaryWithDefault
340
F
  0
DICTIONARY
  5
2A
102
{ACAD_REACTORS
330
C
102
}
330
C
100
AcDbDictionary
281
     1
  3
2dWireframe
350
2F
  3
3D Hidden
350
31
  3
3dWireframe
350
30
  3
Basic
350
32
  3
Brighten
350
36
  3
ColorChange
350
3A
  3
Conceptual
350
34
  3
Dim
350
35
  3
Facepattern
350
39
  3
Flat
350
2B
  3
FlatWithEdges
350
2C
  3
Gouraud
350
2D
  3
GouraudWithEdges
350
2E
  3
Linepattern
350
38
  3
Realistic
350
33
  3
Thicken
350
37
  0
DICTIONARY
  5
152
102
{ACAD_REACTORS
330
C
102
}
330
C
100
AcDbDictionary
281
     1
  3
DIMASSOC
350
155
  3
HIDETEXT
350
156
  0
LAYOUT
  5
1E
102
{ACAD_REACTORS
330
1A
102
}
330
1A
100
AcDbPlotSettings
  1

  2
none_device
  4

  6

 40
0.0
 41
0.0
 42
0.0
 43
0.0
 44
0.0
 45
0.0
 46
0.0
 47
0.0
 48
0.0
 49
0.0
140
0.0
141
0.0
142
1.0
143
1.0
 70
   688
 72
     0
 73
     0
 74
     5
  7

 75
    16
147
1.0
148
0.0
149
0.0
100
AcDbLayout
  1
Layout1
 70
     1
 71
     1
 10
0.0
 20
0.0
 11
12.0
 21
9.0
 12
0.0
 22
0.0
 32
0.0
 14
1.00000000000000E+20
 24
1.00000000000000E+20
 34
1.00000000000000E+20
 15
-1.00000000000000E+20
 25
-1.00000000000000E+20
 35
-1.00000000000000E+20
146
0.0
 13
0.0
 23
0.0
 33
0.0
 16
1.0
 26
0.0
 36
0.0
 17
0.0
 27
1.0
 37
0.0
 76
     0
330
1B
  0
LAYOUT
  5
26
102
{ACAD_REACTORS
330
1A
102
}
330
1A
100
AcDbPlotSettings
  1

  2
none_device
  4

  6

 40
0.0
 41
0.0
 42
0.0
 43
0.0
 44
0.0
 45
0.0
 46
0.0
 47
0.0
 48
0.0
 49
0.0
140
0.0
141
0.0
142
1.0
143
1.0
 70
   688
 72
     0
 73
     0
 74
     5
  7

 75
    16
147
1.0
148
0.0
149
0.0
100
AcDbLayout
  1
Layout2
 70
     1
 71
     2
 10
0.0
 20
0.0
 11
0.0
 21
0.0
 12
0.0
 22
0.0
 32
0.0
 14
0.0
 24
0.0
 34
0.0
 15
0.0
 25
0.0
 35
0.0
146
0.0
 13
0.0
 23
0.0
 33
0.0
 16
1.0
 26
0.0
 36
0.0
 17
0.0
 27
1.0
 37
0.0
 76
     0
330
23
  0
LAYOUT
  5
22
102
{ACAD_REACTORS
330
1A
102
}
330
1A
100
AcDbPlotSettings
  1

  2
none_device
  4

  6

 40
0.0
 41
0.0
 42
0.0
 43
0.0
 44
0.0
 45
0.0
 46
0.0
 47
0.0
 48
0.0
 49
0.0
140
0.0
141
0.0
142
1.0
143
1.0
 70
  1712
 72
     0
 73
     0
 74
     0
  7

 75
     0
147
1.0
148
0.0
149
0.0
100
AcDbLayout
  1
Model
 70
     1
 71
     0
 10
0.0
 20
0.0
 11
12.0
 21
9.0
 12
0.0
 22
0.0
 32
0.0
 14
-0.00000000000002
 24
0.0
 34
0.0
 15
315.0
 25
445.5
 35
0.0
146
0.0
 13
0.0
 23
0.0
 33
0.0
 16
1.0
 26
0.0
 36
0.0
 17
0.0
 27
1.0
 37
0.0
 76
     0
330
1F
331
29
  0
MATERIAL
  5
3D
102
{ACAD_REACTORS
330
3B
102
}
102
{ACAD_XDICTIONARY
360
179
102
}
330
3B
100
AcDbMaterial
  1
ByBlock
  0
MATERIAL
  5
3C
102
{ACAD_REACTORS
330
3B
102
}
102
{ACAD_XDICTIONARY
360
177
102
}
330
3B
100
AcDbMaterial
  1
ByLayer
  0
MATERIAL
  5
3E
102
{ACAD_REACTORS
330
3B
102
}
102
{ACAD_XDICTIONARY
360
17B
102
}
330
3B
100
AcDbMaterial
  1
Global
  0
MLINESTYLE
  5
18
102
{ACAD_REACTORS
330
17
102
}
330
17
100
AcDbMlineStyle
  2
Standard
 70
     0
  3

 62
   256
 51
90.0
 52
90.0
 71
     2
 49
0.5
 62
   256
  6
BYLAYER
 49
-0.5
 62
   256
  6
BYLAYER
  0
ACDBPLACEHOLDER
  5
F
102
{ACAD_REACTORS
330
E
102
}
330
E
  0
VISUALSTYLE
  5
2F
102
{ACAD_REACTORS
330
2A
102
}
102
{ACAD_XDICTIONARY
360
15F
102
}
330
2A
100
AcDbVisualStyle
  2
2dWireframe
 70
     4
 71
     0
 72
     2
 73
     0
 90
        0
 40
-0.6
 41
-30.0
 62
     5
 63
     7
 74
     1
 91
        4
 64
     7
 65
   257
 75
     1
175
     1
 42
1.0
 92
        0
 66
   257
 43
1.0
 76
     1
 77
     6
 78
     2
 67
     7
 79
     5
170
     0
171
     0
290
     0
174
     0
 93
        1
 44
0.0
173
     0
291
     0
 45
0.0
1001
ACAD
1000
AcDbSavedByObjectVersion
1070
     0
  0
VISUALSTYLE
  5
31
102
{ACAD_REACTORS
330
2A
102
}
102
{ACAD_XDICTIONARY
360
163
102
}
330
2A
100
AcDbVisualStyle
  2
3D Hidden
 70
     6
 71
     1
 72
     2
 73
     2
 90
        0
 40
-0.6
 41
-30.0
 62
     5
 63
     7
 74
     2
 91
        2
 64
     7
 65
   257
 75
     2
175
     1
 42
40.0
 92
        0
 66
   257
 43
1.0
 76
     1
 77
     6
 78
     2
 67
     7
 79
     3
170
     0
171
     0
290
     0
174
     0
 93
        1
 44
0.0
173
     0
291
     0
 45
0.0
1001
ACAD
1000
AcDbSavedByObjectVersion
1070
     0
  0
VISUALSTYLE
  5
30
102
{ACAD_REACTORS
330
2A
102
}
102
{ACAD_XDICTIONARY
360
161
102
}
330
2A
100
AcDbVisualStyle
  2
3dWireframe
 70
     5
 71
     0
 72
     2
 73
     0
 90
        0
 40
-0.6
 41
-30.0
 62
     5
 63
     7
 74
     1
 91
        4
 64
     7
 65
   257
 75
     1
175
     1
 42
1.0
 92
        0
 66
   257
 43
1.0
 76
     1
 77
     6
 78
     2
 67
     7
 79
     5
170
     0
171
     0
290
     0
174
     0
 93
        1
 44
0.0
173
     0
291
     0
 45
0.0
1001
ACAD
1000
AcDbSavedByObjectVersion
1070
     0
  0
VISUALSTYLE
  5
32
102
{ACAD_REACTORS
330
2A
102
}
102
{ACAD_XDICTIONARY
360
165
102
}
330
2A
100
AcDbVisualStyle
  2
Basic
 70
     7
 71
     1
 72
     0
 73
     1
 90
        0
 40
-0.6
 41
-30.0
 62
     5
 63
     7
 74
     0
 91
        4
 64
     7
 65
   257
 75
     1
175
     1
 42
1.0
 92
        8
 66
     7
 43
1.0
 76
     1
 77
     6
 78
     2
 67
     7
 79
     5
170
     0
171
     0
290
     0
174
     0
 93
        1
 44
0.0
173
     0
291
     1
 45
0.0
1001
ACAD
1000
AcDbSavedByObjectVersion
1070
     0
  0
VISUALSTYLE
  5
36
102
{ACAD_REACTORS
330
2A
102
}
102
{ACAD_XDICTIONARY
360
16D
102
}
330
2A
100
AcDbVisualStyle
  2
Brighten
 70
    12
 71
     2
 72
     2
 73
     0
 90
        0
 40
-0.6
 41
-30.0
 62
     5
 63
     7
 74
     1
 91
        4
 64
     7
 65
   257
 75
     1
175
     1
 42
1.0
 92
        8
 66
     7
 43
1.0
 76
     1
 77
     6
 78
     2
 67
     7
 79
     5
170
     0
171
     0
290
     0
174
     0
 93
        1
 44
50.0
173
     0
291
     1
 45
0.0
1001
ACAD
1000
AcDbSavedByObjectVersion
1070
     0
  0
VISUALSTYLE
  5
3A
102
{ACAD_REACTORS
330
2A
102
}
102
{ACAD_XDICTIONARY
360
175
102
}
330
2A
100
AcDbVisualStyle
  2
ColorChange
 70
    16
 71
     2
 72
     2
 73
     3
 90
        0
 40
-0.6
 41
-30.0
 62
     5
 63
     8
 74
     1
 91
        4
 64
     7
 65
   257
 75
     1
175
     1
 42
1.0
 92
        8
 66
     8
 43
1.0
 76
     1
 77
     6
 78
     2
 67
     7
 79
     5
170
     0
171
     0
290
     0
174
     0
 93
        1
 44
0.0
173
     0
291
     1
 45
0.0
1001
ACAD
1000
AcDbSavedByObjectVersion
1070
     0
  0
VISUALSTYLE
  5
34
102
{ACAD_REACTORS
330
2A
102
}
102
{ACAD_XDICTIONARY
360
169
102
}
330
2A
100
AcDbVisualStyle
  2
Conceptual
 70
     9
 71
     3
 72
     2
 73
     0
 90
        0
 40
-0.6
 41
-30.0
 62
     5
 63
     7
 74
     2
 91
        2
 64
     7
 65
   257
 75
     1
175
     1
 42
40.0
 92
        8
 66
     7
 43
1.0
 76
     1
 77
     6
 78
     2
 67
     7
 79
     3
170
     0
171
     0
290
     0
174
     0
 93
        1
 44
0.0
173
     0
291
     0
 45
0.0
1001
ACAD
1000
AcDbSavedByObjectVersion
1070
     0
  0
VISUALSTYLE
  5
35
102
{ACAD_REACTORS
330
2A
102
}
102
{ACAD_XDICTIONARY
360
16B
102
}
330
2A
100
AcDbVisualStyle
  2
Dim
 70
    11
 71
     2
 72
     2
 73
     0
 90
        0
 40
-0.6
 41
-30.0
 62
     5
 63
     7
 74
     1
 91
        4
 64
     7
 65
   257
 75
     1
175
     1
 42
1.0
 92
        8
 66
     7
 43
1.0
 76
     1
 77
     6
 78
     2
 67
     7
 79
     5
170
     0
171
     0
290
     0
174
     0
 93
        1
 44
-50.0
173
     0
291
     1
 45
0.0
1001
ACAD
1000
AcDbSavedByObjectVersion
1070
     0
  0
VISUALSTYLE
  5
39
102
{ACAD_REACTORS
330
2A
102
}
102
{ACAD_XDICTIONARY
360
173
102
}
330
2A
100
AcDbVisualStyle
  2
Facepattern
 70
    15
 71
     2
 72
     2
 73
     0
 90
        0
 40
-0.6
 41
-30.0
 62
     5
 63
     7
 74
     1
 91
        4
 64
     7
 65
   257
 75
     1
175
     1
 42
1.0
 92
        8
 66
     7
 43
1.0
 76
     1
 77
     6
 78
     2
 67
     7
 79
     5
170
     0
171
     0
290
     0
174
     0
 93
        1
 44
0.0
173
     0
291
     1
 45
0.0
1001
ACAD
1000
AcDbSavedByObjectVersion
1070
     0
  0
VISUALSTYLE
  5
2B
102
{ACAD_REACTORS
330
2A
102
}
102
{ACAD_XDICTIONARY
360
157
102
}
330
2A
100
AcDbVisualStyle
  2
Flat
 70
     0
 71
     2
 72
     1
 73
     1
 90
        2
 40
-0.6
 41
30.0
 62
     5
 63
     7
 74
     0
 91
        4
 64
     7
 65
   257
 75
     1
175
     1
 42
1.0
 92
        8
 66
     7
 43
1.0
 76
     1
 77
     6
 78
     2
 67
     7
 79
     5
170
     0
171
     0
290
     0
174
     0
 93
       13
 44
0.0
173
     0
291
     1
 45
0.0
1001
ACAD
1000
AcDbSavedByObjectVersion
1070
     0
  0
VISUALSTYLE
  5
2C
102
{ACAD_REACTORS
330
2A
102
}
102
{ACAD_XDICTIONARY
360
159
102
}
330
2A
100
AcDbVisualStyle
  2
FlatWithEdges
 70
     1
 71
     2
 72
     1
 73
     1
 90
        2
 40
-0.6
 41
30.0
 62
     5
 63
     7
 74
     1
 91
        4
 64
     7
 65
   257
 75
     1
175
     1
 42
1.0
 92
        0
 66
   257
 43
1.0
 76
     1
 77
     6
 78
     2
 67
     7
 79
     5
170
     0
171
     0
290
     0
174
     0
 93
       13
 44
0.0
173
     0
291
     1
 45
0.0
1001
ACAD
1000
AcDbSavedByObjectVersion
1070
     0
  0
VISUALSTYLE
  5
2D
102
{ACAD_REACTORS
330
2A
102
}
102
{ACAD_XDICTIONARY
360
15B
102
}
330
2A
100
AcDbVisualStyle
  2
Gouraud
 70
     2
 71
     2
 72
     2
 73
     1
 90
        2
 40
-0.6
 41
30.0
 62
     5
 63
     7
 74
     0
 91
        4
 64
     7
 65
   257
 75
     1
175
     1
 42
1.0
 92
        0
 66
     7
 43
1.0
 76
     1
 77
     6
 78
     2
 67
     7
 79
     5
170
     0
171
     0
290
     0
174
     0
 93
       13
 44
0.0
173
     0
291
     1
 45
0.0
1001
ACAD
1000
AcDbSavedByObjectVersion
1070
     0
  0
VISUALSTYLE
  5
2E
102
{ACAD_REACTORS
330
2A
102
}
102
{ACAD_XDICTIONARY
360
15D
102
}
330
2A
100
AcDbVisualStyle
  2
GouraudWithEdges
 70
     3
 71
     2
 72
     2
 73
     1
 90
        2
 40
-0.6
 41
30.0
 62
     5
 63
     7
 74
     1
 91
        4
 64
     7
 65
   257
 75
     1
175
     1
 42
1.0
 92
        0
 66
   257
 43
1.0
 76
     1
 77
     6
 78
     2
 67
     7
 79
     5
170
     0
171
     0
290
     0
174
     0
 93
       13
 44
0.0
173
     0
291
     1
 45
0.0
1001
ACAD
1000
AcDbSavedByObjectVersion
1070
     0
  0
VISUALSTYLE
  5
38
102
{ACAD_REACTORS
330
2A
102
}
102
{ACAD_XDICTIONARY
360
171
102
}
330
2A
100
AcDbVisualStyle
  2
Linepattern
 70
    14
 71
     2
 72
     2
 73
     0
 90
        0
 40
-0.6
 41
-30.0
 62
     5
 63
     7
 74
     1
 91
        4
 64
     7
 65
   257
 75
     7
175
     7
 42
1.0
 92
        8
 66
     7
 43
1.0
 76
     1
 77
     6
 78
     2
 67
     7
 79
     5
170
     0
171
     0
290
     0
174
     0
 93
        1
 44
0.0
173
     0
291
     1
 45
0.0
1001
ACAD
1000
AcDbSavedByObjectVersion
1070
     0
  0
VISUALSTYLE
  5
33
102
{ACAD_REACTORS
330
2A
102
}
102
{ACAD_XDICTIONARY
360
167
102
}
330
2A
100
AcDbVisualStyle
  2
Realistic
 70
     8
 71
     2
 72
     2
 73
     0
 90
        0
 40
-0.6
 41
-30.0
 62
     5
 63
     7
 74
     1
 91
        0
 64
     7
 65
   257
 75
     1
175
     1
 42
1.0
 92
        8
 66
     8
 43
1.0
 76
     1
 77
     6
 78
     2
 67
     7
 79
     5
170
     0
171
     0
290
     0
174
     0
 93
       13
 44
0.0
173
     0
291
     0
 45
0.0
1001
ACAD
1000
AcDbSavedByObjectVersion
1070
     0
  0
VISUALSTYLE
  5
37
102
{ACAD_REACTORS
330
2A
102
}
102
{ACAD_XDICTIONARY
360
16F
102
}
330
2A
100
AcDbVisualStyle
  2
Thicken
 70
    13
 71
     2
 72
     2
 73
     0
 90
        0
 40
-0.6
 41
-30.0
 62
     5
 63
     7
 74
     1
 91
        4
 64
     7
 65
   257
 75
     1
175
     1
 42
1.0
 92
       12
 66
     7
 43
1.0
 76
     1
 77
     6
 78
     2
 67
     7
 79
     5
170
     0
171
     0
290
     0
174
     0
 93
        1
 44
0.0
173
     0
291
     1
 45
0.0
1001
ACAD
1000
AcDbSavedByObjectVersion
1070
     0
  0
DICTIONARYVAR
  5
155
102
{ACAD_REACTORS
330
152
102
}
330
152
100
DictionaryVariables
280
     0
  1
2
  0
DICTIONARYVAR
  5
156
102
{ACAD_REACTORS
330
152
102
}
330
152
100
DictionaryVariables
280
     0
  1
1
  0
DICTIONARY
  5
179
330
3D
100
AcDbDictionary
280
     1
281
     1
  3
ACAD_XREC_ROUNDTRIP
360
17A
  0
DICTIONARY
  5
177
330
3C
100
AcDbDictionary
280
     1
281
     1
  3
ACAD_XREC_ROUNDTRIP
360
178
  0
DICTIONARY
  5
17B
330
3E
100
AcDbDictionary
280
     1
281
     1
  3
ACAD_XREC_ROUNDTRIP
360
17C
  0
DICTIONARY
  5
15F
330
2F
100
AcDbDictionary
280
     1
281
     1
  3
ACAD_XREC_ROUNDTRIP
360
160
  0
DICTIONARY
  5
163
330
31
100
AcDbDictionary
280
     1
281
     1
  3
ACAD_XREC_ROUNDTRIP
360
164
  0
DICTIONARY
  5
161
330
30
100
AcDbDictionary
280
     1
281
     1
  3
ACAD_XREC_ROUNDTRIP
360
162
  0
DICTIONARY
  5
165
330
32
100
AcDbDictionary
280
     1
281
     1
  3
ACAD_XREC_ROUNDTRIP
360
166
  0
DICTIONARY
  5
16D
330
36
100
AcDbDictionary
280
     1
281
     1
  3
ACAD_XREC_ROUNDTRIP
360
16E
  0
DICTIONARY
  5
175
330
3A
100
AcDbDictionary
280
     1
281
     1
  3
ACAD_XREC_ROUNDTRIP
360
176
  0
DICTIONARY
  5
169
330
34
100
AcDbDictionary
280
     1
281
     1
  3
ACAD_XREC_ROUNDTRIP
360
16A
  0
DICTIONARY
  5
16B
330
35
100
AcDbDictionary
280
     1
281
     1
  3
ACAD_XREC_ROUNDTRIP
360
16C
  0
DICTIONARY
  5
173
330
39
100
AcDbDictionary
280
     1
281
     1
  3
ACAD_XREC_ROUNDTRIP
360
174
  0
DICTIONARY
  5
157
330
2B
100
AcDbDictionary
280
     1
281
     1
  3
ACAD_XREC_ROUNDTRIP
360
158
  0
DICTIONARY
  5
159
330
2C
100
AcDbDictionary
280
     1
281
     1
  3
ACAD_XREC_ROUNDTRIP
360
15A
  0
DICTIONARY
  5
15B
330
2D
100
AcDbDictionary
280
     1
281
     1
  3
ACAD_XREC_ROUNDTRIP
360
15C
  0
DICTIONARY
  5
15D
330
2E
100
AcDbDictionary
280
     1
281
     1
  3
ACAD_XREC_ROUNDTRIP
360
15E
  0
DICTIONARY
  5
171
330
38
100
AcDbDictionary
280
     1
281
     1
  3
ACAD_XREC_ROUNDTRIP
360
172
  0
DICTIONARY
  5
167
330
33
100
AcDbDictionary
280
     1
281
     1
  3
ACAD_XREC_ROUNDTRIP
360
168
  0
DICTIONARY
  5
16F
330
37
100
AcDbDictionary
280
     1
281
     1
  3
ACAD_XREC_ROUNDTRIP
360
170
  0
XRECORD
  5
17A
102
{ACAD_REACTORS
330
179
102
}
330
179
100
AcDbXrecord
280
     1
102
MATERIAL
148
0.0
149
0.0
149
0.0
 93
        0
 94
      127
282
     0
 72
     1
 77
     1
171
     1
175
     1
179
     1
273
     0
  0
XRECORD
  5
178
102
{ACAD_REACTORS
330
177
102
}
330
177
100
AcDbXrecord
280
     1
102
MATERIAL
148
0.0
149
0.0
149
0.0
 93
        0
 94
      127
282
     0
 72
     1
 77
     1
171
     1
175
     1
179
     1
273
     0
  0
XRECORD
  5
17C
102
{ACAD_REACTORS
330
17B
102
}
330
17B
100
AcDbXrecord
280
     1
102
MATERIAL
148
0.0
149
0.0
149
0.0
 93
        0
 94
      127
282
     0
 72
     1
 77
     1
171
     1
175
     1
179
     1
273
     0
  0
XRECORD
  5
160
102
{ACAD_REACTORS
330
15F
102
}
330
15F
100
AcDbXrecord
280
     1
102
RTVSPropertyOp0
 70
     1
102
RTVSPropertyOp1
 70
     1
102
RTVSPropertyOp2
 70
     1
102
RTVSPropertyOp3
 70
     1
102
RTVSPropertyOp4
 70
     1
102
RTVSPropertyOp5
 70
     1
102
RTVSPropertyOp6
 70
     1
102
RTVSPropertyOp7
 70
     1
102
RTVSPropertyOp8
 70
     1
102
RTVSPropertyOp9
 70
     1
102
RTVSPropertyOp10
 70
     1
102
RTVSPropertyOp11
 70
     1
102
RTVSPropertyOp12
 70
     1
102
RTVSPropertyOp13
 70
     1
102
RTVSPropertyOp14
 70
     1
102
RTVSPropertyOp15
 70
     1
102
RTVSPropertyOp16
 70
     1
102
RTVSPropertyOp17
 70
     1
102
RTVSPropertyOp18
 70
     1
102
RTVSPropertyOp19
 70
     1
102
RTVSPropertyOp20
 70
     1
102
RTVSPropertyOp21
 70
     1
102
RTVSPropertyOp22
 70
     1
102
RTVSPropertyOp23
 70
     1
102
RTVSPropertyOp24
 70
     1
102
RTVSPropertyOp25
 70
     1
102
RTVSPropertyOp26
 70
     1
102
RTVSPropertyOp27
 70
     1
102
RTVSPropertyOp28
 70
     1
102
RTVSPropertyOp29
 70
     1
102
RTVSPropertyOp30
 70
     1
102
RTVSPropertyOp31
 70
     1
102
RTVSPropertyOp32
 70
     1
  0
XRECORD
  5
164
102
{ACAD_REACTORS
330
163
102
}
330
163
100
AcDbXrecord
280
     1
102
RTVSPropertyOp0
 70
     1
102
RTVSPropertyOp1
 70
     1
102
RTVSPropertyOp2
 70
     1
102
RTVSPropertyOp3
 70
     1
102
RTVSPropertyOp4
 70
     1
102
RTVSPropertyOp5
 70
     1
102
RTVSPropertyOp6
 70
     1
102
RTVSPropertyOp7
 70
     1
102
RTVSPropertyOp8
 70
     1
102
RTVSPropertyOp9
 70
     1
102
RTVSPropertyOp10
 70
     1
102
RTVSPropertyOp11
 70
     1
102
RTVSPropertyOp12
 70
     1
102
RTVSPropertyOp13
 70
     1
102
RTVSPropertyOp14
 70
     1
102
RTVSPropertyOp15
 70
     1
102
RTVSPropertyOp16
 70
     1
102
RTVSPropertyOp17
 70
     1
102
RTVSPropertyOp18
 70
     1
102
RTVSPropertyOp19
 70
     1
102
RTVSPropertyOp20
 70
     1
102
RTVSPropertyOp21
 70
     1
102
RTVSPropertyOp22
 70
     1
102
RTVSPropertyOp23
 70
     1
102
RTVSPropertyOp24
 70
     1
102
RTVSPropertyOp25
 70
     1
102
RTVSPropertyOp26
 70
     1
102
RTVSPropertyOp27
 70
     1
102
RTVSPropertyOp28
 70
     1
102
RTVSPropertyOp29
 70
     1
102
RTVSPropertyOp30
 70
     1
102
RTVSPropertyOp31
 70
     1
102
RTVSPropertyOp32
 70
     1
  0
XRECORD
  5
162
102
{ACAD_REACTORS
330
161
102
}
330
161
100
AcDbXrecord
280
     1
102
RTVSPropertyOp0
 70
     1
102
RTVSPropertyOp1
 70
     1
102
RTVSPropertyOp2
 70
     1
102
RTVSPropertyOp3
 70
     1
102
RTVSPropertyOp4
 70
     1
102
RTVSPropertyOp5
 70
     1
102
RTVSPropertyOp6
 70
     1
102
RTVSPropertyOp7
 70
     1
102
RTVSPropertyOp8
 70
     1
102
RTVSPropertyOp9
 70
     1
102
RTVSPropertyOp10
 70
     1
102
RTVSPropertyOp11
 70
     1
102
RTVSPropertyOp12
 70
     1
102
RTVSPropertyOp13
 70
     1
102
RTVSPropertyOp14
 70
     1
102
RTVSPropertyOp15
 70
     1
102
RTVSPropertyOp16
 70
     1
102
RTVSPropertyOp17
 70
     1
102
RTVSPropertyOp18
 70
     1
102
RTVSPropertyOp19
 70
     1
102
RTVSPropertyOp20
 70
     1
102
RTVSPropertyOp21
 70
     1
102
RTVSPropertyOp22
 70
     1
102
RTVSPropertyOp23
 70
     1
102
RTVSPropertyOp24
 70
     1
102
RTVSPropertyOp25
 70
     1
102
RTVSPropertyOp26
 70
     1
102
RTVSPropertyOp27
 70
     1
102
RTVSPropertyOp28
 70
     1
102
RTVSPropertyOp29
 70
     1
102
RTVSPropertyOp30
 70
     1
102
RTVSPropertyOp31
 70
     1
102
RTVSPropertyOp32
 70
     1
  0
XRECORD
  5
166
102
{ACAD_REACTORS
330
165
102
}
330
165
100
AcDbXrecord
280
     1
102
RTVSPropertyOp0
 70
     1
102
RTVSPropertyOp1
 70
     1
102
RTVSPropertyOp2
 70
     1
102
RTVSPropertyOp3
 70
     1
102
RTVSPropertyOp4
 70
     1
102
RTVSPropertyOp5
 70
     1
102
RTVSPropertyOp6
 70
     1
102
RTVSPropertyOp7
 70
     1
102
RTVSPropertyOp8
 70
     1
102
RTVSPropertyOp9
 70
     1
102
RTVSPropertyOp10
 70
     1
102
RTVSPropertyOp11
 70
     1
102
RTVSPropertyOp12
 70
     1
102
RTVSPropertyOp13
 70
     1
102
RTVSPropertyOp14
 70
     1
102
RTVSPropertyOp15
 70
     1
102
RTVSPropertyOp16
 70
     1
102
RTVSPropertyOp17
 70
     1
102
RTVSPropertyOp18
 70
     1
102
RTVSPropertyOp19
 70
     1
102
RTVSPropertyOp20
 70
     1
102
RTVSPropertyOp21
 70
     1
102
RTVSPropertyOp22
 70
     1
102
RTVSPropertyOp23
 70
     1
102
RTVSPropertyOp24
 70
     1
102
RTVSPropertyOp25
 70
     1
102
RTVSPropertyOp26
 70
     1
102
RTVSPropertyOp27
 70
     1
102
RTVSPropertyOp28
 70
     1
102
RTVSPropertyOp29
 70
     1
102
RTVSPropertyOp30
 70
     1
102
RTVSPropertyOp31
 70
     1
102
RTVSPropertyOp32
 70
     1
  0
XRECORD
  5
16E
102
{ACAD_REACTORS
330
16D
102
}
330
16D
100
AcDbXrecord
280
     1
102
RTVSPropertyOp0
 70
     1
102
RTVSPropertyOp1
 70
     1
102
RTVSPropertyOp2
 70
     1
102
RTVSPropertyOp3
 70
     1
102
RTVSPropertyOp4
 70
     1
102
RTVSPropertyOp5
 70
     1
102
RTVSPropertyOp6
 70
     1
102
RTVSPropertyOp7
 70
     1
102
RTVSPropertyOp8
 70
     1
102
RTVSPropertyOp9
 70
     1
102
RTVSPropertyOp10
 70
     1
102
RTVSPropertyOp11
 70
     1
102
RTVSPropertyOp12
 70
     1
102
RTVSPropertyOp13
 70
     1
102
RTVSPropertyOp14
 70
     1
102
RTVSPropertyOp15
 70
     1
102
RTVSPropertyOp16
 70
     1
102
RTVSPropertyOp17
 70
     1
102
RTVSPropertyOp18
 70
     1
102
RTVSPropertyOp19
 70
     1
102
RTVSPropertyOp20
 70
     1
102
RTVSPropertyOp21
 70
     1
102
RTVSPropertyOp22
 70
     1
102
RTVSPropertyOp23
 70
     1
102
RTVSPropertyOp24
 70
     1
102
RTVSPropertyOp25
 70
     1
102
RTVSPropertyOp26
 70
     1
102
RTVSPropertyOp27
 70
     1
102
RTVSPropertyOp28
 70
     1
102
RTVSPropertyOp29
 70
     1
102
RTVSPropertyOp30
 70
     1
102
RTVSPropertyOp31
 70
     1
102
RTVSPropertyOp32
 70
     1
  0
XRECORD
  5
176
102
{ACAD_REACTORS
330
175
102
}
330
175
100
AcDbXrecord
280
     1
102
RTVSPropertyOp0
 70
     1
102
RTVSPropertyOp1
 70
     1
102
RTVSPropertyOp2
 70
     1
102
RTVSPropertyOp3
 70
     1
102
RTVSPropertyOp4
 70
     1
102
RTVSPropertyOp5
 70
     1
102
RTVSPropertyOp6
 70
     1
102
RTVSPropertyOp7
 70
     1
102
RTVSPropertyOp8
 70
     1
102
RTVSPropertyOp9
 70
     1
102
RTVSPropertyOp10
 70
     1
102
RTVSPropertyOp11
 70
     1
102
RTVSPropertyOp12
 70
     1
102
RTVSPropertyOp13
 70
     1
102
RTVSPropertyOp14
 70
     1
102
RTVSPropertyOp15
 70
     1
102
RTVSPropertyOp16
 70
     1
102
RTVSPropertyOp17
 70
     1
102
RTVSPropertyOp18
 70
     1
102
RTVSPropertyOp19
 70
     1
102
RTVSPropertyOp20
 70
     1
102
RTVSPropertyOp21
 70
     1
102
RTVSPropertyOp22
 70
     1
102
RTVSPropertyOp23
 70
     1
102
RTVSPropertyOp24
 70
     1
102
RTVSPropertyOp25
 70
     1
102
RTVSPropertyOp26
 70
     1
102
RTVSPropertyOp27
 70
     1
102
RTVSPropertyOp28
 70
     1
102
RTVSPropertyOp29
 70
     1
102
RTVSPropertyOp30
 70
     1
102
RTVSPropertyOp31
 70
     1
102
RTVSPropertyOp32
 70
     1
  0
XRECORD
  5
16A
102
{ACAD_REACTORS
330
169
102
}
330
169
100
AcDbXrecord
280
     1
102
RTVSPropertyOp0
 70
     1
102
RTVSPropertyOp1
 70
     1
102
RTVSPropertyOp2
 70
     1
102
RTVSPropertyOp3
 70
     1
102
RTVSPropertyOp4
 70
     1
102
RTVSPropertyOp5
 70
     1
102
RTVSPropertyOp6
 70
     1
102
RTVSPropertyOp7
 70
     1
102
RTVSPropertyOp8
 70
     1
102
RTVSPropertyOp9
 70
     1
102
RTVSPropertyOp10
 70
     1
102
RTVSPropertyOp11
 70
     1
102
RTVSPropertyOp12
 70
     1
102
RTVSPropertyOp13
 70
     1
102
RTVSPropertyOp14
 70
     1
102
RTVSPropertyOp15
 70
     1
102
RTVSPropertyOp16
 70
     1
102
RTVSPropertyOp17
 70
     1
102
RTVSPropertyOp18
 70
     1
102
RTVSPropertyOp19
 70
     1
102
RTVSPropertyOp20
 70
     1
102
RTVSPropertyOp21
 70
     1
102
RTVSPropertyOp22
 70
     1
102
RTVSPropertyOp23
 70
     1
102
RTVSPropertyOp24
 70
     1
102
RTVSPropertyOp25
 70
     1
102
RTVSPropertyOp26
 70
     1
102
RTVSPropertyOp27
 70
     1
102
RTVSPropertyOp28
 70
     1
102
RTVSPropertyOp29
 70
     1
102
RTVSPropertyOp30
 70
     1
102
RTVSPropertyOp31
 70
     1
102
RTVSPropertyOp32
 70
     1
  0
XRECORD
  5
16C
102
{ACAD_REACTORS
330
16B
102
}
330
16B
100
AcDbXrecord
280
     1
102
RTVSPropertyOp0
 70
     1
102
RTVSPropertyOp1
 70
     1
102
RTVSPropertyOp2
 70
     1
102
RTVSPropertyOp3
 70
     1
102
RTVSPropertyOp4
 70
     1
102
RTVSPropertyOp5
 70
     1
102
RTVSPropertyOp6
 70
     1
102
RTVSPropertyOp7
 70
     1
102
RTVSPropertyOp8
 70
     1
102
RTVSPropertyOp9
 70
     1
102
RTVSPropertyOp10
 70
     1
102
RTVSPropertyOp11
 70
     1
102
RTVSPropertyOp12
 70
     1
102
RTVSPropertyOp13
 70
     1
102
RTVSPropertyOp14
 70
     1
102
RTVSPropertyOp15
 70
     1
102
RTVSPropertyOp16
 70
     1
102
RTVSPropertyOp17
 70
     1
102
RTVSPropertyOp18
 70
     1
102
RTVSPropertyOp19
 70
     1
102
RTVSPropertyOp20
 70
     1
102
RTVSPropertyOp21
 70
     1
102
RTVSPropertyOp22
 70
     1
102
RTVSPropertyOp23
 70
     1
102
RTVSPropertyOp24
 70
     1
102
RTVSPropertyOp25
 70
     1
102
RTVSPropertyOp26
 70
     1
102
RTVSPropertyOp27
 70
     1
102
RTVSPropertyOp28
 70
     1
102
RTVSPropertyOp29
 70
     1
102
RTVSPropertyOp30
 70
     1
102
RTVSPropertyOp31
 70
     1
102
RTVSPropertyOp32
 70
     1
  0
XRECORD
  5
174
102
{ACAD_REACTORS
330
173
102
}
330
173
100
AcDbXrecord
280
     1
102
RTVSPropertyOp0
 70
     1
102
RTVSPropertyOp1
 70
     1
102
RTVSPropertyOp2
 70
     1
102
RTVSPropertyOp3
 70
     1
102
RTVSPropertyOp4
 70
     1
102
RTVSPropertyOp5
 70
     1
102
RTVSPropertyOp6
 70
     1
102
RTVSPropertyOp7
 70
     1
102
RTVSPropertyOp8
 70
     1
102
RTVSPropertyOp9
 70
     1
102
RTVSPropertyOp10
 70
     1
102
RTVSPropertyOp11
 70
     1
102
RTVSPropertyOp12
 70
     1
102
RTVSPropertyOp13
 70
     1
102
RTVSPropertyOp14
 70
     1
102
RTVSPropertyOp15
 70
     1
102
RTVSPropertyOp16
 70
     1
102
RTVSPropertyOp17
 70
     1
102
RTVSPropertyOp18
 70
     1
102
RTVSPropertyOp19
 70
     1
102
RTVSPropertyOp20
 70
     1
102
RTVSPropertyOp21
 70
     1
102
RTVSPropertyOp22
 70
     1
102
RTVSPropertyOp23
 70
     1
102
RTVSPropertyOp24
 70
     1
102
RTVSPropertyOp25
 70
     1
102
RTVSPropertyOp26
 70
     1
102
RTVSPropertyOp27
 70
     1
102
RTVSPropertyOp28
 70
     1
102
RTVSPropertyOp29
 70
     1
102
RTVSPropertyOp30
 70
     1
102
RTVSPropertyOp31
 70
     1
102
RTVSPropertyOp32
 70
     1
  0
XRECORD
  5
158
102
{ACAD_REACTORS
330
157
102
}
330
157
100
AcDbXrecord
280
     1
102
RTVSPropertyOp0
 70
     1
102
RTVSPropertyOp1
 70
     1
102
RTVSPropertyOp2
 70
     1
102
RTVSPropertyOp3
 70
     1
102
RTVSPropertyOp4
 70
     1
102
RTVSPropertyOp5
 70
     1
102
RTVSPropertyOp6
 70
     1
102
RTVSPropertyOp7
 70
     1
102
RTVSPropertyOp8
 70
     1
102
RTVSPropertyOp9
 70
     1
102
RTVSPropertyOp10
 70
     1
102
RTVSPropertyOp11
 70
     1
102
RTVSPropertyOp12
 70
     1
102
RTVSPropertyOp13
 70
     1
102
RTVSPropertyOp14
 70
     1
102
RTVSPropertyOp15
 70
     1
102
RTVSPropertyOp16
 70
     1
102
RTVSPropertyOp17
 70
     1
102
RTVSPropertyOp18
 70
     1
102
RTVSPropertyOp19
 70
     1
102
RTVSPropertyOp20
 70
     1
102
RTVSPropertyOp21
 70
     1
102
RTVSPropertyOp22
 70
     1
102
RTVSPropertyOp23
 70
     1
102
RTVSPropertyOp24
 70
     1
102
RTVSPropertyOp25
 70
     1
102
RTVSPropertyOp26
 70
     1
102
RTVSPropertyOp27
 70
     1
102
RTVSPropertyOp28
 70
     1
102
RTVSPropertyOp29
 70
     1
102
RTVSPropertyOp30
 70
     1
102
RTVSPropertyOp31
 70
     1
102
RTVSPropertyOp32
 70
     1
  0
XRECORD
  5
15A
102
{ACAD_REACTORS
330
159
102
}
330
159
100
AcDbXrecord
280
     1
102
RTVSPropertyOp0
 70
     1
102
RTVSPropertyOp1
 70
     1
102
RTVSPropertyOp2
 70
     1
102
RTVSPropertyOp3
 70
     1
102
RTVSPropertyOp4
 70
     1
102
RTVSPropertyOp5
 70
     1
102
RTVSPropertyOp6
 70
     1
102
RTVSPropertyOp7
 70
     1
102
RTVSPropertyOp8
 70
     1
102
RTVSPropertyOp9
 70
     1
102
RTVSPropertyOp10
 70
     1
102
RTVSPropertyOp11
 70
     1
102
RTVSPropertyOp12
 70
     1
102
RTVSPropertyOp13
 70
     1
102
RTVSPropertyOp14
 70
     1
102
RTVSPropertyOp15
 70
     1
102
RTVSPropertyOp16
 70
     1
102
RTVSPropertyOp17
 70
     1
102
RTVSPropertyOp18
 70
     1
102
RTVSPropertyOp19
 70
     1
102
RTVSPropertyOp20
 70
     1
102
RTVSPropertyOp21
 70
     1
102
RTVSPropertyOp22
 70
     1
102
RTVSPropertyOp23
 70
     1
102
RTVSPropertyOp24
 70
     1
102
RTVSPropertyOp25
 70
     1
102
RTVSPropertyOp26
 70
     1
102
RTVSPropertyOp27
 70
     1
102
RTVSPropertyOp28
 70
     1
102
RTVSPropertyOp29
 70
     1
102
RTVSPropertyOp30
 70
     1
102
RTVSPropertyOp31
 70
     1
102
RTVSPropertyOp32
 70
     1
  0
XRECORD
  5
15C
102
{ACAD_REACTORS
330
15B
102
}
330
15B
100
AcDbXrecord
280
     1
102
RTVSPropertyOp0
 70
     1
102
RTVSPropertyOp1
 70
     1
102
RTVSPropertyOp2
 70
     1
102
RTVSPropertyOp3
 70
     1
102
RTVSPropertyOp4
 70
     1
102
RTVSPropertyOp5
 70
     1
102
RTVSPropertyOp6
 70
     1
102
RTVSPropertyOp7
 70
     1
102
RTVSPropertyOp8
 70
     1
102
RTVSPropertyOp9
 70
     1
102
RTVSPropertyOp10
 70
     1
102
RTVSPropertyOp11
 70
     1
102
RTVSPropertyOp12
 70
     1
102
RTVSPropertyOp13
 70
     1
102
RTVSPropertyOp14
 70
     1
102
RTVSPropertyOp15
 70
     1
102
RTVSPropertyOp16
 70
     1
102
RTVSPropertyOp17
 70
     1
102
RTVSPropertyOp18
 70
     1
102
RTVSPropertyOp19
 70
     1
102
RTVSPropertyOp20
 70
     1
102
RTVSPropertyOp21
 70
     1
102
RTVSPropertyOp22
 70
     1
102
RTVSPropertyOp23
 70
     1
102
RTVSPropertyOp24
 70
     1
102
RTVSPropertyOp25
 70
     1
102
RTVSPropertyOp26
 70
     1
102
RTVSPropertyOp27
 70
     1
102
RTVSPropertyOp28
 70
     1
102
RTVSPropertyOp29
 70
     1
102
RTVSPropertyOp30
 70
     1
102
RTVSPropertyOp31
 70
     1
102
RTVSPropertyOp32
 70
     1
  0
XRECORD
  5
15E
102
{ACAD_REACTORS
330
15D
102
}
330
15D
100
AcDbXrecord
280
     1
102
RTVSPropertyOp0
 70
     1
102
RTVSPropertyOp1
 70
     1
102
RTVSPropertyOp2
 70
     1
102
RTVSPropertyOp3
 70
     1
102
RTVSPropertyOp4
 70
     1
102
RTVSPropertyOp5
 70
     1
102
RTVSPropertyOp6
 70
     1
102
RTVSPropertyOp7
 70
     1
102
RTVSPropertyOp8
 70
     1
102
RTVSPropertyOp9
 70
     1
102
RTVSPropertyOp10
 70
     1
102
RTVSPropertyOp11
 70
     1
102
RTVSPropertyOp12
 70
     1
102
RTVSPropertyOp13
 70
     1
102
RTVSPropertyOp14
 70
     1
102
RTVSPropertyOp15
 70
     1
102
RTVSPropertyOp16
 70
     1
102
RTVSPropertyOp17
 70
     1
102
RTVSPropertyOp18
 70
     1
102
RTVSPropertyOp19
 70
     1
102
RTVSPropertyOp20
 70
     1
102
RTVSPropertyOp21
 70
     1
102
RTVSPropertyOp22
 70
     1
102
RTVSPropertyOp23
 70
     1
102
RTVSPropertyOp24
 70
     1
102
RTVSPropertyOp25
 70
     1
102
RTVSPropertyOp26
 70
     1
102
RTVSPropertyOp27
 70
     1
102
RTVSPropertyOp28
 70
     1
102
RTVSPropertyOp29
 70
     1
102
RTVSPropertyOp30
 70
     1
102
RTVSPropertyOp31
 70
     1
102
RTVSPropertyOp32
 70
     1
  0
XRECORD
  5
172
102
{ACAD_REACTORS
330
171
102
}
330
171
100
AcDbXrecord
280
     1
102
RTVSPropertyOp0
 70
     1
102
RTVSPropertyOp1
 70
     1
102
RTVSPropertyOp2
 70
     1
102
RTVSPropertyOp3
 70
     1
102
RTVSPropertyOp4
 70
     1
102
RTVSPropertyOp5
 70
     1
102
RTVSPropertyOp6
 70
     1
102
RTVSPropertyOp7
 70
     1
102
RTVSPropertyOp8
 70
     1
102
RTVSPropertyOp9
 70
     1
102
RTVSPropertyOp10
 70
     1
102
RTVSPropertyOp11
 70
     1
102
RTVSPropertyOp12
 70
     1
102
RTVSPropertyOp13
 70
     1
102
RTVSPropertyOp14
 70
     1
102
RTVSPropertyOp15
 70
     1
102
RTVSPropertyOp16
 70
     1
102
RTVSPropertyOp17
 70
     1
102
RTVSPropertyOp18
 70
     1
102
RTVSPropertyOp19
 70
     1
102
RTVSPropertyOp20
 70
     1
102
RTVSPropertyOp21
 70
     1
102
RTVSPropertyOp22
 70
     1
102
RTVSPropertyOp23
 70
     1
102
RTVSPropertyOp24
 70
     1
102
RTVSPropertyOp25
 70
     1
102
RTVSPropertyOp26
 70
     1
102
RTVSPropertyOp27
 70
     1
102
RTVSPropertyOp28
 70
     1
102
RTVSPropertyOp29
 70
     1
102
RTVSPropertyOp30
 70
     1
102
RTVSPropertyOp31
 70
     1
102
RTVSPropertyOp32
 70
     1
  0
XRECORD
  5
168
102
{ACAD_REACTORS
330
167
102
}
330
167
100
AcDbXrecord
280
     1
102
RTVSPropertyOp0
 70
     1
102
RTVSPropertyOp1
 70
     1
102
RTVSPropertyOp2
 70
     1
102
RTVSPropertyOp3
 70
     1
102
RTVSPropertyOp4
 70
     1
102
RTVSPropertyOp5
 70
     1
102
RTVSPropertyOp6
 70
     1
102
RTVSPropertyOp7
 70
     1
102
RTVSPropertyOp8
 70
     1
102
RTVSPropertyOp9
 70
     1
102
RTVSPropertyOp10
 70
     1
102
RTVSPropertyOp11
 70
     1
102
RTVSPropertyOp12
 70
     1
102
RTVSPropertyOp13
 70
     1
102
RTVSPropertyOp14
 70
     1
102
RTVSPropertyOp15
 70
     1
102
RTVSPropertyOp16
 70
     1
102
RTVSPropertyOp17
 70
     1
102
RTVSPropertyOp18
 70
     1
102
RTVSPropertyOp19
 70
     1
102
RTVSPropertyOp20
 70
     1
102
RTVSPropertyOp21
 70
     1
102
RTVSPropertyOp22
 70
     1
102
RTVSPropertyOp23
 70
     1
102
RTVSPropertyOp24
 70
     1
102
RTVSPropertyOp25
 70
     1
102
RTVSPropertyOp26
 70
     1
102
RTVSPropertyOp27
 70
     1
102
RTVSPropertyOp28
 70
     1
102
RTVSPropertyOp29
 70
     1
102
RTVSPropertyOp30
 70
     1
102
RTVSPropertyOp31
 70
     1
102
RTVSPropertyOp32
 70
     1
  0
XRECORD
  5
170
102
{ACAD_REACTORS
330
16F
102
}
330
16F
100
AcDbXrecord
280
     1
102
RTVSPropertyOp0
 70
     1
102
RTVSPropertyOp1
 70
     1
102
RTVSPropertyOp2
 70
     1
102
RTVSPropertyOp3
 70
     1
102
RTVSPropertyOp4
 70
     1
102
RTVSPropertyOp5
 70
     1
102
RTVSPropertyOp6
 70
     1
102
RTVSPropertyOp7
 70
     1
102
RTVSPropertyOp8
 70
     1
102
RTVSPropertyOp9
 70
     1
102
RTVSPropertyOp10
 70
     1
102
RTVSPropertyOp11
 70
     1
102
RTVSPropertyOp12
 70
     1
102
RTVSPropertyOp13
 70
     1
102
RTVSPropertyOp14
 70
     1
102
RTVSPropertyOp15
 70
     1
102
RTVSPropertyOp16
 70
     1
102
RTVSPropertyOp17
 70
     1
102
RTVSPropertyOp18
 70
     1
102
RTVSPropertyOp19
 70
     1
102
RTVSPropertyOp20
 70
     1
102
RTVSPropertyOp21
 70
     1
102
RTVSPropertyOp22
 70
     1
102
RTVSPropertyOp23
 70
     1
102
RTVSPropertyOp24
 70
     1
102
RTVSPropertyOp25
 70
     1
102
RTVSPropertyOp26
 70
     1
102
RTVSPropertyOp27
 70
     1
102
RTVSPropertyOp28
 70
     1
102
RTVSPropertyOp29
 70
     1
102
RTVSPropertyOp30
 70
     1
102
RTVSPropertyOp31
 70
     1
102
RTVSPropertyOp32
 70
     1
  0
ENDSEC
  0
EOF
