  0
SECTION
  2
HEADER
  9
$ACADVER
  1
AC1015
  9
$ACADMAINTVER
 70
     6
  9
$DWGCODEPAGE
  3
ANSI_932
  9
$INSBASE
 10
0.0
 20
0.0
 30
0.0
  9
$EXTMIN
 10
0.0
 20
0.0
 30
0.0
  9
$EXTMAX
 10
210.0
 20
297.0
 30
0.0
  9
$LIMMIN
 10
0.0
 20
0.0
  9
$LIMMAX
 10
12.0
 20
9.0
  9
$ORTHOMODE
 70
     0
  9
$REGENMODE
 70
     1
  9
$FILLMODE
 70
     1
  9
$QTEXTMODE
 70
     0
  9
$MIRRTEXT
 70
     1
  9
$LTSCALE
 40
1.0
  9
$ATTMODE
 70
     1
  9
$TEXTSIZE
 40
0.2
  9
$TRACEWID
 40
0.05
  9
$TEXTSTYLE
  7
Standard
  9
$CLAYER
  8
0
  9
$CELTYPE
  6
ByLayer
  9
$CECOLOR
 62
   256
  9
$CELTSCALE
 40
1.0
  9
$DISPSILH
 70
     0
  9
$DIMSCALE
 40
1.0
  9
$DIMASZ
 40
0.18
  9
$DIMEXO
 40
0.0625
  9
$DIMDLI
 40
0.38
  9
$DIMRND
 40
0.0
  9
$DIMDLE
 40
0.0
  9
$DIMEXE
 40
0.18
  9
$DIMTP
 40
0.0
  9
$DIMTM
 40
0.0
  9
$DIMTXT
 40
0.18
  9
$DIMCEN
 40
0.09
  9
$DIMTSZ
 40
0.0
  9
$DIMTOL
 70
     0
  9
$DIMLIM
 70
     0
  9
$DIMTIH
 70
     1
  9
$DIMTOH
 70
     1
  9
$DIMSE1
 70
     0
  9
$DIMSE2
 70
     0
  9
$DIMTAD
 70
     0
  9
$DIMZIN
 70
     0
  9
$DIMBLK
  1

  9
$DIMASO
 70
     1
  9
$DIMSHO
 70
     1
  9
$DIMPOST
  1

  9
$DIMAPOST
  1

  9
$DIMALT
 70
     0
  9
$DIMALTD
 70
     2
  9
$DIMALTF
 40
25.4
  9
$DIMLFAC
 40
1.0
  9
$DIMTOFL
 70
     0
  9
$DIMTVP
 40
0.0
  9
$DIMTIX
 70
     0
  9
$DIMSOXD
 70
     0
  9
$DIMSAH
 70
     0
  9
$DIMBLK1
  1

  9
$DIMBLK2
  1

  9
$DIMSTYLE
  2
Standard
  9
$DIMCLRD
 70
     0
  9
$DIMCLRE
 70
     0
  9
$DIMCLRT
 70
     0
  9
$DIMTFAC
 40
1.0
  9
$DIMGAP
 40
0.09
  9
$DIMJUST
 70
     0
  9
$DIMSD1
 70
     0
  9
$DIMSD2
 70
     0
  9
$DIMTOLJ
 70
     1
  9
$DIMTZIN
 70
     0
  9
$DIMALTZ
 70
     0
  9
$DIMALTTZ
 70
     0
  9
$DIMUPT
 70
     0
  9
$DIMDEC
 70
     4
  9
$DIMTDEC
 70
     4
  9
$DIMALTU
 70
     2
  9
$DIMALTTD
 70
     2
  9
$DIMTXSTY
  7
Standard
  9
$DIMAUNIT
 70
     0
  9
$DIMADEC
 70
     0
  9
$DIMALTRND
 40
0.0
  9
$DIMAZIN
 70
     0
  9
$DIMDSEP
 70
    46
  9
$DIMATFIT
 70
     3
  9
$DIMFRAC
 70
     0
  9
$DIMLDRBLK
  1

  9
$DIMLUNIT
 70
     2
  9
$DIMLWD
 70
    -2
  9
$DIMLWE
 70
    -2
  9
$DIMTMOVE
 70
     0
  9
$LUNITS
 70
     2
  9
$LUPREC
 70
     4
  9
$SKETCHINC
 40
0.1
  9
$FILLETRAD
 40
0.5
  9
$AUNITS
 70
     0
  9
$AUPREC
 70
     0
  9
$MENU
  1
.
  9
$ELEVATION
 40
0.0
  9
$PELEVATION
 40
0.0
  9
$THICKNESS
 40
0.0
  9
$LIMCHECK
 70
     0
  9
$CHAMFERA
 40
0.5
  9
$CHAMFERB
 40
0.5
  9
$CHAMFERC
 40
1.0
  9
$CHAMFERD
 40
0.0
  9
$SKPOLY
 70
     0
  9
$TDCREATE
 40
2459761.582497824
  9
$TDUCREATE
 40
2459761.207497824
  9
$TDUPDATE
 40
2459761.58249963
  9
$TDUUPDATE
 40
2459761.20749963
  9
$TDINDWG
 40
0.0000000116
  9
$TDUSRTIMER
 40
0.0000000116
  9
$USRTIMER
 70
     1
  9
$ANGBASE
 50
0.0
  9
$ANGDIR
 70
     0
  9
$PDMODE
 70
     0
  9
$PDSIZE
 40
0.0
  9
$PLINEWID
 40
0.0
  9
$SPLFRAME
 70
     0
  9
$SPLINETYPE
 70
     6
  9
$SPLINESEGS
 70
     8
  9
$HANDSEED
  5
198
  9
$SURFTAB1
 70
     6
  9
$SURFTAB2
 70
     6
  9
$SURFTYPE
 70
     6
  9
$SURFU
 70
     6
  9
$SURFV
 70
     6
  9
$UCSBASE
  2

  9
$UCSNAME
  2

  9
$UCSORG
 10
0.0
 20
0.0
 30
0.0
  9
$UCSXDIR
 10
1.0
 20
0.0
 30
0.0
  9
$UCSYDIR
 10
0.0
 20
1.0
 30
0.0
  9
$UCSORTHOREF
  2

  9
$UCSORTHOVIEW
 70
     0
  9
$UCSORGTOP
 10
0.0
 20
0.0
 30
0.0
  9
$UCSORGBOTTOM
 10
0.0
 20
0.0
 30
0.0
  9
$UCSORGLEFT
 10
0.0
 20
0.0
 30
0.0
  9
$UCSORGRIGHT
 10
0.0
 20
0.0
 30
0.0
  9
$UCSORGFRONT
 10
0.0
 20
0.0
 30
0.0
  9
$UCSORGBACK
 10
0.0
 20
0.0
 30
0.0
  9
$PUCSBASE
  2

  9
$PUCSNAME
  2

  9
$PUCSORG
 10
0.0
 20
0.0
 30
0.0
  9
$PUCSXDIR
 10
1.0
 20
0.0
 30
0.0
  9
$PUCSYDIR
 10
0.0
 20
1.0
 30
0.0
  9
$PUCSORTHOREF
  2

  9
$PUCSORTHOVIEW
 70
     0
  9
$PUCSORGTOP
 10
0.0
 20
0.0
 30
0.0
  9
$PUCSORGBOTTOM
 10
0.0
 20
0.0
 30
0.0
  9
$PUCSORGLEFT
 10
0.0
 20
0.0
 30
0.0
  9
$PUCSORGRIGHT
 10
0.0
 20
0.0
 30
0.0
  9
$PUCSORGFRONT
 10
0.0
 20
0.0
 30
0.0
  9
$PUCSORGBACK
 10
0.0
 20
0.0
 30
0.0
  9
$USERI1
 70
     0
  9
$USERI2
 70
     0
  9
$USERI3
 70
     0
  9
$USERI4
 70
     0
  9
$USERI5
 70
     0
  9
$USERR1
 40
18.1
  9
$USERR2
 40
0.0
  9
$USERR3
 40
0.0
  9
$USERR4
 40
0.0
  9
$USERR5
 40
0.0
  9
$WORLDVIEW
 70
     1
  9
$SHADEDGE
 70
     3
  9
$SHADEDIF
 70
    70
  9
$TILEMODE
 70
     1
  9
$MAXACTVP
 70
    64
  9
$PINSBASE
 10
0.0
 20
0.0
 30
0.0
  9
$PLIMCHECK
 70
     0
  9
$PEXTMIN
 10
1.00000000000000E+20
 20
1.00000000000000E+20
 30
1.00000000000000E+20
  9
$PEXTMAX
 10
-1.00000000000000E+20
 20
-1.00000000000000E+20
 30
-1.00000000000000E+20
  9
$PLIMMIN
 10
0.0
 20
0.0
  9
$PLIMMAX
 10
12.0
 20
9.0
  9
$UNITMODE
 70
     0
  9
$VISRETAIN
 70
     1
  9
$PLINEGEN
 70
     0
  9
$PSLTSCALE
 70
     1
  9
$TREEDEPTH
 70
  3020
  9
$CMLSTYLE
  2
Standard
  9
$CMLJUST
 70
     0
  9
$CMLSCALE
 40
1.0
  9
$PROXYGRAPHICS
 70
     1
  9
$MEASUREMENT
 70
     1
  9
$CELWEIGHT
370
    -1
  9
$ENDCAPS
280
     0
  9
$JOINSTYLE
280
     0
  9
$LWDISPLAY
290
     0
  9
$INSUNITS
 70
     4
  9
$HYPERLINKBASE
  1

  9
$STYLESHEET
  1

  9
$XEDIT
290
     1
  9
$CEPSNTYPE
380
     0
  9
$PSTYLEMODE
290
     1
  9
$FINGERPRINTGUID
  2
{D5E65DB6-AAA1-4090-8268-57F0F00397E5}
  9
$VERSIONGUID
  2
{FAEB1C32-E019-11D5-929B-00C0DF256EC4}
  9
$EXTNAMES
290
     1
  9
$PSVPSCALE
 40
0.0
  9
$OLESTARTUP
290
     0
  0
ENDSEC
  0
SECTION
  2
CLASSES
  0
CLASS
  1
ACDBDICTIONARYWDFLT
  2
AcDbDictionaryWithDefault
  3
ObjectDBX Classes
 90
        0
280
     0
281
     0
  0
CLASS
  1
VISUALSTYLE
  2
AcDbVisualStyle
  3
ObjectDBX Classes
 90
     4095
280
     0
281
     0
  0
CLASS
  1
MATERIAL
  2
AcDbMaterial
  3
ObjectDBX Classes
 90
     1153
280
     0
281
     0
  0
CLASS
  1
DICTIONARYVAR
  2
AcDbDictionaryVar
  3
ObjectDBX Classes
 90
        0
280
     0
281
     0
  0
CLASS
  1
ACDBPLACEHOLDER
  2
AcDbPlaceHolder
  3
ObjectDBX Classes
 90
        0
280
     0
281
     0
  0
CLASS
  1
LAYOUT
  2
AcDbLayout
  3
ObjectDBX Classes
 90
        0
280
     0
281
     0
  0
ENDSEC
  0
SECTION
  2
TABLES
  0
TABLE
  2
VPORT
  5
8
330
0
100
AcDbSymbolTable
 70
     1
  0
VPORT
  5
29
330
8
100
AcDbSymbolTableRecord
100
AcDbViewportTableRecord
  2
*Active
 70
     0
 10
0.0
 20
0.0
 11
1.0
 21
1.0
 12
105.0
 22
148.5
 13
0.0
 23
0.0
 14
0.5
 24
0.5
 15
0.5
 25
0.5
 16
0.0
 26
0.0
 36
1.0
 17
0.0
 27
0.0
 37
0.0
 40
326.7
 41
1.60267857142857
 42
50.0
 43
0.0
 44
0.0
 50
0.0
 51
0.0
 71
     0
 72
   100
 73
     1
 74
     3
 75
     0
 76
     0
 77
     0
 78
     0
281
     0
 65
     1
110
0.0
120
0.0
130
0.0
111
1.0
121
0.0
131
0.0
112
0.0
122
1.0
132
0.0
 79
     0
146
0.0
  0
ENDTAB
  0
TABLE
  2
LTYPE
  5
5
330
0
100
AcDbSymbolTable
 70
     8
  0
LTYPE
  5
14
330
5
100
AcDbSymbolTableRecord
100
AcDbLinetypeTableRecord
  2
ByBlock
 70
     0
  3

 72
    65
 73
     0
 40
0.0
  0
LTYPE
  5
15
330
5
100
AcDbSymbolTableRecord
100
AcDbLinetypeTableRecord
  2
ByLayer
 70
     0
  3

 72
    65
 73
     0
 40
0.0
  0
LTYPE
  5
16
330
5
100
AcDbSymbolTableRecord
100
AcDbLinetypeTableRecord
  2
Continuous
 70
     0
  3
Solid line
 72
    65
 73
     0
 40
0.0
  0
LTYPE
  5
3F
330
5
100
AcDbSymbolTableRecord
100
AcDbLinetypeTableRecord
  2
DASHED
 70
     0
  3
Dashed
 72
    65
 73
     2
 40
15.0
 49
7.0
 74
     0
 49
-8.0
 74
     0
  0
LTYPE
  5
40
330
5
100
AcDbSymbolTableRecord
100
AcDbLinetypeTableRecord
  2
DOTTED
 70
     0
  3
Dotted
 72
    65
 73
     2
 40
1.0
 49
0.0
 74
     0
 49
-1.0
 74
     0
  0
LTYPE
  5
41
330
5
100
AcDbSymbolTableRecord
100
AcDbLinetypeTableRecord
  2
DOT_CENTER
 70
     0
  3
Dot_Center
 72
    65
 73
     4
 40
14.0
 49
12.0
 74
     0
 49
-1.0
 74
     0
 49
0.0
 74
     0
 49
-1.0
 74
     0
  0
LTYPE
  5
42
330
5
100
AcDbSymbolTableRecord
100
AcDbLinetypeTableRecord
  2
LONG_DASHED
 70
     0
  3
Long_Dashed
 72
    65
 73
     2
 40
15.0
 49
10.0
 74
     0
 49
-5.0
 74
     0
  0
LTYPE
  5
43
330
5
100
AcDbSymbolTableRecord
100
AcDbLinetypeTableRecord
  2
DASH_CENTER
 70
     0
  3
Dash_Center
 72
    65
 73
     4
 40
14.0
 49
11.0
 74
     0
 49
-1.0
 74
     0
 49
1.0
 74
     0
 49
-1.0
 74
     0
  0
LTYPE
  5
44
330
5
100
AcDbSymbolTableRecord
100
AcDbLinetypeTableRecord
  2
PHANTOM
 70
     0
  3
Phantom
 72
    65
 73
     6
 40
13.0
 49
10.0
 74
     0
 49
-1.0
 74
     0
 49
0.0
 74
     0
 49
-1.0
 74
     0
 49
0.0
 74
     0
 49
-1.0
 74
     0
  0
LTYPE
  5
45
330
5
100
AcDbSymbolTableRecord
100
AcDbLinetypeTableRecord
  2
CENTER_DASH_DASH
 70
     0
  3
Center_Dash_Dash
 72
    65
 73
     6
 40
14.0
 49
9.0
 74
     0
 49
-1.0
 74
     0
 49
1.0
 74
     0
 49
-1.0
 74
     0
 49
1.0
 74
     0
 49
-1.0
 74
     0
  0
ENDTAB
  0
TABLE
  2
LAYER
  5
2
330
0
100
AcDbSymbolTable
 70
     3
  0
LAYER
  5
10
330
2
100
AcDbSymbolTableRecord
100
AcDbLayerTableRecord
  2
0
 70
     0
 62
     7
  6
Continuous
370
    -3
390
F
  0
LAYER
  5
46
330
2
100
AcDbSymbolTableRecord
100
AcDbLayerTableRecord
  2
1
 70
     0
 62
     7
  6
Continuous
370
    -3
390
F
  0
LAYER
  5
47
330
2
100
AcDbSymbolTableRecord
100
AcDbLayerTableRecord
  2
_U_30EC_U_30A4_U_30E4_U_30FC_1
 70
     0
 62
     7
  6
Continuous
370
    -3
390
F
  0
ENDTAB
  0
TABLE
  2
STYLE
  5
3
330
0
100
AcDbSymbolTable
 70
     3
  0
STYLE
  5
11
330
3
100
AcDbSymbolTableRecord
100
AcDbTextStyleTableRecord
  2
Standard
 70
     0
 40
0.0
 41
1.0
 50
0.0
 71
     0
 42
0.2
  3
txt
  4

  0
STYLE
  5
BA
330
3
100
AcDbSymbolTableRecord
100
AcDbTextStyleTableRecord
  2
CONVERTER_11
 70
     0
 40
0.0
 41
0.89
 50
0.0
 71
     0
 42
0.2
  3
MS Mincho.ttf
  4

1001
ACAD
1000
MS Mincho
1071
    32785
  0
STYLE
  5
127
330
3
100
AcDbSymbolTableRecord
100
AcDbTextStyleTableRecord
  2
CONVERTER_12
 70
     0
 40
0.0
 41
0.9
 50
0.0
 71
     0
 42
0.2
  3
txt.shx
  4

  0
ENDTAB
  0
TABLE
  2
VIEW
  5
6
330
0
100
AcDbSymbolTable
 70
     0
  0
ENDTAB
  0
TABLE
  2
UCS
  5
7
330
0
100
AcDbSymbolTable
 70
     0
  0
ENDTAB
  0
TABLE
  2
APPID
  5
9
330
0
100
AcDbSymbolTable
 70
     1
  0
APPID
  5
12
330
9
100
AcDbSymbolTableRecord
100
AcDbRegAppTableRecord
  2
ACAD
 70
     0
  0
ENDTAB
  0
TABLE
  2
DIMSTYLE
  5
A
330
0
100
AcDbSymbolTable
 70
     6
100
AcDbDimStyleTable
  0
DIMSTYLE
105
27
330
A
100
AcDbSymbolTableRecord
100
AcDbDimStyleTableRecord
  2
Standard
 70
     0
178
     0
340
11
  0
DIMSTYLE
105
13D
102
{ACAD_REACTORS
330
13E
102
}
330
A
100
AcDbSymbolTableRecord
100
AcDbDimStyleTableRecord
  2
ME10_DIM_10
 70
     0
  3
{\Fgdt;n}<>
 41
3.5
 42
0.0
 44
1.0
 73
     0
 74
     0
 77
     1
 78
     8
140
3.5
147
1.0
172
     1
173
     1
174
     1
175
     1
176
     2
177
     2
271
     2
178
     7
271
     2
340
127
  0
DIMSTYLE
105
148
102
{ACAD_REACTORS
330
149
102
}
330
A
100
AcDbSymbolTableRecord
100
AcDbDimStyleTableRecord
  2
ME10_DIM_11
 70
     0
  3
{\Fgdt;n}<>
 41
3.5
 42
0.0
 44
1.0
 73
     0
 74
     0
 77
     1
 78
     8
140
3.5
147
1.0
172
     1
173
     1
174
     1
175
     1
176
     2
177
     2
271
     2
178
     7
271
     2
340
127
  0
DIMSTYLE
105
153
102
{ACAD_REACTORS
330
154
102
}
330
A
100
AcDbSymbolTableRecord
100
AcDbDimStyleTableRecord
  2
ME10_DIM_12
 70
     0
  3
{\Fgdt;n}<>
 41
3.5
 42
0.0
 44
1.0
 73
     0
 74
     0
 77
     1
 78
     8
140
3.5
147
1.0
172
     1
173
     1
174
     1
175
     1
176
     2
177
     2
271
     2
178
     7
271
     2
340
127
  0
DIMSTYLE
105
15E
102
{ACAD_REACTORS
330
15F
102
}
330
A
100
AcDbSymbolTableRecord
100
AcDbDimStyleTableRecord
  2
ME10_DIM_13
 70
     0
 41
3.5
 42
0.0
 44
1.0
 73
     0
 74
     0
 77
     1
 78
     8
140
3.5
147
1.0
172
     1
173
     1
174
     1
175
     1
176
     2
177
     2
271
     2
178
     7
271
     2
340
127
  0
DIMSTYLE
105
16B
102
{ACAD_REACTORS
330
16C
102
}
330
A
100
AcDbSymbolTableRecord
100
AcDbDimStyleTableRecord
  2
ME10_DIM_14
 70
     0
 41
3.5
 42
0.0
 44
1.0
 73
     0
 74
     0
 77
     1
 78
     8
140
3.5
147
1.0
172
     1
173
     1
174
     1
175
     1
176
     2
177
     2
271
     2
178
     7
271
     2
340
127
  0
ENDTAB
  0
TABLE
  2
BLOCK_RECORD
  5
1
330
0
100
AcDbSymbolTable
 70
    10
  0
BLOCK_RECORD
  5
1F
330
1
100
AcDbSymbolTableRecord
100
AcDbBlockTableRecord
  2
*Model_Space
340
22
  0
BLOCK_RECORD
  5
1B
330
1
100
AcDbSymbolTableRecord
100
AcDbBlockTableRecord
  2
*Paper_Space
340
1E
  0
BLOCK_RECORD
  5
23
330
1
100
AcDbSymbolTableRecord
100
AcDbBlockTableRecord
  2
*Paper_Space0
340
26
  0
BLOCK_RECORD
  5
48
330
1
100
AcDbSymbolTableRecord
100
AcDbBlockTableRecord
  2
開示A4
340
0
102
{BLKREFS
331
4C
102
}
  0
BLOCK_RECORD
  5
4B
330
1
100
AcDbSymbolTableRecord
100
AcDbBlockTableRecord
  2
開示A4枠
340
0
102
{BLKREFS
331
55
102
}
  0
BLOCK_RECORD
  5
4F
330
1
100
AcDbSymbolTableRecord
100
AcDbBlockTableRecord
  2
pin
340
0
102
{BLKREFS
331
56
102
}
  0
BLOCK_RECORD
  5
52
330
1
100
AcDbSymbolTableRecord
100
AcDbBlockTableRecord
  2
sara
340
0
102
{BLKREFS
331
57
102
}
  0
BLOCK_RECORD
  5
134
330
1
100
AcDbSymbolTableRecord
100
AcDbBlockTableRecord
  2
*D5
340
0
  0
BLOCK_RECORD
  5
13F
330
1
100
AcDbSymbolTableRecord
100
AcDbBlockTableRecord
  2
*D6
340
0
  0
BLOCK_RECORD
  5
14A
330
1
100
AcDbSymbolTableRecord
100
AcDbBlockTableRecord
  2
*D7
340
0
  0
BLOCK_RECORD
  5
155
330
1
100
AcDbSymbolTableRecord
100
AcDbBlockTableRecord
  2
*D8
340
0
  0
BLOCK_RECORD
  5
160
330
1
100
AcDbSymbolTableRecord
100
AcDbBlockTableRecord
  2
*D9
340
0
  0
ENDTAB
  0
ENDSEC
  0
SECTION
  2
BLOCKS
  0
BLOCK
  5
20
330
1F
100
AcDbEntity
  8
0
100
AcDbBlockBegin
  2
*Model_Space
 70
     0
 10
0.0
 20
0.0
 30
0.0
  3
*Model_Space
  1

  0
ENDBLK
  5
21
330
1F
100
AcDbEntity
  8
0
100
AcDbBlockEnd
  0
BLOCK
  5
1C
330
1B
100
AcDbEntity
 67
     1
  8
0
100
AcDbBlockBegin
  2
*Paper_Space
 70
     0
 10
0.0
 20
0.0
 30
0.0
  3
*Paper_Space
  1

  0
ENDBLK
  5
1D
330
1B
100
AcDbEntity
 67
     1
  8
0
100
AcDbBlockEnd
  0
BLOCK
  5
24
330
23
100
AcDbEntity
  8
0
100
AcDbBlockBegin
  2
*Paper_Space0
 70
     0
 10
0.0
 20
0.0
 30
0.0
  3
*Paper_Space0
  1

  0
ENDBLK
  5
25
330
23
100
AcDbEntity
  8
0
100
AcDbBlockEnd
  0
BLOCK
  5
49
330
48
100
AcDbEntity
  8
0
100
AcDbBlockBegin
  2
開示A4
 70
     0
 10
0.0
 20
0.0
 30
0.0
  3
開示A4
  1

  0
POINT
  5
58
330
48
100
AcDbEntity
  8
1
 62
     4
100
AcDbPoint
 10
183.0
 20
15.0
 30
0.0
  0
POINT
  5
59
330
48
100
AcDbEntity
  8
1
 62
     4
100
AcDbPoint
 10
93.75000000000003
 20
17.0
 30
0.0
  0
POINT
  5
5A
330
48
100
AcDbEntity
  8
1
 62
     4
100
AcDbPoint
 10
85.25000000000003
 20
17.0
 30
0.0
  0
POINT
  5
5B
330
48
100
AcDbEntity
  8
1
 62
     4
100
AcDbPoint
 10
106.5
 20
19.0
 30
0.0
  0
POINT
  5
5C
330
48
100
AcDbEntity
  8
1
 62
     4
100
AcDbPoint
 10
106.5
 20
12.5
 30
0.0
  0
POINT
  5
5D
330
48
100
AcDbEntity
  8
1
 62
     4
100
AcDbPoint
 10
112.25
 20
12.5
 30
0.0
  0
POINT
  5
5E
330
48
100
AcDbEntity
  8
1
 62
     4
100
AcDbPoint
 10
100.75
 20
12.5
 30
0.0
  0
POINT
  5
5F
330
48
100
AcDbEntity
  8
1
 62
     4
100
AcDbPoint
 10
123.5
 20
19.0
 30
0.0
  0
POINT
  5
60
330
48
100
AcDbEntity
  8
1
 62
     4
100
AcDbPoint
 10
123.5
 20
12.5
 30
0.0
  0
POINT
  5
61
330
48
100
AcDbEntity
  8
1
 62
     4
100
AcDbPoint
 10
129.25
 20
12.5
 30
0.0
  0
POINT
  5
62
330
48
100
AcDbEntity
  8
1
 62
     4
100
AcDbPoint
 10
117.75
 20
12.5
 30
0.0
  0
POINT
  5
63
330
48
100
AcDbEntity
  8
1
 62
     4
100
AcDbPoint
 10
140.5
 20
19.0
 30
0.0
  0
POINT
  5
64
330
48
100
AcDbEntity
  8
1
 62
     4
100
AcDbPoint
 10
140.5
 20
12.5
 30
0.0
  0
POINT
  5
65
330
48
100
AcDbEntity
  8
1
 62
     4
100
AcDbPoint
 10
146.25
 20
12.5
 30
0.0
  0
POINT
  5
66
330
48
100
AcDbEntity
  8
1
 62
     4
100
AcDbPoint
 10
134.75
 20
12.5
 30
0.0
  0
POINT
  5
67
330
48
100
AcDbEntity
  8
1
 62
     4
100
AcDbPoint
 10
151.75
 20
12.5
 30
0.0
  0
POINT
  5
68
330
48
100
AcDbEntity
  8
1
 62
     4
100
AcDbPoint
 10
163.25
 20
12.5
 30
0.0
  0
POINT
  5
69
330
48
100
AcDbEntity
  8
1
 62
     4
100
AcDbPoint
 10
157.5
 20
12.5
 30
0.0
  0
POINT
  5
6A
330
48
100
AcDbEntity
  8
1
 62
     4
100
AcDbPoint
 10
57.00000000000003
 20
14.25
 30
0.0
  0
POINT
  5
6B
330
48
100
AcDbEntity
  8
1
 62
     4
100
AcDbPoint
 10
57.00000000000003
 20
22.75
 30
0.0
  0
POINT
  5
6C
330
48
100
AcDbEntity
  8
1
 62
     4
100
AcDbPoint
 10
47.50000000000003
 20
282.0000000000003
 30
0.0
  0
POINT
  5
6D
330
48
100
AcDbEntity
  8
1
 62
     4
100
AcDbPoint
 10
157.5
 20
19.0
 30
0.0
  0
POINT
  5
6E
330
48
100
AcDbEntity
  8
1
 62
     4
100
AcDbPoint
 10
57.00000000000003
 20
16.25
 30
0.0
  0
POINT
  5
6F
330
48
100
AcDbEntity
  8
1
 62
     4
100
AcDbPoint
 10
57.00000000000003
 20
24.75
 30
0.0
  0
POINT
  5
70
330
48
100
AcDbEntity
  8
1
 62
     4
100
AcDbPoint
 10
57.00000000000003
 20
20.75
 30
0.0
  0
POINT
  5
71
330
48
100
AcDbEntity
  8
1
 62
     4
100
AcDbPoint
 10
57.00000000000003
 20
12.25
 30
0.0
  0
POINT
  5
72
330
48
100
AcDbEntity
  8
1
 62
     4
100
AcDbPoint
 10
34.00000000000003
 20
34.0
 30
0.0
  0
LINE
  5
77
330
48
100
AcDbEntity
  8
1
  6
Continuous
 62
     7
100
AcDbLine
 10
105.0
 20
10.0
 30
0.0
 11
200.0
 21
10.0
 31
0.0
  0
LINE
  5
78
330
48
100
AcDbEntity
  8
1
  6
Continuous
 62
     2
100
AcDbLine
 10
105.0
 20
10.0
 30
0.0
 11
105.0
 21
5.0
 31
0.0
  0
LINE
  5
79
330
48
100
AcDbEntity
  8
1
  6
Continuous
 62
     7
100
AcDbLine
 10
200.0
 20
148.5
 30
0.0
 11
200.0
 21
287.0000000000003
 31
0.0
  0
LINE
  5
7A
330
48
100
AcDbEntity
  8
1
  6
Continuous
 62
     2
100
AcDbLine
 10
200.0
 20
148.5
 30
0.0
 11
205.0
 21
148.5
 31
0.0
  0
LINE
  5
7B
330
48
100
AcDbEntity
  8
1
  6
Continuous
 62
     7
100
AcDbLine
 10
25.00000000000003
 20
148.5
 30
0.0
 11
25.00000000000003
 21
287.0000000000003
 31
0.0
  0
LINE
  5
7C
330
48
100
AcDbEntity
  8
1
  6
Continuous
 62
     2
100
AcDbLine
 10
25.00000000000003
 20
148.5
 30
0.0
 11
20.00000000000003
 21
148.5
 31
0.0
  0
LINE
  5
7D
330
48
100
AcDbEntity
  8
1
  6
Continuous
 62
     7
100
AcDbLine
 10
105.0
 20
287.0000000000003
 30
0.0
 11
25.00000000000003
 21
287.0000000000003
 31
0.0
  0
LINE
  5
7E
330
48
100
AcDbEntity
  8
1
  6
Continuous
 62
     2
100
AcDbLine
 10
105.0
 20
287.0000000000003
 30
0.0
 11
105.0
 21
292.0000000000003
 31
0.0
  0
LINE
  5
7F
330
48
100
AcDbEntity
  8
1
  6
Continuous
 62
     2
100
AcDbLine
 10
166.0
 20
20.0
 30
0.0
 11
200.0
 21
20.0
 31
0.0
  0
LINE
  5
80
330
48
100
AcDbEntity
  8
1
  6
Continuous
 62
     2
100
AcDbLine
 10
98.0
 20
27.0
 30
0.0
 11
98.0
 21
10.0
 31
0.0
  0
LINE
  5
81
330
48
100
AcDbEntity
  8
1
  6
Continuous
 62
     2
100
AcDbLine
 10
115.0
 20
27.0
 30
0.0
 11
115.0
 21
10.0
 31
0.0
  0
LINE
  5
82
330
48
100
AcDbEntity
  8
1
  6
Continuous
 62
     2
100
AcDbLine
 10
149.0
 20
27.0
 30
0.0
 11
149.0
 21
10.0
 31
0.0
  0
LINE
  5
83
330
48
100
AcDbEntity
  8
1
  6
Continuous
 62
     2
100
AcDbLine
 10
132.0
 20
27.0
 30
0.0
 11
132.0
 21
10.0
 31
0.0
  0
LINE
  5
84
330
48
100
AcDbEntity
  8
1
  6
Continuous
 62
     2
100
AcDbLine
 10
166.0
 20
27.0
 30
0.0
 11
166.0
 21
10.0
 31
0.0
  0
LINE
  5
85
330
48
100
AcDbEntity
  8
1
  6
Continuous
 62
     2
100
AcDbLine
 10
55.00000000000003
 20
277.0000000000003
 30
0.0
 11
25.00000000000003
 21
277.0000000000003
 31
0.0
  0
LINE
  5
86
330
48
100
AcDbEntity
  8
1
  6
Continuous
 62
     7
100
AcDbLine
 10
25.00000000000003
 20
10.0
 30
0.0
 11
25.00000000000003
 21
148.5
 31
0.0
  0
LINE
  5
87
330
48
100
AcDbEntity
  8
1
  6
Continuous
 62
     2
100
AcDbLine
 10
40.00000000000003
 20
287.0000000000003
 30
0.0
 11
40.00000000000003
 21
277.0000000000003
 31
0.0
  0
LINE
  5
88
330
48
100
AcDbEntity
  8
1
  6
Continuous
 62
     2
100
AcDbLine
 10
55.00000000000003
 20
287.0000000000003
 30
0.0
 11
55.00000000000003
 21
277.0000000000003
 31
0.0
  0
LINE
  5
89
330
48
100
AcDbEntity
  8
1
  6
Continuous
 62
     2
100
AcDbLine
 10
33.00000000000003
 20
41.0
 30
0.0
 11
33.00000000000003
 21
27.0
 31
0.0
  0
LINE
  5
8A
330
48
100
AcDbEntity
  8
1
  6
Continuous
 62
     7
100
AcDbLine
 10
200.0
 20
27.0
 30
0.0
 11
25.00000000000003
 21
27.0
 31
0.0
  0
LINE
  5
8B
330
48
100
AcDbEntity
  8
1
  6
Continuous
 62
     7
100
AcDbLine
 10
25.00000000000003
 20
41.0
 30
0.0
 11
200.0
 21
41.0
 31
0.0
  0
LINE
  5
8C
330
48
100
AcDbEntity
  8
1
  6
PHANTOM
 62
     4
100
AcDbLine
 10
0.0
 20
0.0
 30
0.0
 11
210.0
 21
0.0
 31
0.0
  0
LINE
  5
8D
330
48
100
AcDbEntity
  8
1
  6
PHANTOM
 62
     4
100
AcDbLine
 10
210.0
 20
0.0
 30
0.0
 11
210.0
 21
297.0
 31
0.0
  0
LINE
  5
8E
330
48
100
AcDbEntity
  8
1
  6
PHANTOM
 62
     4
100
AcDbLine
 10
210.0
 20
297.0
 30
0.0
 11
0.0
 21
297.0
 31
0.0
  0
LINE
  5
8F
330
48
100
AcDbEntity
  8
1
  6
PHANTOM
 62
     4
100
AcDbLine
 10
0.0
 20
297.0
 30
0.0
 11
0.0
 21
0.0
 31
0.0
  0
LINE
  5
90
330
48
100
AcDbEntity
  8
1
  6
Continuous
 62
     7
100
AcDbLine
 10
25.00000000000003
 20
10.0
 30
0.0
 11
105.0
 21
10.0
 31
0.0
  0
LINE
  5
91
330
48
100
AcDbEntity
  8
1
  6
Continuous
 62
     7
100
AcDbLine
 10
200.0
 20
10.0
 30
0.0
 11
200.0
 21
148.5
 31
0.0
  0
LINE
  5
92
330
48
100
AcDbEntity
  8
1
  6
Continuous
 62
     7
100
AcDbLine
 10
200.0
 20
287.0000000000003
 30
0.0
 11
105.0
 21
287.0000000000003
 31
0.0
  0
LINE
  5
93
330
48
100
AcDbEntity
  8
1
  6
Continuous
 62
     2
100
AcDbLine
 10
25.00000000000003
 20
18.5
 30
0.0
 11
81.00000000000003
 21
18.5
 31
0.0
  0
LINE
  5
94
330
48
100
AcDbEntity
  8
1
  6
Continuous
 62
     2
100
AcDbLine
 10
33.00000000000003
 20
27.0
 30
0.0
 11
33.00000000000003
 21
10.0
 31
0.0
  0
LINE
  5
95
330
48
100
AcDbEntity
  8
1
  6
Continuous
 62
     7
100
AcDbLine
 10
191.0
 20
24.7
 30
0.0
 11
191.0
 21
22.30000000000001
 31
0.0
  0
LINE
  5
96
330
48
100
AcDbEntity
  8
1
  6
Continuous
 62
     7
100
AcDbLine
 10
191.0
 20
24.7
 30
0.0
 11
196.0
 21
25.5
 31
0.0
  0
LINE
  5
97
330
48
100
AcDbEntity
  8
1
  6
Continuous
 62
     7
100
AcDbLine
 10
196.0
 20
25.5
 30
0.0
 11
196.0
 21
21.5
 31
0.0
  0
LINE
  5
98
330
48
100
AcDbEntity
  8
1
  6
Continuous
 62
     7
100
AcDbLine
 10
196.0
 20
21.5
 30
0.0
 11
191.0
 21
22.30000000000001
 31
0.0
  0
LINE
  5
99
330
48
100
AcDbEntity
  8
1
  6
DOT_CENTER
 62
     2
100
AcDbLine
 10
184.0
 20
23.5
 30
0.0
 11
197.0
 21
23.5
 31
0.0
  0
LINE
  5
9A
330
48
100
AcDbEntity
  8
1
  6
DOT_CENTER
 62
     2
100
AcDbLine
 10
187.0
 20
26.5
 30
0.0
 11
187.0
 21
20.5
 31
0.0
  0
LINE
  5
9B
330
48
100
AcDbEntity
  8
1
  6
Continuous
 62
     2
100
AcDbLine
 10
81.00000000000003
 20
27.0
 30
0.0
 11
81.00000000000003
 21
10.0
 31
0.0
  0
CIRCLE
  5
9C
330
48
100
AcDbEntity
  8
1
  6
Continuous
 62
     7
100
AcDbCircle
 10
103.5
 20
12.5
 30
0.0
 40
0.2999999999999972
  0
CIRCLE
  5
9D
330
48
100
AcDbEntity
  8
1
  6
Continuous
 62
     7
100
AcDbCircle
 10
109.5
 20
12.5
 30
0.0
 40
0.2999999999999972
  0
CIRCLE
  5
9E
330
48
100
AcDbEntity
  8
1
  6
Continuous
 62
     7
100
AcDbCircle
 10
120.5
 20
12.5
 30
0.0
 40
0.2999999999999972
  0
CIRCLE
  5
9F
330
48
100
AcDbEntity
  8
1
  6
Continuous
 62
     7
100
AcDbCircle
 10
126.5
 20
12.5
 30
0.0
 40
0.2999999999999972
  0
CIRCLE
  5
A0
330
48
100
AcDbEntity
  8
1
  6
Continuous
 62
     7
100
AcDbCircle
 10
137.5
 20
12.5
 30
0.0
 40
0.3000000000000114
  0
CIRCLE
  5
A1
330
48
100
AcDbEntity
  8
1
  6
Continuous
 62
     7
100
AcDbCircle
 10
143.5
 20
12.5
 30
0.0
 40
0.3000000000000114
  0
CIRCLE
  5
A2
330
48
100
AcDbEntity
  8
1
  6
Continuous
 62
     7
100
AcDbCircle
 10
160.5
 20
12.5
 30
0.0
 40
0.3000000000000114
  0
CIRCLE
  5
A3
330
48
100
AcDbEntity
  8
1
  6
Continuous
 62
     7
100
AcDbCircle
 10
154.5
 20
12.5
 30
0.0
 40
0.3000000000000114
  0
CIRCLE
  5
A4
330
48
100
AcDbEntity
  8
1
  6
Continuous
 62
     7
100
AcDbCircle
 10
187.0
 20
23.5
 30
0.0
 40
1.200000000000102
  0
CIRCLE
  5
A5
330
48
100
AcDbEntity
  8
1
  6
Continuous
 62
     7
100
AcDbCircle
 10
187.0
 20
23.5
 30
0.0
 40
2.0
  0
CIRCLE
  5
A6
330
48
100
AcDbEntity
  8
1
  6
DOT_CENTER
 62
     7
100
AcDbCircle
 10
89.50000000000003
 20
16.0
 30
0.0
 40
0.1000000000000227
  0
CIRCLE
  5
A7
330
48
100
AcDbEntity
  8
1
  6
DOT_CENTER
 62
     7
100
AcDbCircle
 10
89.50000000000003
 20
18.0
 30
0.0
 40
0.1000000000000227
  0
SPLINE
  5
A8
102
{ACAD_REACTORS
330
C7
102
}
330
48
100
AcDbEntity
  8
_U_30EC_U_30A4_U_30E4_U_30FC_1
  6
Continuous
 62
     2
100
AcDbSpline
210
0.0
220
0.0
230
1.0
 70
     8
 71
     3
 72
    24
 73
    20
 74
    18
 42
0.000000001
 43
0.0000000001
 44
0.00000001
 40
0.0
 40
0.0
 40
0.0
 40
0.0
 40
0.2211075008753453
 40
0.4273218586244885
 40
0.508017467923892
 40
0.5914835907869856
 40
0.81432656901925
 40
1.054651302686568
 40
1.295452694023135
 40
1.518109231328742
 40
1.540864321905356
 40
1.595126460622613
 40
1.659890947895922
 40
1.714153085187277
 40
1.736908174961575
 40
1.76495110073529
 40
1.801562291220873
 40
1.953914424543596
 40
2.126104167379695
 40
2.126104167379695
 40
2.126104167379695
 40
2.126104167379695
 10
185.9375369556889
 20
15.5898929511301
 30
0.0
 10
185.9112579081811
 20
15.53097628234369
 30
0.0
 10
185.8604698894425
 20
15.41711139679253
 30
0.0
 10
185.8131784839112
 20
15.14441958233115
 30
0.0
 10
185.7043482802618
 20
15.24445482575454
 30
0.0
 10
185.5514800279637
 20
15.27118593367332
 30
0.0
 10
185.7686155181199
 20
15.48518135017634
 30
0.0
 10
185.783848367438
 20
15.70332117782489
 30
0.0
 10
185.8906889492002
 20
15.88451579066428
 30
0.0
 10
185.8305380947075
 20
16.16913226311394
 30
0.0
 10
185.9334317395402
 20
16.14114089222448
 30
0.0
 10
185.9779933468149
 20
16.13243251602298
 30
0.0
 10
186.0380842395397
 20
16.12139654183355
 30
0.0
 10
186.0756619587438
 20
16.10767523055561
 30
0.0
 10
186.1252466928606
 20
16.10756076160227
 30
0.0
 10
186.0930158919325
 20
16.07306592398622
 30
0.0
 10
186.0171802221881
 20
16.08404104537972
 30
0.0
 10
186.0429447159693
 20
15.89858969582446
 30
0.0
 10
186.005589676385
 20
15.80702313549584
 30
0.0
 10
185.9857704961609
 20
15.75844135397701
 30
0.0
 11
185.9375369556889
 21
15.5898929511301
 31
0.0
 11
185.8616471328552
 21
15.38221708318558
 31
0.0
 11
185.7717402238433
 21
15.19663392356191
 31
0.0
 11
185.701149392311
 21
15.2357327256355
 31
0.0
 11
185.6245525192651
 21
15.2688916318772
 31
0.0
 11
185.7214026947455
 21
15.4695880120354
 31
0.0
 11
185.7994641467471
 21
15.69688163177027
 31
0.0
 11
185.858971692972
 21
15.93021436608692
 31
0.0
 11
185.9001601511226
 21
16.1490280899905
 31
0.0
 11
185.9224183822214
 21
16.14429889221391
 31
0.0
 11
185.975495702534
 21
16.13302157443898
 31
0.0
 11
186.0388460525844
 21
16.11956154999793
 31
0.0
 11
186.091923372897
 21
16.10828423222299
 31
0.0
 11
186.1141816039958
 21
16.1035550344464
 31
0.0
 11
186.096409715746
 21
16.08186250841009
 31
0.0
 11
186.0606122998071
 21
16.0741862844537
 31
0.0
 11
186.028195330148
 21
15.92532288171311
 31
0.0
 11
185.9857704961609
 21
15.75844135397701
 31
0.0
  0
SPLINE
  5
A9
102
{ACAD_REACTORS
330
C7
102
}
330
48
100
AcDbEntity
  8
_U_30EC_U_30A4_U_30E4_U_30FC_1
  6
Continuous
 62
     2
100
AcDbSpline
210
0.0
220
0.0
230
1.0
 70
     8
 71
     3
 72
    70
 73
    66
 74
    64
 42
0.000000001
 43
0.0000000001
 44
0.00000001
 40
0.0
 40
0.0
 40
0.0
 40
0.0
 40
0.0241731073021472
 40
0.0846058988987013
 40
0.1631685280353284
 40
0.2417311571789756
 40
0.3021639488292751
 40
0.3263370654895541
 40
0.3533118254248934
 40
0.4228783438922253
 40
0.5179999095313704
 40
0.62163982394666
 40
0.716761389150031
 40
0.7863279069650609
 40
0.8133026791762618
 40
0.8372943998772461
 40
0.8945054261373664
 40
0.9627895541963449
 40
1.020000580349156
 40
1.043992300975254
 40
1.071934345522978
 40
1.113121768772994
 40
1.145225199332318
 40
1.225483775412857
 40
1.329819923771572
 40
1.434156071994466
 40
1.514414647795891
 40
1.546518078208499
 40
1.578974764260272
 40
1.662678849314267
 40
1.777131373668488
 40
1.901833377474878
 40
2.016285900500668
 40
2.099989982528035
 40
2.132446666570394
 40
2.15878235448612
 40
2.216720867907906
 40
2.274659381334331
 40
2.300995069256266
 40
2.333451754066238
 40
2.417155836543918
 40
2.531608358985358
 40
2.656310362283853
 40
2.770762886388985
 40
2.85446697134015
 40
2.886923657363957
 40
2.913597976833387
 40
2.982389642875181
 40
3.076451716947032
 40
3.178937260458631
 40
3.272999334740021
 40
3.341791001059234
 40
3.368465320663541
 40
3.396976080738762
 40
3.472140811845998
 40
3.578408190308688
 40
3.700226892456124
 40
3.822045594634341
 40
3.928312973256448
 40
4.003477705314846
 40
4.031988456866912
 40
4.058324144797717
 40
4.116262658236891
 40
4.174201171400703
 40
4.200536849608642
 40
4.200536849608642
 40
4.200536849608642
 40
4.200536849608642
 10
185.9857704961609
 20
15.75844135397701
 30
0.0
 10
185.9938259544679
 20
15.75844359811683
 30
0.0
 10
186.0220200663241
 20
15.75845146032793
 30
0.0
 10
186.0765534803672
 20
15.75830754828368
 30
0.0
 10
186.1482891808604
 20
15.75909120499894
 30
0.0
 10
186.2236240137062
 20
15.75627570463807
 30
0.0
 10
186.2713052366438
 20
15.76298403400953
 30
0.0
 10
186.3195071245616
 20
15.75197563692428
 30
0.0
 10
186.3062571799873
 20
15.8054640299703
 30
0.0
 10
186.3151093964538
 20
15.86049583543089
 30
0.0
 10
186.3108698036285
 20
15.95419908726108
 30
0.0
 10
186.3133483481281
 20
16.04959482218533
 30
0.0
 10
186.3090938706059
 20
16.14356821983389
 30
0.0
 10
186.3179818665847
 20
16.19795062438016
 30
0.0
 10
186.3046977409945
 20
16.25233997691464
 30
0.0
 10
186.3514119277109
 20
16.23842216335361
 30
0.0
 10
186.3943254545736
 20
16.24103877374046
 30
0.0
 10
186.4605443456684
 20
16.23648422450754
 30
0.0
 10
186.5013342271799
 20
16.22778162134161
 30
0.0
 10
186.5525145690818
 20
16.23531799890192
 30
0.0
 10
186.5253720487201
 20
16.19349970223285
 30
0.0
 10
186.4803096055706
 20
16.20284992072593
 30
0.0
 10
186.4942065045052
 20
16.13841207371836
 30
0.0
 10
186.4858414431653
 20
16.07378219627396
 30
0.0
 10
186.4903632178398
 20
15.97529141193884
 30
0.0
 10
186.4854741311167
 20
15.87595932842567
 30
0.0
 10
186.4950258992082
 20
15.81293115552964
 30
0.0
 10
186.4799761455201
 20
15.74964011499785
 30
0.0
 10
186.5449159457208
 20
15.76515072944265
 30
0.0
 10
186.6116246399496
 20
15.75499387697808
 30
0.0
 10
186.7241435470828
 20
15.75988800099363
 30
0.0
 10
186.8390235448953
 20
15.75691204732779
 30
0.0
 10
186.9519871999747
 20
15.76221664184987
 30
0.0
 10
187.0176267597677
 20
15.75107306472085
 30
0.0
 10
187.0816276691053
 20
15.76744532319853
 30
0.0
 10
187.0703142889189
 20
15.7176168990527
 30
0.0
 10
187.077533987151
 20
15.67416715212119
 30
0.0
 10
187.070314261127
 20
15.63071745587441
 30
0.0
 10
187.0816277175993
 20
15.58088895196873
 30
0.0
 10
187.0176263598972
 20
15.59726166091358
 30
0.0
 10
186.9519921240459
 20
15.58611271661584
 30
0.0
 10
186.838997431733
 20
15.5914485720685
 30
0.0
 10
186.7242456548644
 20
15.58834345663818
 30
0.0
 10
186.611318368686
 20
15.59364894682584
 30
0.0
 10
186.5455220903584
 20
15.58257300019589
 30
0.0
 10
186.4816097975358
 20
15.59887597847614
 30
0.0
 10
186.4936015165125
 20
15.54423524395738
 30
0.0
 10
186.4862104613005
 20
15.48854295047839
 30
0.0
 10
186.4892684841983
 20
15.39649689140569
 30
0.0
 10
186.4893422785682
 20
15.30179109873101
 30
0.0
 10
186.4860313578361
 20
15.20952782902267
 30
0.0
 10
186.4939505989903
 20
15.15435768736141
 30
0.0
 10
186.4815076611617
 20
15.10058169100139
 30
0.0
 10
186.5389116551632
 20
15.11453768862784
 30
0.0
 10
186.5994708140383
 20
15.1051145788423
 30
0.0
 10
186.7048680855081
 20
15.10942885928707
 30
0.0
 10
186.8204294070622
 20
15.10835504612034
 30
0.0
 10
186.9359688877797
 20
15.10725965900997
 30
0.0
 10
187.041418113084
 20
15.11162525770635
 30
0.0
 10
187.1018680471804
 20
15.10209426030674
 30
0.0
 10
187.159283773911
 20
15.11617289606382
 30
0.0
 10
187.1477773876709
 20
15.06707153265685
 30
0.0
 10
187.1537566781749
 20
15.0256465801865
 30
0.0
 10
187.1520311050801
 20
14.97651677966695
 30
0.0
 10
187.1521500122971
 20
14.94854428447607
 30
0.0
 10
187.1521871691833
 20
14.93980288195949
 30
0.0
 11
185.9857704961609
 21
15.75844135397701
 31
0.0
 11
186.0099436128282
 21
15.75844135397701
 31
0.0
 11
186.0703764044962
 21
15.75844135397701
 31
0.0
 11
186.1489390336648
 21
15.75844135397701
 31
0.0
 11
186.2275016628334
 21
15.75844135397701
 31
0.0
 11
186.2879344545015
 21
15.75844135397701
 31
0.0
 11
186.3121075711687
 21
15.75844135397701
 31
0.0
 11
186.3121075711687
 21
15.78541612620059
 31
0.0
 11
186.3121075711687
 21
15.85498264404036
 31
0.0
 11
186.3121075711687
 21
15.95010420924984
 31
0.0
 11
186.3121075711687
 21
16.05374412358257
 31
0.0
 11
186.3121075711687
 21
16.14886568879204
 31
0.0
 11
186.3121075711687
 21
16.21843220663181
 31
0.0
 11
186.3121075711687
 21
16.2454069788554
 31
0.0
 11
186.3360407604892
 21
16.24373213107803
 31
0.0
 11
186.3931122119458
 21
16.23973826330123
 31
0.0
 11
186.461229750781
 21
16.23497138885795
 31
0.0
 11
186.5183012022376
 21
16.23097752108116
 31
0.0
 11
186.5422343915581
 21
16.22930267330379
 31
0.0
 11
186.5274972731229
 21
16.20556293372639
 31
0.0
 11
186.4886640249976
 21
16.1918376733131
 31
0.0
 11
186.4886640249976
 21
16.15973424225117
 31
0.0
 11
186.4886640249976
 21
16.07947566459634
 31
0.0
 11
186.4886640249976
 21
15.97513951364505
 31
0.0
 11
186.4886640249976
 21
15.87080336269377
 31
0.0
 11
186.4886640249976
 21
15.79054478503894
 31
0.0
 11
186.4886640249976
 21
15.75844135397701
 31
0.0
 11
186.5211207110824
 21
15.75844135397701
 31
0.0
 11
186.6048247962486
 21
15.75844135397701
 31
0.0
 11
186.7192773208634
 21
15.75844135397701
 31
0.0
 11
186.8439793252946
 21
15.75844135397701
 31
0.0
 11
186.9584318499095
 21
15.75844135397701
 31
0.0
 11
187.0421359350756
 21
15.75844135397701
 31
0.0
 11
187.0745926211604
 21
15.75844135397701
 31
0.0
 11
187.0745926211604
 21
15.73210566604957
 31
0.0
 11
187.0745926211604
 21
15.67416715260921
 31
0.0
 11
187.0745926211604
 21
15.61622863916884
 31
0.0
 11
187.0745926211604
 21
15.5898929512414
 31
0.0
 11
187.0421359350756
 21
15.5898929512414
 31
0.0
 11
186.9584318499095
 21
15.5898929512414
 31
0.0
 11
186.8439793252946
 21
15.5898929512414
 31
0.0
 11
186.7192773208634
 21
15.5898929512414
 31
0.0
 11
186.6048247962485
 21
15.5898929512414
 31
0.0
 11
186.5211207110824
 21
15.5898929512414
 31
0.0
 11
186.4886640249976
 21
15.5898929512414
 31
0.0
 11
186.4886640249976
 21
15.56321863152018
 31
0.0
 11
186.4886640249976
 21
15.49442696487072
 31
0.0
 11
186.4886640249976
 21
15.40036489006432
 31
0.0
 11
186.4886640249976
 21
15.29787934587227
 31
0.0
 11
186.4886640249976
 21
15.20381727106587
 31
0.0
 11
186.4886640249976
 21
15.13502560441642
 31
0.0
 11
186.4886640249976
 21
15.1083512846952
 31
0.0
 11
186.5171747850993
 21
15.1083512846952
 31
0.0
 11
186.5923395162766
 21
15.1083512846952
 31
0.0
 11
186.6986068948376
 21
15.1083512846952
 31
0.0
 11
186.8204255970904
 21
15.1083512846952
 31
0.0
 11
186.9422442993433
 21
15.1083512846952
 31
0.0
 11
187.0485116779043
 21
15.1083512846952
 31
0.0
 11
187.1236764090816
 21
15.1083512846952
 31
0.0
 11
187.1521871691833
 21
15.1083512846952
 31
0.0
 11
187.1521871691833
 21
15.08201559676774
 31
0.0
 11
187.1521871691833
 21
15.02407708332735
 31
0.0
 11
187.1521871691833
 21
14.96613856988695
 31
0.0
 11
187.1521871691833
 21
14.93980288195949
 31
0.0
  0
SPLINE
  5
AA
102
{ACAD_REACTORS
330
C7
102
}
330
48
100
AcDbEntity
  8
_U_30EC_U_30A4_U_30E4_U_30FC_1
  6
Continuous
 62
     2
100
AcDbSpline
210
0.0
220
0.0
230
1.0
 70
     8
 71
     3
 72
    62
 73
    58
 74
    56
 42
0.000000001
 43
0.0000000001
 44
0.00000001
 40
0.0
 40
0.0
 40
0.0
 40
0.0
 40
0.0598250028308485
 40
0.2024846486897331
 40
0.3727558389221031
 40
0.515415484793607
 40
0.5752404975785339
 40
0.9332326775487156
 40
1.290451762839457
 40
1.602077253145847
 40
1.699931634112128
 40
1.799359756425037
 40
2.27012014965709
 40
2.804661928461527
 40
2.882342287383239
 40
3.076543185719095
 40
3.329004354835562
 40
3.581465524568395
 40
3.77566642454368
 40
3.853346784558302
 40
3.899120679595048
 40
3.984129341792046
 40
4.029903236817394
 40
4.105797496059547
 40
4.295533144152507
 40
4.542189486611746
 40
4.788845828875695
 40
4.978581476410075
 40
5.054475735244318
 40
5.62173466433932
 40
6.13086724203733
 40
6.225249780948604
 40
6.318913039727271
 40
6.663579954558891
 40
7.047498900224752
 40
7.435230791575686
 40
7.498943906668098
 40
7.650875181210091
 40
7.832212509001602
 40
7.984143783696988
 40
8.047856898903115
 40
8.091554632732631
 40
8.17270756696431
 40
8.21640530076804
 40
8.289021782160924
 40
8.462184160757298
 40
8.668861838005379
 40
8.84202421526397
 40
8.914640695475166
 40
8.98988158086136
 40
9.155411528827244
 40
9.320941477744002
 40
9.396182352487244
 40
9.454709011143791
 40
9.583467660170726
 40
9.712226309013005
 40
9.770752957989458
 40
9.770752957989458
 40
9.770752957989458
 40
9.770752957989458
 10
187.1521871691833
 20
14.93980288195949
 30
0.0
 10
187.1322348171623
 20
14.93980875568671
 30
0.0
 10
187.0647037716466
 20
14.93982863806156
 30
0.0
 10
186.9410612161788
 20
14.93949362520325
 30
0.0
 10
186.7863180150056
 20
14.94107673750511
 30
0.0
 10
186.669734948248
 20
14.93686078860494
 30
0.0
 10
186.455094263424
 20
14.95215205331625
 30
0.0
 10
186.8518948407228
 20
14.59198721286193
 30
0.0
 10
186.8945656069267
 20
14.37510503397166
 30
0.0
 10
187.3189162146611
 20
14.19325062511451
 30
0.0
 10
187.1439821496074
 20
14.08985196568071
 30
0.0
 10
187.0194523925083
 20
13.87831523212725
 30
0.0
 10
186.7666277235944
 20
14.34806081001563
 30
0.0
 10
186.4797602893626
 20
14.9951151698452
 30
0.0
 10
186.490633592666
 20
14.68782672154693
 30
0.0
 10
186.488289277796
 20
14.52288616971777
 30
0.0
 10
186.4861096126411
 20
14.28879670711691
 30
0.0
 10
186.4980774396346
 20
14.04498072421781
 30
0.0
 10
186.4687984740631
 20
13.89855796860981
 30
0.0
 10
186.511452262547
 20
13.75113490174536
 30
0.0
 10
186.4239814005639
 20
13.76685797306216
 30
0.0
 10
186.3768527606744
 20
13.76694303543451
 30
0.0
 10
186.2898973207713
 20
13.75109425482906
 30
0.0
 10
186.3313474021722
 20
13.89527771422759
 30
0.0
 10
186.3029875004286
 20
14.03855052698452
 30
0.0
 10
186.3145973775299
 20
14.27674947365261
 30
0.0
 10
186.3124175648272
 20
14.50517235240343
 30
0.0
 10
186.3103111127993
 20
14.6670572937599
 30
0.0
 10
186.3208035438324
 20
14.98153709333748
 30
0.0
 10
186.0128963252893
 20
14.29229470872434
 30
0.0
 10
185.7055258267455
 20
13.81476750243047
 30
0.0
 10
185.5851367066275
 20
14.03741112637428
 30
0.0
 10
185.4074607910721
 20
14.15011034955562
 30
0.0
 10
185.8853326362894
 20
14.32548143465459
 30
0.0
 10
185.9353959057208
 20
14.56091929252029
 30
0.0
 10
186.3583799621716
 20
14.95322989344605
 30
0.0
 10
186.127675427354
 20
14.93655307029065
 30
0.0
 10
186.004968585934
 20
14.9426951894877
 30
0.0
 10
185.8325483095662
 20
14.93312822699573
 30
0.0
 10
185.7213224694449
 20
14.95448818489664
 30
0.0
 10
185.6025779627448
 20
14.9213626535742
 30
0.0
 10
185.6183169706686
 20
15.00203900606883
 30
0.0
 10
185.6178550933762
 20
15.04645414290855
 30
0.0
 10
185.6027881889931
 20
15.12967081778536
 30
0.0
 10
185.7372380935443
 20
15.09062651983886
 30
0.0
 10
185.8619755545747
 20
15.11739729328424
 30
0.0
 10
186.062875523728
 20
15.10063949044055
 30
0.0
 10
186.1921540949353
 20
15.12204225913007
 30
0.0
 10
186.3328419928294
 20
15.08868778853423
 30
0.0
 10
186.2980927452615
 20
15.22651875785069
 30
0.0
 10
186.3222185666713
 20
15.34963257349479
 30
0.0
 10
186.2967086182392
 20
15.47024055670333
 30
0.0
 10
186.3333251146685
 20
15.60539865141491
 30
0.0
 10
186.2211417027769
 20
15.58094545781887
 30
0.0
 10
186.1280356457136
 20
15.59307749842018
 30
0.0
 10
186.0191547579819
 20
15.58957630069989
 30
0.0
 10
185.9569697640964
 20
15.58981755951599
 30
0.0
 10
185.9375369557246
 20
15.5898929512414
 30
0.0
 11
187.1521871691833
 21
14.93980288195949
 31
0.0
 11
187.0923621563982
 21
14.93980288195949
 31
0.0
 11
186.949702510526
 21
14.93980288195949
 31
0.0
 11
186.7794313202913
 21
14.93980288195949
 31
0.0
 11
186.6367716744191
 21
14.93980288195949
 31
0.0
 11
186.576946661634
 21
14.93980288195949
 31
0.0
 11
186.7679960754842
 21
14.63705127966891
 31
0.0
 11
186.994127278563
 21
14.36051890576686
 31
0.0
 11
187.2244526173371
 21
14.1506125349346
 31
0.0
 11
187.1521596330704
 21
14.08466403668715
 31
0.0
 11
187.0879364402643
 21
14.0087605905256
 31
0.0
 11
186.7732818215558
 21
14.35891458349365
 31
0.0
 11
186.4886640249976
 21
14.811382951436
 31
0.0
 11
186.4886640249976
 21
14.73370259137312
 31
0.0
 11
186.4886640249976
 21
14.53950169121591
 31
0.0
 11
186.4886640249976
 21
14.28704052101154
 31
0.0
 11
186.4886640249976
 21
14.03457935080718
 31
0.0
 11
186.4886640249976
 21
13.84037845064997
 31
0.0
 11
186.4886640249976
 21
13.76269809058709
 31
0.0
 11
186.4428901295605
 21
13.76269809058709
 31
0.0
 11
186.3578814666058
 21
13.76269809058709
 31
0.0
 11
186.3121075711687
 21
13.76269809058709
 31
0.0
 11
186.3121075711687
 21
13.83859234982737
 31
0.0
 11
186.3121075711687
 21
14.02832799792808
 31
0.0
 11
186.3121075711687
 21
14.274984340459
 31
0.0
 11
186.3121075711687
 21
14.52164068298992
 31
0.0
 11
186.3121075711687
 21
14.71137633109063
 31
0.0
 11
186.3121075711687
 21
14.78727059033091
 31
0.0
 11
185.9987626399266
 21
14.31440946197691
 31
0.0
 11
185.6352328662148
 21
13.9579517710938
 31
0.0
 11
185.5773927461627
 21
14.03253450545024
 31
0.0
 11
185.5094852305341
 21
14.0970432293924
 31
0.0
 11
185.7750721898319
 21
14.31672219795887
 31
0.0
 11
186.0233764972061
 21
14.60953395971696
 31
0.0
 11
186.226498280526
 21
14.93980288195949
 31
0.0
 11
186.1627851652721
 21
14.93980288195949
 31
0.0
 11
186.0108538904359
 21
14.93980288195949
 31
0.0
 11
185.8295165624055
 21
14.93980288195949
 31
0.0
 11
185.6775852875693
 21
14.93980288195949
 31
0.0
 11
185.6138721723154
 21
14.93980288195949
 31
0.0
 11
185.6138721723154
 21
14.98350061600208
 31
0.0
 11
185.6138721723154
 21
15.06465355065261
 31
0.0
 11
185.6138721723154
 21
15.1083512846952
 31
0.0
 11
185.6864886537961
 21
15.1083512846952
 31
0.0
 11
185.8596510327118
 21
15.1083512846952
 31
0.0
 11
186.0663287107723
 21
15.1083512846952
 31
0.0
 11
186.239491089688
 21
15.1083512846952
 31
0.0
 11
186.3121075711687
 21
15.1083512846952
 31
0.0
 11
186.3121075711687
 21
15.18359217009304
 31
0.0
 11
186.3121075711687
 21
15.3491221179683
 31
0.0
 11
186.3121075711687
 21
15.51465206584355
 31
0.0
 11
186.3121075711687
 21
15.5898929512414
 31
0.0
 11
186.2535809125055
 21
15.5898929512414
 31
0.0
 11
186.1248222634467
 21
15.5898929512414
 31
0.0
 11
185.9960636143877
 21
15.5898929512414
 31
0.0
 11
185.9375369557246
 21
15.5898929512414
 31
0.0
  0
SPLINE
  5
AB
102
{ACAD_REACTORS
330
C8
102
}
330
48
100
AcDbEntity
  8
_U_30EC_U_30A4_U_30E4_U_30FC_1
  6
Continuous
 62
     2
100
AcDbSpline
210
0.0
220
0.0
230
1.0
 70
    11
 71
     3
 72
   124
 73
   120
 74
   118
 42
0.000000001
 43
0.0000000001
 44
0.00000001
 40
0.0
 40
0.0
 40
0.0
 40
0.0
 40
0.027818722962451
 40
0.1011590162384269
 40
0.2048470170590239
 40
0.3237088716559245
 40
0.4425707262522
 40
0.5462587270699547
 40
0.6195990203311798
 40
0.647417752257866
 40
0.6750060736115242
 40
0.7357003855242759
 40
0.7963946998054456
 40
0.8239830245571766
 40
0.854093381110286
 40
0.937339662940954
 40
1.063094687343235
 40
1.220731268638073
 40
1.399622220914748
 40
1.589140358637732
 40
1.778658496423898
 40
1.957549448940509
 40
2.115186030873159
 40
2.240941056914463
 40
2.324187341760532
 40
2.354297700109382
 40
2.38188602467189
 40
2.442580338710475
 40
2.503274652750497
 40
2.530862977314606
 40
2.560983949278559
 40
2.640393784452905
 40
2.752662861759128
 40
2.881361560118145
 40
3.010060258455192
 40
3.122329335705339
 40
3.201739170817953
 40
3.231860142753313
 40
3.264298024030368
 40
3.352343701778236
 40
3.482095226868753
 40
3.639650650173007
 40
3.811108022565459
 40
3.982565394927961
 40
4.140120818152536
 40
4.26987234314124
 40
4.357918020802299
 40
4.390355902043926
 40
4.423256253992496
 40
4.508104530073017
 40
4.624121560636785
 40
4.750528176031541
 40
4.866545206601988
 40
4.951393482691945
 40
4.984293834645347
 40
5.011450833242264
 40
5.071196230152053
 40
5.130941627057132
 40
5.1580986256488
 40
5.190998977601491
 40
5.275847253689316
 40
5.391864284256751
 40
5.518270899648296
 40
5.634287930209335
 40
5.719136206288009
 40
5.752036558235896
 40
5.782130946282924
 40
5.8627839062291
 40
5.979550131774972
 40
6.11798431664038
 40
6.263641154587931
 40
6.40207533941414
 40
6.51884156490794
 40
6.599494524815525
 40
6.629588912848763
 40
6.65440302822634
 40
6.713575149488107
 40
6.784199939329425
 40
6.843372060493528
 40
6.868186175802774
 40
6.896246243201869
 40
6.939586233758275
 40
6.967846564564903
 40
7.043584251089834
 40
7.153234334451687
 40
7.283231855734432
 40
7.420011856035455
 40
7.550009376579796
 40
7.659659458835192
 40
7.735397144417178
 40
7.76365747485135
 40
7.796409728011007
 40
7.880876065096281
 40
7.996370852465667
 40
8.122208446418561
 40
8.237703224799155
 40
8.32216956201085
 40
8.354921815205863
 40
8.382078813307645
 40
8.441824209206954
 40
8.501569605240109
 40
8.528726603485689
 40
8.561478856695738
 40
8.645945193877788
 40
8.7614399808653
 40
8.887277580764442
 40
9.002772362000963
 40
9.087238696661183
 40
9.119990949235637
 40
9.152428830613335
 40
9.240474508638547
 40
9.370226034149493
 40
9.527781457984371
 40
9.699238830981354
 40
9.870696203978538
 40
10.02825162781395
 40
10.15800315332557
 40
10.24604883135111
 40
10.27848670378514
 40
10.27848670378514
 40
10.27848670378514
 40
10.27848670378514
 10
195.3821827564383
 20
14.0141051738576
 30
0.0
 10
195.3914554737523
 20
14.01410498511277
 30
0.0
 10
195.4251744536861
 20
14.01410430876717
 30
0.0
 10
195.4934706812465
 20
14.01411807243307
 30
0.0
 10
195.592014171158
 20
14.01403224219548
 30
0.0
 10
195.7062066464812
 20
14.01441755612253
 30
0.0
 10
195.818589441707
 20
14.01300835897548
 30
0.0
 10
195.9214376600118
 20
14.01719117422245
 30
0.0
 10
195.9806839874849
 20
14.00823089251985
 30
0.0
 10
196.0371265937033
 20
14.02164434526064
 30
0.0
 10
196.0246255586954
 20
13.97087198613364
 30
0.0
 10
196.0329549635703
 20
13.9258932093907
 30
0.0
 10
196.024817084112
 20
13.88056752990491
 30
0.0
 10
196.0370529214457
 20
13.82931932408469
 30
0.0
 10
195.9747773490333
 20
13.84447955365279
 30
0.0
 10
195.9060513026868
 20
13.83359750710746
 30
0.0
 10
195.7782756749592
 20
13.83911304747975
 30
0.0
 10
195.6262984511643
 20
13.83700851253701
 30
0.0
 10
195.4502695972523
 20
13.83771002588476
 30
0.0
 10
195.2644431934287
 20
13.83745237531295
 30
0.0
 10
195.0786167437175
 20
13.83771005144606
 30
0.0
 10
194.9025880142168
 20
13.83700841847734
 30
0.0
 10
194.7506104154195
 20
13.83911332229992
 30
0.0
 10
194.6228357664554
 20
13.83359680767643
 30
0.0
 10
194.5541077836581
 20
13.84448077125945
 30
0.0
 10
194.4918349042883
 20
13.82931786684212
 30
0.0
 10
194.5040616290017
 20
13.88057510805175
 30
0.0
 10
194.4960004462597
 20
13.92582473272428
 30
0.0
 10
194.5040675809893
 20
13.97106357955326
 30
0.0
 10
194.4918238487083
 20
14.02234176909961
 30
0.0
 10
194.5525017120697
 20
14.00749577363138
 30
0.0
 10
194.6162810745736
 20
14.01756448170738
 30
0.0
 10
194.7277314353502
 20
14.01294644212002
 30
0.0
 10
194.8497533443824
 20
14.01413328905472
 30
0.0
 10
194.9719538137823
 20
14.01515863900638
 30
0.0
 10
195.0829794287392
 20
14.01092475623404
 30
0.0
 10
195.1476517413959
 20
14.02018584521742
 30
0.0
 10
195.2091162810501
 20
14.00604423049685
 30
0.0
 10
195.1930065601337
 20
14.07235527884519
 30
0.0
 10
195.2042980327358
 20
14.14447790121978
 30
0.0
 10
195.1987400822561
 20
14.27513760888288
 30
0.0
 10
195.200803506169
 20
14.42607323708242
 30
0.0
 10
195.2000167127295
 20
14.59335873107887
 30
0.0
 10
195.2007845215627
 20
14.76061110332303
 30
0.0
 10
195.1988038785628
 20
14.91163289269914
 30
0.0
 10
195.2041306156622
 20
15.04206069552995
 30
0.0
 10
195.1933101388424
 20
15.11465442605898
 30
0.0
 10
195.2090326429876
 20
15.18150469436797
 30
0.0
 10
195.143270813249
 20
15.16580512490822
 30
0.0
 10
195.0756367830763
 20
15.17609243083995
 30
0.0
 10
194.9615885293809
 20
15.1711378684712
 30
0.0
 10
194.8451242674902
 20
15.17414128030474
 30
0.0
 10
194.7306554121477
 20
15.16880303143387
 30
0.0
 10
194.6640324657812
 20
15.18001268074824
 30
0.0
 10
194.5990769715185
 20
15.1634913266501
 30
0.0
 10
194.6107989758708
 20
15.21473720477058
 30
0.0
 10
194.6032830189121
 20
15.25950333784091
 30
0.0
 10
194.6107989878835
 20
15.30426944897961
 30
0.0
 10
194.5990769505346
 20
15.35551536129741
 30
0.0
 10
194.66403263392
 20
15.33899381766816
 30
0.0
 10
194.7306533339822
 20
15.35020571373943
 30
0.0
 10
194.8451352858063
 20
15.34485436710665
 30
0.0
 10
194.9615454436962
 20
15.34791188771117
 30
0.0
 10
195.0757660174641
 20
15.34278499010708
 30
0.0
 10
195.1430150439226
 20
15.35345733355598
 30
0.0
 10
195.2083325941438
 20
15.33742082669077
 30
0.0
 10
195.1941391448552
 20
15.39949685750054
 30
0.0
 10
195.2036059462995
 20
15.46586761628763
 30
0.0
 10
195.1990269004085
 20
15.58239972741967
 30
0.0
 10
195.2007696555948
 20
15.71426685022377
 30
0.0
 10
195.1997551495392
 20
15.85615960150275
 30
0.0
 10
195.2017191344372
 20
15.98769050702582
 30
0.0
 10
195.1964668553851
 20
16.10524577283004
 30
0.0
 10
195.2073408763475
 20
16.16947789001587
 30
0.0
 10
195.1919536641853
 20
16.2310880254505
 30
0.0
 10
195.24075915378
 20
16.21702407382113
 30
0.0
 10
195.2853995564725
 20
16.21954742075316
 30
0.0
 10
195.3538643946742
 20
16.2151279740171
 30
0.0
 10
195.3959106169103
 20
16.20613025544036
 30
0.0
 10
195.4487544758775
 20
16.2141171486651
 30
0.0
 10
195.4207035002013
 20
16.17113917611671
 30
0.0
 10
195.3749142248595
 20
16.18259552043832
 30
0.0
 10
195.3869539073264
 20
16.12173520005133
 30
0.0
 10
195.3796086070641
 20
16.05769299468768
 30
0.0
 10
195.3831195826162
 20
15.94909368863907
 30
0.0
 10
195.3819806760173
 20
15.8249431914475
 30
0.0
 10
195.3819174780263
 20
15.69189719829876
 30
0.0
 10
195.3832872966868
 20
15.56797381249554
 30
0.0
 10
195.3791638801314
 20
15.45868337849338
 30
0.0
 10
195.3877763103564
 20
15.3960858009417
 30
0.0
 10
195.3746757454402
 20
15.33740133296365
 30
0.0
 10
195.4393884328198
 20
15.35362113810902
 30
0.0
 10
195.5060405953156
 20
15.34270260383311
 30
0.0
 10
195.6198779541102
 20
15.34793740173756
 30
0.0
 10
195.7357259122097
 20
15.34485547516913
 30
0.0
 10
195.849692426328
 20
15.35018259812512
 30
0.0
 10
195.9160341018099
 20
15.33904208166543
 30
0.0
 10
195.980718852548
 20
15.35546979593178
 30
0.0
 10
195.9689820772722
 20
15.3042592521005
 30
0.0
 10
195.976516806304
 20
15.25950334121
 30
0.0
 10
195.9689820992258
 20
15.21474739010026
 30
0.0
 10
195.9807188140736
 20
15.16353690871039
 30
0.0
 10
195.9160344075252
 20
15.17996427794219
 30
0.0
 10
195.8496886430824
 20
15.16882784447268
 30
0.0
 10
195.7357459487012
 20
15.17413115893119
 30
0.0
 10
195.6197995623054
 20
15.17114764593543
 30
0.0
 10
195.5062756882122
 20
15.17606892268392
 30
0.0
 10
195.4389231318804
 20
15.16585087513519
 30
0.0
 10
195.3734285122495
 20
15.18145996138814
 30
0.0
 10
195.3891713619218
 20
15.1146385182741
 30
0.0
 10
195.3783275998212
 20
15.04207057815877
 30
0.0
 10
195.3836581629792
 20
14.91162247614416
 30
0.0
 10
195.3817136151855
 20
14.76064558185226
 30
0.0
 10
195.3823133683215
 20
14.59322243934159
 30
0.0
 10
195.3821506559604
 20
14.42656176118373
 30
0.0
 10
195.3821895488136
 20
14.27360142921638
 30
0.0
 10
195.3821816413099
 20
14.14849178985707
 30
0.0
 10
195.3821828382745
 20
14.06507890991423
 30
0.0
 10
195.3821827716208
 20
14.02491778281979
 30
0.0
 10
195.3821827564383
 20
14.0141051738576
 30
0.0
 11
195.3821827564383
 21
14.0141051738576
 31
0.0
 11
195.4100014883675
 21
14.0141051738576
 31
0.0
 11
195.4833417816353
 21
14.0141051738576
 31
0.0
 11
195.5870297824622
 21
14.0141051738576
 31
0.0
 11
195.7058916370687
 21
14.0141051738576
 31
0.0
 11
195.8247534916751
 21
14.0141051738576
 31
0.0
 11
195.928441492502
 21
14.0141051738576
 31
0.0
 11
196.0017817857698
 21
14.0141051738576
 31
0.0
 11
196.029600517699
 21
14.0141051738576
 31
0.0
 11
196.029600517699
 21
13.98651684921172
 31
0.0
 11
196.029600517699
 21
13.9258225349908
 31
0.0
 11
196.029600517699
 21
13.86512822076988
 31
0.0
 11
196.029600517699
 21
13.837539896124
 31
0.0
 11
195.9994901593494
 21
13.837539896124
 31
0.0
 11
195.9162438745004
 21
13.837539896124
 31
0.0
 11
195.7904888484521
 21
13.837539896124
 31
0.0
 11
195.6328522665041
 21
13.837539896124
 31
0.0
 11
195.4539613139564
 21
13.837539896124
 31
0.0
 11
195.2644431761089
 21
13.837539896124
 31
0.0
 11
195.0749250382613
 21
13.837539896124
 31
0.0
 11
194.8960340857136
 21
13.837539896124
 31
0.0
 11
194.7383975037656
 21
13.837539896124
 31
0.0
 11
194.6126424777172
 21
13.837539896124
 31
0.0
 11
194.5293961928683
 21
13.837539896124
 31
0.0
 11
194.4992858345187
 21
13.837539896124
 31
0.0
 11
194.4992858345187
 21
13.86512822076988
 31
0.0
 11
194.4992858345187
 21
13.9258225349908
 31
0.0
 11
194.4992858345187
 21
13.98651684921172
 31
0.0
 11
194.4992858345187
 21
14.0141051738576
 31
0.0
 11
194.5294068064947
 21
14.0141051738576
 31
0.0
 11
194.608816641704
 21
14.0141051738576
 31
0.0
 11
194.721085719069
 21
14.0141051738576
 31
0.0
 11
194.8497844175118
 21
14.0141051738576
 31
0.0
 11
194.9784831159545
 21
14.0141051738576
 31
0.0
 11
195.0907521933195
 21
14.0141051738576
 31
0.0
 11
195.1701620285289
 21
14.0141051738576
 31
0.0
 11
195.2002830005048
 21
14.0141051738576
 31
0.0
 11
195.2002830005048
 21
14.04654305523838
 31
0.0
 11
195.2002830005048
 21
14.13458873327193
 31
0.0
 11
195.2002830005048
 21
14.26434025879504
 31
0.0
 11
195.2002830005048
 21
14.42189568264455
 31
0.0
 11
195.2002830005048
 21
14.59335305565724
 31
0.0
 11
195.2002830005048
 21
14.76481042866994
 31
0.0
 11
195.2002830005048
 21
14.92236585251944
 31
0.0
 11
195.2002830005048
 21
15.05211737804256
 31
0.0
 11
195.2002830005048
 21
15.14016305607611
 31
0.0
 11
195.2002830005048
 21
15.17260093745689
 31
0.0
 11
195.1673826485529
 21
15.17260093745689
 31
0.0
 11
195.0825343724662
 21
15.17260093745689
 31
0.0
 11
194.9665173418988
 21
15.17260093745689
 31
0.0
 11
194.8401107265044
 21
15.17260093745689
 31
0.0
 11
194.724093695937
 21
15.17260093745689
 31
0.0
 11
194.6392454198503
 21
15.17260093745689
 31
0.0
 11
194.6063450678984
 21
15.17260093745689
 31
0.0
 11
194.6063450678984
 21
15.19975793614802
 31
0.0
 11
194.6063450678984
 21
15.2595033332685
 31
0.0
 11
194.6063450678984
 21
15.31924873038897
 31
0.0
 11
194.6063450678984
 21
15.3464057290801
 31
0.0
 11
194.6392454198504
 21
15.3464057290801
 31
0.0
 11
194.724093695937
 21
15.3464057290801
 31
0.0
 11
194.8401107265044
 21
15.3464057290801
 31
0.0
 11
194.9665173418988
 21
15.3464057290801
 31
0.0
 11
195.0825343724662
 21
15.3464057290801
 31
0.0
 11
195.1673826485529
 21
15.3464057290801
 31
0.0
 11
195.2002830005048
 21
15.3464057290801
 31
0.0
 11
195.2002830005048
 21
15.3765001173137
 31
0.0
 11
195.2002830005048
 21
15.45715307777974
 31
0.0
 11
195.2002830005048
 21
15.5739193041261
 31
0.0
 11
195.2002830005048
 21
15.71235349000064
 31
0.0
 11
195.2002830005048
 21
15.85801032905125
 31
0.0
 11
195.2002830005048
 21
15.9964445149258
 31
0.0
 11
195.2002830005048
 21
16.11321074127216
 31
0.0
 11
195.2002830005048
 21
16.1938637017382
 31
0.0
 11
195.2002830005048
 21
16.2239580899718
 31
0.0
 11
195.2250405288618
 21
16.22228324219444
 31
0.0
 11
195.2840777118669
 21
16.21828937441767
 31
0.0
 11
195.3545414464214
 21
16.21352249997442
 31
0.0
 11
195.4135786294265
 21
16.20952863219765
 31
0.0
 11
195.4383361577835
 21
16.20785378442029
 31
0.0
 11
195.423306722403
 21
16.18415814206508
 31
0.0
 11
195.3821827564383
 21
16.17047697887399
 31
0.0
 11
195.3821827564383
 21
16.14221664794827
 31
0.0
 11
195.3821827564383
 21
16.06647896106735
 31
0.0
 11
195.3821827564383
 21
15.95682887707557
 31
0.0
 11
195.3821827564383
 21
15.82683135481727
 31
0.0
 11
195.3821827564383
 21
15.69005135313681
 31
0.0
 11
195.3821827564383
 21
15.56005383087852
 31
0.0
 11
195.3821827564383
 21
15.45040374688674
 31
0.0
 11
195.3821827564383
 21
15.37466606000582
 31
0.0
 11
195.3821827564383
 21
15.3464057290801
 31
0.0
 11
195.4149350096115
 21
15.3464057290801
 31
0.0
 11
195.4994013467422
 21
15.3464057290801
 31
0.0
 11
195.6148961342476
 21
15.3464057290801
 31
0.0
 11
195.7407337385445
 21
15.3464057290801
 31
0.0
 11
195.8562285260498
 21
15.3464057290801
 31
0.0
 11
195.9406948631806
 21
15.3464057290801
 31
0.0
 11
195.9734471163538
 21
15.3464057290801
 31
0.0
 11
195.9734471163538
 21
15.31924873038897
 31
0.0
 11
195.9734471163538
 21
15.2595033332685
 31
0.0
 11
195.9734471163538
 21
15.19975793614802
 31
0.0
 11
195.9734471163538
 21
15.17260093745689
 31
0.0
 11
195.9406948631806
 21
15.17260093745689
 31
0.0
 11
195.8562285260498
 21
15.17260093745689
 31
0.0
 11
195.7407337385445
 21
15.17260093745689
 31
0.0
 11
195.6148961342476
 21
15.17260093745689
 31
0.0
 11
195.4994013467422
 21
15.17260093745689
 31
0.0
 11
195.4149350096114
 21
15.17260093745689
 31
0.0
 11
195.3821827564383
 21
15.17260093745689
 31
0.0
 11
195.3821827564383
 21
15.14016305607611
 31
0.0
 11
195.3821827564383
 21
15.05211737804257
 31
0.0
 11
195.3821827564383
 21
14.92236585251944
 31
0.0
 11
195.3821827564383
 21
14.76481042866994
 31
0.0
 11
195.3821827564383
 21
14.59335305565724
 31
0.0
 11
195.3821827564383
 21
14.42189568264455
 31
0.0
 11
195.3821827564383
 21
14.26434025879505
 31
0.0
 11
195.3821827564383
 21
14.13458873327193
 31
0.0
 11
195.3821827564383
 21
14.04654305523838
 31
0.0
 11
195.3821827564383
 21
14.0141051738576
 31
0.0
  0
SPLINE
  5
AC
102
{ACAD_REACTORS
330
C9
102
}
330
48
100
AcDbEntity
  8
_U_30EC_U_30A4_U_30E4_U_30FC_1
  6
Continuous
 62
     2
100
AcDbSpline
210
0.0
220
0.0
230
1.0
 70
    11
 71
     3
 72
   131
 73
   127
 74
   125
 42
0.000000001
 43
0.0000000001
 44
0.00000001
 40
0.0
 40
0.0
 40
0.0
 40
0.0
 40
0.0195577029826478
 40
0.0426490537461538
 40
0.2863607575856948
 40
0.5344948436189688
 40
0.7842238845573528
 40
0.8737315789467653
 40
0.980383281031315
 40
1.092842274517064
 40
1.199761146656829
 40
1.289788768186547
 40
1.351573580786255
 40
1.370727117561479
 40
1.416400936017887
 40
1.470914848356024
 40
1.516588666791812
 40
1.53574220355289
 40
1.634216592293238
 40
1.760283341175086
 40
1.89796668668216
 40
2.031216387368987
 40
2.049689751137983
 40
2.101115601646919
 40
2.17950257774004
 40
2.27885931831416
 40
2.393194462258821
 40
2.516516648383938
 40
2.64283451540607
 40
2.766156701983579
 40
2.880491846754696
 40
2.979848588358742
 40
3.058235565443921
 40
3.109661416669077
 40
3.128134780704254
 40
3.146783742386571
 40
3.191254343315432
 40
3.244332157316091
 40
3.288802758225994
 40
3.307451719895237
 40
3.327717853844849
 40
3.383747753580211
 40
3.468388665924605
 40
3.574487837698914
 40
3.694892515729025
 40
3.822449946852165
 40
3.95000737792056
 40
4.070412055800654
 40
4.176511227368211
 40
4.261152139501661
 40
4.317182039076854
 40
4.337448172964775
 40
4.620011002696391
 40
4.885096638397672
 40
4.945373043518505
 40
5.014107710488806
 40
5.070481727652156
 40
5.319246955636694
 40
5.584812164506176
 40
5.859000912057031
 40
6.133746937542206
 40
6.401732212968994
 40
6.420736683995585
 40
6.472845717451236
 40
6.550702743894163
 40
6.646951193874372
 40
6.754234497930696
 40
6.865196086587474
 40
6.972479390357933
 40
7.068727839772095
 40
7.146584865451103
 40
7.198693898189333
 40
7.217698368905474
 40
7.23495040163095
 40
7.276089864269993
 40
7.325191803516098
 40
7.366331266090484
 40
7.383583298769834
 40
7.402779163492211
 40
7.453386443254642
 40
7.524934666445644
 40
7.606953361405983
 40
7.688972056429135
 40
7.760520279784386
 40
7.811127559734627
 40
7.830323424546249
 40
7.847844055299879
 40
7.894799345666927
 40
7.962779392744622
 40
8.04337429356068
 40
8.128174145149597
 40
8.208769044817409
 40
8.27674909037712
 40
8.323704379669685
 40
8.34122501005642
 40
8.358497614800568
 40
8.401679126686773
 40
8.45781509218583
 40
8.513951057728235
 40
8.557132569708191
 40
8.574405174505234
 40
8.602340668616588
 40
8.643455660540132
 40
8.663225271966803
 40
8.715345156564455
 40
8.789031889628793
 40
8.873502045520532
 40
8.957972194324164
 40
9.031658925568061
 40
9.083778811234753
 40
9.103548423003218
 40
9.119550083123755
 40
9.160817522380057
 40
9.217244429110423
 40
9.278724491644908
 40
9.335151398295693
 40
9.376418837357988
 40
9.392420497300776
 40
9.401196302734997
 40
9.417494229384475
 40
9.42627002774975
 40
9.440875075477779
 40
9.47570249699895
 40
9.517270709866104
 40
9.552098131994263
 40
9.566703169884468
 40
9.566703169884468
 40
9.566703169884468
 40
9.566703169884468
 10
194.6170254148479
 20
15.6701587151103
 30
0.0
 10
194.613434509337
 20
15.66453690702159
 30
0.0
 10
194.6056039123625
 20
15.65227754419111
 30
0.0
 10
194.5129968974543
 20
15.61601916040991
 30
0.0
 10
194.4887622233249
 20
15.40148444212709
 30
0.0
 10
194.3858709845938
 20
15.2219728450971
 30
0.0
 10
194.1220492364305
 20
15.03615573798146
 30
0.0
 10
194.2845471569179
 20
14.95959336566082
 30
0.0
 10
194.3607225760839
 20
14.89856693195444
 30
0.0
 10
194.4492171072758
 20
14.8351580454476
 30
0.0
 10
194.538993023311
 20
14.77525634219561
 30
0.0
 10
194.5883817636046
 20
14.72102154849206
 30
0.0
 10
194.6745708157382
 20
14.69286240541831
 30
0.0
 10
194.6411260674229
 20
14.65713309652807
 30
0.0
 10
194.6214671166311
 20
14.62550387991903
 30
0.0
 10
194.5919888217882
 20
14.58475872796067
 30
0.0
 10
194.5688989446031
 20
14.55504663489641
 30
0.0
 10
194.5380205968357
 20
14.50211422668492
 30
0.0
 10
194.472919336574
 20
14.627403349389
 30
0.0
 10
194.3796000122415
 20
14.68213900233934
 30
0.0
 10
194.2950636285138
 20
14.73916423939344
 30
0.0
 10
194.1722498125743
 20
14.89675287427525
 30
0.0
 10
194.1764450847301
 20
14.82035806766838
 30
0.0
 10
194.1751478652677
 20
14.77361280161298
 30
0.0
 10
194.1758126448076
 20
14.69584785812602
 30
0.0
 10
194.1755549986956
 20
14.59902068324423
 30
0.0
 10
194.1756431239922
 20
14.48650279078809
 30
0.0
 10
194.1756077302282
 20
14.365240859457
 30
0.0
 10
194.1756511758278
 20
14.24086897858961
 30
0.0
 10
194.1755199942405
 20
14.11967683631335
 30
0.0
 10
194.1759477562046
 20
14.00691148919742
 30
0.0
 10
194.174667820231
 20
13.91082913768743
 30
0.0
 10
194.1779759851043
 20
13.83113826468698
 30
0.0
 10
194.1715197740087
 20
13.78815175788783
 30
0.0
 10
194.1806208705555
 20
13.7495543237204
 30
0.0
 10
194.1447910339935
 20
13.75810887724069
 30
0.0
 10
194.1115223815252
 20
13.75342519985444
 30
0.0
 10
194.0604562576041
 20
13.75351298759782
 30
0.0
 10
194.0269723972812
 20
13.75794430283818
 30
0.0
 10
193.9907585408754
 20
13.74960793842508
 30
0.0
 10
194.0009782568666
 20
13.79145277179282
 30
0.0
 10
193.9936487887773
 20
13.83778560820172
 30
0.0
 10
193.9973633136102
 20
13.92374831106013
 30
0.0
 10
193.9959480554897
 20
14.02605142704848
 30
0.0
 10
193.9964105554638
 20
14.14453223931511
 30
0.0
 10
193.996277368623
 20
14.26957683153355
 30
0.0
 10
193.9963015910045
 20
14.39475828107049
 30
0.0
 10
193.9963354925551
 20
14.51286645379058
 30
0.0
 10
193.9962060293132
 20
14.61628748709515
 30
0.0
 10
193.9965507549081
 20
14.69932036153667
 30
0.0
 10
193.9958698278689
 20
14.75143368521244
 30
0.0
 10
193.9994586600625
 20
14.87912907821362
 30
0.0
 10
193.7826171386436
 20
14.5804871681962
 30
0.0
 10
193.602135492195
 20
14.35263981511512
 30
0.0
 10
193.5490322295611
 20
14.49373443289813
 30
0.0
 10
193.5200429133149
 20
14.54325767560941
 30
0.0
 10
193.419664806282
 20
14.64641779790097
 30
0.0
 10
193.7405127723261
 20
14.72695035023775
 30
0.0
 10
193.8689897005429
 20
14.91066283036431
 30
0.0
 10
194.0906454325359
 20
15.1193199577176
 30
0.0
 10
194.1770224894067
 20
15.29339211228339
 30
0.0
 10
194.4549394229076
 20
15.56967051342508
 30
0.0
 10
194.3346247839284
 20
15.56534559551108
 30
0.0
 10
194.2863197351348
 20
15.56614856202548
 30
0.0
 10
194.2102377454905
 20
15.56574582146579
 30
0.0
 10
194.116701000975
 20
15.56590275611604
 30
0.0
 10
194.0117594788557
 20
15.56582502576219
 30
0.0
 10
193.9033887738717
 20
15.56595464378549
 30
0.0
 10
193.7981454235897
 20
15.56554393490687
 30
0.0
 10
193.7056237819412
 20
15.56682073671586
 30
0.0
 10
193.6268130800707
 20
15.56340766534845
 30
0.0
 10
193.5839674565379
 20
15.57023350036315
 30
0.0
 10
193.5449499586516
 20
15.56065064201118
 30
0.0
 10
193.5526365271863
 20
15.59420779565537
 30
0.0
 10
193.5485464404312
 20
15.62523550322227
 30
0.0
 10
193.5485531368814
 20
15.67236529270894
 30
0.0
 10
193.5526239724912
 20
15.70340941646773
 30
0.0
 10
193.5449495574582
 20
15.73701861635895
 30
0.0
 10
193.5834819405495
 20
15.72748410420866
 30
0.0
 10
193.624122801448
 20
15.73397435498065
 30
0.0
 10
193.6951471850463
 20
15.73100150650248
 30
0.0
 10
193.7729318149633
 20
15.73174761399151
 30
0.0
 10
193.8507292246474
 20
15.73247814044519
 30
0.0
 10
193.9217232089907
 20
15.72954235514154
 30
0.0
 10
193.962427979182
 20
15.73595468772946
 30
0.0
 10
194.000985348991
 20
15.72650524175998
 30
0.0
 10
193.9927342754927
 20
15.76264692158778
 30
0.0
 10
193.9982346669358
 20
15.80129837613221
 30
0.0
 10
193.9955754206163
 20
15.86913528561834
 30
0.0
 10
193.9965815471533
 20
15.94591641538736
 30
0.0
 10
193.9960178018318
 20
16.02849393582754
 30
0.0
 10
193.9970714526594
 20
16.10517329229877
 30
0.0
 10
193.9942675863129
 20
16.17331990776698
 30
0.0
 10
194.0000702721304
 20
16.21132399809347
 30
0.0
 10
193.9915654551158
 20
16.24758448077646
 30
0.0
 10
194.0255610233125
 20
16.23755723771852
 30
0.0
 10
194.05945756831
 20
16.24073266813706
 30
0.0
 10
194.1126669060346
 20
16.23508965640608
 30
0.0
 10
194.1660768574483
 20
16.23434774436424
 30
0.0
 10
194.199591464949
 20
16.22819223482978
 30
0.0
 10
194.2388086183039
 20
16.2334602977359
 30
0.0
 10
194.2120263698491
 20
16.19253380793489
 30
0.0
 10
194.1708111001724
 20
16.20371204538108
 30
0.0
 10
194.1782641540874
 20
16.15867056192122
 30
0.0
 10
194.1742227952184
 20
16.11412278028141
 30
0.0
 10
194.1761714049641
 20
16.04223572621699
 30
0.0
 10
194.1752364849757
 20
15.96168630588766
 30
0.0
 10
194.1765107190031
 20
15.8817399540499
 30
0.0
 10
194.1732043793863
 20
15.80841837083176
 30
0.0
 10
194.1802106179962
 20
15.76688643002563
 30
0.0
 10
194.1701440380125
 20
15.72752418568107
 30
0.0
 10
194.2029814803921
 20
15.73468063430975
 30
0.0
 10
194.236457729648
 20
15.73027243137938
 30
0.0
 10
194.2915053476019
 20
15.73217943347891
 30
0.0
 10
194.3489502595314
 20
15.73185366407282
 30
0.0
 10
194.4023026248309
 20
15.73106308733075
 30
0.0
 10
194.4398540896639
 20
15.73313959118069
 30
0.0
 10
194.4623172523236
 20
15.73022338167102
 30
0.0
 10
194.4751678073731
 20
15.73572552644051
 30
0.0
 10
194.4858255685889
 20
15.73801118197785
 30
0.0
 10
194.4986635650143
 20
15.74494972588049
 30
0.0
 10
194.514599103307
 20
15.72853046313669
 30
0.0
 10
194.5410623920891
 20
15.71709122319447
 30
0.0
 10
194.5726805253757
 20
15.69644687835191
 30
0.0
 10
194.5987255892152
 20
15.68116869628296
 30
0.0
 10
194.6128517723972
 20
15.67266976323186
 30
0.0
 10
194.6170254148479
 20
15.6701587151103
 30
0.0
 11
194.6170254148479
 21
15.6701587151103
 31
0.0
 11
194.6049990002243
 21
15.65473571164186
 31
0.0
 11
194.5848961795565
 21
15.64337406233921
 31
0.0
 11
194.4778986355813
 21
15.4244062023116
 31
0.0
 11
194.3477039934324
 21
15.21317201512161
 31
0.0
 11
194.1996540366071
 21
15.0120605902748
 31
0.0
 11
194.2734958253735
 21
14.96147384935381
 31
0.0
 11
194.36056643118
 21
14.89988411653741
 31
0.0
 11
194.4518003750404
 21
14.83413160594427
 31
0.0
 11
194.5381321779687
 21
14.77105653169305
 31
0.0
 11
194.6104963609787
 21
14.7174991079024
 31
0.0
 11
194.6598274450843
 21
14.680299548691
 31
0.0
 11
194.6486940702213
 21
14.6647141086949
 31
0.0
 11
194.6221452532403
 21
14.6275488287042
 31
0.0
 11
194.5904579555533
 21
14.5831902687153
 31
0.0
 11
194.5639091385723
 21
14.5460249887246
 31
0.0
 11
194.5527757637093
 21
14.5304395487285
 31
0.0
 11
194.4807013362947
 21
14.59754008690615
 31
0.0
 11
194.385285698538
 21
14.67993354174669
 31
0.0
 11
194.279326415217
 21
14.76785017366917
 31
0.0
 11
194.175621051109
 21
14.85152024309269
 31
0.0
 11
194.175621051109
 21
14.83304687900865
 31
0.0
 11
194.175621051109
 21
14.78162102763957
 31
0.0
 11
194.175621051109
 21
14.70323405031
 31
0.0
 11
194.175621051109
 21
14.6038773083445
 31
0.0
 11
194.175621051109
 21
14.48954216306761
 31
0.0
 11
194.175621051109
 21
14.36621997580389
 31
0.0
 11
194.175621051109
 21
14.2399021078779
 31
0.0
 11
194.175621051109
 21
14.11657992061418
 31
0.0
 11
194.175621051109
 21
14.00224477533729
 31
0.0
 11
194.175621051109
 21
13.90288803337179
 31
0.0
 11
194.175621051109
 21
13.82450105604222
 31
0.0
 11
194.175621051109
 21
13.77307520467314
 31
0.0
 11
194.175621051109
 21
13.7546018405891
 31
0.0
 11
194.1569720893626
 21
13.7546018405891
 31
0.0
 11
194.1125014882749
 21
13.7546018405891
 31
0.0
 11
194.0594236740736
 21
13.7546018405891
 31
0.0
 11
194.0149530729859
 21
13.7546018405891
 31
0.0
 11
193.9963041112395
 21
13.7546018405891
 31
0.0
 11
193.9963041112395
 21
13.77486797460217
 31
0.0
 11
193.9963041112395
 21
13.83089787452065
 31
0.0
 11
193.9963041112395
 21
13.91553878716346
 31
0.0
 11
193.9963041112395
 21
14.02163795934952
 31
0.0
 11
193.9963041112395
 21
14.14204263789775
 31
0.0
 11
193.9963041112395
 21
14.26960006962705
 31
0.0
 11
193.9963041112395
 21
14.39715750135636
 31
0.0
 11
193.9963041112395
 21
14.51756217990458
 31
0.0
 11
193.9963041112395
 21
14.62366135209064
 31
0.0
 11
193.9963041112395
 21
14.70830226473345
 31
0.0
 11
193.9963041112395
 21
14.76433216465193
 31
0.0
 11
193.9963041112395
 21
14.784598298665
 31
0.0
 11
193.7883272849481
 21
14.59331998274057
 31
0.0
 11
193.5763486358425
 21
14.43414885430809
 31
0.0
 11
193.5495629014482
 21
14.48814671952095
 31
0.0
 11
193.5138765415024
 21
14.54689140572025
 31
0.0
 11
193.4799697494124
 21
14.59192871537969
 31
0.0
 11
193.6830287742319
 21
14.73563387201049
 31
0.0
 11
193.881853195826
 21
14.91168423529985
 31
0.0
 11
194.0677041444178
 21
15.11327514524947
 31
0.0
 11
194.2318427502303
 21
15.33360194186105
 31
0.0
 11
194.3655301434864
 21
15.5658599651363
 31
0.0
 11
194.3465256724482
 21
15.5658599651363
 31
0.0
 11
194.2944166389562
 21
15.5658599651363
 31
0.0
 11
194.2165596124447
 21
15.5658599651363
 31
0.0
 11
194.1203111623478
 21
15.5658599651363
 31
0.0
 11
194.0130278580997
 21
15.5658599651363
 31
0.0
 11
193.9020662691345
 21
15.5658599651363
 31
0.0
 11
193.7947829648864
 21
15.5658599651363
 31
0.0
 11
193.6985345147895
 21
15.5658599651363
 31
0.0
 11
193.620677488278
 21
15.5658599651363
 31
0.0
 11
193.568568454786
 21
15.5658599651363
 31
0.0
 11
193.5495639837478
 21
15.5658599651363
 31
0.0
 11
193.5495639837478
 21
15.58311199790976
 31
0.0
 11
193.5495639837478
 21
15.62425146067726
 31
0.0
 11
193.5495639837478
 21
15.67335340010943
 31
0.0
 11
193.5495639837478
 21
15.71449286287693
 31
0.0
 11
193.5495639837478
 21
15.73174489565039
 31
0.0
 11
193.5687598486009
 21
15.73174489565039
 31
0.0
 11
193.6193671286684
 21
15.73174489565039
 31
0.0
 11
193.690915352212
 21
15.73174489565039
 31
0.0
 11
193.7729340474937
 21
15.73174489565039
 31
0.0
 11
193.8549527427753
 21
15.73174489565039
 31
0.0
 11
193.9265009663189
 21
15.73174489565039
 31
0.0
 11
193.9771082463864
 21
15.73174489565039
 31
0.0
 11
193.9963041112395
 21
15.73174489565039
 31
0.0
 11
193.9963041112395
 21
15.74926552655212
 31
0.0
 11
193.9963041112395
 21
15.79622081736876
 31
0.0
 11
193.9963041112395
 21
15.86420086526749
 31
0.0
 11
193.9963041112395
 21
15.94479576741545
 31
0.0
 11
193.9963041112395
 21
16.02959562097984
 31
0.0
 11
193.9963041112395
 21
16.11019052312781
 31
0.0
 11
193.9963041112395
 21
16.17817057102653
 31
0.0
 11
193.9963041112395
 21
16.22512586184317
 31
0.0
 11
193.9963041112395
 21
16.2426464927449
 31
0.0
 11
194.0135484112111
 21
16.24165806167519
 31
0.0
 11
194.0566591611401
 21
16.23918698400091
 31
0.0
 11
194.1127031360477
 21
16.23597458302434
 31
0.0
 11
194.1687471109553
 21
16.23276218204778
 31
0.0
 11
194.2118578608843
 21
16.2302911043735
 31
0.0
 11
194.2291021608559
 21
16.22930267330379
 31
0.0
 11
194.2143774674851
 21
16.20556293372639
 31
0.0
 11
194.175621051109
 21
16.1918376733131
 31
0.0
 11
194.175621051109
 21
16.1720680617729
 31
0.0
 11
194.175621051109
 21
16.1199481768033
 31
0.0
 11
194.175621051109
 21
16.04626144288076
 31
0.0
 11
194.175621051109
 21
15.96179128448174
 31
0.0
 11
194.175621051109
 21
15.87732112608273
 31
0.0
 11
194.175621051109
 21
15.80363439216019
 31
0.0
 11
194.175621051109
 21
15.75151450719058
 31
0.0
 11
194.175621051109
 21
15.73174489565039
 31
0.0
 11
194.1916227112935
 21
15.73174489565039
 31
0.0
 11
194.232890150717
 21
15.73174489565039
 31
0.0
 11
194.2893170576837
 21
15.73174489565039
 31
0.0
 11
194.3507971204981
 21
15.73174489565039
 31
0.0
 11
194.4072240274648
 21
15.73174489565039
 31
0.0
 11
194.4484914668882
 21
15.73174489565039
 31
0.0
 11
194.4644931270728
 21
15.73174489565039
 31
0.0
 11
194.4728206422924
 21
15.73451387455915
 31
0.0
 11
194.4882860277004
 21
15.73965626396114
 31
0.0
 11
194.49661354292
 21
15.7424252428699
 31
0.0
 11
194.5091363776005
 21
15.7349095239829
 31
0.0
 11
194.5389985218386
 21
15.71698742509852
 31
0.0
 11
194.5746404359293
 21
15.69559653288168
 31
0.0
 11
194.6045025801674
 21
15.6776744339973
 31
0.0
 11
194.6170254148479
 21
15.6701587151103
 31
0.0
  0
SPLINE
  5
AD
102
{ACAD_REACTORS
330
CA
102
}
330
48
100
AcDbEntity
  8
_U_30EC_U_30A4_U_30E4_U_30FC_1
  6
Continuous
 62
     2
100
AcDbSpline
210
0.0
220
0.0
230
1.0
 70
    11
 71
     3
 72
    91
 73
    87
 74
    85
 42
0.000000001
 43
0.0000000001
 44
0.00000001
 40
0.0
 40
0.0
 40
0.0
 40
0.0
 40
0.0267532254356684
 40
0.0856103386464049
 40
0.144467452199655
 40
0.1712206856618426
 40
0.2039416005642447
 40
0.2955601971652395
 40
0.4362601844616829
 40
0.6162252844507161
 40
0.8256392189704609
 40
1.054685709844402
 40
1.293548478893522
 40
1.532411247938294
 40
1.761457738799559
 40
1.970871673298528
 40
2.150836773256724
 40
2.291536760495585
 40
2.383155356836691
 40
2.415876284101311
 40
2.442629517487952
 40
2.501486630949082
 40
2.560343744424226
 40
2.587096977826497
 40
2.617068194440924
 40
2.699247336756065
 40
2.822032643466378
 40
2.973822353257908
 40
3.14301470482335
 40
3.318007936879929
 40
3.487200288186762
 40
3.638989997548243
 40
3.761775303794741
 40
3.843954445753076
 40
3.873925662229772
 40
3.890812773500483
 40
3.907699884771665
 40
3.937960767857259
 40
3.980983618142285
 40
4.199085915228436
 40
4.439444339237236
 40
4.677588241260865
 40
5.05069831783775
 40
5.448212454763136
 40
5.855291218044661
 40
6.138575438885331
 40
6.417434507584179
 40
6.444551104393864
 40
6.504207617363166
 40
6.563864130314492
 40
6.590980727104086
 40
6.84860946038148
 40
7.109611990668443
 40
7.352910904446103
 40
7.557830220705462
 40
7.587518925913384
 40
7.652834077375813
 40
7.718149228845758
 40
7.747837934062066
 40
7.854880190301053
 40
7.976511257403584
 40
8.369487896592386
 40
8.757514959223679
 40
9.126072419331141
 40
9.460639380392204
 40
9.746695593035945
 40
9.777569943118735
 40
9.80705032093185
 40
9.83037733612899
 40
9.88600329543608
 40
9.952395569430013
 40
10.00802152870638
 40
10.03134854388231
 40
10.21356951009602
 40
10.42203479292884
 40
10.66154556731078
 40
10.91693789564319
 40
11.15832906556577
 40
11.18982674596635
 40
11.27286608520419
 40
11.39026653033361
 40
11.52484752840897
 40
11.65942852648459
 40
11.77682897161495
 40
11.85986831085694
 40
11.8913659823044
 40
11.8913659823044
 40
11.8913659823044
 40
11.8913659823044
 10
190.7027885008196
 20
14.70699600701769
 30
0.0
 10
190.7028237765288
 20
14.71587847311982
 30
0.0
 10
190.7029366710797
 20
14.74430237047343
 30
0.0
 10
190.7012984568488
 20
14.79409639169799
 30
0.0
 10
190.7069750292911
 20
14.8365756447815
 30
0.0
 10
190.6956928731706
 20
14.88730154856843
 30
0.0
 10
190.7632296979031
 20
14.87012900740105
 30
0.0
 10
190.83880292107
 20
14.88290227165991
 30
0.0
 10
190.9828357056
 20
14.87629729457378
 30
0.0
 10
191.1569419185427
 20
14.87888462206462
 30
0.0
 10
191.3639599611003
 20
14.87800591955549
 30
0.0
 10
191.5894688172378
 20
14.87828207920023
 30
0.0
 10
191.8251162293406
 20
14.87818339658658
 30
0.0
 10
192.0607640531348
 20
14.87828184412763
 30
0.0
 10
192.2862717580626
 20
14.87800678190785
 30
0.0
 10
192.4932934632805
 20
14.87888186270731
 30
0.0
 10
192.6673888915288
 20
14.87630522678442
 30
0.0
 10
192.8114492071986
 20
14.8828829044921
 30
0.0
 10
192.8869691915293
 20
14.870162434056
 30
0.0
 10
192.954577603703
 20
14.88726400191683
 30
0.0
 10
192.9430840140676
 20
14.83674785802936
 30
0.0
 10
192.9505104581733
 20
14.79253252226498
 30
0.0
 10
192.9428838927986
 20
14.74867966503606
 30
0.0
 10
192.9546489459424
 20
14.69878374479324
 30
0.0
 10
192.8930788491983
 20
14.71393227712509
 30
0.0
 10
192.8256791738672
 20
14.7031066535067
 30
0.0
 10
192.7013004056221
 20
14.70852031626233
 30
0.0
 10
192.555442823657
 20
14.70649205390782
 30
0.0
 10
192.3893576440085
 20
14.70715777578384
 30
0.0
 10
192.2188412621724
 20
14.70689643521239
 30
0.0
 10
192.0519790855388
 20
14.70721553391091
 30
0.0
 10
191.9087346827105
 20
14.70635302590759
 30
0.0
 10
191.7773313869834
 20
14.70863300482986
 30
0.0
 10
191.7239859134656
 20
14.70407704374198
 30
0.0
 10
191.6485188456913
 20
14.70999914992875
 30
0.0
 10
191.6769075779232
 20
14.70094169343348
 30
0.0
 10
191.7033652409542
 20
14.69725912268924
 30
0.0
 10
191.6633522907701
 20
14.66654271968271
 30
0.0
 10
191.5713663691868
 20
14.67667591174641
 30
0.0
 10
191.5439396207069
 20
14.43032502247781
 30
0.0
 10
191.4478793967234
 20
14.27499558764375
 30
0.0
 10
191.1917277964473
 20
13.94525417931568
 30
0.0
 10
191.7627537732762
 20
14.08430022210449
 30
0.0
 10
192.0173656320516
 20
14.08291779973364
 30
0.0
 10
192.6279647048617
 20
13.99790569242082
 30
0.0
 10
192.3340698578083
 20
14.29685417558201
 30
0.0
 10
192.0133304286517
 20
14.44330856901778
 30
0.0
 10
192.1313543360434
 20
14.50025540818286
 30
0.0
 10
192.1724716466261
 20
14.52420099873347
 30
0.0
 10
192.2156812394411
 20
14.54599758811231
 30
0.0
 10
192.3174574094451
 20
14.60928721253903
 30
0.0
 10
192.4328867625246
 20
14.35147151408778
 30
0.0
 10
192.6329591642277
 20
14.2161604111368
 30
0.0
 10
192.7269077387228
 20
14.0379279513888
 30
0.0
 10
192.9558829746393
 20
13.8799782102705
 30
0.0
 10
192.8596031846708
 20
13.82915972576299
 30
0.0
 10
192.8167959763779
 20
13.79881292523051
 30
0.0
 10
192.7718243528779
 20
13.77466130281455
 30
0.0
 10
192.7121720925214
 20
13.72552146747561
 30
0.0
 10
192.6789731061324
 20
13.85997475673607
 30
0.0
 10
192.5582013350796
 20
14.01594265286576
 30
0.0
 10
192.1970976005978
 20
13.88569928059554
 30
0.0
 10
191.8385061955541
 20
13.90224694409481
 30
0.0
 10
191.457092045008
 20
13.89331229351863
 30
0.0
 10
191.1703455282891
 20
13.82882671672409
 30
0.0
 10
190.8592055599714
 20
13.94230668192822
 30
0.0
 10
190.8268737818788
 20
13.83122259927768
 30
0.0
 10
190.7896178253318
 20
13.81196313850005
 30
0.0
 10
190.7865737632753
 20
13.85874784087292
 30
0.0
 10
190.7679892860608
 20
13.89806853919132
 30
0.0
 10
190.7512436616778
 20
13.9576598347823
 30
0.0
 10
190.7383730915753
 20
14.00201969871283
 30
0.0
 10
190.7042327806429
 20
14.09106331120201
 30
0.0
 10
190.9482714457754
 20
14.02181042943769
 30
0.0
 10
191.1441394486671
 20
14.00030369057742
 30
0.0
 10
191.2395426381277
 20
14.28226484478462
 30
0.0
 10
191.2945135769596
 20
14.44363045421121
 30
0.0
 10
191.5159619357156
 20
14.71391177589736
 30
0.0
 10
191.3849239381216
 20
14.70548446853731
 30
0.0
 10
191.3110026555854
 20
14.70779008496967
 30
0.0
 10
191.1977459876244
 20
14.70671378321655
 30
0.0
 10
191.0694251807484
 20
14.70707639076507
 30
0.0
 10
190.9404252030415
 20
14.70697724466083
 30
0.0
 10
190.828784094629
 20
14.70699932712569
 30
0.0
 10
190.7514663970026
 20
14.70699579189667
 30
0.0
 10
190.713287653201
 20
14.70699595845078
 30
0.0
 10
190.7027885008196
 20
14.70699600701769
 30
0.0
 11
190.7027885008196
 21
14.70699600701769
 31
0.0
 11
190.7027885008196
 21
14.73374924051794
 31
0.0
 11
190.7027885008196
 21
14.7926063542185
 31
0.0
 11
190.7027885008196
 21
14.85146346791906
 31
0.0
 11
190.7027885008196
 21
14.87821670141931
 31
0.0
 11
190.7355094280989
 21
14.87821670141931
 31
0.0
 11
190.8271280244809
 21
14.87821670141931
 31
0.0
 11
190.9678280117818
 21
14.87821670141931
 31
0.0
 11
191.1477931118179
 21
14.87821670141931
 31
0.0
 11
191.3572070464054
 21
14.87821670141931
 31
0.0
 11
191.5862535373604
 21
14.87821670141931
 31
0.0
 11
191.8251163064992
 21
14.87821670141931
 31
0.0
 11
192.0639790756381
 21
14.87821670141931
 31
0.0
 11
192.2930255665931
 21
14.87821670141931
 31
0.0
 11
192.5024395011806
 21
14.87821670141931
 31
0.0
 11
192.6824046012167
 21
14.87821670141931
 31
0.0
 11
192.8231045885176
 21
14.87821670141931
 31
0.0
 11
192.9147231848996
 21
14.87821670141931
 31
0.0
 11
192.9474441121789
 21
14.87821670141931
 31
0.0
 11
192.9474441121789
 21
14.85146346791906
 31
0.0
 11
192.9474441121789
 21
14.7926063542185
 31
0.0
 11
192.9474441121789
 21
14.73374924051794
 31
0.0
 11
192.9474441121789
 21
14.70699600701769
 31
0.0
 11
192.9174728954758
 21
14.70699600701769
 31
0.0
 11
192.8352937529027
 21
14.70699600701769
 31
0.0
 11
192.7125084457639
 21
14.70699600701769
 31
0.0
 11
192.5607187353642
 21
14.70699600701769
 31
0.0
 11
192.3915263830077
 21
14.70699600701769
 31
0.0
 11
192.2165331499991
 21
14.70699600701769
 31
0.0
 11
192.0473407976426
 21
14.70699600701769
 31
0.0
 11
191.8955510872428
 21
14.70699600701769
 31
0.0
 11
191.7727657801042
 21
14.70699600701769
 31
0.0
 11
191.690586637531
 21
14.70699600701769
 31
0.0
 11
191.6606154208279
 21
14.70699600701769
 31
0.0
 11
191.6766359412525
 21
14.70165583340789
 31
0.0
 11
191.6926564616771
 21
14.6963156597981
 31
0.0
 11
191.670615568142
 21
14.67558114591439
 31
0.0
 11
191.6284861855363
 21
14.6668587153611
 31
0.0
 11
191.5365235541377
 21
14.46909247312656
 31
0.0
 11
191.4279078521763
 21
14.25467511978507
 31
0.0
 11
191.3127500824807
 21
14.0462255905162
 31
0.0
 11
191.685736667502
 21
14.05582441253028
 31
0.0
 11
192.083070003615
 21
14.06781232404994
 31
0.0
 11
192.4899342191145
 21
14.08102711828529
 31
0.0
 11
192.2983119496978
 21
14.28966761302478
 31
0.0
 11
192.0966752013698
 21
14.4822942015183
 31
0.0
 11
192.1204947794749
 21
14.49525327269563
 31
0.0
 11
192.1728978513061
 21
14.52376322928575
 31
0.0
 11
192.2253009231374
 21
14.55227318587587
 31
0.0
 11
192.2491205012425
 21
14.5652322570532
 31
0.0
 11
192.4387101558627
 21
14.39079508370266
 31
0.0
 11
192.6200310940435
 21
14.20305846374089
 31
0.0
 11
192.7777729231147
 21
14.01782380992435
 31
0.0
 11
192.8966252504058
 21
13.85089253500949
 31
0.0
 11
192.8715408217923
 21
13.83501202286068
 31
0.0
 11
192.8163550788425
 21
13.80007489613329
 31
0.0
 11
192.7611693358928
 21
13.76513776940591
 31
0.0
 11
192.7360849072793
 21
13.7492572572571
 31
0.0
 11
192.6775518151612
 21
13.83887824681807
 31
0.0
 11
192.6050015078457
 21
13.93650288221029
 31
0.0
 11
192.2125412924095
 21
13.91636286943757
 31
0.0
 11
191.824947406956
 21
13.89803302999771
 31
0.0
 11
191.4567378976213
 21
13.88202178722394
 31
0.0
 11
191.1224308105412
 21
13.86883756444947
 31
0.0
 11
190.8365441918518
 21
13.8589887850075
 31
0.0
 11
190.821186232174
 21
13.83220523466694
 31
0.0
 11
190.7937434290546
 21
13.82143559057239
 31
0.0
 11
190.7867927192319
 21
13.84370299445572
 31
0.0
 11
190.7702179496548
 21
13.89680218833135
 31
0.0
 11
190.7504351601596
 21
13.96017864553775
 31
0.0
 11
190.7338603905825
 21
14.01327783941337
 31
0.0
 11
190.7269096807598
 21
14.0355452432967
 31
0.0
 11
190.9091199859153
 21
14.03751638912951
 31
0.0
 11
191.1174975848588
 21
14.0435621182947
 31
0.0
 11
191.2303203127216
 21
14.25483550301553
 31
0.0
 11
191.3407936722035
 21
14.48509813155879
 31
0.0
 11
191.4358254265627
 21
14.70699600701769
 31
0.0
 11
191.4043277461597
 21
14.70699600701769
 31
0.0
 11
191.3212884069153
 21
14.70699600701769
 31
0.0
 11
191.2038879617768
 21
14.70699600701769
 31
0.0
 11
191.0693069636912
 21
14.70699600701769
 31
0.0
 11
190.9347259656055
 21
14.70699600701769
 31
0.0
 11
190.817325520467
 21
14.70699600701769
 31
0.0
 11
190.7342861812226
 21
14.70699600701769
 31
0.0
 11
190.7027885008196
 21
14.70699600701769
 31
0.0
  0
SPLINE
  5
AE
102
{ACAD_REACTORS
330
CB
102
}
330
48
100
AcDbEntity
  8
_U_30EC_U_30A4_U_30E4_U_30FC_1
  6
Continuous
 62
     2
100
AcDbSpline
210
0.0
220
0.0
230
1.0
 70
    11
 71
     3
 72
    35
 73
    31
 74
    29
 42
0.000000001
 43
0.0000000001
 44
0.00000001
 40
0.0
 40
0.0
 40
0.0
 40
0.0
 40
0.0335231036620424
 40
0.0713218571711711
 40
0.4278866681486984
 40
0.8116865841964086
 40
1.19819023800006
 40
1.561379546812669
 40
1.659983174622065
 40
1.759315573807221
 40
2.132719617231106
 40
2.525233363588868
 40
2.910815397779755
 40
3.265244364303371
 40
3.592606723582147
 40
3.964386154604109
 40
4.359942131737935
 40
4.75815411863946
 40
4.843846538700117
 40
4.936650065543396
 40
5.25661660253748
 40
5.581707404416219
 40
5.899719158308327
 40
6.198363494280948
 40
6.46630104661601
 40
6.493895311537332
 40
6.559697020197127
 40
6.638234543442703
 40
6.704036252154457
 40
6.731630508423263
 40
6.731630508423263
 40
6.731630508423263
 40
6.731630508423263
 10
191.9736010568669
 20
16.23463843719129
 30
0.0
 10
191.9676006097789
 20
16.22480690542318
 30
0.0
 10
191.9548344099157
 20
16.20388988579795
 30
0.0
 10
191.7949362006555
 20
16.17127126532703
 30
0.0
 10
192.2322025842336
 20
15.88206680336693
 30
0.0
 10
192.4345394828262
 20
15.68041138358437
 30
0.0
 10
192.6819564267973
 20
15.43749387603273
 30
0.0
 10
193.1831513624606
 20
15.36047662757779
 30
0.0
 10
193.012556219897
 20
15.21876939174654
 30
0.0
 10
192.9383299463201
 20
15.01710366209103
 30
0.0
 10
192.6131432248188
 20
15.36956287174722
 30
0.0
 10
192.3277741670663
 20
15.5317521255956
 30
0.0
 10
192.0337604077658
 20
15.73687130053048
 30
0.0
 10
191.8084452691133
 20
16.21827488595461
 30
0.0
 10
191.5993085055522
 20
15.75343046609223
 30
0.0
 10
191.3207873674834
 20
15.54350952252909
 30
0.0
 10
191.0371383177209
 20
15.37424456359983
 30
0.0
 10
190.7078639527831
 20
15.00142360907925
 30
0.0
 10
190.6277012318224
 20
15.19708014458999
 30
0.0
 10
190.4759724909744
 20
15.32491104190587
 30
0.0
 10
190.9083395826794
 20
15.40454031765931
 30
0.0
 10
191.0962565329765
 20
15.60026634915468
 30
0.0
 10
191.3468477420502
 20
15.81632996916753
 30
0.0
 10
191.5714350470161
 20
15.98190992300056
 30
0.0
 10
191.6259775409713
 20
16.26133964636832
 30
0.0
 10
191.7494661029011
 20
16.2473795040808
 30
0.0
 10
191.806027334452
 20
16.24521268867647
 30
0.0
 10
191.8761870984945
 20
16.24046859881359
 30
0.0
 10
191.9333414022105
 20
16.23709429350536
 30
0.0
 10
191.9644190320839
 20
16.23519854711115
 30
0.0
 10
191.9736010568669
 20
16.23463843719129
 30
0.0
 11
191.9736010568669
 21
16.23463843719129
 31
0.0
 11
191.9525319069884
 21
16.20856374969783
 31
0.0
 11
191.9174464559425
 21
16.1945011455347
 31
0.0
 11
192.1512374769094
 21
15.92527961131379
 31
0.0
 11
192.4414585957566
 21
15.67413407969256
 31
0.0
 11
192.7612797483684
 21
15.45710987618781
 31
0.0
 11
193.0838708706289
 21
15.29025232631639
 31
0.0
 11
193.0213299868076
 21
15.21402035584926
 31
0.0
 11
192.9688035818975
 21
15.1297119791342
 31
0.0
 11
192.6436279095814
 21
15.31326404831576
 31
0.0
 11
192.3237227768436
 21
15.54070139743426
 31
0.0
 11
192.0354200158608
 21
15.7967385512331
 31
0.0
 11
191.8050514588095
 21
16.0660900344557
 31
0.0
 11
191.5995531719516
 21
15.81126348721035
 31
0.0
 11
191.3288301341535
 21
15.55645182277753
 31
0.0
 11
191.0119538423246
 21
15.31969466354852
 31
0.0
 11
190.6679957933741
 21
15.1190316319146
 31
0.0
 11
190.6218855341338
 21
15.19126067703552
 31
0.0
 11
190.5636970460348
 21
15.2635558679896
 31
0.0
 11
190.8433040489015
 21
15.41911456961739
 31
0.0
 11
191.1093004621154
 21
15.606010097904
 31
0.0
 11
191.3499997459746
 21
15.81384496285206
 31
0.0
 11
191.5537153607774
 21
16.03222167446415
 31
0.0
 11
191.7087607668218
 21
16.2507427427429
 31
0.0
 11
191.7363041569865
 21
16.24906789496553
 31
0.0
 11
191.8019845489177
 21
16.24507402718873
 31
0.0
 11
191.880377274771
 21
16.24030715274546
 31
0.0
 11
191.9460576667022
 21
16.23631328496866
 31
0.0
 11
191.9736010568669
 21
16.23463843719129
 31
0.0
  0
SPLINE
  5
AF
102
{ACAD_REACTORS
330
CC
102
}
330
48
100
AcDbEntity
  8
_U_30EC_U_30A4_U_30E4_U_30FC_1
  6
Continuous
 62
     2
100
AcDbSpline
210
0.0
220
0.0
230
1.0
 70
    11
 71
     3
 72
    15
 73
    11
 74
     9
 42
0.000000001
 43
0.0000000001
 44
0.00000001
 40
0.0
 40
0.0
 40
0.0
 40
0.0
 40
0.2785535985096362
 40
0.5215624748199038
 40
0.6076917376040527
 40
0.6938210001741127
 40
0.9405019146454827
 40
1.22169140348911
 40
1.300471877081029
 40
1.379252341684796
 40
1.379252341684796
 40
1.379252341684796
 40
1.379252341684796
 10
189.5681493630999
 20
16.22930267330379
 30
0.0
 10
189.6296017794178
 20
16.17691646592716
 30
0.0
 10
189.7446649974114
 20
16.07882876798224
 30
0.0
 10
190.0397348497244
 20
15.92889785897218
 30
0.0
 10
189.9025147631857
 20
15.84343227515012
 30
0.0
 10
189.8041227843778
 20
15.71085785201556
 30
0.0
 10
189.713003359065
 20
16.01616985781418
 30
0.0
 10
189.3636839480654
 20
16.07967869465372
 30
0.0
 10
189.511925837657
 20
16.17896509880876
 30
0.0
 10
189.5494081874236
 20
16.2125234840238
 30
0.0
 10
189.5681493630999
 20
16.22930267330379
 30
0.0
 11
189.5681493630999
 21
16.22930267330379
 31
0.0
 11
189.7919222440596
 21
16.06341774278974
 31
0.0
 11
189.9695046306383
 21
15.8975328122756
 31
0.0
 11
189.9066308127979
 21
15.8386674303459
 31
0.0
 11
189.8437569949575
 21
15.7798020484162
 31
0.0
 11
189.6688535117725
 21
15.95375677059489
 31
0.0
 11
189.447825685614
 21
16.127579201107
 31
0.0
 11
189.507987524357
 21
16.17844093720539
 31
0.0
 11
189.5681493630999
 21
16.22930267330379
 31
0.0
  0
SPLINE
  5
B0
102
{ACAD_REACTORS
330
CD
102
}
330
48
100
AcDbEntity
  8
_U_30EC_U_30A4_U_30E4_U_30FC_1
  6
Continuous
 62
     2
100
AcDbSpline
210
0.0
220
0.0
230
1.0
 70
    11
 71
     3
 72
    75
 73
    71
 74
    69
 42
0.000000001
 43
0.0000000001
 44
0.00000001
 40
0.0
 40
0.0
 40
0.0
 40
0.0
 40
0.0342546099129673
 40
0.1245622414432364
 40
0.2522385480897554
 40
0.3985991922940715
 40
0.544959836498091
 40
0.6726361431438941
 40
0.7629437746737031
 40
0.7971983935298079
 40
1.101723623449674
 40
1.408591244036681
 40
1.433332471690376
 40
1.487763172450153
 40
1.542193873081963
 40
1.566935100592504
 40
1.923523931821822
 40
2.271755704953626
 40
2.59057975510087
 40
2.858943305581124
 40
2.889120339309179
 40
2.918305855191132
 40
2.94136664553126
 40
2.996357760973159
 40
3.061992318140716
 40
3.116983433626921
 40
3.140044223997605
 40
3.411273122936526
 40
3.732441619741195
 40
3.761068217532893
 40
3.837787499630451
 40
3.948858699126083
 40
4.080541049104454
 40
4.219093782625832
 40
4.350776132722375
 40
4.461847332405704
 40
4.538566614678434
 40
4.567193212544678
 40
4.594907573998936
 40
4.666381453557475
 40
4.764111044011086
 40
4.870592538125889
 40
4.96832212864234
 40
5.039796008287025
 40
5.067510369784484
 40
5.094263603185698
 40
5.153120716668333
 40
5.211977830150779
 40
5.238731063551786
 40
5.272290535139025
 40
5.363380529444886
 40
5.497618415781563
 40
5.660621563453805
 40
5.838007341749506
 40
6.015393119910858
 40
6.178396267038483
 40
6.312634151842435
 40
6.403724143059424
 40
6.43728361267252
 40
6.464036846261134
 40
6.522893960004753
 40
6.581751071484018
 40
6.608504301590964
 40
6.637253941281111
 40
6.711397748902963
 40
6.812778057283575
 40
6.923237199249352
 40
7.024617507623995
 40
7.098761315207648
 40
7.127510946007598
 40
7.127510946007598
 40
7.127510946007598
 40
7.127510946007598
 10
188.4418622390564
 20
14.9584912847326
 30
0.0
 10
188.4418622819707
 20
14.94707313408716
 30
0.0
 10
188.4418624481128
 20
14.90555257842625
 30
0.0
 10
188.4418593081787
 20
14.82146922003767
 30
0.0
 10
188.44187882798
 20
14.70004497322324
 30
0.0
 10
188.4417912187738
 20
14.55980494047443
 30
0.0
 10
188.442111623523
 20
14.42006556794572
 30
0.0
 10
188.441160590974
 20
14.29745038894923
 30
0.0
 10
188.4431978595967
 20
14.21587074438038
 30
0.0
 10
188.4349433178746
 20
14.06271267077692
 30
0.0
 10
188.7430797940902
 20
14.22560236054717
 30
0.0
 10
189.0350645173735
 20
14.39482938688
 30
0.0
 10
189.0408354448707
 20
14.25973235781909
 30
0.0
 10
189.0455471719891
 20
14.21617221160444
 30
0.0
 10
189.0482535411917
 20
14.17211249350546
 30
0.0
 10
189.0672545672961
 20
14.02272590363137
 30
0.0
 10
188.6583942247302
 20
14.0868117224126
 30
0.0
 10
188.3793710348832
 20
13.97296341411015
 30
0.0
 10
188.1018081587166
 20
13.87364095811139
 30
0.0
 10
187.8099837184399
 20
13.91630687596354
 30
0.0
 10
187.7869144678658
 20
13.81321679744537
 30
0.0
 10
187.7537474383332
 20
13.78691091244463
 30
0.0
 10
187.7480653962739
 20
13.83455309036299
 30
0.0
 10
187.7284214559044
 20
13.87180336115065
 30
0.0
 10
187.7095089485623
 20
13.93007387847561
 30
0.0
 10
187.6942849867707
 20
13.97385201007801
 30
0.0
 10
187.6477246372937
 20
14.0875942104631
 30
0.0
 10
187.989089731245
 20
14.05576301120043
 30
0.0
 10
188.2679649367386
 20
14.02161435106479
 30
0.0
 10
188.2617753034907
 20
14.16913976479652
 30
0.0
 10
188.2630935452773
 20
14.24013150908831
 30
0.0
 10
188.2624831689948
 20
14.3471976795866
 30
0.0
 10
188.2625871570724
 20
14.47398529785996
 30
0.0
 10
188.2629987964055
 20
14.60849243496048
 30
0.0
 10
188.2613907841968
 20
14.73395549951181
 30
0.0
 10
188.2659902567925
 20
14.84505246719114
 30
0.0
 10
188.2564186502211
 20
14.90761886800684
 30
0.0
 10
188.2704001783691
 20
14.96595388294997
 30
0.0
 10
188.2147384386705
 20
14.95289710582233
 30
0.0
 10
188.1575655197821
 20
14.96136307749495
 30
0.0
 10
188.0616048925648
 20
14.95729976080632
 30
0.0
 10
187.963376752282
 20
14.9597088985247
 30
0.0
 10
187.8672582457561
 20
14.95551600613384
 30
0.0
 10
187.810464852581
 20
14.96429346441158
 30
0.0
 10
187.7550356873384
 20
14.95094936850117
 30
0.0
 10
187.7670679427917
 20
15.00036910959253
 30
0.0
 10
187.7592003173938
 20
15.04393988030391
 30
0.0
 10
187.7666295563828
 20
15.08830469118521
 30
0.0
 10
187.7551930564144
 20
15.13902297763987
 30
0.0
 10
187.8232102370133
 20
15.12162460757739
 30
0.0
 10
187.8968496879747
 20
15.13417450237185
 30
0.0
 10
188.0325064058211
 20
15.12799677011093
 30
0.0
 10
188.1884909024525
 20
15.1302920309308
 30
0.0
 10
188.3615926358143
 20
15.12940968262525
 30
0.0
 10
188.5346942964181
 20
15.13029207142404
 30
0.0
 10
188.6906789811216
 20
15.12799662955546
 30
0.0
 10
188.8263351889797
 20
15.13417486262427
 30
0.0
 10
188.8999756705652
 20
15.12162394218331
 30
0.0
 10
188.9679914174724
 20
15.13902373012138
 30
0.0
 10
188.9565590885922
 20
15.08830130414551
 30
0.0
 10
188.9639539458298
 20
15.04397060811104
 30
0.0
 10
188.956203991227
 20
15.00028307550192
 30
0.0
 10
188.9681203741877
 20
14.95063590098473
 30
0.0
 10
188.9108170223617
 20
14.96461411338421
 30
0.0
 10
188.8520145789772
 20
14.9553975567325
 30
0.0
 10
188.7525293633199
 20
14.95952268164925
 30
0.0
 10
188.649428009835
 20
14.95822760025884
 30
0.0
 10
188.5537846354573
 20
14.95854077077636
 30
0.0
 10
188.4857467971617
 20
14.95848776697141
 30
0.0
 10
188.4514462213443
 20
14.95849051871652
 30
0.0
 10
188.4418622390564
 20
14.9584912847326
 30
0.0
 11
188.4418622390564
 21
14.9584912847326
 31
0.0
 11
188.4418622390564
 21
14.92423666587181
 31
0.0
 11
188.4418622390564
 21
14.83392903432971
 31
0.0
 11
188.4418622390564
 21
14.70625272766675
 31
0.0
 11
188.4418622390564
 21
14.55989208344335
 31
0.0
 11
188.4418622390564
 21
14.41353143921995
 31
0.0
 11
188.4418622390564
 21
14.28585513255699
 31
0.0
 11
188.4418622390564
 21
14.1955475010149
 31
0.0
 11
188.4418622390564
 21
14.1612928821541
 31
0.0
 11
188.7391932644567
 21
14.22709475713764
 31
0.0
 11
189.0384623627245
 21
14.29496038212069
 31
0.0
 11
189.0405487124976
 21
14.27030727882826
 31
0.0
 11
189.0451386819987
 21
14.2160704515849
 31
0.0
 11
189.0497286514996
 21
14.16183362434154
 31
0.0
 11
189.0518150012728
 21
14.1371805210491
 31
0.0
 11
188.705639688924
 21
14.05163370140897
 31
0.0
 11
188.3669653138838
 21
13.97060877629899
 31
0.0
 11
188.0563731516688
 21
13.89862764024926
 31
0.0
 11
187.7944444777955
 21
13.8402121877899
 31
0.0
 11
187.7817515029292
 21
13.81283442738008
 31
0.0
 11
187.7569794787513
 21
13.79740260446729
 31
0.0
 11
187.7491867589501
 21
13.81910683390631
 31
0.0
 11
187.7306041194242
 21
13.87086307333781
 31
0.0
 11
187.70842483999
 21
13.93263664943348
 31
0.0
 11
187.689842200464
 21
13.98439288886498
 31
0.0
 11
187.6820494806628
 21
14.006097118304
 31
0.0
 11
187.9482776335931
 21
14.05794001759664
 31
0.0
 11
188.2626334936289
 21
14.1237396877191
 31
0.0
 11
188.2626334936289
 21
14.15236628569624
 31
0.0
 11
188.2626334936289
 21
14.22908556827499
 31
0.0
 11
188.2626334936289
 21
14.3401567684263
 31
0.0
 11
188.2626334936289
 21
14.47183911912116
 31
0.0
 11
188.2626334936289
 21
14.61039185333054
 31
0.0
 11
188.2626334936289
 21
14.7420742040254
 31
0.0
 11
188.2626334936289
 21
14.85314540417671
 31
0.0
 11
188.2626334936289
 21
14.92986468675546
 31
0.0
 11
188.2626334936289
 21
14.9584912847326
 31
0.0
 11
188.2349191321108
 21
14.9584912847326
 31
0.0
 11
188.1634452524063
 21
14.9584912847326
 31
0.0
 11
188.06571566179
 21
14.9584912847326
 31
0.0
 11
187.9592341675364
 21
14.9584912847326
 31
0.0
 11
187.8615045769201
 21
14.9584912847326
 31
0.0
 11
187.7900306972156
 21
14.9584912847326
 31
0.0
 11
187.7623163356975
 21
14.9584912847326
 31
0.0
 11
187.7623163356975
 21
14.98524451823285
 31
0.0
 11
187.7623163356975
 21
15.0441016319334
 31
0.0
 11
187.7623163356975
 21
15.10295874563395
 31
0.0
 11
187.7623163356975
 21
15.1297119791342
 31
0.0
 11
187.7958758072874
 21
15.1297119791342
 31
0.0
 11
187.8869658016031
 21
15.1297119791342
 31
0.0
 11
188.0212036879629
 21
15.1297119791342
 31
0.0
 11
188.1842068356856
 21
15.1297119791342
 31
0.0
 11
188.3615926140897
 21
15.1297119791342
 31
0.0
 11
188.5389783924938
 21
15.1297119791342
 31
0.0
 11
188.7019815402164
 21
15.1297119791342
 31
0.0
 11
188.8362194265763
 21
15.1297119791342
 31
0.0
 11
188.9273094208918
 21
15.1297119791342
 31
0.0
 11
188.9608688924818
 21
15.1297119791342
 31
0.0
 11
188.9608688924818
 21
15.10295874563395
 31
0.0
 11
188.9608688924818
 21
15.0441016319334
 31
0.0
 11
188.9608688924818
 21
14.98524451823285
 31
0.0
 11
188.9608688924818
 21
14.9584912847326
 31
0.0
 11
188.9321192527877
 21
14.9584912847326
 31
0.0
 11
188.8579754451555
 21
14.9584912847326
 31
0.0
 11
188.7565951367604
 21
14.9584912847326
 31
0.0
 11
188.6461359947778
 21
14.9584912847326
 31
0.0
 11
188.5447556863827
 21
14.9584912847326
 31
0.0
 11
188.4706118787505
 21
14.9584912847326
 31
0.0
 11
188.4418622390564
 21
14.9584912847326
 31
0.0
  0
SPLINE
  5
B1
102
{ACAD_REACTORS
330
CE
102
}
330
48
100
AcDbEntity
  8
_U_30EC_U_30A4_U_30E4_U_30FC_1
  6
Continuous
 62
     2
100
AcDbSpline
210
0.0
220
0.0
230
1.0
 70
    11
 71
     3
 72
    91
 73
    87
 74
    85
 42
0.000000001
 43
0.0000000001
 44
0.00000001
 40
0.0
 40
0.0
 40
0.0
 40
0.0
 40
0.0345987051695718
 40
0.1258134969461369
 40
0.2547723404888987
 40
0.4026032099154125
 40
0.5504340793416704
 40
0.679392922883608
 40
0.7706077146571035
 40
0.8052064287780925
 40
1.124852390615279
 40
1.427402236308877
 40
1.706356627453524
 40
1.955541417875218
 40
2.169485938566373
 40
2.344350786664835
 40
2.48056841156199
 40
2.590440557429012
 40
2.649189927151166
 40
2.749320643306372
 40
2.912632739880078
 40
3.147745656000282
 40
3.244827496385161
 40
3.338490056946753
 40
3.583815413207166
 40
3.761423943238518
 40
3.886956104362675
 40
3.985855451886835
 40
4.09176625533772
 40
4.250186473811913
 40
4.422734315084557
 40
4.62828568483865
 40
4.872093227758478
 40
5.152549652145588
 40
5.464967135837568
 40
5.803201477852483
 40
6.160362988813955
 40
6.19344944827601
 40
6.284170385501665
 40
6.419718138764535
 40
6.587285046385785
 40
6.774063446723699
 40
6.967245678113682
 40
7.154024078817668
 40
7.321590987026053
 40
7.457138740890412
 40
7.547859678556148
 40
7.580946138182708
 40
7.608533084714762
 40
7.66922436707774
 40
7.729915649429961
 40
7.757502595950014
 40
7.790278062553468
 40
7.880146277430966
 40
8.01441996318043
 40
8.18041184239793
 40
8.3654346376794
 40
8.5568010716227
 40
8.741823866830813
 40
8.907815745916324
 40
9.042089431507478
 40
9.131957646249603
 40
9.16473311279718
 40
9.415425063140084
 40
9.667986180958525
 40
9.694169807462693
 40
9.756607686047651
 40
9.831130315322458
 40
9.893568193899922
 40
9.919751820398739
 40
9.950967964690589
 40
9.996421631210714
 40
10.22087981037454
 40
10.44341866197541
 40
10.47847970788853
 40
10.57091337438754
 40
10.70159545461228
 40
10.85140174170359
 40
11.00120802880476
 40
11.13189010907381
 40
11.22432377583009
 40
11.25938480938955
 40
11.28697175596144
 40
11.34766303835918
 40
11.40835432042069
 40
11.43594125892104
 40
11.43594125892104
 40
11.43594125892104
 40
11.43594125892104
 10
190.0818114333289
 20
15.55242795125079
 30
0.0
 10
190.0702785844941
 20
15.55242790287917
 30
0.0
 10
190.0283409444998
 20
15.55242773704166
 30
0.0
 10
189.9434129719026
 20
15.55243125800911
 30
0.0
 10
189.8207688553128
 20
15.5524092643588
 30
0.0
 10
189.6791206916993
 20
15.55250801177056
 30
0.0
 10
189.537975369849
 20
15.55214686232423
 30
0.0
 10
189.4141351317904
 20
15.5532188360909
 30
0.0
 10
189.3317217825382
 20
15.55092249091271
 30
0.0
 10
189.1727791229692
 20
15.56048569373421
 30
0.0
 10
189.3503402353376
 20
15.19785394311373
 30
0.0
 10
189.3379739205452
 20
14.95243127723115
 30
0.0
 10
189.4064519473864
 20
14.66862501324835
 30
0.0
 10
189.469302432097
 20
14.43250999939035
 30
0.0
 10
189.5452253431728
 20
14.23326740396129
 30
0.0
 10
189.6303189577016
 20
14.07745347451371
 30
0.0
 10
189.7244607592935
 20
13.9765785778139
 30
0.0
 10
189.8282648207728
 20
13.92465852638962
 30
0.0
 10
189.9125872030773
 20
13.97606484379614
 30
0.0
 10
189.9351322179452
 20
14.09144544037515
 30
0.0
 10
189.9745730975371
 20
14.21885149702378
 30
0.0
 10
189.9202919734942
 20
14.53622328086752
 30
0.0
 10
190.0451218072474
 20
14.38982180140906
 30
0.0
 10
190.2019291513602
 20
14.3579530033117
 30
0.0
 10
190.0947720007057
 20
14.1242135776763
 30
0.0
 10
190.0808711209867
 20
13.95972776583659
 30
0.0
 10
190.0234709467225
 20
13.83130869122486
 30
0.0
 10
189.9335020145008
 20
13.7601880235283
 30
0.0
 10
189.8095274657877
 20
13.74432324142257
 30
0.0
 10
189.663427319686
 20
13.77993797554175
 30
0.0
 10
189.5243894320283
 20
13.9000057050028
 30
0.0
 10
189.4102003962144
 20
14.07435682550323
 30
0.0
 10
189.3146141301485
 20
14.29946603111243
 30
0.0
 10
189.2318652572627
 20
14.56388246006445
 30
0.0
 10
189.1807179256411
 20
14.88187933098546
 30
0.0
 10
189.0770189207337
 20
15.15543728488914
 30
0.0
 10
189.2042841208523
 20
15.56005818612869
 30
0.0
 10
189.0357890623018
 20
15.5511236784968
 30
0.0
 10
188.9511995787077
 20
15.55315961418365
 30
0.0
 10
188.8189876387627
 20
15.55213937388408
 30
0.0
 10
188.6560505094104
 20
15.55253230318431
 30
0.0
 10
188.4733759170532
 20
15.5523569631337
 30
0.0
 10
188.2847057373383
 20
15.5526010530747
 30
0.0
 10
188.1014469020189
 20
15.55185657906239
 30
0.0
 10
187.9404746832718
 20
15.55416360522427
 30
0.0
 10
187.8029808335276
 20
15.54799804883665
 30
0.0
 10
187.728959037231
 20
15.56032838458212
 30
0.0
 10
187.6613215186857
 20
15.54329323723558
 30
0.0
 10
187.6732373719269
 20
15.59524438447529
 30
0.0
 10
187.6655677285694
 20
15.64071424966531
 30
0.0
 10
187.6732592225115
 20
15.68614453703707
 30
0.0
 10
187.6613141797762
 20
15.73802395984572
 30
0.0
 10
187.7283588305867
 20
15.72119143490266
 30
0.0
 10
187.8017375665676
 20
15.73335409092672
 30
0.0
 10
187.9379128305272
 20
15.72727231074961
 30
0.0
 10
188.0973811801512
 20
15.7295483431506
 30
0.0
 10
188.2789173085836
 20
15.72881233998964
 30
0.0
 10
188.4658034862179
 20
15.72905954196136
 30
0.0
 10
188.6468012316836
 20
15.72886400799256
 30
0.0
 10
188.8080802578878
 20
15.72932234714841
 30
0.0
 10
188.9393882124887
 20
15.72812673751208
 30
0.0
 10
189.0225051322597
 20
15.73051347319745
 30
0.0
 10
189.1556236547813
 20
15.72230605725466
 30
0.0
 10
189.0645893502658
 20
15.97752868952655
 30
0.0
 10
188.978963307442
 20
16.24164358328244
 30
0.0
 10
189.0990589003454
 20
16.22904442969163
 30
0.0
 10
189.1514264948544
 20
16.22694235763074
 30
0.0
 10
189.2214497569715
 20
16.22535399889656
 30
0.0
 10
189.2671922337817
 20
16.21602567538114
 30
0.0
 10
189.3220812646933
 20
16.22545966915427
 30
0.0
 10
189.2963574785681
 20
16.17733028655172
 30
0.0
 10
189.1825397571453
 20
16.18266829744154
 30
0.0
 10
189.3159346621135
 20
15.95449174576779
 30
0.0
 10
189.1943658735471
 20
15.72156856595925
 30
0.0
 10
189.3223188769413
 20
15.73087258884441
 30
0.0
 10
189.4049048406461
 20
15.72801001754682
 30
0.0
 10
189.5307214850824
 20
15.72923437412305
 30
0.0
 10
189.6741469838057
 20
15.72932431888966
 30
0.0
 10
189.8157420951728
 20
15.72746163183855
 30
0.0
 10
189.9459127249967
 20
15.73333075937165
 30
0.0
 10
190.0193452286191
 20
15.72070340823206
 30
0.0
 10
190.0891112922096
 20
15.73877563110414
 30
0.0
 10
190.0775772605396
 20
15.68612850546328
 30
0.0
 10
190.0833184346682
 20
15.64221317686549
 30
0.0
 10
190.081661577091
 20
15.5908998267655
 30
0.0
 10
190.081775756167
 20
15.56158792021636
 30
0.0
 10
190.0818114333289
 20
15.55242795125079
 30
0.0
 11
190.0818114333289
 21
15.55242795125079
 31
0.0
 11
190.0472127192051
 21
15.55242795125079
 31
0.0
 11
189.9559979274241
 21
15.55242795125079
 31
0.0
 11
189.8270390838717
 21
15.55242795125079
 31
0.0
 11
189.6792082144335
 21
15.55242795125079
 31
0.0
 11
189.5313773449954
 21
15.55242795125079
 31
0.0
 11
189.402418501443
 21
15.55242795125079
 31
0.0
 11
189.311203709662
 21
15.55242795125079
 31
0.0
 11
189.2766049955382
 21
15.55242795125079
 31
0.0
 11
189.3083140497693
 21
15.23435864930123
 31
0.0
 11
189.3527866656865
 21
14.93509522788082
 31
0.0
 11
189.4092389118319
 21
14.66191269512577
 31
0.0
 11
189.4768868567478
 21
14.42208605917227
 31
0.0
 11
189.5549465689761
 21
14.22289032815653
 31
0.0
 11
189.6426341170591
 21
14.07160051021475
 31
0.0
 11
189.7391655695388
 21
13.97549161348314
 31
0.0
 11
189.8437569949575
 21
13.94183864609789
 31
0.0
 11
189.8943077302786
 21
13.97177376978832
 31
0.0
 11
189.9310588991551
 21
14.06491619815045
 31
0.0
 11
189.9562640977528
 21
14.22627151712052
 31
0.0
 11
189.9721769222368
 21
14.4608453126348
 31
0.0
 11
190.0494082682583
 21
14.40202182306618
 31
0.0
 11
190.1327184184385
 21
14.3592188543269
 31
0.0
 11
190.1066365811217
 21
14.11528388661011
 31
0.0
 11
190.0673317805105
 21
13.94207902887564
 31
0.0
 11
190.0105702596765
 21
13.8301127244592
 31
0.0
 11
189.932118261691
 21
13.76989341669649
 31
0.0
 11
189.8277420296256
 21
13.7519295489232
 31
0.0
 11
189.6738595065097
 21
13.78957440012364
 31
0.0
 11
189.5388902376747
 21
13.89707348877406
 31
0.0
 11
189.4221739916163
 21
14.06627361744811
 31
0.0
 11
189.32305053683
 21
14.28902158871946
 31
0.0
 11
189.2408596418113
 21
14.55716420516174
 31
0.0
 11
189.1749410750559
 21
14.86254826934863
 31
0.0
 11
189.1246346050593
 21
15.19702058385376
 31
0.0
 11
189.0892800003171
 21
15.55242795125079
 31
0.0
 11
189.0561935405844
 21
15.55242795125079
 31
0.0
 11
188.9654726026075
 21
15.55242795125079
 31
0.0
 11
188.8299248482185
 21
15.55242795125079
 31
0.0
 11
188.6623579392495
 21
15.55242795125079
 31
0.0
 11
188.4755795375324
 21
15.55242795125079
 31
0.0
 11
188.2823973048992
 21
15.55242795125079
 31
0.0
 11
188.0956189031822
 21
15.55242795125079
 31
0.0
 11
187.9280519942131
 21
15.55242795125079
 31
0.0
 11
187.7925042398241
 21
15.55242795125079
 31
0.0
 11
187.7017833018473
 21
15.55242795125079
 31
0.0
 11
187.6686968421145
 21
15.55242795125079
 31
0.0
 11
187.6686968421145
 21
15.58001489785848
 31
0.0
 11
187.6686968421145
 21
15.64070618039539
 31
0.0
 11
187.6686968421145
 21
15.70139746293231
 31
0.0
 11
187.6686968421145
 21
15.72898440954
 31
0.0
 11
187.7014723087631
 21
15.72898440954
 31
0.0
 11
187.7913405237673
 21
15.72898440954
 31
0.0
 11
187.9256142097148
 21
15.72898440954
 31
0.0
 11
188.0916060891932
 21
15.72898440954
 31
0.0
 11
188.2766288847901
 21
15.72898440954
 31
0.0
 11
188.4679953190932
 21
15.72898440954
 31
0.0
 11
188.6530181146902
 21
15.72898440954
 31
0.0
 11
188.8190099941685
 21
15.72898440954
 31
0.0
 11
188.953283680116
 21
15.72898440954
 31
0.0
 11
189.0431518951202
 21
15.72898440954
 31
0.0
 11
189.0759273617688
 21
15.72898440954
 31
0.0
 11
189.0659183950103
 21
15.97947647544959
 31
0.0
 11
189.0599112510663
 21
16.23196614552529
 31
0.0
 11
189.0860575870659
 21
16.2305692160812
 31
0.0
 11
189.1484065421419
 21
16.2272380766376
 31
0.0
 11
189.2228230369099
 21
16.22326220052749
 31
0.0
 11
189.2851719919859
 21
16.21993106108389
 31
0.0
 11
189.3113183279855
 21
16.2185341316398
 31
0.0
 11
189.298293111304
 21
16.19016528616079
 31
0.0
 11
189.2551649266405
 21
16.17581274276159
 31
0.0
 11
189.2574991961821
 21
15.95136670115109
 31
0.0
 11
189.2658452735903
 21
15.72898440954
 31
0.0
 11
189.3009063195165
 21
15.72898440954
 31
0.0
 11
189.3933399860495
 21
15.72898440954
 31
0.0
 11
189.5240220663201
 21
15.72898440954
 31
0.0
 11
189.6738283534596
 21
15.72898440954
 31
0.0
 11
189.8236346405991
 21
15.72898440954
 31
0.0
 11
189.9543167208697
 21
15.72898440954
 31
0.0
 11
190.0467503874027
 21
15.72898440954
 31
0.0
 11
190.0818114333289
 21
15.72898440954
 31
0.0
 11
190.0818114333289
 21
15.70139746293231
 31
0.0
 11
190.0818114333289
 21
15.64070618039539
 31
0.0
 11
190.0818114333289
 21
15.58001489785848
 31
0.0
 11
190.0818114333289
 21
15.55242795125079
 31
0.0
  0
SPLINE
  5
B2
102
{ACAD_REACTORS
330
CF
102
}
330
48
100
AcDbEntity
  8
_U_30EC_U_30A4_U_30E4_U_30FC_1
  6
Continuous
 62
     2
100
AcDbSpline
210
0.0
220
0.0
230
1.0
 70
    11
 71
     3
 72
   118
 73
   114
 74
   112
 42
0.000000001
 43
0.0000000001
 44
0.00000001
 40
0.0
 40
0.0
 40
0.0
 40
0.0
 40
0.1054708162973368
 40
0.2466098270051868
 40
0.3965912874591235
 40
0.5285525069754036
 40
0.6156245055642277
 40
0.6431434105797574
 40
0.7036850037986235
 40
0.7642265984504605
 40
0.7917455052354909
 40
0.928740431998972
 40
1.106572819088001
 40
1.287544879681002
 40
1.317578308030519
 40
1.399928030857156
 40
1.522968204799932
 40
1.675072986590553
 40
1.844616533180632
 40
2.019973001638695
 40
2.189516548880007
 40
2.341621331585346
 40
2.46466150632048
 40
2.547011229647046
 40
2.57704465816801
 40
2.60379789089308
 40
2.662655002908767
 40
2.721512114949579
 40
2.748265347702759
 40
2.774215307344834
 40
2.845959313407166
 40
2.954338556588363
 40
3.090194227585538
 40
3.244367517100505
 40
3.40769961584426
 40
3.571031714539407
 40
3.725205003920085
 40
3.861060674729584
 40
3.969439917716276
 40
4.041183923628948
 40
4.067133883212941
 40
4.31188674601211
 40
4.54789725833547
 40
4.764747083043913
 40
4.952749679951718
 40
5.045772974195866
 40
5.137862019644929
 40
5.330543169792989
 40
5.55344826524399
 40
5.795083855888145
 40
6.043293412177196
 40
6.285761695541108
 40
6.313902908752592
 40
6.384255941793182
 40
6.47571488476677
 40
6.567173827758833
 40
6.637526860839611
 40
6.665668074073974
 40
6.692018920327952
 40
6.749990782071032
 40
6.807962643790411
 40
6.834313490017889
 40
6.856393084245168
 40
6.913335195649791
 40
6.991194817302455
 40
7.076026942283717
 40
7.153886563725207
 40
7.210828674844789
 40
7.232908268931125
 40
7.258199334923649
 40
7.324875781592304
 40
7.41914248192497
 40
7.527204308841922
 40
7.635266135230511
 40
7.729532834168507
 40
7.796209279292833
 40
7.821500344594783
 40
7.844652988850854
 40
7.899863140541634
 40
7.965759128053802
 40
8.020969279771087
 40
8.044121924046554
 40
8.069356610160641
 40
8.109134395441403
 40
8.132238100191119
 40
8.193147867786484
 40
8.279261678876663
 40
8.377977512673882
 40
8.476693347146673
 40
8.56280716041173
 40
8.623716930826518
 40
8.646820636853473
 40
8.671988793774286
 40
8.734909185828197
 40
8.816705695188912
 40
8.898502204815482
 40
8.961422597377943
 40
8.986590754551056
 40
9.012941600733216
 40
9.070913462380311
 40
9.128885324081814
 40
9.155236170325141
 40
9.180404327929184
 40
9.243324721948257
 40
9.32512123421205
 40
9.406917746637705
 40
9.46983814197816
 40
9.495006288270934
 40
9.51781118437907
 40
9.572192090487055
 40
9.637098333281266
 40
9.691479239515454
 40
9.714284125643486
 40
9.714284125643486
 40
9.714284125643486
 40
9.714284125643486
 10
185.2874469028653
 20
15.2688916318772
 30
0.0
 10
185.3090990569037
 20
15.24111869242812
 30
0.0
 10
185.3597257109473
 20
15.17618054561237
 30
0.0
 10
185.4349383202592
 20
15.06891060312899
 30
0.0
 10
185.5248482274346
 20
14.95377438266626
 30
0.0
 10
185.5709169676674
 20
14.8535704574832
 30
0.0
 10
185.6655825294655
 20
14.78434006814942
 30
0.0
 10
185.6204439320412
 20
14.73771639678274
 30
0.0
 10
185.5947047785789
 20
14.69660308866039
 30
0.0
 10
185.5645196708012
 20
14.6606597172794
 30
0.0
 10
185.5193684730562
 20
14.58579782596095
 30
0.0
 10
185.4710504458562
 20
14.80782524253604
 30
0.0
 10
185.3968539713073
 20
14.84510677337708
 30
0.0
 10
185.2836047324607
 20
15.11610202130597
 30
0.0
 10
185.2885133578169
 20
15.00095328446226
 30
0.0
 10
185.2868486556306
 20
14.92836675781624
 30
0.0
 10
185.2876830076713
 20
14.80625588483983
 30
0.0
 10
185.2873609540264
 20
14.65913800810457
 30
0.0
 10
185.2875076912456
 20
14.49307063956554
 30
0.0
 10
185.2872950092722
 20
14.32187554608599
 30
0.0
 10
185.2879497252034
 20
14.15552828635495
 30
0.0
 10
185.2859192461139
 20
14.0093517305569
 30
0.0
 10
185.291346039993
 20
13.88471047474608
 30
0.0
 10
185.2804930868708
 20
13.81718656540623
 30
0.0
 10
185.2956739155555
 20
13.7554906141702
 30
0.0
 10
185.2457895108134
 20
13.76727503896998
 30
0.0
 10
185.2017150342521
 20
13.75943822779966
 30
0.0
 10
185.1582371630201
 20
13.767604413727
 30
0.0
 10
185.1092346786488
 20
13.75538056738464
 30
0.0
 10
185.1218731234825
 20
13.8096066724931
 30
0.0
 10
185.1130182968449
 20
13.86936918907554
 30
0.0
 10
185.1175058770314
 20
13.97922029044367
 30
0.0
 10
185.1157960135991
 20
14.11029975405675
 30
0.0
 10
185.1163550915986
 20
14.26198011444324
 30
0.0
 10
185.1161928768694
 20
14.4221107492995
 30
0.0
 10
185.1162269924674
 20
14.58236865674563
 30
0.0
 10
185.1162514960127
 20
14.73370247520436
 30
0.0
 10
185.1161453543225
 20
14.86582156338597
 30
0.0
 10
185.1164299141931
 20
14.97294802533189
 30
0.0
 10
185.1158675547567
 20
15.03808619579469
 30
0.0
 10
185.118076508369
 20
15.16618957858672
 30
0.0
 10
185.0319435998601
 20
14.79097610391572
 30
0.0
 10
184.95551408185
 20
14.63918193123394
 30
0.0
 10
184.8660040767833
 20
14.47766206446304
 30
0.0
 10
184.7640413217326
 20
14.20471848820168
 30
0.0
 10
184.7187976491039
 20
14.36717346596511
 30
0.0
 10
184.610235594167
 20
14.45605432058118
 30
0.0
 10
184.7995791751753
 20
14.60549794961409
 30
0.0
 10
184.8565340545701
 20
14.79749136974925
 30
0.0
 10
184.9717520993352
 20
15.02899622906756
 30
0.0
 10
184.9940151630132
 20
15.21797259759062
 30
0.0
 10
185.177190515214
 20
15.49454089325924
 30
0.0
 10
185.0538033597552
 20
15.48698978832089
 30
0.0
 10
184.9925684166834
 20
15.48856772366114
 30
0.0
 10
184.9081999617064
 20
15.48882592573667
 30
0.0
 10
184.8204235085966
 20
15.48544845751201
 30
0.0
 10
184.7656768696122
 20
15.49394814982015
 30
0.0
 10
184.7104703026025
 20
15.48048561049783
 30
0.0
 10
184.7222823035536
 20
15.52931442126759
 30
0.0
 10
184.7142496151794
 20
15.57269004896705
 30
0.0
 10
184.7228186104679
 20
15.6150943830957
 30
0.0
 10
184.7102943409156
 20
15.66267796552116
 30
0.0
 10
184.7555101538736
 20
15.65267212995107
 30
0.0
 10
184.8014815562723
 20
15.65894105174059
 30
0.0
 10
184.877722204771
 20
15.6559356140587
 30
0.0
 10
184.9561296131993
 20
15.65770448278539
 30
0.0
 10
185.0323992648932
 20
15.65464793981658
 30
0.0
 10
185.0783009459474
 20
15.66103971376175
 30
0.0
 10
185.12317339654
 20
15.65093822978894
 30
0.0
 10
185.1105552275634
 20
15.70157201581897
 30
0.0
 10
185.1191936582707
 20
15.75501261882069
 30
0.0
 10
185.1152361595442
 20
15.8486325513168
 30
0.0
 10
185.1162325068335
 20
15.95112606688925
 30
0.0
 10
185.1171927413073
 20
16.05353270248165
 30
0.0
 10
185.1133211458006
 20
16.14735929609324
 30
0.0
 10
185.1217789814364
 20
16.20036542840356
 30
0.0
 10
185.1093075932835
 20
16.25211435651192
 30
0.0
 10
185.154210638985
 20
16.2385074722676
 30
0.0
 10
185.1955083836772
 20
16.24100480320587
 30
0.0
 10
185.2595344281051
 20
16.23648060574488
 30
0.0
 10
185.2986111148785
 20
16.22781003043307
 30
0.0
 10
185.3476543498743
 20
16.23515102070685
 30
0.0
 10
185.322508003059
 20
16.19602896051756
 30
0.0
 10
185.2815901333723
 20
16.20563842455809
 30
0.0
 10
185.2910109616604
 20
16.15540148169779
 30
0.0
 10
185.2855647318746
 20
16.1038594563949
 30
0.0
 10
185.2881699601804
 20
16.0195970758452
 30
0.0
 10
185.2870102202154
 20
15.92559135583408
 30
0.0
 10
185.2883591064231
 20
15.83196865395524
 30
0.0
 10
185.284997010151
 20
15.74679517552222
 30
0.0
 10
185.2920959917768
 20
15.69716856072042
 30
0.0
 10
185.2812569154546
 20
15.64993694969987
 30
0.0
 10
185.3304010225245
 20
15.6620167493685
 30
0.0
 10
185.3794877630147
 20
15.65447393363009
 30
0.0
 10
185.4573714280641
 20
15.65686070361431
 30
0.0
 10
185.5350365172895
 20
15.65899381905412
 30
0.0
 10
185.5845393931355
 20
15.65193391922453
 30
0.0
 10
185.6344594750638
 20
15.66360151936212
 30
0.0
 10
185.6223198516881
 20
15.6154023537139
 30
0.0
 10
185.6305838229144
 20
15.57249219801232
 30
0.0
 10
185.6223198650783
 20
15.5295820185138
 30
0.0
 10
185.6344594549854
 20
15.4813828875486
 30
0.0
 10
185.5845395158746
 20
15.49305034471505
 30
0.0
 10
185.5350350651202
 20
15.48599202435041
 30
0.0
 10
185.4573784382973
 20
15.48811665228598
 30
0.0
 10
185.379464386576
 20
15.49053389365755
 30
0.0
 10
185.3304500352716
 20
15.4829184819448
 30
0.0
 10
185.2813246108943
 20
15.49507952557587
 30
0.0
 10
185.2915559988571
 20
15.45073013424154
 30
0.0
 10
185.2856677678053
 20
15.40925436202908
 30
0.0
 10
185.2878788305569
 20
15.34915394315302
 30
0.0
 10
185.2874109346146
 20
15.30225782762889
 30
0.0
 10
185.2874386992913
 20
15.27650146418196
 30
0.0
 10
185.2874469028653
 20
15.2688916318772
 30
0.0
 11
185.2874469028653
 21
15.2688916318772
 31
0.0
 11
185.3516977534484
 21
15.18524999634258
 31
0.0
 11
185.4348258835499
 21
15.07118889748222
 31
0.0
 11
185.5216831568896
 21
14.94891767195724
 31
0.0
 11
185.5971214371872
 21
14.84064565642876
 31
0.0
 11
185.6459925881626
 21
14.7685821875579
 31
0.0
 11
185.6296821285093
 21
14.74641782124399
 31
0.0
 11
185.5937991172719
 21
14.6976562153534
 31
0.0
 11
185.5579161060346
 21
14.64889460946281
 31
0.0
 11
185.5416056463813
 21
14.6267302431489
 31
0.0
 11
185.4763067109446
 21
14.74716139023812
 31
0.0
 11
185.3848434243234
 21
14.89966983670204
 31
0.0
 11
185.2874469028653
 21
15.05219788193139
 31
0.0
 11
185.2874469028653
 21
15.0221644532825
 31
0.0
 11
185.2874469028653
 21
14.9398147295678
 31
0.0
 11
185.2874469028653
 21
14.81677455413525
 31
0.0
 11
185.2874469028653
 21
14.6646697703328
 31
0.0
 11
185.2874469028653
 21
14.49512622150842
 31
0.0
 11
185.2874469028653
 21
14.31976975101006
 31
0.0
 11
185.2874469028653
 21
14.15022620218568
 31
0.0
 11
185.2874469028653
 21
13.99812141838323
 31
0.0
 11
185.2874469028653
 21
13.87508124295068
 31
0.0
 11
185.2874469028653
 21
13.79273151923598
 31
0.0
 11
185.2874469028653
 21
13.76269809058709
 31
0.0
 11
185.2606936700409
 21
13.76269809058709
 31
0.0
 11
185.2018365578272
 21
13.76269809058709
 31
0.0
 11
185.1429794456134
 21
13.76269809058709
 31
0.0
 11
185.116226212789
 21
13.76269809058709
 31
0.0
 11
185.116226212789
 21
13.78864805031247
 31
0.0
 11
185.116226212789
 21
13.86039205661205
 31
0.0
 11
185.116226212789
 21
13.96877130017098
 31
0.0
 11
185.116226212789
 21
14.10462697167444
 31
0.0
 11
185.116226212789
 21
14.25880026180758
 31
0.0
 11
185.116226212789
 21
14.42213236125555
 31
0.0
 11
185.116226212789
 21
14.58546446070352
 31
0.0
 11
185.116226212789
 21
14.73963775083666
 31
0.0
 11
185.116226212789
 21
14.87549342234012
 31
0.0
 11
185.116226212789
 21
14.98387266589905
 31
0.0
 11
185.116226212789
 21
15.05561667219863
 31
0.0
 11
185.116226212789
 21
15.08156663192401
 31
0.0
 11
185.0379865861721
 21
14.8496560330237
 31
0.0
 11
184.9497110789303
 21
14.63077616328676
 31
0.0
 11
184.8544106930045
 21
14.43598991333545
 31
0.0
 11
184.7550964303356
 21
14.276360173792
 31
0.0
 11
184.7109198342406
 21
14.35822446196599
 31
0.0
 11
184.658805738348
 21
14.43414885430809
 31
0.0
 11
184.7627302590299
 21
14.59640087926756
 31
0.0
 11
184.8629319864735
 21
14.79551465421781
 31
0.0
 11
184.9550446607901
 21
15.01890447916196
 31
0.0
 11
185.0347020220912
 21
15.25398465410318
 31
0.0
 11
185.097537810488
 21
15.4881694790446
 31
0.0
 11
185.0693965972142
 21
15.4881694790446
 31
0.0
 11
184.9990435640297
 21
15.4881694790446
 31
0.0
 11
184.9075846208898
 21
15.4881694790446
 31
0.0
 11
184.8161256777499
 21
15.4881694790446
 31
0.0
 11
184.7457726445654
 21
15.4881694790446
 31
0.0
 11
184.7176314312916
 21
15.4881694790446
 31
0.0
 11
184.7176314312916
 21
15.51452032539218
 31
0.0
 11
184.7176314312916
 21
15.57249218735685
 31
0.0
 11
184.7176314312916
 21
15.63046404932152
 31
0.0
 11
184.7176314312916
 21
15.6568148956691
 31
0.0
 11
184.739711025602
 21
15.6568148956691
 31
0.0
 11
184.7966531372444
 21
15.6568148956691
 31
0.0
 11
184.8745127592862
 21
15.6568148956691
 31
0.0
 11
184.9593448847944
 21
15.6568148956691
 31
0.0
 11
185.0372045068361
 21
15.6568148956691
 31
0.0
 11
185.0941466184786
 21
15.6568148956691
 31
0.0
 11
185.116226212789
 21
15.6568148956691
 31
0.0
 11
185.116226212789
 21
15.68210596174351
 31
0.0
 11
185.116226212789
 21
15.74878240866696
 31
0.0
 11
185.116226212789
 21
15.84304910948977
 31
0.0
 11
185.116226212789
 21
15.95111093726225
 31
0.0
 11
185.116226212789
 21
16.05917276503473
 31
0.0
 11
185.116226212789
 21
16.15343946585754
 31
0.0
 11
185.116226212789
 21
16.22011591278099
 31
0.0
 11
185.116226212789
 21
16.2454069788554
 31
0.0
 11
185.1393181988665
 21
16.24373213107803
 31
0.0
 11
185.1943837041284
 21
16.23973826330123
 31
0.0
 11
185.2601070491184
 21
16.23497138885796
 31
0.0
 11
185.3151725543802
 21
16.23097752108116
 31
0.0
 11
185.3382645404578
 21
16.22930267330379
 31
0.0
 11
185.3249012644362
 21
16.20789677921189
 31
0.0
 11
185.2874469028653
 21
16.1945011455347
 31
0.0
 11
185.2874469028653
 21
16.17139743948579
 31
0.0
 11
185.2874469028653
 21
16.1104876689932
 31
0.0
 11
185.2874469028653
 21
16.02437385553816
 31
0.0
 11
185.2874469028653
 21
15.9256580206019
 31
0.0
 11
185.2874469028653
 21
15.82694218566564
 31
0.0
 11
185.2874469028653
 21
15.7408283722106
 31
0.0
 11
185.2874469028653
 21
15.67991860171801
 31
0.0
 11
185.2874469028653
 21
15.6568148956691
 31
0.0
 11
185.3126150604809
 21
15.6568148956691
 31
0.0
 11
185.3755354545199
 21
15.6568148956691
 31
0.0
 11
185.4573319667706
 21
15.6568148956691
 31
0.0
 11
185.5391284790212
 21
15.6568148956691
 31
0.0
 11
185.6020488730602
 21
15.6568148956691
 31
0.0
 11
185.6272170306758
 21
15.6568148956691
 31
0.0
 11
185.6272170306758
 21
15.63046404932152
 31
0.0
 11
185.6272170306758
 21
15.57249218735685
 31
0.0
 11
185.6272170306758
 21
15.51452032539218
 31
0.0
 11
185.6272170306758
 21
15.4881694790446
 31
0.0
 11
185.6020488730602
 21
15.4881694790446
 31
0.0
 11
185.5391284790212
 21
15.4881694790446
 31
0.0
 11
185.4573319667705
 21
15.4881694790446
 31
0.0
 11
185.3755354545199
 21
15.4881694790446
 31
0.0
 11
185.3126150604809
 21
15.4881694790446
 31
0.0
 11
185.2874469028653
 21
15.4881694790446
 31
0.0
 11
185.2874469028653
 21
15.46536458293919
 31
0.0
 11
185.2874469028653
 21
15.41098367684168
 31
0.0
 11
185.2874469028653
 21
15.34607743408013
 31
0.0
 11
185.2874469028653
 21
15.29169652798261
 31
0.0
 11
185.2874469028653
 21
15.2688916318772
 31
0.0
  0
SPLINE
  5
B3
102
{ACAD_REACTORS
330
D0
102
}
330
48
100
AcDbEntity
  8
_U_30EC_U_30A4_U_30E4_U_30FC_1
  6
Continuous
 62
     2
100
AcDbSpline
210
0.0
220
0.0
230
1.0
 70
    11
 71
     3
 72
    47
 73
    43
 74
    41
 42
0.000000001
 43
0.0000000001
 44
0.00000001
 40
0.0
 40
0.0
 40
0.0
 40
0.0
 40
0.2207912809957301
 40
0.4459404186303237
 40
0.4902387190459467
 40
0.5327473892722467
 40
0.5742260451225746
 40
0.615543263056103
 40
0.6568164066315939
 40
0.6982511618780817
 40
0.7407663929317372
 40
0.7851366743175447
 40
1.010288833836352
 40
1.231080507002213
 40
1.451765243652435
 40
1.676638205891678
 40
1.720461045359649
 40
1.830018144043512
 40
1.972442372353145
 40
2.114866600677512
 40
2.224423699395137
 40
2.268246538883378
 40
2.493628801207247
 40
2.71560283028664
 40
2.9342113307064
 40
3.149502369855346
 40
3.231387784850987
 40
3.318231873854022
 40
3.405143198198011
 40
3.486970301720443
 40
3.70225817249384
 40
3.920866283534075
 40
4.142839325931857
 40
4.368221903865358
 40
4.412044743359838
 40
4.521601842095851
 40
4.664026070452332
 40
4.806450298809041
 40
4.916007397546736
 40
4.959830237043057
 40
5.184703515847048
 40
5.405387250767416
 40
5.405387250767416
 40
5.405387250767416
 40
5.405387250767416
 10
182.6507427258645
 20
15.7340644095387
 30
0.0
 10
182.6568139420002
 20
15.79758482501208
 30
0.0
 10
182.6690762107242
 20
15.92587938689626
 30
0.0
 10
182.5604706879413
 20
16.20166220174077
 30
0.0
 10
182.6761985896603
 20
16.17188133432053
 30
0.0
 10
182.7171842509016
 20
16.16765556262813
 30
0.0
 10
182.7591205797517
 20
16.16310446389608
 30
0.0
 10
182.800419662571
 20
16.16201982929489
 30
0.0
 10
182.8417032115555
 20
16.16310338195228
 30
0.0
 10
182.8836148270647
 20
16.16766112711336
 30
0.0
 10
182.9245983549019
 20
16.17187430209728
 30
0.0
 10
183.0404922843489
 20
16.20177611317533
 30
0.0
 10
182.9295652727456
 20
15.92339806609888
 30
0.0
 10
182.9574856365267
 20
15.74283140824951
 30
0.0
 10
182.940426734697
 20
15.50961042346471
 30
0.0
 10
182.9414637282102
 20
15.34906622543147
 30
0.0
 10
182.9414099399405
 20
15.22284817558725
 30
0.0
 10
182.941427737248
 20
15.12428963336244
 30
0.0
 10
182.9414188581081
 20
14.99280702442966
 30
0.0
 10
182.9414263928033
 20
14.86132844968652
 30
0.0
 10
182.9414129405129
 20
14.76276222694094
 30
0.0
 10
182.9414531717492
 20
14.63639735624153
 30
0.0
 10
182.9406746403817
 20
14.47482068822871
 30
0.0
 10
182.9565958319267
 20
14.24361821892915
 30
0.0
 10
182.9333468885407
 20
14.05874351972
 30
0.0
 10
183.0360183444366
 20
13.78935602770066
 30
0.0
 10
182.8820238362836
 20
13.82660112685812
 30
0.0
 10
182.8004129802832
 20
13.82137994680533
 30
0.0
 10
182.7188192292583
 20
13.82660620378346
 30
0.0
 10
182.5648513666843
 20
13.78937069885397
 30
0.0
 10
182.6674183421918
 20
14.05875129862878
 30
0.0
 10
182.6442045316087
 20
14.24361585325415
 30
0.0
 10
182.6600444655139
 20
14.47482218565639
 30
0.0
 10
182.6593296313428
 20
14.63639712308505
 30
0.0
 10
182.6593664569907
 20
14.76276231210523
 30
0.0
 10
182.659354900027
 20
14.86132756635985
 30
0.0
 10
182.6593575019214
 20
14.99281127417222
 30
0.0
 10
182.6593648531779
 20
15.12427548031202
 30
0.0
 10
182.6593442541351
 20
15.22287786275329
 30
0.0
 10
182.6594082192028
 20
15.34896149354428
 30
0.0
 10
182.658173394759
 20
15.51210091383772
 30
0.0
 10
182.6532040396745
 20
15.66054183777548
 30
0.0
 10
182.6507427258645
 20
15.7340644095387
 30
0.0
 11
182.6507427258645
 21
15.7340644095387
 31
0.0
 11
182.6417328200379
 21
15.95467178795576
 31
0.0
 11
182.6318769706146
 21
16.17960510387179
 31
0.0
 11
182.6756985840801
 21
16.17312391463727
 31
0.0
 11
182.7178400934215
 21
16.1675489233192
 31
0.0
 11
182.759137140979
 21
16.16367167505631
 31
0.0
 11
182.8004341885365
 21
16.1623807288761
 31
0.0
 11
182.841687138873
 21
16.16367167505631
 31
0.0
 11
182.8829400892097
 21
16.1675489233192
 31
0.0
 11
182.9250882131343
 21
16.17312391463727
 31
0.0
 11
182.9689825870145
 21
16.17960510387179
 31
0.0
 11
182.9590577693891
 21
15.95467178795576
 31
0.0
 11
182.950038420831
 21
15.7340644095387
 31
0.0
 11
182.9435638463435
 21
15.51347467001053
 31
0.0
 11
182.9414218238286
 21
15.2886119096501
 31
0.0
 11
182.9414218238286
 21
15.24478907015489
 31
0.0
 11
182.9414218238286
 21
15.13523197141685
 31
0.0
 11
182.9414218238286
 21
14.9928077430574
 31
0.0
 11
182.9414218238286
 21
14.85038351469795
 31
0.0
 11
182.9414218238286
 21
14.74082641595992
 31
0.0
 11
182.9414218238286
 21
14.6970035764647
 31
0.0
 11
182.9435638463435
 21
14.47163149318765
 31
0.0
 11
182.950038420831
 21
14.2497519099098
 31
0.0
 11
182.9590577693891
 21
14.03132954885328
 31
0.0
 11
182.9689825870145
 21
13.81626739612931
 31
0.0
 11
182.887261616877
 21
13.82145433189183
 31
0.0
 11
182.8004341885365
 21
13.8231553822386
 31
0.0
 11
182.7135395119339
 21
13.82145433189183
 31
0.0
 11
182.6318769706146
 21
13.81626739612931
 31
0.0
 11
182.6417328200379
 21
14.03132954885329
 31
0.0
 11
182.6507427258645
 21
14.2497519099098
 31
0.0
 11
182.6571833838798
 21
14.47163149318765
 31
0.0
 11
182.6593583588023
 21
14.6970035764647
 31
0.0
 11
182.6593583588023
 21
14.74082641595991
 31
0.0
 11
182.6593583588023
 21
14.85038351469795
 31
0.0
 11
182.6593583588023
 21
14.9928077430574
 31
0.0
 11
182.6593583588023
 21
15.13523197141685
 31
0.0
 11
182.6593583588023
 21
15.24478907015489
 31
0.0
 11
182.6593583588023
 21
15.2886119096501
 31
0.0
 11
182.6571833838798
 21
15.51347467001053
 31
0.0
 11
182.6507427258645
 21
15.7340644095387
 31
0.0
  0
SPLINE
  5
B4
102
{ACAD_REACTORS
330
D1
102
}
330
48
100
AcDbEntity
  8
_U_30EC_U_30A4_U_30E4_U_30FC_1
  6
Continuous
 62
     2
100
AcDbSpline
210
0.0
220
0.0
230
1.0
 70
    11
 71
     3
 72
   110
 73
   106
 74
   104
 42
0.000000001
 43
0.0000000001
 44
0.00000001
 40
0.0
 40
0.0
 40
0.0
 40
0.0
 40
0.2203406257277578
 40
0.4407808782838091
 40
0.5952494494615073
 40
0.748843165939309
 40
0.9023581831309062
 40
1.056801968670404
 40
1.210736449099905
 40
1.363041386539782
 40
1.515315729683126
 40
1.669377239148077
 40
1.721611652756585
 40
1.773199502942987
 40
1.824933793209994
 40
1.877110426488018
 40
1.982682281206785
 40
2.078781667087595
 40
2.172809640822315
 40
2.271937807378968
 40
2.37834993337936
 40
2.494131557736547
 40
2.626681683943682
 40
2.78314505079611
 40
2.89070123294095
 40
2.993130312454889
 40
3.099869730691835
 40
3.220237816691321
 40
3.352695482737598
 40
3.481732806389911
 40
3.593499473690402
 40
3.674323013331947
 40
3.817951711952897
 40
3.946167120793896
 40
4.06140505345358
 40
4.166480796003222
 40
4.262478775059257
 40
4.350736673551215
 40
4.433071991254097
 40
4.511216293814697
 40
4.564262454117979
 40
4.618474415571569
 40
4.670128488754206
 40
4.722296879126413
 40
4.81954094531428
 40
4.931194984128139
 40
5.049996040257782
 40
5.168643755415327
 40
5.283970811762539
 40
5.392260784910365
 40
5.48651225487644
 40
5.559178233949839
 40
5.591425852853488
 40
5.626215969637883
 40
5.667155838674423
 40
5.717449290214266
 40
5.738402360944877
 40
5.78449911655384
 40
5.830595872164808
 40
5.851548942897662
 40
5.873019280661777
 40
5.924217778408319
 40
5.985325662817698
 40
6.036524160567715
 40
6.057994498334243
 40
6.236847789607494
 40
6.381409928945688
 40
6.493190424178699
 40
6.574067534230558
 40
6.691018086205652
 40
6.81488155422057
 40
6.944307823240522
 40
7.071266716066146
 40
7.193488604461991
 40
7.309042773128218
 40
7.414007203170843
 40
7.505140441886597
 40
7.531150360599737
 40
7.559221645322332
 40
7.58720221892098
 40
7.612569159499213
 40
7.662550809481054
 40
7.702878875764149
 40
7.857328205230962
 40
8.010799568088608
 40
8.165256399657558
 40
8.322232698713897
 40
8.479564855016584
 40
8.635216230290787
 40
8.790882550925705
 40
8.948305154947269
 40
9.168271839032942
 40
9.38735898098718
 40
9.608047961033408
 40
9.832914234792593
 40
9.858338694962928
 40
9.925366817229943
 40
10.02013071422753
 40
10.12876249858992
 40
10.23739428295244
 40
10.33215817995186
 40
10.3991863022239
 40
10.42461076239779
 40
10.64992019336937
 40
10.87188524531184
 40
10.87188524531184
 40
10.87188524531184
 40
10.87188524531184
 10
179.9057788376618
 20
15.7392326039819
 30
0.0
 10
179.9092864933541
 20
15.80616462073803
 30
0.0
 10
179.9163033987663
 20
15.94005891915858
 30
0.0
 10
179.8198027599072
 20
16.22548554971469
 30
0.0
 10
180.0510134726109
 20
16.16284386190284
 30
0.0
 10
180.1919290057156
 20
16.17001554055984
 30
0.0
 10
180.3490417757588
 20
16.16235883078246
 30
0.0
 10
180.5025913427288
 20
16.16252752283044
 30
0.0
 10
180.6545104935081
 20
16.16182040535433
 30
0.0
 10
180.8142214813231
 20
16.17210158351632
 30
0.0
 10
180.9408972601117
 20
16.15496511080751
 30
0.0
 10
181.1370821122081
 20
16.22727260107146
 30
0.0
 10
181.1034395279078
 20
16.12640699080114
 30
0.0
 10
181.1052011317184
 20
16.07619253947668
 30
0.0
 10
181.1027342073458
 20
16.02712335586463
 30
0.0
 10
181.1347076966011
 20
15.94063490846994
 30
0.0
 10
181.0010399903256
 20
15.98997438608339
 30
0.0
 10
180.9172208688057
 20
15.98430634314171
 30
0.0
 10
180.8173861139324
 20
15.99465516706298
 30
0.0
 10
180.7186576720146
 20
16.00086450411087
 30
0.0
 10
180.6121532771111
 20
16.00697763816776
 30
0.0
 10
180.4910511698059
 20
16.01588883484579
 30
0.0
 10
180.3703381502454
 20
16.00521605912386
 30
0.0
 10
180.1812553843436
 20
16.06468503080364
 30
0.0
 10
180.2129028505311
 20
15.90558320077537
 30
0.0
 10
180.1995563316834
 20
15.80839128339902
 30
0.0
 10
180.197495842645
 20
15.69634065110101
 30
0.0
 10
180.1958188044671
 20
15.57699685629351
 30
0.0
 10
180.1973336794233
 20
15.45032592155109
 30
0.0
 10
180.195658247867
 20
15.32301588016115
 30
0.0
 10
180.2058844271657
 20
15.2245156640446
 30
0.0
 10
180.1779006596582
 20
15.08388702625626
 30
0.0
 10
180.3508029999305
 20
15.13989551134088
 30
0.0
 10
180.4645020202771
 20
15.12719951478504
 30
0.0
 10
180.584015167224
 20
15.13448377051251
 30
0.0
 10
180.6888491425071
 20
15.13878017056763
 30
0.0
 10
180.7843084898612
 20
15.14330568258973
 30
0.0
 10
180.8763823507032
 20
15.15149201146206
 30
0.0
 10
180.9476551782438
 20
15.14643850638108
 30
0.0
 10
181.0544931705685
 20
15.18536425031669
 30
0.0
 10
181.0226603598036
 20
15.10517122005879
 30
0.0
 10
181.026616450393
 20
15.05562936846034
 30
0.0
 10
181.0234502392013
 20
15.00557478039819
 30
0.0
 10
181.0550791490585
 20
14.92128847612021
 30
0.0
 10
180.9210133677691
 20
14.9742536549515
 30
0.0
 10
180.82923227932
 20
14.96540080890439
 30
0.0
 10
180.7079729189603
 20
14.97570049965159
 30
0.0
 10
180.5914113119771
 20
14.977489117675
 30
0.0
 10
180.4783375745879
 20
14.97787017109695
 30
0.0
 10
180.3679246308471
 20
14.98415449472182
 30
0.0
 10
180.289812406784
 20
14.97189133255363
 30
0.0
 10
180.1913625833644
 20
15.00453887616127
 30
0.0
 10
180.2012355173561
 20
14.94769748054208
 30
0.0
 10
180.1973923244402
 20
14.91392130557986
 30
0.0
 10
180.1966789884268
 20
14.87119604709411
 30
0.0
 10
180.1963369642975
 20
14.83401607262153
 30
0.0
 10
180.1963834255345
 20
14.79487237370769
 30
0.0
 10
180.1963649429927
 20
14.75716849497685
 30
0.0
 10
180.1963703431807
 20
14.71944955232402
 30
0.0
 10
180.19636972142
 20
14.6899432474515
 30
0.0
 10
180.1963698151545
 20
14.65873577699301
 30
0.0
 10
180.196370428792
 20
14.61414424908084
 30
0.0
 10
180.1963671499336
 20
14.55963956508851
 30
0.0
 10
180.1963759623481
 20
14.51505540201448
 30
0.0
 10
180.1963359653417
 20
14.4311780858574
 30
0.0
 10
180.1976024270255
 20
14.31737520677678
 30
0.0
 10
180.1950274117842
 20
14.16830395933708
 30
0.0
 10
180.2065009381719
 20
14.06597203813903
 30
0.0
 10
180.1823506222263
 20
13.93338903885829
 30
0.0
 10
180.3332993946477
 20
13.97895732272016
 30
0.0
 10
180.4428436671555
 20
13.96427012162343
 30
0.0
 10
180.573397047392
 20
13.9692043512506
 30
0.0
 10
180.6990312209514
 20
13.97257705323359
 30
0.0
 10
180.81887306256
 20
13.97711497498771
 30
0.0
 10
180.9391362611427
 20
13.99048536182003
 30
0.0
 10
181.0222761663515
 20
13.98068712782594
 30
0.0
 10
181.1456080421074
 20
14.04126214623316
 30
0.0
 10
181.1244269203957
 20
13.98532460134019
 30
0.0
 10
181.1235950270116
 20
13.95939249372345
 30
0.0
 10
181.1218963707558
 20
13.93197256190937
 30
0.0
 10
181.1217974888829
 20
13.89738195206384
 30
0.0
 10
181.120365930133
 20
13.86050408220768
 30
0.0
 10
181.153280419219
 20
13.7684684102181
 30
0.0
 10
180.9551306988107
 20
13.84132015974826
 30
0.0
 10
180.830054829489
 20
13.81825726508604
 30
0.0
 10
180.6673071295156
 20
13.82454021985783
 30
0.0
 10
180.5129366450001
 20
13.82260943909924
 30
0.0
 10
180.3566670436943
 20
13.82393762599265
 30
0.0
 10
180.1970544465281
 20
13.82059872487861
 30
0.0
 10
180.0540326342237
 20
13.83265795728235
 30
0.0
 10
179.8197144881628
 20
13.76952001976926
 30
0.0
 10
179.9173810751197
 20
14.05620527466318
 30
0.0
 10
179.9006868780058
 20
14.2498830814266
 30
0.0
 10
179.9146296709685
 20
14.47848242880292
 30
0.0
 10
179.9142987846632
 20
14.63384593955044
 30
0.0
 10
179.9143078119264
 20
14.73966336444122
 30
0.0
 10
179.9143055876316
 20
14.80205784124211
 30
0.0
 10
179.9143065551889
 20
14.89220425248324
 30
0.0
 10
179.9143065473262
 20
14.99621167157436
 30
0.0
 10
179.9143053861102
 20
15.10022131375294
 30
0.0
 10
179.9143090971502
 20
15.19036243688767
 30
0.0
 10
179.9143011051051
 20
15.25276803097215
 30
0.0
 10
179.9143334275018
 20
15.35868835961119
 30
0.0
 10
179.9131440788319
 20
15.51626716544738
 30
0.0
 10
179.9082216489256
 20
15.66528219822065
 30
0.0
 10
179.9057788376618
 20
15.7392326039819
 30
0.0
 11
179.9057788376618
 21
15.7392326039819
 31
0.0
 11
179.896691822374
 21
15.95938578101016
 31
0.0
 11
179.8868249573133
 21
16.17960510387179
 31
0.0
 11
180.04115751414
 21
16.17312391463727
 31
0.0
 11
180.1946500189046
 21
16.1675489233192
 31
0.0
 11
180.3481160653366
 21
16.16367167505631
 31
0.0
 11
180.5025544554939
 21
16.1623807288761
 31
0.0
 11
180.6564835227473
 21
16.16367167505631
 31
0.0
 11
180.80873910046
 21
16.1675489233192
 31
0.0
 11
180.9609113551074
 21
16.17312391463727
 31
0.0
 11
181.1148364762483
 21
16.17960510387179
 31
0.0
 11
181.1070811703123
 21
16.12794961777356
 31
0.0
 11
181.1044991623591
 21
16.076426423342
 31
0.0
 11
181.1070811703123
 21
16.0247566056466
 31
0.0
 11
181.1148364762483
 21
15.9731595483678
 31
0.0
 11
181.0094874054411
 21
15.98001446156059
 31
0.0
 11
180.913637570006
 21
15.9869355205866
 31
0.0
 11
180.8198593171903
 21
15.993783819196
 31
0.0
 11
180.7209679915881
 21
16.0006321178054
 31
0.0
 11
180.6147532199924
 21
16.00710999974822
 31
0.0
 11
180.4991060528038
 21
16.0126882983579
 31
0.0
 11
180.3666126447258
 21
16.01656554662087
 31
0.0
 11
180.2101546018423
 21
16.0178564928011
 31
0.0
 11
180.2062663293721
 21
15.91037061609186
 31
0.0
 11
180.20153800484
 21
15.8080507289646
 31
0.0
 11
180.1976607566749
 21
15.70138175329686
 31
0.0
 11
180.1963698105272
 21
15.5810205901325
 31
0.0
 11
180.1967799146836
 21
15.44856355891566
 31
0.0
 11
180.1980896021502
 21
15.3195328818645
 31
0.0
 11
180.1994074577049
 21
15.20777398432308
 31
0.0
 11
180.199819115366
 21
15.1269514930238
 31
0.0
 11
180.3434452935874
 21
15.12780256941246
 31
0.0
 11
180.4716343930758
 21
15.13039989580079
 31
0.0
 11
180.5868078221795
 21
15.13425509545253
 31
0.0
 11
180.691775631222
 21
15.1390164930208
 31
0.0
 11
180.7876346289421
 21
15.14418027774175
 31
0.0
 11
180.8757413374193
 21
15.1493440624627
 31
0.0
 11
180.9578881438496
 21
15.15491243919737
 31
0.0
 11
181.0357692335571
 21
15.1613208680152
 31
0.0
 11
181.0280180445186
 21
15.10884407115336
 31
0.0
 11
181.0254328449317
 21
15.0546937847086
 31
0.0
 11
181.0280180445186
 21
15.00310444444365
 31
0.0
 11
181.0357692335571
 21
14.9515151041788
 31
0.0
 11
180.9389813454014
 21
14.96092324653752
 31
0.0
 11
180.8275950722015
 21
14.9686512847301
 31
0.0
 11
180.7089261429373
 21
14.97425273438148
 31
0.0
 11
180.5903167449213
 21
14.9772678819501
 31
0.0
 11
180.4750025117521
 21
14.97898767361639
 31
0.0
 11
180.36672619507
 21
14.98070746528259
 31
0.0
 11
180.2724839317708
 21
14.98202486979617
 31
0.0
 11
180.199819115366
 21
14.9824360763933
 31
0.0
 11
180.199407457705
 21
14.95019108508194
 31
0.0
 11
180.1980896021502
 21
14.91542593752119
 31
0.0
 11
180.1967799146836
 21
14.87450702260086
 31
0.0
 11
180.1963698105272
 21
14.8242152430995
 31
0.0
 11
180.1963698105272
 21
14.8032621723582
 31
0.0
 11
180.1963698105272
 21
14.75716541672736
 31
0.0
 11
180.1963698105272
 21
14.7110686610965
 31
0.0
 11
180.1963698105272
 21
14.69011559035521
 31
0.0
 11
180.1963698105272
 21
14.6686452525828
 31
0.0
 11
180.1963698105272
 21
14.61744675481784
 31
0.0
 11
180.1963698105272
 21
14.55633887038868
 31
0.0
 11
180.1963698105272
 21
14.50514037262371
 31
0.0
 11
180.1963698105272
 21
14.4836700348513
 31
0.0
 11
180.1967799146836
 21
14.30481721371548
 31
0.0
 11
180.1980896021502
 21
14.1602610071544
 31
0.0
 11
180.2002868589709
 21
14.04850210961289
 31
0.0
 11
180.2032586986985
 21
13.9676796183136
 31
0.0
 11
180.3202092517447
 21
13.9676796183136
 31
0.0
 11
180.4440727208746
 21
13.9676796183136
 31
0.0
 11
180.5734925526422
 21
13.96897056449386
 31
0.0
 11
180.7003922282244
 21
13.9728478127568
 31
0.0
 11
180.8224658067973
 21
13.97886708358863
 31
0.0
 11
180.9377587499463
 21
13.98663260442
 31
0.0
 11
181.0421754573518
 21
13.997341614834
 31
0.0
 11
181.1320599255448
 21
14.01237656274689
 31
0.0
 11
181.1264254031191
 21
13.98698427976714
 31
0.0
 11
181.1234433285423
 21
13.959071840538
 31
0.0
 11
181.12213398812
 21
13.93112191867001
 31
0.0
 11
181.1217235369195
 21
13.90575829888469
 31
0.0
 11
181.1243087365064
 21
13.85584355063326
 31
0.0
 11
181.1320599255448
 21
13.81626739612931
 31
0.0
 11
180.9776977178344
 21
13.82145433189183
 31
0.0
 11
180.8242357818765
 21
13.8231553822386
 31
0.0
 11
180.6697789496483
 21
13.8231553822386
 31
0.0
 11
180.5128026496768
 21
13.8231553822386
 31
0.0
 11
180.3554704921536
 21
13.8231553822386
 31
0.0
 11
180.199819115366
 21
13.8231553822386
 31
0.0
 11
180.0441620874241
 21
13.82145433189183
 31
0.0
 11
179.8868249573133
 21
13.81626739612931
 31
0.0
 11
179.896691822374
 21
14.03601267385212
 31
0.0
 11
179.9057788376618
 21
14.2549112849085
 31
0.0
 11
179.91217215184
 21
14.47550763902
 31
0.0
 11
179.9143063455009
 21
14.70036378479711
 31
0.0
 11
179.9143063455009
 21
14.7257882449687
 31
0.0
 11
179.9143063455009
 21
14.79281636723928
 31
0.0
 11
179.9143063455009
 21
14.88758026424251
 31
0.0
 11
179.9143063455009
 21
14.99621204861205
 31
0.0
 11
179.9143063455009
 21
15.1048438329816
 31
0.0
 11
179.9143063455009
 21
15.19960772998483
 31
0.0
 11
179.9143063455009
 21
15.2666358522554
 31
0.0
 11
179.9143063455009
 21
15.292060312427
 31
0.0
 11
179.91217215184
 21
15.51735963528733
 31
0.0
 11
179.9057788376618
 21
15.7392326039819
 31
0.0
  0
SPLINE
  5
B5
102
{ACAD_REACTORS
330
D2
102
}
330
48
100
AcDbEntity
  8
_U_30EC_U_30A4_U_30E4_U_30FC_1
  6
Continuous
 62
     2
100
AcDbSpline
210
0.0
220
0.0
230
1.0
 70
    11
 71
     3
 72
    95
 73
    91
 74
    89
 42
0.000000001
 43
0.0000000001
 44
0.00000001
 40
0.0
 40
0.0
 40
0.0
 40
0.0
 40
0.6550406656911703
 40
1.308087289031968
 40
1.420803739835847
 40
1.56613075977085
 40
1.757067341888527
 40
2.006513545026479
 40
2.087328263121567
 40
2.18532887229568
 40
2.294612454748422
 40
2.408936380534844
 40
2.526802767798595
 40
2.646360524615649
 40
2.762535723971618
 40
2.87005734287019
 40
2.966883448431718
 40
3.050803243518347
 40
3.115818222436642
 40
3.156030057150245
 40
3.213914225080142
 40
3.276689026450542
 40
3.342960320981319
 40
3.404230667150563
 40
3.453822809493337
 40
3.532499827188337
 40
3.634775188507117
 40
3.754909333008113
 40
3.889736761660623
 40
4.035769602175128
 40
4.187256681197582
 40
4.338733685675879
 40
4.488478734676078
 40
4.634708317831529
 40
4.771493189921197
 40
4.892686571561174
 40
5.199775528944396
 40
5.460353566929539
 40
5.667603142345453
 40
5.814722905404436
 40
5.828990806219735
 40
5.855488336304432
 40
5.869756237118763
 40
6.189796507762778
 40
6.531890469872957
 40
6.88305363701695
 40
7.230512024911408
 40
7.566966656764534
 40
7.88520355970732
 40
8.172887439719133
 40
8.41801159406269
 40
8.443926721190612
 40
8.510760470613098
 40
8.602145393795606
 40
8.701714041647044
 40
8.793098965075274
 40
8.859932715057845
 40
8.885847842603493
 40
9.242301256612699
 40
9.589275455016612
 40
9.921808543164065
 40
10.23479624298457
 40
10.29968150889168
 40
10.35323493887756
 40
10.4015462535514
 40
10.46482922477816
 40
10.55973900668394
 40
10.69239545985613
 40
10.84920353475663
 40
11.0162632859477
 40
11.18672024367432
 40
11.35372582577202
 40
11.50257442292418
 40
11.61866495023283
 40
11.71329869152868
 40
11.82511050573896
 40
11.94464880845707
 40
12.06929242642497
 40
12.1970729043517
 40
12.3256263286052
 40
12.45034565331272
 40
12.56646595170318
 40
12.67099007414627
 40
12.76077625936775
 40
12.82703233506689
 40
12.87429132785985
 40
12.89831990323324
 40
12.92234847860013
 40
13.53984767410314
 40
14.18294284359355
 40
14.18294284359355
 40
14.18294284359355
 40
14.18294284359355
 10
177.3067935648021
 20
14.7089803820172
 30
0.0
 10
177.175201975855
 20
14.82265058603228
 30
0.0
 10
176.9124193802729
 20
15.04964496316155
 30
0.0
 10
176.399739344102
 20
15.89214462956289
 30
0.0
 10
176.4106654595363
 20
15.53423377577019
 30
0.0
 10
176.4041226527991
 20
15.39267392272131
 30
0.0
 10
176.4028026631773
 20
15.1942130529928
 30
0.0
 10
176.4018117602538
 20
15.02150296045984
 30
0.0
 10
176.4024101751974
 20
14.87865373257581
 30
0.0
 10
176.4038994301882
 20
14.78265005413357
 30
0.0
 10
176.4055683588472
 20
14.67545503263141
 30
0.0
 10
176.4071934954617
 20
14.56164211517582
 30
0.0
 10
176.4092429501685
 20
14.44441572604589
 30
0.0
 10
176.4123165501927
 20
14.3265641123297
 30
0.0
 10
176.4156339697042
 20
14.2122808732062
 30
0.0
 10
176.419360534028
 20
14.10521401867276
 30
0.0
 10
176.4217338161424
 20
14.0100740876692
 30
0.0
 10
176.4278718888358
 20
13.92558557205695
 30
0.0
 10
176.4239784495946
 20
13.86923087298142
 30
0.0
 10
176.4455230443077
 20
13.79825022472361
 30
0.0
 10
176.3680940058618
 20
13.82902677604477
 30
0.0
 10
176.3116353240191
 20
13.82011242517613
 30
0.0
 10
176.2540495896806
 20
13.82896218398269
 30
0.0
 10
176.1690163478473
 20
13.79738225225951
 30
0.0
 10
176.2009714146382
 20
13.88095155992188
 30
0.0
 10
176.1990705282539
 20
13.94882608968308
 30
0.0
 10
176.2107960047299
 20
14.05233256764416
 30
0.0
 10
176.2164241053
 20
14.17002125616694
 30
0.0
 10
176.223790217894
 20
14.30388609164421
 30
0.0
 10
176.2320759701611
 20
14.4476415287263
 30
0.0
 10
176.2398851897426
 20
14.59714022843442
 30
0.0
 10
176.2457571222657
 20
14.74792549402077
 30
0.0
 10
176.2503667817969
 20
14.89699943878436
 30
0.0
 10
176.2542632117542
 20
15.0412291316302
 30
0.0
 10
176.2570715126564
 20
15.17583905213015
 30
0.0
 10
176.2576698755022
 20
15.36469614347352
 30
0.0
 10
176.261602386715
 20
15.58975494313151
 30
0.0
 10
176.2442175378498
 20
15.86367091125704
 30
0.0
 10
176.2850417342583
 20
16.02787112098591
 30
0.0
 10
176.1995153256002
 20
16.22749661465096
 30
0.0
 10
176.2660558907688
 20
16.22385458403976
 30
0.0
 10
176.283872427323
 20
16.22413447160852
 30
0.0
 10
176.4056801797504
 20
16.2263292739861
 30
0.0
 10
176.5080770335462
 20
15.94675118721512
 30
0.0
 10
176.7580021509356
 20
15.74563008536
 30
0.0
 10
176.987003533111
 20
15.47792614987914
 30
0.0
 10
177.2245151213108
 20
15.22646413862376
 30
0.0
 10
177.4486090740772
 20
14.98969974061356
 30
0.0
 10
177.6750716283009
 20
14.73218692583082
 30
0.0
 10
177.8325687886514
 20
14.61649335056922
 30
0.0
 10
178.0472129612673
 20
14.27997152538795
 30
0.0
 10
178.0422645974619
 20
14.40464754091604
 30
0.0
 10
178.0433931602546
 20
14.46327691935738
 30
0.0
 10
178.0428877841517
 20
14.55043662371978
 30
0.0
 10
178.0430475158113
 20
14.64416143182872
 30
0.0
 10
178.0430054891318
 20
14.73018971297035
 30
0.0
 10
178.0430202040372
 20
14.79153891945495
 30
0.0
 10
178.0429706255982
 20
14.94135231520992
 30
0.0
 10
178.0458811522811
 20
15.17989612510103
 30
0.0
 10
178.0259521041162
 20
15.54486509868698
 30
0.0
 10
178.0750433936248
 20
15.80799631993411
 30
0.0
 10
177.917795150918
 20
16.2192890494775
 30
0.0
 10
178.0762112872421
 20
16.16398282551749
 30
0.0
 10
178.1311680478628
 20
16.16199686500179
 30
0.0
 10
178.182788776674
 20
16.16264778248253
 30
0.0
 10
178.2713198965366
 20
16.20369527738244
 30
0.0
 10
178.2204898303168
 20
16.05696326622985
 30
0.0
 10
178.2313389930283
 20
15.95019971954432
 30
0.0
 10
178.2166036994847
 20
15.79085705414111
 30
0.0
 10
178.2099976446204
 20
15.62853061652875
 30
0.0
 10
178.2014961399914
 20
15.45992521892396
 30
0.0
 10
178.1943227202199
 20
15.29814814703542
 30
0.0
 10
178.1889063215389
 20
15.15422331457932
 30
0.0
 10
178.1871713967648
 20
15.03437493466924
 30
0.0
 10
178.1875440672318
 20
14.92686101590514
 30
0.0
 10
178.1873656126263
 20
14.81820024645586
 30
0.0
 10
178.187701086314
 20
14.69953570165531
 30
0.0
 10
178.1890040622184
 20
14.5755516351274
 30
0.0
 10
178.1908887351574
 20
14.44858294171104
 30
0.0
 10
178.1925004454851
 20
14.3215386155103
 30
0.0
 10
178.1941403137429
 20
14.19854884492177
 30
0.0
 10
178.1962570745752
 20
14.08300931383758
 30
0.0
 10
178.1963848422364
 20
13.98090903955837
 30
0.0
 10
178.2006514396554
 20
13.89009848838155
 30
0.0
 10
178.1908440085289
 20
13.83213621208784
 30
0.0
 10
178.2118474771689
 20
13.76517130132028
 30
0.0
 10
178.1725639739897
 20
13.77291153966686
 30
0.0
 10
177.9595307117743
 20
13.75755254145193
 30
0.0
 10
177.7636297943189
 20
14.3140305809447
 30
0.0
 10
177.4611197631543
 20
14.57556035348507
 30
0.0
 10
177.3067935648021
 20
14.7089803820172
 30
0.0
 11
177.3067935648021
 21
14.7089803820172
 31
0.0
 11
176.8595529338511
 21
15.18757635411975
 31
0.0
 11
176.4124049070643
 21
15.6635264928897
 31
0.0
 11
176.4089664262494
 21
15.55086249986231
 31
0.0
 11
176.40556101835
 21
15.40557538184309
 31
0.0
 11
176.4029636920274
 21
15.21465645827965
 31
0.0
 11
176.4021126156603
 21
14.96521170139759
 31
0.0
 11
176.4025239230289
 21
14.88439802954282
 31
0.0
 11
176.4038420329817
 21
14.7864062847756
 31
0.0
 11
176.4055192267718
 21
14.67713557299738
 31
0.0
 11
176.4072367127518
 21
14.5628245487204
 31
0.0
 11
176.4094007838772
 21
14.44497802965266
 31
0.0
 11
176.4124049070643
 21
14.32545802100199
 31
0.0
 11
176.4158359733138
 21
14.20933349846156
 31
0.0
 11
176.4192928929998
 21
14.1018674655023
 31
0.0
 11
176.4227085253088
 21
14.00510162351261
 31
0.0
 11
176.4261896983793
 21
13.92125406276971
 31
0.0
 11
176.4296006184313
 21
13.8563286200776
 31
0.0
 11
176.4330776843148
 21
13.81626739612931
 31
0.0
 11
176.3754263821571
 21
13.82145433189183
 31
0.0
 11
176.3126746318309
 21
13.8231553822386
 31
0.0
 11
176.2464251717157
 21
13.82145433189183
 31
0.0
 11
176.1853747739675
 21
13.81626739612931
 31
0.0
 11
176.1926772737812
 21
13.8653189412559
 31
0.0
 11
176.2008793569054
 21
13.9435672572085
 31
0.0
 11
176.2090098822348
 21
14.04551893253028
 31
0.0
 11
176.2163406441397
 21
14.16542920159751
 31
0.0
 11
176.2236358280421
 21
14.3000591234389
 31
0.0
 11
176.2318444255596
 21
14.44586107652739
 31
0.0
 11
176.2395504149465
 21
14.59715203135074
 31
0.0
 11
176.2455763002093
 21
14.7485091320073
 31
0.0
 11
176.2503046247416
 21
14.89817951391435
 31
0.0
 11
176.254192897212
 21
15.0443573958222
 31
0.0
 11
176.2567527408965
 21
15.18111831592692
 31
0.0
 11
176.2576324804574
 21
15.3023085068689
 31
0.0
 11
176.257192610677
 21
15.60939715262542
 31
0.0
 11
176.2559126888347
 21
15.86997204839359
 31
0.0
 11
176.2528658717893
 21
16.07719922716123
 31
0.0
 11
176.2473049112763
 21
16.2242138538606
 31
0.0
 11
176.2615728121469
 21
16.2242138538606
 31
0.0
 11
176.2880703423352
 21
16.2242138538606
 31
0.0
 11
176.3023382432058
 21
16.2242138538606
 31
0.0
 11
176.5194743650277
 21
15.9891017966277
 31
0.0
 11
176.7512744123079
 21
15.7375128123156
 31
0.0
 11
176.9894816018839
 21
15.47949555543568
 31
0.0
 11
177.2260074557521
 21
15.22497079855489
 31
0.0
 11
177.4555698717705
 21
14.97899759549135
 31
0.0
 11
177.6731797360103
 21
14.7467893403411
 31
0.0
 11
177.8713724913707
 21
14.53826680567101
 31
0.0
 11
178.0430143099086
 21
14.3632669793259
 31
0.0
 11
178.0430143099086
 21
14.38918210687044
 31
0.0
 11
178.0430143099086
 21
14.45601585685372
 31
0.0
 11
178.0430143099086
 21
14.54740078030025
 31
0.0
 11
178.0430143099086
 21
14.64696942823454
 31
0.0
 11
178.0430143099086
 21
14.73835435168107
 31
0.0
 11
178.0430143099086
 21
14.80518810166435
 31
0.0
 11
178.0430143099086
 21
14.83110322920889
 31
0.0
 11
178.0417233637609
 21
15.18755430550866
 31
0.0
 11
178.0378461155958
 21
15.5345068401441
 31
0.0
 11
178.0296197790002
 21
15.86693815950551
 31
0.0
 11
178.0154535467228
 21
16.17960510387179
 31
0.0
 11
178.0790351249618
 21
16.16666367158336
 31
0.0
 11
178.1324170159611
 21
16.1623807288761
 31
0.0
 11
178.1805381084833
 21
16.16666367158336
 31
0.0
 11
178.2424836798197
 21
16.17960510387179
 31
0.0
 11
178.2351216487575
 21
16.08498128445103
 31
0.0
 11
178.2269790968818
 21
15.9525749650396
 31
0.0
 11
178.2183705364004
 21
15.79600336785655
 31
0.0
 11
178.2097547223215
 21
15.62916593734271
 31
0.0
 11
178.2016187850288
 21
15.45890325509363
 31
0.0
 11
178.1942501393835
 21
15.292060312427
 31
0.0
 11
178.1891406931522
 21
15.14329943572809
 31
0.0
 11
178.1874503478904
 21
15.027221215271
 31
0.0
 11
178.1874503478904
 21
14.93258747397516
 31
0.0
 11
178.1874503478904
 21
14.82077565976709
 31
0.0
 11
178.1878461204497
 21
14.70123801222749
 31
0.0
 11
178.1890819450708
 21
14.5766005209392
 31
0.0
 11
178.1908392193317
 21
14.44883212687388
 31
0.0
 11
178.1925303477608
 21
14.32028982655879
 31
0.0
 11
178.1942876220214
 21
14.19558288214553
 31
0.0
 11
178.1959787504505
 21
14.0794748960635
 31
0.0
 11
178.1972884379172
 21
13.97495896727016
 31
0.0
 11
178.1976985420735
 21
13.88517371555651
 31
0.0
 11
178.1976985420735
 21
13.81891763918413
 31
0.0
 11
178.1976985420735
 21
13.7716586461404
 31
0.0
 11
178.1736699662976
 21
13.7716586461404
 31
0.0
 11
178.1496413905217
 21
13.7716586461404
 31
0.0
 11
177.7410729200423
 21
14.23466735262191
 31
0.0
 11
177.3067935648021
 21
14.7089803820172
 31
0.0
  0
SPLINE
  5
B6
102
{ACAD_REACTORS
330
D3
102
}
330
48
100
AcDbEntity
  8
_U_30EC_U_30A4_U_30E4_U_30FC_1
  6
Continuous
 62
     2
100
AcDbSpline
210
0.0
220
0.0
230
1.0
 70
    11
 71
     3
 72
    25
 73
    21
 74
    19
 42
0.000000001
 43
0.0000000001
 44
0.00000001
 40
0.0
 40
0.0
 40
0.0
 40
0.0
 40
0.0911479969064823
 40
0.1858117896204656
 40
0.280412839973448
 40
0.37158891907145
 40
0.4679080494218698
 40
0.5642683809229219
 40
0.6605683222644978
 40
0.7569653015810242
 40
0.8561348172522693
 40
1.092615965104276
 40
1.374867658141851
 40
1.611348812011566
 40
1.71051832842521
 40
1.809403163726526
 40
2.045205463294018
 40
2.326646917622067
 40
2.562449217190521
 40
2.661334043833835
 40
2.661334043833835
 40
2.661334043833835
 40
2.661334043833835
 10
173.2683700567199
 20
14.8861453819729
 30
0.0
 10
173.2987525917922
 20
14.88598079714551
 30
0.0
 10
173.3606895889112
 20
14.88564528689917
 30
0.0
 10
173.4541356960329
 20
14.88269055452001
 30
0.0
 10
173.5475095236358
 20
14.87977752877152
 30
0.0
 10
173.6417760753476
 20
14.87894201643416
 30
0.0
 10
173.7354964790967
 20
14.87996644658046
 30
0.0
 10
173.8352040303204
 20
14.8791697747097
 30
0.0
 10
173.9188949546313
 20
14.88921410235218
 30
0.0
 10
174.0637996315045
 20
14.86234617674163
 30
0.0
 10
173.9396132444801
 20
15.03665530280046
 30
0.0
 10
173.8965867286282
 20
15.19651711006088
 30
0.0
 10
173.780892214221
 20
15.45518458550211
 30
0.0
 10
173.7017565431256
 20
15.59231052861853
 30
0.0
 10
173.6431576621816
 20
15.80937033134071
 30
0.0
 10
173.5864803939438
 20
15.59266134213423
 30
0.0
 10
173.5052809900477
 20
15.45327012438231
 30
0.0
 10
173.4063701281488
 20
15.20406969370192
 30
0.0
 10
173.3253625094259
 20
15.0192583022607
 30
0.0
 10
173.2813683325838
 20
14.91650446856114
 30
0.0
 10
173.2683700567199
 20
14.8861453819729
 30
0.0
 11
173.2683700567199
 21
14.8861453819729
 31
0.0
 11
173.359513773782
 21
14.88526123266756
 31
0.0
 11
173.4541428297581
 21
14.882696979196
 31
0.0
 11
173.5487082179706
 21
14.88009965280779
 31
0.0
 11
173.6398803250196
 21
14.8792485764191
 31
0.0
 11
173.7361985777706
 21
14.87965978301621
 31
0.0
 11
173.8325499034376
 21
14.8809771875297
 31
0.0
 11
173.9288262638286
 21
14.88310818579311
 31
0.0
 11
174.0251753846343
 21
14.8861453819729
 31
0.0
 11
173.9854633323141
 21
14.97701642195018
 31
0.0
 11
173.8907653613968
 21
15.19370890189598
 31
0.0
 11
173.7777387509471
 21
15.45234186183131
 31
0.0
 11
173.6830407800297
 21
15.66903434177711
 31
0.0
 11
173.6433287277095
 21
15.75990538175439
 31
0.0
 11
173.6043330259266
 21
15.66903434177711
 31
0.0
 11
173.5113432755212
 21
15.45234186183131
 31
0.0
 11
173.4003555089082
 21
15.19370890189599
 31
0.0
 11
173.3073657585028
 21
14.97701642195018
 31
0.0
 11
173.2683700567199
 21
14.8861453819729
 31
0.0
  0
SPLINE
  5
B7
102
{ACAD_REACTORS
330
D3
102
}
330
48
100
AcDbEntity
  8
_U_30EC_U_30A4_U_30E4_U_30FC_1
  6
Continuous
 62
     2
100
AcDbSpline
210
0.0
220
0.0
230
1.0
 70
    11
 71
     3
 72
    57
 73
    53
 74
    51
 42
0.000000001
 43
0.0000000001
 44
0.00000001
 40
0.0
 40
0.0
 40
0.0
 40
0.0
 40
0.0471632082809162
 40
0.0914861054632082
 40
0.1357762519702318
 40
0.1826527001610613
 40
0.2295203288572522
 40
0.2737751972220691
 40
0.3181310461543003
 40
0.3652607198398371
 40
0.4571007286314022
 40
0.5671851029164766
 40
0.689462328386787
 40
0.8181758272545441
 40
0.9510087229273414
 40
1.08585222967404
 40
1.218126164475273
 40
1.343545131142359
 40
1.454537202956774
 40
1.567187607530784
 40
1.680710966642402
 40
1.794226869736766
 40
1.900009184247566
 40
2.004085860447845
 40
2.108162674451733
 40
2.214000150155277
 40
2.496038577352135
 40
2.76235074547928
 40
2.997275353279409
 40
3.185110082137696
 40
3.246407890063918
 40
3.312607550212649
 40
3.378877742711551
 40
3.4401403996514
 40
4.100501696006376
 40
4.754913085563394
 40
5.411331693423822
 40
6.07789043256861
 40
6.110575292670889
 40
6.143260152775669
 40
6.367989363395072
 40
6.610525374951415
 40
6.863389136467211
 40
7.119380025547533
 40
7.376036605091
 40
7.631164770966191
 40
7.876722425456314
 40
8.10495373585584
 40
8.312916685924204
 40
8.497730294941165
 40
8.651018984313746
 40
8.764738853624442
 40
8.764738853624442
 40
8.764738853624442
 40
8.764738853624442
 10
174.7922649500513
 20
13.81626739612931
 30
0.0
 10
174.7766616726931
 20
13.81826231079079
 30
0.0
 10
174.7463947960302
 20
13.82213201360295
 30
0.0
 10
174.7010994202253
 20
13.82341984967267
 30
0.0
 10
174.6559553129349
 20
13.82308683554048
 30
0.0
 10
174.6099017123399
 20
13.82314658674222
 30
0.0
 10
174.5640496172096
 20
13.82325813649999
 30
0.0
 10
174.5183711648165
 20
13.82277833456589
 30
0.0
 10
174.4750811541608
 20
13.82461109618716
 30
0.0
 10
174.4039947951514
 20
13.80049556814666
 30
0.0
 10
174.4057477261441
 20
13.92184693977251
 30
0.0
 10
174.3586196370569
 20
14.00726239751235
 30
0.0
 10
174.3191478251762
 20
14.12486929345135
 30
0.0
 10
174.2706635532645
 20
14.24232752540438
 30
0.0
 10
174.2201017402522
 20
14.3640593576151
 30
0.0
 10
174.1718634610477
 20
14.49075967862468
 30
0.0
 10
174.1135232947594
 20
14.59933687784953
 30
0.0
 10
174.0980892667262
 20
14.75620657134415
 30
0.0
 10
173.9566586330635
 20
14.72373446548319
 30
0.0
 10
173.8508397414904
 20
14.73512888682181
 30
0.0
 10
173.7358569725222
 20
14.73392591514614
 30
0.0
 10
173.6253142252141
 20
14.73506945347407
 30
0.0
 10
173.5176583522783
 20
14.73418350037525
 30
0.0
 10
173.4121322529242
 20
14.7341660239052
 30
0.0
 10
173.3109192682013
 20
14.72714032472413
 30
0.0
 10
173.1266804827753
 20
14.75135859859875
 30
0.0
 10
173.1157393685411
 20
14.44741691121884
 30
0.0
 10
173.0087691634749
 20
14.22353177253398
 30
0.0
 10
172.9098148604347
 20
14.03895314292494
 30
0.0
 10
172.9225090524008
 20
13.79530204804218
 30
0.0
 10
172.8050091716397
 20
13.82508046753192
 30
0.0
 10
172.742205586831
 20
13.82258089509602
 30
0.0
 10
172.6785872093399
 20
13.823440751028
 30
0.0
 10
172.3946014194075
 20
13.78098039941981
 30
0.0
 10
173.0251638499381
 20
14.50081952444772
 30
0.0
 10
173.1087645289072
 20
15.01276539435729
 30
0.0
 10
173.4929252789338
 20
15.53353743550037
 30
0.0
 10
173.4777208288567
 20
16.23519626253216
 30
0.0
 10
173.7239265722696
 20
16.22345633081254
 30
0.0
 10
173.8256346157562
 20
16.23225004452772
 30
0.0
 10
173.8249752035817
 20
15.98059650730345
 30
0.0
 10
173.9428317155828
 20
15.79818020733959
 30
0.0
 10
174.0315515260485
 20
15.55563740662865
 30
0.0
 10
174.1322292485258
 20
15.32340030530124
 30
0.0
 10
174.2311142712243
 20
15.08674644566911
 30
0.0
 10
174.3299676990669
 20
14.85461739170092
 30
0.0
 10
174.4256166390925
 20
14.63122222788787
 30
0.0
 10
174.5159904573271
 20
14.42272549049316
 30
0.0
 10
174.5989944568188
 20
14.23308448529319
 30
0.0
 10
174.6726088582799
 20
14.06663106068101
 30
0.0
 10
174.7342815895545
 20
13.92917699626098
 30
0.0
 10
174.7749458885604
 20
13.84999239430036
 30
0.0
 10
174.7922649500513
 20
13.81626739612931
 30
0.0
 11
174.7922649500513
 21
13.81626739612931
 31
0.0
 11
174.7453878317448
 21
13.82145433189183
 31
0.0
 11
174.7010975896125
 21
13.8231553822386
 31
0.0
 11
174.6568074431729
 21
13.8231553822386
 31
0.0
 11
174.6099309947159
 21
13.8231553822386
 31
0.0
 11
174.5630633657033
 21
13.8231553822386
 31
0.0
 11
174.5188084970408
 21
13.8231553822386
 31
0.0
 11
174.4744852776854
 21
13.82145433189183
 31
0.0
 11
174.4276419021443
 21
13.81626739612931
 31
0.0
 11
174.3992532136325
 21
13.90360966173245
 31
0.0
 11
174.3622721815898
 21
14.0072965627482
 31
0.0
 11
174.3188386236701
 21
14.12159987001128
 31
0.0
 11
174.2711055866936
 21
14.24113531268969
 31
0.0
 11
174.2208160133237
 21
14.36408057307565
 31
0.0
 11
174.1696467003932
 21
14.4888382292945
 31
0.0
 11
174.1197531801326
 21
14.61134141502773
 31
0.0
 11
174.0733119111841
 21
14.7278451736792
 31
0.0
 11
173.9623611907589
 21
14.73087465284505
 31
0.0
 11
173.8497309225089
 21
14.7330045486779
 31
0.0
 11
173.7362152069449
 21
14.73432195319139
 31
0.0
 11
173.62270004768
 21
14.73473315978851
 31
0.0
 11
173.5169185312816
 21
14.73432195319139
 31
0.0
 11
173.4128501919225
 21
14.7330045486779
 31
0.0
 11
173.3087951724045
 21
14.73087465284505
 31
0.0
 11
173.2030010615596
 21
14.7278451736792
 31
0.0
 11
173.0980914750139
 21
14.46604437513351
 31
0.0
 11
173.0034868690331
 21
14.2171023265846
 31
0.0
 11
172.9252231210298
 21
13.99559756969557
 31
0.0
 11
172.8693431224555
 21
13.81626739612931
 31
0.0
 11
172.8082651639442
 21
13.82145433189183
 31
0.0
 11
172.742087361813
 21
13.8231553822386
 31
0.0
 11
172.6758390041282
 21
13.82145433189183
 31
0.0
 11
172.6147963233938
 21
13.81626739612931
 31
0.0
 11
172.889968495193
 21
14.41656508695141
 31
0.0
 11
173.158294573417
 21
15.0134364236077
 31
0.0
 11
173.4240277350405
 21
15.61366245644379
 31
0.0
 11
173.6914740737033
 21
16.2242138538606
 31
0.0
 11
173.7241589339806
 21
16.2242138538606
 31
0.0
 11
173.7568437942579
 21
16.2242138538606
 31
0.0
 11
173.8428300681057
 21
16.01658539037081
 31
0.0
 11
173.9357285813609
 21
15.7925461456352
 31
0.0
 11
174.0328714521463
 21
15.55908663180467
 31
0.0
 11
174.1317936458031
 21
15.3229812846414
 31
0.0
 11
174.2315341249927
 21
15.08649780379782
 31
0.0
 11
174.3313071129353
 21
14.85168781253709
 31
0.0
 11
174.4280608257448
 21
14.62599492196849
 31
0.0
 11
174.5188084970408
 21
14.4165805209792
 31
0.0
 11
174.6022150834546
 21
14.22607611130459
 31
0.0
 11
174.6770293263377
 21
14.0570823266247
 31
0.0
 11
174.7410729186603
 21
13.91781337700667
 31
0.0
 11
174.7922649500513
 21
13.81626739612931
 31
0.0
  0
SPLINE
  5
B8
102
{ACAD_REACTORS
330
D4
102
}
330
48
100
AcDbEntity
  8
_U_30EC_U_30A4_U_30E4_U_30FC_1
  6
Continuous
 62
     2
100
AcDbSpline
210
0.0
220
0.0
230
1.0
 70
    11
 71
     3
 72
    99
 73
    95
 74
    93
 42
0.000000001
 43
0.0000000001
 44
0.00000001
 40
0.0
 40
0.0
 40
0.0
 40
0.0
 40
0.0796417172272102
 40
0.1621768542355718
 40
0.2486489160957381
 40
0.3404969668524209
 40
0.4381912511164383
 40
0.5434463660244685
 40
0.6518115192847026
 40
0.7530190937886562
 40
0.8492196919724936
 40
0.941929031299792
 40
1.034249663570012
 40
1.129078600620159
 40
1.22669702757324
 40
1.327220425421685
 40
1.470572134937983
 40
1.595489863371216
 40
1.719934125348395
 40
1.850576620127363
 40
1.989059629987282
 40
2.134139054226902
 40
2.280698007207185
 40
2.424529739039451
 40
2.565929576985818
 40
2.708239260773542
 40
2.861717887443604
 40
3.045168540347308
 40
3.183798301138568
 40
3.314813961455453
 40
3.442083470447306
 40
3.569912708372949
 40
3.702177512509349
 40
3.842307559659528
 40
3.992872223245924
 40
4.156750662218312
 40
4.310981861107533
 40
4.445859909322573
 40
4.57239393613157
 40
4.701656719781957
 40
4.768279086008458
 40
4.835960697898391
 40
4.912788918729334
 40
5.006285208481523
 40
5.026909478751599
 40
5.047533749021164
 40
5.101808031471209
 40
5.162325165538507
 40
5.226919745995823
 40
5.294231806596691
 40
5.364544852554829
 40
5.438319055467882
 40
5.517877651324214
 40
5.607647714861525
 40
5.70044964254437
 40
5.788251142364092
 40
5.872714706039739
 40
5.95516729257527
 40
6.037192395190352
 40
6.120669181469049
 40
6.206848616686293
 40
6.296680855416758
 40
6.442558392872609
 40
6.568190371608314
 40
6.692904567360366
 40
6.824220446557152
 40
6.963121850329383
 40
7.107843738851165
 40
7.253431663907272
 40
7.395187468036695
 40
7.533140753237773
 40
7.670550457175247
 40
7.816236511769253
 40
7.98769165735921
 40
8.142277421969252
 40
8.293662615414991
 40
8.44296246087926
 40
8.591598316185294
 40
8.743678992361811
 40
8.903725323699177
 40
9.076307008890524
 40
9.265578604680579
 40
9.459203795360756
 40
9.61761981027354
 40
9.753609671361895
 40
9.874873300004085
 40
9.95452018497778
 40
10.02416413719243
 40
10.09769764405443
 40
10.18909955924972
 40
10.20974586420133
 40
10.23039218263379
 40
10.30057101881266
 40
10.37632012987549
 40
10.37632012987549
 40
10.37632012987549
 40
10.37632012987549
 10
170.1465954835851
 20
14.1379566321599
 30
0.0
 10
170.1632217851219
 20
14.11720608845311
 30
0.0
 10
170.1970784206577
 20
14.07495111711901
 30
0.0
 10
170.2599822541036
 20
14.02029811392072
 30
0.0
 10
170.3332500940393
 20
13.97299025121049
 30
0.0
 10
170.4175969238636
 20
13.9352723143794
 30
0.0
 10
170.5132240615459
 20
13.91040619731946
 30
0.0
 10
170.6171853775346
 20
13.90309559345934
 30
0.0
 10
170.7224020220405
 20
13.91142322794053
 30
0.0
 10
170.8206626371333
 20
13.94149179651525
 30
0.0
 10
170.9058986427548
 20
13.98848822971877
 30
0.0
 10
170.9779220206103
 20
14.04952991250856
 30
0.0
 10
171.0350917709096
 20
14.12412969578581
 30
0.0
 10
171.076786874744
 20
14.21002464660174
 30
0.0
 10
171.1026952846292
 20
14.30485850432211
 30
0.0
 10
171.1118037332653
 20
14.41854979038367
 30
0.0
 10
171.0986864796487
 20
14.54332587770778
 30
0.0
 10
171.0325330334414
 20
14.66014719171893
 30
0.0
 10
170.9369370919569
 20
14.74512539577377
 30
0.0
 10
170.8249681022368
 20
14.8141668445915
 30
0.0
 10
170.6993659583269
 20
14.87204142045892
 30
0.0
 10
170.5656691620856
 20
14.9237372328434
 30
0.0
 10
170.4313122818831
 20
14.9789909239718
 30
0.0
 10
170.3051983986877
 20
15.04939770641647
 30
0.0
 10
170.1926579987535
 20
15.13785540731248
 30
0.0
 10
170.0969963064458
 20
15.24981067868473
 30
0.0
 10
170.0334157151826
 20
15.3994991010138
 30
0.0
 10
170.0200706505015
 20
15.55932794385138
 30
0.0
 10
170.0320510987448
 20
15.71048405306842
 30
0.0
 10
170.071229892884
 20
15.83809244591539
 30
0.0
 10
170.135498775091
 20
15.95080874030846
 30
0.0
 10
170.223820499974
 20
16.04648609268686
 30
0.0
 10
170.3338091207627
 20
16.12354214985751
 30
0.0
 10
170.4632284401265
 20
16.18151396936283
 30
0.0
 10
170.6111838967793
 20
16.2173917758882
 30
0.0
 10
170.7682069455486
 20
16.22746719050561
 30
0.0
 10
170.917494046643
 20
16.2186363776259
 30
0.0
 10
171.059625361417
 20
16.19074899340355
 30
0.0
 10
171.1595922609624
 20
16.13413314701138
 30
0.0
 10
171.3125074736185
 20
16.08674602105509
 30
0.0
 10
171.2455131717168
 20
16.00197553001187
 30
0.0
 10
171.2296479120269
 20
15.93438901873487
 30
0.0
 10
171.1978750531296
 20
15.86926092793192
 30
0.0
 10
171.215020220957
 20
15.76723453256956
 30
0.0
 10
171.1666427208232
 20
15.77493211681904
 30
0.0
 10
171.1315789440766
 20
15.7680677172481
 30
0.0
 10
171.1296697985717
 20
15.83263831158196
 30
0.0
 10
171.0985692931989
 20
15.87825639621396
 30
0.0
 10
171.0664551628456
 20
15.93561036628455
 30
0.0
 10
171.0208038475168
 20
15.98540462692559
 30
0.0
 10
170.9658508218386
 20
16.02994813718993
 30
0.0
 10
170.9010841173008
 20
16.06763988836551
 30
0.0
 10
170.8232377310597
 20
16.09283375791351
 30
0.0
 10
170.7355160553351
 20
16.09931230998108
 30
0.0
 10
170.6452903277807
 20
16.09235709285608
 30
0.0
 10
170.5594594694064
 20
16.06909190460927
 30
0.0
 10
170.4828343638596
 20
16.03131644107545
 30
0.0
 10
170.4165265636202
 20
15.98051641089572
 30
0.0
 10
170.3622560536964
 20
15.9173114340721
 30
0.0
 10
170.3224925345459
 20
15.8427645571037
 30
0.0
 10
170.2976775510587
 20
15.75917313997764
 30
0.0
 10
170.289212426287
 20
15.65192948382284
 30
0.0
 10
170.3019697987103
 20
15.52965457267555
 30
0.0
 10
170.3681548409273
 20
15.41149724291205
 30
0.0
 10
170.4640977399833
 20
15.32606325709526
 30
0.0
 10
170.5757914963182
 20
15.25583362306718
 30
0.0
 10
170.7010863668702
 20
15.19659162305301
 30
0.0
 10
170.8349823941447
 20
15.1461670808613
 30
0.0
 10
170.968993033315
 20
15.09322516984382
 30
0.0
 10
171.0950885316915
 20
15.02750170625175
 30
0.0
 10
171.2076216638417
 20
14.94480352537317
 30
0.0
 10
171.3031370284233
 20
14.83996006310072
 30
0.0
 10
171.3672706486962
 20
14.69937117251569
 30
0.0
 10
171.3811103725279
 20
14.54065409451592
 30
0.0
 10
171.3673954712229
 20
14.38153155217875
 30
0.0
 10
171.3244739153984
 20
14.23483828819212
 30
0.0
 10
171.2545906329065
 20
14.10119796587142
 30
0.0
 10
171.1574592213829
 20
13.98532387699295
 30
0.0
 10
171.0347806023658
 20
13.89089981770081
 30
0.0
 10
170.8874408413167
 20
13.82179270651982
 30
0.0
 10
170.7177132497125
 20
13.77953210858854
 30
0.0
 10
170.5317404979597
 20
13.76781736230405
 30
0.0
 10
170.3528955926183
 20
13.77809486683437
 30
0.0
 10
170.1881733753744
 20
13.81966573769154
 30
0.0
 10
170.0834410841056
 20
13.88797642883939
 30
0.0
 10
169.9350960790365
 20
13.93675219032108
 30
0.0
 10
169.9980378194729
 20
14.02976591290842
 30
0.0
 10
170.0072274430059
 20
14.1029653624828
 30
0.0
 10
170.0303711301232
 20
14.16936294501346
 30
0.0
 10
170.0034588335316
 20
14.26974809527581
 30
0.0
 10
170.0521338956339
 20
14.26234033517379
 30
0.0
 10
170.0916530580697
 20
14.26894063620895
 30
0.0
 10
170.0996204944701
 20
14.1907870321893
 30
0.0
 10
170.1305436967922
 20
14.15600927375853
 30
0.0
 10
170.1465954835851
 20
14.1379566321599
 30
0.0
 11
170.1465954835851
 21
14.1379566321599
 31
0.0
 11
170.1982038075864
 21
14.07729869814737
 31
0.0
 11
170.2601105501335
 21
14.0227129516332
 31
0.0
 11
170.3327764009802
 21
13.97583980928383
 31
0.0
 11
170.4166468655843
 21
13.9383990627654
 31
0.0
 11
170.511221073241
 21
13.91390636311874
 31
0.0
 11
170.6161603327165
 21
13.90575829888469
 31
0.0
 11
170.7240739497552
 21
13.91564048638222
 31
0.0
 11
170.8208419941616
 21
13.9452870488748
 31
0.0
 11
170.9050776083319
 21
13.99175118948819
 31
0.0
 11
170.9756144207686
 21
14.05191413218149
 31
0.0
 11
171.031944210998
 21
14.12505819466318
 31
0.0
 11
171.0736690016003
 21
14.2102143404752
 31
0.0
 11
171.0994680808032
 21
14.30436190989614
 31
0.0
 11
171.1080824729446
 21
14.4045155209822
 31
0.0
 11
171.0878517703357
 21
14.54643250879396
 31
0.0
 11
171.0272522666731
 21
14.65566684036389
 31
0.0
 11
170.9364971286285
 21
14.74081306430096
 31
0.0
 11
170.826010188474
 21
14.81052746532509
 31
0.0
 11
170.7008523531254
 21
14.86979854169922
 31
0.0
 11
170.5662951950998
 21
14.9240425347412
 31
0.0
 11
170.4316884277007
 21
14.98201274306003
 31
0.0
 11
170.3065802017258
 21
15.0529739930423
 31
0.0
 11
170.196027609828
 21
15.14113315968692
 31
0.0
 11
170.1053381235265
 21
15.25080295132619
 31
0.0
 11
170.0447055469484
 21
15.39179720476311
 31
0.0
 11
170.0245079172553
 21
15.57413260402309
 31
0.0
 11
170.0374030471347
 21
15.71216131926639
 31
0.0
 11
170.0761016659391
 21
15.8373312845129
 31
0.0
 11
170.1393141731506
 21
15.94779262129085
 31
0.0
 11
170.2257499954545
 21
16.0419688539062
 31
0.0
 11
170.3336492808962
 21
16.1184654077065
 31
0.0
 11
170.4613526283328
 21
16.1761567010949
 31
0.0
 11
170.6075393259923
 21
16.21220066809973
 31
0.0
 11
170.770976856545
 21
16.2242138538606
 31
0.0
 11
170.9248918431289
 21
16.21434269066864
 31
0.0
 11
171.0564887242607
 21
16.18477329831499
 31
0.0
 11
171.172563634494
 21
16.13439993895253
 31
0.0
 11
171.2800792741122
 21
16.0626416316788
 31
0.0
 11
171.2516994050444
 21
16.00236624106888
 31
0.0
 11
171.2284855254283
 21
15.9387901733765
 31
0.0
 11
171.2078381040801
 21
15.8647884199227
 31
0.0
 11
171.1871840681487
 21
15.7736019789733
 31
0.0
 11
171.1665597978415
 21
15.7736019789733
 31
0.0
 11
171.1459355275343
 21
15.7736019789733
 31
0.0
 11
171.1256706495791
 21
15.82395108486346
 31
0.0
 11
171.0994658759421
 21
15.8785004511693
 31
0.0
 11
171.0650468924451
 21
15.93316116296115
 31
0.0
 11
171.0203554612937
 21
15.98349593725411
 31
0.0
 11
170.9657333359511
 21
16.02777175321527
 31
0.0
 11
170.9016722004326
 21
16.06436142334501
 31
0.0
 11
170.825968296114
 21
16.08882545979726
 31
0.0
 11
170.7365722046449
 21
16.0970110066702
 31
0.0
 11
170.6440937174207
 21
16.08926973931102
 31
0.0
 11
170.5594072091645
 21
16.0660900344557
 31
0.0
 11
170.483702448884
 21
16.02863495634009
 31
0.0
 11
170.4183754766516
 21
15.978327742811
 31
0.0
 11
170.3650487887664
 21
15.91600293379879
 31
0.0
 11
170.3254809233901
 21
15.8424994789561
 31
0.0
 11
170.3009523754711
 21
15.75988443557394
 31
0.0
 11
170.2927954104108
 21
15.6704232984435
 31
0.0
 11
170.3130095765617
 21
15.52595308146569
 31
0.0
 11
170.373625616682
 21
15.4159117707293
 31
0.0
 11
170.4643479320758
 21
15.33033670130629
 31
0.0
 11
170.5748676948813
 21
15.25941954854621
 31
0.0
 11
170.7000089937719
 21
15.19914305550576
 31
0.0
 11
170.8345826882553
 21
15.1459044791302
 31
0.0
 11
170.9691729191968
 21
15.09039489581074
 31
0.0
 11
171.0942976816297
 21
15.0237728124941
 31
0.0
 11
171.204800907977
 21
14.94118863716746
 31
0.0
 11
171.2955397598288
 21
14.8380000347627
 31
0.0
 11
171.3561557999489
 21
14.70552315979584
 31
0.0
 11
171.3763699660998
 21
14.53526378483839
 31
0.0
 11
171.3621839747998
 21
14.38133030397411
 31
0.0
 11
171.3196087009193
 21
14.23605531269099
 31
0.0
 11
171.2499752884265
 21
14.10398854189069
 31
0.0
 11
171.1544992078713
 21
13.9900721877525
 31
0.0
 11
171.0341060772624
 21
13.89715272597013
 31
0.0
 11
170.8896160201846
 21
13.8283235766818
 31
0.0
 11
170.7223519532713
 21
13.78581275203967
 31
0.0
 11
170.5336103348226
 21
13.7716586461404
 31
0.0
 11
170.3405031726387
 21
13.78581275203967
 31
0.0
 11
170.1878975900911
 21
13.8283235766818
 31
0.0
 11
170.0661897942203
 21
13.88899033013888
 31
0.0
 11
169.9660261826363
 21
13.95734322942739
 31
0.0
 11
169.9922320587039
 21
14.03255545163078
 31
0.0
 11
170.0090121537618
 21
14.10014767383611
 31
0.0
 11
170.0206196447852
 21
14.17275926235961
 31
0.0
 11
170.0313606254139
 21
14.2635278821286
 31
0.0
 11
170.0520069443315
 21
14.2635278821286
 31
0.0
 11
170.0726532632492
 21
14.2635278821286
 31
0.0
 11
170.1048916391629
 21
14.20119204881082
 31
0.0
 11
170.1465954835851
 21
14.1379566321599
 31
0.0
  0
LWPOLYLINE
  5
B9
102
{ACAD_REACTORS
330
C6
102
}
330
48
100
AcDbEntity
  8
_U_30EC_U_30A4_U_30E4_U_30FC_1
  6
Continuous
 62
     2
100
AcDbPolyline
 90
        5
 70
     1
 43
0.0
 10
192.4578138032672
 20
15.3972233679562
 10
192.4578138032672
 20
15.2287543402206
 10
191.1602971697031
 20
15.2287543402206
 10
191.1602971697031
 20
15.3972233679562
 10
192.4578138032672
 20
15.3972233679562
  0
MTEXT
  5
BB
330
48
100
AcDbEntity
  8
1
 62
     2
100
AcDbMText
 10
32.50000000000003
 20
282.0000000000003
 30
0.0
 40
5.0
 41
0.0
 71
     5
 72
     1
  1
図番
  7
CONVERTER_11
 73
     1
 44
0.45454545454545
  0
MTEXT
  5
BC
330
48
100
AcDbEntity
  8
1
 62
     2
100
AcDbMText
 10
29.00000000000003
 20
34.0
 30
0.0
 40
3.5
 41
0.0
 71
     5
 72
     1
  1
備考
  7
CONVERTER_11
 73
     1
 44
0.45454545454545
  0
MTEXT
  5
BD
330
48
100
AcDbEntity
  8
1
 62
     2
100
AcDbMText
 10
29.00000000000003
 20
22.75
 30
0.0
 40
3.5
 41
0.0
 71
     5
 72
     1
  1
品名
  7
CONVERTER_11
 73
     1
 44
0.72727272727273
  0
MTEXT
  5
BE
330
48
100
AcDbEntity
  8
1
 62
     2
100
AcDbMText
 10
29.00000000000003
 20
14.25
 30
0.0
 40
3.5
 41
0.0
 71
     5
 72
     1
  1
品番
  7
CONVERTER_11
 73
     1
 44
0.72727272727273
  0
MTEXT
  5
BF
330
48
100
AcDbEntity
  8
1
 62
     2
100
AcDbMText
 10
101.5
 20
25.0
 30
0.0
 40
3.0
 41
0.0
 71
     5
 72
     1
  1
承認
  7
CONVERTER_11
 73
     1
 44
0.59090909090909
  0
MTEXT
  5
C0
330
48
100
AcDbEntity
  8
1
 62
     2
100
AcDbMText
 10
175.0
 20
23.5
 30
0.0
 40
3.5
 41
0.0
 71
     5
 72
     1
  1
第三角法
  7
CONVERTER_11
 73
     1
 44
0.54545454545455
  0
MTEXT
  5
C1
330
48
100
AcDbEntity
  8
1
 62
     2
100
AcDbMText
 10
118.5
 20
25.0
 30
0.0
 40
3.0
 41
0.0
 71
     5
 72
     1
  1
検図
  7
CONVERTER_11
 73
     1
 44
0.59090909090909
  0
MTEXT
  5
C2
330
48
100
AcDbEntity
  8
1
 62
     2
100
AcDbMText
 10
152.5
 20
25.0
 30
0.0
 40
3.0
 41
0.0
 71
     5
 72
     1
  1
設計
  7
CONVERTER_11
 73
     1
 44
0.59090909090909
  0
MTEXT
  5
C3
330
48
100
AcDbEntity
  8
1
 62
     2
100
AcDbMText
 10
135.5
 20
25.0
 30
0.0
 40
3.0
 41
0.0
 71
     5
 72
     1
  1
製図
  7
CONVERTER_11
 73
     1
 44
0.59090909090909
  0
MTEXT
  5
C4
330
48
100
AcDbEntity
  8
1
 62
     2
100
AcDbMText
 10
89.50000000000003
 20
24.0
 30
0.0
 40
3.5
 41
0.0
 71
     5
 72
     1
  1
尺度
  7
CONVERTER_11
 73
     1
 44
0.54545454545455
  0
MTEXT
  5
C5
330
48
100
AcDbEntity
  8
1
 62
   250
100
AcDbMText
 10
25.00000000000003
 20
5.0
 30
0.0
 40
3.5
 41
0.0
 71
     4
 72
     1
  1
備考欄の文字列 原点位置=4
  7
CONVERTER_11
 73
     1
 44
0.54545454545455
  0
HATCH
  5
C6
330
48
100
AcDbEntity
  8
1
  6
Continuous
 62
     2
100
AcDbHatch
 10
0.0
 20
0.0
 30
0.0
210
0.0
220
0.0
230
1.0
  2
CUSTOM0
 70
     0
 71
     1
 91
        1
 92
        1
 93
        4
 72
     1
 10
192.4578138032672
 20
15.3972233679562
 11
192.4578138032672
 21
15.2287543402206
 72
     1
 10
192.4578138032672
 20
15.2287543402206
 11
191.1602971697031
 21
15.2287543402206
 72
     1
 10
191.1602971697031
 20
15.2287543402206
 11
191.1602971697031
 21
15.3972233679562
 72
     1
 10
191.1602971697031
 20
15.3972233679562
 11
192.4578138032672
 21
15.3972233679562
 97
        1
330
B9
 75
     1
 76
     2
 52
45.0
 41
0.1
 77
     0
 78
     1
 53
45.0
 43
0.0
 44
0.0
 45
-0.282842712474619
 46
0.0
 79
     0
 98
        1
 10
0.0
 20
0.0
  0
HATCH
  5
C7
330
48
100
AcDbEntity
  8
1
  6
Continuous
 62
     2
100
AcDbHatch
 10
0.0
 20
0.0
 30
0.0
210
0.0
220
0.0
230
1.0
  2
CUSTOM1
 70
     0
 71
     1
 91
        1
 92
        1
 93
        3
 72
     4
 94
        3
 73
     0
 74
     0
 95
       24
 96
       20
 40
0.0
 40
0.0
 40
0.0
 40
0.0
 40
0.2211075008753453
 40
0.4273218586244885
 40
0.508017467923892
 40
0.5914835907869856
 40
0.81432656901925
 40
1.054651302686568
 40
1.295452694023135
 40
1.518109231328742
 40
1.540864321905356
 40
1.595126460622613
 40
1.659890947895922
 40
1.714153085187277
 40
1.736908174961575
 40
1.76495110073529
 40
1.801562291220873
 40
1.953914424543596
 40
2.126104167379695
 40
2.126104167379695
 40
2.126104167379695
 40
2.126104167379695
 10
185.9375369556889
 20
15.5898929511301
 10
185.9112579081811
 20
15.53097628234369
 10
185.8604698894425
 20
15.41711139679253
 10
185.8131784839112
 20
15.14441958233115
 10
185.7043482802618
 20
15.24445482575454
 10
185.5514800279637
 20
15.27118593367332
 10
185.7686155181199
 20
15.48518135017634
 10
185.783848367438
 20
15.70332117782489
 10
185.8906889492002
 20
15.88451579066428
 10
185.8305380947075
 20
16.16913226311394
 10
185.9334317395402
 20
16.14114089222448
 10
185.9779933468149
 20
16.13243251602298
 10
186.0380842395397
 20
16.12139654183355
 10
186.0756619587438
 20
16.10767523055561
 10
186.1252466928606
 20
16.10756076160227
 10
186.0930158919325
 20
16.07306592398622
 10
186.0171802221881
 20
16.08404104537972
 10
186.0429447159693
 20
15.89858969582446
 10
186.005589676385
 20
15.80702313549584
 10
185.9857704961609
 20
15.75844135397701
 72
     4
 94
        3
 73
     0
 74
     0
 95
       70
 96
       66
 40
0.0
 40
0.0
 40
0.0
 40
0.0
 40
0.0241731073021472
 40
0.0846058988987013
 40
0.1631685280353284
 40
0.2417311571789756
 40
0.3021639488292751
 40
0.3263370654895541
 40
0.3533118254248934
 40
0.4228783438922253
 40
0.5179999095313704
 40
0.62163982394666
 40
0.716761389150031
 40
0.7863279069650609
 40
0.8133026791762618
 40
0.8372943998772461
 40
0.8945054261373664
 40
0.9627895541963449
 40
1.020000580349156
 40
1.043992300975254
 40
1.071934345522978
 40
1.113121768772994
 40
1.145225199332318
 40
1.225483775412857
 40
1.329819923771572
 40
1.434156071994466
 40
1.514414647795891
 40
1.546518078208499
 40
1.578974764260272
 40
1.662678849314267
 40
1.777131373668488
 40
1.901833377474878
 40
2.016285900500668
 40
2.099989982528035
 40
2.132446666570394
 40
2.15878235448612
 40
2.216720867907906
 40
2.274659381334331
 40
2.300995069256266
 40
2.333451754066238
 40
2.417155836543918
 40
2.531608358985358
 40
2.656310362283853
 40
2.770762886388985
 40
2.85446697134015
 40
2.886923657363957
 40
2.913597976833387
 40
2.982389642875181
 40
3.076451716947032
 40
3.178937260458631
 40
3.272999334740021
 40
3.341791001059234
 40
3.368465320663541
 40
3.396976080738762
 40
3.472140811845998
 40
3.578408190308688
 40
3.700226892456124
 40
3.822045594634341
 40
3.928312973256448
 40
4.003477705314846
 40
4.031988456866912
 40
4.058324144797717
 40
4.116262658236891
 40
4.174201171400703
 40
4.200536849608642
 40
4.200536849608642
 40
4.200536849608642
 40
4.200536849608642
 10
185.9857704961609
 20
15.75844135397701
 10
185.9938259544679
 20
15.75844359811683
 10
186.0220200663241
 20
15.75845146032793
 10
186.0765534803672
 20
15.75830754828368
 10
186.1482891808604
 20
15.75909120499894
 10
186.2236240137062
 20
15.75627570463807
 10
186.2713052366438
 20
15.76298403400953
 10
186.3195071245616
 20
15.75197563692428
 10
186.3062571799873
 20
15.8054640299703
 10
186.3151093964538
 20
15.86049583543089
 10
186.3108698036285
 20
15.95419908726108
 10
186.3133483481281
 20
16.04959482218533
 10
186.3090938706059
 20
16.14356821983389
 10
186.3179818665847
 20
16.19795062438016
 10
186.3046977409945
 20
16.25233997691464
 10
186.3514119277109
 20
16.23842216335361
 10
186.3943254545736
 20
16.24103877374046
 10
186.4605443456684
 20
16.23648422450754
 10
186.5013342271799
 20
16.22778162134161
 10
186.5525145690818
 20
16.23531799890192
 10
186.5253720487201
 20
16.19349970223285
 10
186.4803096055706
 20
16.20284992072593
 10
186.4942065045052
 20
16.13841207371836
 10
186.4858414431653
 20
16.07378219627396
 10
186.4903632178398
 20
15.97529141193884
 10
186.4854741311167
 20
15.87595932842567
 10
186.4950258992082
 20
15.81293115552964
 10
186.4799761455201
 20
15.74964011499785
 10
186.5449159457208
 20
15.76515072944265
 10
186.6116246399496
 20
15.75499387697808
 10
186.7241435470828
 20
15.75988800099363
 10
186.8390235448953
 20
15.75691204732779
 10
186.9519871999747
 20
15.76221664184987
 10
187.0176267597677
 20
15.75107306472085
 10
187.0816276691053
 20
15.76744532319853
 10
187.0703142889189
 20
15.7176168990527
 10
187.077533987151
 20
15.67416715212119
 10
187.070314261127
 20
15.63071745587441
 10
187.0816277175993
 20
15.58088895196873
 10
187.0176263598972
 20
15.59726166091358
 10
186.9519921240459
 20
15.58611271661584
 10
186.838997431733
 20
15.5914485720685
 10
186.7242456548644
 20
15.58834345663818
 10
186.611318368686
 20
15.59364894682584
 10
186.5455220903584
 20
15.58257300019589
 10
186.4816097975358
 20
15.59887597847614
 10
186.4936015165125
 20
15.54423524395738
 10
186.4862104613005
 20
15.48854295047839
 10
186.4892684841983
 20
15.39649689140569
 10
186.4893422785682
 20
15.30179109873101
 10
186.4860313578361
 20
15.20952782902267
 10
186.4939505989903
 20
15.15435768736141
 10
186.4815076611617
 20
15.10058169100139
 10
186.5389116551632
 20
15.11453768862784
 10
186.5994708140383
 20
15.1051145788423
 10
186.7048680855081
 20
15.10942885928707
 10
186.8204294070622
 20
15.10835504612034
 10
186.9359688877797
 20
15.10725965900997
 10
187.041418113084
 20
15.11162525770635
 10
187.1018680471804
 20
15.10209426030674
 10
187.159283773911
 20
15.11617289606382
 10
187.1477773876709
 20
15.06707153265685
 10
187.1537566781749
 20
15.0256465801865
 10
187.1520311050801
 20
14.97651677966695
 10
187.1521500122971
 20
14.94854428447607
 10
187.1521871691833
 20
14.93980288195949
 72
     4
 94
        3
 73
     0
 74
     0
 95
       62
 96
       58
 40
0.0
 40
0.0
 40
0.0
 40
0.0
 40
0.0598250028308485
 40
0.2024846486897331
 40
0.3727558389221031
 40
0.515415484793607
 40
0.5752404975785339
 40
0.9332326775487156
 40
1.290451762839457
 40
1.602077253145847
 40
1.699931634112128
 40
1.799359756425037
 40
2.27012014965709
 40
2.804661928461527
 40
2.882342287383239
 40
3.076543185719095
 40
3.329004354835562
 40
3.581465524568395
 40
3.77566642454368
 40
3.853346784558302
 40
3.899120679595048
 40
3.984129341792046
 40
4.029903236817394
 40
4.105797496059547
 40
4.295533144152507
 40
4.542189486611746
 40
4.788845828875695
 40
4.978581476410075
 40
5.054475735244318
 40
5.62173466433932
 40
6.13086724203733
 40
6.225249780948604
 40
6.318913039727271
 40
6.663579954558891
 40
7.047498900224752
 40
7.435230791575686
 40
7.498943906668098
 40
7.650875181210091
 40
7.832212509001602
 40
7.984143783696988
 40
8.047856898903115
 40
8.091554632732631
 40
8.17270756696431
 40
8.21640530076804
 40
8.289021782160924
 40
8.462184160757298
 40
8.668861838005379
 40
8.84202421526397
 40
8.914640695475166
 40
8.98988158086136
 40
9.155411528827244
 40
9.320941477744002
 40
9.396182352487244
 40
9.454709011143791
 40
9.583467660170726
 40
9.712226309013005
 40
9.770752957989458
 40
9.770752957989458
 40
9.770752957989458
 40
9.770752957989458
 10
187.1521871691833
 20
14.93980288195949
 10
187.1322348171623
 20
14.93980875568671
 10
187.0647037716466
 20
14.93982863806156
 10
186.9410612161788
 20
14.93949362520325
 10
186.7863180150056
 20
14.94107673750511
 10
186.669734948248
 20
14.93686078860494
 10
186.455094263424
 20
14.95215205331625
 10
186.8518948407228
 20
14.59198721286193
 10
186.8945656069267
 20
14.37510503397166
 10
187.3189162146611
 20
14.19325062511451
 10
187.1439821496074
 20
14.08985196568071
 10
187.0194523925083
 20
13.87831523212725
 10
186.7666277235944
 20
14.34806081001563
 10
186.4797602893626
 20
14.9951151698452
 10
186.490633592666
 20
14.68782672154693
 10
186.488289277796
 20
14.52288616971777
 10
186.4861096126411
 20
14.28879670711691
 10
186.4980774396346
 20
14.04498072421781
 10
186.4687984740631
 20
13.89855796860981
 10
186.511452262547
 20
13.75113490174536
 10
186.4239814005639
 20
13.76685797306216
 10
186.3768527606744
 20
13.76694303543451
 10
186.2898973207713
 20
13.75109425482906
 10
186.3313474021722
 20
13.89527771422759
 10
186.3029875004286
 20
14.03855052698452
 10
186.3145973775299
 20
14.27674947365261
 10
186.3124175648272
 20
14.50517235240343
 10
186.3103111127993
 20
14.6670572937599
 10
186.3208035438324
 20
14.98153709333748
 10
186.0128963252893
 20
14.29229470872434
 10
185.7055258267455
 20
13.81476750243047
 10
185.5851367066275
 20
14.03741112637428
 10
185.4074607910721
 20
14.15011034955562
 10
185.8853326362894
 20
14.32548143465459
 10
185.9353959057208
 20
14.56091929252029
 10
186.3583799621716
 20
14.95322989344605
 10
186.127675427354
 20
14.93655307029065
 10
186.004968585934
 20
14.9426951894877
 10
185.8325483095662
 20
14.93312822699573
 10
185.7213224694449
 20
14.95448818489664
 10
185.6025779627448
 20
14.9213626535742
 10
185.6183169706686
 20
15.00203900606883
 10
185.6178550933762
 20
15.04645414290855
 10
185.6027881889931
 20
15.12967081778536
 10
185.7372380935443
 20
15.09062651983886
 10
185.8619755545747
 20
15.11739729328424
 10
186.062875523728
 20
15.10063949044055
 10
186.1921540949353
 20
15.12204225913007
 10
186.3328419928294
 20
15.08868778853423
 10
186.2980927452615
 20
15.22651875785069
 10
186.3222185666713
 20
15.34963257349479
 10
186.2967086182392
 20
15.47024055670333
 10
186.3333251146685
 20
15.60539865141491
 10
186.2211417027769
 20
15.58094545781887
 10
186.1280356457136
 20
15.59307749842018
 10
186.0191547579819
 20
15.58957630069989
 10
185.9569697640964
 20
15.58981755951599
 10
185.9375369557246
 20
15.5898929512414
 97
        3
330
AA
330
A8
330
A9
 75
     1
 76
     2
 52
45.0
 41
0.1
 77
     0
 78
     1
 53
45.0
 43
0.0
 44
0.0
 45
-0.282842712474619
 46
0.0
 79
     0
 98
        1
 10
0.0
 20
0.0
  0
HATCH
  5
C8
330
48
100
AcDbEntity
  8
1
  6
Continuous
 62
     2
100
AcDbHatch
 10
0.0
 20
0.0
 30
0.0
210
0.0
220
0.0
230
1.0
  2
CUSTOM2
 70
     0
 71
     1
 91
        1
 92
        1
 93
        1
 72
     4
 94
        3
 73
     0
 74
     0
 95
      124
 96
      120
 40
0.0
 40
0.0
 40
0.0
 40
0.0
 40
0.027818722962451
 40
0.1011590162384269
 40
0.2048470170590239
 40
0.3237088716559245
 40
0.4425707262522
 40
0.5462587270699547
 40
0.6195990203311798
 40
0.647417752257866
 40
0.6750060736115242
 40
0.7357003855242759
 40
0.7963946998054456
 40
0.8239830245571766
 40
0.854093381110286
 40
0.937339662940954
 40
1.063094687343235
 40
1.220731268638073
 40
1.399622220914748
 40
1.589140358637732
 40
1.778658496423898
 40
1.957549448940509
 40
2.115186030873159
 40
2.240941056914463
 40
2.324187341760532
 40
2.354297700109382
 40
2.38188602467189
 40
2.442580338710475
 40
2.503274652750497
 40
2.530862977314606
 40
2.560983949278559
 40
2.640393784452905
 40
2.752662861759128
 40
2.881361560118145
 40
3.010060258455192
 40
3.122329335705339
 40
3.201739170817953
 40
3.231860142753313
 40
3.264298024030368
 40
3.352343701778236
 40
3.482095226868753
 40
3.639650650173007
 40
3.811108022565459
 40
3.982565394927961
 40
4.140120818152536
 40
4.26987234314124
 40
4.357918020802299
 40
4.390355902043926
 40
4.423256253992496
 40
4.508104530073017
 40
4.624121560636785
 40
4.750528176031541
 40
4.866545206601988
 40
4.951393482691945
 40
4.984293834645347
 40
5.011450833242264
 40
5.071196230152053
 40
5.130941627057132
 40
5.1580986256488
 40
5.190998977601491
 40
5.275847253689316
 40
5.391864284256751
 40
5.518270899648296
 40
5.634287930209335
 40
5.719136206288009
 40
5.752036558235896
 40
5.782130946282924
 40
5.8627839062291
 40
5.979550131774972
 40
6.11798431664038
 40
6.263641154587931
 40
6.40207533941414
 40
6.51884156490794
 40
6.599494524815525
 40
6.629588912848763
 40
6.65440302822634
 40
6.713575149488107
 40
6.784199939329425
 40
6.843372060493528
 40
6.868186175802774
 40
6.896246243201869
 40
6.939586233758275
 40
6.967846564564903
 40
7.043584251089834
 40
7.153234334451687
 40
7.283231855734432
 40
7.420011856035455
 40
7.550009376579796
 40
7.659659458835192
 40
7.735397144417178
 40
7.76365747485135
 40
7.796409728011007
 40
7.880876065096281
 40
7.996370852465667
 40
8.122208446418561
 40
8.237703224799155
 40
8.32216956201085
 40
8.354921815205863
 40
8.382078813307645
 40
8.441824209206954
 40
8.501569605240109
 40
8.528726603485689
 40
8.561478856695738
 40
8.645945193877788
 40
8.7614399808653
 40
8.887277580764442
 40
9.002772362000963
 40
9.087238696661183
 40
9.119990949235637
 40
9.152428830613335
 40
9.240474508638547
 40
9.370226034149493
 40
9.527781457984371
 40
9.699238830981354
 40
9.870696203978538
 40
10.02825162781395
 40
10.15800315332557
 40
10.24604883135111
 40
10.27848670378514
 40
10.27848670378514
 40
10.27848670378514
 40
10.27848670378514
 10
195.3821827564383
 20
14.0141051738576
 10
195.3914554737523
 20
14.01410498511277
 10
195.4251744536861
 20
14.01410430876717
 10
195.4934706812465
 20
14.01411807243307
 10
195.592014171158
 20
14.01403224219548
 10
195.7062066464812
 20
14.01441755612253
 10
195.818589441707
 20
14.01300835897548
 10
195.9214376600118
 20
14.01719117422245
 10
195.9806839874849
 20
14.00823089251985
 10
196.0371265937033
 20
14.02164434526064
 10
196.0246255586954
 20
13.97087198613364
 10
196.0329549635703
 20
13.9258932093907
 10
196.024817084112
 20
13.88056752990491
 10
196.0370529214457
 20
13.82931932408469
 10
195.9747773490333
 20
13.84447955365279
 10
195.9060513026868
 20
13.83359750710746
 10
195.7782756749592
 20
13.83911304747975
 10
195.6262984511643
 20
13.83700851253701
 10
195.4502695972523
 20
13.83771002588476
 10
195.2644431934287
 20
13.83745237531295
 10
195.0786167437175
 20
13.83771005144606
 10
194.9025880142168
 20
13.83700841847734
 10
194.7506104154195
 20
13.83911332229992
 10
194.6228357664554
 20
13.83359680767643
 10
194.5541077836581
 20
13.84448077125945
 10
194.4918349042883
 20
13.82931786684212
 10
194.5040616290017
 20
13.88057510805175
 10
194.4960004462597
 20
13.92582473272428
 10
194.5040675809893
 20
13.97106357955326
 10
194.4918238487083
 20
14.02234176909961
 10
194.5525017120697
 20
14.00749577363138
 10
194.6162810745736
 20
14.01756448170738
 10
194.7277314353502
 20
14.01294644212002
 10
194.8497533443824
 20
14.01413328905472
 10
194.9719538137823
 20
14.01515863900638
 10
195.0829794287392
 20
14.01092475623404
 10
195.1476517413959
 20
14.02018584521742
 10
195.2091162810501
 20
14.00604423049685
 10
195.1930065601337
 20
14.07235527884519
 10
195.2042980327358
 20
14.14447790121978
 10
195.1987400822561
 20
14.27513760888288
 10
195.200803506169
 20
14.42607323708242
 10
195.2000167127295
 20
14.59335873107887
 10
195.2007845215627
 20
14.76061110332303
 10
195.1988038785628
 20
14.91163289269914
 10
195.2041306156622
 20
15.04206069552995
 10
195.1933101388424
 20
15.11465442605898
 10
195.2090326429876
 20
15.18150469436797
 10
195.143270813249
 20
15.16580512490822
 10
195.0756367830763
 20
15.17609243083995
 10
194.9615885293809
 20
15.1711378684712
 10
194.8451242674902
 20
15.17414128030474
 10
194.7306554121477
 20
15.16880303143387
 10
194.6640324657812
 20
15.18001268074824
 10
194.5990769715185
 20
15.1634913266501
 10
194.6107989758708
 20
15.21473720477058
 10
194.6032830189121
 20
15.25950333784091
 10
194.6107989878835
 20
15.30426944897961
 10
194.5990769505346
 20
15.35551536129741
 10
194.66403263392
 20
15.33899381766816
 10
194.7306533339822
 20
15.35020571373943
 10
194.8451352858063
 20
15.34485436710665
 10
194.9615454436962
 20
15.34791188771117
 10
195.0757660174641
 20
15.34278499010708
 10
195.1430150439226
 20
15.35345733355598
 10
195.2083325941438
 20
15.33742082669077
 10
195.1941391448552
 20
15.39949685750054
 10
195.2036059462995
 20
15.46586761628763
 10
195.1990269004085
 20
15.58239972741967
 10
195.2007696555948
 20
15.71426685022377
 10
195.1997551495392
 20
15.85615960150275
 10
195.2017191344372
 20
15.98769050702582
 10
195.1964668553851
 20
16.10524577283004
 10
195.2073408763475
 20
16.16947789001587
 10
195.1919536641853
 20
16.2310880254505
 10
195.24075915378
 20
16.21702407382113
 10
195.2853995564725
 20
16.21954742075316
 10
195.3538643946742
 20
16.2151279740171
 10
195.3959106169103
 20
16.20613025544036
 10
195.4487544758775
 20
16.2141171486651
 10
195.4207035002013
 20
16.17113917611671
 10
195.3749142248595
 20
16.18259552043832
 10
195.3869539073264
 20
16.12173520005133
 10
195.3796086070641
 20
16.05769299468768
 10
195.3831195826162
 20
15.94909368863907
 10
195.3819806760173
 20
15.8249431914475
 10
195.3819174780263
 20
15.69189719829876
 10
195.3832872966868
 20
15.56797381249554
 10
195.3791638801314
 20
15.45868337849338
 10
195.3877763103564
 20
15.3960858009417
 10
195.3746757454402
 20
15.33740133296365
 10
195.4393884328198
 20
15.35362113810902
 10
195.5060405953156
 20
15.34270260383311
 10
195.6198779541102
 20
15.34793740173756
 10
195.7357259122097
 20
15.34485547516913
 10
195.849692426328
 20
15.35018259812512
 10
195.9160341018099
 20
15.33904208166543
 10
195.980718852548
 20
15.35546979593178
 10
195.9689820772722
 20
15.3042592521005
 10
195.976516806304
 20
15.25950334121
 10
195.9689820992258
 20
15.21474739010026
 10
195.9807188140736
 20
15.16353690871039
 10
195.9160344075252
 20
15.17996427794219
 10
195.8496886430824
 20
15.16882784447268
 10
195.7357459487012
 20
15.17413115893119
 10
195.6197995623054
 20
15.17114764593543
 10
195.5062756882122
 20
15.17606892268392
 10
195.4389231318804
 20
15.16585087513519
 10
195.3734285122495
 20
15.18145996138814
 10
195.3891713619218
 20
15.1146385182741
 10
195.3783275998212
 20
15.04207057815877
 10
195.3836581629792
 20
14.91162247614416
 10
195.3817136151855
 20
14.76064558185226
 10
195.3823133683215
 20
14.59322243934159
 10
195.3821506559604
 20
14.42656176118373
 10
195.3821895488136
 20
14.27360142921638
 10
195.3821816413099
 20
14.14849178985707
 10
195.3821828382745
 20
14.06507890991423
 10
195.3821827716208
 20
14.02491778281979
 10
195.3821827564383
 20
14.0141051738576
 97
        1
330
AB
 75
     1
 76
     2
 52
45.0
 41
0.1
 77
     0
 78
     1
 53
45.0
 43
0.0
 44
0.0
 45
-0.282842712474619
 46
0.0
 79
     0
 98
        1
 10
0.0
 20
0.0
  0
HATCH
  5
C9
330
48
100
AcDbEntity
  8
1
  6
Continuous
 62
     2
100
AcDbHatch
 10
0.0
 20
0.0
 30
0.0
210
0.0
220
0.0
230
1.0
  2
CUSTOM3
 70
     0
 71
     1
 91
        1
 92
        1
 93
        1
 72
     4
 94
        3
 73
     0
 74
     0
 95
      131
 96
      127
 40
0.0
 40
0.0
 40
0.0
 40
0.0
 40
0.0195577029826478
 40
0.0426490537461538
 40
0.2863607575856948
 40
0.5344948436189688
 40
0.7842238845573528
 40
0.8737315789467653
 40
0.980383281031315
 40
1.092842274517064
 40
1.199761146656829
 40
1.289788768186547
 40
1.351573580786255
 40
1.370727117561479
 40
1.416400936017887
 40
1.470914848356024
 40
1.516588666791812
 40
1.53574220355289
 40
1.634216592293238
 40
1.760283341175086
 40
1.89796668668216
 40
2.031216387368987
 40
2.049689751137983
 40
2.101115601646919
 40
2.17950257774004
 40
2.27885931831416
 40
2.393194462258821
 40
2.516516648383938
 40
2.64283451540607
 40
2.766156701983579
 40
2.880491846754696
 40
2.979848588358742
 40
3.058235565443921
 40
3.109661416669077
 40
3.128134780704254
 40
3.146783742386571
 40
3.191254343315432
 40
3.244332157316091
 40
3.288802758225994
 40
3.307451719895237
 40
3.327717853844849
 40
3.383747753580211
 40
3.468388665924605
 40
3.574487837698914
 40
3.694892515729025
 40
3.822449946852165
 40
3.95000737792056
 40
4.070412055800654
 40
4.176511227368211
 40
4.261152139501661
 40
4.317182039076854
 40
4.337448172964775
 40
4.620011002696391
 40
4.885096638397672
 40
4.945373043518505
 40
5.014107710488806
 40
5.070481727652156
 40
5.319246955636694
 40
5.584812164506176
 40
5.859000912057031
 40
6.133746937542206
 40
6.401732212968994
 40
6.420736683995585
 40
6.472845717451236
 40
6.550702743894163
 40
6.646951193874372
 40
6.754234497930696
 40
6.865196086587474
 40
6.972479390357933
 40
7.068727839772095
 40
7.146584865451103
 40
7.198693898189333
 40
7.217698368905474
 40
7.23495040163095
 40
7.276089864269993
 40
7.325191803516098
 40
7.366331266090484
 40
7.383583298769834
 40
7.402779163492211
 40
7.453386443254642
 40
7.524934666445644
 40
7.606953361405983
 40
7.688972056429135
 40
7.760520279784386
 40
7.811127559734627
 40
7.830323424546249
 40
7.847844055299879
 40
7.894799345666927
 40
7.962779392744622
 40
8.04337429356068
 40
8.128174145149597
 40
8.208769044817409
 40
8.27674909037712
 40
8.323704379669685
 40
8.34122501005642
 40
8.358497614800568
 40
8.401679126686773
 40
8.45781509218583
 40
8.513951057728235
 40
8.557132569708191
 40
8.574405174505234
 40
8.602340668616588
 40
8.643455660540132
 40
8.663225271966803
 40
8.715345156564455
 40
8.789031889628793
 40
8.873502045520532
 40
8.957972194324164
 40
9.031658925568061
 40
9.083778811234753
 40
9.103548423003218
 40
9.119550083123755
 40
9.160817522380057
 40
9.217244429110423
 40
9.278724491644908
 40
9.335151398295693
 40
9.376418837357988
 40
9.392420497300776
 40
9.401196302734997
 40
9.417494229384475
 40
9.42627002774975
 40
9.440875075477779
 40
9.47570249699895
 40
9.517270709866104
 40
9.552098131994263
 40
9.566703169884468
 40
9.566703169884468
 40
9.566703169884468
 40
9.566703169884468
 10
194.6170254148479
 20
15.6701587151103
 10
194.613434509337
 20
15.66453690702159
 10
194.6056039123625
 20
15.65227754419111
 10
194.5129968974543
 20
15.61601916040991
 10
194.4887622233249
 20
15.40148444212709
 10
194.3858709845938
 20
15.2219728450971
 10
194.1220492364305
 20
15.03615573798146
 10
194.2845471569179
 20
14.95959336566082
 10
194.3607225760839
 20
14.89856693195444
 10
194.4492171072758
 20
14.8351580454476
 10
194.538993023311
 20
14.77525634219561
 10
194.5883817636046
 20
14.72102154849206
 10
194.6745708157382
 20
14.69286240541831
 10
194.6411260674229
 20
14.65713309652807
 10
194.6214671166311
 20
14.62550387991903
 10
194.5919888217882
 20
14.58475872796067
 10
194.5688989446031
 20
14.55504663489641
 10
194.5380205968357
 20
14.50211422668492
 10
194.472919336574
 20
14.627403349389
 10
194.3796000122415
 20
14.68213900233934
 10
194.2950636285138
 20
14.73916423939344
 10
194.1722498125743
 20
14.89675287427525
 10
194.1764450847301
 20
14.82035806766838
 10
194.1751478652677
 20
14.77361280161298
 10
194.1758126448076
 20
14.69584785812602
 10
194.1755549986956
 20
14.59902068324423
 10
194.1756431239922
 20
14.48650279078809
 10
194.1756077302282
 20
14.365240859457
 10
194.1756511758278
 20
14.24086897858961
 10
194.1755199942405
 20
14.11967683631335
 10
194.1759477562046
 20
14.00691148919742
 10
194.174667820231
 20
13.91082913768743
 10
194.1779759851043
 20
13.83113826468698
 10
194.1715197740087
 20
13.78815175788783
 10
194.1806208705555
 20
13.7495543237204
 10
194.1447910339935
 20
13.75810887724069
 10
194.1115223815252
 20
13.75342519985444
 10
194.0604562576041
 20
13.75351298759782
 10
194.0269723972812
 20
13.75794430283818
 10
193.9907585408754
 20
13.74960793842508
 10
194.0009782568666
 20
13.79145277179282
 10
193.9936487887773
 20
13.83778560820172
 10
193.9973633136102
 20
13.92374831106013
 10
193.9959480554897
 20
14.02605142704848
 10
193.9964105554638
 20
14.14453223931511
 10
193.996277368623
 20
14.26957683153355
 10
193.9963015910045
 20
14.39475828107049
 10
193.9963354925551
 20
14.51286645379058
 10
193.9962060293132
 20
14.61628748709515
 10
193.9965507549081
 20
14.69932036153667
 10
193.9958698278689
 20
14.75143368521244
 10
193.9994586600625
 20
14.87912907821362
 10
193.7826171386436
 20
14.5804871681962
 10
193.602135492195
 20
14.35263981511512
 10
193.5490322295611
 20
14.49373443289813
 10
193.5200429133149
 20
14.54325767560941
 10
193.419664806282
 20
14.64641779790097
 10
193.7405127723261
 20
14.72695035023775
 10
193.8689897005429
 20
14.91066283036431
 10
194.0906454325359
 20
15.1193199577176
 10
194.1770224894067
 20
15.29339211228339
 10
194.4549394229076
 20
15.56967051342508
 10
194.3346247839284
 20
15.56534559551108
 10
194.2863197351348
 20
15.56614856202548
 10
194.2102377454905
 20
15.56574582146579
 10
194.116701000975
 20
15.56590275611604
 10
194.0117594788557
 20
15.56582502576219
 10
193.9033887738717
 20
15.56595464378549
 10
193.7981454235897
 20
15.56554393490687
 10
193.7056237819412
 20
15.56682073671586
 10
193.6268130800707
 20
15.56340766534845
 10
193.5839674565379
 20
15.57023350036315
 10
193.5449499586516
 20
15.56065064201118
 10
193.5526365271863
 20
15.59420779565537
 10
193.5485464404312
 20
15.62523550322227
 10
193.5485531368814
 20
15.67236529270894
 10
193.5526239724912
 20
15.70340941646773
 10
193.5449495574582
 20
15.73701861635895
 10
193.5834819405495
 20
15.72748410420866
 10
193.624122801448
 20
15.73397435498065
 10
193.6951471850463
 20
15.73100150650248
 10
193.7729318149633
 20
15.73174761399151
 10
193.8507292246474
 20
15.73247814044519
 10
193.9217232089907
 20
15.72954235514154
 10
193.962427979182
 20
15.73595468772946
 10
194.000985348991
 20
15.72650524175998
 10
193.9927342754927
 20
15.76264692158778
 10
193.9982346669358
 20
15.80129837613221
 10
193.9955754206163
 20
15.86913528561834
 10
193.9965815471533
 20
15.94591641538736
 10
193.9960178018318
 20
16.02849393582754
 10
193.9970714526594
 20
16.10517329229877
 10
193.9942675863129
 20
16.17331990776698
 10
194.0000702721304
 20
16.21132399809347
 10
193.9915654551158
 20
16.24758448077646
 10
194.0255610233125
 20
16.23755723771852
 10
194.05945756831
 20
16.24073266813706
 10
194.1126669060346
 20
16.23508965640608
 10
194.1660768574483
 20
16.23434774436424
 10
194.199591464949
 20
16.22819223482978
 10
194.2388086183039
 20
16.2334602977359
 10
194.2120263698491
 20
16.19253380793489
 10
194.1708111001724
 20
16.20371204538108
 10
194.1782641540874
 20
16.15867056192122
 10
194.1742227952184
 20
16.11412278028141
 10
194.1761714049641
 20
16.04223572621699
 10
194.1752364849757
 20
15.96168630588766
 10
194.1765107190031
 20
15.8817399540499
 10
194.1732043793863
 20
15.80841837083176
 10
194.1802106179962
 20
15.76688643002563
 10
194.1701440380125
 20
15.72752418568107
 10
194.2029814803921
 20
15.73468063430975
 10
194.236457729648
 20
15.73027243137938
 10
194.2915053476019
 20
15.73217943347891
 10
194.3489502595314
 20
15.73185366407282
 10
194.4023026248309
 20
15.73106308733075
 10
194.4398540896639
 20
15.73313959118069
 10
194.4623172523236
 20
15.73022338167102
 10
194.4751678073731
 20
15.73572552644051
 10
194.4858255685889
 20
15.73801118197785
 10
194.4986635650143
 20
15.74494972588049
 10
194.514599103307
 20
15.72853046313669
 10
194.5410623920891
 20
15.71709122319447
 10
194.5726805253757
 20
15.69644687835191
 10
194.5987255892152
 20
15.68116869628296
 10
194.6128517723972
 20
15.67266976323186
 10
194.6170254148479
 20
15.6701587151103
 97
        1
330
AC
 75
     1
 76
     2
 52
45.0
 41
0.1
 77
     0
 78
     1
 53
45.0
 43
0.0
 44
0.0
 45
-0.282842712474619
 46
0.0
 79
     0
 98
        1
 10
0.0
 20
0.0
  0
HATCH
  5
CA
330
48
100
AcDbEntity
  8
1
  6
Continuous
 62
     2
100
AcDbHatch
 10
0.0
 20
0.0
 30
0.0
210
0.0
220
0.0
230
1.0
  2
CUSTOM4
 70
     0
 71
     1
 91
        1
 92
        1
 93
        1
 72
     4
 94
        3
 73
     0
 74
     0
 95
       91
 96
       87
 40
0.0
 40
0.0
 40
0.0
 40
0.0
 40
0.0267532254356684
 40
0.0856103386464049
 40
0.144467452199655
 40
0.1712206856618426
 40
0.2039416005642447
 40
0.2955601971652395
 40
0.4362601844616829
 40
0.6162252844507161
 40
0.8256392189704609
 40
1.054685709844402
 40
1.293548478893522
 40
1.532411247938294
 40
1.761457738799559
 40
1.970871673298528
 40
2.150836773256724
 40
2.291536760495585
 40
2.383155356836691
 40
2.415876284101311
 40
2.442629517487952
 40
2.501486630949082
 40
2.560343744424226
 40
2.587096977826497
 40
2.617068194440924
 40
2.699247336756065
 40
2.822032643466378
 40
2.973822353257908
 40
3.14301470482335
 40
3.318007936879929
 40
3.487200288186762
 40
3.638989997548243
 40
3.761775303794741
 40
3.843954445753076
 40
3.873925662229772
 40
3.890812773500483
 40
3.907699884771665
 40
3.937960767857259
 40
3.980983618142285
 40
4.199085915228436
 40
4.439444339237236
 40
4.677588241260865
 40
5.05069831783775
 40
5.448212454763136
 40
5.855291218044661
 40
6.138575438885331
 40
6.417434507584179
 40
6.444551104393864
 40
6.504207617363166
 40
6.563864130314492
 40
6.590980727104086
 40
6.84860946038148
 40
7.109611990668443
 40
7.352910904446103
 40
7.557830220705462
 40
7.587518925913384
 40
7.652834077375813
 40
7.718149228845758
 40
7.747837934062066
 40
7.854880190301053
 40
7.976511257403584
 40
8.369487896592386
 40
8.757514959223679
 40
9.126072419331141
 40
9.460639380392204
 40
9.746695593035945
 40
9.777569943118735
 40
9.80705032093185
 40
9.83037733612899
 40
9.88600329543608
 40
9.952395569430013
 40
10.00802152870638
 40
10.03134854388231
 40
10.21356951009602
 40
10.42203479292884
 40
10.66154556731078
 40
10.91693789564319
 40
11.15832906556577
 40
11.18982674596635
 40
11.27286608520419
 40
11.39026653033361
 40
11.52484752840897
 40
11.65942852648459
 40
11.77682897161495
 40
11.85986831085694
 40
11.8913659823044
 40
11.8913659823044
 40
11.8913659823044
 40
11.8913659823044
 10
190.7027885008196
 20
14.70699600701769
 10
190.7028237765288
 20
14.71587847311982
 10
190.7029366710797
 20
14.74430237047343
 10
190.7012984568488
 20
14.79409639169799
 10
190.7069750292911
 20
14.8365756447815
 10
190.6956928731706
 20
14.88730154856843
 10
190.7632296979031
 20
14.87012900740105
 10
190.83880292107
 20
14.88290227165991
 10
190.9828357056
 20
14.87629729457378
 10
191.1569419185427
 20
14.87888462206462
 10
191.3639599611003
 20
14.87800591955549
 10
191.5894688172378
 20
14.87828207920023
 10
191.8251162293406
 20
14.87818339658658
 10
192.0607640531348
 20
14.87828184412763
 10
192.2862717580626
 20
14.87800678190785
 10
192.4932934632805
 20
14.87888186270731
 10
192.6673888915288
 20
14.87630522678442
 10
192.8114492071986
 20
14.8828829044921
 10
192.8869691915293
 20
14.870162434056
 10
192.954577603703
 20
14.88726400191683
 10
192.9430840140676
 20
14.83674785802936
 10
192.9505104581733
 20
14.79253252226498
 10
192.9428838927986
 20
14.74867966503606
 10
192.9546489459424
 20
14.69878374479324
 10
192.8930788491983
 20
14.71393227712509
 10
192.8256791738672
 20
14.7031066535067
 10
192.7013004056221
 20
14.70852031626233
 10
192.555442823657
 20
14.70649205390782
 10
192.3893576440085
 20
14.70715777578384
 10
192.2188412621724
 20
14.70689643521239
 10
192.0519790855388
 20
14.70721553391091
 10
191.9087346827105
 20
14.70635302590759
 10
191.7773313869834
 20
14.70863300482986
 10
191.7239859134656
 20
14.70407704374198
 10
191.6485188456913
 20
14.70999914992875
 10
191.6769075779232
 20
14.70094169343348
 10
191.7033652409542
 20
14.69725912268924
 10
191.6633522907701
 20
14.66654271968271
 10
191.5713663691868
 20
14.67667591174641
 10
191.5439396207069
 20
14.43032502247781
 10
191.4478793967234
 20
14.27499558764375
 10
191.1917277964473
 20
13.94525417931568
 10
191.7627537732762
 20
14.08430022210449
 10
192.0173656320516
 20
14.08291779973364
 10
192.6279647048617
 20
13.99790569242082
 10
192.3340698578083
 20
14.29685417558201
 10
192.0133304286517
 20
14.44330856901778
 10
192.1313543360434
 20
14.50025540818286
 10
192.1724716466261
 20
14.52420099873347
 10
192.2156812394411
 20
14.54599758811231
 10
192.3174574094451
 20
14.60928721253903
 10
192.4328867625246
 20
14.35147151408778
 10
192.6329591642277
 20
14.2161604111368
 10
192.7269077387228
 20
14.0379279513888
 10
192.9558829746393
 20
13.8799782102705
 10
192.8596031846708
 20
13.82915972576299
 10
192.8167959763779
 20
13.79881292523051
 10
192.7718243528779
 20
13.77466130281455
 10
192.7121720925214
 20
13.72552146747561
 10
192.6789731061324
 20
13.85997475673607
 10
192.5582013350796
 20
14.01594265286576
 10
192.1970976005978
 20
13.88569928059554
 10
191.8385061955541
 20
13.90224694409481
 10
191.457092045008
 20
13.89331229351863
 10
191.1703455282891
 20
13.82882671672409
 10
190.8592055599714
 20
13.94230668192822
 10
190.8268737818788
 20
13.83122259927768
 10
190.7896178253318
 20
13.81196313850005
 10
190.7865737632753
 20
13.85874784087292
 10
190.7679892860608
 20
13.89806853919132
 10
190.7512436616778
 20
13.9576598347823
 10
190.7383730915753
 20
14.00201969871283
 10
190.7042327806429
 20
14.09106331120201
 10
190.9482714457754
 20
14.02181042943769
 10
191.1441394486671
 20
14.00030369057742
 10
191.2395426381277
 20
14.28226484478462
 10
191.2945135769596
 20
14.44363045421121
 10
191.5159619357156
 20
14.71391177589736
 10
191.3849239381216
 20
14.70548446853731
 10
191.3110026555854
 20
14.70779008496967
 10
191.1977459876244
 20
14.70671378321655
 10
191.0694251807484
 20
14.70707639076507
 10
190.9404252030415
 20
14.70697724466083
 10
190.828784094629
 20
14.70699932712569
 10
190.7514663970026
 20
14.70699579189667
 10
190.713287653201
 20
14.70699595845078
 10
190.7027885008196
 20
14.70699600701769
 97
        1
330
AD
 75
     1
 76
     2
 52
45.0
 41
0.1
 77
     0
 78
     1
 53
45.0
 43
0.0
 44
0.0
 45
-0.282842712474619
 46
0.0
 79
     0
 98
        1
 10
0.0
 20
0.0
  0
HATCH
  5
CB
330
48
100
AcDbEntity
  8
1
  6
Continuous
 62
     2
100
AcDbHatch
 10
0.0
 20
0.0
 30
0.0
210
0.0
220
0.0
230
1.0
  2
CUSTOM5
 70
     0
 71
     1
 91
        1
 92
        1
 93
        1
 72
     4
 94
        3
 73
     0
 74
     0
 95
       35
 96
       31
 40
0.0
 40
0.0
 40
0.0
 40
0.0
 40
0.0335231036620424
 40
0.0713218571711711
 40
0.4278866681486984
 40
0.8116865841964086
 40
1.19819023800006
 40
1.561379546812669
 40
1.659983174622065
 40
1.759315573807221
 40
2.132719617231106
 40
2.525233363588868
 40
2.910815397779755
 40
3.265244364303371
 40
3.592606723582147
 40
3.964386154604109
 40
4.359942131737935
 40
4.75815411863946
 40
4.843846538700117
 40
4.936650065543396
 40
5.25661660253748
 40
5.581707404416219
 40
5.899719158308327
 40
6.198363494280948
 40
6.46630104661601
 40
6.493895311537332
 40
6.559697020197127
 40
6.638234543442703
 40
6.704036252154457
 40
6.731630508423263
 40
6.731630508423263
 40
6.731630508423263
 40
6.731630508423263
 10
191.9736010568669
 20
16.23463843719129
 10
191.9676006097789
 20
16.22480690542318
 10
191.9548344099157
 20
16.20388988579795
 10
191.7949362006555
 20
16.17127126532703
 10
192.2322025842336
 20
15.88206680336693
 10
192.4345394828262
 20
15.68041138358437
 10
192.6819564267973
 20
15.43749387603273
 10
193.1831513624606
 20
15.36047662757779
 10
193.012556219897
 20
15.21876939174654
 10
192.9383299463201
 20
15.01710366209103
 10
192.6131432248188
 20
15.36956287174722
 10
192.3277741670663
 20
15.5317521255956
 10
192.0337604077658
 20
15.73687130053048
 10
191.8084452691133
 20
16.21827488595461
 10
191.5993085055522
 20
15.75343046609223
 10
191.3207873674834
 20
15.54350952252909
 10
191.0371383177209
 20
15.37424456359983
 10
190.7078639527831
 20
15.00142360907925
 10
190.6277012318224
 20
15.19708014458999
 10
190.4759724909744
 20
15.32491104190587
 10
190.9083395826794
 20
15.40454031765931
 10
191.0962565329765
 20
15.60026634915468
 10
191.3468477420502
 20
15.81632996916753
 10
191.5714350470161
 20
15.98190992300056
 10
191.6259775409713
 20
16.26133964636832
 10
191.7494661029011
 20
16.2473795040808
 10
191.806027334452
 20
16.24521268867647
 10
191.8761870984945
 20
16.24046859881359
 10
191.9333414022105
 20
16.23709429350536
 10
191.9644190320839
 20
16.23519854711115
 10
191.9736010568669
 20
16.23463843719129
 97
        1
330
AE
 75
     1
 76
     2
 52
45.0
 41
0.1
 77
     0
 78
     1
 53
45.0
 43
0.0
 44
0.0
 45
-0.282842712474619
 46
0.0
 79
     0
 98
        1
 10
0.0
 20
0.0
  0
HATCH
  5
CC
330
48
100
AcDbEntity
  8
1
  6
Continuous
 62
     2
100
AcDbHatch
 10
0.0
 20
0.0
 30
0.0
210
0.0
220
0.0
230
1.0
  2
CUSTOM6
 70
     0
 71
     1
 91
        1
 92
        1
 93
        1
 72
     4
 94
        3
 73
     0
 74
     0
 95
       15
 96
       11
 40
0.0
 40
0.0
 40
0.0
 40
0.0
 40
0.2785535985096362
 40
0.5215624748199038
 40
0.6076917376040527
 40
0.6938210001741127
 40
0.9405019146454827
 40
1.22169140348911
 40
1.300471877081029
 40
1.379252341684796
 40
1.379252341684796
 40
1.379252341684796
 40
1.379252341684796
 10
189.5681493630999
 20
16.22930267330379
 10
189.6296017794178
 20
16.17691646592716
 10
189.7446649974114
 20
16.07882876798224
 10
190.0397348497244
 20
15.92889785897218
 10
189.9025147631857
 20
15.84343227515012
 10
189.8041227843778
 20
15.71085785201556
 10
189.713003359065
 20
16.01616985781418
 10
189.3636839480654
 20
16.07967869465372
 10
189.511925837657
 20
16.17896509880876
 10
189.5494081874236
 20
16.2125234840238
 10
189.5681493630999
 20
16.22930267330379
 97
        1
330
AF
 75
     1
 76
     2
 52
45.0
 41
0.1
 77
     0
 78
     1
 53
45.0
 43
0.0
 44
0.0
 45
-0.282842712474619
 46
0.0
 79
     0
 98
        1
 10
0.0
 20
0.0
  0
HATCH
  5
CD
330
48
100
AcDbEntity
  8
1
  6
Continuous
 62
     2
100
AcDbHatch
 10
0.0
 20
0.0
 30
0.0
210
0.0
220
0.0
230
1.0
  2
CUSTOM7
 70
     0
 71
     1
 91
        1
 92
        1
 93
        1
 72
     4
 94
        3
 73
     0
 74
     0
 95
       75
 96
       71
 40
0.0
 40
0.0
 40
0.0
 40
0.0
 40
0.0342546099129673
 40
0.1245622414432364
 40
0.2522385480897554
 40
0.3985991922940715
 40
0.544959836498091
 40
0.6726361431438941
 40
0.7629437746737031
 40
0.7971983935298079
 40
1.101723623449674
 40
1.408591244036681
 40
1.433332471690376
 40
1.487763172450153
 40
1.542193873081963
 40
1.566935100592504
 40
1.923523931821822
 40
2.271755704953626
 40
2.59057975510087
 40
2.858943305581124
 40
2.889120339309179
 40
2.918305855191132
 40
2.94136664553126
 40
2.996357760973159
 40
3.061992318140716
 40
3.116983433626921
 40
3.140044223997605
 40
3.411273122936526
 40
3.732441619741195
 40
3.761068217532893
 40
3.837787499630451
 40
3.948858699126083
 40
4.080541049104454
 40
4.219093782625832
 40
4.350776132722375
 40
4.461847332405704
 40
4.538566614678434
 40
4.567193212544678
 40
4.594907573998936
 40
4.666381453557475
 40
4.764111044011086
 40
4.870592538125889
 40
4.96832212864234
 40
5.039796008287025
 40
5.067510369784484
 40
5.094263603185698
 40
5.153120716668333
 40
5.211977830150779
 40
5.238731063551786
 40
5.272290535139025
 40
5.363380529444886
 40
5.497618415781563
 40
5.660621563453805
 40
5.838007341749506
 40
6.015393119910858
 40
6.178396267038483
 40
6.312634151842435
 40
6.403724143059424
 40
6.43728361267252
 40
6.464036846261134
 40
6.522893960004753
 40
6.581751071484018
 40
6.608504301590964
 40
6.637253941281111
 40
6.711397748902963
 40
6.812778057283575
 40
6.923237199249352
 40
7.024617507623995
 40
7.098761315207648
 40
7.127510946007598
 40
7.127510946007598
 40
7.127510946007598
 40
7.127510946007598
 10
188.4418622390564
 20
14.9584912847326
 10
188.4418622819707
 20
14.94707313408716
 10
188.4418624481128
 20
14.90555257842625
 10
188.4418593081787
 20
14.82146922003767
 10
188.44187882798
 20
14.70004497322324
 10
188.4417912187738
 20
14.55980494047443
 10
188.442111623523
 20
14.42006556794572
 10
188.441160590974
 20
14.29745038894923
 10
188.4431978595967
 20
14.21587074438038
 10
188.4349433178746
 20
14.06271267077692
 10
188.7430797940902
 20
14.22560236054717
 10
189.0350645173735
 20
14.39482938688
 10
189.0408354448707
 20
14.25973235781909
 10
189.0455471719891
 20
14.21617221160444
 10
189.0482535411917
 20
14.17211249350546
 10
189.0672545672961
 20
14.02272590363137
 10
188.6583942247302
 20
14.0868117224126
 10
188.3793710348832
 20
13.97296341411015
 10
188.1018081587166
 20
13.87364095811139
 10
187.8099837184399
 20
13.91630687596354
 10
187.7869144678658
 20
13.81321679744537
 10
187.7537474383332
 20
13.78691091244463
 10
187.7480653962739
 20
13.83455309036299
 10
187.7284214559044
 20
13.87180336115065
 10
187.7095089485623
 20
13.93007387847561
 10
187.6942849867707
 20
13.97385201007801
 10
187.6477246372937
 20
14.0875942104631
 10
187.989089731245
 20
14.05576301120043
 10
188.2679649367386
 20
14.02161435106479
 10
188.2617753034907
 20
14.16913976479652
 10
188.2630935452773
 20
14.24013150908831
 10
188.2624831689948
 20
14.3471976795866
 10
188.2625871570724
 20
14.47398529785996
 10
188.2629987964055
 20
14.60849243496048
 10
188.2613907841968
 20
14.73395549951181
 10
188.2659902567925
 20
14.84505246719114
 10
188.2564186502211
 20
14.90761886800684
 10
188.2704001783691
 20
14.96595388294997
 10
188.2147384386705
 20
14.95289710582233
 10
188.1575655197821
 20
14.96136307749495
 10
188.0616048925648
 20
14.95729976080632
 10
187.963376752282
 20
14.9597088985247
 10
187.8672582457561
 20
14.95551600613384
 10
187.810464852581
 20
14.96429346441158
 10
187.7550356873384
 20
14.95094936850117
 10
187.7670679427917
 20
15.00036910959253
 10
187.7592003173938
 20
15.04393988030391
 10
187.7666295563828
 20
15.08830469118521
 10
187.7551930564144
 20
15.13902297763987
 10
187.8232102370133
 20
15.12162460757739
 10
187.8968496879747
 20
15.13417450237185
 10
188.0325064058211
 20
15.12799677011093
 10
188.1884909024525
 20
15.1302920309308
 10
188.3615926358143
 20
15.12940968262525
 10
188.5346942964181
 20
15.13029207142404
 10
188.6906789811216
 20
15.12799662955546
 10
188.8263351889797
 20
15.13417486262427
 10
188.8999756705652
 20
15.12162394218331
 10
188.9679914174724
 20
15.13902373012138
 10
188.9565590885922
 20
15.08830130414551
 10
188.9639539458298
 20
15.04397060811104
 10
188.956203991227
 20
15.00028307550192
 10
188.9681203741877
 20
14.95063590098473
 10
188.9108170223617
 20
14.96461411338421
 10
188.8520145789772
 20
14.9553975567325
 10
188.7525293633199
 20
14.95952268164925
 10
188.649428009835
 20
14.95822760025884
 10
188.5537846354573
 20
14.95854077077636
 10
188.4857467971617
 20
14.95848776697141
 10
188.4514462213443
 20
14.95849051871652
 10
188.4418622390564
 20
14.9584912847326
 97
        1
330
B0
 75
     1
 76
     2
 52
45.0
 41
0.1
 77
     0
 78
     1
 53
45.0
 43
0.0
 44
0.0
 45
-0.282842712474619
 46
0.0
 79
     0
 98
        1
 10
0.0
 20
0.0
  0
HATCH
  5
CE
330
48
100
AcDbEntity
  8
1
  6
Continuous
 62
     2
100
AcDbHatch
 10
0.0
 20
0.0
 30
0.0
210
0.0
220
0.0
230
1.0
  2
CUSTOM8
 70
     0
 71
     1
 91
        1
 92
        1
 93
        1
 72
     4
 94
        3
 73
     0
 74
     0
 95
       91
 96
       87
 40
0.0
 40
0.0
 40
0.0
 40
0.0
 40
0.0345987051695718
 40
0.1258134969461369
 40
0.2547723404888987
 40
0.4026032099154125
 40
0.5504340793416704
 40
0.679392922883608
 40
0.7706077146571035
 40
0.8052064287780925
 40
1.124852390615279
 40
1.427402236308877
 40
1.706356627453524
 40
1.955541417875218
 40
2.169485938566373
 40
2.344350786664835
 40
2.48056841156199
 40
2.590440557429012
 40
2.649189927151166
 40
2.749320643306372
 40
2.912632739880078
 40
3.147745656000282
 40
3.244827496385161
 40
3.338490056946753
 40
3.583815413207166
 40
3.761423943238518
 40
3.886956104362675
 40
3.985855451886835
 40
4.09176625533772
 40
4.250186473811913
 40
4.422734315084557
 40
4.62828568483865
 40
4.872093227758478
 40
5.152549652145588
 40
5.464967135837568
 40
5.803201477852483
 40
6.160362988813955
 40
6.19344944827601
 40
6.284170385501665
 40
6.419718138764535
 40
6.587285046385785
 40
6.774063446723699
 40
6.967245678113682
 40
7.154024078817668
 40
7.321590987026053
 40
7.457138740890412
 40
7.547859678556148
 40
7.580946138182708
 40
7.608533084714762
 40
7.66922436707774
 40
7.729915649429961
 40
7.757502595950014
 40
7.790278062553468
 40
7.880146277430966
 40
8.01441996318043
 40
8.18041184239793
 40
8.3654346376794
 40
8.5568010716227
 40
8.741823866830813
 40
8.907815745916324
 40
9.042089431507478
 40
9.131957646249603
 40
9.16473311279718
 40
9.415425063140084
 40
9.667986180958525
 40
9.694169807462693
 40
9.756607686047651
 40
9.831130315322458
 40
9.893568193899922
 40
9.919751820398739
 40
9.950967964690589
 40
9.996421631210714
 40
10.22087981037454
 40
10.44341866197541
 40
10.47847970788853
 40
10.57091337438754
 40
10.70159545461228
 40
10.85140174170359
 40
11.00120802880476
 40
11.13189010907381
 40
11.22432377583009
 40
11.25938480938955
 40
11.28697175596144
 40
11.34766303835918
 40
11.40835432042069
 40
11.43594125892104
 40
11.43594125892104
 40
11.43594125892104
 40
11.43594125892104
 10
190.0818114333289
 20
15.55242795125079
 10
190.0702785844941
 20
15.55242790287917
 10
190.0283409444998
 20
15.55242773704166
 10
189.9434129719026
 20
15.55243125800911
 10
189.8207688553128
 20
15.5524092643588
 10
189.6791206916993
 20
15.55250801177056
 10
189.537975369849
 20
15.55214686232423
 10
189.4141351317904
 20
15.5532188360909
 10
189.3317217825382
 20
15.55092249091271
 10
189.1727791229692
 20
15.56048569373421
 10
189.3503402353376
 20
15.19785394311373
 10
189.3379739205452
 20
14.95243127723115
 10
189.4064519473864
 20
14.66862501324835
 10
189.469302432097
 20
14.43250999939035
 10
189.5452253431728
 20
14.23326740396129
 10
189.6303189577016
 20
14.07745347451371
 10
189.7244607592935
 20
13.9765785778139
 10
189.8282648207728
 20
13.92465852638962
 10
189.9125872030773
 20
13.97606484379614
 10
189.9351322179452
 20
14.09144544037515
 10
189.9745730975371
 20
14.21885149702378
 10
189.9202919734942
 20
14.53622328086752
 10
190.0451218072474
 20
14.38982180140906
 10
190.2019291513602
 20
14.3579530033117
 10
190.0947720007057
 20
14.1242135776763
 10
190.0808711209867
 20
13.95972776583659
 10
190.0234709467225
 20
13.83130869122486
 10
189.9335020145008
 20
13.7601880235283
 10
189.8095274657877
 20
13.74432324142257
 10
189.663427319686
 20
13.77993797554175
 10
189.5243894320283
 20
13.9000057050028
 10
189.4102003962144
 20
14.07435682550323
 10
189.3146141301485
 20
14.29946603111243
 10
189.2318652572627
 20
14.56388246006445
 10
189.1807179256411
 20
14.88187933098546
 10
189.0770189207337
 20
15.15543728488914
 10
189.2042841208523
 20
15.56005818612869
 10
189.0357890623018
 20
15.5511236784968
 10
188.9511995787077
 20
15.55315961418365
 10
188.8189876387627
 20
15.55213937388408
 10
188.6560505094104
 20
15.55253230318431
 10
188.4733759170532
 20
15.5523569631337
 10
188.2847057373383
 20
15.5526010530747
 10
188.1014469020189
 20
15.55185657906239
 10
187.9404746832718
 20
15.55416360522427
 10
187.8029808335276
 20
15.54799804883665
 10
187.728959037231
 20
15.56032838458212
 10
187.6613215186857
 20
15.54329323723558
 10
187.6732373719269
 20
15.59524438447529
 10
187.6655677285694
 20
15.64071424966531
 10
187.6732592225115
 20
15.68614453703707
 10
187.6613141797762
 20
15.73802395984572
 10
187.7283588305867
 20
15.72119143490266
 10
187.8017375665676
 20
15.73335409092672
 10
187.9379128305272
 20
15.72727231074961
 10
188.0973811801512
 20
15.7295483431506
 10
188.2789173085836
 20
15.72881233998964
 10
188.4658034862179
 20
15.72905954196136
 10
188.6468012316836
 20
15.72886400799256
 10
188.8080802578878
 20
15.72932234714841
 10
188.9393882124887
 20
15.72812673751208
 10
189.0225051322597
 20
15.73051347319745
 10
189.1556236547813
 20
15.72230605725466
 10
189.0645893502658
 20
15.97752868952655
 10
188.978963307442
 20
16.24164358328244
 10
189.0990589003454
 20
16.22904442969163
 10
189.1514264948544
 20
16.22694235763074
 10
189.2214497569715
 20
16.22535399889656
 10
189.2671922337817
 20
16.21602567538114
 10
189.3220812646933
 20
16.22545966915427
 10
189.2963574785681
 20
16.17733028655172
 10
189.1825397571453
 20
16.18266829744154
 10
189.3159346621135
 20
15.95449174576779
 10
189.1943658735471
 20
15.72156856595925
 10
189.3223188769413
 20
15.73087258884441
 10
189.4049048406461
 20
15.72801001754682
 10
189.5307214850824
 20
15.72923437412305
 10
189.6741469838057
 20
15.72932431888966
 10
189.8157420951728
 20
15.72746163183855
 10
189.9459127249967
 20
15.73333075937165
 10
190.0193452286191
 20
15.72070340823206
 10
190.0891112922096
 20
15.73877563110414
 10
190.0775772605396
 20
15.68612850546328
 10
190.0833184346682
 20
15.64221317686549
 10
190.081661577091
 20
15.5908998267655
 10
190.081775756167
 20
15.56158792021636
 10
190.0818114333289
 20
15.55242795125079
 97
        1
330
B1
 75
     1
 76
     2
 52
45.0
 41
0.1
 77
     0
 78
     1
 53
45.0
 43
0.0
 44
0.0
 45
-0.282842712474619
 46
0.0
 79
     0
 98
        1
 10
0.0
 20
0.0
  0
HATCH
  5
CF
330
48
100
AcDbEntity
  8
1
  6
Continuous
 62
     2
100
AcDbHatch
 10
0.0
 20
0.0
 30
0.0
210
0.0
220
0.0
230
1.0
  2
CUSTOM9
 70
     0
 71
     1
 91
        1
 92
        1
 93
        1
 72
     4
 94
        3
 73
     0
 74
     0
 95
      118
 96
      114
 40
0.0
 40
0.0
 40
0.0
 40
0.0
 40
0.1054708162973368
 40
0.2466098270051868
 40
0.3965912874591235
 40
0.5285525069754036
 40
0.6156245055642277
 40
0.6431434105797574
 40
0.7036850037986235
 40
0.7642265984504605
 40
0.7917455052354909
 40
0.928740431998972
 40
1.106572819088001
 40
1.287544879681002
 40
1.317578308030519
 40
1.399928030857156
 40
1.522968204799932
 40
1.675072986590553
 40
1.844616533180632
 40
2.019973001638695
 40
2.189516548880007
 40
2.341621331585346
 40
2.46466150632048
 40
2.547011229647046
 40
2.57704465816801
 40
2.60379789089308
 40
2.662655002908767
 40
2.721512114949579
 40
2.748265347702759
 40
2.774215307344834
 40
2.845959313407166
 40
2.954338556588363
 40
3.090194227585538
 40
3.244367517100505
 40
3.40769961584426
 40
3.571031714539407
 40
3.725205003920085
 40
3.861060674729584
 40
3.969439917716276
 40
4.041183923628948
 40
4.067133883212941
 40
4.31188674601211
 40
4.54789725833547
 40
4.764747083043913
 40
4.952749679951718
 40
5.045772974195866
 40
5.137862019644929
 40
5.330543169792989
 40
5.55344826524399
 40
5.795083855888145
 40
6.043293412177196
 40
6.285761695541108
 40
6.313902908752592
 40
6.384255941793182
 40
6.47571488476677
 40
6.567173827758833
 40
6.637526860839611
 40
6.665668074073974
 40
6.692018920327952
 40
6.749990782071032
 40
6.807962643790411
 40
6.834313490017889
 40
6.856393084245168
 40
6.913335195649791
 40
6.991194817302455
 40
7.076026942283717
 40
7.153886563725207
 40
7.210828674844789
 40
7.232908268931125
 40
7.258199334923649
 40
7.324875781592304
 40
7.41914248192497
 40
7.527204308841922
 40
7.635266135230511
 40
7.729532834168507
 40
7.796209279292833
 40
7.821500344594783
 40
7.844652988850854
 40
7.899863140541634
 40
7.965759128053802
 40
8.020969279771087
 40
8.044121924046554
 40
8.069356610160641
 40
8.109134395441403
 40
8.132238100191119
 40
8.193147867786484
 40
8.279261678876663
 40
8.377977512673882
 40
8.476693347146673
 40
8.56280716041173
 40
8.623716930826518
 40
8.646820636853473
 40
8.671988793774286
 40
8.734909185828197
 40
8.816705695188912
 40
8.898502204815482
 40
8.961422597377943
 40
8.986590754551056
 40
9.012941600733216
 40
9.070913462380311
 40
9.128885324081814
 40
9.155236170325141
 40
9.180404327929184
 40
9.243324721948257
 40
9.32512123421205
 40
9.406917746637705
 40
9.46983814197816
 40
9.495006288270934
 40
9.51781118437907
 40
9.572192090487055
 40
9.637098333281266
 40
9.691479239515454
 40
9.714284125643486
 40
9.714284125643486
 40
9.714284125643486
 40
9.714284125643486
 10
185.2874469028653
 20
15.2688916318772
 10
185.3090990569037
 20
15.24111869242812
 10
185.3597257109473
 20
15.17618054561237
 10
185.4349383202592
 20
15.06891060312899
 10
185.5248482274346
 20
14.95377438266626
 10
185.5709169676674
 20
14.8535704574832
 10
185.6655825294655
 20
14.78434006814942
 10
185.6204439320412
 20
14.73771639678274
 10
185.5947047785789
 20
14.69660308866039
 10
185.5645196708012
 20
14.6606597172794
 10
185.5193684730562
 20
14.58579782596095
 10
185.4710504458562
 20
14.80782524253604
 10
185.3968539713073
 20
14.84510677337708
 10
185.2836047324607
 20
15.11610202130597
 10
185.2885133578169
 20
15.00095328446226
 10
185.2868486556306
 20
14.92836675781624
 10
185.2876830076713
 20
14.80625588483983
 10
185.2873609540264
 20
14.65913800810457
 10
185.2875076912456
 20
14.49307063956554
 10
185.2872950092722
 20
14.32187554608599
 10
185.2879497252034
 20
14.15552828635495
 10
185.2859192461139
 20
14.0093517305569
 10
185.291346039993
 20
13.88471047474608
 10
185.2804930868708
 20
13.81718656540623
 10
185.2956739155555
 20
13.7554906141702
 10
185.2457895108134
 20
13.76727503896998
 10
185.2017150342521
 20
13.75943822779966
 10
185.1582371630201
 20
13.767604413727
 10
185.1092346786488
 20
13.75538056738464
 10
185.1218731234825
 20
13.8096066724931
 10
185.1130182968449
 20
13.86936918907554
 10
185.1175058770314
 20
13.97922029044367
 10
185.1157960135991
 20
14.11029975405675
 10
185.1163550915986
 20
14.26198011444324
 10
185.1161928768694
 20
14.4221107492995
 10
185.1162269924674
 20
14.58236865674563
 10
185.1162514960127
 20
14.73370247520436
 10
185.1161453543225
 20
14.86582156338597
 10
185.1164299141931
 20
14.97294802533189
 10
185.1158675547567
 20
15.03808619579469
 10
185.118076508369
 20
15.16618957858672
 10
185.0319435998601
 20
14.79097610391572
 10
184.95551408185
 20
14.63918193123394
 10
184.8660040767833
 20
14.47766206446304
 10
184.7640413217326
 20
14.20471848820168
 10
184.7187976491039
 20
14.36717346596511
 10
184.610235594167
 20
14.45605432058118
 10
184.7995791751753
 20
14.60549794961409
 10
184.8565340545701
 20
14.79749136974925
 10
184.9717520993352
 20
15.02899622906756
 10
184.9940151630132
 20
15.21797259759062
 10
185.177190515214
 20
15.49454089325924
 10
185.0538033597552
 20
15.48698978832089
 10
184.9925684166834
 20
15.48856772366114
 10
184.9081999617064
 20
15.48882592573667
 10
184.8204235085966
 20
15.48544845751201
 10
184.7656768696122
 20
15.49394814982015
 10
184.7104703026025
 20
15.48048561049783
 10
184.7222823035536
 20
15.52931442126759
 10
184.7142496151794
 20
15.57269004896705
 10
184.7228186104679
 20
15.6150943830957
 10
184.7102943409156
 20
15.66267796552116
 10
184.7555101538736
 20
15.65267212995107
 10
184.8014815562723
 20
15.65894105174059
 10
184.877722204771
 20
15.6559356140587
 10
184.9561296131993
 20
15.65770448278539
 10
185.0323992648932
 20
15.65464793981658
 10
185.0783009459474
 20
15.66103971376175
 10
185.12317339654
 20
15.65093822978894
 10
185.1105552275634
 20
15.70157201581897
 10
185.1191936582707
 20
15.75501261882069
 10
185.1152361595442
 20
15.8486325513168
 10
185.1162325068335
 20
15.95112606688925
 10
185.1171927413073
 20
16.05353270248165
 10
185.1133211458006
 20
16.14735929609324
 10
185.1217789814364
 20
16.20036542840356
 10
185.1093075932835
 20
16.25211435651192
 10
185.154210638985
 20
16.2385074722676
 10
185.1955083836772
 20
16.24100480320587
 10
185.2595344281051
 20
16.23648060574488
 10
185.2986111148785
 20
16.22781003043307
 10
185.3476543498743
 20
16.23515102070685
 10
185.322508003059
 20
16.19602896051756
 10
185.2815901333723
 20
16.20563842455809
 10
185.2910109616604
 20
16.15540148169779
 10
185.2855647318746
 20
16.1038594563949
 10
185.2881699601804
 20
16.0195970758452
 10
185.2870102202154
 20
15.92559135583408
 10
185.2883591064231
 20
15.83196865395524
 10
185.284997010151
 20
15.74679517552222
 10
185.2920959917768
 20
15.69716856072042
 10
185.2812569154546
 20
15.64993694969987
 10
185.3304010225245
 20
15.6620167493685
 10
185.3794877630147
 20
15.65447393363009
 10
185.4573714280641
 20
15.65686070361431
 10
185.5350365172895
 20
15.65899381905412
 10
185.5845393931355
 20
15.65193391922453
 10
185.6344594750638
 20
15.66360151936212
 10
185.6223198516881
 20
15.6154023537139
 10
185.6305838229144
 20
15.57249219801232
 10
185.6223198650783
 20
15.5295820185138
 10
185.6344594549854
 20
15.4813828875486
 10
185.5845395158746
 20
15.49305034471505
 10
185.5350350651202
 20
15.48599202435041
 10
185.4573784382973
 20
15.48811665228598
 10
185.379464386576
 20
15.49053389365755
 10
185.3304500352716
 20
15.4829184819448
 10
185.2813246108943
 20
15.49507952557587
 10
185.2915559988571
 20
15.45073013424154
 10
185.2856677678053
 20
15.40925436202908
 10
185.2878788305569
 20
15.34915394315302
 10
185.2874109346146
 20
15.30225782762889
 10
185.2874386992913
 20
15.27650146418196
 10
185.2874469028653
 20
15.2688916318772
 97
        1
330
B2
 75
     1
 76
     2
 52
45.0
 41
0.1
 77
     0
 78
     1
 53
45.0
 43
0.0
 44
0.0
 45
-0.282842712474619
 46
0.0
 79
     0
 98
        1
 10
0.0
 20
0.0
  0
HATCH
  5
D0
330
48
100
AcDbEntity
  8
1
  6
Continuous
 62
     2
100
AcDbHatch
 10
0.0
 20
0.0
 30
0.0
210
0.0
220
0.0
230
1.0
  2
CUSTOM10
 70
     0
 71
     1
 91
        1
 92
        1
 93
        1
 72
     4
 94
        3
 73
     0
 74
     0
 95
       47
 96
       43
 40
0.0
 40
0.0
 40
0.0
 40
0.0
 40
0.2207912809957301
 40
0.4459404186303237
 40
0.4902387190459467
 40
0.5327473892722467
 40
0.5742260451225746
 40
0.615543263056103
 40
0.6568164066315939
 40
0.6982511618780817
 40
0.7407663929317372
 40
0.7851366743175447
 40
1.010288833836352
 40
1.231080507002213
 40
1.451765243652435
 40
1.676638205891678
 40
1.720461045359649
 40
1.830018144043512
 40
1.972442372353145
 40
2.114866600677512
 40
2.224423699395137
 40
2.268246538883378
 40
2.493628801207247
 40
2.71560283028664
 40
2.9342113307064
 40
3.149502369855346
 40
3.231387784850987
 40
3.318231873854022
 40
3.405143198198011
 40
3.486970301720443
 40
3.70225817249384
 40
3.920866283534075
 40
4.142839325931857
 40
4.368221903865358
 40
4.412044743359838
 40
4.521601842095851
 40
4.664026070452332
 40
4.806450298809041
 40
4.916007397546736
 40
4.959830237043057
 40
5.184703515847048
 40
5.405387250767416
 40
5.405387250767416
 40
5.405387250767416
 40
5.405387250767416
 10
182.6507427258645
 20
15.7340644095387
 10
182.6568139420002
 20
15.79758482501208
 10
182.6690762107242
 20
15.92587938689626
 10
182.5604706879413
 20
16.20166220174077
 10
182.6761985896603
 20
16.17188133432053
 10
182.7171842509016
 20
16.16765556262813
 10
182.7591205797517
 20
16.16310446389608
 10
182.800419662571
 20
16.16201982929489
 10
182.8417032115555
 20
16.16310338195228
 10
182.8836148270647
 20
16.16766112711336
 10
182.9245983549019
 20
16.17187430209728
 10
183.0404922843489
 20
16.20177611317533
 10
182.9295652727456
 20
15.92339806609888
 10
182.9574856365267
 20
15.74283140824951
 10
182.940426734697
 20
15.50961042346471
 10
182.9414637282102
 20
15.34906622543147
 10
182.9414099399405
 20
15.22284817558725
 10
182.941427737248
 20
15.12428963336244
 10
182.9414188581081
 20
14.99280702442966
 10
182.9414263928033
 20
14.86132844968652
 10
182.9414129405129
 20
14.76276222694094
 10
182.9414531717492
 20
14.63639735624153
 10
182.9406746403817
 20
14.47482068822871
 10
182.9565958319267
 20
14.24361821892915
 10
182.9333468885407
 20
14.05874351972
 10
183.0360183444366
 20
13.78935602770066
 10
182.8820238362836
 20
13.82660112685812
 10
182.8004129802832
 20
13.82137994680533
 10
182.7188192292583
 20
13.82660620378346
 10
182.5648513666843
 20
13.78937069885397
 10
182.6674183421918
 20
14.05875129862878
 10
182.6442045316087
 20
14.24361585325415
 10
182.6600444655139
 20
14.47482218565639
 10
182.6593296313428
 20
14.63639712308505
 10
182.6593664569907
 20
14.76276231210523
 10
182.659354900027
 20
14.86132756635985
 10
182.6593575019214
 20
14.99281127417222
 10
182.6593648531779
 20
15.12427548031202
 10
182.6593442541351
 20
15.22287786275329
 10
182.6594082192028
 20
15.34896149354428
 10
182.658173394759
 20
15.51210091383772
 10
182.6532040396745
 20
15.66054183777548
 10
182.6507427258645
 20
15.7340644095387
 97
        1
330
B3
 75
     1
 76
     2
 52
45.0
 41
0.1
 77
     0
 78
     1
 53
45.0
 43
0.0
 44
0.0
 45
-0.282842712474619
 46
0.0
 79
     0
 98
        1
 10
0.0
 20
0.0
  0
HATCH
  5
D1
330
48
100
AcDbEntity
  8
1
  6
Continuous
 62
     2
100
AcDbHatch
 10
0.0
 20
0.0
 30
0.0
210
0.0
220
0.0
230
1.0
  2
CUSTOM11
 70
     0
 71
     1
 91
        1
 92
        1
 93
        1
 72
     4
 94
        3
 73
     0
 74
     0
 95
      110
 96
      106
 40
0.0
 40
0.0
 40
0.0
 40
0.0
 40
0.2203406257277578
 40
0.4407808782838091
 40
0.5952494494615073
 40
0.748843165939309
 40
0.9023581831309062
 40
1.056801968670404
 40
1.210736449099905
 40
1.363041386539782
 40
1.515315729683126
 40
1.669377239148077
 40
1.721611652756585
 40
1.773199502942987
 40
1.824933793209994
 40
1.877110426488018
 40
1.982682281206785
 40
2.078781667087595
 40
2.172809640822315
 40
2.271937807378968
 40
2.37834993337936
 40
2.494131557736547
 40
2.626681683943682
 40
2.78314505079611
 40
2.89070123294095
 40
2.993130312454889
 40
3.099869730691835
 40
3.220237816691321
 40
3.352695482737598
 40
3.481732806389911
 40
3.593499473690402
 40
3.674323013331947
 40
3.817951711952897
 40
3.946167120793896
 40
4.06140505345358
 40
4.166480796003222
 40
4.262478775059257
 40
4.350736673551215
 40
4.433071991254097
 40
4.511216293814697
 40
4.564262454117979
 40
4.618474415571569
 40
4.670128488754206
 40
4.722296879126413
 40
4.81954094531428
 40
4.931194984128139
 40
5.049996040257782
 40
5.168643755415327
 40
5.283970811762539
 40
5.392260784910365
 40
5.48651225487644
 40
5.559178233949839
 40
5.591425852853488
 40
5.626215969637883
 40
5.667155838674423
 40
5.717449290214266
 40
5.738402360944877
 40
5.78449911655384
 40
5.830595872164808
 40
5.851548942897662
 40
5.873019280661777
 40
5.924217778408319
 40
5.985325662817698
 40
6.036524160567715
 40
6.057994498334243
 40
6.236847789607494
 40
6.381409928945688
 40
6.493190424178699
 40
6.574067534230558
 40
6.691018086205652
 40
6.81488155422057
 40
6.944307823240522
 40
7.071266716066146
 40
7.193488604461991
 40
7.309042773128218
 40
7.414007203170843
 40
7.505140441886597
 40
7.531150360599737
 40
7.559221645322332
 40
7.58720221892098
 40
7.612569159499213
 40
7.662550809481054
 40
7.702878875764149
 40
7.857328205230962
 40
8.010799568088608
 40
8.165256399657558
 40
8.322232698713897
 40
8.479564855016584
 40
8.635216230290787
 40
8.790882550925705
 40
8.948305154947269
 40
9.168271839032942
 40
9.38735898098718
 40
9.608047961033408
 40
9.832914234792593
 40
9.858338694962928
 40
9.925366817229943
 40
10.02013071422753
 40
10.12876249858992
 40
10.23739428295244
 40
10.33215817995186
 40
10.3991863022239
 40
10.42461076239779
 40
10.64992019336937
 40
10.87188524531184
 40
10.87188524531184
 40
10.87188524531184
 40
10.87188524531184
 10
179.9057788376618
 20
15.7392326039819
 10
179.9092864933541
 20
15.80616462073803
 10
179.9163033987663
 20
15.94005891915858
 10
179.8198027599072
 20
16.22548554971469
 10
180.0510134726109
 20
16.16284386190284
 10
180.1919290057156
 20
16.17001554055984
 10
180.3490417757588
 20
16.16235883078246
 10
180.5025913427288
 20
16.16252752283044
 10
180.6545104935081
 20
16.16182040535433
 10
180.8142214813231
 20
16.17210158351632
 10
180.9408972601117
 20
16.15496511080751
 10
181.1370821122081
 20
16.22727260107146
 10
181.1034395279078
 20
16.12640699080114
 10
181.1052011317184
 20
16.07619253947668
 10
181.1027342073458
 20
16.02712335586463
 10
181.1347076966011
 20
15.94063490846994
 10
181.0010399903256
 20
15.98997438608339
 10
180.9172208688057
 20
15.98430634314171
 10
180.8173861139324
 20
15.99465516706298
 10
180.7186576720146
 20
16.00086450411087
 10
180.6121532771111
 20
16.00697763816776
 10
180.4910511698059
 20
16.01588883484579
 10
180.3703381502454
 20
16.00521605912386
 10
180.1812553843436
 20
16.06468503080364
 10
180.2129028505311
 20
15.90558320077537
 10
180.1995563316834
 20
15.80839128339902
 10
180.197495842645
 20
15.69634065110101
 10
180.1958188044671
 20
15.57699685629351
 10
180.1973336794233
 20
15.45032592155109
 10
180.195658247867
 20
15.32301588016115
 10
180.2058844271657
 20
15.2245156640446
 10
180.1779006596582
 20
15.08388702625626
 10
180.3508029999305
 20
15.13989551134088
 10
180.4645020202771
 20
15.12719951478504
 10
180.584015167224
 20
15.13448377051251
 10
180.6888491425071
 20
15.13878017056763
 10
180.7843084898612
 20
15.14330568258973
 10
180.8763823507032
 20
15.15149201146206
 10
180.9476551782438
 20
15.14643850638108
 10
181.0544931705685
 20
15.18536425031669
 10
181.0226603598036
 20
15.10517122005879
 10
181.026616450393
 20
15.05562936846034
 10
181.0234502392013
 20
15.00557478039819
 10
181.0550791490585
 20
14.92128847612021
 10
180.9210133677691
 20
14.9742536549515
 10
180.82923227932
 20
14.96540080890439
 10
180.7079729189603
 20
14.97570049965159
 10
180.5914113119771
 20
14.977489117675
 10
180.4783375745879
 20
14.97787017109695
 10
180.3679246308471
 20
14.98415449472182
 10
180.289812406784
 20
14.97189133255363
 10
180.1913625833644
 20
15.00453887616127
 10
180.2012355173561
 20
14.94769748054208
 10
180.1973923244402
 20
14.91392130557986
 10
180.1966789884268
 20
14.87119604709411
 10
180.1963369642975
 20
14.83401607262153
 10
180.1963834255345
 20
14.79487237370769
 10
180.1963649429927
 20
14.75716849497685
 10
180.1963703431807
 20
14.71944955232402
 10
180.19636972142
 20
14.6899432474515
 10
180.1963698151545
 20
14.65873577699301
 10
180.196370428792
 20
14.61414424908084
 10
180.1963671499336
 20
14.55963956508851
 10
180.1963759623481
 20
14.51505540201448
 10
180.1963359653417
 20
14.4311780858574
 10
180.1976024270255
 20
14.31737520677678
 10
180.1950274117842
 20
14.16830395933708
 10
180.2065009381719
 20
14.06597203813903
 10
180.1823506222263
 20
13.93338903885829
 10
180.3332993946477
 20
13.97895732272016
 10
180.4428436671555
 20
13.96427012162343
 10
180.573397047392
 20
13.9692043512506
 10
180.6990312209514
 20
13.97257705323359
 10
180.81887306256
 20
13.97711497498771
 10
180.9391362611427
 20
13.99048536182003
 10
181.0222761663515
 20
13.98068712782594
 10
181.1456080421074
 20
14.04126214623316
 10
181.1244269203957
 20
13.98532460134019
 10
181.1235950270116
 20
13.95939249372345
 10
181.1218963707558
 20
13.93197256190937
 10
181.1217974888829
 20
13.89738195206384
 10
181.120365930133
 20
13.86050408220768
 10
181.153280419219
 20
13.7684684102181
 10
180.9551306988107
 20
13.84132015974826
 10
180.830054829489
 20
13.81825726508604
 10
180.6673071295156
 20
13.82454021985783
 10
180.5129366450001
 20
13.82260943909924
 10
180.3566670436943
 20
13.82393762599265
 10
180.1970544465281
 20
13.82059872487861
 10
180.0540326342237
 20
13.83265795728235
 10
179.8197144881628
 20
13.76952001976926
 10
179.9173810751197
 20
14.05620527466318
 10
179.9006868780058
 20
14.2498830814266
 10
179.9146296709685
 20
14.47848242880292
 10
179.9142987846632
 20
14.63384593955044
 10
179.9143078119264
 20
14.73966336444122
 10
179.9143055876316
 20
14.80205784124211
 10
179.9143065551889
 20
14.89220425248324
 10
179.9143065473262
 20
14.99621167157436
 10
179.9143053861102
 20
15.10022131375294
 10
179.9143090971502
 20
15.19036243688767
 10
179.9143011051051
 20
15.25276803097215
 10
179.9143334275018
 20
15.35868835961119
 10
179.9131440788319
 20
15.51626716544738
 10
179.9082216489256
 20
15.66528219822065
 10
179.9057788376618
 20
15.7392326039819
 97
        1
330
B4
 75
     1
 76
     2
 52
45.0
 41
0.1
 77
     0
 78
     1
 53
45.0
 43
0.0
 44
0.0
 45
-0.282842712474619
 46
0.0
 79
     0
 98
        1
 10
0.0
 20
0.0
  0
HATCH
  5
D2
330
48
100
AcDbEntity
  8
1
  6
Continuous
 62
     2
100
AcDbHatch
 10
0.0
 20
0.0
 30
0.0
210
0.0
220
0.0
230
1.0
  2
CUSTOM12
 70
     0
 71
     1
 91
        1
 92
        1
 93
        1
 72
     4
 94
        3
 73
     0
 74
     0
 95
       95
 96
       91
 40
0.0
 40
0.0
 40
0.0
 40
0.0
 40
0.6550406656911703
 40
1.308087289031968
 40
1.420803739835847
 40
1.56613075977085
 40
1.757067341888527
 40
2.006513545026479
 40
2.087328263121567
 40
2.18532887229568
 40
2.294612454748422
 40
2.408936380534844
 40
2.526802767798595
 40
2.646360524615649
 40
2.762535723971618
 40
2.87005734287019
 40
2.966883448431718
 40
3.050803243518347
 40
3.115818222436642
 40
3.156030057150245
 40
3.213914225080142
 40
3.276689026450542
 40
3.342960320981319
 40
3.404230667150563
 40
3.453822809493337
 40
3.532499827188337
 40
3.634775188507117
 40
3.754909333008113
 40
3.889736761660623
 40
4.035769602175128
 40
4.187256681197582
 40
4.338733685675879
 40
4.488478734676078
 40
4.634708317831529
 40
4.771493189921197
 40
4.892686571561174
 40
5.199775528944396
 40
5.460353566929539
 40
5.667603142345453
 40
5.814722905404436
 40
5.828990806219735
 40
5.855488336304432
 40
5.869756237118763
 40
6.189796507762778
 40
6.531890469872957
 40
6.88305363701695
 40
7.230512024911408
 40
7.566966656764534
 40
7.88520355970732
 40
8.172887439719133
 40
8.41801159406269
 40
8.443926721190612
 40
8.510760470613098
 40
8.602145393795606
 40
8.701714041647044
 40
8.793098965075274
 40
8.859932715057845
 40
8.885847842603493
 40
9.242301256612699
 40
9.589275455016612
 40
9.921808543164065
 40
10.23479624298457
 40
10.29968150889168
 40
10.35323493887756
 40
10.4015462535514
 40
10.46482922477816
 40
10.55973900668394
 40
10.69239545985613
 40
10.84920353475663
 40
11.0162632859477
 40
11.18672024367432
 40
11.35372582577202
 40
11.50257442292418
 40
11.61866495023283
 40
11.71329869152868
 40
11.82511050573896
 40
11.94464880845707
 40
12.06929242642497
 40
12.1970729043517
 40
12.3256263286052
 40
12.45034565331272
 40
12.56646595170318
 40
12.67099007414627
 40
12.76077625936775
 40
12.82703233506689
 40
12.87429132785985
 40
12.89831990323324
 40
12.92234847860013
 40
13.53984767410314
 40
14.18294284359355
 40
14.18294284359355
 40
14.18294284359355
 40
14.18294284359355
 10
177.3067935648021
 20
14.7089803820172
 10
177.175201975855
 20
14.82265058603228
 10
176.9124193802729
 20
15.04964496316155
 10
176.399739344102
 20
15.89214462956289
 10
176.4106654595363
 20
15.53423377577019
 10
176.4041226527991
 20
15.39267392272131
 10
176.4028026631773
 20
15.1942130529928
 10
176.4018117602538
 20
15.02150296045984
 10
176.4024101751974
 20
14.87865373257581
 10
176.4038994301882
 20
14.78265005413357
 10
176.4055683588472
 20
14.67545503263141
 10
176.4071934954617
 20
14.56164211517582
 10
176.4092429501685
 20
14.44441572604589
 10
176.4123165501927
 20
14.3265641123297
 10
176.4156339697042
 20
14.2122808732062
 10
176.419360534028
 20
14.10521401867276
 10
176.4217338161424
 20
14.0100740876692
 10
176.4278718888358
 20
13.92558557205695
 10
176.4239784495946
 20
13.86923087298142
 10
176.4455230443077
 20
13.79825022472361
 10
176.3680940058618
 20
13.82902677604477
 10
176.3116353240191
 20
13.82011242517613
 10
176.2540495896806
 20
13.82896218398269
 10
176.1690163478473
 20
13.79738225225951
 10
176.2009714146382
 20
13.88095155992188
 10
176.1990705282539
 20
13.94882608968308
 10
176.2107960047299
 20
14.05233256764416
 10
176.2164241053
 20
14.17002125616694
 10
176.223790217894
 20
14.30388609164421
 10
176.2320759701611
 20
14.4476415287263
 10
176.2398851897426
 20
14.59714022843442
 10
176.2457571222657
 20
14.74792549402077
 10
176.2503667817969
 20
14.89699943878436
 10
176.2542632117542
 20
15.0412291316302
 10
176.2570715126564
 20
15.17583905213015
 10
176.2576698755022
 20
15.36469614347352
 10
176.261602386715
 20
15.58975494313151
 10
176.2442175378498
 20
15.86367091125704
 10
176.2850417342583
 20
16.02787112098591
 10
176.1995153256002
 20
16.22749661465096
 10
176.2660558907688
 20
16.22385458403976
 10
176.283872427323
 20
16.22413447160852
 10
176.4056801797504
 20
16.2263292739861
 10
176.5080770335462
 20
15.94675118721512
 10
176.7580021509356
 20
15.74563008536
 10
176.987003533111
 20
15.47792614987914
 10
177.2245151213108
 20
15.22646413862376
 10
177.4486090740772
 20
14.98969974061356
 10
177.6750716283009
 20
14.73218692583082
 10
177.8325687886514
 20
14.61649335056922
 10
178.0472129612673
 20
14.27997152538795
 10
178.0422645974619
 20
14.40464754091604
 10
178.0433931602546
 20
14.46327691935738
 10
178.0428877841517
 20
14.55043662371978
 10
178.0430475158113
 20
14.64416143182872
 10
178.0430054891318
 20
14.73018971297035
 10
178.0430202040372
 20
14.79153891945495
 10
178.0429706255982
 20
14.94135231520992
 10
178.0458811522811
 20
15.17989612510103
 10
178.0259521041162
 20
15.54486509868698
 10
178.0750433936248
 20
15.80799631993411
 10
177.917795150918
 20
16.2192890494775
 10
178.0762112872421
 20
16.16398282551749
 10
178.1311680478628
 20
16.16199686500179
 10
178.182788776674
 20
16.16264778248253
 10
178.2713198965366
 20
16.20369527738244
 10
178.2204898303168
 20
16.05696326622985
 10
178.2313389930283
 20
15.95019971954432
 10
178.2166036994847
 20
15.79085705414111
 10
178.2099976446204
 20
15.62853061652875
 10
178.2014961399914
 20
15.45992521892396
 10
178.1943227202199
 20
15.29814814703542
 10
178.1889063215389
 20
15.15422331457932
 10
178.1871713967648
 20
15.03437493466924
 10
178.1875440672318
 20
14.92686101590514
 10
178.1873656126263
 20
14.81820024645586
 10
178.187701086314
 20
14.69953570165531
 10
178.1890040622184
 20
14.5755516351274
 10
178.1908887351574
 20
14.44858294171104
 10
178.1925004454851
 20
14.3215386155103
 10
178.1941403137429
 20
14.19854884492177
 10
178.1962570745752
 20
14.08300931383758
 10
178.1963848422364
 20
13.98090903955837
 10
178.2006514396554
 20
13.89009848838155
 10
178.1908440085289
 20
13.83213621208784
 10
178.2118474771689
 20
13.76517130132028
 10
178.1725639739897
 20
13.77291153966686
 10
177.9595307117743
 20
13.75755254145193
 10
177.7636297943189
 20
14.3140305809447
 10
177.4611197631543
 20
14.57556035348507
 10
177.3067935648021
 20
14.7089803820172
 97
        1
330
B5
 75
     1
 76
     2
 52
45.0
 41
0.1
 77
     0
 78
     1
 53
45.0
 43
0.0
 44
0.0
 45
-0.282842712474619
 46
0.0
 79
     0
 98
        1
 10
0.0
 20
0.0
  0
HATCH
  5
D3
330
48
100
AcDbEntity
  8
1
  6
Continuous
 62
     2
100
AcDbHatch
 10
0.0
 20
0.0
 30
0.0
210
0.0
220
0.0
230
1.0
  2
CUSTOM13
 70
     0
 71
     1
 91
        2
 92
        1
 93
        1
 72
     4
 94
        3
 73
     0
 74
     0
 95
       57
 96
       53
 40
0.0
 40
0.0
 40
0.0
 40
0.0
 40
0.0471632082809162
 40
0.0914861054632082
 40
0.1357762519702318
 40
0.1826527001610613
 40
0.2295203288572522
 40
0.2737751972220691
 40
0.3181310461543003
 40
0.3652607198398371
 40
0.4571007286314022
 40
0.5671851029164766
 40
0.689462328386787
 40
0.8181758272545441
 40
0.9510087229273414
 40
1.08585222967404
 40
1.218126164475273
 40
1.343545131142359
 40
1.454537202956774
 40
1.567187607530784
 40
1.680710966642402
 40
1.794226869736766
 40
1.900009184247566
 40
2.004085860447845
 40
2.108162674451733
 40
2.214000150155277
 40
2.496038577352135
 40
2.76235074547928
 40
2.997275353279409
 40
3.185110082137696
 40
3.246407890063918
 40
3.312607550212649
 40
3.378877742711551
 40
3.4401403996514
 40
4.100501696006376
 40
4.754913085563394
 40
5.411331693423822
 40
6.07789043256861
 40
6.110575292670889
 40
6.143260152775669
 40
6.367989363395072
 40
6.610525374951415
 40
6.863389136467211
 40
7.119380025547533
 40
7.376036605091
 40
7.631164770966191
 40
7.876722425456314
 40
8.10495373585584
 40
8.312916685924204
 40
8.497730294941165
 40
8.651018984313746
 40
8.764738853624442
 40
8.764738853624442
 40
8.764738853624442
 40
8.764738853624442
 10
174.7922649500513
 20
13.81626739612931
 10
174.7766616726931
 20
13.81826231079079
 10
174.7463947960302
 20
13.82213201360295
 10
174.7010994202253
 20
13.82341984967267
 10
174.6559553129349
 20
13.82308683554048
 10
174.6099017123399
 20
13.82314658674222
 10
174.5640496172096
 20
13.82325813649999
 10
174.5183711648165
 20
13.82277833456589
 10
174.4750811541608
 20
13.82461109618716
 10
174.4039947951514
 20
13.80049556814666
 10
174.4057477261441
 20
13.92184693977251
 10
174.3586196370569
 20
14.00726239751235
 10
174.3191478251762
 20
14.12486929345135
 10
174.2706635532645
 20
14.24232752540438
 10
174.2201017402522
 20
14.3640593576151
 10
174.1718634610477
 20
14.49075967862468
 10
174.1135232947594
 20
14.59933687784953
 10
174.0980892667262
 20
14.75620657134415
 10
173.9566586330635
 20
14.72373446548319
 10
173.8508397414904
 20
14.73512888682181
 10
173.7358569725222
 20
14.73392591514614
 10
173.6253142252141
 20
14.73506945347407
 10
173.5176583522783
 20
14.73418350037525
 10
173.4121322529242
 20
14.7341660239052
 10
173.3109192682013
 20
14.72714032472413
 10
173.1266804827753
 20
14.75135859859875
 10
173.1157393685411
 20
14.44741691121884
 10
173.0087691634749
 20
14.22353177253398
 10
172.9098148604347
 20
14.03895314292494
 10
172.9225090524008
 20
13.79530204804218
 10
172.8050091716397
 20
13.82508046753192
 10
172.742205586831
 20
13.82258089509602
 10
172.6785872093399
 20
13.823440751028
 10
172.3946014194075
 20
13.78098039941981
 10
173.0251638499381
 20
14.50081952444772
 10
173.1087645289072
 20
15.01276539435729
 10
173.4929252789338
 20
15.53353743550037
 10
173.4777208288567
 20
16.23519626253216
 10
173.7239265722696
 20
16.22345633081254
 10
173.8256346157562
 20
16.23225004452772
 10
173.8249752035817
 20
15.98059650730345
 10
173.9428317155828
 20
15.79818020733959
 10
174.0315515260485
 20
15.55563740662865
 10
174.1322292485258
 20
15.32340030530124
 10
174.2311142712243
 20
15.08674644566911
 10
174.3299676990669
 20
14.85461739170092
 10
174.4256166390925
 20
14.63122222788787
 10
174.5159904573271
 20
14.42272549049316
 10
174.5989944568188
 20
14.23308448529319
 10
174.6726088582799
 20
14.06663106068101
 10
174.7342815895545
 20
13.92917699626098
 10
174.7749458885604
 20
13.84999239430036
 10
174.7922649500513
 20
13.81626739612931
 97
        1
330
B7
 92
       16
 93
        1
 72
     4
 94
        3
 73
     0
 74
     0
 95
       25
 96
       21
 40
0.0
 40
0.0
 40
0.0
 40
0.0
 40
0.0911479969064823
 40
0.1858117896204656
 40
0.280412839973448
 40
0.37158891907145
 40
0.4679080494218698
 40
0.5642683809229219
 40
0.6605683222644978
 40
0.7569653015810242
 40
0.8561348172522693
 40
1.092615965104276
 40
1.374867658141851
 40
1.611348812011566
 40
1.71051832842521
 40
1.809403163726526
 40
2.045205463294018
 40
2.326646917622067
 40
2.562449217190521
 40
2.661334043833835
 40
2.661334043833835
 40
2.661334043833835
 40
2.661334043833835
 10
173.2683700567199
 20
14.8861453819729
 10
173.2987525917922
 20
14.88598079714551
 10
173.3606895889112
 20
14.88564528689917
 10
173.4541356960329
 20
14.88269055452001
 10
173.5475095236358
 20
14.87977752877152
 10
173.6417760753476
 20
14.87894201643416
 10
173.7354964790967
 20
14.87996644658046
 10
173.8352040303204
 20
14.8791697747097
 10
173.9188949546313
 20
14.88921410235218
 10
174.0637996315045
 20
14.86234617674163
 10
173.9396132444801
 20
15.03665530280046
 10
173.8965867286282
 20
15.19651711006088
 10
173.780892214221
 20
15.45518458550211
 10
173.7017565431256
 20
15.59231052861853
 10
173.6431576621816
 20
15.80937033134071
 10
173.5864803939438
 20
15.59266134213423
 10
173.5052809900477
 20
15.45327012438231
 10
173.4063701281488
 20
15.20406969370192
 10
173.3253625094259
 20
15.0192583022607
 10
173.2813683325838
 20
14.91650446856114
 10
173.2683700567199
 20
14.8861453819729
 97
        1
330
B6
 75
     1
 76
     2
 52
45.0
 41
0.1
 77
     0
 78
     1
 53
45.0
 43
0.0
 44
0.0
 45
-0.282842712474619
 46
0.0
 79
     0
 98
        1
 10
0.0
 20
0.0
  0
HATCH
  5
D4
330
48
100
AcDbEntity
  8
1
  6
Continuous
 62
     2
100
AcDbHatch
 10
0.0
 20
0.0
 30
0.0
210
0.0
220
0.0
230
1.0
  2
CUSTOM14
 70
     0
 71
     1
 91
        1
 92
        1
 93
        1
 72
     4
 94
        3
 73
     0
 74
     0
 95
       99
 96
       95
 40
0.0
 40
0.0
 40
0.0
 40
0.0
 40
0.0796417172272102
 40
0.1621768542355718
 40
0.2486489160957381
 40
0.3404969668524209
 40
0.4381912511164383
 40
0.5434463660244685
 40
0.6518115192847026
 40
0.7530190937886562
 40
0.8492196919724936
 40
0.941929031299792
 40
1.034249663570012
 40
1.129078600620159
 40
1.22669702757324
 40
1.327220425421685
 40
1.470572134937983
 40
1.595489863371216
 40
1.719934125348395
 40
1.850576620127363
 40
1.989059629987282
 40
2.134139054226902
 40
2.280698007207185
 40
2.424529739039451
 40
2.565929576985818
 40
2.708239260773542
 40
2.861717887443604
 40
3.045168540347308
 40
3.183798301138568
 40
3.314813961455453
 40
3.442083470447306
 40
3.569912708372949
 40
3.702177512509349
 40
3.842307559659528
 40
3.992872223245924
 40
4.156750662218312
 40
4.310981861107533
 40
4.445859909322573
 40
4.57239393613157
 40
4.701656719781957
 40
4.768279086008458
 40
4.835960697898391
 40
4.912788918729334
 40
5.006285208481523
 40
5.026909478751599
 40
5.047533749021164
 40
5.101808031471209
 40
5.162325165538507
 40
5.226919745995823
 40
5.294231806596691
 40
5.364544852554829
 40
5.438319055467882
 40
5.517877651324214
 40
5.607647714861525
 40
5.70044964254437
 40
5.788251142364092
 40
5.872714706039739
 40
5.95516729257527
 40
6.037192395190352
 40
6.120669181469049
 40
6.206848616686293
 40
6.296680855416758
 40
6.442558392872609
 40
6.568190371608314
 40
6.692904567360366
 40
6.824220446557152
 40
6.963121850329383
 40
7.107843738851165
 40
7.253431663907272
 40
7.395187468036695
 40
7.533140753237773
 40
7.670550457175247
 40
7.816236511769253
 40
7.98769165735921
 40
8.142277421969252
 40
8.293662615414991
 40
8.44296246087926
 40
8.591598316185294
 40
8.743678992361811
 40
8.903725323699177
 40
9.076307008890524
 40
9.265578604680579
 40
9.459203795360756
 40
9.61761981027354
 40
9.753609671361895
 40
9.874873300004085
 40
9.95452018497778
 40
10.02416413719243
 40
10.09769764405443
 40
10.18909955924972
 40
10.20974586420133
 40
10.23039218263379
 40
10.30057101881266
 40
10.37632012987549
 40
10.37632012987549
 40
10.37632012987549
 40
10.37632012987549
 10
170.1465954835851
 20
14.1379566321599
 10
170.1632217851219
 20
14.11720608845311
 10
170.1970784206577
 20
14.07495111711901
 10
170.2599822541036
 20
14.02029811392072
 10
170.3332500940393
 20
13.97299025121049
 10
170.4175969238636
 20
13.9352723143794
 10
170.5132240615459
 20
13.91040619731946
 10
170.6171853775346
 20
13.90309559345934
 10
170.7224020220405
 20
13.91142322794053
 10
170.8206626371333
 20
13.94149179651525
 10
170.9058986427548
 20
13.98848822971877
 10
170.9779220206103
 20
14.04952991250856
 10
171.0350917709096
 20
14.12412969578581
 10
171.076786874744
 20
14.21002464660174
 10
171.1026952846292
 20
14.30485850432211
 10
171.1118037332653
 20
14.41854979038367
 10
171.0986864796487
 20
14.54332587770778
 10
171.0325330334414
 20
14.66014719171893
 10
170.9369370919569
 20
14.74512539577377
 10
170.8249681022368
 20
14.8141668445915
 10
170.6993659583269
 20
14.87204142045892
 10
170.5656691620856
 20
14.9237372328434
 10
170.4313122818831
 20
14.9789909239718
 10
170.3051983986877
 20
15.04939770641647
 10
170.1926579987535
 20
15.13785540731248
 10
170.0969963064458
 20
15.24981067868473
 10
170.0334157151826
 20
15.3994991010138
 10
170.0200706505015
 20
15.55932794385138
 10
170.0320510987448
 20
15.71048405306842
 10
170.071229892884
 20
15.83809244591539
 10
170.135498775091
 20
15.95080874030846
 10
170.223820499974
 20
16.04648609268686
 10
170.3338091207627
 20
16.12354214985751
 10
170.4632284401265
 20
16.18151396936283
 10
170.6111838967793
 20
16.2173917758882
 10
170.7682069455486
 20
16.22746719050561
 10
170.917494046643
 20
16.2186363776259
 10
171.059625361417
 20
16.19074899340355
 10
171.1595922609624
 20
16.13413314701138
 10
171.3125074736185
 20
16.08674602105509
 10
171.2455131717168
 20
16.00197553001187
 10
171.2296479120269
 20
15.93438901873487
 10
171.1978750531296
 20
15.86926092793192
 10
171.215020220957
 20
15.76723453256956
 10
171.1666427208232
 20
15.77493211681904
 10
171.1315789440766
 20
15.7680677172481
 10
171.1296697985717
 20
15.83263831158196
 10
171.0985692931989
 20
15.87825639621396
 10
171.0664551628456
 20
15.93561036628455
 10
171.0208038475168
 20
15.98540462692559
 10
170.9658508218386
 20
16.02994813718993
 10
170.9010841173008
 20
16.06763988836551
 10
170.8232377310597
 20
16.09283375791351
 10
170.7355160553351
 20
16.09931230998108
 10
170.6452903277807
 20
16.09235709285608
 10
170.5594594694064
 20
16.06909190460927
 10
170.4828343638596
 20
16.03131644107545
 10
170.4165265636202
 20
15.98051641089572
 10
170.3622560536964
 20
15.9173114340721
 10
170.3224925345459
 20
15.8427645571037
 10
170.2976775510587
 20
15.75917313997764
 10
170.289212426287
 20
15.65192948382284
 10
170.3019697987103
 20
15.52965457267555
 10
170.3681548409273
 20
15.41149724291205
 10
170.4640977399833
 20
15.32606325709526
 10
170.5757914963182
 20
15.25583362306718
 10
170.7010863668702
 20
15.19659162305301
 10
170.8349823941447
 20
15.1461670808613
 10
170.968993033315
 20
15.09322516984382
 10
171.0950885316915
 20
15.02750170625175
 10
171.2076216638417
 20
14.94480352537317
 10
171.3031370284233
 20
14.83996006310072
 10
171.3672706486962
 20
14.69937117251569
 10
171.3811103725279
 20
14.54065409451592
 10
171.3673954712229
 20
14.38153155217875
 10
171.3244739153984
 20
14.23483828819212
 10
171.2545906329065
 20
14.10119796587142
 10
171.1574592213829
 20
13.98532387699295
 10
171.0347806023658
 20
13.89089981770081
 10
170.8874408413167
 20
13.82179270651982
 10
170.7177132497125
 20
13.77953210858854
 10
170.5317404979597
 20
13.76781736230405
 10
170.3528955926183
 20
13.77809486683437
 10
170.1881733753744
 20
13.81966573769154
 10
170.0834410841056
 20
13.88797642883939
 10
169.9350960790365
 20
13.93675219032108
 10
169.9980378194729
 20
14.02976591290842
 10
170.0072274430059
 20
14.1029653624828
 10
170.0303711301232
 20
14.16936294501346
 10
170.0034588335316
 20
14.26974809527581
 10
170.0521338956339
 20
14.26234033517379
 10
170.0916530580697
 20
14.26894063620895
 10
170.0996204944701
 20
14.1907870321893
 10
170.1305436967922
 20
14.15600927375853
 10
170.1465954835851
 20
14.1379566321599
 97
        1
330
B8
 75
     1
 76
     2
 52
45.0
 41
0.1
 77
     0
 78
     1
 53
45.0
 43
0.0
 44
0.0
 45
-0.282842712474619
 46
0.0
 79
     0
 98
        1
 10
0.0
 20
0.0
  0
ENDBLK
  5
4A
330
48
100
AcDbEntity
  8
0
100
AcDbBlockEnd
  0
BLOCK
  5
4D
330
4B
100
AcDbEntity
  8
0
100
AcDbBlockBegin
  2
開示A4枠
 70
     0
 10
0.0
 20
0.0
 30
0.0
  3
開示A4枠
  1

  0
INSERT
  5
4C
330
4B
100
AcDbEntity
  8
1
100
AcDbBlockReference
  2
開示A4
 10
0.0
 20
0.0
 30
0.0
  0
ENDBLK
  5
4E
330
4B
100
AcDbEntity
  8
0
100
AcDbBlockEnd
  0
BLOCK
  5
50
330
4F
100
AcDbEntity
  8
0
100
AcDbBlockBegin
  2
pin
 70
     0
 10
107.6
 20
98.69682555545413
 30
0.0
  3
pin
  1

  0
LINE
  5
D5
330
4F
100
AcDbEntity
  8
1
  6
Continuous
 62
     7
100
AcDbLine
 10
109.6
 20
98.69682555545413
 30
0.0
 11
109.6
 21
99.69682555545413
 31
0.0
  0
LINE
  5
D6
330
4F
100
AcDbEntity
  8
1
  6
Continuous
 62
     7
100
AcDbLine
 10
115.4
 20
98.69682555545413
 30
0.0
 11
115.4
 21
99.69682555545413
 31
0.0
  0
LINE
  5
D7
330
4F
100
AcDbEntity
  8
1
  6
Continuous
 62
     7
100
AcDbLine
 10
109.6
 20
98.69682555545413
 30
0.0
 11
111.3
 21
98.69682555545413
 31
0.0
  0
LINE
  5
D8
330
4F
100
AcDbEntity
  8
1
  6
Continuous
 62
     7
100
AcDbLine
 10
111.3
 20
98.69682555545413
 30
0.0
 11
115.4
 21
98.69682555545413
 31
0.0
  0
CIRCLE
  5
D9
330
4F
100
AcDbEntity
  8
1
  6
Continuous
 62
     7
100
AcDbCircle
 10
112.5
 20
193.7191099899446
 30
0.0
 40
4.900000000000006
  0
ENDBLK
  5
51
330
4F
100
AcDbEntity
  8
0
100
AcDbBlockEnd
  0
BLOCK
  5
53
330
52
100
AcDbEntity
  8
0
100
AcDbBlockBegin
  2
sara
 70
     0
 10
73.75000000000001
 20
99.69682555545413
 30
0.0
  3
sara
  1

  0
LINE
  5
DA
330
52
100
AcDbEntity
  8
1
  6
Continuous
 62
     2
100
AcDbLine
 10
144.3412647406621
 20
111.1968255554541
 30
0.0
 11
145.3650589626485
 21
111.1968255554541
 31
0.0
  0
LINE
  5
DB
330
52
100
AcDbEntity
  8
1
  6
Continuous
 62
     2
100
AcDbLine
 10
143.9681947930898
 20
110.2434245783249
 30
0.0
 11
144.3412647406621
 21
111.1968255554541
 31
0.0
  0
LINE
  5
DC
330
52
100
AcDbEntity
  8
1
  6
Continuous
 62
     7
100
AcDbLine
 10
145.3650589626485
 20
111.6968255554541
 30
0.0
 11
151.25
 21
111.6968255554541
 31
0.0
  0
LINE
  5
DD
330
52
100
AcDbEntity
  8
1
  6
Continuous
 62
     7
100
AcDbLine
 10
143.9681947930898
 20
110.2434245783249
 30
0.0
 11
141.2091878817606
 21
103.1926291382613
 31
0.0
  0
LINE
  5
DE
330
52
100
AcDbEntity
  8
1
  6
Continuous
 62
     7
100
AcDbLine
 10
145.3650589626485
 20
111.1968255554541
 30
0.0
 11
151.25
 21
111.1968255554541
 31
0.0
  0
LINE
  5
DF
330
52
100
AcDbEntity
  8
1
  6
Continuous
 62
     7
100
AcDbLine
 10
151.25
 20
111.6968255554541
 30
0.0
 11
151.25
 21
111.1968255554541
 31
0.0
  0
LINE
  5
E0
330
52
100
AcDbEntity
  8
1
  6
Continuous
 62
     7
100
AcDbLine
 10
136.0873525933789
 20
99.69682555545413
 30
0.0
 11
88.91264740662109
 21
99.69682555545413
 31
0.0
  0
LINE
  5
E1
330
52
100
AcDbEntity
  8
1
  6
Continuous
 62
     7
100
AcDbLine
 10
145.3650589626485
 20
111.6968255554541
 30
0.0
 11
112.5
 21
111.6968255554541
 31
0.0
  0
LINE
  5
E2
330
52
100
AcDbEntity
  8
1
  6
Continuous
 62
     7
100
AcDbLine
 10
73.75000000000001
 20
111.6968255554541
 30
0.0
 11
79.63494103735158
 21
111.6968255554541
 31
0.0
  0
LINE
  5
E3
330
52
100
AcDbEntity
  8
1
  6
Continuous
 62
     7
100
AcDbLine
 10
83.79081211823944
 20
103.1926291382613
 30
0.0
 11
81.03180520691022
 21
110.2434245783249
 31
0.0
  0
LINE
  5
E4
330
52
100
AcDbEntity
  8
1
  6
Continuous
 62
     7
100
AcDbLine
 10
73.75000000000001
 20
111.1968255554541
 30
0.0
 11
145.3650589626485
 21
111.1968255554541
 31
0.0
  0
LINE
  5
E5
330
52
100
AcDbEntity
  8
1
  6
Continuous
 62
     7
100
AcDbLine
 10
73.75000000000001
 20
111.1968255554541
 30
0.0
 11
73.75000000000001
 21
111.6968255554541
 31
0.0
  0
LINE
  5
E6
330
52
100
AcDbEntity
  8
1
  6
Continuous
 62
     7
100
AcDbLine
 10
112.5
 20
111.6968255554541
 30
0.0
 11
79.63494103735158
 21
111.6968255554541
 31
0.0
  0
LINE
  5
E7
330
52
100
AcDbEntity
  8
1
  6
Continuous
 62
     2
100
AcDbLine
 10
136.0873525933789
 20
99.69682555545413
 30
0.0
 11
139.8412647406621
 21
99.69682555545413
 31
0.0
  0
LINE
  5
E8
330
52
100
AcDbEntity
  8
1
  6
Continuous
 62
     2
100
AcDbLine
 10
139.8412647406621
 20
99.69682555545413
 30
0.0
 11
141.2091878817606
 21
103.1926291382613
 31
0.0
  0
LINE
  5
E9
330
52
100
AcDbEntity
  8
1
  6
Continuous
 62
     2
100
AcDbLine
 10
83.79081211823944
 20
103.1926291382613
 30
0.0
 11
85.1587352593379
 21
99.69682555545413
 31
0.0
  0
LINE
  5
EA
330
52
100
AcDbEntity
  8
1
  6
Continuous
 62
     2
100
AcDbLine
 10
85.1587352593379
 20
99.69682555545413
 30
0.0
 11
88.91264740662109
 21
99.69682555545413
 31
0.0
  0
LINE
  5
EB
330
52
100
AcDbEntity
  8
1
  6
Continuous
 62
     2
100
AcDbLine
 10
79.63494103735158
 20
111.1968255554541
 30
0.0
 11
80.6587352593379
 21
111.1968255554541
 31
0.0
  0
LINE
  5
EC
330
52
100
AcDbEntity
  8
1
  6
Continuous
 62
     2
100
AcDbLine
 10
80.6587352593379
 20
111.1968255554541
 30
0.0
 11
81.03180520691022
 21
110.2434245783249
 31
0.0
  0
LINE
  5
ED
330
52
100
AcDbEntity
  8
1
  6
Continuous
 62
     7
100
AcDbLine
 10
123.5454545454546
 20
195.2050982661517
 30
0.0
 11
134.3409090909091
 21
196.6910865423587
 31
0.0
  0
LINE
  5
EE
330
52
100
AcDbEntity
  8
1
  6
Continuous
 62
     7
100
AcDbLine
 10
123.5454545454546
 20
192.2331217137376
 30
0.0
 11
134.3409090909091
 21
190.7471334375305
 31
0.0
  0
LINE
  5
EF
330
52
100
AcDbEntity
  8
1
  6
Continuous
 62
     7
100
AcDbLine
 10
121.3226500946064
 20
200.528740859593
 30
0.0
 11
129.9287938382667
 21
207.2133717292415
 31
0.0
  0
LINE
  5
F0
330
52
100
AcDbEntity
  8
1
  6
Continuous
 62
     7
100
AcDbLine
 10
122.8086383708135
 20
197.9549336657507
 30
0.0
 11
132.9007703906808
 21
202.0657573415569
 31
0.0
  0
LINE
  5
F1
330
52
100
AcDbEntity
  8
1
  6
Continuous
 62
     7
100
AcDbLine
 10
116.7358236758062
 20
204.0277483607581
 30
0.0
 11
120.8466473516123
 21
214.1198803806254
 31
0.0
  0
LINE
  5
F2
330
52
100
AcDbEntity
  8
1
  6
Continuous
 62
     7
100
AcDbLine
 10
119.3096308696485
 20
202.541760084551
 30
0.0
 11
125.9942617392969
 21
211.1479038282113
 31
0.0
  0
LINE
  5
F3
330
52
100
AcDbEntity
  8
1
  6
Continuous
 62
     7
100
AcDbLine
 10
113.9859882762071
 20
204.7645645353992
 30
0.0
 11
115.4719765524141
 21
215.5600190808537
 31
0.0
  0
LINE
  5
F4
330
52
100
AcDbEntity
  8
1
  6
Continuous
 62
     7
100
AcDbLine
 10
111.014011723793
 20
204.7645645353992
 30
0.0
 11
109.5280234475859
 21
215.5600190808537
 31
0.0
  0
LINE
  5
F5
330
52
100
AcDbEntity
  8
1
  6
Continuous
 62
     7
100
AcDbLine
 10
108.2641763241939
 20
204.0277483607581
 30
0.0
 11
104.1533526483878
 21
214.1198803806254
 31
0.0
  0
LINE
  5
F6
330
52
100
AcDbEntity
  8
1
  6
Continuous
 62
     7
100
AcDbLine
 10
105.6903691303516
 20
202.541760084551
 30
0.0
 11
99.0057382607032
 21
211.1479038282113
 31
0.0
  0
LINE
  5
F7
330
52
100
AcDbEntity
  8
1
  6
Continuous
 62
     7
100
AcDbLine
 10
103.6773499053936
 20
200.5287408595931
 30
0.0
 11
95.07120616173331
 21
207.2133717292415
 31
0.0
  0
LINE
  5
F8
330
52
100
AcDbEntity
  8
1
  6
Continuous
 62
     7
100
AcDbLine
 10
102.1913616291866
 20
197.9549336657507
 30
0.0
 11
92.09922960931921
 21
202.0657573415569
 31
0.0
  0
LINE
  5
F9
330
52
100
AcDbEntity
  8
1
  6
Continuous
 62
     7
100
AcDbLine
 10
101.4545454545455
 20
195.2050982661517
 30
0.0
 11
90.65909090909093
 21
196.6910865423587
 31
0.0
  0
LINE
  5
FA
330
52
100
AcDbEntity
  8
1
  6
Continuous
 62
     7
100
AcDbLine
 10
101.4545454545455
 20
192.2331217137376
 30
0.0
 11
90.65909090909092
 21
190.7471334375305
 31
0.0
  0
LINE
  5
FB
330
52
100
AcDbEntity
  8
1
  6
Continuous
 62
     7
100
AcDbLine
 10
102.1913616291866
 20
189.4832863141385
 30
0.0
 11
92.09922960931921
 21
185.3724626383324
 31
0.0
  0
LINE
  5
FC
330
52
100
AcDbEntity
  8
1
  6
Continuous
 62
     7
100
AcDbLine
 10
103.6773499053936
 20
186.9094791202962
 30
0.0
 11
95.0712061617333
 21
180.2248482506478
 31
0.0
  0
LINE
  5
FD
330
52
100
AcDbEntity
  8
1
  6
Continuous
 62
     7
100
AcDbLine
 10
108.2641763241939
 20
183.4104716191312
 30
0.0
 11
104.1533526483878
 21
173.3183395992638
 31
0.0
  0
LINE
  5
FE
330
52
100
AcDbEntity
  8
1
  6
Continuous
 62
     7
100
AcDbLine
 10
105.6903691303516
 20
184.8964598953382
 30
0.0
 11
99.0057382607032
 21
176.2903161516779
 31
0.0
  0
LINE
  5
FF
330
52
100
AcDbEntity
  8
1
  6
Continuous
 62
     7
100
AcDbLine
 10
111.0140117237929
 20
182.6736554444901
 30
0.0
 11
109.5280234475859
 21
171.8782008990355
 31
0.0
  0
LINE
  5
100
330
52
100
AcDbEntity
  8
1
  6
Continuous
 62
     7
100
AcDbLine
 10
113.9859882762071
 20
182.6736554444901
 30
0.0
 11
115.4719765524141
 21
171.8782008990355
 31
0.0
  0
LINE
  5
101
330
52
100
AcDbEntity
  8
1
  6
Continuous
 62
     7
100
AcDbLine
 10
116.7358236758061
 20
183.4104716191312
 30
0.0
 11
120.8466473516122
 21
173.3183395992638
 31
0.0
  0
LINE
  5
102
330
52
100
AcDbEntity
  8
1
  6
Continuous
 62
     7
100
AcDbLine
 10
119.3096308696484
 20
184.8964598953382
 30
0.0
 11
125.9942617392968
 21
176.2903161516779
 31
0.0
  0
LINE
  5
103
330
52
100
AcDbEntity
  8
1
  6
Continuous
 62
     7
100
AcDbLine
 10
121.3226500946064
 20
186.9094791202962
 30
0.0
 11
129.9287938382667
 21
180.2248482506478
 31
0.0
  0
LINE
  5
104
330
52
100
AcDbEntity
  8
1
  6
Continuous
 62
     7
100
AcDbLine
 10
122.8086383708135
 20
189.4832863141385
 30
0.0
 11
132.9007703906808
 21
185.3724626383324
 31
0.0
  0
ARC
  5
105
330
52
100
AcDbEntity
  8
1
  6
Continuous
 62
     7
100
AcDbCircle
 10
145.3650589626485
 20
109.6968255554541
 30
0.0
 40
1.5
100
AcDbArc
 50
90.0
 51
158.6293777306566
  0
ARC
  5
106
330
52
100
AcDbEntity
  8
1
  6
Continuous
 62
     7
100
AcDbCircle
 10
136.0873525933789
 20
105.1968255554541
 30
0.0
 40
5.499999999999972
100
AcDbArc
 50
270.0
 51
338.6293777306572
  0
ARC
  5
107
330
52
100
AcDbEntity
  8
1
  6
Continuous
 62
     7
100
AcDbCircle
 10
79.63494103735158
 20
109.6968255554541
 30
0.0
 40
1.500000000000024
100
AcDbArc
 50
21.37062226934446
 51
90.0
  0
ARC
  5
108
330
52
100
AcDbEntity
  8
1
  6
Continuous
 62
     7
100
AcDbCircle
 10
88.91264740662109
 20
105.1968255554541
 30
0.0
 40
5.499999999999996
100
AcDbArc
 50
201.370622269343
 51
270.0
  0
ARC
  5
109
330
52
100
AcDbEntity
  8
1
  6
Continuous
 62
     7
100
AcDbCircle
 10
134.75
 20
193.7191099899446
 30
0.0
 40
3.000000000000009
100
AcDbArc
 50
262.1625202369158
 51
97.83747976308422
  0
ARC
  5
10A
330
52
100
AcDbEntity
  8
1
  6
Continuous
 62
     7
100
AcDbCircle
 10
123.75
 20
193.7191099899446
 30
0.0
 40
1.500000000000053
100
AcDbArc
 50
97.83747976308176
 51
262.1625202369177
  0
ARC
  5
10B
330
52
100
AcDbEntity
  8
1
  6
Continuous
 62
     7
100
AcDbCircle
 10
131.7690652342038
 20
204.8441099899446
 30
0.0
 40
2.999999999999943
100
AcDbArc
 50
292.1625202369153
 51
127.8374797630846
  0
ARC
  5
10C
330
52
100
AcDbEntity
  8
1
  6
Continuous
 62
     7
100
AcDbCircle
 10
122.242785792575
 20
199.3441099899446
 30
0.0
 40
1.500000000000033
100
AcDbArc
 50
127.8374797630873
 51
292.1625202369142
  0
ARC
  5
10D
330
52
100
AcDbEntity
  8
1
  6
Continuous
 62
     7
100
AcDbCircle
 10
123.625
 20
212.9881752241484
 30
0.0
 40
3.000000000000074
100
AcDbArc
 50
322.1625202369157
 51
157.8374797630846
  0
ARC
  5
10E
330
52
100
AcDbEntity
  8
1
  6
Continuous
 62
     7
100
AcDbCircle
 10
118.125
 20
203.4618957825196
 30
0.0
 40
1.499999999999913
100
AcDbArc
 50
157.8374797630843
 51
322.1625202369146
  0
ARC
  5
10F
330
52
100
AcDbEntity
  8
1
  6
Continuous
 62
     7
100
AcDbCircle
 10
112.5
 20
204.9691099899446
 30
0.0
 40
1.499999999999942
100
AcDbArc
 50
187.8374797630829
 51
352.1625202369176
  0
ARC
  5
110
330
52
100
AcDbEntity
  8
1
  6
Continuous
 62
     7
100
AcDbCircle
 10
112.5
 20
215.9691099899446
 30
0.0
 40
3.000000000000009
100
AcDbArc
 50
352.1625202369158
 51
187.8374797630842
  0
ARC
  5
111
330
52
100
AcDbEntity
  8
1
  6
Continuous
 62
     7
100
AcDbCircle
 10
101.375
 20
212.9881752241484
 30
0.0
 40
3.000000000000022
100
AcDbArc
 50
22.16252023691474
 51
217.8374797630855
  0
ARC
  5
112
330
52
100
AcDbEntity
  8
1
  6
Continuous
 62
     7
100
AcDbCircle
 10
106.875
 20
203.4618957825196
 30
0.0
 40
1.500000000000042
100
AcDbArc
 50
217.8374797630877
 51
22.16252023691423
  0
ARC
  5
113
330
52
100
AcDbEntity
  8
1
  6
Continuous
 62
     7
100
AcDbCircle
 10
102.7572142074251
 20
199.3441099899446
 30
0.0
 40
1.500000000000006
100
AcDbArc
 50
247.8374797630858
 51
52.16252023691843
  0
ARC
  5
114
330
52
100
AcDbEntity
  8
1
  6
Continuous
 62
     7
100
AcDbCircle
 10
93.23093476579625
 20
204.8441099899446
 30
0.0
 40
3.000000000000046
100
AcDbArc
 50
52.1625202369159
 51
247.8374797630842
  0
ARC
  5
115
330
52
100
AcDbEntity
  8
1
  6
Continuous
 62
     7
100
AcDbCircle
 10
101.25
 20
193.7191099899446
 30
0.0
 40
1.499999999999954
100
AcDbArc
 50
277.8374797630861
 51
82.16252023691447
  0
ARC
  5
116
330
52
100
AcDbEntity
  8
1
  6
Continuous
 62
     7
100
AcDbCircle
 10
90.25000000000003
 20
193.7191099899446
 30
0.0
 40
3.000000000000009
100
AcDbArc
 50
82.16252023691578
 51
277.8374797630839
  0
ARC
  5
117
330
52
100
AcDbEntity
  8
1
  6
Continuous
 62
     7
100
AcDbCircle
 10
102.7572142074251
 20
188.0941099899447
 30
0.0
 40
1.500000000000062
100
AcDbArc
 50
307.8374797630816
 51
112.1625202369159
  0
ARC
  5
118
330
52
100
AcDbEntity
  8
1
  6
Continuous
 62
     7
100
AcDbCircle
 10
93.23093476579625
 20
182.5941099899446
 30
0.0
 40
3.000000000000032
100
AcDbArc
 50
112.1625202369153
 51
307.8374797630849
  0
ARC
  5
119
330
52
100
AcDbEntity
  8
1
  6
Continuous
 62
     7
100
AcDbCircle
 10
106.875
 20
183.9763241973697
 30
0.0
 40
1.500000000000016
100
AcDbArc
 50
337.8374797630848
 51
142.1625202369158
  0
ARC
  5
11A
330
52
100
AcDbEntity
  8
1
  6
Continuous
 62
     7
100
AcDbCircle
 10
101.375
 20
174.4500447557409
 30
0.0
 40
2.999999999999944
100
AcDbArc
 50
142.1625202369158
 51
337.8374797630838
  0
ARC
  5
11B
330
52
100
AcDbEntity
  8
1
  6
Continuous
 62
     7
100
AcDbCircle
 10
112.5
 20
182.4691099899447
 30
0.0
 40
1.500000000000037
100
AcDbArc
 50
7.8374797630813
 51
172.1625202369187
  0
ARC
  5
11C
330
52
100
AcDbEntity
  8
1
  6
Continuous
 62
     7
100
AcDbCircle
 10
112.5
 20
171.4691099899446
 30
0.0
 40
3.000000000000009
100
AcDbArc
 50
172.1625202369158
 51
7.83747976308421
  0
ARC
  5
11D
330
52
100
AcDbEntity
  8
1
  6
Continuous
 62
     7
100
AcDbCircle
 10
118.125
 20
183.9763241973697
 30
0.0
 40
1.499999999999972
100
AcDbArc
 50
37.83747976308425
 51
202.1625202369152
  0
ARC
  5
11E
330
52
100
AcDbEntity
  8
1
  6
Continuous
 62
     7
100
AcDbCircle
 10
123.625
 20
174.4500447557409
 30
0.0
 40
3.000000000000054
100
AcDbArc
 50
202.1625202369162
 51
37.83747976308425
  0
ARC
  5
11F
330
52
100
AcDbEntity
  8
1
  6
Continuous
 62
     7
100
AcDbCircle
 10
122.2427857925749
 20
188.0941099899446
 30
0.0
 40
1.500000000000043
100
AcDbArc
 50
67.83747976308226
 51
232.1625202369158
  0
ARC
  5
120
330
52
100
AcDbEntity
  8
1
  6
Continuous
 62
     7
100
AcDbCircle
 10
131.7690652342037
 20
182.5941099899446
 30
0.0
 40
2.999999999999944
100
AcDbArc
 50
232.1625202369158
 51
67.83747976308375
  0
CIRCLE
  5
121
330
52
100
AcDbEntity
  8
1
  6
Continuous
 62
     7
100
AcDbCircle
 10
112.5
 20
193.7191099899446
 30
0.0
 40
38.75
  0
CIRCLE
  5
122
330
52
100
AcDbEntity
  8
1
  6
Continuous
 62
     7
100
AcDbCircle
 10
112.5
 20
193.7191099899446
 30
0.0
 40
27.0
  0
CIRCLE
  5
123
330
52
100
AcDbEntity
  8
1
  6
Continuous
 62
     7
100
AcDbCircle
 10
112.5
 20
193.7191099899446
 30
0.0
 40
31.5
  0
ENDBLK
  5
54
330
52
100
AcDbEntity
  8
0
100
AcDbBlockEnd
  0
BLOCK
  5
13B
330
134
100
AcDbEntity
  8
0
100
AcDbBlockBegin
  2
*D5
 70
     1
 10
0.0
 20
0.0
 30
0.0
  3
*D5
  1

  0
LINE
  5
135
330
134
100
AcDbEntity
  8
1
  6
Continuous
 62
     2
100
AcDbLine
 10
80.6587352593379
 20
81.69682555545413
 30
0.0
 11
144.3412647406621
 21
81.69682555545413
 31
0.0
  0
LINE
  5
136
330
134
100
AcDbEntity
  8
1
  6
Continuous
 62
     2
100
AcDbLine
 10
144.3412647406621
 20
111.1968255554541
 30
0.0
 11
144.3412647406621
 21
80.69682555545413
 31
0.0
  0
LINE
  5
137
330
134
100
AcDbEntity
  8
1
  6
Continuous
 62
     2
100
AcDbLine
 10
80.6587352593379
 20
111.1968255554541
 30
0.0
 11
80.6587352593379
 21
80.69682555545413
 31
0.0
  0
SOLID
  5
138
330
134
100
AcDbEntity
  8
1
 62
     2
100
AcDbTrace
 10
84.1587352593379
 20
82.15760929701001
 30
0.0
 11
84.1587352593379
 21
81.23604181389824
 31
0.0
 12
80.6587352593379
 22
81.69682555545413
 32
0.0
 13
80.6587352593379
 23
81.69682555545413
 33
0.0
  0
SOLID
  5
139
330
134
100
AcDbEntity
  8
1
 62
     2
100
AcDbTrace
 10
140.8412647406621
 20
81.23604181389824
 30
0.0
 11
140.8412647406621
 21
82.15760929701001
 31
0.0
 12
144.3412647406621
 22
81.69682555545413
 32
0.0
 13
144.3412647406621
 23
81.69682555545413
 33
0.0
  0
MTEXT
  5
13A
330
134
100
AcDbEntity
  8
1
 62
     7
100
AcDbMText
 10
109.4144998402639
 20
82.6968185983778
 30
0.0
 40
3.5
 41
0.0
 71
     7
 72
     1
  1
\C7;{\Fgdt;n}\C7;64
  7
CONVERTER_12
 11
0.9999999999970619
 21
2.424068405545306E-6
 31
0.0
 73
     1
 44
0.60024009603842
  0
ENDBLK
  5
13C
330
134
100
AcDbEntity
  8
0
100
AcDbBlockEnd
  0
BLOCK
  5
146
330
13F
100
AcDbEntity
  8
0
100
AcDbBlockBegin
  2
*D6
 70
     1
 10
0.0
 20
0.0
 30
0.0
  3
*D6
  1

  0
LINE
  5
140
330
13F
100
AcDbEntity
  8
1
  6
Continuous
 62
     2
100
AcDbLine
 10
73.75
 20
122.6968255554541
 30
0.0
 11
151.25
 21
122.6968255554541
 31
0.0
  0
LINE
  5
141
330
13F
100
AcDbEntity
  8
1
  6
Continuous
 62
     2
100
AcDbLine
 10
151.25
 20
111.6968255554541
 30
0.0
 11
151.25
 21
123.6968255554541
 31
0.0
  0
LINE
  5
142
330
13F
100
AcDbEntity
  8
1
  6
Continuous
 62
     2
100
AcDbLine
 10
73.75
 20
111.6968255554541
 30
0.0
 11
73.75
 21
123.6968255554541
 31
0.0
  0
SOLID
  5
143
330
13F
100
AcDbEntity
  8
1
 62
     2
100
AcDbTrace
 10
77.25
 20
123.15760929701
 30
0.0
 11
77.25
 21
122.2360418138982
 31
0.0
 12
73.75
 22
122.6968255554541
 32
0.0
 13
73.75
 23
122.6968255554541
 33
0.0
  0
SOLID
  5
144
330
13F
100
AcDbEntity
  8
1
 62
     2
100
AcDbTrace
 10
147.75
 20
122.2360418138982
 30
0.0
 11
147.75
 21
123.15760929701
 31
0.0
 12
151.25
 22
122.6968255554541
 32
0.0
 13
151.25
 23
122.6968255554541
 33
0.0
  0
MTEXT
  5
145
330
13F
100
AcDbEntity
  8
1
 62
     7
100
AcDbMText
 10
108.8330583979329
 20
123.6968185983778
 30
0.0
 40
3.5
 41
0.0
 71
     7
 72
     1
  1
\C7;{\Fgdt;n}\C7;78
  7
CONVERTER_12
 11
0.9999999999970619
 21
2.424068405545306E-6
 31
0.0
 73
     1
 44
0.60024009603842
  0
ENDBLK
  5
147
330
13F
100
AcDbEntity
  8
0
100
AcDbBlockEnd
  0
BLOCK
  5
151
330
14A
100
AcDbEntity
  8
0
100
AcDbBlockBegin
  2
*D7
 70
     1
 10
0.0
 20
0.0
 30
0.0
  3
*D7
  1

  0
LINE
  5
14B
330
14A
100
AcDbEntity
  8
1
  6
Continuous
 62
     2
100
AcDbLine
 10
85.1587352593379
 20
89.69682555545413
 30
0.0
 11
139.8412647406621
 21
89.69682555545413
 31
0.0
  0
LINE
  5
14C
330
14A
100
AcDbEntity
  8
1
  6
Continuous
 62
     2
100
AcDbLine
 10
139.8412647406621
 20
99.69682555545413
 30
0.0
 11
139.8412647406621
 21
88.69682555545413
 31
0.0
  0
LINE
  5
14D
330
14A
100
AcDbEntity
  8
1
  6
Continuous
 62
     2
100
AcDbLine
 10
85.1587352593379
 20
99.69682555545413
 30
0.0
 11
85.1587352593379
 21
88.69682555545413
 31
0.0
  0
SOLID
  5
14E
330
14A
100
AcDbEntity
  8
1
 62
     2
100
AcDbTrace
 10
88.6587352593379
 20
90.15760929701001
 30
0.0
 11
88.6587352593379
 21
89.23604181389824
 31
0.0
 12
85.1587352593379
 22
89.69682555545413
 32
0.0
 13
85.1587352593379
 23
89.69682555545413
 33
0.0
  0
SOLID
  5
14F
330
14A
100
AcDbEntity
  8
1
 62
     2
100
AcDbTrace
 10
136.3412647406621
 20
89.23604181389824
 30
0.0
 11
136.3412647406621
 21
90.15760929701001
 31
0.0
 12
139.8412647406621
 22
89.69682555545413
 32
0.0
 13
139.8412647406621
 23
89.69682555545413
 33
0.0
  0
MTEXT
  5
150
330
14A
100
AcDbEntity
  8
1
 62
     7
100
AcDbMText
 10
109.0268722120429
 20
90.6968185983778
 30
0.0
 40
3.5
 41
0.0
 71
     7
 72
     1
  1
\C7;{\Fgdt;n}\C7;55
  7
CONVERTER_12
 11
0.9999999999970619
 21
2.424068405545306E-6
 31
0.0
 73
     1
 44
0.60024009603842
  0
ENDBLK
  5
152
330
14A
100
AcDbEntity
  8
0
100
AcDbBlockEnd
  0
BLOCK
  5
15C
330
155
100
AcDbEntity
  8
0
100
AcDbBlockBegin
  2
*D8
 70
     1
 10
0.0
 20
0.0
 30
0.0
  3
*D8
  1

  0
LINE
  5
156
330
155
100
AcDbEntity
  8
1
  6
Continuous
 62
     2
100
AcDbLine
 10
54.75000000000002
 20
111.6968255554541
 30
0.0
 11
54.75000000000002
 21
99.69682555545413
 31
0.0
  0
LINE
  5
157
330
155
100
AcDbEntity
  8
1
  6
Continuous
 62
     2
100
AcDbLine
 10
85.1587352593379
 20
99.69682555545413
 30
0.0
 11
53.75000000000002
 21
99.69682555545413
 31
0.0
  0
LINE
  5
158
330
155
100
AcDbEntity
  8
1
  6
Continuous
 62
     2
100
AcDbLine
 10
73.75000000000001
 20
111.6968255554541
 30
0.0
 11
53.75000000000002
 21
111.6968255554541
 31
0.0
  0
SOLID
  5
159
330
155
100
AcDbEntity
  8
1
 62
     2
100
AcDbTrace
 10
55.21078374155591
 20
108.1968255554541
 30
0.0
 11
54.28921625844414
 21
108.1968255554541
 31
0.0
 12
54.75000000000002
 22
111.6968255554541
 32
0.0
 13
54.75000000000002
 23
111.6968255554541
 33
0.0
  0
SOLID
  5
15A
330
155
100
AcDbEntity
  8
1
 62
     2
100
AcDbTrace
 10
54.28921625844414
 20
103.1968255554541
 30
0.0
 11
55.21078374155591
 21
103.1968255554541
 31
0.0
 12
54.75000000000002
 22
99.69682555545413
 32
0.0
 13
54.75000000000002
 23
99.69682555545413
 33
0.0
  0
MTEXT
  5
15B
330
155
100
AcDbEntity
  8
1
 62
     7
100
AcDbMText
 10
53.75000000000002
 20
103.2187549305943
 30
0.0
 40
3.5
 41
0.0
 71
     7
 72
     1
  1
12
  7
CONVERTER_12
 11
0.0
 21
1.0
 31
0.0
 73
     1
 44
0.60024009603842
  0
ENDBLK
  5
15D
330
155
100
AcDbEntity
  8
0
100
AcDbBlockEnd
  0
BLOCK
  5
169
330
160
100
AcDbEntity
  8
0
100
AcDbBlockBegin
  2
*D9
 70
     1
 10
0.0
 20
0.0
 30
0.0
  3
*D9
  1

  0
LINE
  5
161
330
160
100
AcDbEntity
  8
1
  6
Continuous
 62
     2
100
AcDbLine
 10
62.75000000000002
 20
111.1968255554541
 30
0.0
 11
62.75000000000002
 21
104.1968255554541
 31
0.0
  0
LINE
  5
162
330
160
100
AcDbEntity
  8
1
  6
Continuous
 62
     2
100
AcDbLine
 10
62.75000000000002
 20
111.6968255554541
 30
0.0
 11
62.75000000000002
 21
111.1968255554541
 31
0.0
  0
LINE
  5
163
330
160
100
AcDbEntity
  8
1
  6
Continuous
 62
     2
100
AcDbLine
 10
62.75000000000002
 20
118.6968255554541
 30
0.0
 11
62.75000000000002
 21
111.6968255554541
 31
0.0
  0
LINE
  5
164
330
160
100
AcDbEntity
  8
1
  6
Continuous
 62
     2
100
AcDbLine
 10
73.75000000000001
 20
111.1968255554541
 30
0.0
 11
61.75000000000002
 21
111.1968255554541
 31
0.0
  0
LINE
  5
165
330
160
100
AcDbEntity
  8
1
  6
Continuous
 62
     2
100
AcDbLine
 10
73.75000000000001
 20
111.6968255554541
 30
0.0
 11
61.75000000000002
 21
111.6968255554541
 31
0.0
  0
SOLID
  5
166
330
160
100
AcDbEntity
  8
1
 62
     2
100
AcDbTrace
 10
62.28921625844414
 20
115.1968255554541
 30
0.0
 11
63.21078374155591
 21
115.1968255554541
 31
0.0
 12
62.75000000000002
 22
111.6968255554541
 32
0.0
 13
62.75000000000002
 23
111.6968255554541
 33
0.0
  0
SOLID
  5
167
330
160
100
AcDbEntity
  8
1
 62
     2
100
AcDbTrace
 10
63.21078374155591
 20
107.6968255554541
 30
0.0
 11
62.28921625844414
 21
107.6968255554541
 31
0.0
 12
62.75000000000002
 22
111.1968255554541
 32
0.0
 13
62.75000000000002
 23
111.1968255554541
 33
0.0
  0
MTEXT
  5
168
330
160
100
AcDbEntity
  8
1
 62
     7
100
AcDbMText
 10
61.75000000000002
 20
115.932810792423
 30
0.0
 40
3.5
 41
0.0
 71
     7
 72
     1
  1
1
  7
CONVERTER_12
 11
0.0
 21
1.0
 31
0.0
 73
     1
 44
0.60024009603842
  0
ENDBLK
  5
16A
330
160
100
AcDbEntity
  8
0
100
AcDbBlockEnd
  0
ENDSEC
  0
SECTION
  2
ENTITIES
  0
INSERT
  5
55
330
1F
100
AcDbEntity
  8
0
100
AcDbBlockReference
  2
開示A4枠
 10
0.0
 20
0.0
 30
0.0
  0
INSERT
  5
56
330
1F
100
AcDbEntity
  8
1
100
AcDbBlockReference
  2
pin
 10
107.6
 20
98.69682555545413
 30
0.0
  0
INSERT
  5
57
330
1F
100
AcDbEntity
  8
1
100
AcDbBlockReference
  2
sara
 10
73.75000000000001
 20
99.69682555545413
 30
0.0
  0
LINE
  5
124
330
1F
100
AcDbEntity
  8
1
  6
DASH_CENTER
 62
     2
100
AcDbLine
 10
70.75000000000001
 20
193.7191099899446
 30
0.0
 11
154.25
 21
193.7191099899446
 31
0.0
  0
LINE
  5
125
330
1F
100
AcDbEntity
  8
1
  6
DASH_CENTER
 62
     2
100
AcDbLine
 10
112.5
 20
235.4691099899446
 30
0.0
 11
112.5
 21
151.9691099899446
 31
0.0
  0
LINE
  5
126
330
1F
100
AcDbEntity
  8
1
  6
DASH_CENTER
 62
     2
100
AcDbLine
 10
112.5
 20
114.6968255554541
 30
0.0
 11
112.5
 21
96.69682555545413
 31
0.0
  0
MTEXT
  5
128
330
1F
100
AcDbEntity
  8
1
 62
     7
100
AcDbMText
 10
157.5
 20
12.5
 30
0.0
 40
2.5
 41
0.0
 71
     5
 72
     1
  1
6
  7
CONVERTER_12
 73
     1
 44
0.7202881152461
  0
MTEXT
  5
129
330
1F
100
AcDbEntity
  8
1
 62
     7
100
AcDbMText
 10
151.75
 20
12.5
 30
0.0
 40
2.5
 41
0.0
 71
     5
 72
     1
  1
04
  7
CONVERTER_12
 73
     1
 44
0.7202881152461
  0
MTEXT
  5
12A
330
1F
100
AcDbEntity
  8
1
 62
     7
100
AcDbMText
 10
140.5
 20
12.5
 30
0.0
 40
2.5
 41
0.0
 71
     5
 72
     1
  1
6
  7
CONVERTER_12
 73
     1
 44
0.7202881152461
  0
MTEXT
  5
12B
330
1F
100
AcDbEntity
  8
1
 62
     7
100
AcDbMText
 10
134.75
 20
12.5
 30
0.0
 40
2.5
 41
0.0
 71
     5
 72
     1
  1
04
  7
CONVERTER_12
 73
     1
 44
0.7202881152461
  0
MTEXT
  5
12C
330
1F
100
AcDbEntity
  8
1
 62
     7
100
AcDbMText
 10
123.5
 20
12.5
 30
0.0
 40
2.5
 41
0.0
 71
     5
 72
     1
  1
6
  7
CONVERTER_12
 73
     1
 44
0.7202881152461
  0
MTEXT
  5
12D
330
1F
100
AcDbEntity
  8
1
 62
     7
100
AcDbMText
 10
117.75
 20
12.5
 30
0.0
 40
2.5
 41
0.0
 71
     5
 72
     1
  1
04
  7
CONVERTER_12
 73
     1
 44
0.7202881152461
  0
MTEXT
  5
12E
330
1F
100
AcDbEntity
  8
1
 62
     7
100
AcDbMText
 10
100.75
 20
12.5
 30
0.0
 40
2.5
 41
0.0
 71
     5
 72
     1
  1
04
  7
CONVERTER_12
 73
     1
 44
0.7202881152461
  0
MTEXT
  5
12F
330
1F
100
AcDbEntity
  8
1
 62
     7
100
AcDbMText
 10
106.5
 20
12.5
 30
0.0
 40
2.5
 41
0.0
 71
     5
 72
     1
  1
6
  7
CONVERTER_12
 73
     1
 44
0.7202881152461
  0
MTEXT
  5
130
330
1F
100
AcDbEntity
  8
1
 62
     7
100
AcDbMText
 10
85.25000000000003
 20
17.0
 30
0.0
 40
3.5
 41
0.0
 71
     5
 72
     1
  1
1
  7
CONVERTER_12
 73
     1
 44
0.7202881152461
  0
MTEXT
  5
131
330
1F
100
AcDbEntity
  8
1
 62
     7
100
AcDbMText
 10
57.00000000000003
 20
22.75
 30
0.0
 40
3.5
 41
0.0
 71
     5
 72
     1
  1
流し排水栓皿
  7
CONVERTER_11
 73
     1
 44
0.54545454545455
  0
MTEXT
  5
132
330
1F
100
AcDbEntity
  8
1
 62
     7
100
AcDbMText
 10
57.00000000000003
 20
14.25
 30
0.0
 40
3.5
 41
0.0
 71
     5
 72
     1
  1
H65F-2
  7
CONVERTER_12
 73
     1
 44
0.7202881152461
  0
MTEXT
  5
133
330
1F
100
AcDbEntity
  8
1
 62
     7
100
AcDbMText
 10
93.75000000000003
 20
17.0
 30
0.0
 40
3.5
 41
0.0
 71
     5
 72
     1
  1
1
  7
CONVERTER_12
 73
     1
 44
0.7202881152461
  0
DIMENSION
  5
13E
330
1F
100
AcDbEntity
  8
1
100
AcDbDimension
  2
*D5
 10
80.6587352593379
 20
81.69682555545413
 30
0.0
 11
112.8094998402555
 21
84.44682555545413
 31
0.0
 70
    32
  1
{\Fgdt;n}64
 71
     5
 42
-1.0
 53
0.00013888888889
  3
ME10_DIM_10
100
AcDbAlignedDimension
 13
144.3412647406621
 23
111.1968255554541
 33
0.0
 14
80.6587352593379
 24
111.1968255554541
 34
0.0
100
AcDbRotatedDimension
  0
DIMENSION
  5
149
330
1F
100
AcDbEntity
  8
1
100
AcDbDimension
  2
*D6
 10
73.75
 20
122.6968255554541
 30
0.0
 11
112.2280583979245
 21
125.4468255554541
 31
0.0
 70
    32
  1
{\Fgdt;n}78
 71
     5
 42
-1.0
 53
0.00013888888889
  3
ME10_DIM_11
100
AcDbAlignedDimension
 13
151.25
 23
111.6968255554541
 33
0.0
 14
73.75000000000001
 24
111.6968255554541
 34
0.0
100
AcDbRotatedDimension
  0
DIMENSION
  5
154
330
1F
100
AcDbEntity
  8
1
100
AcDbDimension
  2
*D7
 10
85.1587352593379
 20
89.69682555545413
 30
0.0
 11
112.4218722120345
 21
92.44682555545413
 31
0.0
 70
    32
  1
{\Fgdt;n}55
 71
     5
 42
-1.0
 53
0.00013888888889
  3
ME10_DIM_12
100
AcDbAlignedDimension
 13
139.8412647406621
 23
99.69682555545413
 33
0.0
 14
85.1587352593379
 24
99.69682555545413
 34
0.0
100
AcDbRotatedDimension
  0
DIMENSION
  5
15F
330
1F
100
AcDbEntity
  8
1
100
AcDbDimension
  2
*D8
 10
54.75000000000002
 20
111.6968255554541
 30
0.0
 11
52.00000000000002
 21
105.3187549305943
 31
0.0
 70
    32
  1
<>
 71
     5
 42
-1.0
 53
90.0
  3
ME10_DIM_13
100
AcDbAlignedDimension
 13
85.1587352593379
 23
99.69682555545413
 33
0.0
 14
73.75000000000001
 24
111.6968255554541
 34
0.0
 50
90.0
100
AcDbRotatedDimension
  0
DIMENSION
  5
16C
330
1F
100
AcDbEntity
  8
1
100
AcDbDimension
  2
*D9
 10
62.75000000000002
 20
111.6968255554541
 30
0.0
 11
60.00000000000002
 21
116.457810792423
 31
0.0
 70
    32
  1
1
 71
     5
 42
-1.0
 53
90.0
  3
ME10_DIM_14
100
AcDbAlignedDimension
 13
73.75000000000001
 23
111.1968255554541
 33
0.0
 14
73.75000000000001
 24
111.6968255554541
 34
0.0
 50
90.0
100
AcDbRotatedDimension
  0
ENDSEC
  0
SECTION
  2
OBJECTS
  0
DICTIONARY
  5
C
330
0
100
AcDbDictionary
281
     1
  3
ACAD_GROUP
350
D
  3
ACAD_LAYOUT
350
1A
  3
ACAD_MATERIAL
350
3B
  3
ACAD_MLEADERSTYLE
350
16F
  3
ACAD_MLINESTYLE
350
17
  3
ACAD_PLOTSETTINGS
350
19
  3
ACAD_PLOTSTYLENAME
350
E
  3
ACAD_VISUALSTYLE
350
2A
  3
AcDbVariableDictionary
350
16D
  0
DICTIONARY
  5
D
102
{ACAD_REACTORS
330
C
102
}
330
C
100
AcDbDictionary
281
     1
  0
DICTIONARY
  5
1A
102
{ACAD_REACTORS
330
C
102
}
330
C
100
AcDbDictionary
281
     1
  3
Layout1
350
1E
  3
Layout2
350
26
  3
Model
350
22
  0
DICTIONARY
  5
3B
102
{ACAD_REACTORS
330
C
102
}
330
C
100
AcDbDictionary
281
     1
  3
ByBlock
350
3D
  3
ByLayer
350
3C
  3
Global
350
3E
  0
DICTIONARY
  5
16F
102
{ACAD_REACTORS
330
C
102
}
330
C
100
AcDbDictionary
281
     1
  0
DICTIONARY
  5
17
102
{ACAD_REACTORS
330
C
102
}
330
C
100
AcDbDictionary
281
     1
  3
Standard
350
18
  0
DICTIONARY
  5
19
102
{ACAD_REACTORS
330
C
102
}
330
C
100
AcDbDictionary
281
     1
  0
ACDBDICTIONARYWDFLT
  5
E
102
{ACAD_REACTORS
330
C
102
}
330
C
100
AcDbDictionary
281
     1
  3
Normal
350
F
100
AcDbDictionaryWithDefault
340
F
  0
DICTIONARY
  5
2A
102
{ACAD_REACTORS
330
C
102
}
330
C
100
AcDbDictionary
281
     1
  3
2dWireframe
350
2F
  3
3D Hidden
350
31
  3
3dWireframe
350
30
  3
Basic
350
32
  3
Brighten
350
36
  3
ColorChange
350
3A
  3
Conceptual
350
34
  3
Dim
350
35
  3
Facepattern
350
39
  3
Flat
350
2B
  3
FlatWithEdges
350
2C
  3
Gouraud
350
2D
  3
GouraudWithEdges
350
2E
  3
Linepattern
350
38
  3
Realistic
350
33
  3
Thicken
350
37
  0
DICTIONARY
  5
16D
102
{ACAD_REACTORS
330
C
102
}
330
C
100
AcDbDictionary
281
     1
  3
DIMASSOC
350
170
  3
HIDETEXT
350
171
  0
LAYOUT
  5
1E
102
{ACAD_REACTORS
330
1A
102
}
330
1A
100
AcDbPlotSettings
  1

  2
none_device
  4

  6

 40
0.0
 41
0.0
 42
0.0
 43
0.0
 44
0.0
 45
0.0
 46
0.0
 47
0.0
 48
0.0
 49
0.0
140
0.0
141
0.0
142
1.0
143
1.0
 70
   688
 72
     0
 73
     0
 74
     5
  7

 75
    16
147
1.0
148
0.0
149
0.0
100
AcDbLayout
  1
Layout1
 70
     1
 71
     1
 10
0.0
 20
0.0
 11
12.0
 21
9.0
 12
0.0
 22
0.0
 32
0.0
 14
1.00000000000000E+20
 24
1.00000000000000E+20
 34
1.00000000000000E+20
 15
-1.00000000000000E+20
 25
-1.00000000000000E+20
 35
-1.00000000000000E+20
146
0.0
 13
0.0
 23
0.0
 33
0.0
 16
1.0
 26
0.0
 36
0.0
 17
0.0
 27
1.0
 37
0.0
 76
     0
330
1B
  0
LAYOUT
  5
26
102
{ACAD_REACTORS
330
1A
102
}
330
1A
100
AcDbPlotSettings
  1

  2
none_device
  4

  6

 40
0.0
 41
0.0
 42
0.0
 43
0.0
 44
0.0
 45
0.0
 46
0.0
 47
0.0
 48
0.0
 49
0.0
140
0.0
141
0.0
142
1.0
143
1.0
 70
   688
 72
     0
 73
     0
 74
     5
  7

 75
    16
147
1.0
148
0.0
149
0.0
100
AcDbLayout
  1
Layout2
 70
     1
 71
     2
 10
0.0
 20
0.0
 11
0.0
 21
0.0
 12
0.0
 22
0.0
 32
0.0
 14
0.0
 24
0.0
 34
0.0
 15
0.0
 25
0.0
 35
0.0
146
0.0
 13
0.0
 23
0.0
 33
0.0
 16
1.0
 26
0.0
 36
0.0
 17
0.0
 27
1.0
 37
0.0
 76
     0
330
23
  0
LAYOUT
  5
22
102
{ACAD_REACTORS
330
1A
102
}
330
1A
100
AcDbPlotSettings
  1

  2
none_device
  4

  6

 40
0.0
 41
0.0
 42
0.0
 43
0.0
 44
0.0
 45
0.0
 46
0.0
 47
0.0
 48
0.0
 49
0.0
140
0.0
141
0.0
142
1.0
143
1.0
 70
  1712
 72
     0
 73
     0
 74
     0
  7

 75
     0
147
1.0
148
0.0
149
0.0
100
AcDbLayout
  1
Model
 70
     1
 71
     0
 10
0.0
 20
0.0
 11
12.0
 21
9.0
 12
0.0
 22
0.0
 32
0.0
 14
0.0
 24
0.0
 34
0.0
 15
210.0
 25
297.0
 35
0.0
146
0.0
 13
0.0
 23
0.0
 33
0.0
 16
1.0
 26
0.0
 36
0.0
 17
0.0
 27
1.0
 37
0.0
 76
     0
330
1F
331
29
  0
MATERIAL
  5
3D
102
{ACAD_REACTORS
330
3B
102
}
102
{ACAD_XDICTIONARY
360
194
102
}
330
3B
100
AcDbMaterial
  1
ByBlock
  0
MATERIAL
  5
3C
102
{ACAD_REACTORS
330
3B
102
}
102
{ACAD_XDICTIONARY
360
192
102
}
330
3B
100
AcDbMaterial
  1
ByLayer
  0
MATERIAL
  5
3E
102
{ACAD_REACTORS
330
3B
102
}
102
{ACAD_XDICTIONARY
360
196
102
}
330
3B
100
AcDbMaterial
  1
Global
  0
MLINESTYLE
  5
18
102
{ACAD_REACTORS
330
17
102
}
330
17
100
AcDbMlineStyle
  2
Standard
 70
     0
  3

 62
   256
 51
90.0
 52
90.0
 71
     2
 49
0.5
 62
   256
  6
BYLAYER
 49
-0.5
 62
   256
  6
BYLAYER
  0
ACDBPLACEHOLDER
  5
F
102
{ACAD_REACTORS
330
E
102
}
330
E
  0
VISUALSTYLE
  5
2F
102
{ACAD_REACTORS
330
2A
102
}
102
{ACAD_XDICTIONARY
360
17A
102
}
330
2A
100
AcDbVisualStyle
  2
2dWireframe
 70
     4
 71
     0
 72
     2
 73
     0
 90
        0
 40
-0.6
 41
-30.0
 62
     5
 63
     7
 74
     1
 91
        4
 64
     7
 65
   257
 75
     1
175
     1
 42
1.0
 92
        0
 66
   257
 43
1.0
 76
     1
 77
     6
 78
     2
 67
     7
 79
     5
170
     0
171
     0
290
     0
174
     0
 93
        1
 44
0.0
173
     0
291
     0
 45
0.0
1001
ACAD
1000
AcDbSavedByObjectVersion
1070
     0
  0
VISUALSTYLE
  5
31
102
{ACAD_REACTORS
330
2A
102
}
102
{ACAD_XDICTIONARY
360
17E
102
}
330
2A
100
AcDbVisualStyle
  2
3D Hidden
 70
     6
 71
     1
 72
     2
 73
     2
 90
        0
 40
-0.6
 41
-30.0
 62
     5
 63
     7
 74
     2
 91
        2
 64
     7
 65
   257
 75
     2
175
     1
 42
40.0
 92
        0
 66
   257
 43
1.0
 76
     1
 77
     6
 78
     2
 67
     7
 79
     3
170
     0
171
     0
290
     0
174
     0
 93
        1
 44
0.0
173
     0
291
     0
 45
0.0
1001
ACAD
1000
AcDbSavedByObjectVersion
1070
     0
  0
VISUALSTYLE
  5
30
102
{ACAD_REACTORS
330
2A
102
}
102
{ACAD_XDICTIONARY
360
17C
102
}
330
2A
100
AcDbVisualStyle
  2
3dWireframe
 70
     5
 71
     0
 72
     2
 73
     0
 90
        0
 40
-0.6
 41
-30.0
 62
     5
 63
     7
 74
     1
 91
        4
 64
     7
 65
   257
 75
     1
175
     1
 42
1.0
 92
        0
 66
   257
 43
1.0
 76
     1
 77
     6
 78
     2
 67
     7
 79
     5
170
     0
171
     0
290
     0
174
     0
 93
        1
 44
0.0
173
     0
291
     0
 45
0.0
1001
ACAD
1000
AcDbSavedByObjectVersion
1070
     0
  0
VISUALSTYLE
  5
32
102
{ACAD_REACTORS
330
2A
102
}
102
{ACAD_XDICTIONARY
360
180
102
}
330
2A
100
AcDbVisualStyle
  2
Basic
 70
     7
 71
     1
 72
     0
 73
     1
 90
        0
 40
-0.6
 41
-30.0
 62
     5
 63
     7
 74
     0
 91
        4
 64
     7
 65
   257
 75
     1
175
     1
 42
1.0
 92
        8
 66
     7
 43
1.0
 76
     1
 77
     6
 78
     2
 67
     7
 79
     5
170
     0
171
     0
290
     0
174
     0
 93
        1
 44
0.0
173
     0
291
     1
 45
0.0
1001
ACAD
1000
AcDbSavedByObjectVersion
1070
     0
  0
VISUALSTYLE
  5
36
102
{ACAD_REACTORS
330
2A
102
}
102
{ACAD_XDICTIONARY
360
188
102
}
330
2A
100
AcDbVisualStyle
  2
Brighten
 70
    12
 71
     2
 72
     2
 73
     0
 90
        0
 40
-0.6
 41
-30.0
 62
     5
 63
     7
 74
     1
 91
        4
 64
     7
 65
   257
 75
     1
175
     1
 42
1.0
 92
        8
 66
     7
 43
1.0
 76
     1
 77
     6
 78
     2
 67
     7
 79
     5
170
     0
171
     0
290
     0
174
     0
 93
        1
 44
50.0
173
     0
291
     1
 45
0.0
1001
ACAD
1000
AcDbSavedByObjectVersion
1070
     0
  0
VISUALSTYLE
  5
3A
102
{ACAD_REACTORS
330
2A
102
}
102
{ACAD_XDICTIONARY
360
190
102
}
330
2A
100
AcDbVisualStyle
  2
ColorChange
 70
    16
 71
     2
 72
     2
 73
     3
 90
        0
 40
-0.6
 41
-30.0
 62
     5
 63
     8
 74
     1
 91
        4
 64
     7
 65
   257
 75
     1
175
     1
 42
1.0
 92
        8
 66
     8
 43
1.0
 76
     1
 77
     6
 78
     2
 67
     7
 79
     5
170
     0
171
     0
290
     0
174
     0
 93
        1
 44
0.0
173
     0
291
     1
 45
0.0
1001
ACAD
1000
AcDbSavedByObjectVersion
1070
     0
  0
VISUALSTYLE
  5
34
102
{ACAD_REACTORS
330
2A
102
}
102
{ACAD_XDICTIONARY
360
184
102
}
330
2A
100
AcDbVisualStyle
  2
Conceptual
 70
     9
 71
     3
 72
     2
 73
     0
 90
        0
 40
-0.6
 41
-30.0
 62
     5
 63
     7
 74
     2
 91
        2
 64
     7
 65
   257
 75
     1
175
     1
 42
40.0
 92
        8
 66
     7
 43
1.0
 76
     1
 77
     6
 78
     2
 67
     7
 79
     3
170
     0
171
     0
290
     0
174
     0
 93
        1
 44
0.0
173
     0
291
     0
 45
0.0
1001
ACAD
1000
AcDbSavedByObjectVersion
1070
     0
  0
VISUALSTYLE
  5
35
102
{ACAD_REACTORS
330
2A
102
}
102
{ACAD_XDICTIONARY
360
186
102
}
330
2A
100
AcDbVisualStyle
  2
Dim
 70
    11
 71
     2
 72
     2
 73
     0
 90
        0
 40
-0.6
 41
-30.0
 62
     5
 63
     7
 74
     1
 91
        4
 64
     7
 65
   257
 75
     1
175
     1
 42
1.0
 92
        8
 66
     7
 43
1.0
 76
     1
 77
     6
 78
     2
 67
     7
 79
     5
170
     0
171
     0
290
     0
174
     0
 93
        1
 44
-50.0
173
     0
291
     1
 45
0.0
1001
ACAD
1000
AcDbSavedByObjectVersion
1070
     0
  0
VISUALSTYLE
  5
39
102
{ACAD_REACTORS
330
2A
102
}
102
{ACAD_XDICTIONARY
360
18E
102
}
330
2A
100
AcDbVisualStyle
  2
Facepattern
 70
    15
 71
     2
 72
     2
 73
     0
 90
        0
 40
-0.6
 41
-30.0
 62
     5
 63
     7
 74
     1
 91
        4
 64
     7
 65
   257
 75
     1
175
     1
 42
1.0
 92
        8
 66
     7
 43
1.0
 76
     1
 77
     6
 78
     2
 67
     7
 79
     5
170
     0
171
     0
290
     0
174
     0
 93
        1
 44
0.0
173
     0
291
     1
 45
0.0
1001
ACAD
1000
AcDbSavedByObjectVersion
1070
     0
  0
VISUALSTYLE
  5
2B
102
{ACAD_REACTORS
330
2A
102
}
102
{ACAD_XDICTIONARY
360
172
102
}
330
2A
100
AcDbVisualStyle
  2
Flat
 70
     0
 71
     2
 72
     1
 73
     1
 90
        2
 40
-0.6
 41
30.0
 62
     5
 63
     7
 74
     0
 91
        4
 64
     7
 65
   257
 75
     1
175
     1
 42
1.0
 92
        8
 66
     7
 43
1.0
 76
     1
 77
     6
 78
     2
 67
     7
 79
     5
170
     0
171
     0
290
     0
174
     0
 93
       13
 44
0.0
173
     0
291
     1
 45
0.0
1001
ACAD
1000
AcDbSavedByObjectVersion
1070
     0
  0
VISUALSTYLE
  5
2C
102
{ACAD_REACTORS
330
2A
102
}
102
{ACAD_XDICTIONARY
360
174
102
}
330
2A
100
AcDbVisualStyle
  2
FlatWithEdges
 70
     1
 71
     2
 72
     1
 73
     1
 90
        2
 40
-0.6
 41
30.0
 62
     5
 63
     7
 74
     1
 91
        4
 64
     7
 65
   257
 75
     1
175
     1
 42
1.0
 92
        0
 66
   257
 43
1.0
 76
     1
 77
     6
 78
     2
 67
     7
 79
     5
170
     0
171
     0
290
     0
174
     0
 93
       13
 44
0.0
173
     0
291
     1
 45
0.0
1001
ACAD
1000
AcDbSavedByObjectVersion
1070
     0
  0
VISUALSTYLE
  5
2D
102
{ACAD_REACTORS
330
2A
102
}
102
{ACAD_XDICTIONARY
360
176
102
}
330
2A
100
AcDbVisualStyle
  2
Gouraud
 70
     2
 71
     2
 72
     2
 73
     1
 90
        2
 40
-0.6
 41
30.0
 62
     5
 63
     7
 74
     0
 91
        4
 64
     7
 65
   257
 75
     1
175
     1
 42
1.0
 92
        0
 66
     7
 43
1.0
 76
     1
 77
     6
 78
     2
 67
     7
 79
     5
170
     0
171
     0
290
     0
174
     0
 93
       13
 44
0.0
173
     0
291
     1
 45
0.0
1001
ACAD
1000
AcDbSavedByObjectVersion
1070
     0
  0
VISUALSTYLE
  5
2E
102
{ACAD_REACTORS
330
2A
102
}
102
{ACAD_XDICTIONARY
360
178
102
}
330
2A
100
AcDbVisualStyle
  2
GouraudWithEdges
 70
     3
 71
     2
 72
     2
 73
     1
 90
        2
 40
-0.6
 41
30.0
 62
     5
 63
     7
 74
     1
 91
        4
 64
     7
 65
   257
 75
     1
175
     1
 42
1.0
 92
        0
 66
   257
 43
1.0
 76
     1
 77
     6
 78
     2
 67
     7
 79
     5
170
     0
171
     0
290
     0
174
     0
 93
       13
 44
0.0
173
     0
291
     1
 45
0.0
1001
ACAD
1000
AcDbSavedByObjectVersion
1070
     0
  0
VISUALSTYLE
  5
38
102
{ACAD_REACTORS
330
2A
102
}
102
{ACAD_XDICTIONARY
360
18C
102
}
330
2A
100
AcDbVisualStyle
  2
Linepattern
 70
    14
 71
     2
 72
     2
 73
     0
 90
        0
 40
-0.6
 41
-30.0
 62
     5
 63
     7
 74
     1
 91
        4
 64
     7
 65
   257
 75
     7
175
     7
 42
1.0
 92
        8
 66
     7
 43
1.0
 76
     1
 77
     6
 78
     2
 67
     7
 79
     5
170
     0
171
     0
290
     0
174
     0
 93
        1
 44
0.0
173
     0
291
     1
 45
0.0
1001
ACAD
1000
AcDbSavedByObjectVersion
1070
     0
  0
VISUALSTYLE
  5
33
102
{ACAD_REACTORS
330
2A
102
}
102
{ACAD_XDICTIONARY
360
182
102
}
330
2A
100
AcDbVisualStyle
  2
Realistic
 70
     8
 71
     2
 72
     2
 73
     0
 90
        0
 40
-0.6
 41
-30.0
 62
     5
 63
     7
 74
     1
 91
        0
 64
     7
 65
   257
 75
     1
175
     1
 42
1.0
 92
        8
 66
     8
 43
1.0
 76
     1
 77
     6
 78
     2
 67
     7
 79
     5
170
     0
171
     0
290
     0
174
     0
 93
       13
 44
0.0
173
     0
291
     0
 45
0.0
1001
ACAD
1000
AcDbSavedByObjectVersion
1070
     0
  0
VISUALSTYLE
  5
37
102
{ACAD_REACTORS
330
2A
102
}
102
{ACAD_XDICTIONARY
360
18A
102
}
330
2A
100
AcDbVisualStyle
  2
Thicken
 70
    13
 71
     2
 72
     2
 73
     0
 90
        0
 40
-0.6
 41
-30.0
 62
     5
 63
     7
 74
     1
 91
        4
 64
     7
 65
   257
 75
     1
175
     1
 42
1.0
 92
       12
 66
     7
 43
1.0
 76
     1
 77
     6
 78
     2
 67
     7
 79
     5
170
     0
171
     0
290
     0
174
     0
 93
        1
 44
0.0
173
     0
291
     1
 45
0.0
1001
ACAD
1000
AcDbSavedByObjectVersion
1070
     0
  0
DICTIONARYVAR
  5
170
102
{ACAD_REACTORS
330
16D
102
}
330
16D
100
DictionaryVariables
280
     0
  1
2
  0
DICTIONARYVAR
  5
171
102
{ACAD_REACTORS
330
16D
102
}
330
16D
100
DictionaryVariables
280
     0
  1
1
  0
DICTIONARY
  5
194
330
3D
100
AcDbDictionary
280
     1
281
     1
  3
ACAD_XREC_ROUNDTRIP
360
195
  0
DICTIONARY
  5
192
330
3C
100
AcDbDictionary
280
     1
281
     1
  3
ACAD_XREC_ROUNDTRIP
360
193
  0
DICTIONARY
  5
196
330
3E
100
AcDbDictionary
280
     1
281
     1
  3
ACAD_XREC_ROUNDTRIP
360
197
  0
DICTIONARY
  5
17A
330
2F
100
AcDbDictionary
280
     1
281
     1
  3
ACAD_XREC_ROUNDTRIP
360
17B
  0
DICTIONARY
  5
17E
330
31
100
AcDbDictionary
280
     1
281
     1
  3
ACAD_XREC_ROUNDTRIP
360
17F
  0
DICTIONARY
  5
17C
330
30
100
AcDbDictionary
280
     1
281
     1
  3
ACAD_XREC_ROUNDTRIP
360
17D
  0
DICTIONARY
  5
180
330
32
100
AcDbDictionary
280
     1
281
     1
  3
ACAD_XREC_ROUNDTRIP
360
181
  0
DICTIONARY
  5
188
330
36
100
AcDbDictionary
280
     1
281
     1
  3
ACAD_XREC_ROUNDTRIP
360
189
  0
DICTIONARY
  5
190
330
3A
100
AcDbDictionary
280
     1
281
     1
  3
ACAD_XREC_ROUNDTRIP
360
191
  0
DICTIONARY
  5
184
330
34
100
AcDbDictionary
280
     1
281
     1
  3
ACAD_XREC_ROUNDTRIP
360
185
  0
DICTIONARY
  5
186
330
35
100
AcDbDictionary
280
     1
281
     1
  3
ACAD_XREC_ROUNDTRIP
360
187
  0
DICTIONARY
  5
18E
330
39
100
AcDbDictionary
280
     1
281
     1
  3
ACAD_XREC_ROUNDTRIP
360
18F
  0
DICTIONARY
  5
172
330
2B
100
AcDbDictionary
280
     1
281
     1
  3
ACAD_XREC_ROUNDTRIP
360
173
  0
DICTIONARY
  5
174
330
2C
100
AcDbDictionary
280
     1
281
     1
  3
ACAD_XREC_ROUNDTRIP
360
175
  0
DICTIONARY
  5
176
330
2D
100
AcDbDictionary
280
     1
281
     1
  3
ACAD_XREC_ROUNDTRIP
360
177
  0
DICTIONARY
  5
178
330
2E
100
AcDbDictionary
280
     1
281
     1
  3
ACAD_XREC_ROUNDTRIP
360
179
  0
DICTIONARY
  5
18C
330
38
100
AcDbDictionary
280
     1
281
     1
  3
ACAD_XREC_ROUNDTRIP
360
18D
  0
DICTIONARY
  5
182
330
33
100
AcDbDictionary
280
     1
281
     1
  3
ACAD_XREC_ROUNDTRIP
360
183
  0
DICTIONARY
  5
18A
330
37
100
AcDbDictionary
280
     1
281
     1
  3
ACAD_XREC_ROUNDTRIP
360
18B
  0
XRECORD
  5
195
102
{ACAD_REACTORS
330
194
102
}
330
194
100
AcDbXrecord
280
     1
102
MATERIAL
148
0.0
149
0.0
149
0.0
 93
        0
 94
      127
282
     0
 72
     1
 77
     1
171
     1
175
     1
179
     1
273
     0
  0
XRECORD
  5
193
102
{ACAD_REACTORS
330
192
102
}
330
192
100
AcDbXrecord
280
     1
102
MATERIAL
148
0.0
149
0.0
149
0.0
 93
        0
 94
      127
282
     0
 72
     1
 77
     1
171
     1
175
     1
179
     1
273
     0
  0
XRECORD
  5
197
102
{ACAD_REACTORS
330
196
102
}
330
196
100
AcDbXrecord
280
     1
102
MATERIAL
148
0.0
149
0.0
149
0.0
 93
        0
 94
      127
282
     0
 72
     1
 77
     1
171
     1
175
     1
179
     1
273
     0
  0
XRECORD
  5
17B
102
{ACAD_REACTORS
330
17A
102
}
330
17A
100
AcDbXrecord
280
     1
102
RTVSPropertyOp0
 70
     1
102
RTVSPropertyOp1
 70
     1
102
RTVSPropertyOp2
 70
     1
102
RTVSPropertyOp3
 70
     1
102
RTVSPropertyOp4
 70
     1
102
RTVSPropertyOp5
 70
     1
102
RTVSPropertyOp6
 70
     1
102
RTVSPropertyOp7
 70
     1
102
RTVSPropertyOp8
 70
     1
102
RTVSPropertyOp9
 70
     1
102
RTVSPropertyOp10
 70
     1
102
RTVSPropertyOp11
 70
     1
102
RTVSPropertyOp12
 70
     1
102
RTVSPropertyOp13
 70
     1
102
RTVSPropertyOp14
 70
     1
102
RTVSPropertyOp15
 70
     1
102
RTVSPropertyOp16
 70
     1
102
RTVSPropertyOp17
 70
     1
102
RTVSPropertyOp18
 70
     1
102
RTVSPropertyOp19
 70
     1
102
RTVSPropertyOp20
 70
     1
102
RTVSPropertyOp21
 70
     1
102
RTVSPropertyOp22
 70
     1
102
RTVSPropertyOp23
 70
     1
102
RTVSPropertyOp24
 70
     1
102
RTVSPropertyOp25
 70
     1
102
RTVSPropertyOp26
 70
     1
102
RTVSPropertyOp27
 70
     1
102
RTVSPropertyOp28
 70
     1
102
RTVSPropertyOp29
 70
     1
102
RTVSPropertyOp30
 70
     1
102
RTVSPropertyOp31
 70
     1
102
RTVSPropertyOp32
 70
     1
  0
XRECORD
  5
17F
102
{ACAD_REACTORS
330
17E
102
}
330
17E
100
AcDbXrecord
280
     1
102
RTVSPropertyOp0
 70
     1
102
RTVSPropertyOp1
 70
     1
102
RTVSPropertyOp2
 70
     1
102
RTVSPropertyOp3
 70
     1
102
RTVSPropertyOp4
 70
     1
102
RTVSPropertyOp5
 70
     1
102
RTVSPropertyOp6
 70
     1
102
RTVSPropertyOp7
 70
     1
102
RTVSPropertyOp8
 70
     1
102
RTVSPropertyOp9
 70
     1
102
RTVSPropertyOp10
 70
     1
102
RTVSPropertyOp11
 70
     1
102
RTVSPropertyOp12
 70
     1
102
RTVSPropertyOp13
 70
     1
102
RTVSPropertyOp14
 70
     1
102
RTVSPropertyOp15
 70
     1
102
RTVSPropertyOp16
 70
     1
102
RTVSPropertyOp17
 70
     1
102
RTVSPropertyOp18
 70
     1
102
RTVSPropertyOp19
 70
     1
102
RTVSPropertyOp20
 70
     1
102
RTVSPropertyOp21
 70
     1
102
RTVSPropertyOp22
 70
     1
102
RTVSPropertyOp23
 70
     1
102
RTVSPropertyOp24
 70
     1
102
RTVSPropertyOp25
 70
     1
102
RTVSPropertyOp26
 70
     1
102
RTVSPropertyOp27
 70
     1
102
RTVSPropertyOp28
 70
     1
102
RTVSPropertyOp29
 70
     1
102
RTVSPropertyOp30
 70
     1
102
RTVSPropertyOp31
 70
     1
102
RTVSPropertyOp32
 70
     1
  0
XRECORD
  5
17D
102
{ACAD_REACTORS
330
17C
102
}
330
17C
100
AcDbXrecord
280
     1
102
RTVSPropertyOp0
 70
     1
102
RTVSPropertyOp1
 70
     1
102
RTVSPropertyOp2
 70
     1
102
RTVSPropertyOp3
 70
     1
102
RTVSPropertyOp4
 70
     1
102
RTVSPropertyOp5
 70
     1
102
RTVSPropertyOp6
 70
     1
102
RTVSPropertyOp7
 70
     1
102
RTVSPropertyOp8
 70
     1
102
RTVSPropertyOp9
 70
     1
102
RTVSPropertyOp10
 70
     1
102
RTVSPropertyOp11
 70
     1
102
RTVSPropertyOp12
 70
     1
102
RTVSPropertyOp13
 70
     1
102
RTVSPropertyOp14
 70
     1
102
RTVSPropertyOp15
 70
     1
102
RTVSPropertyOp16
 70
     1
102
RTVSPropertyOp17
 70
     1
102
RTVSPropertyOp18
 70
     1
102
RTVSPropertyOp19
 70
     1
102
RTVSPropertyOp20
 70
     1
102
RTVSPropertyOp21
 70
     1
102
RTVSPropertyOp22
 70
     1
102
RTVSPropertyOp23
 70
     1
102
RTVSPropertyOp24
 70
     1
102
RTVSPropertyOp25
 70
     1
102
RTVSPropertyOp26
 70
     1
102
RTVSPropertyOp27
 70
     1
102
RTVSPropertyOp28
 70
     1
102
RTVSPropertyOp29
 70
     1
102
RTVSPropertyOp30
 70
     1
102
RTVSPropertyOp31
 70
     1
102
RTVSPropertyOp32
 70
     1
  0
XRECORD
  5
181
102
{ACAD_REACTORS
330
180
102
}
330
180
100
AcDbXrecord
280
     1
102
RTVSPropertyOp0
 70
     1
102
RTVSPropertyOp1
 70
     1
102
RTVSPropertyOp2
 70
     1
102
RTVSPropertyOp3
 70
     1
102
RTVSPropertyOp4
 70
     1
102
RTVSPropertyOp5
 70
     1
102
RTVSPropertyOp6
 70
     1
102
RTVSPropertyOp7
 70
     1
102
RTVSPropertyOp8
 70
     1
102
RTVSPropertyOp9
 70
     1
102
RTVSPropertyOp10
 70
     1
102
RTVSPropertyOp11
 70
     1
102
RTVSPropertyOp12
 70
     1
102
RTVSPropertyOp13
 70
     1
102
RTVSPropertyOp14
 70
     1
102
RTVSPropertyOp15
 70
     1
102
RTVSPropertyOp16
 70
     1
102
RTVSPropertyOp17
 70
     1
102
RTVSPropertyOp18
 70
     1
102
RTVSPropertyOp19
 70
     1
102
RTVSPropertyOp20
 70
     1
102
RTVSPropertyOp21
 70
     1
102
RTVSPropertyOp22
 70
     1
102
RTVSPropertyOp23
 70
     1
102
RTVSPropertyOp24
 70
     1
102
RTVSPropertyOp25
 70
     1
102
RTVSPropertyOp26
 70
     1
102
RTVSPropertyOp27
 70
     1
102
RTVSPropertyOp28
 70
     1
102
RTVSPropertyOp29
 70
     1
102
RTVSPropertyOp30
 70
     1
102
RTVSPropertyOp31
 70
     1
102
RTVSPropertyOp32
 70
     1
  0
XRECORD
  5
189
102
{ACAD_REACTORS
330
188
102
}
330
188
100
AcDbXrecord
280
     1
102
RTVSPropertyOp0
 70
     1
102
RTVSPropertyOp1
 70
     1
102
RTVSPropertyOp2
 70
     1
102
RTVSPropertyOp3
 70
     1
102
RTVSPropertyOp4
 70
     1
102
RTVSPropertyOp5
 70
     1
102
RTVSPropertyOp6
 70
     1
102
RTVSPropertyOp7
 70
     1
102
RTVSPropertyOp8
 70
     1
102
RTVSPropertyOp9
 70
     1
102
RTVSPropertyOp10
 70
     1
102
RTVSPropertyOp11
 70
     1
102
RTVSPropertyOp12
 70
     1
102
RTVSPropertyOp13
 70
     1
102
RTVSPropertyOp14
 70
     1
102
RTVSPropertyOp15
 70
     1
102
RTVSPropertyOp16
 70
     1
102
RTVSPropertyOp17
 70
     1
102
RTVSPropertyOp18
 70
     1
102
RTVSPropertyOp19
 70
     1
102
RTVSPropertyOp20
 70
     1
102
RTVSPropertyOp21
 70
     1
102
RTVSPropertyOp22
 70
     1
102
RTVSPropertyOp23
 70
     1
102
RTVSPropertyOp24
 70
     1
102
RTVSPropertyOp25
 70
     1
102
RTVSPropertyOp26
 70
     1
102
RTVSPropertyOp27
 70
     1
102
RTVSPropertyOp28
 70
     1
102
RTVSPropertyOp29
 70
     1
102
RTVSPropertyOp30
 70
     1
102
RTVSPropertyOp31
 70
     1
102
RTVSPropertyOp32
 70
     1
  0
XRECORD
  5
191
102
{ACAD_REACTORS
330
190
102
}
330
190
100
AcDbXrecord
280
     1
102
RTVSPropertyOp0
 70
     1
102
RTVSPropertyOp1
 70
     1
102
RTVSPropertyOp2
 70
     1
102
RTVSPropertyOp3
 70
     1
102
RTVSPropertyOp4
 70
     1
102
RTVSPropertyOp5
 70
     1
102
RTVSPropertyOp6
 70
     1
102
RTVSPropertyOp7
 70
     1
102
RTVSPropertyOp8
 70
     1
102
RTVSPropertyOp9
 70
     1
102
RTVSPropertyOp10
 70
     1
102
RTVSPropertyOp11
 70
     1
102
RTVSPropertyOp12
 70
     1
102
RTVSPropertyOp13
 70
     1
102
RTVSPropertyOp14
 70
     1
102
RTVSPropertyOp15
 70
     1
102
RTVSPropertyOp16
 70
     1
102
RTVSPropertyOp17
 70
     1
102
RTVSPropertyOp18
 70
     1
102
RTVSPropertyOp19
 70
     1
102
RTVSPropertyOp20
 70
     1
102
RTVSPropertyOp21
 70
     1
102
RTVSPropertyOp22
 70
     1
102
RTVSPropertyOp23
 70
     1
102
RTVSPropertyOp24
 70
     1
102
RTVSPropertyOp25
 70
     1
102
RTVSPropertyOp26
 70
     1
102
RTVSPropertyOp27
 70
     1
102
RTVSPropertyOp28
 70
     1
102
RTVSPropertyOp29
 70
     1
102
RTVSPropertyOp30
 70
     1
102
RTVSPropertyOp31
 70
     1
102
RTVSPropertyOp32
 70
     1
  0
XRECORD
  5
185
102
{ACAD_REACTORS
330
184
102
}
330
184
100
AcDbXrecord
280
     1
102
RTVSPropertyOp0
 70
     1
102
RTVSPropertyOp1
 70
     1
102
RTVSPropertyOp2
 70
     1
102
RTVSPropertyOp3
 70
     1
102
RTVSPropertyOp4
 70
     1
102
RTVSPropertyOp5
 70
     1
102
RTVSPropertyOp6
 70
     1
102
RTVSPropertyOp7
 70
     1
102
RTVSPropertyOp8
 70
     1
102
RTVSPropertyOp9
 70
     1
102
RTVSPropertyOp10
 70
     1
102
RTVSPropertyOp11
 70
     1
102
RTVSPropertyOp12
 70
     1
102
RTVSPropertyOp13
 70
     1
102
RTVSPropertyOp14
 70
     1
102
RTVSPropertyOp15
 70
     1
102
RTVSPropertyOp16
 70
     1
102
RTVSPropertyOp17
 70
     1
102
RTVSPropertyOp18
 70
     1
102
RTVSPropertyOp19
 70
     1
102
RTVSPropertyOp20
 70
     1
102
RTVSPropertyOp21
 70
     1
102
RTVSPropertyOp22
 70
     1
102
RTVSPropertyOp23
 70
     1
102
RTVSPropertyOp24
 70
     1
102
RTVSPropertyOp25
 70
     1
102
RTVSPropertyOp26
 70
     1
102
RTVSPropertyOp27
 70
     1
102
RTVSPropertyOp28
 70
     1
102
RTVSPropertyOp29
 70
     1
102
RTVSPropertyOp30
 70
     1
102
RTVSPropertyOp31
 70
     1
102
RTVSPropertyOp32
 70
     1
  0
XRECORD
  5
187
102
{ACAD_REACTORS
330
186
102
}
330
186
100
AcDbXrecord
280
     1
102
RTVSPropertyOp0
 70
     1
102
RTVSPropertyOp1
 70
     1
102
RTVSPropertyOp2
 70
     1
102
RTVSPropertyOp3
 70
     1
102
RTVSPropertyOp4
 70
     1
102
RTVSPropertyOp5
 70
     1
102
RTVSPropertyOp6
 70
     1
102
RTVSPropertyOp7
 70
     1
102
RTVSPropertyOp8
 70
     1
102
RTVSPropertyOp9
 70
     1
102
RTVSPropertyOp10
 70
     1
102
RTVSPropertyOp11
 70
     1
102
RTVSPropertyOp12
 70
     1
102
RTVSPropertyOp13
 70
     1
102
RTVSPropertyOp14
 70
     1
102
RTVSPropertyOp15
 70
     1
102
RTVSPropertyOp16
 70
     1
102
RTVSPropertyOp17
 70
     1
102
RTVSPropertyOp18
 70
     1
102
RTVSPropertyOp19
 70
     1
102
RTVSPropertyOp20
 70
     1
102
RTVSPropertyOp21
 70
     1
102
RTVSPropertyOp22
 70
     1
102
RTVSPropertyOp23
 70
     1
102
RTVSPropertyOp24
 70
     1
102
RTVSPropertyOp25
 70
     1
102
RTVSPropertyOp26
 70
     1
102
RTVSPropertyOp27
 70
     1
102
RTVSPropertyOp28
 70
     1
102
RTVSPropertyOp29
 70
     1
102
RTVSPropertyOp30
 70
     1
102
RTVSPropertyOp31
 70
     1
102
RTVSPropertyOp32
 70
     1
  0
XRECORD
  5
18F
102
{ACAD_REACTORS
330
18E
102
}
330
18E
100
AcDbXrecord
280
     1
102
RTVSPropertyOp0
 70
     1
102
RTVSPropertyOp1
 70
     1
102
RTVSPropertyOp2
 70
     1
102
RTVSPropertyOp3
 70
     1
102
RTVSPropertyOp4
 70
     1
102
RTVSPropertyOp5
 70
     1
102
RTVSPropertyOp6
 70
     1
102
RTVSPropertyOp7
 70
     1
102
RTVSPropertyOp8
 70
     1
102
RTVSPropertyOp9
 70
     1
102
RTVSPropertyOp10
 70
     1
102
RTVSPropertyOp11
 70
     1
102
RTVSPropertyOp12
 70
     1
102
RTVSPropertyOp13
 70
     1
102
RTVSPropertyOp14
 70
     1
102
RTVSPropertyOp15
 70
     1
102
RTVSPropertyOp16
 70
     1
102
RTVSPropertyOp17
 70
     1
102
RTVSPropertyOp18
 70
     1
102
RTVSPropertyOp19
 70
     1
102
RTVSPropertyOp20
 70
     1
102
RTVSPropertyOp21
 70
     1
102
RTVSPropertyOp22
 70
     1
102
RTVSPropertyOp23
 70
     1
102
RTVSPropertyOp24
 70
     1
102
RTVSPropertyOp25
 70
     1
102
RTVSPropertyOp26
 70
     1
102
RTVSPropertyOp27
 70
     1
102
RTVSPropertyOp28
 70
     1
102
RTVSPropertyOp29
 70
     1
102
RTVSPropertyOp30
 70
     1
102
RTVSPropertyOp31
 70
     1
102
RTVSPropertyOp32
 70
     1
  0
XRECORD
  5
173
102
{ACAD_REACTORS
330
172
102
}
330
172
100
AcDbXrecord
280
     1
102
RTVSPropertyOp0
 70
     1
102
RTVSPropertyOp1
 70
     1
102
RTVSPropertyOp2
 70
     1
102
RTVSPropertyOp3
 70
     1
102
RTVSPropertyOp4
 70
     1
102
RTVSPropertyOp5
 70
     1
102
RTVSPropertyOp6
 70
     1
102
RTVSPropertyOp7
 70
     1
102
RTVSPropertyOp8
 70
     1
102
RTVSPropertyOp9
 70
     1
102
RTVSPropertyOp10
 70
     1
102
RTVSPropertyOp11
 70
     1
102
RTVSPropertyOp12
 70
     1
102
RTVSPropertyOp13
 70
     1
102
RTVSPropertyOp14
 70
     1
102
RTVSPropertyOp15
 70
     1
102
RTVSPropertyOp16
 70
     1
102
RTVSPropertyOp17
 70
     1
102
RTVSPropertyOp18
 70
     1
102
RTVSPropertyOp19
 70
     1
102
RTVSPropertyOp20
 70
     1
102
RTVSPropertyOp21
 70
     1
102
RTVSPropertyOp22
 70
     1
102
RTVSPropertyOp23
 70
     1
102
RTVSPropertyOp24
 70
     1
102
RTVSPropertyOp25
 70
     1
102
RTVSPropertyOp26
 70
     1
102
RTVSPropertyOp27
 70
     1
102
RTVSPropertyOp28
 70
     1
102
RTVSPropertyOp29
 70
     1
102
RTVSPropertyOp30
 70
     1
102
RTVSPropertyOp31
 70
     1
102
RTVSPropertyOp32
 70
     1
  0
XRECORD
  5
175
102
{ACAD_REACTORS
330
174
102
}
330
174
100
AcDbXrecord
280
     1
102
RTVSPropertyOp0
 70
     1
102
RTVSPropertyOp1
 70
     1
102
RTVSPropertyOp2
 70
     1
102
RTVSPropertyOp3
 70
     1
102
RTVSPropertyOp4
 70
     1
102
RTVSPropertyOp5
 70
     1
102
RTVSPropertyOp6
 70
     1
102
RTVSPropertyOp7
 70
     1
102
RTVSPropertyOp8
 70
     1
102
RTVSPropertyOp9
 70
     1
102
RTVSPropertyOp10
 70
     1
102
RTVSPropertyOp11
 70
     1
102
RTVSPropertyOp12
 70
     1
102
RTVSPropertyOp13
 70
     1
102
RTVSPropertyOp14
 70
     1
102
RTVSPropertyOp15
 70
     1
102
RTVSPropertyOp16
 70
     1
102
RTVSPropertyOp17
 70
     1
102
RTVSPropertyOp18
 70
     1
102
RTVSPropertyOp19
 70
     1
102
RTVSPropertyOp20
 70
     1
102
RTVSPropertyOp21
 70
     1
102
RTVSPropertyOp22
 70
     1
102
RTVSPropertyOp23
 70
     1
102
RTVSPropertyOp24
 70
     1
102
RTVSPropertyOp25
 70
     1
102
RTVSPropertyOp26
 70
     1
102
RTVSPropertyOp27
 70
     1
102
RTVSPropertyOp28
 70
     1
102
RTVSPropertyOp29
 70
     1
102
RTVSPropertyOp30
 70
     1
102
RTVSPropertyOp31
 70
     1
102
RTVSPropertyOp32
 70
     1
  0
XRECORD
  5
177
102
{ACAD_REACTORS
330
176
102
}
330
176
100
AcDbXrecord
280
     1
102
RTVSPropertyOp0
 70
     1
102
RTVSPropertyOp1
 70
     1
102
RTVSPropertyOp2
 70
     1
102
RTVSPropertyOp3
 70
     1
102
RTVSPropertyOp4
 70
     1
102
RTVSPropertyOp5
 70
     1
102
RTVSPropertyOp6
 70
     1
102
RTVSPropertyOp7
 70
     1
102
RTVSPropertyOp8
 70
     1
102
RTVSPropertyOp9
 70
     1
102
RTVSPropertyOp10
 70
     1
102
RTVSPropertyOp11
 70
     1
102
RTVSPropertyOp12
 70
     1
102
RTVSPropertyOp13
 70
     1
102
RTVSPropertyOp14
 70
     1
102
RTVSPropertyOp15
 70
     1
102
RTVSPropertyOp16
 70
     1
102
RTVSPropertyOp17
 70
     1
102
RTVSPropertyOp18
 70
     1
102
RTVSPropertyOp19
 70
     1
102
RTVSPropertyOp20
 70
     1
102
RTVSPropertyOp21
 70
     1
102
RTVSPropertyOp22
 70
     1
102
RTVSPropertyOp23
 70
     1
102
RTVSPropertyOp24
 70
     1
102
RTVSPropertyOp25
 70
     1
102
RTVSPropertyOp26
 70
     1
102
RTVSPropertyOp27
 70
     1
102
RTVSPropertyOp28
 70
     1
102
RTVSPropertyOp29
 70
     1
102
RTVSPropertyOp30
 70
     1
102
RTVSPropertyOp31
 70
     1
102
RTVSPropertyOp32
 70
     1
  0
XRECORD
  5
179
102
{ACAD_REACTORS
330
178
102
}
330
178
100
AcDbXrecord
280
     1
102
RTVSPropertyOp0
 70
     1
102
RTVSPropertyOp1
 70
     1
102
RTVSPropertyOp2
 70
     1
102
RTVSPropertyOp3
 70
     1
102
RTVSPropertyOp4
 70
     1
102
RTVSPropertyOp5
 70
     1
102
RTVSPropertyOp6
 70
     1
102
RTVSPropertyOp7
 70
     1
102
RTVSPropertyOp8
 70
     1
102
RTVSPropertyOp9
 70
     1
102
RTVSPropertyOp10
 70
     1
102
RTVSPropertyOp11
 70
     1
102
RTVSPropertyOp12
 70
     1
102
RTVSPropertyOp13
 70
     1
102
RTVSPropertyOp14
 70
     1
102
RTVSPropertyOp15
 70
     1
102
RTVSPropertyOp16
 70
     1
102
RTVSPropertyOp17
 70
     1
102
RTVSPropertyOp18
 70
     1
102
RTVSPropertyOp19
 70
     1
102
RTVSPropertyOp20
 70
     1
102
RTVSPropertyOp21
 70
     1
102
RTVSPropertyOp22
 70
     1
102
RTVSPropertyOp23
 70
     1
102
RTVSPropertyOp24
 70
     1
102
RTVSPropertyOp25
 70
     1
102
RTVSPropertyOp26
 70
     1
102
RTVSPropertyOp27
 70
     1
102
RTVSPropertyOp28
 70
     1
102
RTVSPropertyOp29
 70
     1
102
RTVSPropertyOp30
 70
     1
102
RTVSPropertyOp31
 70
     1
102
RTVSPropertyOp32
 70
     1
  0
XRECORD
  5
18D
102
{ACAD_REACTORS
330
18C
102
}
330
18C
100
AcDbXrecord
280
     1
102
RTVSPropertyOp0
 70
     1
102
RTVSPropertyOp1
 70
     1
102
RTVSPropertyOp2
 70
     1
102
RTVSPropertyOp3
 70
     1
102
RTVSPropertyOp4
 70
     1
102
RTVSPropertyOp5
 70
     1
102
RTVSPropertyOp6
 70
     1
102
RTVSPropertyOp7
 70
     1
102
RTVSPropertyOp8
 70
     1
102
RTVSPropertyOp9
 70
     1
102
RTVSPropertyOp10
 70
     1
102
RTVSPropertyOp11
 70
     1
102
RTVSPropertyOp12
 70
     1
102
RTVSPropertyOp13
 70
     1
102
RTVSPropertyOp14
 70
     1
102
RTVSPropertyOp15
 70
     1
102
RTVSPropertyOp16
 70
     1
102
RTVSPropertyOp17
 70
     1
102
RTVSPropertyOp18
 70
     1
102
RTVSPropertyOp19
 70
     1
102
RTVSPropertyOp20
 70
     1
102
RTVSPropertyOp21
 70
     1
102
RTVSPropertyOp22
 70
     1
102
RTVSPropertyOp23
 70
     1
102
RTVSPropertyOp24
 70
     1
102
RTVSPropertyOp25
 70
     1
102
RTVSPropertyOp26
 70
     1
102
RTVSPropertyOp27
 70
     1
102
RTVSPropertyOp28
 70
     1
102
RTVSPropertyOp29
 70
     1
102
RTVSPropertyOp30
 70
     1
102
RTVSPropertyOp31
 70
     1
102
RTVSPropertyOp32
 70
     1
  0
XRECORD
  5
183
102
{ACAD_REACTORS
330
182
102
}
330
182
100
AcDbXrecord
280
     1
102
RTVSPropertyOp0
 70
     1
102
RTVSPropertyOp1
 70
     1
102
RTVSPropertyOp2
 70
     1
102
RTVSPropertyOp3
 70
     1
102
RTVSPropertyOp4
 70
     1
102
RTVSPropertyOp5
 70
     1
102
RTVSPropertyOp6
 70
     1
102
RTVSPropertyOp7
 70
     1
102
RTVSPropertyOp8
 70
     1
102
RTVSPropertyOp9
 70
     1
102
RTVSPropertyOp10
 70
     1
102
RTVSPropertyOp11
 70
     1
102
RTVSPropertyOp12
 70
     1
102
RTVSPropertyOp13
 70
     1
102
RTVSPropertyOp14
 70
     1
102
RTVSPropertyOp15
 70
     1
102
RTVSPropertyOp16
 70
     1
102
RTVSPropertyOp17
 70
     1
102
RTVSPropertyOp18
 70
     1
102
RTVSPropertyOp19
 70
     1
102
RTVSPropertyOp20
 70
     1
102
RTVSPropertyOp21
 70
     1
102
RTVSPropertyOp22
 70
     1
102
RTVSPropertyOp23
 70
     1
102
RTVSPropertyOp24
 70
     1
102
RTVSPropertyOp25
 70
     1
102
RTVSPropertyOp26
 70
     1
102
RTVSPropertyOp27
 70
     1
102
RTVSPropertyOp28
 70
     1
102
RTVSPropertyOp29
 70
     1
102
RTVSPropertyOp30
 70
     1
102
RTVSPropertyOp31
 70
     1
102
RTVSPropertyOp32
 70
     1
  0
XRECORD
  5
18B
102
{ACAD_REACTORS
330
18A
102
}
330
18A
100
AcDbXrecord
280
     1
102
RTVSPropertyOp0
 70
     1
102
RTVSPropertyOp1
 70
     1
102
RTVSPropertyOp2
 70
     1
102
RTVSPropertyOp3
 70
     1
102
RTVSPropertyOp4
 70
     1
102
RTVSPropertyOp5
 70
     1
102
RTVSPropertyOp6
 70
     1
102
RTVSPropertyOp7
 70
     1
102
RTVSPropertyOp8
 70
     1
102
RTVSPropertyOp9
 70
     1
102
RTVSPropertyOp10
 70
     1
102
RTVSPropertyOp11
 70
     1
102
RTVSPropertyOp12
 70
     1
102
RTVSPropertyOp13
 70
     1
102
RTVSPropertyOp14
 70
     1
102
RTVSPropertyOp15
 70
     1
102
RTVSPropertyOp16
 70
     1
102
RTVSPropertyOp17
 70
     1
102
RTVSPropertyOp18
 70
     1
102
RTVSPropertyOp19
 70
     1
102
RTVSPropertyOp20
 70
     1
102
RTVSPropertyOp21
 70
     1
102
RTVSPropertyOp22
 70
     1
102
RTVSPropertyOp23
 70
     1
102
RTVSPropertyOp24
 70
     1
102
RTVSPropertyOp25
 70
     1
102
RTVSPropertyOp26
 70
     1
102
RTVSPropertyOp27
 70
     1
102
RTVSPropertyOp28
 70
     1
102
RTVSPropertyOp29
 70
     1
102
RTVSPropertyOp30
 70
     1
102
RTVSPropertyOp31
 70
     1
102
RTVSPropertyOp32
 70
     1
  0
ENDSEC
  0
EOF
