  0
SECTION
  2
HEADER
  9
$ACADVER
  1
AC1015
  9
$ACADMAINTVER
 70
     6
  9
$DWGCODEPAGE
  3
ANSI_932
  9
$INSBASE
 10
0.0
 20
0.0
 30
0.0
  9
$EXTMIN
 10
0.0
 20
0.0
 30
0.0
  9
$EXTMAX
 10
210.0
 20
297.0
 30
0.0
  9
$LIMMIN
 10
0.0
 20
0.0
  9
$LIMMAX
 10
12.0
 20
9.0
  9
$ORTHOMODE
 70
     0
  9
$REGENMODE
 70
     1
  9
$FILLMODE
 70
     1
  9
$QTEXTMODE
 70
     0
  9
$MIRRTEXT
 70
     1
  9
$LTSCALE
 40
1.0
  9
$ATTMODE
 70
     1
  9
$TEXTSIZE
 40
0.2
  9
$TRACEWID
 40
0.05
  9
$TEXTSTYLE
  7
Standard
  9
$CLAYER
  8
0
  9
$CELTYPE
  6
ByLayer
  9
$CECOLOR
 62
   256
  9
$CELTSCALE
 40
1.0
  9
$DISPSILH
 70
     0
  9
$DIMSCALE
 40
1.0
  9
$DIMASZ
 40
0.18
  9
$DIMEXO
 40
0.0625
  9
$DIMDLI
 40
0.38
  9
$DIMRND
 40
0.0
  9
$DIMDLE
 40
0.0
  9
$DIMEXE
 40
0.18
  9
$DIMTP
 40
0.0
  9
$DIMTM
 40
0.0
  9
$DIMTXT
 40
0.18
  9
$DIMCEN
 40
0.09
  9
$DIMTSZ
 40
0.0
  9
$DIMTOL
 70
     0
  9
$DIMLIM
 70
     0
  9
$DIMTIH
 70
     1
  9
$DIMTOH
 70
     1
  9
$DIMSE1
 70
     0
  9
$DIMSE2
 70
     0
  9
$DIMTAD
 70
     0
  9
$DIMZIN
 70
     0
  9
$DIMBLK
  1

  9
$DIMASO
 70
     1
  9
$DIMSHO
 70
     1
  9
$DIMPOST
  1

  9
$DIMAPOST
  1

  9
$DIMALT
 70
     0
  9
$DIMALTD
 70
     2
  9
$DIMALTF
 40
25.4
  9
$DIMLFAC
 40
1.0
  9
$DIMTOFL
 70
     0
  9
$DIMTVP
 40
0.0
  9
$DIMTIX
 70
     0
  9
$DIMSOXD
 70
     0
  9
$DIMSAH
 70
     0
  9
$DIMBLK1
  1

  9
$DIMBLK2
  1

  9
$DIMSTYLE
  2
Standard
  9
$DIMCLRD
 70
     0
  9
$DIMCLRE
 70
     0
  9
$DIMCLRT
 70
     0
  9
$DIMTFAC
 40
1.0
  9
$DIMGAP
 40
0.09
  9
$DIMJUST
 70
     0
  9
$DIMSD1
 70
     0
  9
$DIMSD2
 70
     0
  9
$DIMTOLJ
 70
     1
  9
$DIMTZIN
 70
     0
  9
$DIMALTZ
 70
     0
  9
$DIMALTTZ
 70
     0
  9
$DIMUPT
 70
     0
  9
$DIMDEC
 70
     4
  9
$DIMTDEC
 70
     4
  9
$DIMALTU
 70
     2
  9
$DIMALTTD
 70
     2
  9
$DIMTXSTY
  7
Standard
  9
$DIMAUNIT
 70
     0
  9
$DIMADEC
 70
     0
  9
$DIMALTRND
 40
0.0
  9
$DIMAZIN
 70
     0
  9
$DIMDSEP
 70
    46
  9
$DIMATFIT
 70
     3
  9
$DIMFRAC
 70
     0
  9
$DIMLDRBLK
  1

  9
$DIMLUNIT
 70
     2
  9
$DIMLWD
 70
    -2
  9
$DIMLWE
 70
    -2
  9
$DIMTMOVE
 70
     0
  9
$LUNITS
 70
     2
  9
$LUPREC
 70
     4
  9
$SKETCHINC
 40
0.1
  9
$FILLETRAD
 40
0.5
  9
$AUNITS
 70
     0
  9
$AUPREC
 70
     0
  9
$MENU
  1
.
  9
$ELEVATION
 40
0.0
  9
$PELEVATION
 40
0.0
  9
$THICKNESS
 40
0.0
  9
$LIMCHECK
 70
     0
  9
$CHAMFERA
 40
0.5
  9
$CHAMFERB
 40
0.5
  9
$CHAMFERC
 40
1.0
  9
$CHAMFERD
 40
0.0
  9
$SKPOLY
 70
     0
  9
$TDCREATE
 40
2459761.621289283
  9
$TDUCREATE
 40
2459761.246289283
  9
$TDUPDATE
 40
2459761.621291088
  9
$TDUUPDATE
 40
2459761.246291088
  9
$TDINDWG
 40
0.0000000116
  9
$TDUSRTIMER
 40
0.0000000116
  9
$USRTIMER
 70
     1
  9
$ANGBASE
 50
0.0
  9
$ANGDIR
 70
     0
  9
$PDMODE
 70
     0
  9
$PDSIZE
 40
0.0
  9
$PLINEWID
 40
0.0
  9
$SPLFRAME
 70
     0
  9
$SPLINETYPE
 70
     6
  9
$SPLINESEGS
 70
     8
  9
$HANDSEED
  5
166
  9
$SURFTAB1
 70
     6
  9
$SURFTAB2
 70
     6
  9
$SURFTYPE
 70
     6
  9
$SURFU
 70
     6
  9
$SURFV
 70
     6
  9
$UCSBASE
  2

  9
$UCSNAME
  2

  9
$UCSORG
 10
0.0
 20
0.0
 30
0.0
  9
$UCSXDIR
 10
1.0
 20
0.0
 30
0.0
  9
$UCSYDIR
 10
0.0
 20
1.0
 30
0.0
  9
$UCSORTHOREF
  2

  9
$UCSORTHOVIEW
 70
     0
  9
$UCSORGTOP
 10
0.0
 20
0.0
 30
0.0
  9
$UCSORGBOTTOM
 10
0.0
 20
0.0
 30
0.0
  9
$UCSORGLEFT
 10
0.0
 20
0.0
 30
0.0
  9
$UCSORGRIGHT
 10
0.0
 20
0.0
 30
0.0
  9
$UCSORGFRONT
 10
0.0
 20
0.0
 30
0.0
  9
$UCSORGBACK
 10
0.0
 20
0.0
 30
0.0
  9
$PUCSBASE
  2

  9
$PUCSNAME
  2

  9
$PUCSORG
 10
0.0
 20
0.0
 30
0.0
  9
$PUCSXDIR
 10
1.0
 20
0.0
 30
0.0
  9
$PUCSYDIR
 10
0.0
 20
1.0
 30
0.0
  9
$PUCSORTHOREF
  2

  9
$PUCSORTHOVIEW
 70
     0
  9
$PUCSORGTOP
 10
0.0
 20
0.0
 30
0.0
  9
$PUCSORGBOTTOM
 10
0.0
 20
0.0
 30
0.0
  9
$PUCSORGLEFT
 10
0.0
 20
0.0
 30
0.0
  9
$PUCSORGRIGHT
 10
0.0
 20
0.0
 30
0.0
  9
$PUCSORGFRONT
 10
0.0
 20
0.0
 30
0.0
  9
$PUCSORGBACK
 10
0.0
 20
0.0
 30
0.0
  9
$USERI1
 70
     0
  9
$USERI2
 70
     0
  9
$USERI3
 70
     0
  9
$USERI4
 70
     0
  9
$USERI5
 70
     0
  9
$USERR1
 40
18.1
  9
$USERR2
 40
0.0
  9
$USERR3
 40
0.0
  9
$USERR4
 40
0.0
  9
$USERR5
 40
0.0
  9
$WORLDVIEW
 70
     1
  9
$SHADEDGE
 70
     3
  9
$SHADEDIF
 70
    70
  9
$TILEMODE
 70
     1
  9
$MAXACTVP
 70
    64
  9
$PINSBASE
 10
0.0
 20
0.0
 30
0.0
  9
$PLIMCHECK
 70
     0
  9
$PEXTMIN
 10
1.00000000000000E+20
 20
1.00000000000000E+20
 30
1.00000000000000E+20
  9
$PEXTMAX
 10
-1.00000000000000E+20
 20
-1.00000000000000E+20
 30
-1.00000000000000E+20
  9
$PLIMMIN
 10
0.0
 20
0.0
  9
$PLIMMAX
 10
12.0
 20
9.0
  9
$UNITMODE
 70
     0
  9
$VISRETAIN
 70
     1
  9
$PLINEGEN
 70
     0
  9
$PSLTSCALE
 70
     1
  9
$TREEDEPTH
 70
  3020
  9
$CMLSTYLE
  2
Standard
  9
$CMLJUST
 70
     0
  9
$CMLSCALE
 40
1.0
  9
$PROXYGRAPHICS
 70
     1
  9
$MEASUREMENT
 70
     1
  9
$CELWEIGHT
370
    -1
  9
$ENDCAPS
280
     0
  9
$JOINSTYLE
280
     0
  9
$LWDISPLAY
290
     0
  9
$INSUNITS
 70
     4
  9
$HYPERLINKBASE
  1

  9
$STYLESHEET
  1

  9
$XEDIT
290
     1
  9
$CEPSNTYPE
380
     0
  9
$PSTYLEMODE
290
     1
  9
$FINGERPRINTGUID
  2
{F80DD3FD-26A8-43F4-A1E1-612B938B14D2}
  9
$VERSIONGUID
  2
{FAEB1C32-E019-11D5-929B-00C0DF256EC4}
  9
$EXTNAMES
290
     1
  9
$PSVPSCALE
 40
0.0
  9
$OLESTARTUP
290
     0
  0
ENDSEC
  0
SECTION
  2
CLASSES
  0
CLASS
  1
ACDBDICTIONARYWDFLT
  2
AcDbDictionaryWithDefault
  3
ObjectDBX Classes
 90
        0
280
     0
281
     0
  0
CLASS
  1
VISUALSTYLE
  2
AcDbVisualStyle
  3
ObjectDBX Classes
 90
     4095
280
     0
281
     0
  0
CLASS
  1
MATERIAL
  2
AcDbMaterial
  3
ObjectDBX Classes
 90
     1153
280
     0
281
     0
  0
CLASS
  1
DICTIONARYVAR
  2
AcDbDictionaryVar
  3
ObjectDBX Classes
 90
        0
280
     0
281
     0
  0
CLASS
  1
ACDBPLACEHOLDER
  2
AcDbPlaceHolder
  3
ObjectDBX Classes
 90
        0
280
     0
281
     0
  0
CLASS
  1
LAYOUT
  2
AcDbLayout
  3
ObjectDBX Classes
 90
        0
280
     0
281
     0
  0
ENDSEC
  0
SECTION
  2
TABLES
  0
TABLE
  2
VPORT
  5
8
330
0
100
AcDbSymbolTable
 70
     1
  0
VPORT
  5
29
330
8
100
AcDbSymbolTableRecord
100
AcDbViewportTableRecord
  2
*Active
 70
     0
 10
0.0
 20
0.0
 11
1.0
 21
1.0
 12
105.0
 22
148.5
 13
0.0
 23
0.0
 14
0.5
 24
0.5
 15
0.5
 25
0.5
 16
0.0
 26
0.0
 36
1.0
 17
0.0
 27
0.0
 37
0.0
 40
326.7
 41
1.60267857142857
 42
50.0
 43
0.0
 44
0.0
 50
0.0
 51
0.0
 71
     0
 72
   100
 73
     1
 74
     3
 75
     0
 76
     0
 77
     0
 78
     0
281
     0
 65
     1
110
0.0
120
0.0
130
0.0
111
1.0
121
0.0
131
0.0
112
0.0
122
1.0
132
0.0
 79
     0
146
0.0
  0
ENDTAB
  0
TABLE
  2
LTYPE
  5
5
330
0
100
AcDbSymbolTable
 70
     8
  0
LTYPE
  5
14
330
5
100
AcDbSymbolTableRecord
100
AcDbLinetypeTableRecord
  2
ByBlock
 70
     0
  3

 72
    65
 73
     0
 40
0.0
  0
LTYPE
  5
15
330
5
100
AcDbSymbolTableRecord
100
AcDbLinetypeTableRecord
  2
ByLayer
 70
     0
  3

 72
    65
 73
     0
 40
0.0
  0
LTYPE
  5
16
330
5
100
AcDbSymbolTableRecord
100
AcDbLinetypeTableRecord
  2
Continuous
 70
     0
  3
Solid line
 72
    65
 73
     0
 40
0.0
  0
LTYPE
  5
3F
330
5
100
AcDbSymbolTableRecord
100
AcDbLinetypeTableRecord
  2
DASHED
 70
     0
  3
Dashed
 72
    65
 73
     2
 40
15.0
 49
7.0
 74
     0
 49
-8.0
 74
     0
  0
LTYPE
  5
40
330
5
100
AcDbSymbolTableRecord
100
AcDbLinetypeTableRecord
  2
DOTTED
 70
     0
  3
Dotted
 72
    65
 73
     2
 40
1.0
 49
0.0
 74
     0
 49
-1.0
 74
     0
  0
LTYPE
  5
41
330
5
100
AcDbSymbolTableRecord
100
AcDbLinetypeTableRecord
  2
DOT_CENTER
 70
     0
  3
Dot_Center
 72
    65
 73
     4
 40
14.0
 49
12.0
 74
     0
 49
-1.0
 74
     0
 49
0.0
 74
     0
 49
-1.0
 74
     0
  0
LTYPE
  5
42
330
5
100
AcDbSymbolTableRecord
100
AcDbLinetypeTableRecord
  2
LONG_DASHED
 70
     0
  3
Long_Dashed
 72
    65
 73
     2
 40
15.0
 49
10.0
 74
     0
 49
-5.0
 74
     0
  0
LTYPE
  5
43
330
5
100
AcDbSymbolTableRecord
100
AcDbLinetypeTableRecord
  2
DASH_CENTER
 70
     0
  3
Dash_Center
 72
    65
 73
     4
 40
14.0
 49
11.0
 74
     0
 49
-1.0
 74
     0
 49
1.0
 74
     0
 49
-1.0
 74
     0
  0
LTYPE
  5
44
330
5
100
AcDbSymbolTableRecord
100
AcDbLinetypeTableRecord
  2
PHANTOM
 70
     0
  3
Phantom
 72
    65
 73
     6
 40
13.0
 49
10.0
 74
     0
 49
-1.0
 74
     0
 49
0.0
 74
     0
 49
-1.0
 74
     0
 49
0.0
 74
     0
 49
-1.0
 74
     0
  0
LTYPE
  5
45
330
5
100
AcDbSymbolTableRecord
100
AcDbLinetypeTableRecord
  2
CENTER_DASH_DASH
 70
     0
  3
Center_Dash_Dash
 72
    65
 73
     6
 40
14.0
 49
9.0
 74
     0
 49
-1.0
 74
     0
 49
1.0
 74
     0
 49
-1.0
 74
     0
 49
1.0
 74
     0
 49
-1.0
 74
     0
  0
ENDTAB
  0
TABLE
  2
LAYER
  5
2
330
0
100
AcDbSymbolTable
 70
     3
  0
LAYER
  5
10
330
2
100
AcDbSymbolTableRecord
100
AcDbLayerTableRecord
  2
0
 70
     0
 62
     7
  6
Continuous
370
    -3
390
F
  0
LAYER
  5
46
330
2
100
AcDbSymbolTableRecord
100
AcDbLayerTableRecord
  2
1
 70
     0
 62
     7
  6
Continuous
370
    -3
390
F
  0
LAYER
  5
47
330
2
100
AcDbSymbolTableRecord
100
AcDbLayerTableRecord
  2
_U_30EC_U_30A4_U_30E4_U_30FC_1
 70
     0
 62
     7
  6
Continuous
370
    -3
390
F
  0
ENDTAB
  0
TABLE
  2
STYLE
  5
3
330
0
100
AcDbSymbolTable
 70
     3
  0
STYLE
  5
11
330
3
100
AcDbSymbolTableRecord
100
AcDbTextStyleTableRecord
  2
Standard
 70
     0
 40
0.0
 41
1.0
 50
0.0
 71
     0
 42
0.2
  3
txt
  4

  0
STYLE
  5
BA
330
3
100
AcDbSymbolTableRecord
100
AcDbTextStyleTableRecord
  2
CONVERTER_11
 70
     0
 40
0.0
 41
0.89
 50
0.0
 71
     0
 42
0.2
  3
MS Mincho.ttf
  4

1001
ACAD
1000
MS Mincho
1071
    32785
  0
STYLE
  5
100
330
3
100
AcDbSymbolTableRecord
100
AcDbTextStyleTableRecord
  2
CONVERTER_12
 70
     0
 40
0.0
 41
0.9
 50
0.0
 71
     0
 42
0.2
  3
txt.shx
  4

  0
ENDTAB
  0
TABLE
  2
VIEW
  5
6
330
0
100
AcDbSymbolTable
 70
     0
  0
ENDTAB
  0
TABLE
  2
UCS
  5
7
330
0
100
AcDbSymbolTable
 70
     0
  0
ENDTAB
  0
TABLE
  2
APPID
  5
9
330
0
100
AcDbSymbolTable
 70
     1
  0
APPID
  5
12
330
9
100
AcDbSymbolTableRecord
100
AcDbRegAppTableRecord
  2
ACAD
 70
     0
  0
ENDTAB
  0
TABLE
  2
DIMSTYLE
  5
A
330
0
100
AcDbSymbolTable
 70
     5
100
AcDbDimStyleTable
  0
DIMSTYLE
105
27
330
A
100
AcDbSymbolTableRecord
100
AcDbDimStyleTableRecord
  2
Standard
 70
     0
178
     0
340
11
  0
DIMSTYLE
105
116
102
{ACAD_REACTORS
330
117
102
}
330
A
100
AcDbSymbolTableRecord
100
AcDbDimStyleTableRecord
  2
ME10_DIM_10
 70
     0
  3
{\Fgdt;n}<>
 41
3.5
 42
0.0
 44
1.0
 73
     0
 74
     0
 77
     1
 78
     8
140
3.5
147
1.0
172
     1
173
     1
174
     1
175
     1
176
     2
177
     2
271
     2
178
     7
271
     2
340
100
  0
DIMSTYLE
105
121
102
{ACAD_REACTORS
330
122
102
}
330
A
100
AcDbSymbolTableRecord
100
AcDbDimStyleTableRecord
  2
ME10_DIM_11
 70
     0
  3
{\Fgdt;n}<>
 41
3.5
 42
0.0
 44
1.0
 73
     0
 74
     0
 77
     1
 78
     8
140
3.5
147
1.0
172
     1
173
     1
174
     1
175
     1
176
     2
177
     2
271
     2
178
     7
271
     2
340
100
  0
DIMSTYLE
105
12C
102
{ACAD_REACTORS
330
12D
102
}
330
A
100
AcDbSymbolTableRecord
100
AcDbDimStyleTableRecord
  2
ME10_DIM_12
 70
     0
 41
3.5
 42
0.0
 44
1.0
 73
     0
 74
     0
 77
     1
 78
     8
140
3.5
147
1.0
172
     1
173
     1
174
     1
175
     1
176
     2
177
     2
271
     2
178
     7
271
     2
340
100
  0
DIMSTYLE
105
139
102
{ACAD_REACTORS
330
13A
102
}
330
A
100
AcDbSymbolTableRecord
100
AcDbDimStyleTableRecord
  2
ME10_DIM_13
 70
     0
 41
3.5
 42
0.0
 44
1.0
 73
     0
 74
     0
 77
     1
 78
     8
140
3.5
147
1.0
172
     1
173
     1
174
     1
175
     1
176
     2
177
     2
271
     2
178
     7
271
     2
340
100
  0
ENDTAB
  0
TABLE
  2
BLOCK_RECORD
  5
1
330
0
100
AcDbSymbolTable
 70
     9
  0
BLOCK_RECORD
  5
1F
330
1
100
AcDbSymbolTableRecord
100
AcDbBlockTableRecord
  2
*Model_Space
340
22
  0
BLOCK_RECORD
  5
1B
330
1
100
AcDbSymbolTableRecord
100
AcDbBlockTableRecord
  2
*Paper_Space
340
1E
  0
BLOCK_RECORD
  5
23
330
1
100
AcDbSymbolTableRecord
100
AcDbBlockTableRecord
  2
*Paper_Space0
340
26
  0
BLOCK_RECORD
  5
48
330
1
100
AcDbSymbolTableRecord
100
AcDbBlockTableRecord
  2
開示A4
340
0
102
{BLKREFS
331
4C
102
}
  0
BLOCK_RECORD
  5
4B
330
1
100
AcDbSymbolTableRecord
100
AcDbBlockTableRecord
  2
開示A4枠
340
0
102
{BLKREFS
331
55
102
}
  0
BLOCK_RECORD
  5
4F
330
1
100
AcDbSymbolTableRecord
100
AcDbBlockTableRecord
  2
tumami
340
0
102
{BLKREFS
331
56
102
}
  0
BLOCK_RECORD
  5
52
330
1
100
AcDbSymbolTableRecord
100
AcDbBlockTableRecord
  2
huta
340
0
102
{BLKREFS
331
57
102
}
  0
BLOCK_RECORD
  5
10D
330
1
100
AcDbSymbolTableRecord
100
AcDbBlockTableRecord
  2
*D5
340
0
  0
BLOCK_RECORD
  5
118
330
1
100
AcDbSymbolTableRecord
100
AcDbBlockTableRecord
  2
*D6
340
0
  0
BLOCK_RECORD
  5
123
330
1
100
AcDbSymbolTableRecord
100
AcDbBlockTableRecord
  2
*D7
340
0
  0
BLOCK_RECORD
  5
12E
330
1
100
AcDbSymbolTableRecord
100
AcDbBlockTableRecord
  2
*D8
340
0
  0
ENDTAB
  0
ENDSEC
  0
SECTION
  2
BLOCKS
  0
BLOCK
  5
20
330
1F
100
AcDbEntity
  8
0
100
AcDbBlockBegin
  2
*Model_Space
 70
     0
 10
0.0
 20
0.0
 30
0.0
  3
*Model_Space
  1

  0
ENDBLK
  5
21
330
1F
100
AcDbEntity
  8
0
100
AcDbBlockEnd
  0
BLOCK
  5
1C
330
1B
100
AcDbEntity
 67
     1
  8
0
100
AcDbBlockBegin
  2
*Paper_Space
 70
     0
 10
0.0
 20
0.0
 30
0.0
  3
*Paper_Space
  1

  0
ENDBLK
  5
1D
330
1B
100
AcDbEntity
 67
     1
  8
0
100
AcDbBlockEnd
  0
BLOCK
  5
24
330
23
100
AcDbEntity
  8
0
100
AcDbBlockBegin
  2
*Paper_Space0
 70
     0
 10
0.0
 20
0.0
 30
0.0
  3
*Paper_Space0
  1

  0
ENDBLK
  5
25
330
23
100
AcDbEntity
  8
0
100
AcDbBlockEnd
  0
BLOCK
  5
49
330
48
100
AcDbEntity
  8
0
100
AcDbBlockBegin
  2
開示A4
 70
     0
 10
0.0
 20
0.0
 30
0.0
  3
開示A4
  1

  0
POINT
  5
58
330
48
100
AcDbEntity
  8
1
 62
     4
100
AcDbPoint
 10
183.0
 20
14.99999999999999
 30
0.0
  0
POINT
  5
59
330
48
100
AcDbEntity
  8
1
 62
     4
100
AcDbPoint
 10
93.75
 20
16.99999999999999
 30
0.0
  0
POINT
  5
5A
330
48
100
AcDbEntity
  8
1
 62
     4
100
AcDbPoint
 10
85.25
 20
16.99999999999999
 30
0.0
  0
POINT
  5
5B
330
48
100
AcDbEntity
  8
1
 62
     4
100
AcDbPoint
 10
106.5
 20
18.99999999999999
 30
0.0
  0
POINT
  5
5C
330
48
100
AcDbEntity
  8
1
 62
     4
100
AcDbPoint
 10
106.5
 20
12.49999999999999
 30
0.0
  0
POINT
  5
5D
330
48
100
AcDbEntity
  8
1
 62
     4
100
AcDbPoint
 10
112.25
 20
12.49999999999999
 30
0.0
  0
POINT
  5
5E
330
48
100
AcDbEntity
  8
1
 62
     4
100
AcDbPoint
 10
100.75
 20
12.49999999999999
 30
0.0
  0
POINT
  5
5F
330
48
100
AcDbEntity
  8
1
 62
     4
100
AcDbPoint
 10
123.5
 20
18.99999999999999
 30
0.0
  0
POINT
  5
60
330
48
100
AcDbEntity
  8
1
 62
     4
100
AcDbPoint
 10
123.5
 20
12.49999999999999
 30
0.0
  0
POINT
  5
61
330
48
100
AcDbEntity
  8
1
 62
     4
100
AcDbPoint
 10
129.25
 20
12.49999999999999
 30
0.0
  0
POINT
  5
62
330
48
100
AcDbEntity
  8
1
 62
     4
100
AcDbPoint
 10
117.75
 20
12.49999999999999
 30
0.0
  0
POINT
  5
63
330
48
100
AcDbEntity
  8
1
 62
     4
100
AcDbPoint
 10
140.5
 20
18.99999999999999
 30
0.0
  0
POINT
  5
64
330
48
100
AcDbEntity
  8
1
 62
     4
100
AcDbPoint
 10
140.5
 20
12.49999999999999
 30
0.0
  0
POINT
  5
65
330
48
100
AcDbEntity
  8
1
 62
     4
100
AcDbPoint
 10
146.25
 20
12.49999999999999
 30
0.0
  0
POINT
  5
66
330
48
100
AcDbEntity
  8
1
 62
     4
100
AcDbPoint
 10
134.75
 20
12.49999999999999
 30
0.0
  0
POINT
  5
67
330
48
100
AcDbEntity
  8
1
 62
     4
100
AcDbPoint
 10
151.75
 20
12.49999999999999
 30
0.0
  0
POINT
  5
68
330
48
100
AcDbEntity
  8
1
 62
     4
100
AcDbPoint
 10
163.25
 20
12.49999999999999
 30
0.0
  0
POINT
  5
69
330
48
100
AcDbEntity
  8
1
 62
     4
100
AcDbPoint
 10
157.5
 20
12.49999999999999
 30
0.0
  0
POINT
  5
6A
330
48
100
AcDbEntity
  8
1
 62
     4
100
AcDbPoint
 10
56.99999999999999
 20
14.24999999999999
 30
0.0
  0
POINT
  5
6B
330
48
100
AcDbEntity
  8
1
 62
     4
100
AcDbPoint
 10
56.99999999999999
 20
22.74999999999999
 30
0.0
  0
POINT
  5
6C
330
48
100
AcDbEntity
  8
1
 62
     4
100
AcDbPoint
 10
47.49999999999999
 20
282.0000000000003
 30
0.0
  0
POINT
  5
6D
330
48
100
AcDbEntity
  8
1
 62
     4
100
AcDbPoint
 10
157.5
 20
18.99999999999999
 30
0.0
  0
POINT
  5
6E
330
48
100
AcDbEntity
  8
1
 62
     4
100
AcDbPoint
 10
56.99999999999999
 20
16.24999999999999
 30
0.0
  0
POINT
  5
6F
330
48
100
AcDbEntity
  8
1
 62
     4
100
AcDbPoint
 10
56.99999999999999
 20
24.74999999999999
 30
0.0
  0
POINT
  5
70
330
48
100
AcDbEntity
  8
1
 62
     4
100
AcDbPoint
 10
56.99999999999999
 20
20.74999999999999
 30
0.0
  0
POINT
  5
71
330
48
100
AcDbEntity
  8
1
 62
     4
100
AcDbPoint
 10
56.99999999999999
 20
12.24999999999999
 30
0.0
  0
POINT
  5
72
330
48
100
AcDbEntity
  8
1
 62
     4
100
AcDbPoint
 10
34.0
 20
33.99999999999999
 30
0.0
  0
LINE
  5
77
330
48
100
AcDbEntity
  8
1
  6
Continuous
 62
     7
100
AcDbLine
 10
105.0
 20
9.99999999999999
 30
0.0
 11
200.0
 21
9.99999999999999
 31
0.0
  0
LINE
  5
78
330
48
100
AcDbEntity
  8
1
  6
Continuous
 62
     2
100
AcDbLine
 10
105.0
 20
9.99999999999999
 30
0.0
 11
105.0
 21
5.0
 31
0.0
  0
LINE
  5
79
330
48
100
AcDbEntity
  8
1
  6
Continuous
 62
     7
100
AcDbLine
 10
200.0
 20
148.5
 30
0.0
 11
200.0
 21
287.0000000000003
 31
0.0
  0
LINE
  5
7A
330
48
100
AcDbEntity
  8
1
  6
Continuous
 62
     2
100
AcDbLine
 10
200.0
 20
148.5
 30
0.0
 11
205.0
 21
148.5
 31
0.0
  0
LINE
  5
7B
330
48
100
AcDbEntity
  8
1
  6
Continuous
 62
     7
100
AcDbLine
 10
25.0
 20
148.5
 30
0.0
 11
25.0
 21
287.0000000000003
 31
0.0
  0
LINE
  5
7C
330
48
100
AcDbEntity
  8
1
  6
Continuous
 62
     2
100
AcDbLine
 10
25.0
 20
148.5
 30
0.0
 11
20.0
 21
148.5
 31
0.0
  0
LINE
  5
7D
330
48
100
AcDbEntity
  8
1
  6
Continuous
 62
     7
100
AcDbLine
 10
105.0
 20
287.0000000000003
 30
0.0
 11
25.0
 21
287.0000000000003
 31
0.0
  0
LINE
  5
7E
330
48
100
AcDbEntity
  8
1
  6
Continuous
 62
     2
100
AcDbLine
 10
105.0
 20
287.0000000000003
 30
0.0
 11
105.0
 21
292.0000000000003
 31
0.0
  0
LINE
  5
7F
330
48
100
AcDbEntity
  8
1
  6
Continuous
 62
     2
100
AcDbLine
 10
166.0
 20
19.99999999999999
 30
0.0
 11
200.0
 21
19.99999999999999
 31
0.0
  0
LINE
  5
80
330
48
100
AcDbEntity
  8
1
  6
Continuous
 62
     2
100
AcDbLine
 10
98.0
 20
26.99999999999999
 30
0.0
 11
98.0
 21
9.99999999999999
 31
0.0
  0
LINE
  5
81
330
48
100
AcDbEntity
  8
1
  6
Continuous
 62
     2
100
AcDbLine
 10
115.0
 20
26.99999999999999
 30
0.0
 11
115.0
 21
9.99999999999999
 31
0.0
  0
LINE
  5
82
330
48
100
AcDbEntity
  8
1
  6
Continuous
 62
     2
100
AcDbLine
 10
149.0
 20
26.99999999999999
 30
0.0
 11
149.0
 21
9.99999999999999
 31
0.0
  0
LINE
  5
83
330
48
100
AcDbEntity
  8
1
  6
Continuous
 62
     2
100
AcDbLine
 10
132.0
 20
26.99999999999999
 30
0.0
 11
132.0
 21
9.99999999999999
 31
0.0
  0
LINE
  5
84
330
48
100
AcDbEntity
  8
1
  6
Continuous
 62
     2
100
AcDbLine
 10
166.0
 20
26.99999999999999
 30
0.0
 11
166.0
 21
9.99999999999999
 31
0.0
  0
LINE
  5
85
330
48
100
AcDbEntity
  8
1
  6
Continuous
 62
     2
100
AcDbLine
 10
54.99999999999999
 20
277.0000000000003
 30
0.0
 11
25.0
 21
277.0000000000003
 31
0.0
  0
LINE
  5
86
330
48
100
AcDbEntity
  8
1
  6
Continuous
 62
     7
100
AcDbLine
 10
25.0
 20
9.99999999999999
 30
0.0
 11
25.0
 21
148.5
 31
0.0
  0
LINE
  5
87
330
48
100
AcDbEntity
  8
1
  6
Continuous
 62
     2
100
AcDbLine
 10
40.0
 20
287.0000000000003
 30
0.0
 11
40.0
 21
277.0000000000003
 31
0.0
  0
LINE
  5
88
330
48
100
AcDbEntity
  8
1
  6
Continuous
 62
     2
100
AcDbLine
 10
54.99999999999999
 20
287.0000000000003
 30
0.0
 11
54.99999999999999
 21
277.0000000000003
 31
0.0
  0
LINE
  5
89
330
48
100
AcDbEntity
  8
1
  6
Continuous
 62
     2
100
AcDbLine
 10
33.0
 20
41.0
 30
0.0
 11
33.0
 21
26.99999999999999
 31
0.0
  0
LINE
  5
8A
330
48
100
AcDbEntity
  8
1
  6
Continuous
 62
     7
100
AcDbLine
 10
200.0
 20
26.99999999999999
 30
0.0
 11
25.0
 21
26.99999999999999
 31
0.0
  0
LINE
  5
8B
330
48
100
AcDbEntity
  8
1
  6
Continuous
 62
     7
100
AcDbLine
 10
25.0
 20
41.0
 30
0.0
 11
200.0
 21
41.0
 31
0.0
  0
LINE
  5
8C
330
48
100
AcDbEntity
  8
1
  6
PHANTOM
 62
     4
100
AcDbLine
 10
0.0
 20
0.0
 30
0.0
 11
210.0
 21
0.0
 31
0.0
  0
LINE
  5
8D
330
48
100
AcDbEntity
  8
1
  6
PHANTOM
 62
     4
100
AcDbLine
 10
210.0
 20
0.0
 30
0.0
 11
210.0
 21
297.0
 31
0.0
  0
LINE
  5
8E
330
48
100
AcDbEntity
  8
1
  6
PHANTOM
 62
     4
100
AcDbLine
 10
210.0
 20
297.0
 30
0.0
 11
0.0
 21
297.0
 31
0.0
  0
LINE
  5
8F
330
48
100
AcDbEntity
  8
1
  6
PHANTOM
 62
     4
100
AcDbLine
 10
0.0
 20
297.0
 30
0.0
 11
0.0
 21
0.0
 31
0.0
  0
LINE
  5
90
330
48
100
AcDbEntity
  8
1
  6
Continuous
 62
     7
100
AcDbLine
 10
25.0
 20
9.99999999999999
 30
0.0
 11
105.0
 21
9.99999999999999
 31
0.0
  0
LINE
  5
91
330
48
100
AcDbEntity
  8
1
  6
Continuous
 62
     7
100
AcDbLine
 10
200.0
 20
9.99999999999999
 30
0.0
 11
200.0
 21
148.5
 31
0.0
  0
LINE
  5
92
330
48
100
AcDbEntity
  8
1
  6
Continuous
 62
     7
100
AcDbLine
 10
200.0
 20
287.0000000000003
 30
0.0
 11
105.0
 21
287.0000000000003
 31
0.0
  0
LINE
  5
93
330
48
100
AcDbEntity
  8
1
  6
Continuous
 62
     2
100
AcDbLine
 10
25.0
 20
18.49999999999999
 30
0.0
 11
81.0
 21
18.49999999999999
 31
0.0
  0
LINE
  5
94
330
48
100
AcDbEntity
  8
1
  6
Continuous
 62
     2
100
AcDbLine
 10
33.0
 20
26.99999999999999
 30
0.0
 11
33.0
 21
9.99999999999999
 31
0.0
  0
LINE
  5
95
330
48
100
AcDbEntity
  8
1
  6
Continuous
 62
     7
100
AcDbLine
 10
191.0
 20
24.69999999999999
 30
0.0
 11
191.0
 21
22.29999999999998
 31
0.0
  0
LINE
  5
96
330
48
100
AcDbEntity
  8
1
  6
Continuous
 62
     7
100
AcDbLine
 10
191.0
 20
24.69999999999999
 30
0.0
 11
196.0
 21
25.49999999999999
 31
0.0
  0
LINE
  5
97
330
48
100
AcDbEntity
  8
1
  6
Continuous
 62
     7
100
AcDbLine
 10
196.0
 20
25.49999999999999
 30
0.0
 11
196.0
 21
21.49999999999999
 31
0.0
  0
LINE
  5
98
330
48
100
AcDbEntity
  8
1
  6
Continuous
 62
     7
100
AcDbLine
 10
196.0
 20
21.49999999999999
 30
0.0
 11
191.0
 21
22.29999999999998
 31
0.0
  0
LINE
  5
99
330
48
100
AcDbEntity
  8
1
  6
DOT_CENTER
 62
     2
100
AcDbLine
 10
184.0
 20
23.49999999999999
 30
0.0
 11
197.0
 21
23.49999999999999
 31
0.0
  0
LINE
  5
9A
330
48
100
AcDbEntity
  8
1
  6
DOT_CENTER
 62
     2
100
AcDbLine
 10
187.0
 20
26.49999999999999
 30
0.0
 11
187.0
 21
20.49999999999999
 31
0.0
  0
LINE
  5
9B
330
48
100
AcDbEntity
  8
1
  6
Continuous
 62
     2
100
AcDbLine
 10
81.0
 20
26.99999999999999
 30
0.0
 11
81.0
 21
9.99999999999999
 31
0.0
  0
CIRCLE
  5
9C
330
48
100
AcDbEntity
  8
1
  6
Continuous
 62
     7
100
AcDbCircle
 10
103.5
 20
12.49999999999999
 30
0.0
 40
0.2999999999999972
  0
CIRCLE
  5
9D
330
48
100
AcDbEntity
  8
1
  6
Continuous
 62
     7
100
AcDbCircle
 10
109.5
 20
12.49999999999999
 30
0.0
 40
0.2999999999999972
  0
CIRCLE
  5
9E
330
48
100
AcDbEntity
  8
1
  6
Continuous
 62
     7
100
AcDbCircle
 10
120.5
 20
12.49999999999999
 30
0.0
 40
0.2999999999999972
  0
CIRCLE
  5
9F
330
48
100
AcDbEntity
  8
1
  6
Continuous
 62
     7
100
AcDbCircle
 10
126.5
 20
12.49999999999999
 30
0.0
 40
0.2999999999999972
  0
CIRCLE
  5
A0
330
48
100
AcDbEntity
  8
1
  6
Continuous
 62
     7
100
AcDbCircle
 10
137.5
 20
12.49999999999999
 30
0.0
 40
0.3000000000000114
  0
CIRCLE
  5
A1
330
48
100
AcDbEntity
  8
1
  6
Continuous
 62
     7
100
AcDbCircle
 10
143.5
 20
12.49999999999999
 30
0.0
 40
0.3000000000000114
  0
CIRCLE
  5
A2
330
48
100
AcDbEntity
  8
1
  6
Continuous
 62
     7
100
AcDbCircle
 10
160.5
 20
12.49999999999999
 30
0.0
 40
0.3000000000000114
  0
CIRCLE
  5
A3
330
48
100
AcDbEntity
  8
1
  6
Continuous
 62
     7
100
AcDbCircle
 10
154.5
 20
12.49999999999999
 30
0.0
 40
0.3000000000000114
  0
CIRCLE
  5
A4
330
48
100
AcDbEntity
  8
1
  6
Continuous
 62
     7
100
AcDbCircle
 10
187.0
 20
23.49999999999999
 30
0.0
 40
1.200000000000102
  0
CIRCLE
  5
A5
330
48
100
AcDbEntity
  8
1
  6
Continuous
 62
     7
100
AcDbCircle
 10
187.0
 20
23.49999999999999
 30
0.0
 40
2.0
  0
CIRCLE
  5
A6
330
48
100
AcDbEntity
  8
1
  6
DOT_CENTER
 62
     7
100
AcDbCircle
 10
89.5
 20
15.99999999999999
 30
0.0
 40
0.1000000000000227
  0
CIRCLE
  5
A7
330
48
100
AcDbEntity
  8
1
  6
DOT_CENTER
 62
     7
100
AcDbCircle
 10
89.5
 20
17.99999999999999
 30
0.0
 40
0.1000000000000227
  0
SPLINE
  5
A8
102
{ACAD_REACTORS
330
C7
102
}
330
48
100
AcDbEntity
  8
_U_30EC_U_30A4_U_30E4_U_30FC_1
  6
Continuous
 62
     2
100
AcDbSpline
210
0.0
220
0.0
230
1.0
 70
     8
 71
     3
 72
    24
 73
    20
 74
    18
 42
0.000000001
 43
0.0000000001
 44
0.00000001
 40
0.0
 40
0.0
 40
0.0
 40
0.0
 40
0.2211075008753903
 40
0.4273218586245799
 40
0.5080174679239878
 40
0.5914835907870779
 40
0.8143265690193423
 40
1.054651302686658
 40
1.295452694023227
 40
1.518109231328832
 40
1.540864321905445
 40
1.595126460622703
 40
1.659890947896011
 40
1.714153085187365
 40
1.736908174961663
 40
1.764951100735372
 40
1.801562291220957
 40
1.953914424543671
 40
2.126104167379691
 40
2.126104167379691
 40
2.126104167379691
 40
2.126104167379691
 10
185.9375369556889
 20
15.58989295113018
 30
0.0
 10
185.9112579081811
 20
15.53097628234376
 30
0.0
 10
185.8604698894425
 20
15.41711139679258
 30
0.0
 10
185.8131784839111
 20
15.14441958233111
 30
0.0
 10
185.7043482802618
 20
15.24445482575453
 30
0.0
 10
185.5514800279637
 20
15.2711859336733
 30
0.0
 10
185.76861551812
 20
15.48518135017633
 30
0.0
 10
185.7838483674381
 20
15.70332117782486
 30
0.0
 10
185.8906889492
 20
15.88451579066425
 30
0.0
 10
185.8305380947078
 20
16.16913226311394
 30
0.0
 10
185.9334317395402
 20
16.14114089222446
 30
0.0
 10
185.977993346815
 20
16.13243251602296
 30
0.0
 10
186.0380842395396
 20
16.12139654183354
 30
0.0
 10
186.0756619587438
 20
16.1076752305556
 30
0.0
 10
186.1252466928606
 20
16.10756076160225
 30
0.0
 10
186.0930158919325
 20
16.07306592398621
 30
0.0
 10
186.0171802221882
 20
16.08404104537971
 30
0.0
 10
186.0429447159693
 20
15.89858969582449
 30
0.0
 10
186.0055896763849
 20
15.8070231354959
 30
0.0
 10
185.9857704961609
 20
15.75844135397709
 30
0.0
 11
185.9375369556889
 21
15.58989295113018
 31
0.0
 11
185.8616471328552
 21
15.38221708318561
 31
0.0
 11
185.7717402238433
 21
15.19663392356189
 31
0.0
 11
185.701149392311
 21
15.23573272563549
 31
0.0
 11
185.6245525192651
 21
15.26889163187718
 31
0.0
 11
185.7214026947455
 21
15.46958801203538
 31
0.0
 11
185.7994641467471
 21
15.69688163177025
 31
0.0
 11
185.858971692972
 21
15.9302143660869
 31
0.0
 11
185.9001601511226
 21
16.14902808999048
 31
0.0
 11
185.9224183822214
 21
16.1442988922139
 31
0.0
 11
185.975495702534
 21
16.13302157443896
 31
0.0
 11
186.0388460525844
 21
16.11956154999791
 31
0.0
 11
186.091923372897
 21
16.10828423222298
 31
0.0
 11
186.1141816039958
 21
16.10355503444639
 31
0.0
 11
186.096409715746
 21
16.08186250841009
 31
0.0
 11
186.0606122998071
 21
16.07418628445369
 31
0.0
 11
186.028195330148
 21
15.92532288171311
 31
0.0
 11
185.9857704961609
 21
15.75844135397709
 31
0.0
  0
SPLINE
  5
A9
102
{ACAD_REACTORS
330
C7
102
}
330
48
100
AcDbEntity
  8
_U_30EC_U_30A4_U_30E4_U_30FC_1
  6
Continuous
 62
     2
100
AcDbSpline
210
0.0
220
0.0
230
1.0
 70
     8
 71
     3
 72
    70
 73
    66
 74
    64
 42
0.000000001
 43
0.0000000001
 44
0.00000001
 40
0.0
 40
0.0
 40
0.0
 40
0.0
 40
0.0241731073021472
 40
0.0846058988987013
 40
0.1631685280353284
 40
0.2417311571789756
 40
0.3021639488292751
 40
0.3263370654895541
 40
0.3533118254248881
 40
0.4228783438922076
 40
0.5179999095313367
 40
0.6216398239466013
 40
0.7167613891499581
 40
0.7863279069649739
 40
0.8133026791761712
 40
0.8372943998771555
 40
0.8945054261372756
 40
0.9627895541962538
 40
1.020000580349065
 40
1.043992300975163
 40
1.071934345522899
 40
1.113121768772913
 40
1.145225199332231
 40
1.225483775412751
 40
1.329819923771446
 40
1.434156071994318
 40
1.514414647795727
 40
1.546518078208328
 40
1.578974764260101
 40
1.662678849314096
 40
1.777131373668317
 40
1.901833377474707
 40
2.016285900500497
 40
2.099989982527864
 40
2.132446666570223
 40
2.158782354485963
 40
2.216720867907785
 40
2.274659381334244
 40
2.300995069256194
 40
2.333451754066166
 40
2.417155836543847
 40
2.531608358985286
 40
2.656310362283781
 40
2.770762886388914
 40
2.854466971340079
 40
2.886923657363885
 40
2.913597976833314
 40
2.982389642875104
 40
3.076451716946956
 40
3.178937260458552
 40
3.272999334739941
 40
3.341791001059152
 40
3.368465320663459
 40
3.39697608073868
 40
3.472140811845916
 40
3.578408190308606
 40
3.700226892456042
 40
3.822045594634259
 40
3.928312973256366
 40
4.003477705314763
 40
4.031988456866829
 40
4.058324144797632
 40
4.116262658236804
 40
4.174201171400611
 40
4.20053684960855
 40
4.20053684960855
 40
4.20053684960855
 40
4.20053684960855
 10
185.9857704961609
 20
15.75844135397709
 30
0.0
 10
185.9938259544679
 20
15.7584435981169
 30
0.0
 10
186.0220200663241
 20
15.75845146032802
 30
0.0
 10
186.0765534803672
 20
15.75830754828375
 30
0.0
 10
186.1482891808604
 20
15.75909120499902
 30
0.0
 10
186.2236240137062
 20
15.75627570463815
 30
0.0
 10
186.2713052366439
 20
15.76298403400961
 30
0.0
 10
186.3195071245616
 20
15.75197563692437
 30
0.0
 10
186.3062571799873
 20
15.80546402997037
 30
0.0
 10
186.3151093964539
 20
15.86049583543095
 30
0.0
 10
186.3108698036285
 20
15.95419908726113
 30
0.0
 10
186.3133483481279
 20
16.04959482218535
 30
0.0
 10
186.309093870606
 20
16.1435682198339
 30
0.0
 10
186.3179818665846
 20
16.19795062438015
 30
0.0
 10
186.3046977409945
 20
16.25233997691463
 30
0.0
 10
186.3514119277108
 20
16.23842216335359
 30
0.0
 10
186.3943254545736
 20
16.24103877374045
 30
0.0
 10
186.4605443456685
 20
16.23648422450754
 30
0.0
 10
186.5013342271799
 20
16.22778162134161
 30
0.0
 10
186.5525145690818
 20
16.23531799890192
 30
0.0
 10
186.52537204872
 20
16.19349970223282
 30
0.0
 10
186.4803096055707
 20
16.20284992072593
 30
0.0
 10
186.4942065045051
 20
16.13841207371835
 30
0.0
 10
186.4858414431654
 20
16.07378219627398
 30
0.0
 10
186.4903632178398
 20
15.97529141193888
 30
0.0
 10
186.4854741311167
 20
15.87595932842572
 30
0.0
 10
186.4950258992082
 20
15.81293115552972
 30
0.0
 10
186.47997614552
 20
15.74964011499793
 30
0.0
 10
186.5449159457208
 20
15.76515072944273
 30
0.0
 10
186.6116246399497
 20
15.75499387697816
 30
0.0
 10
186.7241435470827
 20
15.75988800099372
 30
0.0
 10
186.8390235448953
 20
15.75691204732788
 30
0.0
 10
186.9519871999747
 20
15.76221664184995
 30
0.0
 10
187.0176267597677
 20
15.75107306472093
 30
0.0
 10
187.0816276691053
 20
15.76744532319861
 30
0.0
 10
187.070314288919
 20
15.71761689905277
 30
0.0
 10
187.077533987151
 20
15.67416715212122
 30
0.0
 10
187.0703142611269
 20
15.63071745587441
 30
0.0
 10
187.0816277175994
 20
15.5808889519687
 30
0.0
 10
187.0176263598971
 20
15.59726166091356
 30
0.0
 10
186.9519921240459
 20
15.58611271661582
 30
0.0
 10
186.838997431733
 20
15.59144857206848
 30
0.0
 10
186.7242456548644
 20
15.58834345663816
 30
0.0
 10
186.611318368686
 20
15.59364894682583
 30
0.0
 10
186.5455220903585
 20
15.58257300019587
 30
0.0
 10
186.4816097975358
 20
15.59887597847612
 30
0.0
 10
186.4936015165126
 20
15.54423524395736
 30
0.0
 10
186.4862104613005
 20
15.48854295047837
 30
0.0
 10
186.4892684841982
 20
15.39649689140567
 30
0.0
 10
186.4893422785684
 20
15.301791098731
 30
0.0
 10
186.4860313578359
 20
15.20952782902265
 30
0.0
 10
186.4939505989904
 20
15.1543576873614
 30
0.0
 10
186.4815076611618
 20
15.10058169100138
 30
0.0
 10
186.5389116551631
 20
15.11453768862782
 30
0.0
 10
186.5994708140383
 20
15.10511457884229
 30
0.0
 10
186.7048680855081
 20
15.10942885928706
 30
0.0
 10
186.8204294070622
 20
15.10835504612033
 30
0.0
 10
186.9359688877796
 20
15.10725965900997
 30
0.0
 10
187.0414181130841
 20
15.11162525770635
 30
0.0
 10
187.1018680471803
 20
15.10209426030673
 30
0.0
 10
187.1592837739111
 20
15.11617289606382
 30
0.0
 10
187.1477773876709
 20
15.06707153265684
 30
0.0
 10
187.1537566781749
 20
15.0256465801865
 30
0.0
 10
187.1520311050802
 20
14.97651677966695
 30
0.0
 10
187.1521500122971
 20
14.94854428447607
 30
0.0
 10
187.1521871691833
 20
14.93980288195949
 30
0.0
 11
185.9857704961609
 21
15.75844135397709
 31
0.0
 11
186.0099436128282
 21
15.75844135397709
 31
0.0
 11
186.0703764044962
 21
15.75844135397709
 31
0.0
 11
186.1489390336648
 21
15.75844135397709
 31
0.0
 11
186.2275016628334
 21
15.75844135397709
 31
0.0
 11
186.2879344545015
 21
15.75844135397709
 31
0.0
 11
186.3121075711687
 21
15.75844135397709
 31
0.0
 11
186.3121075711687
 21
15.78541612620067
 31
0.0
 11
186.3121075711687
 21
15.85498264404042
 31
0.0
 11
186.3121075711687
 21
15.95010420924989
 31
0.0
 11
186.3121075711687
 21
16.05374412358259
 31
0.0
 11
186.3121075711687
 21
16.14886568879205
 31
0.0
 11
186.3121075711687
 21
16.21843220663181
 31
0.0
 11
186.3121075711687
 21
16.24540697885539
 31
0.0
 11
186.3360407604892
 21
16.24373213107802
 31
0.0
 11
186.3931122119458
 21
16.23973826330123
 31
0.0
 11
186.461229750781
 21
16.23497138885795
 31
0.0
 11
186.5183012022376
 21
16.23097752108115
 31
0.0
 11
186.5422343915581
 21
16.22930267330379
 31
0.0
 11
186.5274972731229
 21
16.20556293372637
 31
0.0
 11
186.4886640249976
 21
16.19183767331309
 31
0.0
 11
186.4886640249976
 21
16.15973424225116
 31
0.0
 11
186.4886640249976
 21
16.07947566459635
 31
0.0
 11
186.4886640249976
 21
15.97513951364509
 31
0.0
 11
186.4886640249976
 21
15.87080336269383
 31
0.0
 11
186.4886640249976
 21
15.79054478503901
 31
0.0
 11
186.4886640249976
 21
15.75844135397709
 31
0.0
 11
186.5211207110824
 21
15.75844135397709
 31
0.0
 11
186.6048247962486
 21
15.75844135397709
 31
0.0
 11
186.7192773208634
 21
15.75844135397709
 31
0.0
 11
186.8439793252946
 21
15.75844135397709
 31
0.0
 11
186.9584318499095
 21
15.75844135397709
 31
0.0
 11
187.0421359350756
 21
15.75844135397709
 31
0.0
 11
187.0745926211604
 21
15.75844135397709
 31
0.0
 11
187.0745926211604
 21
15.73210566604964
 31
0.0
 11
187.0745926211604
 21
15.67416715260924
 31
0.0
 11
187.0745926211604
 21
15.61622863916883
 31
0.0
 11
187.0745926211604
 21
15.58989295124138
 31
0.0
 11
187.0421359350756
 21
15.58989295124138
 31
0.0
 11
186.9584318499095
 21
15.58989295124138
 31
0.0
 11
186.8439793252946
 21
15.58989295124138
 31
0.0
 11
186.7192773208634
 21
15.58989295124138
 31
0.0
 11
186.6048247962485
 21
15.58989295124138
 31
0.0
 11
186.5211207110824
 21
15.58989295124138
 31
0.0
 11
186.4886640249976
 21
15.58989295124138
 31
0.0
 11
186.4886640249976
 21
15.56321863152016
 31
0.0
 11
186.4886640249976
 21
15.49442696487071
 31
0.0
 11
186.4886640249976
 21
15.40036489006431
 31
0.0
 11
186.4886640249976
 21
15.29787934587226
 31
0.0
 11
186.4886640249976
 21
15.20381727106586
 31
0.0
 11
186.4886640249976
 21
15.13502560441641
 31
0.0
 11
186.4886640249976
 21
15.10835128469519
 31
0.0
 11
186.5171747850993
 21
15.10835128469519
 31
0.0
 11
186.5923395162766
 21
15.10835128469519
 31
0.0
 11
186.6986068948376
 21
15.10835128469519
 31
0.0
 11
186.8204255970904
 21
15.10835128469519
 31
0.0
 11
186.9422442993433
 21
15.10835128469519
 31
0.0
 11
187.0485116779043
 21
15.10835128469519
 31
0.0
 11
187.1236764090816
 21
15.10835128469519
 31
0.0
 11
187.1521871691833
 21
15.10835128469519
 31
0.0
 11
187.1521871691833
 21
15.08201559676774
 31
0.0
 11
187.1521871691833
 21
15.02407708332734
 31
0.0
 11
187.1521871691833
 21
14.96613856988695
 31
0.0
 11
187.1521871691833
 21
14.93980288195949
 31
0.0
  0
SPLINE
  5
AA
102
{ACAD_REACTORS
330
C7
102
}
330
48
100
AcDbEntity
  8
_U_30EC_U_30A4_U_30E4_U_30FC_1
  6
Continuous
 62
     2
100
AcDbSpline
210
0.0
220
0.0
230
1.0
 70
     8
 71
     3
 72
    62
 73
    58
 74
    56
 42
0.000000001
 43
0.0000000001
 44
0.00000001
 40
0.0
 40
0.0
 40
0.0
 40
0.0
 40
0.0598250028308485
 40
0.2024846486897331
 40
0.3727558389221031
 40
0.515415484793607
 40
0.5752404975785339
 40
0.9332326775487246
 40
1.290451762839469
 40
1.602077253145862
 40
1.699931634112134
 40
1.799359756425056
 40
2.270120149657115
 40
2.804661928461553
 40
2.882342287383266
 40
3.076543185719118
 40
3.329004354835582
 40
3.581465524568412
 40
3.775666424543696
 40
3.853346784558318
 40
3.899120679595064
 40
3.984129341792062
 40
4.02990323681741
 40
4.10579749605957
 40
4.295533144152544
 40
4.542189486611803
 40
4.788845828875769
 40
4.978581476410166
 40
5.054475735244414
 40
5.621734664339483
 40
6.1308672420375
 40
6.225249780948767
 40
6.318913039727433
 40
6.663579954559054
 40
7.04749890022492
 40
7.435230791575863
 40
7.498943906668275
 40
7.650875181210269
 40
7.83221250900178
 40
7.984143783697165
 40
8.047856898903293
 40
8.091554632732807
 40
8.172707566964478
 40
8.216405300768209
 40
8.289021782161093
 40
8.462184160757467
 40
8.668861838005547
 40
8.84202421526414
 40
8.914640695475335
 40
8.989881580861528
 40
9.155411528827408
 40
9.320941477744164
 40
9.396182352487402
 40
9.45470901114395
 40
9.583467660170884
 40
9.712226309013163
 40
9.770752957989616
 40
9.770752957989616
 40
9.770752957989616
 40
9.770752957989616
 10
187.1521871691833
 20
14.93980288195949
 30
0.0
 10
187.1322348171623
 20
14.93980875568671
 30
0.0
 10
187.0647037716466
 20
14.93982863806156
 30
0.0
 10
186.9410612161788
 20
14.93949362520325
 30
0.0
 10
186.7863180150056
 20
14.94107673750511
 30
0.0
 10
186.669734948248
 20
14.93686078860494
 30
0.0
 10
186.4550942634241
 20
14.95215205331626
 30
0.0
 10
186.8518948407229
 20
14.59198721286192
 30
0.0
 10
186.8945656069267
 20
14.37510503397165
 30
0.0
 10
187.3189162146611
 20
14.19325062511448
 30
0.0
 10
187.1439821496074
 20
14.08985196568071
 30
0.0
 10
187.0194523925083
 20
13.8783152321272
 30
0.0
 10
186.7666277235944
 20
14.34806081001562
 30
0.0
 10
186.4797602893627
 20
14.99511516984519
 30
0.0
 10
186.490633592666
 20
14.68782672154692
 30
0.0
 10
186.488289277796
 20
14.52288616971776
 30
0.0
 10
186.4861096126411
 20
14.28879670711691
 30
0.0
 10
186.4980774396346
 20
14.0449807242178
 30
0.0
 10
186.4687984740631
 20
13.89855796860982
 30
0.0
 10
186.511452262547
 20
13.75113490174535
 30
0.0
 10
186.4239814005639
 20
13.76685797306217
 30
0.0
 10
186.3768527606744
 20
13.76694303543452
 30
0.0
 10
186.2898973207713
 20
13.75109425482906
 30
0.0
 10
186.3313474021722
 20
13.8952777142276
 30
0.0
 10
186.3029875004285
 20
14.03855052698454
 30
0.0
 10
186.31459737753
 20
14.27674947365266
 30
0.0
 10
186.3124175648271
 20
14.50517235240348
 30
0.0
 10
186.3103111127994
 20
14.66705729375998
 30
0.0
 10
186.3208035438323
 20
14.98153709333758
 30
0.0
 10
186.0128963252893
 20
14.29229470872436
 30
0.0
 10
185.7055258267455
 20
13.81476750243046
 30
0.0
 10
185.5851367066274
 20
14.03741112637426
 30
0.0
 10
185.4074607910721
 20
14.1501103495556
 30
0.0
 10
185.8853326362894
 20
14.32548143465458
 30
0.0
 10
185.9353959057208
 20
14.56091929252028
 30
0.0
 10
186.3583799621716
 20
14.95322989344606
 30
0.0
 10
186.127675427354
 20
14.93655307029065
 30
0.0
 10
186.004968585934
 20
14.9426951894877
 30
0.0
 10
185.8325483095662
 20
14.93312822699573
 30
0.0
 10
185.7213224694449
 20
14.95448818489665
 30
0.0
 10
185.6025779627448
 20
14.92136265357419
 30
0.0
 10
185.6183169706685
 20
15.00203900606883
 30
0.0
 10
185.6178550933763
 20
15.04645414290855
 30
0.0
 10
185.6027881889931
 20
15.12967081778535
 30
0.0
 10
185.7372380935443
 20
15.09062651983885
 30
0.0
 10
185.8619755545747
 20
15.11739729328424
 30
0.0
 10
186.062875523728
 20
15.10063949044054
 30
0.0
 10
186.1921540949353
 20
15.12204225913006
 30
0.0
 10
186.3328419928294
 20
15.08868778853422
 30
0.0
 10
186.2980927452615
 20
15.22651875785068
 30
0.0
 10
186.3222185666713
 20
15.34963257349479
 30
0.0
 10
186.2967086182392
 20
15.47024055670331
 30
0.0
 10
186.3333251146684
 20
15.60539865141489
 30
0.0
 10
186.2211417027769
 20
15.58094545781885
 30
0.0
 10
186.1280356457137
 20
15.59307749842017
 30
0.0
 10
186.0191547579819
 20
15.58957630069986
 30
0.0
 10
185.9569697640964
 20
15.58981755951597
 30
0.0
 10
185.9375369557246
 20
15.58989295124138
 30
0.0
 11
187.1521871691833
 21
14.93980288195949
 31
0.0
 11
187.0923621563982
 21
14.93980288195949
 31
0.0
 11
186.949702510526
 21
14.93980288195949
 31
0.0
 11
186.7794313202913
 21
14.93980288195949
 31
0.0
 11
186.6367716744191
 21
14.93980288195949
 31
0.0
 11
186.576946661634
 21
14.93980288195949
 31
0.0
 11
186.7679960754842
 21
14.6370512796689
 31
0.0
 11
186.994127278563
 21
14.36051890576684
 31
0.0
 11
187.2244526173371
 21
14.15061253493458
 31
0.0
 11
187.1521596330704
 21
14.08466403668715
 31
0.0
 11
187.0879364402643
 21
14.00876059052558
 31
0.0
 11
186.7732818215558
 21
14.35891458349363
 31
0.0
 11
186.4886640249976
 21
14.81138295143599
 31
0.0
 11
186.4886640249976
 21
14.73370259137311
 31
0.0
 11
186.4886640249976
 21
14.53950169121591
 31
0.0
 11
186.4886640249976
 21
14.28704052101154
 31
0.0
 11
186.4886640249976
 21
14.03457935080717
 31
0.0
 11
186.4886640249976
 21
13.84037845064997
 31
0.0
 11
186.4886640249976
 21
13.76269809058709
 31
0.0
 11
186.4428901295605
 21
13.76269809058709
 31
0.0
 11
186.3578814666058
 21
13.76269809058709
 31
0.0
 11
186.3121075711687
 21
13.76269809058709
 31
0.0
 11
186.3121075711687
 21
13.83859234982738
 31
0.0
 11
186.3121075711687
 21
14.0283279979281
 31
0.0
 11
186.3121075711687
 21
14.27498434045904
 31
0.0
 11
186.3121075711687
 21
14.52164068298998
 31
0.0
 11
186.3121075711687
 21
14.7113763310907
 31
0.0
 11
186.3121075711687
 21
14.78727059033099
 31
0.0
 11
185.9987626399266
 21
14.31440946197691
 31
0.0
 11
185.6352328662148
 21
13.95795177109379
 31
0.0
 11
185.5773927461627
 21
14.03253450545022
 31
0.0
 11
185.5094852305341
 21
14.09704322939238
 31
0.0
 11
185.7750721898319
 21
14.31672219795885
 31
0.0
 11
186.0233764972061
 21
14.60953395971695
 31
0.0
 11
186.226498280526
 21
14.93980288195949
 31
0.0
 11
186.1627851652721
 21
14.93980288195949
 31
0.0
 11
186.0108538904359
 21
14.93980288195949
 31
0.0
 11
185.8295165624055
 21
14.93980288195949
 31
0.0
 11
185.6775852875693
 21
14.93980288195949
 31
0.0
 11
185.6138721723154
 21
14.93980288195949
 31
0.0
 11
185.6138721723154
 21
14.98350061600208
 31
0.0
 11
185.6138721723154
 21
15.0646535506526
 31
0.0
 11
185.6138721723154
 21
15.10835128469519
 31
0.0
 11
185.6864886537961
 21
15.10835128469519
 31
0.0
 11
185.8596510327118
 21
15.10835128469519
 31
0.0
 11
186.0663287107723
 21
15.10835128469519
 31
0.0
 11
186.239491089688
 21
15.10835128469519
 31
0.0
 11
186.3121075711687
 21
15.10835128469519
 31
0.0
 11
186.3121075711687
 21
15.18359217009303
 31
0.0
 11
186.3121075711687
 21
15.34912211796829
 31
0.0
 11
186.3121075711687
 21
15.51465206584354
 31
0.0
 11
186.3121075711687
 21
15.58989295124138
 31
0.0
 11
186.2535809125055
 21
15.58989295124138
 31
0.0
 11
186.1248222634467
 21
15.58989295124138
 31
0.0
 11
185.9960636143877
 21
15.58989295124138
 31
0.0
 11
185.9375369557246
 21
15.58989295124138
 31
0.0
  0
SPLINE
  5
AB
102
{ACAD_REACTORS
330
C8
102
}
330
48
100
AcDbEntity
  8
_U_30EC_U_30A4_U_30E4_U_30FC_1
  6
Continuous
 62
     2
100
AcDbSpline
210
0.0
220
0.0
230
1.0
 70
    11
 71
     3
 72
   124
 73
   120
 74
   118
 42
0.000000001
 43
0.0000000001
 44
0.00000001
 40
0.0
 40
0.0
 40
0.0
 40
0.0
 40
0.027818722962451
 40
0.1011590162384269
 40
0.2048470170590239
 40
0.3237088716559245
 40
0.4425707262522
 40
0.5462587270699547
 40
0.6195990203311798
 40
0.647417752257866
 40
0.6750060736115242
 40
0.7357003855242759
 40
0.7963946998054474
 40
0.8239830245571766
 40
0.854093381110286
 40
0.937339662940954
 40
1.063094687343235
 40
1.220731268638073
 40
1.399622220914748
 40
1.589140358637732
 40
1.778658496423898
 40
1.957549448940509
 40
2.115186030873159
 40
2.240941056914463
 40
2.324187341760532
 40
2.354297700109382
 40
2.38188602467189
 40
2.442580338710475
 40
2.503274652750497
 40
2.530862977314606
 40
2.560983949278559
 40
2.640393784452905
 40
2.752662861759128
 40
2.881361560118145
 40
3.010060258455192
 40
3.122329335705339
 40
3.201739170817953
 40
3.231860142753313
 40
3.264298024030368
 40
3.352343701778236
 40
3.482095226868755
 40
3.639650650173013
 40
3.811108022565464
 40
3.982565394927966
 40
4.140120818152542
 40
4.269872343141249
 40
4.357918020802308
 40
4.390355902043935
 40
4.423256253992505
 40
4.508104530073026
 40
4.624121560636794
 40
4.75052817603155
 40
4.866545206601997
 40
4.951393482691954
 40
4.984293834645356
 40
5.011450833242271
 40
5.071196230152057
 40
5.130941627057132
 40
5.158098625648798
 40
5.190998977601489
 40
5.275847253689315
 40
5.391864284256749
 40
5.518270899648294
 40
5.634287930209333
 40
5.719136206288007
 40
5.752036558235894
 40
5.782130946282922
 40
5.862783906229097
 40
5.97955013177497
 40
6.11798431664038
 40
6.263641154587931
 40
6.402075339414142
 40
6.518841564907942
 40
6.599494524815527
 40
6.629588912848765
 40
6.654403028226342
 40
6.713575149488109
 40
6.784199939329427
 40
6.84337206049353
 40
6.868186175802776
 40
6.896246243201873
 40
6.939586233758279
 40
6.967846564564907
 40
7.043584251089841
 40
7.153234334451694
 40
7.283231855734439
 40
7.420011856035464
 40
7.550009376579808
 40
7.659659458835202
 40
7.735397144417194
 40
7.763657474851364
 40
7.796409728011021
 40
7.880876065096295
 40
7.996370852465681
 40
8.122208446418576
 40
8.23770322479917
 40
8.322169562010863
 40
8.354921815205877
 40
8.382078813307658
 40
8.441824209206965
 40
8.501569605240114
 40
8.528726603485692
 40
8.561478856695741
 40
8.645945193877791
 40
8.761439980865303
 40
8.887277580764446
 40
9.002772362000966
 40
9.087238696661187
 40
9.11999094923564
 40
9.152428830613339
 40
9.240474508638552
 40
9.370226034149498
 40
9.52778145798438
 40
9.699238830981363
 40
9.870696203978547
 40
10.02825162781396
 40
10.15800315332558
 40
10.24604883135112
 40
10.27848670378515
 40
10.27848670378515
 40
10.27848670378515
 40
10.27848670378515
 10
195.3821827564383
 20
14.01410517385759
 30
0.0
 10
195.3914554737523
 20
14.01410498511276
 30
0.0
 10
195.4251744536861
 20
14.01410430876716
 30
0.0
 10
195.4934706812465
 20
14.01411807243307
 30
0.0
 10
195.592014171158
 20
14.01403224219547
 30
0.0
 10
195.7062066464812
 20
14.01441755612253
 30
0.0
 10
195.818589441707
 20
14.01300835897547
 30
0.0
 10
195.9214376600118
 20
14.01719117422245
 30
0.0
 10
195.9806839874849
 20
14.00823089251985
 30
0.0
 10
196.0371265937033
 20
14.02164434526063
 30
0.0
 10
196.0246255586954
 20
13.97087198613363
 30
0.0
 10
196.0329549635703
 20
13.92589320939069
 30
0.0
 10
196.024817084112
 20
13.8805675299049
 30
0.0
 10
196.0370529214457
 20
13.82931932408468
 30
0.0
 10
195.9747773490333
 20
13.84447955365278
 30
0.0
 10
195.9060513026868
 20
13.83359750710744
 30
0.0
 10
195.7782756749592
 20
13.83911304747975
 30
0.0
 10
195.6262984511643
 20
13.837008512537
 30
0.0
 10
195.4502695972523
 20
13.83771002588475
 30
0.0
 10
195.2644431934287
 20
13.83745237531293
 30
0.0
 10
195.0786167437175
 20
13.83771005144606
 30
0.0
 10
194.9025880142168
 20
13.83700841847732
 30
0.0
 10
194.7506104154195
 20
13.83911332229991
 30
0.0
 10
194.6228357664554
 20
13.83359680767642
 30
0.0
 10
194.5541077836581
 20
13.84448077125944
 30
0.0
 10
194.4918349042883
 20
13.82931786684211
 30
0.0
 10
194.5040616290017
 20
13.88057510805173
 30
0.0
 10
194.4960004462597
 20
13.92582473272427
 30
0.0
 10
194.5040675809893
 20
13.97106357955325
 30
0.0
 10
194.4918238487083
 20
14.0223417690996
 30
0.0
 10
194.5525017120697
 20
14.00749577363136
 30
0.0
 10
194.6162810745736
 20
14.01756448170737
 30
0.0
 10
194.7277314353502
 20
14.01294644212001
 30
0.0
 10
194.8497533443824
 20
14.01413328905471
 30
0.0
 10
194.9719538137823
 20
14.01515863900637
 30
0.0
 10
195.0829794287392
 20
14.01092475623403
 30
0.0
 10
195.1476517413959
 20
14.02018584521741
 30
0.0
 10
195.2091162810501
 20
14.00604423049684
 30
0.0
 10
195.1930065601337
 20
14.07235527884519
 30
0.0
 10
195.2042980327358
 20
14.14447790121977
 30
0.0
 10
195.198740082256
 20
14.27513760888287
 30
0.0
 10
195.2008035061691
 20
14.42607323708242
 30
0.0
 10
195.2000167127295
 20
14.59335873107886
 30
0.0
 10
195.2007845215627
 20
14.76061110332302
 30
0.0
 10
195.1988038785628
 20
14.91163289269914
 30
0.0
 10
195.2041306156621
 20
15.04206069552994
 30
0.0
 10
195.1933101388424
 20
15.11465442605898
 30
0.0
 10
195.2090326429876
 20
15.18150469436797
 30
0.0
 10
195.143270813249
 20
15.16580512490822
 30
0.0
 10
195.0756367830763
 20
15.17609243083995
 30
0.0
 10
194.9615885293809
 20
15.1711378684712
 30
0.0
 10
194.8451242674902
 20
15.17414128030474
 30
0.0
 10
194.7306554121477
 20
15.16880303143387
 30
0.0
 10
194.6640324657812
 20
15.18001268074823
 30
0.0
 10
194.5990769715186
 20
15.1634913266501
 30
0.0
 10
194.6107989758707
 20
15.21473720477058
 30
0.0
 10
194.6032830189121
 20
15.2595033378409
 30
0.0
 10
194.6107989878835
 20
15.30426944897961
 30
0.0
 10
194.5990769505346
 20
15.3555153612974
 30
0.0
 10
194.66403263392
 20
15.33899381766814
 30
0.0
 10
194.7306533339821
 20
15.35020571373943
 30
0.0
 10
194.8451352858063
 20
15.34485436710663
 30
0.0
 10
194.9615454436962
 20
15.34791188771116
 30
0.0
 10
195.0757660174641
 20
15.34278499010707
 30
0.0
 10
195.1430150439226
 20
15.35345733355597
 30
0.0
 10
195.2083325941438
 20
15.33742082669076
 30
0.0
 10
195.1941391448552
 20
15.39949685750053
 30
0.0
 10
195.2036059462995
 20
15.46586761628762
 30
0.0
 10
195.1990269004085
 20
15.58239972741966
 30
0.0
 10
195.2007696555948
 20
15.71426685022376
 30
0.0
 10
195.1997551495392
 20
15.85615960150274
 30
0.0
 10
195.2017191344372
 20
15.98769050702581
 30
0.0
 10
195.1964668553851
 20
16.10524577283004
 30
0.0
 10
195.2073408763475
 20
16.16947789001586
 30
0.0
 10
195.1919536641853
 20
16.23108802545049
 30
0.0
 10
195.24075915378
 20
16.21702407382113
 30
0.0
 10
195.2853995564725
 20
16.21954742075316
 30
0.0
 10
195.3538643946742
 20
16.2151279740171
 30
0.0
 10
195.3959106169102
 20
16.20613025544036
 30
0.0
 10
195.4487544758775
 20
16.2141171486651
 30
0.0
 10
195.4207035002014
 20
16.17113917611671
 30
0.0
 10
195.3749142248594
 20
16.18259552043832
 30
0.0
 10
195.3869539073265
 20
16.12173520005132
 30
0.0
 10
195.3796086070641
 20
16.05769299468768
 30
0.0
 10
195.3831195826162
 20
15.94909368863908
 30
0.0
 10
195.3819806760173
 20
15.82494319144748
 30
0.0
 10
195.3819174780263
 20
15.69189719829876
 30
0.0
 10
195.3832872966868
 20
15.56797381249553
 30
0.0
 10
195.3791638801313
 20
15.45868337849337
 30
0.0
 10
195.3877763103564
 20
15.39608580094169
 30
0.0
 10
195.3746757454402
 20
15.33740133296364
 30
0.0
 10
195.4393884328198
 20
15.35362113810901
 30
0.0
 10
195.5060405953156
 20
15.34270260383311
 30
0.0
 10
195.6198779541102
 20
15.34793740173755
 30
0.0
 10
195.7357259122097
 20
15.34485547516912
 30
0.0
 10
195.849692426328
 20
15.35018259812511
 30
0.0
 10
195.91603410181
 20
15.33904208166542
 30
0.0
 10
195.9807188525479
 20
15.35546979593177
 30
0.0
 10
195.9689820772723
 20
15.3042592521005
 30
0.0
 10
195.976516806304
 20
15.25950334120999
 30
0.0
 10
195.9689820992258
 20
15.21474739010026
 30
0.0
 10
195.9807188140736
 20
15.16353690871039
 30
0.0
 10
195.9160344075252
 20
15.17996427794219
 30
0.0
 10
195.8496886430824
 20
15.16882784447268
 30
0.0
 10
195.7357459487012
 20
15.17413115893119
 30
0.0
 10
195.6197995623054
 20
15.17114764593543
 30
0.0
 10
195.5062756882123
 20
15.17606892268392
 30
0.0
 10
195.4389231318804
 20
15.16585087513518
 30
0.0
 10
195.3734285122495
 20
15.18145996138815
 30
0.0
 10
195.3891713619218
 20
15.1146385182741
 30
0.0
 10
195.3783275998212
 20
15.04207057815877
 30
0.0
 10
195.3836581629792
 20
14.91162247614416
 30
0.0
 10
195.3817136151855
 20
14.76064558185226
 30
0.0
 10
195.3823133683215
 20
14.59322243934158
 30
0.0
 10
195.3821506559604
 20
14.42656176118373
 30
0.0
 10
195.3821895488136
 20
14.27360142921637
 30
0.0
 10
195.3821816413098
 20
14.14849178985707
 30
0.0
 10
195.3821828382745
 20
14.06507890991422
 30
0.0
 10
195.3821827716207
 20
14.02491778281978
 30
0.0
 10
195.3821827564383
 20
14.01410517385759
 30
0.0
 11
195.3821827564383
 21
14.01410517385759
 31
0.0
 11
195.4100014883675
 21
14.01410517385759
 31
0.0
 11
195.4833417816353
 21
14.01410517385759
 31
0.0
 11
195.5870297824622
 21
14.01410517385759
 31
0.0
 11
195.7058916370687
 21
14.01410517385759
 31
0.0
 11
195.8247534916751
 21
14.01410517385759
 31
0.0
 11
195.928441492502
 21
14.01410517385759
 31
0.0
 11
196.0017817857698
 21
14.01410517385759
 31
0.0
 11
196.029600517699
 21
14.01410517385759
 31
0.0
 11
196.029600517699
 21
13.98651684921171
 31
0.0
 11
196.029600517699
 21
13.92582253499079
 31
0.0
 11
196.029600517699
 21
13.86512822076986
 31
0.0
 11
196.029600517699
 21
13.83753989612399
 31
0.0
 11
195.9994901593494
 21
13.83753989612399
 31
0.0
 11
195.9162438745004
 21
13.83753989612399
 31
0.0
 11
195.7904888484521
 21
13.83753989612399
 31
0.0
 11
195.6328522665041
 21
13.83753989612399
 31
0.0
 11
195.4539613139564
 21
13.83753989612399
 31
0.0
 11
195.2644431761089
 21
13.83753989612399
 31
0.0
 11
195.0749250382613
 21
13.83753989612399
 31
0.0
 11
194.8960340857136
 21
13.83753989612399
 31
0.0
 11
194.7383975037656
 21
13.83753989612399
 31
0.0
 11
194.6126424777172
 21
13.83753989612399
 31
0.0
 11
194.5293961928683
 21
13.83753989612399
 31
0.0
 11
194.4992858345187
 21
13.83753989612399
 31
0.0
 11
194.4992858345187
 21
13.86512822076987
 31
0.0
 11
194.4992858345187
 21
13.92582253499079
 31
0.0
 11
194.4992858345187
 21
13.98651684921171
 31
0.0
 11
194.4992858345187
 21
14.01410517385759
 31
0.0
 11
194.5294068064947
 21
14.01410517385759
 31
0.0
 11
194.608816641704
 21
14.01410517385759
 31
0.0
 11
194.721085719069
 21
14.01410517385759
 31
0.0
 11
194.8497844175118
 21
14.01410517385759
 31
0.0
 11
194.9784831159545
 21
14.01410517385759
 31
0.0
 11
195.0907521933195
 21
14.01410517385759
 31
0.0
 11
195.1701620285289
 21
14.01410517385759
 31
0.0
 11
195.2002830005048
 21
14.01410517385759
 31
0.0
 11
195.2002830005048
 21
14.04654305523837
 31
0.0
 11
195.2002830005048
 21
14.13458873327192
 31
0.0
 11
195.2002830005048
 21
14.26434025879504
 31
0.0
 11
195.2002830005048
 21
14.42189568264455
 31
0.0
 11
195.2002830005048
 21
14.59335305565724
 31
0.0
 11
195.2002830005048
 21
14.76481042866994
 31
0.0
 11
195.2002830005048
 21
14.92236585251944
 31
0.0
 11
195.2002830005048
 21
15.05211737804256
 31
0.0
 11
195.2002830005048
 21
15.14016305607611
 31
0.0
 11
195.2002830005048
 21
15.17260093745689
 31
0.0
 11
195.1673826485529
 21
15.17260093745689
 31
0.0
 11
195.0825343724662
 21
15.17260093745689
 31
0.0
 11
194.9665173418988
 21
15.17260093745689
 31
0.0
 11
194.8401107265044
 21
15.17260093745689
 31
0.0
 11
194.724093695937
 21
15.17260093745689
 31
0.0
 11
194.6392454198503
 21
15.17260093745689
 31
0.0
 11
194.6063450678984
 21
15.17260093745689
 31
0.0
 11
194.6063450678984
 21
15.19975793614801
 31
0.0
 11
194.6063450678984
 21
15.25950333326849
 31
0.0
 11
194.6063450678984
 21
15.31924873038897
 31
0.0
 11
194.6063450678984
 21
15.34640572908009
 31
0.0
 11
194.6392454198504
 21
15.34640572908009
 31
0.0
 11
194.724093695937
 21
15.34640572908009
 31
0.0
 11
194.8401107265044
 21
15.34640572908009
 31
0.0
 11
194.9665173418988
 21
15.34640572908009
 31
0.0
 11
195.0825343724662
 21
15.34640572908009
 31
0.0
 11
195.1673826485529
 21
15.34640572908009
 31
0.0
 11
195.2002830005048
 21
15.34640572908009
 31
0.0
 11
195.2002830005048
 21
15.37650011731369
 31
0.0
 11
195.2002830005048
 21
15.45715307777973
 31
0.0
 11
195.2002830005048
 21
15.57391930412609
 31
0.0
 11
195.2002830005048
 21
15.71235349000063
 31
0.0
 11
195.2002830005048
 21
15.85801032905125
 31
0.0
 11
195.2002830005048
 21
15.99644451492579
 31
0.0
 11
195.2002830005048
 21
16.11321074127216
 31
0.0
 11
195.2002830005048
 21
16.1938637017382
 31
0.0
 11
195.2002830005048
 21
16.22395808997179
 31
0.0
 11
195.2250405288618
 21
16.22228324219444
 31
0.0
 11
195.2840777118669
 21
16.21828937441767
 31
0.0
 11
195.3545414464214
 21
16.21352249997442
 31
0.0
 11
195.4135786294265
 21
16.20952863219765
 31
0.0
 11
195.4383361577835
 21
16.20785378442029
 31
0.0
 11
195.423306722403
 21
16.18415814206508
 31
0.0
 11
195.3821827564383
 21
16.17047697887399
 31
0.0
 11
195.3821827564383
 21
16.14221664794827
 31
0.0
 11
195.3821827564383
 21
16.06647896106735
 31
0.0
 11
195.3821827564383
 21
15.95682887707557
 31
0.0
 11
195.3821827564383
 21
15.82683135481727
 31
0.0
 11
195.3821827564383
 21
15.6900513531368
 31
0.0
 11
195.3821827564383
 21
15.56005383087851
 31
0.0
 11
195.3821827564383
 21
15.45040374688673
 31
0.0
 11
195.3821827564383
 21
15.37466606000581
 31
0.0
 11
195.3821827564383
 21
15.34640572908009
 31
0.0
 11
195.4149350096115
 21
15.34640572908009
 31
0.0
 11
195.4994013467422
 21
15.34640572908009
 31
0.0
 11
195.6148961342476
 21
15.34640572908009
 31
0.0
 11
195.7407337385445
 21
15.34640572908009
 31
0.0
 11
195.8562285260498
 21
15.34640572908009
 31
0.0
 11
195.9406948631806
 21
15.34640572908009
 31
0.0
 11
195.9734471163538
 21
15.34640572908009
 31
0.0
 11
195.9734471163538
 21
15.31924873038897
 31
0.0
 11
195.9734471163538
 21
15.25950333326849
 31
0.0
 11
195.9734471163538
 21
15.19975793614801
 31
0.0
 11
195.9734471163538
 21
15.17260093745689
 31
0.0
 11
195.9406948631806
 21
15.17260093745689
 31
0.0
 11
195.8562285260498
 21
15.17260093745689
 31
0.0
 11
195.7407337385445
 21
15.17260093745689
 31
0.0
 11
195.6148961342476
 21
15.17260093745689
 31
0.0
 11
195.4994013467422
 21
15.17260093745689
 31
0.0
 11
195.4149350096114
 21
15.17260093745689
 31
0.0
 11
195.3821827564383
 21
15.17260093745689
 31
0.0
 11
195.3821827564383
 21
15.14016305607611
 31
0.0
 11
195.3821827564383
 21
15.05211737804256
 31
0.0
 11
195.3821827564383
 21
14.92236585251944
 31
0.0
 11
195.3821827564383
 21
14.76481042866994
 31
0.0
 11
195.3821827564383
 21
14.59335305565724
 31
0.0
 11
195.3821827564383
 21
14.42189568264454
 31
0.0
 11
195.3821827564383
 21
14.26434025879504
 31
0.0
 11
195.3821827564383
 21
14.13458873327192
 31
0.0
 11
195.3821827564383
 21
14.04654305523837
 31
0.0
 11
195.3821827564383
 21
14.01410517385759
 31
0.0
  0
SPLINE
  5
AC
102
{ACAD_REACTORS
330
C9
102
}
330
48
100
AcDbEntity
  8
_U_30EC_U_30A4_U_30E4_U_30FC_1
  6
Continuous
 62
     2
100
AcDbSpline
210
0.0
220
0.0
230
1.0
 70
    11
 71
     3
 72
   131
 73
   127
 74
   125
 42
0.000000001
 43
0.0000000001
 44
0.00000001
 40
0.0
 40
0.0
 40
0.0
 40
0.0
 40
0.0195577029826506
 40
0.0426490537461601
 40
0.2863607575856996
 40
0.5344948436189705
 40
0.7842238845573488
 40
0.8737315789467603
 40
0.98038328103131
 40
1.092842274517058
 40
1.199761146656826
 40
1.289788768186544
 40
1.351573580786257
 40
1.370727117561483
 40
1.41640093601789
 40
1.470914848356027
 40
1.516588666791815
 40
1.535742203552893
 40
1.634216592293273
 40
1.76028334117512
 40
1.897966686682184
 40
2.031216387369004
 40
2.049689751138
 40
2.101115601646938
 40
2.179502577740059
 40
2.278859318314178
 40
2.393194462258839
 40
2.51651664838396
 40
2.642834515406093
 40
2.766156701983602
 40
2.88049184675472
 40
2.979848588358766
 40
3.058235565443947
 40
3.109661416669103
 40
3.12813478070428
 40
3.146783742386597
 40
3.191254343315458
 40
3.244332157316117
 40
3.28880275822602
 40
3.307451719895263
 40
3.327717853844875
 40
3.383747753580239
 40
3.468388665924633
 40
3.574487837698942
 40
3.694892515729049
 40
3.822449946852191
 40
3.950007377920584
 40
4.07041205580068
 40
4.176511227368239
 40
4.261152139501685
 40
4.31718203907688
 40
4.337448172964801
 40
4.620011002696413
 40
4.885096638397693
 40
4.945373043518519
 40
5.014107710488839
 40
5.070481727652257
 40
5.319246955636762
 40
5.584812164506229
 40
5.859000912057082
 40
6.133746937542276
 40
6.401732212969098
 40
6.420736683995689
 40
6.47284571745134
 40
6.550702743894267
 40
6.646951193874476
 40
6.7542344979308
 40
6.865196086587578
 40
6.972479390358036
 40
7.068727839772198
 40
7.146584865451207
 40
7.198693898189437
 40
7.217698368905578
 40
7.234950401631056
 40
7.276089864270102
 40
7.325191803516215
 40
7.366331266090605
 40
7.383583298769957
 40
7.402779163492334
 40
7.453386443254765
 40
7.524934666445767
 40
7.606953361406107
 40
7.688972056429258
 40
7.760520279784509
 40
7.811127559734751
 40
7.830323424546372
 40
7.847844055299997
 40
7.894799345667034
 40
7.962779392744715
 40
8.043374293560753
 40
8.12817414514965
 40
8.208769044817444
 40
8.276749090377137
 40
8.323704379669692
 40
8.341225010056423
 40
8.358497614800571
 40
8.401679126686776
 40
8.457815092185834
 40
8.513951057728239
 40
8.557132569708195
 40
8.574405174505237
 40
8.602340668616604
 40
8.643455660540146
 40
8.663225271966814
 40
8.715345156564451
 40
8.789031889628772
 40
8.87350204552049
 40
8.957972194324102
 40
9.031658925567982
 40
9.083778811234662
 40
9.103548423003122
 40
9.11955008312366
 40
9.160817522379961
 40
9.217244429110327
 40
9.278724491644812
 40
9.335151398295597
 40
9.376418837357892
 40
9.39242049730068
 40
9.401196302734892
 40
9.417494229384353
 40
9.426270027749618
 40
9.440875075477647
 40
9.475702496998817
 40
9.51727070986597
 40
9.55209813199413
 40
9.566703169884335
 40
9.566703169884335
 40
9.566703169884335
 40
9.566703169884335
 10
194.6170254148479
 20
15.67015871511029
 30
0.0
 10
194.6134345093371
 20
15.66453690702158
 30
0.0
 10
194.6056039123625
 20
15.6522775441911
 30
0.0
 10
194.5129968974545
 20
15.61601916040987
 30
0.0
 10
194.4887622233248
 20
15.40148444212708
 30
0.0
 10
194.3858709845938
 20
15.22197284509708
 30
0.0
 10
194.1220492364305
 20
15.03615573798144
 30
0.0
 10
194.284547156918
 20
14.95959336566082
 30
0.0
 10
194.3607225760838
 20
14.89856693195443
 30
0.0
 10
194.4492171072759
 20
14.83515804544761
 30
0.0
 10
194.538993023311
 20
14.7752563421956
 30
0.0
 10
194.5883817636046
 20
14.72102154849205
 30
0.0
 10
194.6745708157383
 20
14.69286240541829
 30
0.0
 10
194.6411260674229
 20
14.65713309652805
 30
0.0
 10
194.621467116631
 20
14.625503879919
 30
0.0
 10
194.5919888217882
 20
14.58475872796065
 30
0.0
 10
194.5688989446031
 20
14.55504663489639
 30
0.0
 10
194.5380205968356
 20
14.50211422668489
 30
0.0
 10
194.4729193365741
 20
14.62740334938904
 30
0.0
 10
194.3796000122414
 20
14.68213900233936
 30
0.0
 10
194.2950636285139
 20
14.73916423939346
 30
0.0
 10
194.1722498125742
 20
14.89675287427525
 30
0.0
 10
194.1764450847301
 20
14.82035806766838
 30
0.0
 10
194.1751478652677
 20
14.77361280161297
 30
0.0
 10
194.1758126448077
 20
14.69584785812603
 30
0.0
 10
194.1755549986956
 20
14.59902068324423
 30
0.0
 10
194.1756431239922
 20
14.4865027907881
 30
0.0
 10
194.1756077302281
 20
14.36524085945699
 30
0.0
 10
194.1756511758278
 20
14.2408689785896
 30
0.0
 10
194.1755199942405
 20
14.11967683631335
 30
0.0
 10
194.1759477562046
 20
14.00691148919741
 30
0.0
 10
194.174667820231
 20
13.91082913768742
 30
0.0
 10
194.1779759851043
 20
13.83113826468697
 30
0.0
 10
194.1715197740087
 20
13.78815175788782
 30
0.0
 10
194.1806208705555
 20
13.74955432372039
 30
0.0
 10
194.1447910339935
 20
13.75810887724068
 30
0.0
 10
194.1115223815252
 20
13.75342519985444
 30
0.0
 10
194.0604562576041
 20
13.75351298759782
 30
0.0
 10
194.0269723972812
 20
13.75794430283818
 30
0.0
 10
193.9907585408754
 20
13.74960793842506
 30
0.0
 10
194.0009782568665
 20
13.79145277179282
 30
0.0
 10
193.9936487887774
 20
13.83778560820171
 30
0.0
 10
193.9973633136102
 20
13.92374831106012
 30
0.0
 10
193.9959480554897
 20
14.02605142704847
 30
0.0
 10
193.9964105554638
 20
14.1445322393151
 30
0.0
 10
193.9962773686231
 20
14.26957683153354
 30
0.0
 10
193.9963015910044
 20
14.39475828107048
 30
0.0
 10
193.9963354925551
 20
14.51286645379057
 30
0.0
 10
193.9962060293132
 20
14.61628748709515
 30
0.0
 10
193.996550754908
 20
14.69932036153666
 30
0.0
 10
193.9958698278691
 20
14.75143368521243
 30
0.0
 10
193.999458660062
 20
14.87912907821359
 30
0.0
 10
193.7826171386438
 20
14.58048716819621
 30
0.0
 10
193.602135492195
 20
14.35263981511512
 30
0.0
 10
193.5490322295611
 20
14.49373443289813
 30
0.0
 10
193.5200429133149
 20
14.54325767560943
 30
0.0
 10
193.419664806282
 20
14.6464177979011
 30
0.0
 10
193.7405127723262
 20
14.72695035023777
 30
0.0
 10
193.8689897005429
 20
14.91066283036434
 30
0.0
 10
194.0906454325359
 20
15.11931995771761
 30
0.0
 10
194.1770224894068
 20
15.29339211228343
 30
0.0
 10
194.4549394229075
 20
15.56967051342517
 30
0.0
 10
194.3346247839284
 20
15.56534559551116
 30
0.0
 10
194.2863197351349
 20
15.56614856202556
 30
0.0
 10
194.2102377454905
 20
15.56574582146587
 30
0.0
 10
194.116701000975
 20
15.56590275611612
 30
0.0
 10
194.0117594788557
 20
15.56582502576227
 30
0.0
 10
193.9033887738717
 20
15.56595464378557
 30
0.0
 10
193.7981454235897
 20
15.56554393490694
 30
0.0
 10
193.7056237819412
 20
15.56682073671594
 30
0.0
 10
193.6268130800707
 20
15.56340766534853
 30
0.0
 10
193.5839674565379
 20
15.57023350036322
 30
0.0
 10
193.5449499586515
 20
15.56065064201126
 30
0.0
 10
193.5526365271864
 20
15.59420779565546
 30
0.0
 10
193.5485464404311
 20
15.62523550322236
 30
0.0
 10
193.5485531368815
 20
15.67236529270904
 30
0.0
 10
193.5526239724911
 20
15.70340941646782
 30
0.0
 10
193.5449495574582
 20
15.73701861635905
 30
0.0
 10
193.5834819405494
 20
15.72748410420875
 30
0.0
 10
193.624122801448
 20
15.73397435498075
 30
0.0
 10
193.6951471850463
 20
15.73100150650257
 30
0.0
 10
193.7729318149633
 20
15.73174761399162
 30
0.0
 10
193.8507292246474
 20
15.73247814044529
 30
0.0
 10
193.9217232089908
 20
15.72954235514164
 30
0.0
 10
193.9624279791819
 20
15.73595468772955
 30
0.0
 10
194.000985348991
 20
15.72650524176008
 30
0.0
 10
193.9927342754927
 20
15.76264692158788
 30
0.0
 10
193.9982346669359
 20
15.8012983761323
 30
0.0
 10
193.9955754206162
 20
15.86913528561841
 30
0.0
 10
193.9965815471533
 20
15.94591641538741
 30
0.0
 10
193.9960178018319
 20
16.02849393582757
 30
0.0
 10
193.9970714526592
 20
16.10517329229877
 30
0.0
 10
193.994267586313
 20
16.17331990776698
 30
0.0
 10
194.0000702721304
 20
16.21132399809344
 30
0.0
 10
193.9915654551159
 20
16.24758448077644
 30
0.0
 10
194.0255610233125
 20
16.23755723771849
 30
0.0
 10
194.0594575683099
 20
16.24073266813704
 30
0.0
 10
194.1126669060346
 20
16.23508965640607
 30
0.0
 10
194.1660768574482
 20
16.23434774436423
 30
0.0
 10
194.1995914649491
 20
16.22819223482978
 30
0.0
 10
194.2388086183038
 20
16.2334602977359
 30
0.0
 10
194.2120263698492
 20
16.19253380793487
 30
0.0
 10
194.1708111001724
 20
16.20371204538107
 30
0.0
 10
194.1782641540873
 20
16.15867056192121
 30
0.0
 10
194.1742227952184
 20
16.11412278028142
 30
0.0
 10
194.176171404964
 20
16.04223572621702
 30
0.0
 10
194.1752364849758
 20
15.96168630588771
 30
0.0
 10
194.176510719003
 20
15.88173995404996
 30
0.0
 10
194.1732043793864
 20
15.80841837083185
 30
0.0
 10
194.1802106179961
 20
15.76688643002572
 30
0.0
 10
194.1701440380126
 20
15.72752418568117
 30
0.0
 10
194.2029814803921
 20
15.73468063430985
 30
0.0
 10
194.236457729648
 20
15.73027243137948
 30
0.0
 10
194.2915053476019
 20
15.73217943347901
 30
0.0
 10
194.3489502595314
 20
15.73185366407291
 30
0.0
 10
194.402302624831
 20
15.73106308733086
 30
0.0
 10
194.4398540896638
 20
15.73313959118077
 30
0.0
 10
194.4623172523237
 20
15.73022338167114
 30
0.0
 10
194.4751678073731
 20
15.73572552644056
 30
0.0
 10
194.485825568589
 20
15.73801118197789
 30
0.0
 10
194.4986635650143
 20
15.74494972588046
 30
0.0
 10
194.5145991033071
 20
15.72853046313669
 30
0.0
 10
194.5410623920891
 20
15.71709122319446
 30
0.0
 10
194.5726805253758
 20
15.6964468783519
 30
0.0
 10
194.5987255892151
 20
15.68116869628295
 30
0.0
 10
194.6128517723973
 20
15.67266976323184
 30
0.0
 10
194.6170254148479
 20
15.67015871511029
 30
0.0
 11
194.6170254148479
 21
15.67015871511029
 31
0.0
 11
194.6049990002243
 21
15.65473571164185
 31
0.0
 11
194.5848961795565
 21
15.64337406233919
 31
0.0
 11
194.4778986355813
 21
15.42440620231158
 31
0.0
 11
194.3477039934324
 21
15.21317201512159
 31
0.0
 11
194.1996540366071
 21
15.01206059027479
 31
0.0
 11
194.2734958253735
 21
14.9614738493538
 31
0.0
 11
194.36056643118
 21
14.8998841165374
 31
0.0
 11
194.4518003750404
 21
14.83413160594426
 31
0.0
 11
194.5381321779687
 21
14.77105653169304
 31
0.0
 11
194.6104963609787
 21
14.71749910790239
 31
0.0
 11
194.6598274450843
 21
14.68029954869098
 31
0.0
 11
194.6486940702213
 21
14.66471410869488
 31
0.0
 11
194.6221452532403
 21
14.62754882870418
 31
0.0
 11
194.5904579555533
 21
14.58319026871528
 31
0.0
 11
194.5639091385723
 21
14.54602498872458
 31
0.0
 11
194.5527757637093
 21
14.53043954872848
 31
0.0
 11
194.4807013362947
 21
14.59754008690618
 31
0.0
 11
194.385285698538
 21
14.67993354174671
 31
0.0
 11
194.279326415217
 21
14.76785017366918
 31
0.0
 11
194.175621051109
 21
14.85152024309269
 31
0.0
 11
194.175621051109
 21
14.83304687900865
 31
0.0
 11
194.175621051109
 21
14.78162102763957
 31
0.0
 11
194.175621051109
 21
14.70323405031
 31
0.0
 11
194.175621051109
 21
14.60387730834449
 31
0.0
 11
194.175621051109
 21
14.48954216306761
 31
0.0
 11
194.175621051109
 21
14.36621997580389
 31
0.0
 11
194.175621051109
 21
14.23990210787789
 31
0.0
 11
194.175621051109
 21
14.11657992061417
 31
0.0
 11
194.175621051109
 21
14.00224477533729
 31
0.0
 11
194.175621051109
 21
13.90288803337178
 31
0.0
 11
194.175621051109
 21
13.82450105604221
 31
0.0
 11
194.175621051109
 21
13.77307520467313
 31
0.0
 11
194.175621051109
 21
13.75460184058909
 31
0.0
 11
194.1569720893626
 21
13.75460184058909
 31
0.0
 11
194.1125014882749
 21
13.75460184058909
 31
0.0
 11
194.0594236740736
 21
13.75460184058909
 31
0.0
 11
194.0149530729859
 21
13.75460184058909
 31
0.0
 11
193.9963041112395
 21
13.75460184058909
 31
0.0
 11
193.9963041112395
 21
13.77486797460216
 31
0.0
 11
193.9963041112395
 21
13.83089787452064
 31
0.0
 11
193.9963041112395
 21
13.91553878716345
 31
0.0
 11
193.9963041112395
 21
14.02163795934951
 31
0.0
 11
193.9963041112395
 21
14.14204263789773
 31
0.0
 11
193.9963041112395
 21
14.26960006962704
 31
0.0
 11
193.9963041112395
 21
14.39715750135635
 31
0.0
 11
193.9963041112395
 21
14.51756217990457
 31
0.0
 11
193.9963041112395
 21
14.62366135209063
 31
0.0
 11
193.9963041112395
 21
14.70830226473344
 31
0.0
 11
193.9963041112395
 21
14.76433216465192
 31
0.0
 11
193.9963041112395
 21
14.78459829866499
 31
0.0
 11
193.7883272849481
 21
14.59331998274056
 31
0.0
 11
193.5763486358425
 21
14.43414885430809
 31
0.0
 11
193.5495629014482
 21
14.48814671952094
 31
0.0
 11
193.5138765415024
 21
14.54689140572026
 31
0.0
 11
193.4799697494124
 21
14.59192871537979
 31
0.0
 11
193.6830287742319
 21
14.73563387201053
 31
0.0
 11
193.881853195826
 21
14.91168423529987
 31
0.0
 11
194.0677041444178
 21
15.11327514524949
 31
0.0
 11
194.2318427502303
 21
15.33360194186109
 31
0.0
 11
194.3655301434864
 21
15.56585996513638
 31
0.0
 11
194.3465256724482
 21
15.56585996513638
 31
0.0
 11
194.2944166389562
 21
15.56585996513638
 31
0.0
 11
194.2165596124447
 21
15.56585996513638
 31
0.0
 11
194.1203111623478
 21
15.56585996513638
 31
0.0
 11
194.0130278580997
 21
15.56585996513638
 31
0.0
 11
193.9020662691345
 21
15.56585996513638
 31
0.0
 11
193.7947829648864
 21
15.56585996513638
 31
0.0
 11
193.6985345147895
 21
15.56585996513638
 31
0.0
 11
193.620677488278
 21
15.56585996513638
 31
0.0
 11
193.568568454786
 21
15.56585996513638
 31
0.0
 11
193.5495639837478
 21
15.56585996513638
 31
0.0
 11
193.5495639837478
 21
15.58311199790985
 31
0.0
 11
193.5495639837478
 21
15.62425146067735
 31
0.0
 11
193.5495639837478
 21
15.67335340010952
 31
0.0
 11
193.5495639837478
 21
15.71449286287702
 31
0.0
 11
193.5495639837478
 21
15.73174489565049
 31
0.0
 11
193.5687598486009
 21
15.73174489565049
 31
0.0
 11
193.6193671286684
 21
15.73174489565049
 31
0.0
 11
193.690915352212
 21
15.73174489565049
 31
0.0
 11
193.7729340474937
 21
15.73174489565049
 31
0.0
 11
193.8549527427753
 21
15.73174489565049
 31
0.0
 11
193.9265009663189
 21
15.73174489565049
 31
0.0
 11
193.9771082463864
 21
15.73174489565049
 31
0.0
 11
193.9963041112395
 21
15.73174489565049
 31
0.0
 11
193.9963041112395
 21
15.74926552655222
 31
0.0
 11
193.9963041112395
 21
15.79622081736885
 31
0.0
 11
193.9963041112395
 21
15.86420086526756
 31
0.0
 11
193.9963041112395
 21
15.9447957674155
 31
0.0
 11
193.9963041112395
 21
16.02959562097987
 31
0.0
 11
193.9963041112395
 21
16.11019052312782
 31
0.0
 11
193.9963041112395
 21
16.17817057102652
 31
0.0
 11
193.9963041112395
 21
16.22512586184315
 31
0.0
 11
193.9963041112395
 21
16.24264649274488
 31
0.0
 11
194.0135484112111
 21
16.24165806167517
 31
0.0
 11
194.0566591611401
 21
16.23918698400089
 31
0.0
 11
194.1127031360477
 21
16.23597458302433
 31
0.0
 11
194.1687471109553
 21
16.23276218204778
 31
0.0
 11
194.2118578608843
 21
16.2302911043735
 31
0.0
 11
194.2291021608559
 21
16.22930267330379
 31
0.0
 11
194.2143774674851
 21
16.20556293372637
 31
0.0
 11
194.175621051109
 21
16.19183767331309
 31
0.0
 11
194.175621051109
 21
16.1720680617729
 31
0.0
 11
194.175621051109
 21
16.11994817680331
 31
0.0
 11
194.175621051109
 21
16.04626144288078
 31
0.0
 11
194.175621051109
 21
15.96179128448179
 31
0.0
 11
194.175621051109
 21
15.8773211260828
 31
0.0
 11
194.175621051109
 21
15.80363439216027
 31
0.0
 11
194.175621051109
 21
15.75151450719068
 31
0.0
 11
194.175621051109
 21
15.73174489565049
 31
0.0
 11
194.1916227112935
 21
15.73174489565049
 31
0.0
 11
194.232890150717
 21
15.73174489565049
 31
0.0
 11
194.2893170576837
 21
15.73174489565049
 31
0.0
 11
194.3507971204981
 21
15.73174489565049
 31
0.0
 11
194.4072240274648
 21
15.73174489565049
 31
0.0
 11
194.4484914668882
 21
15.73174489565049
 31
0.0
 11
194.4644931270728
 21
15.73174489565049
 31
0.0
 11
194.4728206422924
 21
15.73451387455922
 31
0.0
 11
194.4882860277004
 21
15.73965626396116
 31
0.0
 11
194.49661354292
 21
15.74242524286989
 31
0.0
 11
194.5091363776005
 21
15.73490952398289
 31
0.0
 11
194.5389985218386
 21
15.71698742509851
 31
0.0
 11
194.5746404359293
 21
15.69559653288167
 31
0.0
 11
194.6045025801674
 21
15.67767443399729
 31
0.0
 11
194.6170254148479
 21
15.67015871511029
 31
0.0
  0
SPLINE
  5
AD
102
{ACAD_REACTORS
330
CA
102
}
330
48
100
AcDbEntity
  8
_U_30EC_U_30A4_U_30E4_U_30FC_1
  6
Continuous
 62
     2
100
AcDbSpline
210
0.0
220
0.0
230
1.0
 70
    11
 71
     3
 72
    91
 73
    87
 74
    85
 42
0.000000001
 43
0.0000000001
 44
0.00000001
 40
0.0
 40
0.0
 40
0.0
 40
0.0
 40
0.0267532254356808
 40
0.0856103386464457
 40
0.1444674521997225
 40
0.1712206856619225
 40
0.2039416005643247
 40
0.2955601971653194
 40
0.4362601844617628
 40
0.616225284450796
 40
0.8256392189705408
 40
1.054685709844482
 40
1.293548478893602
 40
1.532411247938374
 40
1.761457738799639
 40
1.970871673298608
 40
2.150836773256803
 40
2.291536760495664
 40
2.383155356836771
 40
2.415876284101391
 40
2.442629517488045
 40
2.501486630949201
 40
2.560343744424373
 40
2.587096977826657
 40
2.617068194441084
 40
2.699247336756225
 40
2.822032643466538
 40
2.973822353258067
 40
3.14301470482351
 40
3.318007936880089
 40
3.487200288186922
 40
3.638989997548403
 40
3.761775303794901
 40
3.843954445753236
 40
3.873925662229932
 40
3.890812773500628
 40
3.907699884771796
 40
3.93796076785742
 40
3.980983618142456
 40
4.19908591522861
 40
4.439444339237414
 40
4.677588241261038
 40
5.050698317837924
 40
5.44821245476331
 40
5.855291218044834
 40
6.138575438885524
 40
6.417434507584346
 40
6.444551104394029
 40
6.504207617363331
 40
6.563864130314656
 40
6.590980727104249
 40
6.848609460381635
 40
7.109611990668594
 40
7.352910904446252
 40
7.557830220705609
 40
7.587518925913532
 40
7.652834077375963
 40
7.718149228845909
 40
7.747837934062218
 40
7.854880190301237
 40
7.976511257403746
 40
8.369487896592547
 40
8.75751495922384
 40
9.126072419331303
 40
9.460639380392365
 40
9.746695593036106
 40
9.777569943118877
 40
9.807050320931957
 40
9.830377336129084
 40
9.886003295436147
 40
9.952395569430044
 40
10.00802152870638
 40
10.0313485438823
 40
10.21356951009601
 40
10.42203479292884
 40
10.66154556731078
 40
10.91693789564319
 40
11.15832906556578
 40
11.18982674596635
 40
11.27286608520419
 40
11.39026653033361
 40
11.52484752840898
 40
11.6594285264846
 40
11.77682897161496
 40
11.85986831085695
 40
11.8913659823044
 40
11.8913659823044
 40
11.8913659823044
 40
11.8913659823044
 10
190.7027885008196
 20
14.70699600701769
 30
0.0
 10
190.7028237765288
 20
14.71587847311983
 30
0.0
 10
190.7029366710796
 20
14.74430237047345
 30
0.0
 10
190.7012984568489
 20
14.79409639169804
 30
0.0
 10
190.7069750292911
 20
14.83657564478156
 30
0.0
 10
190.6956928731706
 20
14.88730154856851
 30
0.0
 10
190.7632296979032
 20
14.87012900740113
 30
0.0
 10
190.83880292107
 20
14.88290227165999
 30
0.0
 10
190.9828357056001
 20
14.87629729457386
 30
0.0
 10
191.1569419185426
 20
14.8788846220647
 30
0.0
 10
191.3639599611004
 20
14.87800591955557
 30
0.0
 10
191.5894688172378
 20
14.87828207920032
 30
0.0
 10
191.8251162293406
 20
14.87818339658666
 30
0.0
 10
192.0607640531348
 20
14.87828184412772
 30
0.0
 10
192.2862717580626
 20
14.87800678190792
 30
0.0
 10
192.4932934632805
 20
14.87888186270739
 30
0.0
 10
192.6673888915288
 20
14.87630522678451
 30
0.0
 10
192.8114492071986
 20
14.88288290449217
 30
0.0
 10
192.8869691915293
 20
14.87016243405609
 30
0.0
 10
192.9545776037029
 20
14.8872640019169
 30
0.0
 10
192.9430840140676
 20
14.83674785802943
 30
0.0
 10
192.9505104581733
 20
14.79253252226502
 30
0.0
 10
192.9428838927986
 20
14.74867966503608
 30
0.0
 10
192.9546489459425
 20
14.69878374479325
 30
0.0
 10
192.8930788491982
 20
14.71393227712508
 30
0.0
 10
192.8256791738672
 20
14.70310665350671
 30
0.0
 10
192.7013004056221
 20
14.70852031626233
 30
0.0
 10
192.555442823657
 20
14.70649205390782
 30
0.0
 10
192.3893576440085
 20
14.70715777578384
 30
0.0
 10
192.2188412621724
 20
14.70689643521239
 30
0.0
 10
192.0519790855388
 20
14.7072155339109
 30
0.0
 10
191.9087346827105
 20
14.70635302590759
 30
0.0
 10
191.7773313869834
 20
14.70863300482985
 30
0.0
 10
191.7239859134656
 20
14.704077043742
 30
0.0
 10
191.6485188456912
 20
14.70999914992873
 30
0.0
 10
191.6769075779232
 20
14.70094169343353
 30
0.0
 10
191.7033652409542
 20
14.69725912268935
 30
0.0
 10
191.6633522907702
 20
14.66654271968274
 30
0.0
 10
191.5713663691867
 20
14.67667591174632
 30
0.0
 10
191.543939620707
 20
14.43032502247784
 30
0.0
 10
191.4478793967234
 20
14.27499558764373
 30
0.0
 10
191.1917277964473
 20
13.94525417931568
 30
0.0
 10
191.7627537732762
 20
14.08430022210449
 30
0.0
 10
192.0173656320516
 20
14.08291779973363
 30
0.0
 10
192.6279647048617
 20
13.99790569242081
 30
0.0
 10
192.3340698578084
 20
14.29685417558204
 30
0.0
 10
192.0133304286517
 20
14.44330856901778
 30
0.0
 10
192.1313543360434
 20
14.50025540818284
 30
0.0
 10
192.1724716466261
 20
14.52420099873346
 30
0.0
 10
192.2156812394411
 20
14.54599758811228
 30
0.0
 10
192.317457409445
 20
14.60928721253901
 30
0.0
 10
192.4328867625247
 20
14.35147151408778
 30
0.0
 10
192.6329591642277
 20
14.2161604111368
 30
0.0
 10
192.7269077387228
 20
14.03792795138881
 30
0.0
 10
192.9558829746392
 20
13.87997821027049
 30
0.0
 10
192.8596031846708
 20
13.82915972576299
 30
0.0
 10
192.8167959763779
 20
13.79881292523051
 30
0.0
 10
192.7718243528779
 20
13.77466130281454
 30
0.0
 10
192.7121720925213
 20
13.7255214674756
 30
0.0
 10
192.6789731061326
 20
13.85997475673609
 30
0.0
 10
192.5582013350795
 20
14.01594265286574
 30
0.0
 10
192.1970976005979
 20
13.88569928059554
 30
0.0
 10
191.8385061955541
 20
13.90224694409479
 30
0.0
 10
191.457092045008
 20
13.89331229351864
 30
0.0
 10
191.1703455282891
 20
13.82882671672401
 30
0.0
 10
190.8592055599714
 20
13.94230668192829
 30
0.0
 10
190.8268737818788
 20
13.83122259927765
 30
0.0
 10
190.7896178253318
 20
13.81196313850018
 30
0.0
 10
190.7865737632753
 20
13.85874784087299
 30
0.0
 10
190.7679892860608
 20
13.89806853919138
 30
0.0
 10
190.7512436616777
 20
13.95765983478231
 30
0.0
 10
190.7383730915754
 20
14.00201969871283
 30
0.0
 10
190.7042327806427
 20
14.09106331120197
 30
0.0
 10
190.9482714457754
 20
14.02181042943767
 30
0.0
 10
191.1441394486671
 20
14.00030369057741
 30
0.0
 10
191.2395426381277
 20
14.28226484478462
 30
0.0
 10
191.2945135769596
 20
14.44363045421122
 30
0.0
 10
191.5159619357156
 20
14.71391177589734
 30
0.0
 10
191.3849239381216
 20
14.70548446853732
 30
0.0
 10
191.3110026555854
 20
14.70779008496967
 30
0.0
 10
191.1977459876244
 20
14.70671378321655
 30
0.0
 10
191.0694251807484
 20
14.70707639076507
 30
0.0
 10
190.9404252030415
 20
14.70697724466083
 30
0.0
 10
190.828784094629
 20
14.70699932712569
 30
0.0
 10
190.7514663970026
 20
14.70699579189667
 30
0.0
 10
190.713287653201
 20
14.70699595845078
 30
0.0
 10
190.7027885008196
 20
14.70699600701769
 30
0.0
 11
190.7027885008196
 21
14.70699600701769
 31
0.0
 11
190.7027885008196
 21
14.73374924051796
 31
0.0
 11
190.7027885008196
 21
14.79260635421854
 31
0.0
 11
190.7027885008196
 21
14.85146346791912
 31
0.0
 11
190.7027885008196
 21
14.87821670141939
 31
0.0
 11
190.7355094280989
 21
14.87821670141939
 31
0.0
 11
190.8271280244809
 21
14.87821670141939
 31
0.0
 11
190.9678280117818
 21
14.87821670141939
 31
0.0
 11
191.1477931118179
 21
14.87821670141939
 31
0.0
 11
191.3572070464054
 21
14.87821670141939
 31
0.0
 11
191.5862535373604
 21
14.87821670141939
 31
0.0
 11
191.8251163064992
 21
14.87821670141939
 31
0.0
 11
192.0639790756381
 21
14.87821670141939
 31
0.0
 11
192.2930255665931
 21
14.87821670141939
 31
0.0
 11
192.5024395011806
 21
14.87821670141939
 31
0.0
 11
192.6824046012167
 21
14.87821670141939
 31
0.0
 11
192.8231045885176
 21
14.87821670141939
 31
0.0
 11
192.9147231848996
 21
14.87821670141939
 31
0.0
 11
192.9474441121789
 21
14.87821670141939
 31
0.0
 11
192.9474441121789
 21
14.85146346791912
 31
0.0
 11
192.9474441121789
 21
14.79260635421854
 31
0.0
 11
192.9474441121789
 21
14.73374924051796
 31
0.0
 11
192.9474441121789
 21
14.70699600701769
 31
0.0
 11
192.9174728954758
 21
14.70699600701769
 31
0.0
 11
192.8352937529027
 21
14.70699600701769
 31
0.0
 11
192.7125084457639
 21
14.70699600701769
 31
0.0
 11
192.5607187353642
 21
14.70699600701769
 31
0.0
 11
192.3915263830077
 21
14.70699600701769
 31
0.0
 11
192.2165331499991
 21
14.70699600701769
 31
0.0
 11
192.0473407976426
 21
14.70699600701769
 31
0.0
 11
191.8955510872428
 21
14.70699600701769
 31
0.0
 11
191.7727657801042
 21
14.70699600701769
 31
0.0
 11
191.690586637531
 21
14.70699600701769
 31
0.0
 11
191.6606154208279
 21
14.70699600701769
 31
0.0
 11
191.6766359412525
 21
14.70165583340794
 31
0.0
 11
191.6926564616771
 21
14.69631565979819
 31
0.0
 11
191.670615568142
 21
14.67558114591444
 31
0.0
 11
191.6284861855363
 21
14.66685871536109
 31
0.0
 11
191.5365235541377
 21
14.46909247312655
 31
0.0
 11
191.4279078521763
 21
14.25467511978506
 31
0.0
 11
191.3127500824807
 21
14.04622559051619
 31
0.0
 11
191.685736667502
 21
14.05582441253027
 31
0.0
 11
192.083070003615
 21
14.06781232404993
 31
0.0
 11
192.4899342191145
 21
14.08102711828529
 31
0.0
 11
192.2983119496978
 21
14.2896676130248
 31
0.0
 11
192.0966752013698
 21
14.48229420151829
 31
0.0
 11
192.1204947794749
 21
14.49525327269562
 31
0.0
 11
192.1728978513061
 21
14.52376322928574
 31
0.0
 11
192.2253009231374
 21
14.55227318587585
 31
0.0
 11
192.2491205012425
 21
14.56523225705318
 31
0.0
 11
192.4387101558627
 21
14.39079508370266
 31
0.0
 11
192.6200310940435
 21
14.20305846374089
 31
0.0
 11
192.7777729231147
 21
14.01782380992435
 31
0.0
 11
192.8966252504058
 21
13.85089253500949
 31
0.0
 11
192.8715408217923
 21
13.83501202286068
 31
0.0
 11
192.8163550788425
 21
13.80007489613329
 31
0.0
 11
192.7611693358928
 21
13.7651377694059
 31
0.0
 11
192.7360849072793
 21
13.74925725725709
 31
0.0
 11
192.6775518151612
 21
13.8388782468181
 31
0.0
 11
192.6050015078457
 21
13.93650288221029
 31
0.0
 11
192.2125412924095
 21
13.91636286943756
 31
0.0
 11
191.824947406956
 21
13.8980330299977
 31
0.0
 11
191.4567378976213
 21
13.88202178722393
 31
0.0
 11
191.1224308105412
 21
13.86883756444945
 31
0.0
 11
190.8365441918518
 21
13.85898878500748
 31
0.0
 11
190.821186232174
 21
13.83220523466694
 31
0.0
 11
190.7937434290546
 21
13.82143559057249
 31
0.0
 11
190.7867927192319
 21
13.84370299445581
 31
0.0
 11
190.7702179496548
 21
13.89680218833141
 31
0.0
 11
190.7504351601596
 21
13.96017864553776
 31
0.0
 11
190.7338603905825
 21
14.01327783941336
 31
0.0
 11
190.7269096807598
 21
14.03554524329668
 31
0.0
 11
190.9091199859153
 21
14.03751638912949
 31
0.0
 11
191.1174975848588
 21
14.04356211829469
 31
0.0
 11
191.2303203127216
 21
14.25483550301553
 31
0.0
 11
191.3407936722035
 21
14.48509813155879
 31
0.0
 11
191.4358254265627
 21
14.70699600701769
 31
0.0
 11
191.4043277461597
 21
14.70699600701769
 31
0.0
 11
191.3212884069153
 21
14.70699600701769
 31
0.0
 11
191.2038879617768
 21
14.70699600701769
 31
0.0
 11
191.0693069636912
 21
14.70699600701769
 31
0.0
 11
190.9347259656055
 21
14.70699600701769
 31
0.0
 11
190.817325520467
 21
14.70699600701769
 31
0.0
 11
190.7342861812226
 21
14.70699600701769
 31
0.0
 11
190.7027885008196
 21
14.70699600701769
 31
0.0
  0
SPLINE
  5
AE
102
{ACAD_REACTORS
330
CB
102
}
330
48
100
AcDbEntity
  8
_U_30EC_U_30A4_U_30E4_U_30FC_1
  6
Continuous
 62
     2
100
AcDbSpline
210
0.0
220
0.0
230
1.0
 70
    11
 71
     3
 72
    35
 73
    31
 74
    29
 42
0.000000001
 43
0.0000000001
 44
0.00000001
 40
0.0
 40
0.0
 40
0.0
 40
0.0
 40
0.0335231036620479
 40
0.0713218571711779
 40
0.4278866681486959
 40
0.8116865841963887
 40
1.198190238000034
 40
1.561379546812661
 40
1.65998317462203
 40
1.759315573807139
 40
2.132719617231017
 40
2.52523336358876
 40
2.91081539777962
 40
3.265244364303217
 40
3.592606723581953
 40
3.964386154603906
 40
4.359942131737733
 40
4.758154118639238
 40
4.843846538699835
 40
4.936650065543168
 40
5.25661660253725
 40
5.581707404415977
 40
5.899719158308065
 40
6.198363494280668
 40
6.466301046615722
 40
6.493895311537043
 40
6.559697020196837
 40
6.638234543442413
 40
6.704036252154167
 40
6.731630508422974
 40
6.731630508422974
 40
6.731630508422974
 40
6.731630508422974
 10
191.9736010568669
 20
16.23463843719129
 30
0.0
 10
191.9676006097789
 20
16.22480690542318
 30
0.0
 10
191.9548344099157
 20
16.20388988579795
 30
0.0
 10
191.7949362006553
 20
16.17127126532696
 30
0.0
 10
192.2322025842337
 20
15.88206680336696
 30
0.0
 10
192.4345394828261
 20
15.68041138358438
 30
0.0
 10
192.6819564267974
 20
15.43749387603278
 30
0.0
 10
193.1831513624606
 20
15.36047662757779
 30
0.0
 10
193.012556219897
 20
15.21876939174658
 30
0.0
 10
192.9383299463201
 20
15.01710366209114
 30
0.0
 10
192.6131432248188
 20
15.36956287174729
 30
0.0
 10
192.3277741670664
 20
15.53175212559564
 30
0.0
 10
192.0337604077658
 20
15.7368713005305
 30
0.0
 10
191.8084452691134
 20
16.21827488595457
 30
0.0
 10
191.5993085055522
 20
15.75343046609226
 30
0.0
 10
191.3207873674834
 20
15.54350952252914
 30
0.0
 10
191.0371383177209
 20
15.37424456359985
 30
0.0
 10
190.7078639527832
 20
15.0014236090794
 30
0.0
 10
190.6277012318224
 20
15.19708014459002
 30
0.0
 10
190.4759724909745
 20
15.32491104190598
 30
0.0
 10
190.9083395826794
 20
15.40454031765938
 30
0.0
 10
191.0962565329766
 20
15.60026634915473
 30
0.0
 10
191.3468477420503
 20
15.81632996916756
 30
0.0
 10
191.5714350470161
 20
15.98190992300058
 30
0.0
 10
191.6259775409713
 20
16.26133964636829
 30
0.0
 10
191.7494661029011
 20
16.2473795040808
 30
0.0
 10
191.806027334452
 20
16.24521268867646
 30
0.0
 10
191.8761870984945
 20
16.24046859881359
 30
0.0
 10
191.9333414022105
 20
16.23709429350536
 30
0.0
 10
191.9644190320839
 20
16.23519854711115
 30
0.0
 10
191.9736010568669
 20
16.23463843719129
 30
0.0
 11
191.9736010568669
 21
16.23463843719129
 31
0.0
 11
191.9525319069884
 21
16.20856374969782
 31
0.0
 11
191.9174464559425
 21
16.19450114553469
 31
0.0
 11
192.1512374769094
 21
15.9252796113138
 31
0.0
 11
192.4414585957566
 21
15.67413407969259
 31
0.0
 11
192.7612797483684
 21
15.45710987618785
 31
0.0
 11
193.0838708706289
 21
15.29025232631639
 31
0.0
 11
193.0213299868076
 21
15.2140203558493
 31
0.0
 11
192.9688035818975
 21
15.12971197913429
 31
0.0
 11
192.6436279095814
 21
15.31326404831584
 31
0.0
 11
192.3237227768436
 21
15.5407013974343
 31
0.0
 11
192.0354200158608
 21
15.79673855123311
 31
0.0
 11
191.8050514588095
 21
16.06609003445568
 31
0.0
 11
191.5995531719516
 21
15.81126348721038
 31
0.0
 11
191.3288301341535
 21
15.55645182277757
 31
0.0
 11
191.0119538423246
 21
15.31969466354857
 31
0.0
 11
190.6679957933741
 21
15.11903163191468
 31
0.0
 11
190.6218855341338
 21
15.19126067703553
 31
0.0
 11
190.5636970460348
 21
15.26355586798968
 31
0.0
 11
190.8433040489015
 21
15.41911456961746
 31
0.0
 11
191.1093004621154
 21
15.60601009790406
 31
0.0
 11
191.3499997459746
 21
15.81384496285208
 31
0.0
 11
191.5537153607774
 21
16.03222167446415
 31
0.0
 11
191.7087607668218
 21
16.25074274274289
 31
0.0
 11
191.7363041569865
 21
16.24906789496552
 31
0.0
 11
191.8019845489177
 21
16.24507402718872
 31
0.0
 11
191.880377274771
 21
16.24030715274545
 31
0.0
 11
191.9460576667022
 21
16.23631328496866
 31
0.0
 11
191.9736010568669
 21
16.23463843719129
 31
0.0
  0
SPLINE
  5
AF
102
{ACAD_REACTORS
330
CC
102
}
330
48
100
AcDbEntity
  8
_U_30EC_U_30A4_U_30E4_U_30FC_1
  6
Continuous
 62
     2
100
AcDbSpline
210
0.0
220
0.0
230
1.0
 70
    11
 71
     3
 72
    15
 73
    11
 74
     9
 42
0.000000001
 43
0.0000000001
 44
0.00000001
 40
0.0
 40
0.0
 40
0.0
 40
0.0
 40
0.2785535985096341
 40
0.5215624748198423
 40
0.6076917376040253
 40
0.6938210001741193
 40
0.9405019146454894
 40
1.221691403489109
 40
1.300471877081035
 40
1.379252341684809
 40
1.379252341684809
 40
1.379252341684809
 40
1.379252341684809
 10
189.5681493630999
 20
16.22930267330379
 30
0.0
 10
189.6296017794178
 20
16.17691646592715
 30
0.0
 10
189.7446649974114
 20
16.07882876798223
 30
0.0
 10
190.0397348497243
 20
15.92889785897228
 30
0.0
 10
189.9025147631857
 20
15.84343227515016
 30
0.0
 10
189.8041227843778
 20
15.71085785201552
 30
0.0
 10
189.7130033590649
 20
16.01616985781418
 30
0.0
 10
189.3636839480655
 20
16.07967869465369
 30
0.0
 10
189.511925837657
 20
16.17896509880875
 30
0.0
 10
189.5494081874236
 20
16.2125234840238
 30
0.0
 10
189.5681493630999
 20
16.22930267330379
 30
0.0
 11
189.5681493630999
 21
16.22930267330379
 31
0.0
 11
189.7919222440596
 21
16.06341774278974
 31
0.0
 11
189.9695046306383
 21
15.89753281227569
 31
0.0
 11
189.9066308127979
 21
15.83866743034594
 31
0.0
 11
189.8437569949575
 21
15.77980204841619
 31
0.0
 11
189.6688535117725
 21
15.95375677059489
 31
0.0
 11
189.447825685614
 21
16.12757920110698
 31
0.0
 11
189.507987524357
 21
16.17844093720538
 31
0.0
 11
189.5681493630999
 21
16.22930267330379
 31
0.0
  0
SPLINE
  5
B0
102
{ACAD_REACTORS
330
CD
102
}
330
48
100
AcDbEntity
  8
_U_30EC_U_30A4_U_30E4_U_30FC_1
  6
Continuous
 62
     2
100
AcDbSpline
210
0.0
220
0.0
230
1.0
 70
    11
 71
     3
 72
    75
 73
    71
 74
    69
 42
0.000000001
 43
0.0000000001
 44
0.00000001
 40
0.0
 40
0.0
 40
0.0
 40
0.0
 40
0.0342546099129709
 40
0.1245622414432364
 40
0.2522385480897554
 40
0.3985991922940715
 40
0.5449598364980892
 40
0.6726361431438905
 40
0.7629437746737049
 40
0.7971983935298079
 40
1.101723623449657
 40
1.408591244036661
 40
1.433332471690358
 40
1.487763172450139
 40
1.542193873081954
 40
1.566935100592493
 40
1.923523931821808
 40
2.271755704953608
 40
2.590579755100851
 40
2.858943305581114
 40
2.889120339309082
 40
2.918305855191027
 40
2.941366645531142
 40
2.996357760973016
 40
3.061992318140539
 40
3.116983433626716
 40
3.140044223997389
 40
3.411273122936317
 40
3.732441619740977
 40
3.761068217532679
 40
3.837787499630246
 40
3.948858699125894
 40
4.080541049104283
 40
4.219093782625676
 40
4.350776132722237
 40
4.461847332405582
 40
4.538566614678321
 40
4.567193212544569
 40
4.594907573998827
 40
4.666381453557366
 40
4.764111044010977
 40
4.87059253812578
 40
4.968322128642231
 40
5.039796008286916
 40
5.067510369784375
 40
5.094263603185589
 40
5.153120716668224
 40
5.211977830150674
 40
5.238731063551678
 40
5.272290535138917
 40
5.363380529444778
 40
5.497618415781456
 40
5.660621563453698
 40
5.838007341749399
 40
6.01539311991075
 40
6.178396267038376
 40
6.312634151842327
 40
6.403724143059317
 40
6.437283612672412
 40
6.464036846261028
 40
6.522893960004645
 40
6.581751071483912
 40
6.608504301590858
 40
6.637253941281005
 40
6.711397748902857
 40
6.812778057283469
 40
6.923237199249246
 40
7.02461750762389
 40
7.098761315207542
 40
7.127510946007493
 40
7.127510946007493
 40
7.127510946007493
 40
7.127510946007493
 10
188.4418622390564
 20
14.95849128473269
 30
0.0
 10
188.4418622819707
 20
14.94707313408725
 30
0.0
 10
188.4418624481128
 20
14.90555257842633
 30
0.0
 10
188.4418593081787
 20
14.82146922003776
 30
0.0
 10
188.44187882798
 20
14.70004497322333
 30
0.0
 10
188.4417912187737
 20
14.55980494047452
 30
0.0
 10
188.442111623523
 20
14.42006556794581
 30
0.0
 10
188.4411605909739
 20
14.29745038894932
 30
0.0
 10
188.4431978595968
 20
14.21587074438047
 30
0.0
 10
188.4349433178744
 20
14.06271267077702
 30
0.0
 10
188.7430797940902
 20
14.22560236054715
 30
0.0
 10
189.0350645173735
 20
14.39482938688001
 30
0.0
 10
189.0408354448708
 20
14.25973235781909
 30
0.0
 10
189.0455471719892
 20
14.21617221160444
 30
0.0
 10
189.0482535411917
 20
14.17211249350545
 30
0.0
 10
189.0672545672962
 20
14.02272590363137
 30
0.0
 10
188.6583942247301
 20
14.08681172241261
 30
0.0
 10
188.3793710348833
 20
13.97296341411016
 30
0.0
 10
188.1018081587165
 20
13.87364095811144
 30
0.0
 10
187.8099837184403
 20
13.91630687596351
 30
0.0
 10
187.7869144678657
 20
13.81321679744543
 30
0.0
 10
187.7537474383333
 20
13.78691091244474
 30
0.0
 10
187.7480653962738
 20
13.83455309036307
 30
0.0
 10
187.7284214559044
 20
13.87180336115071
 30
0.0
 10
187.7095089485623
 20
13.93007387847563
 30
0.0
 10
187.6942849867706
 20
13.97385201007801
 30
0.0
 10
187.6477246372937
 20
14.08759421046308
 30
0.0
 10
187.989089731245
 20
14.0557630112005
 30
0.0
 10
188.2679649367384
 20
14.02161435106476
 30
0.0
 10
188.2617753034908
 20
14.16913976479651
 30
0.0
 10
188.2630935452772
 20
14.24013150908831
 30
0.0
 10
188.2624831689948
 20
14.34719767958661
 30
0.0
 10
188.2625871570725
 20
14.47398529785998
 30
0.0
 10
188.2629987964054
 20
14.60849243496052
 30
0.0
 10
188.2613907841968
 20
14.73395549951187
 30
0.0
 10
188.2659902567926
 20
14.84505246719121
 30
0.0
 10
188.256418650221
 20
14.90761886800693
 30
0.0
 10
188.2704001783691
 20
14.96595388295006
 30
0.0
 10
188.2147384386705
 20
14.95289710582243
 30
0.0
 10
188.1575655197821
 20
14.96136307749503
 30
0.0
 10
188.0616048925648
 20
14.95729976080641
 30
0.0
 10
187.963376752282
 20
14.9597088985248
 30
0.0
 10
187.8672582457561
 20
14.95551600613393
 30
0.0
 10
187.810464852581
 20
14.96429346441167
 30
0.0
 10
187.7550356873384
 20
14.95094936850126
 30
0.0
 10
187.7670679427916
 20
15.00036910959261
 30
0.0
 10
187.7592003173938
 20
15.04393988030401
 30
0.0
 10
187.7666295563828
 20
15.0883046911853
 30
0.0
 10
187.7551930564144
 20
15.13902297763996
 30
0.0
 10
187.8232102370133
 20
15.12162460757748
 30
0.0
 10
187.8968496879747
 20
15.13417450237194
 30
0.0
 10
188.0325064058211
 20
15.12799677011102
 30
0.0
 10
188.1884909024525
 20
15.13029203093089
 30
0.0
 10
188.3615926358143
 20
15.12940968262535
 30
0.0
 10
188.5346942964181
 20
15.13029207142413
 30
0.0
 10
188.6906789811216
 20
15.12799662955555
 30
0.0
 10
188.8263351889797
 20
15.13417486262436
 30
0.0
 10
188.8999756705652
 20
15.1216239421834
 30
0.0
 10
188.9679914174724
 20
15.13902373012148
 30
0.0
 10
188.9565590885922
 20
15.0883013041456
 30
0.0
 10
188.9639539458298
 20
15.04397060811113
 30
0.0
 10
188.956203991227
 20
15.00028307550201
 30
0.0
 10
188.9681203741877
 20
14.95063590098482
 30
0.0
 10
188.9108170223616
 20
14.9646141133843
 30
0.0
 10
188.8520145789773
 20
14.95539755673259
 30
0.0
 10
188.7525293633199
 20
14.95952268164934
 30
0.0
 10
188.649428009835
 20
14.95822760025893
 30
0.0
 10
188.5537846354573
 20
14.95854077077645
 30
0.0
 10
188.4857467971617
 20
14.95848776697149
 30
0.0
 10
188.4514462213443
 20
14.95849051871661
 30
0.0
 10
188.4418622390564
 20
14.95849128473269
 30
0.0
 11
188.4418622390564
 21
14.95849128473269
 31
0.0
 11
188.4418622390564
 21
14.92423666587189
 31
0.0
 11
188.4418622390564
 21
14.8339290343298
 31
0.0
 11
188.4418622390564
 21
14.70625272766684
 31
0.0
 11
188.4418622390564
 21
14.55989208344344
 31
0.0
 11
188.4418622390564
 21
14.41353143922004
 31
0.0
 11
188.4418622390564
 21
14.28585513255708
 31
0.0
 11
188.4418622390564
 21
14.19554750101498
 31
0.0
 11
188.4418622390564
 21
14.16129288215419
 31
0.0
 11
188.7391932644567
 21
14.22709475713765
 31
0.0
 11
189.0384623627245
 21
14.29496038212069
 31
0.0
 11
189.0405487124976
 21
14.27030727882825
 31
0.0
 11
189.0451386819987
 21
14.21607045158489
 31
0.0
 11
189.0497286514996
 21
14.16183362434153
 31
0.0
 11
189.0518150012728
 21
14.13718052104909
 31
0.0
 11
188.705639688924
 21
14.05163370140898
 31
0.0
 11
188.3669653138838
 21
13.97060877629901
 31
0.0
 11
188.0563731516688
 21
13.89862764024929
 31
0.0
 11
187.7944444777955
 21
13.84021218778989
 31
0.0
 11
187.7817515029292
 21
13.81283442738017
 31
0.0
 11
187.7569794787513
 21
13.79740260446739
 31
0.0
 11
187.7491867589501
 21
13.81910683390639
 31
0.0
 11
187.7306041194242
 21
13.87086307333787
 31
0.0
 11
187.70842483999
 21
13.9326366494335
 31
0.0
 11
187.689842200464
 21
13.98439288886497
 31
0.0
 11
187.6820494806628
 21
14.00609711830398
 31
0.0
 11
187.9482776335931
 21
14.05794001759666
 31
0.0
 11
188.2626334936289
 21
14.12373968771908
 31
0.0
 11
188.2626334936289
 21
14.15236628569623
 31
0.0
 11
188.2626334936289
 21
14.22908556827498
 31
0.0
 11
188.2626334936289
 21
14.34015676842631
 31
0.0
 11
188.2626334936289
 21
14.47183911912119
 31
0.0
 11
188.2626334936289
 21
14.61039185333058
 31
0.0
 11
188.2626334936289
 21
14.74207420402546
 31
0.0
 11
188.2626334936289
 21
14.85314540417679
 31
0.0
 11
188.2626334936289
 21
14.92986468675554
 31
0.0
 11
188.2626334936289
 21
14.95849128473269
 31
0.0
 11
188.2349191321108
 21
14.95849128473269
 31
0.0
 11
188.1634452524063
 21
14.95849128473269
 31
0.0
 11
188.06571566179
 21
14.95849128473269
 31
0.0
 11
187.9592341675364
 21
14.95849128473269
 31
0.0
 11
187.8615045769201
 21
14.95849128473269
 31
0.0
 11
187.7900306972156
 21
14.95849128473269
 31
0.0
 11
187.7623163356975
 21
14.95849128473269
 31
0.0
 11
187.7623163356975
 21
14.98524451823294
 31
0.0
 11
187.7623163356975
 21
15.04410163193349
 31
0.0
 11
187.7623163356975
 21
15.10295874563404
 31
0.0
 11
187.7623163356975
 21
15.12971197913429
 31
0.0
 11
187.7958758072874
 21
15.12971197913429
 31
0.0
 11
187.8869658016031
 21
15.12971197913429
 31
0.0
 11
188.0212036879629
 21
15.12971197913429
 31
0.0
 11
188.1842068356856
 21
15.12971197913429
 31
0.0
 11
188.3615926140897
 21
15.12971197913429
 31
0.0
 11
188.5389783924938
 21
15.12971197913429
 31
0.0
 11
188.7019815402164
 21
15.12971197913429
 31
0.0
 11
188.8362194265763
 21
15.12971197913429
 31
0.0
 11
188.9273094208918
 21
15.12971197913429
 31
0.0
 11
188.9608688924818
 21
15.12971197913429
 31
0.0
 11
188.9608688924818
 21
15.10295874563404
 31
0.0
 11
188.9608688924818
 21
15.04410163193349
 31
0.0
 11
188.9608688924818
 21
14.98524451823294
 31
0.0
 11
188.9608688924818
 21
14.95849128473269
 31
0.0
 11
188.9321192527877
 21
14.95849128473269
 31
0.0
 11
188.8579754451555
 21
14.95849128473269
 31
0.0
 11
188.7565951367604
 21
14.95849128473269
 31
0.0
 11
188.6461359947778
 21
14.95849128473269
 31
0.0
 11
188.5447556863827
 21
14.95849128473269
 31
0.0
 11
188.4706118787505
 21
14.95849128473269
 31
0.0
 11
188.4418622390564
 21
14.95849128473269
 31
0.0
  0
SPLINE
  5
B1
102
{ACAD_REACTORS
330
CE
102
}
330
48
100
AcDbEntity
  8
_U_30EC_U_30A4_U_30E4_U_30FC_1
  6
Continuous
 62
     2
100
AcDbSpline
210
0.0
220
0.0
230
1.0
 70
    11
 71
     3
 72
    91
 73
    87
 74
    85
 42
0.000000001
 43
0.0000000001
 44
0.00000001
 40
0.0
 40
0.0
 40
0.0
 40
0.0
 40
0.0345987051695718
 40
0.1258134969461369
 40
0.2547723404888987
 40
0.4026032099154125
 40
0.5504340793416704
 40
0.679392922883608
 40
0.7706077146571035
 40
0.8052064287780925
 40
1.124852390615285
 40
1.427402236308886
 40
1.706356627453533
 40
1.955541417875225
 40
2.169485938566377
 40
2.344350786664839
 40
2.480568411561992
 40
2.590440557429015
 40
2.649189927151168
 40
2.749320643306367
 40
2.912632739880071
 40
3.147745656000275
 40
3.244827496385155
 40
3.33849005694675
 40
3.58381541320716
 40
3.761423943238511
 40
3.886956104362667
 40
3.985855451886827
 40
4.091766255337711
 40
4.250186473811904
 40
4.422734315084549
 40
4.628285684838644
 40
4.872093227758476
 40
5.152549652145585
 40
5.464967135837567
 40
5.803201477852483
 40
6.160362988813956
 40
6.193449448276011
 40
6.284170385501666
 40
6.419718138764535
 40
6.587285046385785
 40
6.7740634467237
 40
6.967245678113683
 40
7.154024078817669
 40
7.321590987026054
 40
7.457138740890413
 40
7.547859678556149
 40
7.580946138182709
 40
7.608533084714761
 40
7.669224367077735
 40
7.729915649429953
 40
7.757502595950005
 40
7.790278062553458
 40
7.880146277430956
 40
8.01441996318042
 40
8.18041184239792
 40
8.365434637679389
 40
8.55680107162269
 40
8.741823866830803
 40
8.907815745916313
 40
9.042089431507467
 40
9.131957646249592
 40
9.164733112797169
 40
9.415425063140072
 40
9.667986180958525
 40
9.694169807462693
 40
9.756607686047651
 40
9.831130315322458
 40
9.893568193899922
 40
9.919751820398739
 40
9.950967964690593
 40
9.996421631210712
 40
10.22087981037455
 40
10.44341866197541
 40
10.47847970788854
 40
10.57091337438754
 40
10.70159545461229
 40
10.8514017417036
 40
11.00120802880477
 40
11.13189010907382
 40
11.2243237758301
 40
11.25938480938956
 40
11.28697175596145
 40
11.34766303835918
 40
11.40835432042069
 40
11.43594125892103
 40
11.43594125892103
 40
11.43594125892103
 40
11.43594125892103
 10
190.0818114333289
 20
15.55242795125079
 30
0.0
 10
190.0702785844941
 20
15.55242790287917
 30
0.0
 10
190.0283409444998
 20
15.55242773704166
 30
0.0
 10
189.9434129719026
 20
15.55243125800911
 30
0.0
 10
189.8207688553128
 20
15.5524092643588
 30
0.0
 10
189.6791206916993
 20
15.55250801177056
 30
0.0
 10
189.537975369849
 20
15.55214686232423
 30
0.0
 10
189.4141351317904
 20
15.55321883609091
 30
0.0
 10
189.3317217825382
 20
15.5509224909127
 30
0.0
 10
189.1727791229692
 20
15.56048569373422
 30
0.0
 10
189.3503402353376
 20
15.19785394311372
 30
0.0
 10
189.3379739205452
 20
14.95243127723115
 30
0.0
 10
189.4064519473864
 20
14.66862501324835
 30
0.0
 10
189.469302432097
 20
14.43250999939034
 30
0.0
 10
189.5452253431728
 20
14.23326740396128
 30
0.0
 10
189.6303189577016
 20
14.07745347451371
 30
0.0
 10
189.7244607592935
 20
13.97657857781389
 30
0.0
 10
189.8282648207727
 20
13.92465852638962
 30
0.0
 10
189.9125872030773
 20
13.97606484379613
 30
0.0
 10
189.9351322179452
 20
14.09144544037514
 30
0.0
 10
189.9745730975371
 20
14.21885149702377
 30
0.0
 10
189.9202919734941
 20
14.5362232808675
 30
0.0
 10
190.0451218072474
 20
14.38982180140905
 30
0.0
 10
190.2019291513602
 20
14.35795300331168
 30
0.0
 10
190.0947720007056
 20
14.12421357767628
 30
0.0
 10
190.0808711209867
 20
13.95972776583657
 30
0.0
 10
190.0234709467225
 20
13.83130869122485
 30
0.0
 10
189.9335020145009
 20
13.76018802352828
 30
0.0
 10
189.8095274657877
 20
13.74432324142257
 30
0.0
 10
189.663427319686
 20
13.77993797554173
 30
0.0
 10
189.5243894320284
 20
13.9000057050028
 30
0.0
 10
189.4102003962143
 20
14.07435682550322
 30
0.0
 10
189.3146141301486
 20
14.29946603111243
 30
0.0
 10
189.2318652572627
 20
14.56388246006445
 30
0.0
 10
189.1807179256411
 20
14.88187933098545
 30
0.0
 10
189.0770189207337
 20
15.15543728488914
 30
0.0
 10
189.2042841208523
 20
15.56005818612869
 30
0.0
 10
189.0357890623018
 20
15.5511236784968
 30
0.0
 10
188.9511995787077
 20
15.55315961418365
 30
0.0
 10
188.8189876387627
 20
15.55213937388408
 30
0.0
 10
188.6560505094104
 20
15.55253230318431
 30
0.0
 10
188.4733759170532
 20
15.5523569631337
 30
0.0
 10
188.2847057373383
 20
15.5526010530747
 30
0.0
 10
188.1014469020189
 20
15.55185657906238
 30
0.0
 10
187.9404746832718
 20
15.55416360522428
 30
0.0
 10
187.8029808335276
 20
15.54799804883664
 30
0.0
 10
187.728959037231
 20
15.56032838458213
 30
0.0
 10
187.6613215186856
 20
15.54329323723558
 30
0.0
 10
187.6732373719269
 20
15.59524438447529
 30
0.0
 10
187.6655677285693
 20
15.6407142496653
 30
0.0
 10
187.6732592225115
 20
15.68614453703707
 30
0.0
 10
187.6613141797762
 20
15.73802395984571
 30
0.0
 10
187.7283588305866
 20
15.72119143490265
 30
0.0
 10
187.8017375665677
 20
15.73335409092672
 30
0.0
 10
187.9379128305271
 20
15.72727231074959
 30
0.0
 10
188.0973811801513
 20
15.7295483431506
 30
0.0
 10
188.2789173085836
 20
15.72881233998963
 30
0.0
 10
188.4658034862179
 20
15.72905954196135
 30
0.0
 10
188.6468012316836
 20
15.72886400799255
 30
0.0
 10
188.8080802578878
 20
15.7293223471484
 30
0.0
 10
188.9393882124887
 20
15.72812673751207
 30
0.0
 10
189.0225051322596
 20
15.73051347319743
 30
0.0
 10
189.1556236547814
 20
15.72230605725465
 30
0.0
 10
189.0645893502658
 20
15.97752868952655
 30
0.0
 10
188.9789633074419
 20
16.24164358328244
 30
0.0
 10
189.0990589003455
 20
16.22904442969163
 30
0.0
 10
189.1514264948544
 20
16.22694235763074
 30
0.0
 10
189.2214497569715
 20
16.22535399889656
 30
0.0
 10
189.2671922337817
 20
16.21602567538113
 30
0.0
 10
189.3220812646933
 20
16.22545966915426
 30
0.0
 10
189.2963574785681
 20
16.1773302865517
 30
0.0
 10
189.1825397571454
 20
16.18266829744158
 30
0.0
 10
189.3159346621135
 20
15.95449174576776
 30
0.0
 10
189.1943658735472
 20
15.72156856595925
 30
0.0
 10
189.3223188769412
 20
15.7308725888444
 30
0.0
 10
189.4049048406461
 20
15.72801001754682
 30
0.0
 10
189.5307214850824
 20
15.72923437412303
 30
0.0
 10
189.6741469838058
 20
15.72932431888965
 30
0.0
 10
189.8157420951728
 20
15.72746163183854
 30
0.0
 10
189.9459127249968
 20
15.73333075937163
 30
0.0
 10
190.019345228619
 20
15.72070340823204
 30
0.0
 10
190.0891112922096
 20
15.73877563110413
 30
0.0
 10
190.0775772605396
 20
15.68612850546327
 30
0.0
 10
190.0833184346682
 20
15.64221317686549
 30
0.0
 10
190.0816615770911
 20
15.59089982676551
 30
0.0
 10
190.0817757561669
 20
15.56158792021636
 30
0.0
 10
190.0818114333289
 20
15.55242795125079
 30
0.0
 11
190.0818114333289
 21
15.55242795125079
 31
0.0
 11
190.0472127192051
 21
15.55242795125079
 31
0.0
 11
189.9559979274241
 21
15.55242795125079
 31
0.0
 11
189.8270390838717
 21
15.55242795125079
 31
0.0
 11
189.6792082144335
 21
15.55242795125079
 31
0.0
 11
189.5313773449954
 21
15.55242795125079
 31
0.0
 11
189.402418501443
 21
15.55242795125079
 31
0.0
 11
189.311203709662
 21
15.55242795125079
 31
0.0
 11
189.2766049955382
 21
15.55242795125079
 31
0.0
 11
189.3083140497693
 21
15.23435864930122
 31
0.0
 11
189.3527866656865
 21
14.93509522788081
 31
0.0
 11
189.4092389118319
 21
14.66191269512576
 31
0.0
 11
189.4768868567478
 21
14.42208605917226
 31
0.0
 11
189.5549465689761
 21
14.22289032815653
 31
0.0
 11
189.6426341170591
 21
14.07160051021475
 31
0.0
 11
189.7391655695388
 21
13.97549161348314
 31
0.0
 11
189.8437569949575
 21
13.94183864609789
 31
0.0
 11
189.8943077302786
 21
13.97177376978832
 31
0.0
 11
189.9310588991551
 21
14.06491619815044
 31
0.0
 11
189.9562640977528
 21
14.22627151712051
 31
0.0
 11
189.9721769222368
 21
14.46084531263479
 31
0.0
 11
190.0494082682583
 21
14.40202182306617
 31
0.0
 11
190.1327184184385
 21
14.35921885432688
 31
0.0
 11
190.1066365811217
 21
14.1152838866101
 31
0.0
 11
190.0673317805105
 21
13.94207902887563
 31
0.0
 11
190.0105702596765
 21
13.83011272445919
 31
0.0
 11
189.932118261691
 21
13.76989341669647
 31
0.0
 11
189.8277420296256
 21
13.75192954892319
 31
0.0
 11
189.6738595065097
 21
13.78957440012363
 31
0.0
 11
189.5388902376747
 21
13.89707348877405
 31
0.0
 11
189.4221739916163
 21
14.06627361744811
 31
0.0
 11
189.32305053683
 21
14.28902158871945
 31
0.0
 11
189.2408596418113
 21
14.55716420516174
 31
0.0
 11
189.1749410750559
 21
14.86254826934862
 31
0.0
 11
189.1246346050593
 21
15.19702058385376
 31
0.0
 11
189.0892800003171
 21
15.55242795125079
 31
0.0
 11
189.0561935405844
 21
15.55242795125079
 31
0.0
 11
188.9654726026075
 21
15.55242795125079
 31
0.0
 11
188.8299248482185
 21
15.55242795125079
 31
0.0
 11
188.6623579392495
 21
15.55242795125079
 31
0.0
 11
188.4755795375324
 21
15.55242795125079
 31
0.0
 11
188.2823973048992
 21
15.55242795125079
 31
0.0
 11
188.0956189031822
 21
15.55242795125079
 31
0.0
 11
187.9280519942131
 21
15.55242795125079
 31
0.0
 11
187.7925042398241
 21
15.55242795125079
 31
0.0
 11
187.7017833018473
 21
15.55242795125079
 31
0.0
 11
187.6686968421145
 21
15.55242795125079
 31
0.0
 11
187.6686968421145
 21
15.58001489785848
 31
0.0
 11
187.6686968421145
 21
15.64070618039539
 31
0.0
 11
187.6686968421145
 21
15.7013974629323
 31
0.0
 11
187.6686968421145
 21
15.72898440953999
 31
0.0
 11
187.7014723087631
 21
15.72898440953999
 31
0.0
 11
187.7913405237673
 21
15.72898440953999
 31
0.0
 11
187.9256142097148
 21
15.72898440953999
 31
0.0
 11
188.0916060891932
 21
15.72898440953999
 31
0.0
 11
188.2766288847901
 21
15.72898440953999
 31
0.0
 11
188.4679953190932
 21
15.72898440953999
 31
0.0
 11
188.6530181146902
 21
15.72898440953999
 31
0.0
 11
188.8190099941685
 21
15.72898440953999
 31
0.0
 11
188.953283680116
 21
15.72898440953999
 31
0.0
 11
189.0431518951202
 21
15.72898440953999
 31
0.0
 11
189.0759273617688
 21
15.72898440953999
 31
0.0
 11
189.0659183950103
 21
15.97947647544957
 31
0.0
 11
189.0599112510663
 21
16.23196614552529
 31
0.0
 11
189.0860575870659
 21
16.2305692160812
 31
0.0
 11
189.1484065421419
 21
16.22723807663759
 31
0.0
 11
189.2228230369099
 21
16.22326220052749
 31
0.0
 11
189.2851719919859
 21
16.21993106108388
 31
0.0
 11
189.3113183279855
 21
16.21853413163979
 31
0.0
 11
189.298293111304
 21
16.19016528616077
 31
0.0
 11
189.2551649266405
 21
16.17581274276159
 31
0.0
 11
189.2574991961821
 21
15.95136670115108
 31
0.0
 11
189.2658452735903
 21
15.72898440953999
 31
0.0
 11
189.3009063195165
 21
15.72898440953999
 31
0.0
 11
189.3933399860495
 21
15.72898440953999
 31
0.0
 11
189.5240220663201
 21
15.72898440953999
 31
0.0
 11
189.6738283534596
 21
15.72898440953999
 31
0.0
 11
189.8236346405991
 21
15.72898440953999
 31
0.0
 11
189.9543167208697
 21
15.72898440953999
 31
0.0
 11
190.0467503874027
 21
15.72898440953999
 31
0.0
 11
190.0818114333289
 21
15.72898440953999
 31
0.0
 11
190.0818114333289
 21
15.7013974629323
 31
0.0
 11
190.0818114333289
 21
15.64070618039539
 31
0.0
 11
190.0818114333289
 21
15.58001489785848
 31
0.0
 11
190.0818114333289
 21
15.55242795125079
 31
0.0
  0
SPLINE
  5
B2
102
{ACAD_REACTORS
330
CF
102
}
330
48
100
AcDbEntity
  8
_U_30EC_U_30A4_U_30E4_U_30FC_1
  6
Continuous
 62
     2
100
AcDbSpline
210
0.0
220
0.0
230
1.0
 70
    11
 71
     3
 72
   118
 73
   114
 74
   112
 42
0.000000001
 43
0.0000000001
 44
0.00000001
 40
0.0
 40
0.0
 40
0.0
 40
0.0
 40
0.1054708162973325
 40
0.2466098270051825
 40
0.3965912874591206
 40
0.5285525069754007
 40
0.6156245055642277
 40
0.6431434105797574
 40
0.7036850037986235
 40
0.7642265984504619
 40
0.7917455052354909
 40
0.9287404319989986
 40
1.106572819088051
 40
1.28754487968102
 40
1.317578308030537
 40
1.399928030857174
 40
1.52296820479995
 40
1.675072986590571
 40
1.84461653318065
 40
2.019973001638713
 40
2.189516548880025
 40
2.341621331585364
 40
2.464661506320498
 40
2.547011229647064
 40
2.577044658168028
 40
2.603797890893098
 40
2.662655002908785
 40
2.721512114949597
 40
2.748265347702777
 40
2.774215307344853
 40
2.845959313407189
 40
2.954338556588393
 40
3.090194227585577
 40
3.244367517100553
 40
3.407699615844319
 40
3.571031714539474
 40
3.725205003920161
 40
3.86106067472967
 40
3.969439917716368
 40
4.041183923629044
 40
4.067133883213039
 40
4.31188674601226
 40
4.547897258335647
 40
4.764747083044095
 40
4.952749679951902
 40
5.045772974196055
 40
5.137862019645123
 40
5.330543169793179
 40
5.55344826524418
 40
5.795083855888352
 40
6.043293412177428
 40
6.285761695541386
 40
6.31390290875287
 40
6.38425594179346
 40
6.475714884767048
 40
6.567173827759111
 40
6.637526860839889
 40
6.665668074074252
 40
6.692018920328215
 40
6.749990782071261
 40
6.807962643790604
 40
6.834313490018068
 40
6.856393084245346
 40
6.91333519564997
 40
6.991194817302634
 40
7.076026942283895
 40
7.153886563725385
 40
7.210828674844968
 40
7.232908268931303
 40
7.258199334923826
 40
7.324875781592481
 40
7.419142481925149
 40
7.527204308842101
 40
7.635266135230689
 40
7.729532834168686
 40
7.796209279293012
 40
7.821500344594962
 40
7.844652988851033
 40
7.899863140541813
 40
7.96575912805398
 40
8.020969279771265
 40
8.044121924046731
 40
8.069356610160824
 40
8.109134395441586
 40
8.132238100191302
 40
8.193147867786667
 40
8.279261678876846
 40
8.377977512674065
 40
8.476693347146856
 40
8.562807160411912
 40
8.623716930826703
 40
8.646820636853656
 40
8.671988793774469
 40
8.73490918582838
 40
8.816705695189095
 40
8.898502204815665
 40
8.961422597378126
 40
8.986590754551239
 40
9.012941600733384
 40
9.070913462380444
 40
9.128885324081915
 40
9.155236170325225
 40
9.180404327929267
 40
9.24332472194834
 40
9.325121234212133
 40
9.406917746637788
 40
9.469838141978244
 40
9.495006288271018
 40
9.517811184379164
 40
9.572192090487178
 40
9.63709833328142
 40
9.691479239515633
 40
9.714284125643678
 40
9.714284125643678
 40
9.714284125643678
 40
9.714284125643678
 10
185.2874469028653
 20
15.26889163187718
 30
0.0
 10
185.3090990569037
 20
15.2411186924281
 30
0.0
 10
185.3597257109474
 20
15.17618054561236
 30
0.0
 10
185.4349383202592
 20
15.06891060312898
 30
0.0
 10
185.5248482274346
 20
14.95377438266625
 30
0.0
 10
185.5709169676674
 20
14.85357045748319
 30
0.0
 10
185.6655825294654
 20
14.7843400681494
 30
0.0
 10
185.6204439320413
 20
14.73771639678272
 30
0.0
 10
185.5947047785789
 20
14.69660308866037
 30
0.0
 10
185.5645196708012
 20
14.66065971727938
 30
0.0
 10
185.5193684730563
 20
14.58579782596093
 30
0.0
 10
185.4710504458562
 20
14.80782524253605
 30
0.0
 10
185.3968539713073
 20
14.8451067733771
 30
0.0
 10
185.2836047324606
 20
15.11610202130597
 30
0.0
 10
185.2885133578169
 20
15.00095328446225
 30
0.0
 10
185.2868486556306
 20
14.92836675781624
 30
0.0
 10
185.2876830076713
 20
14.80625588483983
 30
0.0
 10
185.2873609540264
 20
14.65913800810458
 30
0.0
 10
185.2875076912455
 20
14.49307063956553
 30
0.0
 10
185.2872950092722
 20
14.32187554608599
 30
0.0
 10
185.2879497252034
 20
14.15552828635495
 30
0.0
 10
185.2859192461139
 20
14.0093517305569
 30
0.0
 10
185.291346039993
 20
13.88471047474608
 30
0.0
 10
185.2804930868708
 20
13.81718656540623
 30
0.0
 10
185.2956739155555
 20
13.7554906141702
 30
0.0
 10
185.2457895108134
 20
13.76727503896998
 30
0.0
 10
185.2017150342522
 20
13.75943822779966
 30
0.0
 10
185.15823716302
 20
13.767604413727
 30
0.0
 10
185.1092346786489
 20
13.75538056738465
 30
0.0
 10
185.1218731234825
 20
13.8096066724931
 30
0.0
 10
185.113018296845
 20
13.86936918907555
 30
0.0
 10
185.1175058770314
 20
13.97922029044368
 30
0.0
 10
185.1157960135991
 20
14.11029975405677
 30
0.0
 10
185.1163550915986
 20
14.26198011444327
 30
0.0
 10
185.1161928768693
 20
14.42211074929953
 30
0.0
 10
185.1162269924675
 20
14.58236865674568
 30
0.0
 10
185.1162514960126
 20
14.73370247520441
 30
0.0
 10
185.1161453543225
 20
14.86582156338604
 30
0.0
 10
185.1164299141931
 20
14.97294802533196
 30
0.0
 10
185.1158675547568
 20
15.03808619579478
 30
0.0
 10
185.1180765083689
 20
15.1661895785868
 30
0.0
 10
185.0319435998602
 20
14.79097610391575
 30
0.0
 10
184.9555140818499
 20
14.63918193123394
 30
0.0
 10
184.8660040767834
 20
14.47766206446303
 30
0.0
 10
184.7640413217326
 20
14.20471848820167
 30
0.0
 10
184.7187976491039
 20
14.36717346596509
 30
0.0
 10
184.6102355941671
 20
14.45605432058119
 30
0.0
 10
184.7995791751753
 20
14.60549794961408
 30
0.0
 10
184.85653405457
 20
14.79749136974925
 30
0.0
 10
184.9717520993352
 20
15.02899622906758
 30
0.0
 10
184.9940151630133
 20
15.21797259759066
 30
0.0
 10
185.1771905152139
 20
15.49454089325932
 30
0.0
 10
185.0538033597552
 20
15.48698978832098
 30
0.0
 10
184.9925684166834
 20
15.48856772366122
 30
0.0
 10
184.9081999617064
 20
15.48882592573677
 30
0.0
 10
184.8204235085965
 20
15.48544845751209
 30
0.0
 10
184.7656768696123
 20
15.49394814982024
 30
0.0
 10
184.7104703026024
 20
15.48048561049792
 30
0.0
 10
184.7222823035537
 20
15.52931442126766
 30
0.0
 10
184.7142496151793
 20
15.57269004896709
 30
0.0
 10
184.7228186104679
 20
15.61509438309572
 30
0.0
 10
184.7102943409156
 20
15.66267796552115
 30
0.0
 10
184.7555101538736
 20
15.65267212995106
 30
0.0
 10
184.8014815562723
 20
15.65894105174057
 30
0.0
 10
184.877722204771
 20
15.65593561405869
 30
0.0
 10
184.9561296131993
 20
15.65770448278538
 30
0.0
 10
185.0323992648932
 20
15.65464793981657
 30
0.0
 10
185.0783009459475
 20
15.66103971376174
 30
0.0
 10
185.12317339654
 20
15.65093822978893
 30
0.0
 10
185.1105552275634
 20
15.70157201581896
 30
0.0
 10
185.1191936582707
 20
15.75501261882067
 30
0.0
 10
185.1152361595443
 20
15.84863255131679
 30
0.0
 10
185.1162325068335
 20
15.95112606688923
 30
0.0
 10
185.1171927413073
 20
16.05353270248164
 30
0.0
 10
185.1133211458006
 20
16.14735929609323
 30
0.0
 10
185.1217789814364
 20
16.20036542840355
 30
0.0
 10
185.1093075932835
 20
16.25211435651191
 30
0.0
 10
185.154210638985
 20
16.23850747226759
 30
0.0
 10
185.1955083836772
 20
16.24100480320587
 30
0.0
 10
185.259534428105
 20
16.23648060574487
 30
0.0
 10
185.2986111148786
 20
16.22781003043307
 30
0.0
 10
185.3476543498742
 20
16.23515102070684
 30
0.0
 10
185.3225080030591
 20
16.19602896051756
 30
0.0
 10
185.2815901333723
 20
16.20563842455807
 30
0.0
 10
185.2910109616604
 20
16.15540148169778
 30
0.0
 10
185.2855647318746
 20
16.10385945639489
 30
0.0
 10
185.2881699601804
 20
16.01959707584519
 30
0.0
 10
185.2870102202154
 20
15.92559135583406
 30
0.0
 10
185.2883591064231
 20
15.83196865395523
 30
0.0
 10
185.2849970101509
 20
15.7467951755222
 30
0.0
 10
185.2920959917769
 20
15.69716856072042
 30
0.0
 10
185.2812569154545
 20
15.64993694969985
 30
0.0
 10
185.3304010225245
 20
15.66201674936849
 30
0.0
 10
185.3794877630146
 20
15.65447393363008
 30
0.0
 10
185.4573714280641
 20
15.65686070361429
 30
0.0
 10
185.5350365172896
 20
15.65899381905412
 30
0.0
 10
185.5845393931354
 20
15.65193391922451
 30
0.0
 10
185.6344594750639
 20
15.66360151936211
 30
0.0
 10
185.622319851688
 20
15.61540235371392
 30
0.0
 10
185.6305838229144
 20
15.57249219801236
 30
0.0
 10
185.6223198650783
 20
15.52958201851387
 30
0.0
 10
185.6344594549854
 20
15.48138288754868
 30
0.0
 10
185.5845395158746
 20
15.49305034471515
 30
0.0
 10
185.5350350651202
 20
15.48599202435049
 30
0.0
 10
185.4573784382973
 20
15.48811665228608
 30
0.0
 10
185.379464386576
 20
15.49053389365763
 30
0.0
 10
185.3304500352716
 20
15.4829184819449
 30
0.0
 10
185.2813246108943
 20
15.49507952557596
 30
0.0
 10
185.291555998857
 20
15.45073013424161
 30
0.0
 10
185.2856677678054
 20
15.40925436202914
 30
0.0
 10
185.2878788305568
 20
15.34915394315304
 30
0.0
 10
185.2874109346145
 20
15.30225782762888
 30
0.0
 10
185.2874386992914
 20
15.27650146418196
 30
0.0
 10
185.2874469028653
 20
15.26889163187718
 30
0.0
 11
185.2874469028653
 21
15.26889163187718
 31
0.0
 11
185.3516977534484
 21
15.18524999634256
 31
0.0
 11
185.4348258835499
 21
15.07118889748221
 31
0.0
 11
185.5216831568896
 21
14.94891767195723
 31
0.0
 11
185.5971214371872
 21
14.84064565642875
 31
0.0
 11
185.6459925881626
 21
14.76858218755788
 31
0.0
 11
185.6296821285093
 21
14.74641782124398
 31
0.0
 11
185.5937991172719
 21
14.69765621535338
 31
0.0
 11
185.5579161060346
 21
14.64889460946279
 31
0.0
 11
185.5416056463813
 21
14.62673024314888
 31
0.0
 11
185.4763067109446
 21
14.74716139023814
 31
0.0
 11
185.3848434243234
 21
14.89966983670207
 31
0.0
 11
185.2874469028653
 21
15.05219788193139
 31
0.0
 11
185.2874469028653
 21
15.0221644532825
 31
0.0
 11
185.2874469028653
 21
14.9398147295678
 31
0.0
 11
185.2874469028653
 21
14.81677455413525
 31
0.0
 11
185.2874469028653
 21
14.6646697703328
 31
0.0
 11
185.2874469028653
 21
14.49512622150842
 31
0.0
 11
185.2874469028653
 21
14.31976975101006
 31
0.0
 11
185.2874469028653
 21
14.15022620218568
 31
0.0
 11
185.2874469028653
 21
13.99812141838323
 31
0.0
 11
185.2874469028653
 21
13.87508124295068
 31
0.0
 11
185.2874469028653
 21
13.79273151923598
 31
0.0
 11
185.2874469028653
 21
13.76269809058709
 31
0.0
 11
185.2606936700409
 21
13.76269809058709
 31
0.0
 11
185.2018365578272
 21
13.76269809058709
 31
0.0
 11
185.1429794456134
 21
13.76269809058709
 31
0.0
 11
185.116226212789
 21
13.76269809058709
 31
0.0
 11
185.116226212789
 21
13.78864805031247
 31
0.0
 11
185.116226212789
 21
13.86039205661205
 31
0.0
 11
185.116226212789
 21
13.968771300171
 31
0.0
 11
185.116226212789
 21
14.10462697167446
 31
0.0
 11
185.116226212789
 21
14.25880026180761
 31
0.0
 11
185.116226212789
 21
14.42213236125559
 31
0.0
 11
185.116226212789
 21
14.58546446070357
 31
0.0
 11
185.116226212789
 21
14.73963775083672
 31
0.0
 11
185.116226212789
 21
14.87549342234018
 31
0.0
 11
185.116226212789
 21
14.98387266589913
 31
0.0
 11
185.116226212789
 21
15.05561667219871
 31
0.0
 11
185.116226212789
 21
15.08156663192409
 31
0.0
 11
185.0379865861721
 21
14.84965603302372
 31
0.0
 11
184.9497110789303
 21
14.63077616328676
 31
0.0
 11
184.8544106930045
 21
14.43598991333544
 31
0.0
 11
184.7550964303356
 21
14.27636017379199
 31
0.0
 11
184.7109198342406
 21
14.35822446196599
 31
0.0
 11
184.658805738348
 21
14.43414885430809
 31
0.0
 11
184.7627302590299
 21
14.59640087926756
 31
0.0
 11
184.8629319864735
 21
14.7955146542178
 31
0.0
 11
184.9550446607901
 21
15.01890447916198
 31
0.0
 11
185.0347020220912
 21
15.25398465410322
 31
0.0
 11
185.097537810488
 21
15.48816947904469
 31
0.0
 11
185.0693965972142
 21
15.48816947904469
 31
0.0
 11
184.9990435640297
 21
15.48816947904469
 31
0.0
 11
184.9075846208898
 21
15.48816947904469
 31
0.0
 11
184.8161256777499
 21
15.48816947904469
 31
0.0
 11
184.7457726445654
 21
15.48816947904469
 31
0.0
 11
184.7176314312916
 21
15.48816947904469
 31
0.0
 11
184.7176314312916
 21
15.51452032539225
 31
0.0
 11
184.7176314312916
 21
15.57249218735689
 31
0.0
 11
184.7176314312916
 21
15.63046404932153
 31
0.0
 11
184.7176314312916
 21
15.65681489566909
 31
0.0
 11
184.739711025602
 21
15.65681489566909
 31
0.0
 11
184.7966531372444
 21
15.65681489566909
 31
0.0
 11
184.8745127592862
 21
15.65681489566909
 31
0.0
 11
184.9593448847944
 21
15.65681489566909
 31
0.0
 11
185.0372045068361
 21
15.65681489566909
 31
0.0
 11
185.0941466184786
 21
15.65681489566909
 31
0.0
 11
185.116226212789
 21
15.65681489566909
 31
0.0
 11
185.116226212789
 21
15.6821059617435
 31
0.0
 11
185.116226212789
 21
15.74878240866695
 31
0.0
 11
185.116226212789
 21
15.84304910948975
 31
0.0
 11
185.116226212789
 21
15.95111093726224
 31
0.0
 11
185.116226212789
 21
16.05917276503472
 31
0.0
 11
185.116226212789
 21
16.15343946585753
 31
0.0
 11
185.116226212789
 21
16.22011591278098
 31
0.0
 11
185.116226212789
 21
16.24540697885539
 31
0.0
 11
185.1393181988665
 21
16.24373213107802
 31
0.0
 11
185.1943837041284
 21
16.23973826330123
 31
0.0
 11
185.2601070491184
 21
16.23497138885795
 31
0.0
 11
185.3151725543802
 21
16.23097752108115
 31
0.0
 11
185.3382645404578
 21
16.22930267330379
 31
0.0
 11
185.3249012644362
 21
16.20789677921189
 31
0.0
 11
185.2874469028653
 21
16.19450114553469
 31
0.0
 11
185.2874469028653
 21
16.17139743948578
 31
0.0
 11
185.2874469028653
 21
16.11048766899319
 31
0.0
 11
185.2874469028653
 21
16.02437385553815
 31
0.0
 11
185.2874469028653
 21
15.92565802060189
 31
0.0
 11
185.2874469028653
 21
15.82694218566563
 31
0.0
 11
185.2874469028653
 21
15.74082837221059
 31
0.0
 11
185.2874469028653
 21
15.679918601718
 31
0.0
 11
185.2874469028653
 21
15.65681489566909
 31
0.0
 11
185.3126150604809
 21
15.65681489566909
 31
0.0
 11
185.3755354545199
 21
15.65681489566909
 31
0.0
 11
185.4573319667706
 21
15.65681489566909
 31
0.0
 11
185.5391284790212
 21
15.65681489566909
 31
0.0
 11
185.6020488730602
 21
15.65681489566909
 31
0.0
 11
185.6272170306758
 21
15.65681489566909
 31
0.0
 11
185.6272170306758
 21
15.63046404932153
 31
0.0
 11
185.6272170306758
 21
15.57249218735689
 31
0.0
 11
185.6272170306758
 21
15.51452032539225
 31
0.0
 11
185.6272170306758
 21
15.48816947904469
 31
0.0
 11
185.6020488730602
 21
15.48816947904469
 31
0.0
 11
185.5391284790212
 21
15.48816947904469
 31
0.0
 11
185.4573319667705
 21
15.48816947904469
 31
0.0
 11
185.3755354545199
 21
15.48816947904469
 31
0.0
 11
185.3126150604809
 21
15.48816947904469
 31
0.0
 11
185.2874469028653
 21
15.48816947904469
 31
0.0
 11
185.2874469028653
 21
15.46536458293927
 31
0.0
 11
185.2874469028653
 21
15.41098367684173
 31
0.0
 11
185.2874469028653
 21
15.34607743408014
 31
0.0
 11
185.2874469028653
 21
15.2916965279826
 31
0.0
 11
185.2874469028653
 21
15.26889163187718
 31
0.0
  0
SPLINE
  5
B3
102
{ACAD_REACTORS
330
D0
102
}
330
48
100
AcDbEntity
  8
_U_30EC_U_30A4_U_30E4_U_30FC_1
  6
Continuous
 62
     2
100
AcDbSpline
210
0.0
220
0.0
230
1.0
 70
    11
 71
     3
 72
    47
 73
    43
 74
    41
 42
0.000000001
 43
0.0000000001
 44
0.00000001
 40
0.0
 40
0.0
 40
0.0
 40
0.0
 40
0.2207912809957319
 40
0.4459404186303344
 40
0.4902387190459574
 40
0.5327473892722453
 40
0.5742260451225811
 40
0.6155432630561101
 40
0.6568164066316016
 40
0.6982511618780973
 40
0.7407663929317407
 40
0.7851366743175483
 40
1.010288833836365
 40
1.231080507002228
 40
1.451765243652405
 40
1.676638205891692
 40
1.720461045359665
 40
1.83001814404353
 40
1.972442372353165
 40
2.114866600677534
 40
2.224423699395162
 40
2.268246538883403
 40
2.49362880120727
 40
2.715602830286654
 40
2.934211330706414
 40
3.149502369855371
 40
3.231387784851015
 40
3.318231873854049
 40
3.405143198198036
 40
3.486970301720471
 40
3.702258172493877
 40
3.920866283534114
 40
4.142839325931889
 40
4.368221903865386
 40
4.412044743359868
 40
4.521601842095883
 40
4.664026070452366
 40
4.806450298809079
 40
4.916007397546773
 40
4.959830237043096
 40
5.184703515847133
 40
5.405387250767455
 40
5.405387250767455
 40
5.405387250767455
 40
5.405387250767455
 10
182.6507427258645
 20
15.73406440953869
 30
0.0
 10
182.6568139420002
 20
15.79758482501206
 30
0.0
 10
182.6690762107243
 20
15.92587938689623
 30
0.0
 10
182.5604706879412
 20
16.20166220174083
 30
0.0
 10
182.6761985896603
 20
16.1718813343205
 30
0.0
 10
182.7171842509015
 20
16.16765556262828
 30
0.0
 10
182.7591205797518
 20
16.16310446389605
 30
0.0
 10
182.800419662571
 20
16.16201982929488
 30
0.0
 10
182.8417032115555
 20
16.16310338195226
 30
0.0
 10
182.8836148270647
 20
16.16766112711352
 30
0.0
 10
182.9245983549019
 20
16.17187430209724
 30
0.0
 10
183.0404922843488
 20
16.20177611317539
 30
0.0
 10
182.9295652727457
 20
15.92339806609885
 30
0.0
 10
182.9574856365267
 20
15.74283140824952
 30
0.0
 10
182.9404267346969
 20
15.50961042346471
 30
0.0
 10
182.9414637282102
 20
15.34906622543148
 30
0.0
 10
182.9414099399405
 20
15.22284817558723
 30
0.0
 10
182.941427737248
 20
15.12428963336242
 30
0.0
 10
182.941418858108
 20
14.99280702442965
 30
0.0
 10
182.9414263928034
 20
14.86132844968651
 30
0.0
 10
182.9414129405128
 20
14.76276222694091
 30
0.0
 10
182.9414531717492
 20
14.63639735624152
 30
0.0
 10
182.9406746403816
 20
14.47482068822869
 30
0.0
 10
182.9565958319266
 20
14.24361821892913
 30
0.0
 10
182.9333468885408
 20
14.05874351972001
 30
0.0
 10
183.0360183444366
 20
13.78935602770058
 30
0.0
 10
182.8820238362836
 20
13.82660112685817
 30
0.0
 10
182.8004129802832
 20
13.82137994680528
 30
0.0
 10
182.7188192292583
 20
13.82660620378351
 30
0.0
 10
182.5648513666842
 20
13.78937069885389
 30
0.0
 10
182.6674183421918
 20
14.05875129862879
 30
0.0
 10
182.6442045316088
 20
14.24361585325413
 30
0.0
 10
182.6600444655139
 20
14.47482218565637
 30
0.0
 10
182.6593296313427
 20
14.63639712308503
 30
0.0
 10
182.6593664569907
 20
14.76276231210521
 30
0.0
 10
182.659354900027
 20
14.86132756635983
 30
0.0
 10
182.6593575019214
 20
14.99281127417221
 30
0.0
 10
182.6593648531778
 20
15.124275480312
 30
0.0
 10
182.6593442541351
 20
15.22287786275328
 30
0.0
 10
182.6594082192027
 20
15.34896149354428
 30
0.0
 10
182.6581733947592
 20
15.51210091383772
 30
0.0
 10
182.6532040396745
 20
15.66054183777548
 30
0.0
 10
182.6507427258645
 20
15.73406440953869
 30
0.0
 11
182.6507427258645
 21
15.73406440953869
 31
0.0
 11
182.6417328200379
 21
15.95467178795575
 31
0.0
 11
182.6318769706146
 21
16.17960510387179
 31
0.0
 11
182.6756985840801
 21
16.17312391463727
 31
0.0
 11
182.7178400934215
 21
16.16754892331929
 31
0.0
 11
182.759137140979
 21
16.16367167505632
 31
0.0
 11
182.8004341885365
 21
16.16238072887609
 31
0.0
 11
182.841687138873
 21
16.16367167505632
 31
0.0
 11
182.8829400892097
 21
16.16754892331929
 31
0.0
 11
182.9250882131343
 21
16.17312391463727
 31
0.0
 11
182.9689825870145
 21
16.17960510387179
 31
0.0
 11
182.9590577693891
 21
15.95467178795575
 31
0.0
 11
182.950038420831
 21
15.73406440953869
 31
0.0
 11
182.9435638463435
 21
15.51347467001056
 31
0.0
 11
182.9414218238286
 21
15.28861190965009
 31
0.0
 11
182.9414218238286
 21
15.24478907015487
 31
0.0
 11
182.9414218238286
 21
15.13523197141684
 31
0.0
 11
182.9414218238286
 21
14.99280774305738
 31
0.0
 11
182.9414218238286
 21
14.85038351469793
 31
0.0
 11
182.9414218238286
 21
14.74082641595989
 31
0.0
 11
182.9414218238286
 21
14.69700357646468
 31
0.0
 11
182.9435638463435
 21
14.47163149318764
 31
0.0
 11
182.950038420831
 21
14.24975190990979
 31
0.0
 11
182.9590577693891
 21
14.03132954885327
 31
0.0
 11
182.9689825870145
 21
13.81626739612929
 31
0.0
 11
182.887261616877
 21
13.82145433189185
 31
0.0
 11
182.8004341885365
 21
13.82315538223858
 31
0.0
 11
182.7135395119339
 21
13.82145433189185
 31
0.0
 11
182.6318769706146
 21
13.81626739612929
 31
0.0
 11
182.6417328200379
 21
14.03132954885327
 31
0.0
 11
182.6507427258645
 21
14.24975190990979
 31
0.0
 11
182.6571833838798
 21
14.47163149318764
 31
0.0
 11
182.6593583588023
 21
14.69700357646468
 31
0.0
 11
182.6593583588023
 21
14.74082641595989
 31
0.0
 11
182.6593583588023
 21
14.85038351469793
 31
0.0
 11
182.6593583588023
 21
14.99280774305738
 31
0.0
 11
182.6593583588023
 21
15.13523197141684
 31
0.0
 11
182.6593583588023
 21
15.24478907015487
 31
0.0
 11
182.6593583588023
 21
15.28861190965009
 31
0.0
 11
182.6571833838798
 21
15.51347467001056
 31
0.0
 11
182.6507427258645
 21
15.73406440953869
 31
0.0
  0
SPLINE
  5
B4
102
{ACAD_REACTORS
330
D1
102
}
330
48
100
AcDbEntity
  8
_U_30EC_U_30A4_U_30E4_U_30FC_1
  6
Continuous
 62
     2
100
AcDbSpline
210
0.0
220
0.0
230
1.0
 70
    11
 71
     3
 72
   110
 73
   106
 74
   104
 42
0.000000001
 43
0.0000000001
 44
0.00000001
 40
0.0
 40
0.0
 40
0.0
 40
0.0
 40
0.2203406257277578
 40
0.4407808782838197
 40
0.5952494494615179
 40
0.7488431659393162
 40
0.9023581831309155
 40
1.056801968670414
 40
1.210736449099914
 40
1.363041386539793
 40
1.515315729683134
 40
1.669377239148086
 40
1.721611652756608
 40
1.773199502943005
 40
1.824933793210005
 40
1.877110426487937
 40
1.982682281206698
 40
2.078781667087506
 40
2.172809640822227
 40
2.271937807378879
 40
2.378349933379274
 40
2.494131557736464
 40
2.626681683943596
 40
2.783145050796024
 40
2.890701232940855
 40
2.993130312454703
 40
3.09986973069174
 40
3.220237816691244
 40
3.3526954827375
 40
3.481732806389724
 40
3.593499473690308
 40
3.67432301333187
 40
3.81795171195282
 40
3.946167120793818
 40
4.061405053453504
 40
4.166480796003144
 40
4.262478775059179
 40
4.350736673551138
 40
4.433071991254023
 40
4.511216293814619
 40
4.564262454117901
 40
4.618474415571482
 40
4.670128488754112
 40
4.722296879126334
 40
4.819540945314206
 40
4.931194984128061
 40
5.049996040257705
 40
5.16864375541525
 40
5.283970811762462
 40
5.392260784910288
 40
5.486512254876362
 40
5.559178233949761
 40
5.591425852853403
 40
5.626215969637784
 40
5.667155838674343
 40
5.717449290214177
 40
5.73840236094479
 40
5.784499116553756
 40
5.830595872164726
 40
5.851548942897584
 40
5.873019280661697
 40
5.924217778408239
 40
5.985325662817615
 40
6.036524160567626
 40
6.057994498334154
 40
6.236847789607409
 40
6.381409928945599
 40
6.493190424178603
 40
6.574067534230378
 40
6.691018086205473
 40
6.81488155422039
 40
6.944307823240343
 40
7.071266716065965
 40
7.193488604461812
 40
7.309042773128036
 40
7.414007203170662
 40
7.505140441886419
 40
7.531150360599571
 40
7.559221645322164
 40
7.587202218920819
 40
7.612569159499034
 40
7.662550809480885
 40
7.702878875763992
 40
7.857328205230806
 40
8.010799568088451
 40
8.165256399657402
 40
8.32223269871374
 40
8.479564855016427
 40
8.63521623029063
 40
8.790882550925549
 40
8.948305154947114
 40
9.1682718390328
 40
9.387358980987036
 40
9.608047961033314
 40
9.83291423479254
 40
9.858338694962871
 40
9.925366817229873
 40
10.02013071422745
 40
10.12876249858982
 40
10.23739428295232
 40
10.33215817995172
 40
10.39918630222375
 40
10.42461076239764
 40
10.64992019336922
 40
10.87188524531169
 40
10.87188524531169
 40
10.87188524531169
 40
10.87188524531169
 10
179.9057788376618
 20
15.73923260398189
 30
0.0
 10
179.9092864933541
 20
15.80616462073802
 30
0.0
 10
179.9163033987662
 20
15.94005891915857
 30
0.0
 10
179.8198027599072
 20
16.2254855497147
 30
0.0
 10
180.0510134726109
 20
16.1628438619028
 30
0.0
 10
180.1919290057156
 20
16.17001554055999
 30
0.0
 10
180.3490417757588
 20
16.16235883078243
 30
0.0
 10
180.5025913427287
 20
16.16252752283044
 30
0.0
 10
180.654510493508
 20
16.16182040535431
 30
0.0
 10
180.8142214813232
 20
16.17210158351648
 30
0.0
 10
180.9408972601117
 20
16.15496511080747
 30
0.0
 10
181.1370821122081
 20
16.22727260107147
 30
0.0
 10
181.1034395279077
 20
16.12640699080114
 30
0.0
 10
181.1052011317184
 20
16.07619253947668
 30
0.0
 10
181.1027342073458
 20
16.02712335586465
 30
0.0
 10
181.1347076966011
 20
15.94063490847005
 30
0.0
 10
181.0010399903256
 20
15.98997438608336
 30
0.0
 10
180.9172208688056
 20
15.98430634314169
 30
0.0
 10
180.8173861139324
 20
15.99465516706299
 30
0.0
 10
180.7186576720145
 20
16.00086450411083
 30
0.0
 10
180.612153277111
 20
16.0069776381678
 30
0.0
 10
180.491051169806
 20
16.01588883484592
 30
0.0
 10
180.3703381502453
 20
16.00521605912381
 30
0.0
 10
180.1812553843437
 20
16.06468503080364
 30
0.0
 10
180.2129028505311
 20
15.90558320077541
 30
0.0
 10
180.1995563316834
 20
15.80839128339905
 30
0.0
 10
180.197495842645
 20
15.69634065110103
 30
0.0
 10
180.195818804467
 20
15.5769968562935
 30
0.0
 10
180.1973336794233
 20
15.45032592155111
 30
0.0
 10
180.195658247867
 20
15.32301588016118
 30
0.0
 10
180.2058844271657
 20
15.22451566404464
 30
0.0
 10
180.1779006596583
 20
15.08388702625624
 30
0.0
 10
180.3508029999305
 20
15.13989551134093
 30
0.0
 10
180.4645020202772
 20
15.12719951478501
 30
0.0
 10
180.5840151672239
 20
15.13448377051257
 30
0.0
 10
180.6888491425071
 20
15.1387801705676
 30
0.0
 10
180.7843084898612
 20
15.14330568258972
 30
0.0
 10
180.8763823507032
 20
15.15149201146203
 30
0.0
 10
180.9476551782439
 20
15.14643850638114
 30
0.0
 10
181.0544931705684
 20
15.18536425031665
 30
0.0
 10
181.0226603598036
 20
15.10517122005878
 30
0.0
 10
181.0266164503929
 20
15.05562936846032
 30
0.0
 10
181.0234502392013
 20
15.00557478039818
 30
0.0
 10
181.0550791490585
 20
14.92128847612018
 30
0.0
 10
180.9210133677691
 20
14.97425365495157
 30
0.0
 10
180.8292322793201
 20
14.96540080890436
 30
0.0
 10
180.7079729189603
 20
14.97570049965157
 30
0.0
 10
180.5914113119772
 20
14.97748911767498
 30
0.0
 10
180.4783375745879
 20
14.97787017109692
 30
0.0
 10
180.3679246308471
 20
14.98415449472183
 30
0.0
 10
180.289812406784
 20
14.97189133255362
 30
0.0
 10
180.1913625833644
 20
15.00453887616125
 30
0.0
 10
180.2012355173561
 20
14.94769748054207
 30
0.0
 10
180.1973923244402
 20
14.91392130557985
 30
0.0
 10
180.1966789884268
 20
14.87119604709411
 30
0.0
 10
180.1963369642974
 20
14.83401607262151
 30
0.0
 10
180.1963834255345
 20
14.79487237370768
 30
0.0
 10
180.1963649429927
 20
14.75716849497683
 30
0.0
 10
180.1963703431807
 20
14.71944955232401
 30
0.0
 10
180.19636972142
 20
14.68994324745147
 30
0.0
 10
180.1963698151546
 20
14.65873577699299
 30
0.0
 10
180.196370428792
 20
14.61414424908083
 30
0.0
 10
180.1963671499337
 20
14.5596395650885
 30
0.0
 10
180.196375962348
 20
14.51505540201446
 30
0.0
 10
180.1963359653418
 20
14.43117808585739
 30
0.0
 10
180.1976024270255
 20
14.31737520677676
 30
0.0
 10
180.1950274117842
 20
14.16830395933707
 30
0.0
 10
180.2065009381719
 20
14.06597203813904
 30
0.0
 10
180.1823506222264
 20
13.93338903885837
 30
0.0
 10
180.3332993946476
 20
13.97895732272024
 30
0.0
 10
180.4428436671556
 20
13.96427012162352
 30
0.0
 10
180.573397047392
 20
13.96920435125064
 30
0.0
 10
180.6990312209513
 20
13.97257705323353
 30
0.0
 10
180.8188730625601
 20
13.97711497498778
 30
0.0
 10
180.9391362611426
 20
13.99048536181998
 30
0.0
 10
181.0222761663515
 20
13.98068712782593
 30
0.0
 10
181.1456080421075
 20
14.04126214623317
 30
0.0
 10
181.1244269203956
 20
13.98532460134018
 30
0.0
 10
181.1235950270116
 20
13.95939249372343
 30
0.0
 10
181.1218963707558
 20
13.93197256190936
 30
0.0
 10
181.1217974888829
 20
13.89738195206383
 30
0.0
 10
181.120365930133
 20
13.86050408220767
 30
0.0
 10
181.153280419219
 20
13.76846841021809
 30
0.0
 10
180.9551306988107
 20
13.84132015974831
 30
0.0
 10
180.8300548294891
 20
13.81825726508601
 30
0.0
 10
180.6673071295156
 20
13.82454021985782
 30
0.0
 10
180.5129366450001
 20
13.82260943909921
 30
0.0
 10
180.3566670436943
 20
13.82393762599264
 30
0.0
 10
180.1970544465282
 20
13.82059872487857
 30
0.0
 10
180.0540326342237
 20
13.8326579572824
 30
0.0
 10
179.8197144881628
 20
13.7695200197692
 30
0.0
 10
179.9173810751197
 20
14.05620527466318
 30
0.0
 10
179.9006868780058
 20
14.2498830814266
 30
0.0
 10
179.9146296709685
 20
14.47848242880296
 30
0.0
 10
179.9142987846632
 20
14.63384593955051
 30
0.0
 10
179.9143078119264
 20
14.73966336444129
 30
0.0
 10
179.9143055876316
 20
14.80205784124217
 30
0.0
 10
179.9143065551888
 20
14.89220425248328
 30
0.0
 10
179.9143065473262
 20
14.99621167157439
 30
0.0
 10
179.9143053861102
 20
15.10022131375296
 30
0.0
 10
179.9143090971502
 20
15.19036243688766
 30
0.0
 10
179.9143011051051
 20
15.25276803097214
 30
0.0
 10
179.9143334275018
 20
15.35868835961115
 30
0.0
 10
179.913144078832
 20
15.51626716544739
 30
0.0
 10
179.9082216489256
 20
15.66528219822064
 30
0.0
 10
179.9057788376618
 20
15.73923260398189
 30
0.0
 11
179.9057788376618
 21
15.73923260398189
 31
0.0
 11
179.896691822374
 21
15.95938578101015
 31
0.0
 11
179.8868249573133
 21
16.17960510387179
 31
0.0
 11
180.04115751414
 21
16.17312391463727
 31
0.0
 11
180.1946500189046
 21
16.16754892331929
 31
0.0
 11
180.3481160653366
 21
16.16367167505632
 31
0.0
 11
180.5025544554939
 21
16.16238072887609
 31
0.0
 11
180.6564835227473
 21
16.16367167505632
 31
0.0
 11
180.80873910046
 21
16.16754892331929
 31
0.0
 11
180.9609113551074
 21
16.17312391463727
 31
0.0
 11
181.1148364762483
 21
16.17960510387179
 31
0.0
 11
181.1070811703123
 21
16.12794961777355
 31
0.0
 11
181.1044991623591
 21
16.07642642334199
 31
0.0
 11
181.1070811703123
 21
16.0247566056466
 31
0.0
 11
181.1148364762483
 21
15.97315954836789
 31
0.0
 11
181.0094874054411
 21
15.98001446156058
 31
0.0
 11
180.913637570006
 21
15.98693552058658
 31
0.0
 11
180.8198593171903
 21
15.99378381919599
 31
0.0
 11
180.7209679915881
 21
16.00063211780538
 31
0.0
 11
180.6147532199924
 21
16.00710999974826
 31
0.0
 11
180.4991060528038
 21
16.01268829835799
 31
0.0
 11
180.3666126447258
 21
16.01656554662087
 31
0.0
 11
180.2101546018423
 21
16.01785649280109
 31
0.0
 11
180.2062663293721
 21
15.91037061609186
 31
0.0
 11
180.20153800484
 21
15.80805072896469
 31
0.0
 11
180.1976607566749
 21
15.70138175329686
 31
0.0
 11
180.1963698105272
 21
15.58102059013248
 31
0.0
 11
180.1967799146836
 21
15.44856355891566
 31
0.0
 11
180.1980896021502
 21
15.31953288186459
 31
0.0
 11
180.1994074577049
 21
15.20777398432307
 31
0.0
 11
180.199819115366
 21
15.12695149302378
 31
0.0
 11
180.3434452935874
 21
15.12780256941248
 31
0.0
 11
180.4716343930758
 21
15.13039989580079
 31
0.0
 11
180.5868078221795
 21
15.13425509545256
 31
0.0
 11
180.691775631222
 21
15.13901649302079
 31
0.0
 11
180.7876346289421
 21
15.14418027774173
 31
0.0
 11
180.8757413374193
 21
15.14934406246269
 31
0.0
 11
180.9578881438496
 21
15.1549124391974
 31
0.0
 11
181.0357692335571
 21
15.16132086801518
 31
0.0
 11
181.0280180445186
 21
15.10884407115334
 31
0.0
 11
181.0254328449317
 21
15.05469378470859
 31
0.0
 11
181.0280180445186
 21
15.00310444444365
 31
0.0
 11
181.0357692335571
 21
14.95151510417878
 31
0.0
 11
180.9389813454014
 21
14.96092324653755
 31
0.0
 11
180.8275950722015
 21
14.96865128473009
 31
0.0
 11
180.7089261429373
 21
14.97425273438146
 31
0.0
 11
180.5903167449213
 21
14.97726788195008
 31
0.0
 11
180.4750025117521
 21
14.97898767361637
 31
0.0
 11
180.36672619507
 21
14.98070746528259
 31
0.0
 11
180.2724839317708
 21
14.98202486979616
 31
0.0
 11
180.199819115366
 21
14.98243607639328
 31
0.0
 11
180.199407457705
 21
14.95019108508192
 31
0.0
 11
180.1980896021502
 21
14.91542593752119
 31
0.0
 11
180.1967799146836
 21
14.87450702260084
 31
0.0
 11
180.1963698105272
 21
14.82421524309949
 31
0.0
 11
180.1963698105272
 21
14.80326217235819
 31
0.0
 11
180.1963698105272
 21
14.75716541672734
 31
0.0
 11
180.1963698105272
 21
14.71106866109649
 31
0.0
 11
180.1963698105272
 21
14.69011559035519
 31
0.0
 11
180.1963698105272
 21
14.66864525258278
 31
0.0
 11
180.1963698105272
 21
14.61744675481782
 31
0.0
 11
180.1963698105272
 21
14.55633887038866
 31
0.0
 11
180.1963698105272
 21
14.5051403726237
 31
0.0
 11
180.1963698105272
 21
14.48367003485129
 31
0.0
 11
180.1967799146836
 21
14.30481721371546
 31
0.0
 11
180.1980896021502
 21
14.16026100715439
 31
0.0
 11
180.2002868589709
 21
14.04850210961289
 31
0.0
 11
180.2032586986985
 21
13.96767961831368
 31
0.0
 11
180.3202092517447
 21
13.96767961831368
 31
0.0
 11
180.4440727208746
 21
13.96767961831368
 31
0.0
 11
180.5734925526422
 21
13.9689705644939
 31
0.0
 11
180.7003922282244
 21
13.97284781275678
 31
0.0
 11
180.8224658067973
 21
13.97886708358866
 31
0.0
 11
180.9377587499463
 21
13.98663260441998
 31
0.0
 11
181.0421754573518
 21
13.99734161483399
 31
0.0
 11
181.1320599255448
 21
14.01237656274689
 31
0.0
 11
181.1264254031191
 21
13.98698427976713
 31
0.0
 11
181.1234433285423
 21
13.95907184053799
 31
0.0
 11
181.12213398812
 21
13.93112191866999
 31
0.0
 11
181.1217235369195
 21
13.90575829888469
 31
0.0
 11
181.1243087365064
 21
13.85584355063325
 31
0.0
 11
181.1320599255448
 21
13.81626739612929
 31
0.0
 11
180.9776977178344
 21
13.82145433189185
 31
0.0
 11
180.8242357818765
 21
13.82315538223858
 31
0.0
 11
180.6697789496483
 21
13.82315538223858
 31
0.0
 11
180.5128026496768
 21
13.82315538223858
 31
0.0
 11
180.3554704921536
 21
13.82315538223858
 31
0.0
 11
180.199819115366
 21
13.82315538223858
 31
0.0
 11
180.0441620874241
 21
13.82145433189185
 31
0.0
 11
179.8868249573133
 21
13.81626739612929
 31
0.0
 11
179.896691822374
 21
14.03601267385211
 31
0.0
 11
179.9057788376618
 21
14.25491128490849
 31
0.0
 11
179.91217215184
 21
14.47550763902004
 31
0.0
 11
179.9143063455009
 21
14.70036378479719
 31
0.0
 11
179.9143063455009
 21
14.72578824496878
 31
0.0
 11
179.9143063455009
 21
14.79281636723934
 31
0.0
 11
179.9143063455009
 21
14.88758026424255
 31
0.0
 11
179.9143063455009
 21
14.99621204861208
 31
0.0
 11
179.9143063455009
 21
15.10484383298162
 31
0.0
 11
179.9143063455009
 21
15.19960772998482
 31
0.0
 11
179.9143063455009
 21
15.26663585225539
 31
0.0
 11
179.9143063455009
 21
15.29206031242698
 31
0.0
 11
179.91217215184
 21
15.51735963528731
 31
0.0
 11
179.9057788376618
 21
15.73923260398189
 31
0.0
  0
SPLINE
  5
B5
102
{ACAD_REACTORS
330
D2
102
}
330
48
100
AcDbEntity
  8
_U_30EC_U_30A4_U_30E4_U_30FC_1
  6
Continuous
 62
     2
100
AcDbSpline
210
0.0
220
0.0
230
1.0
 70
    11
 71
     3
 72
    95
 73
    91
 74
    89
 42
0.000000001
 43
0.0000000001
 44
0.00000001
 40
0.0
 40
0.0
 40
0.0
 40
0.0
 40
0.6550406656911301
 40
1.308087289031896
 40
1.420803739835742
 40
1.566130759770767
 40
1.757067341888421
 40
2.006513545026396
 40
2.087328263121496
 40
2.185328872295617
 40
2.294612454748355
 40
2.408936380534771
 40
2.526802767798521
 40
2.646360524615566
 40
2.762535723971551
 40
2.870057342870126
 40
2.966883448431617
 40
3.050803243518286
 40
3.115818222436575
 40
3.156030057150184
 40
3.213914225080083
 40
3.276689026450483
 40
3.342960320981259
 40
3.404230667150506
 40
3.453822809493301
 40
3.532499827188392
 40
3.634775188507079
 40
3.754909333008057
 40
3.889736761660588
 40
4.035769602175192
 40
4.18725668119756
 40
4.338733685675932
 40
4.488478734676042
 40
4.634708317831483
 40
4.771493189921186
 40
4.892686571561115
 40
5.199775528944357
 40
5.460353566929601
 40
5.667603142345423
 40
5.814722905404389
 40
5.828990806219687
 40
5.855488336304384
 40
5.869756237118716
 40
6.1897965077627
 40
6.531890469872908
 40
6.883053637016898
 40
7.230512024911351
 40
7.566966656764457
 40
7.885203559707278
 40
8.172887439719085
 40
8.41801159406264
 40
8.443926721190563
 40
8.51076047061305
 40
8.60214539379556
 40
8.701714041647001
 40
8.793098965075231
 40
8.859932715057804
 40
8.885847842603454
 40
9.24230125661266
 40
9.589275455016661
 40
9.921808543164019
 40
10.23479624298453
 40
10.29968150889164
 40
10.35323493887752
 40
10.40154625355136
 40
10.46482922477812
 40
10.5597390066839
 40
10.692395459856
 40
10.84920353475659
 40
11.01626328594768
 40
11.1867202436743
 40
11.353725825772
 40
11.50257442292416
 40
11.61866495023281
 40
11.71329869152862
 40
11.82511050573893
 40
11.94464880845705
 40
12.06929242642495
 40
12.19707290435163
 40
12.32562632860516
 40
12.45034565331266
 40
12.56646595170315
 40
12.67099007414621
 40
12.76077625936773
 40
12.82703233506683
 40
12.87429132785983
 40
12.89831990323323
 40
12.92234847860011
 40
13.53984767410313
 40
14.18294284359361
 40
14.18294284359361
 40
14.18294284359361
 40
14.18294284359361
 10
177.3067935648021
 20
14.70898038201729
 30
0.0
 10
177.1752019758551
 20
14.82265058603235
 30
0.0
 10
176.9124193802728
 20
15.04964496316159
 30
0.0
 10
176.3997393441021
 20
15.89214462956286
 30
0.0
 10
176.4106654595362
 20
15.53423377577019
 30
0.0
 10
176.4041226527991
 20
15.39267392272133
 30
0.0
 10
176.4028026631773
 20
15.19421305299281
 30
0.0
 10
176.4018117602537
 20
15.02150296045983
 30
0.0
 10
176.4024101751975
 20
14.8786537325758
 30
0.0
 10
176.4038994301882
 20
14.78265005413356
 30
0.0
 10
176.4055683588472
 20
14.67545503263139
 30
0.0
 10
176.4071934954618
 20
14.56164211517581
 30
0.0
 10
176.4092429501685
 20
14.44441572604589
 30
0.0
 10
176.4123165501927
 20
14.32656411232969
 30
0.0
 10
176.4156339697042
 20
14.21228087320619
 30
0.0
 10
176.419360534028
 20
14.10521401867276
 30
0.0
 10
176.4217338161424
 20
14.0100740876692
 30
0.0
 10
176.4278718888357
 20
13.92558557205694
 30
0.0
 10
176.4239784495946
 20
13.8692308729814
 30
0.0
 10
176.4455230443077
 20
13.79825022472358
 30
0.0
 10
176.3680940058618
 20
13.82902677604484
 30
0.0
 10
176.3116353240191
 20
13.82011242517607
 30
0.0
 10
176.2540495896806
 20
13.82896218398275
 30
0.0
 10
176.1690163478472
 20
13.79738225225947
 30
0.0
 10
176.2009714146382
 20
13.88095155992192
 30
0.0
 10
176.1990705282539
 20
13.94882608968311
 30
0.0
 10
176.2107960047299
 20
14.05233256764418
 30
0.0
 10
176.2164241053
 20
14.17002125616693
 30
0.0
 10
176.223790217894
 20
14.30388609164423
 30
0.0
 10
176.232075970161
 20
14.44764152872634
 30
0.0
 10
176.2398851897426
 20
14.59714022843449
 30
0.0
 10
176.2457571222657
 20
14.7479254940208
 30
0.0
 10
176.2503667817969
 20
14.89699943878439
 30
0.0
 10
176.2542632117542
 20
15.04122913163021
 30
0.0
 10
176.2570715126563
 20
15.17583905213015
 30
0.0
 10
176.2576698755022
 20
15.36469614347352
 30
0.0
 10
176.261602386715
 20
15.58975494313153
 30
0.0
 10
176.2442175378498
 20
15.86367091125708
 30
0.0
 10
176.2850417342582
 20
16.02787112098596
 30
0.0
 10
176.1995153256003
 20
16.22749661465095
 30
0.0
 10
176.2660558907688
 20
16.22385458403975
 30
0.0
 10
176.283872427323
 20
16.22413447160851
 30
0.0
 10
176.4056801797506
 20
16.22632927398612
 30
0.0
 10
176.5080770335461
 20
15.94675118721512
 30
0.0
 10
176.7580021509356
 20
15.74563008535999
 30
0.0
 10
176.987003533111
 20
15.47792614987914
 30
0.0
 10
177.2245151213109
 20
15.22646413862376
 30
0.0
 10
177.4486090740772
 20
14.98969974061359
 30
0.0
 10
177.6750716283009
 20
14.7321869258308
 30
0.0
 10
177.8325687886514
 20
14.61649335056921
 30
0.0
 10
178.0472129612675
 20
14.27997152538794
 30
0.0
 10
178.0422645974618
 20
14.40464754091603
 30
0.0
 10
178.0433931602546
 20
14.46327691935737
 30
0.0
 10
178.0428877841516
 20
14.55043662371977
 30
0.0
 10
178.0430475158113
 20
14.64416143182872
 30
0.0
 10
178.0430054891318
 20
14.73018971297035
 30
0.0
 10
178.0430202040373
 20
14.79153891945496
 30
0.0
 10
178.0429706255983
 20
14.94135231520991
 30
0.0
 10
178.0458811522811
 20
15.17989612510106
 30
0.0
 10
178.0259521041161
 20
15.54486509868701
 30
0.0
 10
178.0750433936247
 20
15.80799631993415
 30
0.0
 10
177.9177951509181
 20
16.2192890494775
 30
0.0
 10
178.0762112872421
 20
16.16398282551749
 30
0.0
 10
178.1311680478628
 20
16.16199686500178
 30
0.0
 10
178.182788776674
 20
16.16264778248252
 30
0.0
 10
178.2713198965366
 20
16.20369527738245
 30
0.0
 10
178.2204898303168
 20
16.05696326622989
 30
0.0
 10
178.2313389930284
 20
15.95019971954436
 30
0.0
 10
178.2166036994846
 20
15.79085705414112
 30
0.0
 10
178.2099976446205
 20
15.62853061652874
 30
0.0
 10
178.2014961399914
 20
15.45992521892394
 30
0.0
 10
178.1943227202199
 20
15.29814814703539
 30
0.0
 10
178.1889063215389
 20
15.1542233145793
 30
0.0
 10
178.1871713967648
 20
15.03437493466923
 30
0.0
 10
178.1875440672318
 20
14.92686101590514
 30
0.0
 10
178.1873656126263
 20
14.81820024645586
 30
0.0
 10
178.187701086314
 20
14.6995357016553
 30
0.0
 10
178.1890040622184
 20
14.5755516351274
 30
0.0
 10
178.1908887351574
 20
14.44858294171104
 30
0.0
 10
178.192500445485
 20
14.32153861551032
 30
0.0
 10
178.194140313743
 20
14.19854884492177
 30
0.0
 10
178.1962570745751
 20
14.08300931383759
 30
0.0
 10
178.1963848422364
 20
13.98090903955836
 30
0.0
 10
178.2006514396554
 20
13.89009848838155
 30
0.0
 10
178.1908440085289
 20
13.83213621208784
 30
0.0
 10
178.2118474771689
 20
13.76517130132026
 30
0.0
 10
178.1725639739896
 20
13.77291153966685
 30
0.0
 10
177.9595307117745
 20
13.7575525414519
 30
0.0
 10
177.7636297943187
 20
14.31403058094471
 30
0.0
 10
177.4611197631544
 20
14.57556035348513
 30
0.0
 10
177.3067935648021
 20
14.70898038201729
 30
0.0
 11
177.3067935648021
 21
14.70898038201729
 31
0.0
 11
176.8595529338511
 21
15.18757635411979
 31
0.0
 11
176.4124049070643
 21
15.66352649288969
 31
0.0
 11
176.4089664262494
 21
15.55086249986234
 31
0.0
 11
176.40556101835
 21
15.40557538184309
 31
0.0
 11
176.4029636920274
 21
15.21465645827968
 31
0.0
 11
176.4021126156603
 21
14.96521170139759
 31
0.0
 11
176.4025239230289
 21
14.88439802954281
 31
0.0
 11
176.4038420329817
 21
14.78640628477558
 31
0.0
 11
176.4055192267718
 21
14.67713557299736
 31
0.0
 11
176.4072367127518
 21
14.56282454872039
 31
0.0
 11
176.4094007838772
 21
14.44497802965265
 31
0.0
 11
176.4124049070643
 21
14.32545802100199
 31
0.0
 11
176.4158359733138
 21
14.20933349846155
 31
0.0
 11
176.4192928929998
 21
14.10186746550228
 31
0.0
 11
176.4227085253088
 21
14.00510162351263
 31
0.0
 11
176.4261896983793
 21
13.92125406276969
 31
0.0
 11
176.4296006184313
 21
13.85632862007759
 31
0.0
 11
176.4330776843148
 21
13.81626739612929
 31
0.0
 11
176.3754263821571
 21
13.82145433189185
 31
0.0
 11
176.3126746318309
 21
13.82315538223858
 31
0.0
 11
176.2464251717157
 21
13.82145433189185
 31
0.0
 11
176.1853747739675
 21
13.81626739612929
 31
0.0
 11
176.1926772737812
 21
13.8653189412559
 31
0.0
 11
176.2008793569054
 21
13.94356725720859
 31
0.0
 11
176.2090098822348
 21
14.04551893253028
 31
0.0
 11
176.2163406441397
 21
14.16542920159749
 31
0.0
 11
176.2236358280421
 21
14.3000591234389
 31
0.0
 11
176.2318444255596
 21
14.44586107652749
 31
0.0
 11
176.2395504149465
 21
14.59715203135075
 31
0.0
 11
176.2455763002093
 21
14.74850913200739
 31
0.0
 11
176.2503046247416
 21
14.89817951391435
 31
0.0
 11
176.254192897212
 21
15.04435739582219
 31
0.0
 11
176.2567527408965
 21
15.18111831592695
 31
0.0
 11
176.2576324804574
 21
15.30230850686888
 31
0.0
 11
176.257192610677
 21
15.60939715262542
 31
0.0
 11
176.2559126888347
 21
15.86997204839369
 31
0.0
 11
176.2528658717893
 21
16.07719922716124
 31
0.0
 11
176.2473049112763
 21
16.22421385386059
 31
0.0
 11
176.2615728121469
 21
16.22421385386059
 31
0.0
 11
176.2880703423352
 21
16.22421385386059
 31
0.0
 11
176.3023382432058
 21
16.22421385386059
 31
0.0
 11
176.5194743650277
 21
15.98910179662773
 31
0.0
 11
176.7512744123079
 21
15.73751281231559
 31
0.0
 11
176.9894816018839
 21
15.47949555543568
 31
0.0
 11
177.2260074557521
 21
15.22497079855489
 31
0.0
 11
177.4555698717705
 21
14.97899759549138
 31
0.0
 11
177.6731797360103
 21
14.74678934034108
 31
0.0
 11
177.8713724913707
 21
14.538266805671
 31
0.0
 11
178.0430143099086
 21
14.36326697932589
 31
0.0
 11
178.0430143099086
 21
14.38918210687043
 31
0.0
 11
178.0430143099086
 21
14.45601585685371
 31
0.0
 11
178.0430143099086
 21
14.54740078030025
 31
0.0
 11
178.0430143099086
 21
14.64696942823453
 31
0.0
 11
178.0430143099086
 21
14.73835435168106
 31
0.0
 11
178.0430143099086
 21
14.80518810166435
 31
0.0
 11
178.0430143099086
 21
14.83110322920889
 31
0.0
 11
178.0417233637609
 21
15.18755430550866
 31
0.0
 11
178.0378461155958
 21
15.53450684014419
 31
0.0
 11
178.0296197790002
 21
15.86693815950551
 31
0.0
 11
178.0154535467228
 21
16.17960510387179
 31
0.0
 11
178.0790351249618
 21
16.16666367158335
 31
0.0
 11
178.1324170159611
 21
16.16238072887609
 31
0.0
 11
178.1805381084833
 21
16.16666367158335
 31
0.0
 11
178.2424836798197
 21
16.17960510387179
 31
0.0
 11
178.2351216487575
 21
16.08498128445103
 31
0.0
 11
178.2269790968818
 21
15.95257496503969
 31
0.0
 11
178.2183705364004
 21
15.79600336785655
 31
0.0
 11
178.2097547223215
 21
15.62916593734269
 31
0.0
 11
178.2016187850288
 21
15.45890325509361
 31
0.0
 11
178.1942501393835
 21
15.29206031242698
 31
0.0
 11
178.1891406931522
 21
15.14329943572807
 31
0.0
 11
178.1874503478904
 21
15.02722121527098
 31
0.0
 11
178.1874503478904
 21
14.93258747397519
 31
0.0
 11
178.1874503478904
 21
14.82077565976709
 31
0.0
 11
178.1878461204497
 21
14.70123801222747
 31
0.0
 11
178.1890819450708
 21
14.57660052093918
 31
0.0
 11
178.1908392193317
 21
14.44883212687391
 31
0.0
 11
178.1925303477608
 21
14.32028982655879
 31
0.0
 11
178.1942876220214
 21
14.19558288214555
 31
0.0
 11
178.1959787504505
 21
14.07947489606349
 31
0.0
 11
178.1972884379172
 21
13.97495896727018
 31
0.0
 11
178.1976985420735
 21
13.88517371555649
 31
0.0
 11
178.1976985420735
 21
13.81891763918415
 31
0.0
 11
178.1976985420735
 21
13.77165864614038
 31
0.0
 11
178.1736699662976
 21
13.77165864614038
 31
0.0
 11
178.1496413905217
 21
13.77165864614038
 31
0.0
 11
177.7410729200423
 21
14.23466735262191
 31
0.0
 11
177.3067935648021
 21
14.70898038201729
 31
0.0
  0
SPLINE
  5
B6
102
{ACAD_REACTORS
330
D3
102
}
330
48
100
AcDbEntity
  8
_U_30EC_U_30A4_U_30E4_U_30FC_1
  6
Continuous
 62
     2
100
AcDbSpline
210
0.0
220
0.0
230
1.0
 70
    11
 71
     3
 72
    25
 73
    21
 74
    19
 42
0.000000001
 43
0.0000000001
 44
0.00000001
 40
0.0
 40
0.0
 40
0.0
 40
0.0
 40
0.0911479969064819
 40
0.1858117896204662
 40
0.2804128399734483
 40
0.3715889190714504
 40
0.4679080494218701
 40
0.5642683809229221
 40
0.6605683222644982
 40
0.7569653015810244
 40
0.8561348172522809
 40
1.092615965104317
 40
1.374867658141921
 40
1.611348812011663
 40
1.710518328425319
 40
1.809403163726645
 40
2.045205463294165
 40
2.326646917622246
 40
2.562449217190728
 40
2.661334043834054
 40
2.661334043834054
 40
2.661334043834054
 40
2.661334043834054
 10
173.2683700567199
 20
14.88614538197288
 30
0.0
 10
173.2987525917923
 20
14.88598079714552
 30
0.0
 10
173.3606895889111
 20
14.8856452868992
 30
0.0
 10
173.454135696033
 20
14.88269055451999
 30
0.0
 10
173.5475095236357
 20
14.87977752877152
 30
0.0
 10
173.6417760753476
 20
14.87894201643415
 30
0.0
 10
173.7354964790966
 20
14.87996644658046
 30
0.0
 10
173.8352040303205
 20
14.87916977470968
 30
0.0
 10
173.9188949546312
 20
14.88921410235217
 30
0.0
 10
174.0637996315045
 20
14.8623461767416
 30
0.0
 10
173.9396132444801
 20
15.03665530280046
 30
0.0
 10
173.8965867286282
 20
15.1965171100609
 30
0.0
 10
173.780892214221
 20
15.45518458550217
 30
0.0
 10
173.7017565431256
 20
15.5923105286186
 30
0.0
 10
173.6431576621816
 20
15.80937033134081
 30
0.0
 10
173.5864803939438
 20
15.59266134213431
 30
0.0
 10
173.5052809900478
 20
15.45327012438237
 30
0.0
 10
173.4063701281488
 20
15.20406969370194
 30
0.0
 10
173.325362509426
 20
15.0192583022607
 30
0.0
 10
173.2813683325838
 20
14.91650446856113
 30
0.0
 10
173.2683700567199
 20
14.88614538197288
 30
0.0
 11
173.2683700567199
 21
14.88614538197288
 31
0.0
 11
173.359513773782
 21
14.88526123266758
 31
0.0
 11
173.4541428297581
 21
14.88269697919598
 31
0.0
 11
173.5487082179706
 21
14.88009965280778
 31
0.0
 11
173.6398803250196
 21
14.87924857641909
 31
0.0
 11
173.7361985777706
 21
14.8796597830162
 31
0.0
 11
173.8325499034376
 21
14.88097718752968
 31
0.0
 11
173.9288262638286
 21
14.88310818579309
 31
0.0
 11
174.0251753846343
 21
14.88614538197288
 31
0.0
 11
173.9854633323141
 21
14.97701642195017
 31
0.0
 11
173.8907653613968
 21
15.19370890189601
 31
0.0
 11
173.7777387509471
 21
15.45234186183136
 31
0.0
 11
173.6830407800297
 21
15.6690343417772
 31
0.0
 11
173.6433287277095
 21
15.75990538175449
 31
0.0
 11
173.6043330259266
 21
15.6690343417772
 31
0.0
 11
173.5113432755212
 21
15.45234186183136
 31
0.0
 11
173.4003555089082
 21
15.19370890189601
 31
0.0
 11
173.3073657585028
 21
14.97701642195017
 31
0.0
 11
173.2683700567199
 21
14.88614538197288
 31
0.0
  0
SPLINE
  5
B7
102
{ACAD_REACTORS
330
D3
102
}
330
48
100
AcDbEntity
  8
_U_30EC_U_30A4_U_30E4_U_30FC_1
  6
Continuous
 62
     2
100
AcDbSpline
210
0.0
220
0.0
230
1.0
 70
    11
 71
     3
 72
    57
 73
    53
 74
    51
 42
0.000000001
 43
0.0000000001
 44
0.00000001
 40
0.0
 40
0.0
 40
0.0
 40
0.0
 40
0.0471632082809207
 40
0.0914861054632112
 40
0.1357762519702348
 40
0.1826527001610643
 40
0.2295203288572552
 40
0.2737751972220721
 40
0.3181310461543017
 40
0.3652607198398433
 40
0.4571007286314185
 40
0.5671851029164845
 40
0.6894623283867982
 40
0.81817582725457
 40
0.9510087229273625
 40
1.085852229674058
 40
1.21812616447528
 40
1.343545131142377
 40
1.454537202956792
 40
1.567187607530801
 40
1.68071096664242
 40
1.794226869736784
 40
1.900009184247583
 40
2.004085860447863
 40
2.108162674451751
 40
2.214000150155294
 40
2.496038577352151
 40
2.762350745479307
 40
2.997275353279436
 40
3.185110082137725
 40
3.246407890063949
 40
3.312607550212679
 40
3.37887774271158
 40
3.440140399651433
 40
4.100501696006431
 40
4.754913085563527
 40
5.411331693423874
 40
6.077890432568652
 40
6.110575292670931
 40
6.143260152775711
 40
6.367989363395071
 40
6.610525374951455
 40
6.863389136467244
 40
7.119380025547484
 40
7.376036605091023
 40
7.631164770966223
 40
7.876722425456354
 40
8.104953735855892
 40
8.31291668592425
 40
8.497730294941215
 40
8.65101898431375
 40
8.764738853624491
 40
8.764738853624491
 40
8.764738853624491
 40
8.764738853624491
 10
174.7922649500513
 20
13.81626739612929
 30
0.0
 10
174.7766616726931
 20
13.81826231079079
 30
0.0
 10
174.7463947960302
 20
13.82213201360299
 30
0.0
 10
174.7010994202253
 20
13.82341984967263
 30
0.0
 10
174.6559553129349
 20
13.82308683554047
 30
0.0
 10
174.6099017123399
 20
13.8231465867422
 30
0.0
 10
174.5640496172097
 20
13.82325813649997
 30
0.0
 10
174.5183711648165
 20
13.82277833456585
 30
0.0
 10
174.4750811541608
 20
13.82461109618721
 30
0.0
 10
174.4039947951514
 20
13.8004955681466
 30
0.0
 10
174.4057477261441
 20
13.92184693977251
 30
0.0
 10
174.358619637057
 20
14.00726239751232
 30
0.0
 10
174.3191478251761
 20
14.12486929345134
 30
0.0
 10
174.2706635532645
 20
14.24232752540437
 30
0.0
 10
174.2201017402523
 20
14.3640593576151
 30
0.0
 10
174.1718634610476
 20
14.49075967862466
 30
0.0
 10
174.1135232947595
 20
14.59933687784953
 30
0.0
 10
174.0980892667261
 20
14.75620657134414
 30
0.0
 10
173.9566586330635
 20
14.72373446548318
 30
0.0
 10
173.8508397414904
 20
14.73512888682179
 30
0.0
 10
173.7358569725222
 20
14.73392591514612
 30
0.0
 10
173.625314225214
 20
14.73506945347405
 30
0.0
 10
173.5176583522783
 20
14.73418350037523
 30
0.0
 10
173.4121322529242
 20
14.73416602390517
 30
0.0
 10
173.3109192682013
 20
14.72714032472411
 30
0.0
 10
173.1266804827753
 20
14.75135859859874
 30
0.0
 10
173.1157393685411
 20
14.44741691121883
 30
0.0
 10
173.008769163475
 20
14.22353177253396
 30
0.0
 10
172.9098148604346
 20
14.03895314292495
 30
0.0
 10
172.9225090524008
 20
13.7953020480421
 30
0.0
 10
172.8050091716397
 20
13.82508046753197
 30
0.0
 10
172.742205586831
 20
13.82258089509597
 30
0.0
 10
172.67858720934
 20
13.82344075102805
 30
0.0
 10
172.3946014194075
 20
13.78098039941952
 30
0.0
 10
173.0251638499382
 20
14.50081952444786
 30
0.0
 10
173.1087645289071
 20
15.01276539435732
 30
0.0
 10
173.4929252789337
 20
15.53353743550041
 30
0.0
 10
173.4777208288569
 20
16.23519626253214
 30
0.0
 10
173.7239265722696
 20
16.22345633081253
 30
0.0
 10
173.8256346157561
 20
16.2322500445277
 30
0.0
 10
173.8249752035818
 20
15.98059650730347
 30
0.0
 10
173.9428317155828
 20
15.79818020733959
 30
0.0
 10
174.0315515260484
 20
15.55563740662867
 30
0.0
 10
174.132229248526
 20
15.32340030530129
 30
0.0
 10
174.2311142712242
 20
15.08674644566913
 30
0.0
 10
174.3299676990669
 20
14.85461739170092
 30
0.0
 10
174.4256166390926
 20
14.63122222788786
 30
0.0
 10
174.5159904573271
 20
14.42272549049315
 30
0.0
 10
174.5989944568189
 20
14.23308448529318
 30
0.0
 10
174.6726088582799
 20
14.066631060681
 30
0.0
 10
174.7342815895545
 20
13.92917699626099
 30
0.0
 10
174.7749458885604
 20
13.84999239430036
 30
0.0
 10
174.7922649500513
 20
13.81626739612929
 30
0.0
 11
174.7922649500513
 21
13.81626739612929
 31
0.0
 11
174.7453878317448
 21
13.82145433189185
 31
0.0
 11
174.7010975896125
 21
13.82315538223858
 31
0.0
 11
174.6568074431729
 21
13.82315538223858
 31
0.0
 11
174.6099309947159
 21
13.82315538223858
 31
0.0
 11
174.5630633657033
 21
13.82315538223858
 31
0.0
 11
174.5188084970408
 21
13.82315538223858
 31
0.0
 11
174.4744852776854
 21
13.82145433189185
 31
0.0
 11
174.4276419021443
 21
13.81626739612929
 31
0.0
 11
174.3992532136325
 21
13.90360966173244
 31
0.0
 11
174.3622721815898
 21
14.00729656274818
 31
0.0
 11
174.3188386236701
 21
14.12159987001126
 31
0.0
 11
174.2711055866936
 21
14.24113531268969
 31
0.0
 11
174.2208160133237
 21
14.36408057307564
 31
0.0
 11
174.1696467003932
 21
14.48883822929449
 31
0.0
 11
174.1197531801326
 21
14.61134141502771
 31
0.0
 11
174.0733119111841
 21
14.72784517367919
 31
0.0
 11
173.9623611907589
 21
14.73087465284503
 31
0.0
 11
173.8497309225089
 21
14.73300454867788
 31
0.0
 11
173.7362152069449
 21
14.73432195319137
 31
0.0
 11
173.62270004768
 21
14.73473315978849
 31
0.0
 11
173.5169185312816
 21
14.73432195319137
 31
0.0
 11
173.4128501919225
 21
14.73300454867788
 31
0.0
 11
173.3087951724045
 21
14.73087465284503
 31
0.0
 11
173.2030010615596
 21
14.72784517367919
 31
0.0
 11
173.0980914750139
 21
14.4660443751335
 31
0.0
 11
173.0034868690331
 21
14.21710232658458
 31
0.0
 11
172.9252231210298
 21
13.99559756969555
 31
0.0
 11
172.8693431224555
 21
13.81626739612929
 31
0.0
 11
172.8082651639442
 21
13.82145433189185
 31
0.0
 11
172.742087361813
 21
13.82315538223858
 31
0.0
 11
172.6758390041282
 21
13.82145433189185
 31
0.0
 11
172.6147963233938
 21
13.81626739612929
 31
0.0
 11
172.889968495193
 21
14.41656508695142
 31
0.0
 11
173.158294573417
 21
15.01343642360779
 31
0.0
 11
173.4240277350405
 21
15.61366245644379
 31
0.0
 11
173.6914740737033
 21
16.22421385386059
 31
0.0
 11
173.7241589339806
 21
16.22421385386059
 31
0.0
 11
173.7568437942579
 21
16.22421385386059
 31
0.0
 11
173.8428300681057
 21
16.01658539037084
 31
0.0
 11
173.9357285813609
 21
15.79254614563519
 31
0.0
 11
174.0328714521463
 21
15.55908663180467
 31
0.0
 11
174.1317936458031
 21
15.32298128464149
 31
0.0
 11
174.2315341249927
 21
15.08649780379783
 31
0.0
 11
174.3313071129353
 21
14.85168781253709
 31
0.0
 11
174.4280608257448
 21
14.62599492196848
 31
0.0
 11
174.5188084970408
 21
14.41658052097918
 31
0.0
 11
174.6022150834546
 21
14.22607611130457
 31
0.0
 11
174.6770293263377
 21
14.05708232662468
 31
0.0
 11
174.7410729186603
 21
13.9178133770067
 31
0.0
 11
174.7922649500513
 21
13.81626739612929
 31
0.0
  0
SPLINE
  5
B8
102
{ACAD_REACTORS
330
D4
102
}
330
48
100
AcDbEntity
  8
_U_30EC_U_30A4_U_30E4_U_30FC_1
  6
Continuous
 62
     2
100
AcDbSpline
210
0.0
220
0.0
230
1.0
 70
    11
 71
     3
 72
    99
 73
    95
 74
    93
 42
0.000000001
 43
0.0000000001
 44
0.00000001
 40
0.0
 40
0.0
 40
0.0
 40
0.0
 40
0.0796417172272034
 40
0.1621768542355709
 40
0.248648916095716
 40
0.3404969668524147
 40
0.4381912511164205
 40
0.5434463660244527
 40
0.6518115192846861
 40
0.7530190937886396
 40
0.8492196919724736
 40
0.9419290312997823
 40
1.034249663569995
 40
1.129078600620141
 40
1.226697027573213
 40
1.327220425421668
 40
1.470572134938007
 40
1.595489863371212
 40
1.719934125348391
 40
1.850576620127414
 40
1.989059629987293
 40
2.134139054226906
 40
2.280698007207187
 40
2.424529739039455
 40
2.565929576985821
 40
2.708239260773555
 40
2.861717887443679
 40
3.045168540347316
 40
3.183798301138563
 40
3.314813961455452
 40
3.442083470447302
 40
3.569912708372938
 40
3.702177512509339
 40
3.842307559659518
 40
3.992872223245915
 40
4.156750662218303
 40
4.310981861107524
 40
4.445859909322562
 40
4.57239393613156
 40
4.701656719781951
 40
4.768279086008455
 40
4.835960697898385
 40
4.912788918729329
 40
5.006285208481517
 40
5.026909478751594
 40
5.047533749021158
 40
5.1018080314712
 40
5.162325165538501
 40
5.226919745995813
 40
5.294231806596678
 40
5.36454485255484
 40
5.438319055467875
 40
5.517877651324207
 40
5.607647714861519
 40
5.700449642544364
 40
5.788251142364089
 40
5.872714706039735
 40
5.955167292575262
 40
6.037192395190348
 40
6.120669181469041
 40
6.206848616686289
 40
6.296680855416761
 40
6.442558392872515
 40
6.568190371608218
 40
6.69290456736029
 40
6.824220446557058
 40
6.963121850329308
 40
7.107843738851111
 40
7.253431663907218
 40
7.395187468036636
 40
7.533140753237689
 40
7.670550457175196
 40
7.816236511769207
 40
7.987691657359147
 40
8.1422774219692
 40
8.293662615414929
 40
8.442962460879205
 40
8.59159831618524
 40
8.743678992361707
 40
8.903725323699112
 40
9.076307008890456
 40
9.265578604680512
 40
9.459203795360688
 40
9.617619810273471
 40
9.753609671361849
 40
9.87487330000402
 40
9.954520184977703
 40
10.02416413719235
 40
10.09769764405434
 40
10.18909955924965
 40
10.20974586420126
 40
10.23039218263372
 40
10.30057101881256
 40
10.37632012987542
 40
10.37632012987542
 40
10.37632012987542
 40
10.37632012987542
 10
170.1465954835851
 20
14.13795663215988
 30
0.0
 10
170.1632217851219
 20
14.11720608845309
 30
0.0
 10
170.1970784206577
 20
14.07495111711901
 30
0.0
 10
170.2599822541036
 20
14.02029811392069
 30
0.0
 10
170.3332500940392
 20
13.97299025121052
 30
0.0
 10
170.4175969238636
 20
13.93527231437936
 30
0.0
 10
170.513224061546
 20
13.91040619731951
 30
0.0
 10
170.6171853775346
 20
13.90309559345933
 30
0.0
 10
170.7224020220405
 20
13.91142322794052
 30
0.0
 10
170.8206626371334
 20
13.94149179651525
 30
0.0
 10
170.9058986427547
 20
13.98848822971874
 30
0.0
 10
170.9779220206103
 20
14.04952991250856
 30
0.0
 10
171.0350917709096
 20
14.1241296957858
 30
0.0
 10
171.0767868747439
 20
14.21002464660172
 30
0.0
 10
171.1026952846292
 20
14.3048585043221
 30
0.0
 10
171.1118037332653
 20
14.41854979038367
 30
0.0
 10
171.0986864796487
 20
14.54332587770779
 30
0.0
 10
171.0325330334414
 20
14.66014719171895
 30
0.0
 10
170.9369370919568
 20
14.74512539577375
 30
0.0
 10
170.8249681022369
 20
14.81416684459164
 30
0.0
 10
170.6993659583269
 20
14.8720414204589
 30
0.0
 10
170.5656691620856
 20
14.92373723284339
 30
0.0
 10
170.4313122818831
 20
14.97899092397178
 30
0.0
 10
170.3051983986877
 20
15.04939770641646
 30
0.0
 10
170.1926579987534
 20
15.13785540731246
 30
0.0
 10
170.0969963064458
 20
15.24981067868474
 30
0.0
 10
170.0334157151826
 20
15.39949910101383
 30
0.0
 10
170.0200706505015
 20
15.5593279438514
 30
0.0
 10
170.0320510987449
 20
15.71048405306842
 30
0.0
 10
170.071229892884
 20
15.83809244591537
 30
0.0
 10
170.135498775091
 20
15.95080874030845
 30
0.0
 10
170.223820499974
 20
16.04648609268683
 30
0.0
 10
170.3338091207627
 20
16.1235421498575
 30
0.0
 10
170.4632284401265
 20
16.1815139693628
 30
0.0
 10
170.6111838967793
 20
16.21739177588818
 30
0.0
 10
170.7682069455486
 20
16.22746719050561
 30
0.0
 10
170.917494046643
 20
16.21863637762588
 30
0.0
 10
171.059625361417
 20
16.19074899340356
 30
0.0
 10
171.1595922609625
 20
16.13413314701138
 30
0.0
 10
171.3125074736185
 20
16.08674602105508
 30
0.0
 10
171.2455131717169
 20
16.00197553001186
 30
0.0
 10
171.2296479120268
 20
15.93438901873485
 30
0.0
 10
171.1978750531297
 20
15.86926092793191
 30
0.0
 10
171.215020220957
 20
15.76723453256954
 30
0.0
 10
171.1666427208232
 20
15.77493211681903
 30
0.0
 10
171.1315789440766
 20
15.76806771724809
 30
0.0
 10
171.1296697985717
 20
15.83263831158195
 30
0.0
 10
171.0985692931989
 20
15.87825639621395
 30
0.0
 10
171.0664551628455
 20
15.93561036628454
 30
0.0
 10
171.0208038475168
 20
15.98540462692556
 30
0.0
 10
170.9658508218387
 20
16.02994813718996
 30
0.0
 10
170.9010841173007
 20
16.06763988836548
 30
0.0
 10
170.8232377310596
 20
16.09283375791349
 30
0.0
 10
170.7355160553352
 20
16.09931230998107
 30
0.0
 10
170.6452903277806
 20
16.09235709285607
 30
0.0
 10
170.5594594694064
 20
16.06909190460924
 30
0.0
 10
170.4828343638596
 20
16.03131644107543
 30
0.0
 10
170.4165265636201
 20
15.9805164108957
 30
0.0
 10
170.3622560536965
 20
15.91731143407209
 30
0.0
 10
170.3224925345458
 20
15.84276455710368
 30
0.0
 10
170.2976775510588
 20
15.75917313997763
 30
0.0
 10
170.289212426287
 20
15.65192948382285
 30
0.0
 10
170.3019697987104
 20
15.52965457267559
 30
0.0
 10
170.3681548409273
 20
15.41149724291213
 30
0.0
 10
170.4640977399832
 20
15.3260632570953
 30
0.0
 10
170.5757914963182
 20
15.25583362306726
 30
0.0
 10
170.7010863668703
 20
15.19659162305306
 30
0.0
 10
170.8349823941447
 20
15.14616708086127
 30
0.0
 10
170.968993033315
 20
15.09322516984381
 30
0.0
 10
171.0950885316915
 20
15.02750170625174
 30
0.0
 10
171.2076216638418
 20
14.94480352537321
 30
0.0
 10
171.3031370284232
 20
14.83996006310071
 30
0.0
 10
171.3672706486963
 20
14.69937117251568
 30
0.0
 10
171.3811103725278
 20
14.5406540945159
 30
0.0
 10
171.3673954712231
 20
14.38153155217875
 30
0.0
 10
171.3244739153984
 20
14.2348382881921
 30
0.0
 10
171.2545906329066
 20
14.10119796587142
 30
0.0
 10
171.1574592213829
 20
13.98532387699293
 30
0.0
 10
171.0347806023657
 20
13.89089981770092
 30
0.0
 10
170.8874408413167
 20
13.82179270651977
 30
0.0
 10
170.7177132497125
 20
13.77953210858854
 30
0.0
 10
170.5317404979596
 20
13.76781736230402
 30
0.0
 10
170.3528955926183
 20
13.77809486683438
 30
0.0
 10
170.1881733753743
 20
13.8196657376915
 30
0.0
 10
170.0834410841056
 20
13.88797642883944
 30
0.0
 10
169.9350960790365
 20
13.93675219032108
 30
0.0
 10
169.9980378194729
 20
14.02976591290841
 30
0.0
 10
170.007227443006
 20
14.10296536248278
 30
0.0
 10
170.0303711301231
 20
14.16936294501344
 30
0.0
 10
170.0034588335317
 20
14.2697480952758
 30
0.0
 10
170.0521338956339
 20
14.26234033517378
 30
0.0
 10
170.0916530580696
 20
14.26894063620895
 30
0.0
 10
170.0996204944703
 20
14.19078703218931
 30
0.0
 10
170.1305436967922
 20
14.15600927375853
 30
0.0
 10
170.1465954835851
 20
14.13795663215988
 30
0.0
 11
170.1465954835851
 21
14.13795663215988
 31
0.0
 11
170.1982038075864
 21
14.07729869814736
 31
0.0
 11
170.2601105501335
 21
14.02271295163318
 31
0.0
 11
170.3327764009802
 21
13.97583980928385
 31
0.0
 11
170.4166468655843
 21
13.93839906276538
 31
0.0
 11
170.511221073241
 21
13.91390636311877
 31
0.0
 11
170.6161603327165
 21
13.90575829888469
 31
0.0
 11
170.7240739497552
 21
13.91564048638221
 31
0.0
 11
170.8208419941616
 21
13.94528704887479
 31
0.0
 11
170.9050776083319
 21
13.99175118948817
 31
0.0
 11
170.9756144207686
 21
14.05191413218149
 31
0.0
 11
171.031944210998
 21
14.12505819466317
 31
0.0
 11
171.0736690016003
 21
14.21021434047519
 31
0.0
 11
171.0994680808032
 21
14.30436190989612
 31
0.0
 11
171.1080824729446
 21
14.40451552098219
 31
0.0
 11
171.0878517703357
 21
14.54643250879399
 31
0.0
 11
171.0272522666731
 21
14.65566684036389
 31
0.0
 11
170.9364971286285
 21
14.74081306430096
 31
0.0
 11
170.826010188474
 21
14.81052746532519
 31
0.0
 11
170.7008523531254
 21
14.86979854169923
 31
0.0
 11
170.5662951950998
 21
14.92404253474119
 31
0.0
 11
170.4316884277007
 21
14.98201274306001
 31
0.0
 11
170.3065802017258
 21
15.05297399304229
 31
0.0
 11
170.196027609828
 21
15.14113315968691
 31
0.0
 11
170.1053381235265
 21
15.25080295132619
 31
0.0
 11
170.0447055469484
 21
15.39179720476318
 31
0.0
 11
170.0245079172553
 21
15.57413260402309
 31
0.0
 11
170.0374030471347
 21
15.71216131926637
 31
0.0
 11
170.0761016659391
 21
15.83733128451289
 31
0.0
 11
170.1393141731506
 21
15.94779262129084
 31
0.0
 11
170.2257499954545
 21
16.04196885390618
 31
0.0
 11
170.3336492808962
 21
16.11846540770648
 31
0.0
 11
170.4613526283328
 21
16.17615670109488
 31
0.0
 11
170.6075393259923
 21
16.21220066809971
 31
0.0
 11
170.770976856545
 21
16.22421385386059
 31
0.0
 11
170.9248918431289
 21
16.21434269066863
 31
0.0
 11
171.0564887242607
 21
16.18477329831499
 31
0.0
 11
171.172563634494
 21
16.13439993895253
 31
0.0
 11
171.2800792741122
 21
16.06264163167879
 31
0.0
 11
171.2516994050444
 21
16.00236624106886
 31
0.0
 11
171.2284855254283
 21
15.93879017337649
 31
0.0
 11
171.2078381040801
 21
15.86478841992269
 31
0.0
 11
171.1871840681487
 21
15.77360197897329
 31
0.0
 11
171.1665597978415
 21
15.77360197897329
 31
0.0
 11
171.1459355275343
 21
15.77360197897329
 31
0.0
 11
171.1256706495791
 21
15.82395108486345
 31
0.0
 11
171.0994658759421
 21
15.87850045116929
 31
0.0
 11
171.0650468924451
 21
15.93316116296114
 31
0.0
 11
171.0203554612937
 21
15.98349593725409
 31
0.0
 11
170.9657333359511
 21
16.02777175321529
 31
0.0
 11
170.9016722004326
 21
16.06436142334499
 31
0.0
 11
170.825968296114
 21
16.08882545979724
 31
0.0
 11
170.7365722046449
 21
16.09701100667019
 31
0.0
 11
170.6440937174207
 21
16.08926973931101
 31
0.0
 11
170.5594072091645
 21
16.06609003445568
 31
0.0
 11
170.483702448884
 21
16.02863495634007
 31
0.0
 11
170.4183754766516
 21
15.97832774281099
 31
0.0
 11
170.3650487887664
 21
15.91600293379877
 31
0.0
 11
170.3254809233901
 21
15.84249947895609
 31
0.0
 11
170.3009523754711
 21
15.75988443557392
 31
0.0
 11
170.2927954104108
 21
15.67042329844348
 31
0.0
 11
170.3130095765617
 21
15.52595308146576
 31
0.0
 11
170.373625616682
 21
15.41591177072938
 31
0.0
 11
170.4643479320758
 21
15.33033670130634
 31
0.0
 11
170.5748676948813
 21
15.25941954854629
 31
0.0
 11
170.7000089937719
 21
15.1991430555058
 31
0.0
 11
170.8345826882553
 21
15.14590447913018
 31
0.0
 11
170.9691729191968
 21
15.09039489581072
 31
0.0
 11
171.0942976816297
 21
15.02377281249409
 31
0.0
 11
171.204800907977
 21
14.94118863716749
 31
0.0
 11
171.2955397598288
 21
14.83800003476269
 31
0.0
 11
171.3561557999489
 21
14.70552315979582
 31
0.0
 11
171.3763699660998
 21
14.53526378483839
 31
0.0
 11
171.3621839747998
 21
14.3813303039741
 31
0.0
 11
171.3196087009193
 21
14.23605531269099
 31
0.0
 11
171.2499752884265
 21
14.10398854189068
 31
0.0
 11
171.1544992078713
 21
13.99007218775249
 31
0.0
 11
171.0341060772624
 21
13.8971527259702
 31
0.0
 11
170.8896160201846
 21
13.82832357668178
 31
0.0
 11
170.7223519532713
 21
13.78581275203966
 31
0.0
 11
170.5336103348226
 21
13.77165864614038
 31
0.0
 11
170.3405031726387
 21
13.78581275203966
 31
0.0
 11
170.1878975900911
 21
13.82832357668178
 31
0.0
 11
170.0661897942203
 21
13.88899033013892
 31
0.0
 11
169.9660261826363
 21
13.95734322942739
 31
0.0
 11
169.9922320587039
 21
14.03255545163076
 31
0.0
 11
170.0090121537618
 21
14.10014767383609
 31
0.0
 11
170.0206196447852
 21
14.17275926235959
 31
0.0
 11
170.0313606254139
 21
14.26352788212859
 31
0.0
 11
170.0520069443315
 21
14.26352788212859
 31
0.0
 11
170.0726532632492
 21
14.26352788212859
 31
0.0
 11
170.1048916391629
 21
14.20119204881085
 31
0.0
 11
170.1465954835851
 21
14.13795663215988
 31
0.0
  0
LWPOLYLINE
  5
B9
102
{ACAD_REACTORS
330
C6
102
}
330
48
100
AcDbEntity
  8
_U_30EC_U_30A4_U_30E4_U_30FC_1
  6
Continuous
 62
     2
100
AcDbPolyline
 90
        5
 70
     1
 43
0.0
 10
192.4578138032672
 20
15.39722336795629
 10
192.4578138032672
 20
15.22875434022059
 10
191.1602971697031
 20
15.22875434022059
 10
191.1602971697031
 20
15.39722336795629
 10
192.4578138032672
 20
15.39722336795629
  0
MTEXT
  5
BB
330
48
100
AcDbEntity
  8
1
 62
     2
100
AcDbMText
 10
32.5
 20
282.0000000000003
 30
0.0
 40
5.0
 41
0.0
 71
     5
 72
     1
  1
図番
  7
CONVERTER_11
 73
     1
 44
0.45454545454545
  0
MTEXT
  5
BC
330
48
100
AcDbEntity
  8
1
 62
     2
100
AcDbMText
 10
29.0
 20
33.99999999999999
 30
0.0
 40
3.5
 41
0.0
 71
     5
 72
     1
  1
備考
  7
CONVERTER_11
 73
     1
 44
0.45454545454545
  0
MTEXT
  5
BD
330
48
100
AcDbEntity
  8
1
 62
     2
100
AcDbMText
 10
29.0
 20
22.74999999999999
 30
0.0
 40
3.5
 41
0.0
 71
     5
 72
     1
  1
品名
  7
CONVERTER_11
 73
     1
 44
0.72727272727273
  0
MTEXT
  5
BE
330
48
100
AcDbEntity
  8
1
 62
     2
100
AcDbMText
 10
29.0
 20
14.24999999999999
 30
0.0
 40
3.5
 41
0.0
 71
     5
 72
     1
  1
品番
  7
CONVERTER_11
 73
     1
 44
0.72727272727273
  0
MTEXT
  5
BF
330
48
100
AcDbEntity
  8
1
 62
     2
100
AcDbMText
 10
101.5
 20
24.99999999999999
 30
0.0
 40
3.0
 41
0.0
 71
     5
 72
     1
  1
承認
  7
CONVERTER_11
 73
     1
 44
0.59090909090909
  0
MTEXT
  5
C0
330
48
100
AcDbEntity
  8
1
 62
     2
100
AcDbMText
 10
175.0
 20
23.49999999999999
 30
0.0
 40
3.5
 41
0.0
 71
     5
 72
     1
  1
第三角法
  7
CONVERTER_11
 73
     1
 44
0.54545454545455
  0
MTEXT
  5
C1
330
48
100
AcDbEntity
  8
1
 62
     2
100
AcDbMText
 10
118.5
 20
24.99999999999999
 30
0.0
 40
3.0
 41
0.0
 71
     5
 72
     1
  1
検図
  7
CONVERTER_11
 73
     1
 44
0.59090909090909
  0
MTEXT
  5
C2
330
48
100
AcDbEntity
  8
1
 62
     2
100
AcDbMText
 10
152.5
 20
24.99999999999999
 30
0.0
 40
3.0
 41
0.0
 71
     5
 72
     1
  1
設計
  7
CONVERTER_11
 73
     1
 44
0.59090909090909
  0
MTEXT
  5
C3
330
48
100
AcDbEntity
  8
1
 62
     2
100
AcDbMText
 10
135.5
 20
24.99999999999999
 30
0.0
 40
3.0
 41
0.0
 71
     5
 72
     1
  1
製図
  7
CONVERTER_11
 73
     1
 44
0.59090909090909
  0
MTEXT
  5
C4
330
48
100
AcDbEntity
  8
1
 62
     2
100
AcDbMText
 10
89.5
 20
23.99999999999999
 30
0.0
 40
3.5
 41
0.0
 71
     5
 72
     1
  1
尺度
  7
CONVERTER_11
 73
     1
 44
0.54545454545455
  0
MTEXT
  5
C5
330
48
100
AcDbEntity
  8
1
 62
   250
100
AcDbMText
 10
25.0
 20
5.0
 30
0.0
 40
3.5
 41
0.0
 71
     4
 72
     1
  1
備考欄の文字列 原点位置=4
  7
CONVERTER_11
 73
     1
 44
0.54545454545455
  0
HATCH
  5
C6
330
48
100
AcDbEntity
  8
1
  6
Continuous
 62
     2
100
AcDbHatch
 10
0.0
 20
0.0
 30
0.0
210
0.0
220
0.0
230
1.0
  2
CUSTOM0
 70
     0
 71
     1
 91
        1
 92
        1
 93
        4
 72
     1
 10
192.4578138032672
 20
15.39722336795629
 11
192.4578138032672
 21
15.22875434022059
 72
     1
 10
192.4578138032672
 20
15.22875434022059
 11
191.1602971697031
 21
15.22875434022059
 72
     1
 10
191.1602971697031
 20
15.22875434022059
 11
191.1602971697031
 21
15.39722336795629
 72
     1
 10
191.1602971697031
 20
15.39722336795629
 11
192.4578138032672
 21
15.39722336795629
 97
        1
330
B9
 75
     1
 76
     2
 52
45.0
 41
0.1
 77
     0
 78
     1
 53
45.0
 43
0.0
 44
0.0
 45
-0.282842712474619
 46
0.0
 79
     0
 98
        1
 10
0.0
 20
0.0
  0
HATCH
  5
C7
330
48
100
AcDbEntity
  8
1
  6
Continuous
 62
     2
100
AcDbHatch
 10
0.0
 20
0.0
 30
0.0
210
0.0
220
0.0
230
1.0
  2
CUSTOM1
 70
     0
 71
     1
 91
        1
 92
        1
 93
        3
 72
     4
 94
        3
 73
     0
 74
     0
 95
       24
 96
       20
 40
0.0
 40
0.0
 40
0.0
 40
0.0
 40
0.2211075008753903
 40
0.4273218586245799
 40
0.5080174679239878
 40
0.5914835907870779
 40
0.8143265690193423
 40
1.054651302686658
 40
1.295452694023227
 40
1.518109231328832
 40
1.540864321905445
 40
1.595126460622703
 40
1.659890947896011
 40
1.714153085187365
 40
1.736908174961663
 40
1.764951100735372
 40
1.801562291220957
 40
1.953914424543671
 40
2.126104167379691
 40
2.126104167379691
 40
2.126104167379691
 40
2.126104167379691
 10
185.9375369556889
 20
15.58989295113018
 10
185.9112579081811
 20
15.53097628234376
 10
185.8604698894425
 20
15.41711139679258
 10
185.8131784839111
 20
15.14441958233111
 10
185.7043482802618
 20
15.24445482575453
 10
185.5514800279637
 20
15.2711859336733
 10
185.76861551812
 20
15.48518135017633
 10
185.7838483674381
 20
15.70332117782486
 10
185.8906889492
 20
15.88451579066425
 10
185.8305380947078
 20
16.16913226311394
 10
185.9334317395402
 20
16.14114089222446
 10
185.977993346815
 20
16.13243251602296
 10
186.0380842395396
 20
16.12139654183354
 10
186.0756619587438
 20
16.1076752305556
 10
186.1252466928606
 20
16.10756076160225
 10
186.0930158919325
 20
16.07306592398621
 10
186.0171802221882
 20
16.08404104537971
 10
186.0429447159693
 20
15.89858969582449
 10
186.0055896763849
 20
15.8070231354959
 10
185.9857704961609
 20
15.75844135397709
 72
     4
 94
        3
 73
     0
 74
     0
 95
       70
 96
       66
 40
0.0
 40
0.0
 40
0.0
 40
0.0
 40
0.0241731073021472
 40
0.0846058988987013
 40
0.1631685280353284
 40
0.2417311571789756
 40
0.3021639488292751
 40
0.3263370654895541
 40
0.3533118254248881
 40
0.4228783438922076
 40
0.5179999095313367
 40
0.6216398239466013
 40
0.7167613891499581
 40
0.7863279069649739
 40
0.8133026791761712
 40
0.8372943998771555
 40
0.8945054261372756
 40
0.9627895541962538
 40
1.020000580349065
 40
1.043992300975163
 40
1.071934345522899
 40
1.113121768772913
 40
1.145225199332231
 40
1.225483775412751
 40
1.329819923771446
 40
1.434156071994318
 40
1.514414647795727
 40
1.546518078208328
 40
1.578974764260101
 40
1.662678849314096
 40
1.777131373668317
 40
1.901833377474707
 40
2.016285900500497
 40
2.099989982527864
 40
2.132446666570223
 40
2.158782354485963
 40
2.216720867907785
 40
2.274659381334244
 40
2.300995069256194
 40
2.333451754066166
 40
2.417155836543847
 40
2.531608358985286
 40
2.656310362283781
 40
2.770762886388914
 40
2.854466971340079
 40
2.886923657363885
 40
2.913597976833314
 40
2.982389642875104
 40
3.076451716946956
 40
3.178937260458552
 40
3.272999334739941
 40
3.341791001059152
 40
3.368465320663459
 40
3.39697608073868
 40
3.472140811845916
 40
3.578408190308606
 40
3.700226892456042
 40
3.822045594634259
 40
3.928312973256366
 40
4.003477705314763
 40
4.031988456866829
 40
4.058324144797632
 40
4.116262658236804
 40
4.174201171400611
 40
4.20053684960855
 40
4.20053684960855
 40
4.20053684960855
 40
4.20053684960855
 10
185.9857704961609
 20
15.75844135397709
 10
185.9938259544679
 20
15.7584435981169
 10
186.0220200663241
 20
15.75845146032802
 10
186.0765534803672
 20
15.75830754828375
 10
186.1482891808604
 20
15.75909120499902
 10
186.2236240137062
 20
15.75627570463815
 10
186.2713052366439
 20
15.76298403400961
 10
186.3195071245616
 20
15.75197563692437
 10
186.3062571799873
 20
15.80546402997037
 10
186.3151093964539
 20
15.86049583543095
 10
186.3108698036285
 20
15.95419908726113
 10
186.3133483481279
 20
16.04959482218535
 10
186.309093870606
 20
16.1435682198339
 10
186.3179818665846
 20
16.19795062438015
 10
186.3046977409945
 20
16.25233997691463
 10
186.3514119277108
 20
16.23842216335359
 10
186.3943254545736
 20
16.24103877374045
 10
186.4605443456685
 20
16.23648422450754
 10
186.5013342271799
 20
16.22778162134161
 10
186.5525145690818
 20
16.23531799890192
 10
186.52537204872
 20
16.19349970223282
 10
186.4803096055707
 20
16.20284992072593
 10
186.4942065045051
 20
16.13841207371835
 10
186.4858414431654
 20
16.07378219627398
 10
186.4903632178398
 20
15.97529141193888
 10
186.4854741311167
 20
15.87595932842572
 10
186.4950258992082
 20
15.81293115552972
 10
186.47997614552
 20
15.74964011499793
 10
186.5449159457208
 20
15.76515072944273
 10
186.6116246399497
 20
15.75499387697816
 10
186.7241435470827
 20
15.75988800099372
 10
186.8390235448953
 20
15.75691204732788
 10
186.9519871999747
 20
15.76221664184995
 10
187.0176267597677
 20
15.75107306472093
 10
187.0816276691053
 20
15.76744532319861
 10
187.070314288919
 20
15.71761689905277
 10
187.077533987151
 20
15.67416715212122
 10
187.0703142611269
 20
15.63071745587441
 10
187.0816277175994
 20
15.5808889519687
 10
187.0176263598971
 20
15.59726166091356
 10
186.9519921240459
 20
15.58611271661582
 10
186.838997431733
 20
15.59144857206848
 10
186.7242456548644
 20
15.58834345663816
 10
186.611318368686
 20
15.59364894682583
 10
186.5455220903585
 20
15.58257300019587
 10
186.4816097975358
 20
15.59887597847612
 10
186.4936015165126
 20
15.54423524395736
 10
186.4862104613005
 20
15.48854295047837
 10
186.4892684841982
 20
15.39649689140567
 10
186.4893422785684
 20
15.301791098731
 10
186.4860313578359
 20
15.20952782902265
 10
186.4939505989904
 20
15.1543576873614
 10
186.4815076611618
 20
15.10058169100138
 10
186.5389116551631
 20
15.11453768862782
 10
186.5994708140383
 20
15.10511457884229
 10
186.7048680855081
 20
15.10942885928706
 10
186.8204294070622
 20
15.10835504612033
 10
186.9359688877796
 20
15.10725965900997
 10
187.0414181130841
 20
15.11162525770635
 10
187.1018680471803
 20
15.10209426030673
 10
187.1592837739111
 20
15.11617289606382
 10
187.1477773876709
 20
15.06707153265684
 10
187.1537566781749
 20
15.0256465801865
 10
187.1520311050802
 20
14.97651677966695
 10
187.1521500122971
 20
14.94854428447607
 10
187.1521871691833
 20
14.93980288195949
 72
     4
 94
        3
 73
     0
 74
     0
 95
       62
 96
       58
 40
0.0
 40
0.0
 40
0.0
 40
0.0
 40
0.0598250028308485
 40
0.2024846486897331
 40
0.3727558389221031
 40
0.515415484793607
 40
0.5752404975785339
 40
0.9332326775487246
 40
1.290451762839469
 40
1.602077253145862
 40
1.699931634112134
 40
1.799359756425056
 40
2.270120149657115
 40
2.804661928461553
 40
2.882342287383266
 40
3.076543185719118
 40
3.329004354835582
 40
3.581465524568412
 40
3.775666424543696
 40
3.853346784558318
 40
3.899120679595064
 40
3.984129341792062
 40
4.02990323681741
 40
4.10579749605957
 40
4.295533144152544
 40
4.542189486611803
 40
4.788845828875769
 40
4.978581476410166
 40
5.054475735244414
 40
5.621734664339483
 40
6.1308672420375
 40
6.225249780948767
 40
6.318913039727433
 40
6.663579954559054
 40
7.04749890022492
 40
7.435230791575863
 40
7.498943906668275
 40
7.650875181210269
 40
7.83221250900178
 40
7.984143783697165
 40
8.047856898903293
 40
8.091554632732807
 40
8.172707566964478
 40
8.216405300768209
 40
8.289021782161093
 40
8.462184160757467
 40
8.668861838005547
 40
8.84202421526414
 40
8.914640695475335
 40
8.989881580861528
 40
9.155411528827408
 40
9.320941477744164
 40
9.396182352487402
 40
9.45470901114395
 40
9.583467660170884
 40
9.712226309013163
 40
9.770752957989616
 40
9.770752957989616
 40
9.770752957989616
 40
9.770752957989616
 10
187.1521871691833
 20
14.93980288195949
 10
187.1322348171623
 20
14.93980875568671
 10
187.0647037716466
 20
14.93982863806156
 10
186.9410612161788
 20
14.93949362520325
 10
186.7863180150056
 20
14.94107673750511
 10
186.669734948248
 20
14.93686078860494
 10
186.4550942634241
 20
14.95215205331626
 10
186.8518948407229
 20
14.59198721286192
 10
186.8945656069267
 20
14.37510503397165
 10
187.3189162146611
 20
14.19325062511448
 10
187.1439821496074
 20
14.08985196568071
 10
187.0194523925083
 20
13.8783152321272
 10
186.7666277235944
 20
14.34806081001562
 10
186.4797602893627
 20
14.99511516984519
 10
186.490633592666
 20
14.68782672154692
 10
186.488289277796
 20
14.52288616971776
 10
186.4861096126411
 20
14.28879670711691
 10
186.4980774396346
 20
14.0449807242178
 10
186.4687984740631
 20
13.89855796860982
 10
186.511452262547
 20
13.75113490174535
 10
186.4239814005639
 20
13.76685797306217
 10
186.3768527606744
 20
13.76694303543452
 10
186.2898973207713
 20
13.75109425482906
 10
186.3313474021722
 20
13.8952777142276
 10
186.3029875004285
 20
14.03855052698454
 10
186.31459737753
 20
14.27674947365266
 10
186.3124175648271
 20
14.50517235240348
 10
186.3103111127994
 20
14.66705729375998
 10
186.3208035438323
 20
14.98153709333758
 10
186.0128963252893
 20
14.29229470872436
 10
185.7055258267455
 20
13.81476750243046
 10
185.5851367066274
 20
14.03741112637426
 10
185.4074607910721
 20
14.1501103495556
 10
185.8853326362894
 20
14.32548143465458
 10
185.9353959057208
 20
14.56091929252028
 10
186.3583799621716
 20
14.95322989344606
 10
186.127675427354
 20
14.93655307029065
 10
186.004968585934
 20
14.9426951894877
 10
185.8325483095662
 20
14.93312822699573
 10
185.7213224694449
 20
14.95448818489665
 10
185.6025779627448
 20
14.92136265357419
 10
185.6183169706685
 20
15.00203900606883
 10
185.6178550933763
 20
15.04645414290855
 10
185.6027881889931
 20
15.12967081778535
 10
185.7372380935443
 20
15.09062651983885
 10
185.8619755545747
 20
15.11739729328424
 10
186.062875523728
 20
15.10063949044054
 10
186.1921540949353
 20
15.12204225913006
 10
186.3328419928294
 20
15.08868778853422
 10
186.2980927452615
 20
15.22651875785068
 10
186.3222185666713
 20
15.34963257349479
 10
186.2967086182392
 20
15.47024055670331
 10
186.3333251146684
 20
15.60539865141489
 10
186.2211417027769
 20
15.58094545781885
 10
186.1280356457137
 20
15.59307749842017
 10
186.0191547579819
 20
15.58957630069986
 10
185.9569697640964
 20
15.58981755951597
 10
185.9375369557246
 20
15.58989295124138
 97
        3
330
AA
330
A8
330
A9
 75
     1
 76
     2
 52
45.0
 41
0.1
 77
     0
 78
     1
 53
45.0
 43
0.0
 44
0.0
 45
-0.282842712474619
 46
0.0
 79
     0
 98
        1
 10
0.0
 20
0.0
  0
HATCH
  5
C8
330
48
100
AcDbEntity
  8
1
  6
Continuous
 62
     2
100
AcDbHatch
 10
0.0
 20
0.0
 30
0.0
210
0.0
220
0.0
230
1.0
  2
CUSTOM2
 70
     0
 71
     1
 91
        1
 92
        1
 93
        1
 72
     4
 94
        3
 73
     0
 74
     0
 95
      124
 96
      120
 40
0.0
 40
0.0
 40
0.0
 40
0.0
 40
0.027818722962451
 40
0.1011590162384269
 40
0.2048470170590239
 40
0.3237088716559245
 40
0.4425707262522
 40
0.5462587270699547
 40
0.6195990203311798
 40
0.647417752257866
 40
0.6750060736115242
 40
0.7357003855242759
 40
0.7963946998054474
 40
0.8239830245571766
 40
0.854093381110286
 40
0.937339662940954
 40
1.063094687343235
 40
1.220731268638073
 40
1.399622220914748
 40
1.589140358637732
 40
1.778658496423898
 40
1.957549448940509
 40
2.115186030873159
 40
2.240941056914463
 40
2.324187341760532
 40
2.354297700109382
 40
2.38188602467189
 40
2.442580338710475
 40
2.503274652750497
 40
2.530862977314606
 40
2.560983949278559
 40
2.640393784452905
 40
2.752662861759128
 40
2.881361560118145
 40
3.010060258455192
 40
3.122329335705339
 40
3.201739170817953
 40
3.231860142753313
 40
3.264298024030368
 40
3.352343701778236
 40
3.482095226868755
 40
3.639650650173013
 40
3.811108022565464
 40
3.982565394927966
 40
4.140120818152542
 40
4.269872343141249
 40
4.357918020802308
 40
4.390355902043935
 40
4.423256253992505
 40
4.508104530073026
 40
4.624121560636794
 40
4.75052817603155
 40
4.866545206601997
 40
4.951393482691954
 40
4.984293834645356
 40
5.011450833242271
 40
5.071196230152057
 40
5.130941627057132
 40
5.158098625648798
 40
5.190998977601489
 40
5.275847253689315
 40
5.391864284256749
 40
5.518270899648294
 40
5.634287930209333
 40
5.719136206288007
 40
5.752036558235894
 40
5.782130946282922
 40
5.862783906229097
 40
5.97955013177497
 40
6.11798431664038
 40
6.263641154587931
 40
6.402075339414142
 40
6.518841564907942
 40
6.599494524815527
 40
6.629588912848765
 40
6.654403028226342
 40
6.713575149488109
 40
6.784199939329427
 40
6.84337206049353
 40
6.868186175802776
 40
6.896246243201873
 40
6.939586233758279
 40
6.967846564564907
 40
7.043584251089841
 40
7.153234334451694
 40
7.283231855734439
 40
7.420011856035464
 40
7.550009376579808
 40
7.659659458835202
 40
7.735397144417194
 40
7.763657474851364
 40
7.796409728011021
 40
7.880876065096295
 40
7.996370852465681
 40
8.122208446418576
 40
8.23770322479917
 40
8.322169562010863
 40
8.354921815205877
 40
8.382078813307658
 40
8.441824209206965
 40
8.501569605240114
 40
8.528726603485692
 40
8.561478856695741
 40
8.645945193877791
 40
8.761439980865303
 40
8.887277580764446
 40
9.002772362000966
 40
9.087238696661187
 40
9.11999094923564
 40
9.152428830613339
 40
9.240474508638552
 40
9.370226034149498
 40
9.52778145798438
 40
9.699238830981363
 40
9.870696203978547
 40
10.02825162781396
 40
10.15800315332558
 40
10.24604883135112
 40
10.27848670378515
 40
10.27848670378515
 40
10.27848670378515
 40
10.27848670378515
 10
195.3821827564383
 20
14.01410517385759
 10
195.3914554737523
 20
14.01410498511276
 10
195.4251744536861
 20
14.01410430876716
 10
195.4934706812465
 20
14.01411807243307
 10
195.592014171158
 20
14.01403224219547
 10
195.7062066464812
 20
14.01441755612253
 10
195.818589441707
 20
14.01300835897547
 10
195.9214376600118
 20
14.01719117422245
 10
195.9806839874849
 20
14.00823089251985
 10
196.0371265937033
 20
14.02164434526063
 10
196.0246255586954
 20
13.97087198613363
 10
196.0329549635703
 20
13.92589320939069
 10
196.024817084112
 20
13.8805675299049
 10
196.0370529214457
 20
13.82931932408468
 10
195.9747773490333
 20
13.84447955365278
 10
195.9060513026868
 20
13.83359750710744
 10
195.7782756749592
 20
13.83911304747975
 10
195.6262984511643
 20
13.837008512537
 10
195.4502695972523
 20
13.83771002588475
 10
195.2644431934287
 20
13.83745237531293
 10
195.0786167437175
 20
13.83771005144606
 10
194.9025880142168
 20
13.83700841847732
 10
194.7506104154195
 20
13.83911332229991
 10
194.6228357664554
 20
13.83359680767642
 10
194.5541077836581
 20
13.84448077125944
 10
194.4918349042883
 20
13.82931786684211
 10
194.5040616290017
 20
13.88057510805173
 10
194.4960004462597
 20
13.92582473272427
 10
194.5040675809893
 20
13.97106357955325
 10
194.4918238487083
 20
14.0223417690996
 10
194.5525017120697
 20
14.00749577363136
 10
194.6162810745736
 20
14.01756448170737
 10
194.7277314353502
 20
14.01294644212001
 10
194.8497533443824
 20
14.01413328905471
 10
194.9719538137823
 20
14.01515863900637
 10
195.0829794287392
 20
14.01092475623403
 10
195.1476517413959
 20
14.02018584521741
 10
195.2091162810501
 20
14.00604423049684
 10
195.1930065601337
 20
14.07235527884519
 10
195.2042980327358
 20
14.14447790121977
 10
195.198740082256
 20
14.27513760888287
 10
195.2008035061691
 20
14.42607323708242
 10
195.2000167127295
 20
14.59335873107886
 10
195.2007845215627
 20
14.76061110332302
 10
195.1988038785628
 20
14.91163289269914
 10
195.2041306156621
 20
15.04206069552994
 10
195.1933101388424
 20
15.11465442605898
 10
195.2090326429876
 20
15.18150469436797
 10
195.143270813249
 20
15.16580512490822
 10
195.0756367830763
 20
15.17609243083995
 10
194.9615885293809
 20
15.1711378684712
 10
194.8451242674902
 20
15.17414128030474
 10
194.7306554121477
 20
15.16880303143387
 10
194.6640324657812
 20
15.18001268074823
 10
194.5990769715186
 20
15.1634913266501
 10
194.6107989758707
 20
15.21473720477058
 10
194.6032830189121
 20
15.2595033378409
 10
194.6107989878835
 20
15.30426944897961
 10
194.5990769505346
 20
15.3555153612974
 10
194.66403263392
 20
15.33899381766814
 10
194.7306533339821
 20
15.35020571373943
 10
194.8451352858063
 20
15.34485436710663
 10
194.9615454436962
 20
15.34791188771116
 10
195.0757660174641
 20
15.34278499010707
 10
195.1430150439226
 20
15.35345733355597
 10
195.2083325941438
 20
15.33742082669076
 10
195.1941391448552
 20
15.39949685750053
 10
195.2036059462995
 20
15.46586761628762
 10
195.1990269004085
 20
15.58239972741966
 10
195.2007696555948
 20
15.71426685022376
 10
195.1997551495392
 20
15.85615960150274
 10
195.2017191344372
 20
15.98769050702581
 10
195.1964668553851
 20
16.10524577283004
 10
195.2073408763475
 20
16.16947789001586
 10
195.1919536641853
 20
16.23108802545049
 10
195.24075915378
 20
16.21702407382113
 10
195.2853995564725
 20
16.21954742075316
 10
195.3538643946742
 20
16.2151279740171
 10
195.3959106169102
 20
16.20613025544036
 10
195.4487544758775
 20
16.2141171486651
 10
195.4207035002014
 20
16.17113917611671
 10
195.3749142248594
 20
16.18259552043832
 10
195.3869539073265
 20
16.12173520005132
 10
195.3796086070641
 20
16.05769299468768
 10
195.3831195826162
 20
15.94909368863908
 10
195.3819806760173
 20
15.82494319144748
 10
195.3819174780263
 20
15.69189719829876
 10
195.3832872966868
 20
15.56797381249553
 10
195.3791638801313
 20
15.45868337849337
 10
195.3877763103564
 20
15.39608580094169
 10
195.3746757454402
 20
15.33740133296364
 10
195.4393884328198
 20
15.35362113810901
 10
195.5060405953156
 20
15.34270260383311
 10
195.6198779541102
 20
15.34793740173755
 10
195.7357259122097
 20
15.34485547516912
 10
195.849692426328
 20
15.35018259812511
 10
195.91603410181
 20
15.33904208166542
 10
195.9807188525479
 20
15.35546979593177
 10
195.9689820772723
 20
15.3042592521005
 10
195.976516806304
 20
15.25950334120999
 10
195.9689820992258
 20
15.21474739010026
 10
195.9807188140736
 20
15.16353690871039
 10
195.9160344075252
 20
15.17996427794219
 10
195.8496886430824
 20
15.16882784447268
 10
195.7357459487012
 20
15.17413115893119
 10
195.6197995623054
 20
15.17114764593543
 10
195.5062756882123
 20
15.17606892268392
 10
195.4389231318804
 20
15.16585087513518
 10
195.3734285122495
 20
15.18145996138815
 10
195.3891713619218
 20
15.1146385182741
 10
195.3783275998212
 20
15.04207057815877
 10
195.3836581629792
 20
14.91162247614416
 10
195.3817136151855
 20
14.76064558185226
 10
195.3823133683215
 20
14.59322243934158
 10
195.3821506559604
 20
14.42656176118373
 10
195.3821895488136
 20
14.27360142921637
 10
195.3821816413098
 20
14.14849178985707
 10
195.3821828382745
 20
14.06507890991422
 10
195.3821827716207
 20
14.02491778281978
 10
195.3821827564383
 20
14.01410517385759
 97
        1
330
AB
 75
     1
 76
     2
 52
45.0
 41
0.1
 77
     0
 78
     1
 53
45.0
 43
0.0
 44
0.0
 45
-0.282842712474619
 46
0.0
 79
     0
 98
        1
 10
0.0
 20
0.0
  0
HATCH
  5
C9
330
48
100
AcDbEntity
  8
1
  6
Continuous
 62
     2
100
AcDbHatch
 10
0.0
 20
0.0
 30
0.0
210
0.0
220
0.0
230
1.0
  2
CUSTOM3
 70
     0
 71
     1
 91
        1
 92
        1
 93
        1
 72
     4
 94
        3
 73
     0
 74
     0
 95
      131
 96
      127
 40
0.0
 40
0.0
 40
0.0
 40
0.0
 40
0.0195577029826506
 40
0.0426490537461601
 40
0.2863607575856996
 40
0.5344948436189705
 40
0.7842238845573488
 40
0.8737315789467603
 40
0.98038328103131
 40
1.092842274517058
 40
1.199761146656826
 40
1.289788768186544
 40
1.351573580786257
 40
1.370727117561483
 40
1.41640093601789
 40
1.470914848356027
 40
1.516588666791815
 40
1.535742203552893
 40
1.634216592293273
 40
1.76028334117512
 40
1.897966686682184
 40
2.031216387369004
 40
2.049689751138
 40
2.101115601646938
 40
2.179502577740059
 40
2.278859318314178
 40
2.393194462258839
 40
2.51651664838396
 40
2.642834515406093
 40
2.766156701983602
 40
2.88049184675472
 40
2.979848588358766
 40
3.058235565443947
 40
3.109661416669103
 40
3.12813478070428
 40
3.146783742386597
 40
3.191254343315458
 40
3.244332157316117
 40
3.28880275822602
 40
3.307451719895263
 40
3.327717853844875
 40
3.383747753580239
 40
3.468388665924633
 40
3.574487837698942
 40
3.694892515729049
 40
3.822449946852191
 40
3.950007377920584
 40
4.07041205580068
 40
4.176511227368239
 40
4.261152139501685
 40
4.31718203907688
 40
4.337448172964801
 40
4.620011002696413
 40
4.885096638397693
 40
4.945373043518519
 40
5.014107710488839
 40
5.070481727652257
 40
5.319246955636762
 40
5.584812164506229
 40
5.859000912057082
 40
6.133746937542276
 40
6.401732212969098
 40
6.420736683995689
 40
6.47284571745134
 40
6.550702743894267
 40
6.646951193874476
 40
6.7542344979308
 40
6.865196086587578
 40
6.972479390358036
 40
7.068727839772198
 40
7.146584865451207
 40
7.198693898189437
 40
7.217698368905578
 40
7.234950401631056
 40
7.276089864270102
 40
7.325191803516215
 40
7.366331266090605
 40
7.383583298769957
 40
7.402779163492334
 40
7.453386443254765
 40
7.524934666445767
 40
7.606953361406107
 40
7.688972056429258
 40
7.760520279784509
 40
7.811127559734751
 40
7.830323424546372
 40
7.847844055299997
 40
7.894799345667034
 40
7.962779392744715
 40
8.043374293560753
 40
8.12817414514965
 40
8.208769044817444
 40
8.276749090377137
 40
8.323704379669692
 40
8.341225010056423
 40
8.358497614800571
 40
8.401679126686776
 40
8.457815092185834
 40
8.513951057728239
 40
8.557132569708195
 40
8.574405174505237
 40
8.602340668616604
 40
8.643455660540146
 40
8.663225271966814
 40
8.715345156564451
 40
8.789031889628772
 40
8.87350204552049
 40
8.957972194324102
 40
9.031658925567982
 40
9.083778811234662
 40
9.103548423003122
 40
9.11955008312366
 40
9.160817522379961
 40
9.217244429110327
 40
9.278724491644812
 40
9.335151398295597
 40
9.376418837357892
 40
9.39242049730068
 40
9.401196302734892
 40
9.417494229384353
 40
9.426270027749618
 40
9.440875075477647
 40
9.475702496998817
 40
9.51727070986597
 40
9.55209813199413
 40
9.566703169884335
 40
9.566703169884335
 40
9.566703169884335
 40
9.566703169884335
 10
194.6170254148479
 20
15.67015871511029
 10
194.6134345093371
 20
15.66453690702158
 10
194.6056039123625
 20
15.6522775441911
 10
194.5129968974545
 20
15.61601916040987
 10
194.4887622233248
 20
15.40148444212708
 10
194.3858709845938
 20
15.22197284509708
 10
194.1220492364305
 20
15.03615573798144
 10
194.284547156918
 20
14.95959336566082
 10
194.3607225760838
 20
14.89856693195443
 10
194.4492171072759
 20
14.83515804544761
 10
194.538993023311
 20
14.7752563421956
 10
194.5883817636046
 20
14.72102154849205
 10
194.6745708157383
 20
14.69286240541829
 10
194.6411260674229
 20
14.65713309652805
 10
194.621467116631
 20
14.625503879919
 10
194.5919888217882
 20
14.58475872796065
 10
194.5688989446031
 20
14.55504663489639
 10
194.5380205968356
 20
14.50211422668489
 10
194.4729193365741
 20
14.62740334938904
 10
194.3796000122414
 20
14.68213900233936
 10
194.2950636285139
 20
14.73916423939346
 10
194.1722498125742
 20
14.89675287427525
 10
194.1764450847301
 20
14.82035806766838
 10
194.1751478652677
 20
14.77361280161297
 10
194.1758126448077
 20
14.69584785812603
 10
194.1755549986956
 20
14.59902068324423
 10
194.1756431239922
 20
14.4865027907881
 10
194.1756077302281
 20
14.36524085945699
 10
194.1756511758278
 20
14.2408689785896
 10
194.1755199942405
 20
14.11967683631335
 10
194.1759477562046
 20
14.00691148919741
 10
194.174667820231
 20
13.91082913768742
 10
194.1779759851043
 20
13.83113826468697
 10
194.1715197740087
 20
13.78815175788782
 10
194.1806208705555
 20
13.74955432372039
 10
194.1447910339935
 20
13.75810887724068
 10
194.1115223815252
 20
13.75342519985444
 10
194.0604562576041
 20
13.75351298759782
 10
194.0269723972812
 20
13.75794430283818
 10
193.9907585408754
 20
13.74960793842506
 10
194.0009782568665
 20
13.79145277179282
 10
193.9936487887774
 20
13.83778560820171
 10
193.9973633136102
 20
13.92374831106012
 10
193.9959480554897
 20
14.02605142704847
 10
193.9964105554638
 20
14.1445322393151
 10
193.9962773686231
 20
14.26957683153354
 10
193.9963015910044
 20
14.39475828107048
 10
193.9963354925551
 20
14.51286645379057
 10
193.9962060293132
 20
14.61628748709515
 10
193.996550754908
 20
14.69932036153666
 10
193.9958698278691
 20
14.75143368521243
 10
193.999458660062
 20
14.87912907821359
 10
193.7826171386438
 20
14.58048716819621
 10
193.602135492195
 20
14.35263981511512
 10
193.5490322295611
 20
14.49373443289813
 10
193.5200429133149
 20
14.54325767560943
 10
193.419664806282
 20
14.6464177979011
 10
193.7405127723262
 20
14.72695035023777
 10
193.8689897005429
 20
14.91066283036434
 10
194.0906454325359
 20
15.11931995771761
 10
194.1770224894068
 20
15.29339211228343
 10
194.4549394229075
 20
15.56967051342517
 10
194.3346247839284
 20
15.56534559551116
 10
194.2863197351349
 20
15.56614856202556
 10
194.2102377454905
 20
15.56574582146587
 10
194.116701000975
 20
15.56590275611612
 10
194.0117594788557
 20
15.56582502576227
 10
193.9033887738717
 20
15.56595464378557
 10
193.7981454235897
 20
15.56554393490694
 10
193.7056237819412
 20
15.56682073671594
 10
193.6268130800707
 20
15.56340766534853
 10
193.5839674565379
 20
15.57023350036322
 10
193.5449499586515
 20
15.56065064201126
 10
193.5526365271864
 20
15.59420779565546
 10
193.5485464404311
 20
15.62523550322236
 10
193.5485531368815
 20
15.67236529270904
 10
193.5526239724911
 20
15.70340941646782
 10
193.5449495574582
 20
15.73701861635905
 10
193.5834819405494
 20
15.72748410420875
 10
193.624122801448
 20
15.73397435498075
 10
193.6951471850463
 20
15.73100150650257
 10
193.7729318149633
 20
15.73174761399162
 10
193.8507292246474
 20
15.73247814044529
 10
193.9217232089908
 20
15.72954235514164
 10
193.9624279791819
 20
15.73595468772955
 10
194.000985348991
 20
15.72650524176008
 10
193.9927342754927
 20
15.76264692158788
 10
193.9982346669359
 20
15.8012983761323
 10
193.9955754206162
 20
15.86913528561841
 10
193.9965815471533
 20
15.94591641538741
 10
193.9960178018319
 20
16.02849393582757
 10
193.9970714526592
 20
16.10517329229877
 10
193.994267586313
 20
16.17331990776698
 10
194.0000702721304
 20
16.21132399809344
 10
193.9915654551159
 20
16.24758448077644
 10
194.0255610233125
 20
16.23755723771849
 10
194.0594575683099
 20
16.24073266813704
 10
194.1126669060346
 20
16.23508965640607
 10
194.1660768574482
 20
16.23434774436423
 10
194.1995914649491
 20
16.22819223482978
 10
194.2388086183038
 20
16.2334602977359
 10
194.2120263698492
 20
16.19253380793487
 10
194.1708111001724
 20
16.20371204538107
 10
194.1782641540873
 20
16.15867056192121
 10
194.1742227952184
 20
16.11412278028142
 10
194.176171404964
 20
16.04223572621702
 10
194.1752364849758
 20
15.96168630588771
 10
194.176510719003
 20
15.88173995404996
 10
194.1732043793864
 20
15.80841837083185
 10
194.1802106179961
 20
15.76688643002572
 10
194.1701440380126
 20
15.72752418568117
 10
194.2029814803921
 20
15.73468063430985
 10
194.236457729648
 20
15.73027243137948
 10
194.2915053476019
 20
15.73217943347901
 10
194.3489502595314
 20
15.73185366407291
 10
194.402302624831
 20
15.73106308733086
 10
194.4398540896638
 20
15.73313959118077
 10
194.4623172523237
 20
15.73022338167114
 10
194.4751678073731
 20
15.73572552644056
 10
194.485825568589
 20
15.73801118197789
 10
194.4986635650143
 20
15.74494972588046
 10
194.5145991033071
 20
15.72853046313669
 10
194.5410623920891
 20
15.71709122319446
 10
194.5726805253758
 20
15.6964468783519
 10
194.5987255892151
 20
15.68116869628295
 10
194.6128517723973
 20
15.67266976323184
 10
194.6170254148479
 20
15.67015871511029
 97
        1
330
AC
 75
     1
 76
     2
 52
45.0
 41
0.1
 77
     0
 78
     1
 53
45.0
 43
0.0
 44
0.0
 45
-0.282842712474619
 46
0.0
 79
     0
 98
        1
 10
0.0
 20
0.0
  0
HATCH
  5
CA
330
48
100
AcDbEntity
  8
1
  6
Continuous
 62
     2
100
AcDbHatch
 10
0.0
 20
0.0
 30
0.0
210
0.0
220
0.0
230
1.0
  2
CUSTOM4
 70
     0
 71
     1
 91
        1
 92
        1
 93
        1
 72
     4
 94
        3
 73
     0
 74
     0
 95
       91
 96
       87
 40
0.0
 40
0.0
 40
0.0
 40
0.0
 40
0.0267532254356808
 40
0.0856103386464457
 40
0.1444674521997225
 40
0.1712206856619225
 40
0.2039416005643247
 40
0.2955601971653194
 40
0.4362601844617628
 40
0.616225284450796
 40
0.8256392189705408
 40
1.054685709844482
 40
1.293548478893602
 40
1.532411247938374
 40
1.761457738799639
 40
1.970871673298608
 40
2.150836773256803
 40
2.291536760495664
 40
2.383155356836771
 40
2.415876284101391
 40
2.442629517488045
 40
2.501486630949201
 40
2.560343744424373
 40
2.587096977826657
 40
2.617068194441084
 40
2.699247336756225
 40
2.822032643466538
 40
2.973822353258067
 40
3.14301470482351
 40
3.318007936880089
 40
3.487200288186922
 40
3.638989997548403
 40
3.761775303794901
 40
3.843954445753236
 40
3.873925662229932
 40
3.890812773500628
 40
3.907699884771796
 40
3.93796076785742
 40
3.980983618142456
 40
4.19908591522861
 40
4.439444339237414
 40
4.677588241261038
 40
5.050698317837924
 40
5.44821245476331
 40
5.855291218044834
 40
6.138575438885524
 40
6.417434507584346
 40
6.444551104394029
 40
6.504207617363331
 40
6.563864130314656
 40
6.590980727104249
 40
6.848609460381635
 40
7.109611990668594
 40
7.352910904446252
 40
7.557830220705609
 40
7.587518925913532
 40
7.652834077375963
 40
7.718149228845909
 40
7.747837934062218
 40
7.854880190301237
 40
7.976511257403746
 40
8.369487896592547
 40
8.75751495922384
 40
9.126072419331303
 40
9.460639380392365
 40
9.746695593036106
 40
9.777569943118877
 40
9.807050320931957
 40
9.830377336129084
 40
9.886003295436147
 40
9.952395569430044
 40
10.00802152870638
 40
10.0313485438823
 40
10.21356951009601
 40
10.42203479292884
 40
10.66154556731078
 40
10.91693789564319
 40
11.15832906556578
 40
11.18982674596635
 40
11.27286608520419
 40
11.39026653033361
 40
11.52484752840898
 40
11.6594285264846
 40
11.77682897161496
 40
11.85986831085695
 40
11.8913659823044
 40
11.8913659823044
 40
11.8913659823044
 40
11.8913659823044
 10
190.7027885008196
 20
14.70699600701769
 10
190.7028237765288
 20
14.71587847311983
 10
190.7029366710796
 20
14.74430237047345
 10
190.7012984568489
 20
14.79409639169804
 10
190.7069750292911
 20
14.83657564478156
 10
190.6956928731706
 20
14.88730154856851
 10
190.7632296979032
 20
14.87012900740113
 10
190.83880292107
 20
14.88290227165999
 10
190.9828357056001
 20
14.87629729457386
 10
191.1569419185426
 20
14.8788846220647
 10
191.3639599611004
 20
14.87800591955557
 10
191.5894688172378
 20
14.87828207920032
 10
191.8251162293406
 20
14.87818339658666
 10
192.0607640531348
 20
14.87828184412772
 10
192.2862717580626
 20
14.87800678190792
 10
192.4932934632805
 20
14.87888186270739
 10
192.6673888915288
 20
14.87630522678451
 10
192.8114492071986
 20
14.88288290449217
 10
192.8869691915293
 20
14.87016243405609
 10
192.9545776037029
 20
14.8872640019169
 10
192.9430840140676
 20
14.83674785802943
 10
192.9505104581733
 20
14.79253252226502
 10
192.9428838927986
 20
14.74867966503608
 10
192.9546489459425
 20
14.69878374479325
 10
192.8930788491982
 20
14.71393227712508
 10
192.8256791738672
 20
14.70310665350671
 10
192.7013004056221
 20
14.70852031626233
 10
192.555442823657
 20
14.70649205390782
 10
192.3893576440085
 20
14.70715777578384
 10
192.2188412621724
 20
14.70689643521239
 10
192.0519790855388
 20
14.7072155339109
 10
191.9087346827105
 20
14.70635302590759
 10
191.7773313869834
 20
14.70863300482985
 10
191.7239859134656
 20
14.704077043742
 10
191.6485188456912
 20
14.70999914992873
 10
191.6769075779232
 20
14.70094169343353
 10
191.7033652409542
 20
14.69725912268935
 10
191.6633522907702
 20
14.66654271968274
 10
191.5713663691867
 20
14.67667591174632
 10
191.543939620707
 20
14.43032502247784
 10
191.4478793967234
 20
14.27499558764373
 10
191.1917277964473
 20
13.94525417931568
 10
191.7627537732762
 20
14.08430022210449
 10
192.0173656320516
 20
14.08291779973363
 10
192.6279647048617
 20
13.99790569242081
 10
192.3340698578084
 20
14.29685417558204
 10
192.0133304286517
 20
14.44330856901778
 10
192.1313543360434
 20
14.50025540818284
 10
192.1724716466261
 20
14.52420099873346
 10
192.2156812394411
 20
14.54599758811228
 10
192.317457409445
 20
14.60928721253901
 10
192.4328867625247
 20
14.35147151408778
 10
192.6329591642277
 20
14.2161604111368
 10
192.7269077387228
 20
14.03792795138881
 10
192.9558829746392
 20
13.87997821027049
 10
192.8596031846708
 20
13.82915972576299
 10
192.8167959763779
 20
13.79881292523051
 10
192.7718243528779
 20
13.77466130281454
 10
192.7121720925213
 20
13.7255214674756
 10
192.6789731061326
 20
13.85997475673609
 10
192.5582013350795
 20
14.01594265286574
 10
192.1970976005979
 20
13.88569928059554
 10
191.8385061955541
 20
13.90224694409479
 10
191.457092045008
 20
13.89331229351864
 10
191.1703455282891
 20
13.82882671672401
 10
190.8592055599714
 20
13.94230668192829
 10
190.8268737818788
 20
13.83122259927765
 10
190.7896178253318
 20
13.81196313850018
 10
190.7865737632753
 20
13.85874784087299
 10
190.7679892860608
 20
13.89806853919138
 10
190.7512436616777
 20
13.95765983478231
 10
190.7383730915754
 20
14.00201969871283
 10
190.7042327806427
 20
14.09106331120197
 10
190.9482714457754
 20
14.02181042943767
 10
191.1441394486671
 20
14.00030369057741
 10
191.2395426381277
 20
14.28226484478462
 10
191.2945135769596
 20
14.44363045421122
 10
191.5159619357156
 20
14.71391177589734
 10
191.3849239381216
 20
14.70548446853732
 10
191.3110026555854
 20
14.70779008496967
 10
191.1977459876244
 20
14.70671378321655
 10
191.0694251807484
 20
14.70707639076507
 10
190.9404252030415
 20
14.70697724466083
 10
190.828784094629
 20
14.70699932712569
 10
190.7514663970026
 20
14.70699579189667
 10
190.713287653201
 20
14.70699595845078
 10
190.7027885008196
 20
14.70699600701769
 97
        1
330
AD
 75
     1
 76
     2
 52
45.0
 41
0.1
 77
     0
 78
     1
 53
45.0
 43
0.0
 44
0.0
 45
-0.282842712474619
 46
0.0
 79
     0
 98
        1
 10
0.0
 20
0.0
  0
HATCH
  5
CB
330
48
100
AcDbEntity
  8
1
  6
Continuous
 62
     2
100
AcDbHatch
 10
0.0
 20
0.0
 30
0.0
210
0.0
220
0.0
230
1.0
  2
CUSTOM5
 70
     0
 71
     1
 91
        1
 92
        1
 93
        1
 72
     4
 94
        3
 73
     0
 74
     0
 95
       35
 96
       31
 40
0.0
 40
0.0
 40
0.0
 40
0.0
 40
0.0335231036620479
 40
0.0713218571711779
 40
0.4278866681486959
 40
0.8116865841963887
 40
1.198190238000034
 40
1.561379546812661
 40
1.65998317462203
 40
1.759315573807139
 40
2.132719617231017
 40
2.52523336358876
 40
2.91081539777962
 40
3.265244364303217
 40
3.592606723581953
 40
3.964386154603906
 40
4.359942131737733
 40
4.758154118639238
 40
4.843846538699835
 40
4.936650065543168
 40
5.25661660253725
 40
5.581707404415977
 40
5.899719158308065
 40
6.198363494280668
 40
6.466301046615722
 40
6.493895311537043
 40
6.559697020196837
 40
6.638234543442413
 40
6.704036252154167
 40
6.731630508422974
 40
6.731630508422974
 40
6.731630508422974
 40
6.731630508422974
 10
191.9736010568669
 20
16.23463843719129
 10
191.9676006097789
 20
16.22480690542318
 10
191.9548344099157
 20
16.20388988579795
 10
191.7949362006553
 20
16.17127126532696
 10
192.2322025842337
 20
15.88206680336696
 10
192.4345394828261
 20
15.68041138358438
 10
192.6819564267974
 20
15.43749387603278
 10
193.1831513624606
 20
15.36047662757779
 10
193.012556219897
 20
15.21876939174658
 10
192.9383299463201
 20
15.01710366209114
 10
192.6131432248188
 20
15.36956287174729
 10
192.3277741670664
 20
15.53175212559564
 10
192.0337604077658
 20
15.7368713005305
 10
191.8084452691134
 20
16.21827488595457
 10
191.5993085055522
 20
15.75343046609226
 10
191.3207873674834
 20
15.54350952252914
 10
191.0371383177209
 20
15.37424456359985
 10
190.7078639527832
 20
15.0014236090794
 10
190.6277012318224
 20
15.19708014459002
 10
190.4759724909745
 20
15.32491104190598
 10
190.9083395826794
 20
15.40454031765938
 10
191.0962565329766
 20
15.60026634915473
 10
191.3468477420503
 20
15.81632996916756
 10
191.5714350470161
 20
15.98190992300058
 10
191.6259775409713
 20
16.26133964636829
 10
191.7494661029011
 20
16.2473795040808
 10
191.806027334452
 20
16.24521268867646
 10
191.8761870984945
 20
16.24046859881359
 10
191.9333414022105
 20
16.23709429350536
 10
191.9644190320839
 20
16.23519854711115
 10
191.9736010568669
 20
16.23463843719129
 97
        1
330
AE
 75
     1
 76
     2
 52
45.0
 41
0.1
 77
     0
 78
     1
 53
45.0
 43
0.0
 44
0.0
 45
-0.282842712474619
 46
0.0
 79
     0
 98
        1
 10
0.0
 20
0.0
  0
HATCH
  5
CC
330
48
100
AcDbEntity
  8
1
  6
Continuous
 62
     2
100
AcDbHatch
 10
0.0
 20
0.0
 30
0.0
210
0.0
220
0.0
230
1.0
  2
CUSTOM6
 70
     0
 71
     1
 91
        1
 92
        1
 93
        1
 72
     4
 94
        3
 73
     0
 74
     0
 95
       15
 96
       11
 40
0.0
 40
0.0
 40
0.0
 40
0.0
 40
0.2785535985096341
 40
0.5215624748198423
 40
0.6076917376040253
 40
0.6938210001741193
 40
0.9405019146454894
 40
1.221691403489109
 40
1.300471877081035
 40
1.379252341684809
 40
1.379252341684809
 40
1.379252341684809
 40
1.379252341684809
 10
189.5681493630999
 20
16.22930267330379
 10
189.6296017794178
 20
16.17691646592715
 10
189.7446649974114
 20
16.07882876798223
 10
190.0397348497243
 20
15.92889785897228
 10
189.9025147631857
 20
15.84343227515016
 10
189.8041227843778
 20
15.71085785201552
 10
189.7130033590649
 20
16.01616985781418
 10
189.3636839480655
 20
16.07967869465369
 10
189.511925837657
 20
16.17896509880875
 10
189.5494081874236
 20
16.2125234840238
 10
189.5681493630999
 20
16.22930267330379
 97
        1
330
AF
 75
     1
 76
     2
 52
45.0
 41
0.1
 77
     0
 78
     1
 53
45.0
 43
0.0
 44
0.0
 45
-0.282842712474619
 46
0.0
 79
     0
 98
        1
 10
0.0
 20
0.0
  0
HATCH
  5
CD
330
48
100
AcDbEntity
  8
1
  6
Continuous
 62
     2
100
AcDbHatch
 10
0.0
 20
0.0
 30
0.0
210
0.0
220
0.0
230
1.0
  2
CUSTOM7
 70
     0
 71
     1
 91
        1
 92
        1
 93
        1
 72
     4
 94
        3
 73
     0
 74
     0
 95
       75
 96
       71
 40
0.0
 40
0.0
 40
0.0
 40
0.0
 40
0.0342546099129709
 40
0.1245622414432364
 40
0.2522385480897554
 40
0.3985991922940715
 40
0.5449598364980892
 40
0.6726361431438905
 40
0.7629437746737049
 40
0.7971983935298079
 40
1.101723623449657
 40
1.408591244036661
 40
1.433332471690358
 40
1.487763172450139
 40
1.542193873081954
 40
1.566935100592493
 40
1.923523931821808
 40
2.271755704953608
 40
2.590579755100851
 40
2.858943305581114
 40
2.889120339309082
 40
2.918305855191027
 40
2.941366645531142
 40
2.996357760973016
 40
3.061992318140539
 40
3.116983433626716
 40
3.140044223997389
 40
3.411273122936317
 40
3.732441619740977
 40
3.761068217532679
 40
3.837787499630246
 40
3.948858699125894
 40
4.080541049104283
 40
4.219093782625676
 40
4.350776132722237
 40
4.461847332405582
 40
4.538566614678321
 40
4.567193212544569
 40
4.594907573998827
 40
4.666381453557366
 40
4.764111044010977
 40
4.87059253812578
 40
4.968322128642231
 40
5.039796008286916
 40
5.067510369784375
 40
5.094263603185589
 40
5.153120716668224
 40
5.211977830150674
 40
5.238731063551678
 40
5.272290535138917
 40
5.363380529444778
 40
5.497618415781456
 40
5.660621563453698
 40
5.838007341749399
 40
6.01539311991075
 40
6.178396267038376
 40
6.312634151842327
 40
6.403724143059317
 40
6.437283612672412
 40
6.464036846261028
 40
6.522893960004645
 40
6.581751071483912
 40
6.608504301590858
 40
6.637253941281005
 40
6.711397748902857
 40
6.812778057283469
 40
6.923237199249246
 40
7.02461750762389
 40
7.098761315207542
 40
7.127510946007493
 40
7.127510946007493
 40
7.127510946007493
 40
7.127510946007493
 10
188.4418622390564
 20
14.95849128473269
 10
188.4418622819707
 20
14.94707313408725
 10
188.4418624481128
 20
14.90555257842633
 10
188.4418593081787
 20
14.82146922003776
 10
188.44187882798
 20
14.70004497322333
 10
188.4417912187737
 20
14.55980494047452
 10
188.442111623523
 20
14.42006556794581
 10
188.4411605909739
 20
14.29745038894932
 10
188.4431978595968
 20
14.21587074438047
 10
188.4349433178744
 20
14.06271267077702
 10
188.7430797940902
 20
14.22560236054715
 10
189.0350645173735
 20
14.39482938688001
 10
189.0408354448708
 20
14.25973235781909
 10
189.0455471719892
 20
14.21617221160444
 10
189.0482535411917
 20
14.17211249350545
 10
189.0672545672962
 20
14.02272590363137
 10
188.6583942247301
 20
14.08681172241261
 10
188.3793710348833
 20
13.97296341411016
 10
188.1018081587165
 20
13.87364095811144
 10
187.8099837184403
 20
13.91630687596351
 10
187.7869144678657
 20
13.81321679744543
 10
187.7537474383333
 20
13.78691091244474
 10
187.7480653962738
 20
13.83455309036307
 10
187.7284214559044
 20
13.87180336115071
 10
187.7095089485623
 20
13.93007387847563
 10
187.6942849867706
 20
13.97385201007801
 10
187.6477246372937
 20
14.08759421046308
 10
187.989089731245
 20
14.0557630112005
 10
188.2679649367384
 20
14.02161435106476
 10
188.2617753034908
 20
14.16913976479651
 10
188.2630935452772
 20
14.24013150908831
 10
188.2624831689948
 20
14.34719767958661
 10
188.2625871570725
 20
14.47398529785998
 10
188.2629987964054
 20
14.60849243496052
 10
188.2613907841968
 20
14.73395549951187
 10
188.2659902567926
 20
14.84505246719121
 10
188.256418650221
 20
14.90761886800693
 10
188.2704001783691
 20
14.96595388295006
 10
188.2147384386705
 20
14.95289710582243
 10
188.1575655197821
 20
14.96136307749503
 10
188.0616048925648
 20
14.95729976080641
 10
187.963376752282
 20
14.9597088985248
 10
187.8672582457561
 20
14.95551600613393
 10
187.810464852581
 20
14.96429346441167
 10
187.7550356873384
 20
14.95094936850126
 10
187.7670679427916
 20
15.00036910959261
 10
187.7592003173938
 20
15.04393988030401
 10
187.7666295563828
 20
15.0883046911853
 10
187.7551930564144
 20
15.13902297763996
 10
187.8232102370133
 20
15.12162460757748
 10
187.8968496879747
 20
15.13417450237194
 10
188.0325064058211
 20
15.12799677011102
 10
188.1884909024525
 20
15.13029203093089
 10
188.3615926358143
 20
15.12940968262535
 10
188.5346942964181
 20
15.13029207142413
 10
188.6906789811216
 20
15.12799662955555
 10
188.8263351889797
 20
15.13417486262436
 10
188.8999756705652
 20
15.1216239421834
 10
188.9679914174724
 20
15.13902373012148
 10
188.9565590885922
 20
15.0883013041456
 10
188.9639539458298
 20
15.04397060811113
 10
188.956203991227
 20
15.00028307550201
 10
188.9681203741877
 20
14.95063590098482
 10
188.9108170223616
 20
14.9646141133843
 10
188.8520145789773
 20
14.95539755673259
 10
188.7525293633199
 20
14.95952268164934
 10
188.649428009835
 20
14.95822760025893
 10
188.5537846354573
 20
14.95854077077645
 10
188.4857467971617
 20
14.95848776697149
 10
188.4514462213443
 20
14.95849051871661
 10
188.4418622390564
 20
14.95849128473269
 97
        1
330
B0
 75
     1
 76
     2
 52
45.0
 41
0.1
 77
     0
 78
     1
 53
45.0
 43
0.0
 44
0.0
 45
-0.282842712474619
 46
0.0
 79
     0
 98
        1
 10
0.0
 20
0.0
  0
HATCH
  5
CE
330
48
100
AcDbEntity
  8
1
  6
Continuous
 62
     2
100
AcDbHatch
 10
0.0
 20
0.0
 30
0.0
210
0.0
220
0.0
230
1.0
  2
CUSTOM8
 70
     0
 71
     1
 91
        1
 92
        1
 93
        1
 72
     4
 94
        3
 73
     0
 74
     0
 95
       91
 96
       87
 40
0.0
 40
0.0
 40
0.0
 40
0.0
 40
0.0345987051695718
 40
0.1258134969461369
 40
0.2547723404888987
 40
0.4026032099154125
 40
0.5504340793416704
 40
0.679392922883608
 40
0.7706077146571035
 40
0.8052064287780925
 40
1.124852390615285
 40
1.427402236308886
 40
1.706356627453533
 40
1.955541417875225
 40
2.169485938566377
 40
2.344350786664839
 40
2.480568411561992
 40
2.590440557429015
 40
2.649189927151168
 40
2.749320643306367
 40
2.912632739880071
 40
3.147745656000275
 40
3.244827496385155
 40
3.33849005694675
 40
3.58381541320716
 40
3.761423943238511
 40
3.886956104362667
 40
3.985855451886827
 40
4.091766255337711
 40
4.250186473811904
 40
4.422734315084549
 40
4.628285684838644
 40
4.872093227758476
 40
5.152549652145585
 40
5.464967135837567
 40
5.803201477852483
 40
6.160362988813956
 40
6.193449448276011
 40
6.284170385501666
 40
6.419718138764535
 40
6.587285046385785
 40
6.7740634467237
 40
6.967245678113683
 40
7.154024078817669
 40
7.321590987026054
 40
7.457138740890413
 40
7.547859678556149
 40
7.580946138182709
 40
7.608533084714761
 40
7.669224367077735
 40
7.729915649429953
 40
7.757502595950005
 40
7.790278062553458
 40
7.880146277430956
 40
8.01441996318042
 40
8.18041184239792
 40
8.365434637679389
 40
8.55680107162269
 40
8.741823866830803
 40
8.907815745916313
 40
9.042089431507467
 40
9.131957646249592
 40
9.164733112797169
 40
9.415425063140072
 40
9.667986180958525
 40
9.694169807462693
 40
9.756607686047651
 40
9.831130315322458
 40
9.893568193899922
 40
9.919751820398739
 40
9.950967964690593
 40
9.996421631210712
 40
10.22087981037455
 40
10.44341866197541
 40
10.47847970788854
 40
10.57091337438754
 40
10.70159545461229
 40
10.8514017417036
 40
11.00120802880477
 40
11.13189010907382
 40
11.2243237758301
 40
11.25938480938956
 40
11.28697175596145
 40
11.34766303835918
 40
11.40835432042069
 40
11.43594125892103
 40
11.43594125892103
 40
11.43594125892103
 40
11.43594125892103
 10
190.0818114333289
 20
15.55242795125079
 10
190.0702785844941
 20
15.55242790287917
 10
190.0283409444998
 20
15.55242773704166
 10
189.9434129719026
 20
15.55243125800911
 10
189.8207688553128
 20
15.5524092643588
 10
189.6791206916993
 20
15.55250801177056
 10
189.537975369849
 20
15.55214686232423
 10
189.4141351317904
 20
15.55321883609091
 10
189.3317217825382
 20
15.5509224909127
 10
189.1727791229692
 20
15.56048569373422
 10
189.3503402353376
 20
15.19785394311372
 10
189.3379739205452
 20
14.95243127723115
 10
189.4064519473864
 20
14.66862501324835
 10
189.469302432097
 20
14.43250999939034
 10
189.5452253431728
 20
14.23326740396128
 10
189.6303189577016
 20
14.07745347451371
 10
189.7244607592935
 20
13.97657857781389
 10
189.8282648207727
 20
13.92465852638962
 10
189.9125872030773
 20
13.97606484379613
 10
189.9351322179452
 20
14.09144544037514
 10
189.9745730975371
 20
14.21885149702377
 10
189.9202919734941
 20
14.5362232808675
 10
190.0451218072474
 20
14.38982180140905
 10
190.2019291513602
 20
14.35795300331168
 10
190.0947720007056
 20
14.12421357767628
 10
190.0808711209867
 20
13.95972776583657
 10
190.0234709467225
 20
13.83130869122485
 10
189.9335020145009
 20
13.76018802352828
 10
189.8095274657877
 20
13.74432324142257
 10
189.663427319686
 20
13.77993797554173
 10
189.5243894320284
 20
13.9000057050028
 10
189.4102003962143
 20
14.07435682550322
 10
189.3146141301486
 20
14.29946603111243
 10
189.2318652572627
 20
14.56388246006445
 10
189.1807179256411
 20
14.88187933098545
 10
189.0770189207337
 20
15.15543728488914
 10
189.2042841208523
 20
15.56005818612869
 10
189.0357890623018
 20
15.5511236784968
 10
188.9511995787077
 20
15.55315961418365
 10
188.8189876387627
 20
15.55213937388408
 10
188.6560505094104
 20
15.55253230318431
 10
188.4733759170532
 20
15.5523569631337
 10
188.2847057373383
 20
15.5526010530747
 10
188.1014469020189
 20
15.55185657906238
 10
187.9404746832718
 20
15.55416360522428
 10
187.8029808335276
 20
15.54799804883664
 10
187.728959037231
 20
15.56032838458213
 10
187.6613215186856
 20
15.54329323723558
 10
187.6732373719269
 20
15.59524438447529
 10
187.6655677285693
 20
15.6407142496653
 10
187.6732592225115
 20
15.68614453703707
 10
187.6613141797762
 20
15.73802395984571
 10
187.7283588305866
 20
15.72119143490265
 10
187.8017375665677
 20
15.73335409092672
 10
187.9379128305271
 20
15.72727231074959
 10
188.0973811801513
 20
15.7295483431506
 10
188.2789173085836
 20
15.72881233998963
 10
188.4658034862179
 20
15.72905954196135
 10
188.6468012316836
 20
15.72886400799255
 10
188.8080802578878
 20
15.7293223471484
 10
188.9393882124887
 20
15.72812673751207
 10
189.0225051322596
 20
15.73051347319743
 10
189.1556236547814
 20
15.72230605725465
 10
189.0645893502658
 20
15.97752868952655
 10
188.9789633074419
 20
16.24164358328244
 10
189.0990589003455
 20
16.22904442969163
 10
189.1514264948544
 20
16.22694235763074
 10
189.2214497569715
 20
16.22535399889656
 10
189.2671922337817
 20
16.21602567538113
 10
189.3220812646933
 20
16.22545966915426
 10
189.2963574785681
 20
16.1773302865517
 10
189.1825397571454
 20
16.18266829744158
 10
189.3159346621135
 20
15.95449174576776
 10
189.1943658735472
 20
15.72156856595925
 10
189.3223188769412
 20
15.7308725888444
 10
189.4049048406461
 20
15.72801001754682
 10
189.5307214850824
 20
15.72923437412303
 10
189.6741469838058
 20
15.72932431888965
 10
189.8157420951728
 20
15.72746163183854
 10
189.9459127249968
 20
15.73333075937163
 10
190.019345228619
 20
15.72070340823204
 10
190.0891112922096
 20
15.73877563110413
 10
190.0775772605396
 20
15.68612850546327
 10
190.0833184346682
 20
15.64221317686549
 10
190.0816615770911
 20
15.59089982676551
 10
190.0817757561669
 20
15.56158792021636
 10
190.0818114333289
 20
15.55242795125079
 97
        1
330
B1
 75
     1
 76
     2
 52
45.0
 41
0.1
 77
     0
 78
     1
 53
45.0
 43
0.0
 44
0.0
 45
-0.282842712474619
 46
0.0
 79
     0
 98
        1
 10
0.0
 20
0.0
  0
HATCH
  5
CF
330
48
100
AcDbEntity
  8
1
  6
Continuous
 62
     2
100
AcDbHatch
 10
0.0
 20
0.0
 30
0.0
210
0.0
220
0.0
230
1.0
  2
CUSTOM9
 70
     0
 71
     1
 91
        1
 92
        1
 93
        1
 72
     4
 94
        3
 73
     0
 74
     0
 95
      118
 96
      114
 40
0.0
 40
0.0
 40
0.0
 40
0.0
 40
0.1054708162973325
 40
0.2466098270051825
 40
0.3965912874591206
 40
0.5285525069754007
 40
0.6156245055642277
 40
0.6431434105797574
 40
0.7036850037986235
 40
0.7642265984504619
 40
0.7917455052354909
 40
0.9287404319989986
 40
1.106572819088051
 40
1.28754487968102
 40
1.317578308030537
 40
1.399928030857174
 40
1.52296820479995
 40
1.675072986590571
 40
1.84461653318065
 40
2.019973001638713
 40
2.189516548880025
 40
2.341621331585364
 40
2.464661506320498
 40
2.547011229647064
 40
2.577044658168028
 40
2.603797890893098
 40
2.662655002908785
 40
2.721512114949597
 40
2.748265347702777
 40
2.774215307344853
 40
2.845959313407189
 40
2.954338556588393
 40
3.090194227585577
 40
3.244367517100553
 40
3.407699615844319
 40
3.571031714539474
 40
3.725205003920161
 40
3.86106067472967
 40
3.969439917716368
 40
4.041183923629044
 40
4.067133883213039
 40
4.31188674601226
 40
4.547897258335647
 40
4.764747083044095
 40
4.952749679951902
 40
5.045772974196055
 40
5.137862019645123
 40
5.330543169793179
 40
5.55344826524418
 40
5.795083855888352
 40
6.043293412177428
 40
6.285761695541386
 40
6.31390290875287
 40
6.38425594179346
 40
6.475714884767048
 40
6.567173827759111
 40
6.637526860839889
 40
6.665668074074252
 40
6.692018920328215
 40
6.749990782071261
 40
6.807962643790604
 40
6.834313490018068
 40
6.856393084245346
 40
6.91333519564997
 40
6.991194817302634
 40
7.076026942283895
 40
7.153886563725385
 40
7.210828674844968
 40
7.232908268931303
 40
7.258199334923826
 40
7.324875781592481
 40
7.419142481925149
 40
7.527204308842101
 40
7.635266135230689
 40
7.729532834168686
 40
7.796209279293012
 40
7.821500344594962
 40
7.844652988851033
 40
7.899863140541813
 40
7.96575912805398
 40
8.020969279771265
 40
8.044121924046731
 40
8.069356610160824
 40
8.109134395441586
 40
8.132238100191302
 40
8.193147867786667
 40
8.279261678876846
 40
8.377977512674065
 40
8.476693347146856
 40
8.562807160411912
 40
8.623716930826703
 40
8.646820636853656
 40
8.671988793774469
 40
8.73490918582838
 40
8.816705695189095
 40
8.898502204815665
 40
8.961422597378126
 40
8.986590754551239
 40
9.012941600733384
 40
9.070913462380444
 40
9.128885324081915
 40
9.155236170325225
 40
9.180404327929267
 40
9.24332472194834
 40
9.325121234212133
 40
9.406917746637788
 40
9.469838141978244
 40
9.495006288271018
 40
9.517811184379164
 40
9.572192090487178
 40
9.63709833328142
 40
9.691479239515633
 40
9.714284125643678
 40
9.714284125643678
 40
9.714284125643678
 40
9.714284125643678
 10
185.2874469028653
 20
15.26889163187718
 10
185.3090990569037
 20
15.2411186924281
 10
185.3597257109474
 20
15.17618054561236
 10
185.4349383202592
 20
15.06891060312898
 10
185.5248482274346
 20
14.95377438266625
 10
185.5709169676674
 20
14.85357045748319
 10
185.6655825294654
 20
14.7843400681494
 10
185.6204439320413
 20
14.73771639678272
 10
185.5947047785789
 20
14.69660308866037
 10
185.5645196708012
 20
14.66065971727938
 10
185.5193684730563
 20
14.58579782596093
 10
185.4710504458562
 20
14.80782524253605
 10
185.3968539713073
 20
14.8451067733771
 10
185.2836047324606
 20
15.11610202130597
 10
185.2885133578169
 20
15.00095328446225
 10
185.2868486556306
 20
14.92836675781624
 10
185.2876830076713
 20
14.80625588483983
 10
185.2873609540264
 20
14.65913800810458
 10
185.2875076912455
 20
14.49307063956553
 10
185.2872950092722
 20
14.32187554608599
 10
185.2879497252034
 20
14.15552828635495
 10
185.2859192461139
 20
14.0093517305569
 10
185.291346039993
 20
13.88471047474608
 10
185.2804930868708
 20
13.81718656540623
 10
185.2956739155555
 20
13.7554906141702
 10
185.2457895108134
 20
13.76727503896998
 10
185.2017150342522
 20
13.75943822779966
 10
185.15823716302
 20
13.767604413727
 10
185.1092346786489
 20
13.75538056738465
 10
185.1218731234825
 20
13.8096066724931
 10
185.113018296845
 20
13.86936918907555
 10
185.1175058770314
 20
13.97922029044368
 10
185.1157960135991
 20
14.11029975405677
 10
185.1163550915986
 20
14.26198011444327
 10
185.1161928768693
 20
14.42211074929953
 10
185.1162269924675
 20
14.58236865674568
 10
185.1162514960126
 20
14.73370247520441
 10
185.1161453543225
 20
14.86582156338604
 10
185.1164299141931
 20
14.97294802533196
 10
185.1158675547568
 20
15.03808619579478
 10
185.1180765083689
 20
15.1661895785868
 10
185.0319435998602
 20
14.79097610391575
 10
184.9555140818499
 20
14.63918193123394
 10
184.8660040767834
 20
14.47766206446303
 10
184.7640413217326
 20
14.20471848820167
 10
184.7187976491039
 20
14.36717346596509
 10
184.6102355941671
 20
14.45605432058119
 10
184.7995791751753
 20
14.60549794961408
 10
184.85653405457
 20
14.79749136974925
 10
184.9717520993352
 20
15.02899622906758
 10
184.9940151630133
 20
15.21797259759066
 10
185.1771905152139
 20
15.49454089325932
 10
185.0538033597552
 20
15.48698978832098
 10
184.9925684166834
 20
15.48856772366122
 10
184.9081999617064
 20
15.48882592573677
 10
184.8204235085965
 20
15.48544845751209
 10
184.7656768696123
 20
15.49394814982024
 10
184.7104703026024
 20
15.48048561049792
 10
184.7222823035537
 20
15.52931442126766
 10
184.7142496151793
 20
15.57269004896709
 10
184.7228186104679
 20
15.61509438309572
 10
184.7102943409156
 20
15.66267796552115
 10
184.7555101538736
 20
15.65267212995106
 10
184.8014815562723
 20
15.65894105174057
 10
184.877722204771
 20
15.65593561405869
 10
184.9561296131993
 20
15.65770448278538
 10
185.0323992648932
 20
15.65464793981657
 10
185.0783009459475
 20
15.66103971376174
 10
185.12317339654
 20
15.65093822978893
 10
185.1105552275634
 20
15.70157201581896
 10
185.1191936582707
 20
15.75501261882067
 10
185.1152361595443
 20
15.84863255131679
 10
185.1162325068335
 20
15.95112606688923
 10
185.1171927413073
 20
16.05353270248164
 10
185.1133211458006
 20
16.14735929609323
 10
185.1217789814364
 20
16.20036542840355
 10
185.1093075932835
 20
16.25211435651191
 10
185.154210638985
 20
16.23850747226759
 10
185.1955083836772
 20
16.24100480320587
 10
185.259534428105
 20
16.23648060574487
 10
185.2986111148786
 20
16.22781003043307
 10
185.3476543498742
 20
16.23515102070684
 10
185.3225080030591
 20
16.19602896051756
 10
185.2815901333723
 20
16.20563842455807
 10
185.2910109616604
 20
16.15540148169778
 10
185.2855647318746
 20
16.10385945639489
 10
185.2881699601804
 20
16.01959707584519
 10
185.2870102202154
 20
15.92559135583406
 10
185.2883591064231
 20
15.83196865395523
 10
185.2849970101509
 20
15.7467951755222
 10
185.2920959917769
 20
15.69716856072042
 10
185.2812569154545
 20
15.64993694969985
 10
185.3304010225245
 20
15.66201674936849
 10
185.3794877630146
 20
15.65447393363008
 10
185.4573714280641
 20
15.65686070361429
 10
185.5350365172896
 20
15.65899381905412
 10
185.5845393931354
 20
15.65193391922451
 10
185.6344594750639
 20
15.66360151936211
 10
185.622319851688
 20
15.61540235371392
 10
185.6305838229144
 20
15.57249219801236
 10
185.6223198650783
 20
15.52958201851387
 10
185.6344594549854
 20
15.48138288754868
 10
185.5845395158746
 20
15.49305034471515
 10
185.5350350651202
 20
15.48599202435049
 10
185.4573784382973
 20
15.48811665228608
 10
185.379464386576
 20
15.49053389365763
 10
185.3304500352716
 20
15.4829184819449
 10
185.2813246108943
 20
15.49507952557596
 10
185.291555998857
 20
15.45073013424161
 10
185.2856677678054
 20
15.40925436202914
 10
185.2878788305568
 20
15.34915394315304
 10
185.2874109346145
 20
15.30225782762888
 10
185.2874386992914
 20
15.27650146418196
 10
185.2874469028653
 20
15.26889163187718
 97
        1
330
B2
 75
     1
 76
     2
 52
45.0
 41
0.1
 77
     0
 78
     1
 53
45.0
 43
0.0
 44
0.0
 45
-0.282842712474619
 46
0.0
 79
     0
 98
        1
 10
0.0
 20
0.0
  0
HATCH
  5
D0
330
48
100
AcDbEntity
  8
1
  6
Continuous
 62
     2
100
AcDbHatch
 10
0.0
 20
0.0
 30
0.0
210
0.0
220
0.0
230
1.0
  2
CUSTOM10
 70
     0
 71
     1
 91
        1
 92
        1
 93
        1
 72
     4
 94
        3
 73
     0
 74
     0
 95
       47
 96
       43
 40
0.0
 40
0.0
 40
0.0
 40
0.0
 40
0.2207912809957319
 40
0.4459404186303344
 40
0.4902387190459574
 40
0.5327473892722453
 40
0.5742260451225811
 40
0.6155432630561101
 40
0.6568164066316016
 40
0.6982511618780973
 40
0.7407663929317407
 40
0.7851366743175483
 40
1.010288833836365
 40
1.231080507002228
 40
1.451765243652405
 40
1.676638205891692
 40
1.720461045359665
 40
1.83001814404353
 40
1.972442372353165
 40
2.114866600677534
 40
2.224423699395162
 40
2.268246538883403
 40
2.49362880120727
 40
2.715602830286654
 40
2.934211330706414
 40
3.149502369855371
 40
3.231387784851015
 40
3.318231873854049
 40
3.405143198198036
 40
3.486970301720471
 40
3.702258172493877
 40
3.920866283534114
 40
4.142839325931889
 40
4.368221903865386
 40
4.412044743359868
 40
4.521601842095883
 40
4.664026070452366
 40
4.806450298809079
 40
4.916007397546773
 40
4.959830237043096
 40
5.184703515847133
 40
5.405387250767455
 40
5.405387250767455
 40
5.405387250767455
 40
5.405387250767455
 10
182.6507427258645
 20
15.73406440953869
 10
182.6568139420002
 20
15.79758482501206
 10
182.6690762107243
 20
15.92587938689623
 10
182.5604706879412
 20
16.20166220174083
 10
182.6761985896603
 20
16.1718813343205
 10
182.7171842509015
 20
16.16765556262828
 10
182.7591205797518
 20
16.16310446389605
 10
182.800419662571
 20
16.16201982929488
 10
182.8417032115555
 20
16.16310338195226
 10
182.8836148270647
 20
16.16766112711352
 10
182.9245983549019
 20
16.17187430209724
 10
183.0404922843488
 20
16.20177611317539
 10
182.9295652727457
 20
15.92339806609885
 10
182.9574856365267
 20
15.74283140824952
 10
182.9404267346969
 20
15.50961042346471
 10
182.9414637282102
 20
15.34906622543148
 10
182.9414099399405
 20
15.22284817558723
 10
182.941427737248
 20
15.12428963336242
 10
182.941418858108
 20
14.99280702442965
 10
182.9414263928034
 20
14.86132844968651
 10
182.9414129405128
 20
14.76276222694091
 10
182.9414531717492
 20
14.63639735624152
 10
182.9406746403816
 20
14.47482068822869
 10
182.9565958319266
 20
14.24361821892913
 10
182.9333468885408
 20
14.05874351972001
 10
183.0360183444366
 20
13.78935602770058
 10
182.8820238362836
 20
13.82660112685817
 10
182.8004129802832
 20
13.82137994680528
 10
182.7188192292583
 20
13.82660620378351
 10
182.5648513666842
 20
13.78937069885389
 10
182.6674183421918
 20
14.05875129862879
 10
182.6442045316088
 20
14.24361585325413
 10
182.6600444655139
 20
14.47482218565637
 10
182.6593296313427
 20
14.63639712308503
 10
182.6593664569907
 20
14.76276231210521
 10
182.659354900027
 20
14.86132756635983
 10
182.6593575019214
 20
14.99281127417221
 10
182.6593648531778
 20
15.124275480312
 10
182.6593442541351
 20
15.22287786275328
 10
182.6594082192027
 20
15.34896149354428
 10
182.6581733947592
 20
15.51210091383772
 10
182.6532040396745
 20
15.66054183777548
 10
182.6507427258645
 20
15.73406440953869
 97
        1
330
B3
 75
     1
 76
     2
 52
45.0
 41
0.1
 77
     0
 78
     1
 53
45.0
 43
0.0
 44
0.0
 45
-0.282842712474619
 46
0.0
 79
     0
 98
        1
 10
0.0
 20
0.0
  0
HATCH
  5
D1
330
48
100
AcDbEntity
  8
1
  6
Continuous
 62
     2
100
AcDbHatch
 10
0.0
 20
0.0
 30
0.0
210
0.0
220
0.0
230
1.0
  2
CUSTOM11
 70
     0
 71
     1
 91
        1
 92
        1
 93
        1
 72
     4
 94
        3
 73
     0
 74
     0
 95
      110
 96
      106
 40
0.0
 40
0.0
 40
0.0
 40
0.0
 40
0.2203406257277578
 40
0.4407808782838197
 40
0.5952494494615179
 40
0.7488431659393162
 40
0.9023581831309155
 40
1.056801968670414
 40
1.210736449099914
 40
1.363041386539793
 40
1.515315729683134
 40
1.669377239148086
 40
1.721611652756608
 40
1.773199502943005
 40
1.824933793210005
 40
1.877110426487937
 40
1.982682281206698
 40
2.078781667087506
 40
2.172809640822227
 40
2.271937807378879
 40
2.378349933379274
 40
2.494131557736464
 40
2.626681683943596
 40
2.783145050796024
 40
2.890701232940855
 40
2.993130312454703
 40
3.09986973069174
 40
3.220237816691244
 40
3.3526954827375
 40
3.481732806389724
 40
3.593499473690308
 40
3.67432301333187
 40
3.81795171195282
 40
3.946167120793818
 40
4.061405053453504
 40
4.166480796003144
 40
4.262478775059179
 40
4.350736673551138
 40
4.433071991254023
 40
4.511216293814619
 40
4.564262454117901
 40
4.618474415571482
 40
4.670128488754112
 40
4.722296879126334
 40
4.819540945314206
 40
4.931194984128061
 40
5.049996040257705
 40
5.16864375541525
 40
5.283970811762462
 40
5.392260784910288
 40
5.486512254876362
 40
5.559178233949761
 40
5.591425852853403
 40
5.626215969637784
 40
5.667155838674343
 40
5.717449290214177
 40
5.73840236094479
 40
5.784499116553756
 40
5.830595872164726
 40
5.851548942897584
 40
5.873019280661697
 40
5.924217778408239
 40
5.985325662817615
 40
6.036524160567626
 40
6.057994498334154
 40
6.236847789607409
 40
6.381409928945599
 40
6.493190424178603
 40
6.574067534230378
 40
6.691018086205473
 40
6.81488155422039
 40
6.944307823240343
 40
7.071266716065965
 40
7.193488604461812
 40
7.309042773128036
 40
7.414007203170662
 40
7.505140441886419
 40
7.531150360599571
 40
7.559221645322164
 40
7.587202218920819
 40
7.612569159499034
 40
7.662550809480885
 40
7.702878875763992
 40
7.857328205230806
 40
8.010799568088451
 40
8.165256399657402
 40
8.32223269871374
 40
8.479564855016427
 40
8.63521623029063
 40
8.790882550925549
 40
8.948305154947114
 40
9.1682718390328
 40
9.387358980987036
 40
9.608047961033314
 40
9.83291423479254
 40
9.858338694962871
 40
9.925366817229873
 40
10.02013071422745
 40
10.12876249858982
 40
10.23739428295232
 40
10.33215817995172
 40
10.39918630222375
 40
10.42461076239764
 40
10.64992019336922
 40
10.87188524531169
 40
10.87188524531169
 40
10.87188524531169
 40
10.87188524531169
 10
179.9057788376618
 20
15.73923260398189
 10
179.9092864933541
 20
15.80616462073802
 10
179.9163033987662
 20
15.94005891915857
 10
179.8198027599072
 20
16.2254855497147
 10
180.0510134726109
 20
16.1628438619028
 10
180.1919290057156
 20
16.17001554055999
 10
180.3490417757588
 20
16.16235883078243
 10
180.5025913427287
 20
16.16252752283044
 10
180.654510493508
 20
16.16182040535431
 10
180.8142214813232
 20
16.17210158351648
 10
180.9408972601117
 20
16.15496511080747
 10
181.1370821122081
 20
16.22727260107147
 10
181.1034395279077
 20
16.12640699080114
 10
181.1052011317184
 20
16.07619253947668
 10
181.1027342073458
 20
16.02712335586465
 10
181.1347076966011
 20
15.94063490847005
 10
181.0010399903256
 20
15.98997438608336
 10
180.9172208688056
 20
15.98430634314169
 10
180.8173861139324
 20
15.99465516706299
 10
180.7186576720145
 20
16.00086450411083
 10
180.612153277111
 20
16.0069776381678
 10
180.491051169806
 20
16.01588883484592
 10
180.3703381502453
 20
16.00521605912381
 10
180.1812553843437
 20
16.06468503080364
 10
180.2129028505311
 20
15.90558320077541
 10
180.1995563316834
 20
15.80839128339905
 10
180.197495842645
 20
15.69634065110103
 10
180.195818804467
 20
15.5769968562935
 10
180.1973336794233
 20
15.45032592155111
 10
180.195658247867
 20
15.32301588016118
 10
180.2058844271657
 20
15.22451566404464
 10
180.1779006596583
 20
15.08388702625624
 10
180.3508029999305
 20
15.13989551134093
 10
180.4645020202772
 20
15.12719951478501
 10
180.5840151672239
 20
15.13448377051257
 10
180.6888491425071
 20
15.1387801705676
 10
180.7843084898612
 20
15.14330568258972
 10
180.8763823507032
 20
15.15149201146203
 10
180.9476551782439
 20
15.14643850638114
 10
181.0544931705684
 20
15.18536425031665
 10
181.0226603598036
 20
15.10517122005878
 10
181.0266164503929
 20
15.05562936846032
 10
181.0234502392013
 20
15.00557478039818
 10
181.0550791490585
 20
14.92128847612018
 10
180.9210133677691
 20
14.97425365495157
 10
180.8292322793201
 20
14.96540080890436
 10
180.7079729189603
 20
14.97570049965157
 10
180.5914113119772
 20
14.97748911767498
 10
180.4783375745879
 20
14.97787017109692
 10
180.3679246308471
 20
14.98415449472183
 10
180.289812406784
 20
14.97189133255362
 10
180.1913625833644
 20
15.00453887616125
 10
180.2012355173561
 20
14.94769748054207
 10
180.1973923244402
 20
14.91392130557985
 10
180.1966789884268
 20
14.87119604709411
 10
180.1963369642974
 20
14.83401607262151
 10
180.1963834255345
 20
14.79487237370768
 10
180.1963649429927
 20
14.75716849497683
 10
180.1963703431807
 20
14.71944955232401
 10
180.19636972142
 20
14.68994324745147
 10
180.1963698151546
 20
14.65873577699299
 10
180.196370428792
 20
14.61414424908083
 10
180.1963671499337
 20
14.5596395650885
 10
180.196375962348
 20
14.51505540201446
 10
180.1963359653418
 20
14.43117808585739
 10
180.1976024270255
 20
14.31737520677676
 10
180.1950274117842
 20
14.16830395933707
 10
180.2065009381719
 20
14.06597203813904
 10
180.1823506222264
 20
13.93338903885837
 10
180.3332993946476
 20
13.97895732272024
 10
180.4428436671556
 20
13.96427012162352
 10
180.573397047392
 20
13.96920435125064
 10
180.6990312209513
 20
13.97257705323353
 10
180.8188730625601
 20
13.97711497498778
 10
180.9391362611426
 20
13.99048536181998
 10
181.0222761663515
 20
13.98068712782593
 10
181.1456080421075
 20
14.04126214623317
 10
181.1244269203956
 20
13.98532460134018
 10
181.1235950270116
 20
13.95939249372343
 10
181.1218963707558
 20
13.93197256190936
 10
181.1217974888829
 20
13.89738195206383
 10
181.120365930133
 20
13.86050408220767
 10
181.153280419219
 20
13.76846841021809
 10
180.9551306988107
 20
13.84132015974831
 10
180.8300548294891
 20
13.81825726508601
 10
180.6673071295156
 20
13.82454021985782
 10
180.5129366450001
 20
13.82260943909921
 10
180.3566670436943
 20
13.82393762599264
 10
180.1970544465282
 20
13.82059872487857
 10
180.0540326342237
 20
13.8326579572824
 10
179.8197144881628
 20
13.7695200197692
 10
179.9173810751197
 20
14.05620527466318
 10
179.9006868780058
 20
14.2498830814266
 10
179.9146296709685
 20
14.47848242880296
 10
179.9142987846632
 20
14.63384593955051
 10
179.9143078119264
 20
14.73966336444129
 10
179.9143055876316
 20
14.80205784124217
 10
179.9143065551888
 20
14.89220425248328
 10
179.9143065473262
 20
14.99621167157439
 10
179.9143053861102
 20
15.10022131375296
 10
179.9143090971502
 20
15.19036243688766
 10
179.9143011051051
 20
15.25276803097214
 10
179.9143334275018
 20
15.35868835961115
 10
179.913144078832
 20
15.51626716544739
 10
179.9082216489256
 20
15.66528219822064
 10
179.9057788376618
 20
15.73923260398189
 97
        1
330
B4
 75
     1
 76
     2
 52
45.0
 41
0.1
 77
     0
 78
     1
 53
45.0
 43
0.0
 44
0.0
 45
-0.282842712474619
 46
0.0
 79
     0
 98
        1
 10
0.0
 20
0.0
  0
HATCH
  5
D2
330
48
100
AcDbEntity
  8
1
  6
Continuous
 62
     2
100
AcDbHatch
 10
0.0
 20
0.0
 30
0.0
210
0.0
220
0.0
230
1.0
  2
CUSTOM12
 70
     0
 71
     1
 91
        1
 92
        1
 93
        1
 72
     4
 94
        3
 73
     0
 74
     0
 95
       95
 96
       91
 40
0.0
 40
0.0
 40
0.0
 40
0.0
 40
0.6550406656911301
 40
1.308087289031896
 40
1.420803739835742
 40
1.566130759770767
 40
1.757067341888421
 40
2.006513545026396
 40
2.087328263121496
 40
2.185328872295617
 40
2.294612454748355
 40
2.408936380534771
 40
2.526802767798521
 40
2.646360524615566
 40
2.762535723971551
 40
2.870057342870126
 40
2.966883448431617
 40
3.050803243518286
 40
3.115818222436575
 40
3.156030057150184
 40
3.213914225080083
 40
3.276689026450483
 40
3.342960320981259
 40
3.404230667150506
 40
3.453822809493301
 40
3.532499827188392
 40
3.634775188507079
 40
3.754909333008057
 40
3.889736761660588
 40
4.035769602175192
 40
4.18725668119756
 40
4.338733685675932
 40
4.488478734676042
 40
4.634708317831483
 40
4.771493189921186
 40
4.892686571561115
 40
5.199775528944357
 40
5.460353566929601
 40
5.667603142345423
 40
5.814722905404389
 40
5.828990806219687
 40
5.855488336304384
 40
5.869756237118716
 40
6.1897965077627
 40
6.531890469872908
 40
6.883053637016898
 40
7.230512024911351
 40
7.566966656764457
 40
7.885203559707278
 40
8.172887439719085
 40
8.41801159406264
 40
8.443926721190563
 40
8.51076047061305
 40
8.60214539379556
 40
8.701714041647001
 40
8.793098965075231
 40
8.859932715057804
 40
8.885847842603454
 40
9.24230125661266
 40
9.589275455016661
 40
9.921808543164019
 40
10.23479624298453
 40
10.29968150889164
 40
10.35323493887752
 40
10.40154625355136
 40
10.46482922477812
 40
10.5597390066839
 40
10.692395459856
 40
10.84920353475659
 40
11.01626328594768
 40
11.1867202436743
 40
11.353725825772
 40
11.50257442292416
 40
11.61866495023281
 40
11.71329869152862
 40
11.82511050573893
 40
11.94464880845705
 40
12.06929242642495
 40
12.19707290435163
 40
12.32562632860516
 40
12.45034565331266
 40
12.56646595170315
 40
12.67099007414621
 40
12.76077625936773
 40
12.82703233506683
 40
12.87429132785983
 40
12.89831990323323
 40
12.92234847860011
 40
13.53984767410313
 40
14.18294284359361
 40
14.18294284359361
 40
14.18294284359361
 40
14.18294284359361
 10
177.3067935648021
 20
14.70898038201729
 10
177.1752019758551
 20
14.82265058603235
 10
176.9124193802728
 20
15.04964496316159
 10
176.3997393441021
 20
15.89214462956286
 10
176.4106654595362
 20
15.53423377577019
 10
176.4041226527991
 20
15.39267392272133
 10
176.4028026631773
 20
15.19421305299281
 10
176.4018117602537
 20
15.02150296045983
 10
176.4024101751975
 20
14.8786537325758
 10
176.4038994301882
 20
14.78265005413356
 10
176.4055683588472
 20
14.67545503263139
 10
176.4071934954618
 20
14.56164211517581
 10
176.4092429501685
 20
14.44441572604589
 10
176.4123165501927
 20
14.32656411232969
 10
176.4156339697042
 20
14.21228087320619
 10
176.419360534028
 20
14.10521401867276
 10
176.4217338161424
 20
14.0100740876692
 10
176.4278718888357
 20
13.92558557205694
 10
176.4239784495946
 20
13.8692308729814
 10
176.4455230443077
 20
13.79825022472358
 10
176.3680940058618
 20
13.82902677604484
 10
176.3116353240191
 20
13.82011242517607
 10
176.2540495896806
 20
13.82896218398275
 10
176.1690163478472
 20
13.79738225225947
 10
176.2009714146382
 20
13.88095155992192
 10
176.1990705282539
 20
13.94882608968311
 10
176.2107960047299
 20
14.05233256764418
 10
176.2164241053
 20
14.17002125616693
 10
176.223790217894
 20
14.30388609164423
 10
176.232075970161
 20
14.44764152872634
 10
176.2398851897426
 20
14.59714022843449
 10
176.2457571222657
 20
14.7479254940208
 10
176.2503667817969
 20
14.89699943878439
 10
176.2542632117542
 20
15.04122913163021
 10
176.2570715126563
 20
15.17583905213015
 10
176.2576698755022
 20
15.36469614347352
 10
176.261602386715
 20
15.58975494313153
 10
176.2442175378498
 20
15.86367091125708
 10
176.2850417342582
 20
16.02787112098596
 10
176.1995153256003
 20
16.22749661465095
 10
176.2660558907688
 20
16.22385458403975
 10
176.283872427323
 20
16.22413447160851
 10
176.4056801797506
 20
16.22632927398612
 10
176.5080770335461
 20
15.94675118721512
 10
176.7580021509356
 20
15.74563008535999
 10
176.987003533111
 20
15.47792614987914
 10
177.2245151213109
 20
15.22646413862376
 10
177.4486090740772
 20
14.98969974061359
 10
177.6750716283009
 20
14.7321869258308
 10
177.8325687886514
 20
14.61649335056921
 10
178.0472129612675
 20
14.27997152538794
 10
178.0422645974618
 20
14.40464754091603
 10
178.0433931602546
 20
14.46327691935737
 10
178.0428877841516
 20
14.55043662371977
 10
178.0430475158113
 20
14.64416143182872
 10
178.0430054891318
 20
14.73018971297035
 10
178.0430202040373
 20
14.79153891945496
 10
178.0429706255983
 20
14.94135231520991
 10
178.0458811522811
 20
15.17989612510106
 10
178.0259521041161
 20
15.54486509868701
 10
178.0750433936247
 20
15.80799631993415
 10
177.9177951509181
 20
16.2192890494775
 10
178.0762112872421
 20
16.16398282551749
 10
178.1311680478628
 20
16.16199686500178
 10
178.182788776674
 20
16.16264778248252
 10
178.2713198965366
 20
16.20369527738245
 10
178.2204898303168
 20
16.05696326622989
 10
178.2313389930284
 20
15.95019971954436
 10
178.2166036994846
 20
15.79085705414112
 10
178.2099976446205
 20
15.62853061652874
 10
178.2014961399914
 20
15.45992521892394
 10
178.1943227202199
 20
15.29814814703539
 10
178.1889063215389
 20
15.1542233145793
 10
178.1871713967648
 20
15.03437493466923
 10
178.1875440672318
 20
14.92686101590514
 10
178.1873656126263
 20
14.81820024645586
 10
178.187701086314
 20
14.6995357016553
 10
178.1890040622184
 20
14.5755516351274
 10
178.1908887351574
 20
14.44858294171104
 10
178.192500445485
 20
14.32153861551032
 10
178.194140313743
 20
14.19854884492177
 10
178.1962570745751
 20
14.08300931383759
 10
178.1963848422364
 20
13.98090903955836
 10
178.2006514396554
 20
13.89009848838155
 10
178.1908440085289
 20
13.83213621208784
 10
178.2118474771689
 20
13.76517130132026
 10
178.1725639739896
 20
13.77291153966685
 10
177.9595307117745
 20
13.7575525414519
 10
177.7636297943187
 20
14.31403058094471
 10
177.4611197631544
 20
14.57556035348513
 10
177.3067935648021
 20
14.70898038201729
 97
        1
330
B5
 75
     1
 76
     2
 52
45.0
 41
0.1
 77
     0
 78
     1
 53
45.0
 43
0.0
 44
0.0
 45
-0.282842712474619
 46
0.0
 79
     0
 98
        1
 10
0.0
 20
0.0
  0
HATCH
  5
D3
330
48
100
AcDbEntity
  8
1
  6
Continuous
 62
     2
100
AcDbHatch
 10
0.0
 20
0.0
 30
0.0
210
0.0
220
0.0
230
1.0
  2
CUSTOM13
 70
     0
 71
     1
 91
        2
 92
        1
 93
        1
 72
     4
 94
        3
 73
     0
 74
     0
 95
       57
 96
       53
 40
0.0
 40
0.0
 40
0.0
 40
0.0
 40
0.0471632082809207
 40
0.0914861054632112
 40
0.1357762519702348
 40
0.1826527001610643
 40
0.2295203288572552
 40
0.2737751972220721
 40
0.3181310461543017
 40
0.3652607198398433
 40
0.4571007286314185
 40
0.5671851029164845
 40
0.6894623283867982
 40
0.81817582725457
 40
0.9510087229273625
 40
1.085852229674058
 40
1.21812616447528
 40
1.343545131142377
 40
1.454537202956792
 40
1.567187607530801
 40
1.68071096664242
 40
1.794226869736784
 40
1.900009184247583
 40
2.004085860447863
 40
2.108162674451751
 40
2.214000150155294
 40
2.496038577352151
 40
2.762350745479307
 40
2.997275353279436
 40
3.185110082137725
 40
3.246407890063949
 40
3.312607550212679
 40
3.37887774271158
 40
3.440140399651433
 40
4.100501696006431
 40
4.754913085563527
 40
5.411331693423874
 40
6.077890432568652
 40
6.110575292670931
 40
6.143260152775711
 40
6.367989363395071
 40
6.610525374951455
 40
6.863389136467244
 40
7.119380025547484
 40
7.376036605091023
 40
7.631164770966223
 40
7.876722425456354
 40
8.104953735855892
 40
8.31291668592425
 40
8.497730294941215
 40
8.65101898431375
 40
8.764738853624491
 40
8.764738853624491
 40
8.764738853624491
 40
8.764738853624491
 10
174.7922649500513
 20
13.81626739612929
 10
174.7766616726931
 20
13.81826231079079
 10
174.7463947960302
 20
13.82213201360299
 10
174.7010994202253
 20
13.82341984967263
 10
174.6559553129349
 20
13.82308683554047
 10
174.6099017123399
 20
13.8231465867422
 10
174.5640496172097
 20
13.82325813649997
 10
174.5183711648165
 20
13.82277833456585
 10
174.4750811541608
 20
13.82461109618721
 10
174.4039947951514
 20
13.8004955681466
 10
174.4057477261441
 20
13.92184693977251
 10
174.358619637057
 20
14.00726239751232
 10
174.3191478251761
 20
14.12486929345134
 10
174.2706635532645
 20
14.24232752540437
 10
174.2201017402523
 20
14.3640593576151
 10
174.1718634610476
 20
14.49075967862466
 10
174.1135232947595
 20
14.59933687784953
 10
174.0980892667261
 20
14.75620657134414
 10
173.9566586330635
 20
14.72373446548318
 10
173.8508397414904
 20
14.73512888682179
 10
173.7358569725222
 20
14.73392591514612
 10
173.625314225214
 20
14.73506945347405
 10
173.5176583522783
 20
14.73418350037523
 10
173.4121322529242
 20
14.73416602390517
 10
173.3109192682013
 20
14.72714032472411
 10
173.1266804827753
 20
14.75135859859874
 10
173.1157393685411
 20
14.44741691121883
 10
173.008769163475
 20
14.22353177253396
 10
172.9098148604346
 20
14.03895314292495
 10
172.9225090524008
 20
13.7953020480421
 10
172.8050091716397
 20
13.82508046753197
 10
172.742205586831
 20
13.82258089509597
 10
172.67858720934
 20
13.82344075102805
 10
172.3946014194075
 20
13.78098039941952
 10
173.0251638499382
 20
14.50081952444786
 10
173.1087645289071
 20
15.01276539435732
 10
173.4929252789337
 20
15.53353743550041
 10
173.4777208288569
 20
16.23519626253214
 10
173.7239265722696
 20
16.22345633081253
 10
173.8256346157561
 20
16.2322500445277
 10
173.8249752035818
 20
15.98059650730347
 10
173.9428317155828
 20
15.79818020733959
 10
174.0315515260484
 20
15.55563740662867
 10
174.132229248526
 20
15.32340030530129
 10
174.2311142712242
 20
15.08674644566913
 10
174.3299676990669
 20
14.85461739170092
 10
174.4256166390926
 20
14.63122222788786
 10
174.5159904573271
 20
14.42272549049315
 10
174.5989944568189
 20
14.23308448529318
 10
174.6726088582799
 20
14.066631060681
 10
174.7342815895545
 20
13.92917699626099
 10
174.7749458885604
 20
13.84999239430036
 10
174.7922649500513
 20
13.81626739612929
 97
        1
330
B7
 92
       16
 93
        1
 72
     4
 94
        3
 73
     0
 74
     0
 95
       25
 96
       21
 40
0.0
 40
0.0
 40
0.0
 40
0.0
 40
0.0911479969064819
 40
0.1858117896204662
 40
0.2804128399734483
 40
0.3715889190714504
 40
0.4679080494218701
 40
0.5642683809229221
 40
0.6605683222644982
 40
0.7569653015810244
 40
0.8561348172522809
 40
1.092615965104317
 40
1.374867658141921
 40
1.611348812011663
 40
1.710518328425319
 40
1.809403163726645
 40
2.045205463294165
 40
2.326646917622246
 40
2.562449217190728
 40
2.661334043834054
 40
2.661334043834054
 40
2.661334043834054
 40
2.661334043834054
 10
173.2683700567199
 20
14.88614538197288
 10
173.2987525917923
 20
14.88598079714552
 10
173.3606895889111
 20
14.8856452868992
 10
173.454135696033
 20
14.88269055451999
 10
173.5475095236357
 20
14.87977752877152
 10
173.6417760753476
 20
14.87894201643415
 10
173.7354964790966
 20
14.87996644658046
 10
173.8352040303205
 20
14.87916977470968
 10
173.9188949546312
 20
14.88921410235217
 10
174.0637996315045
 20
14.8623461767416
 10
173.9396132444801
 20
15.03665530280046
 10
173.8965867286282
 20
15.1965171100609
 10
173.780892214221
 20
15.45518458550217
 10
173.7017565431256
 20
15.5923105286186
 10
173.6431576621816
 20
15.80937033134081
 10
173.5864803939438
 20
15.59266134213431
 10
173.5052809900478
 20
15.45327012438237
 10
173.4063701281488
 20
15.20406969370194
 10
173.325362509426
 20
15.0192583022607
 10
173.2813683325838
 20
14.91650446856113
 10
173.2683700567199
 20
14.88614538197288
 97
        1
330
B6
 75
     1
 76
     2
 52
45.0
 41
0.1
 77
     0
 78
     1
 53
45.0
 43
0.0
 44
0.0
 45
-0.282842712474619
 46
0.0
 79
     0
 98
        1
 10
0.0
 20
0.0
  0
HATCH
  5
D4
330
48
100
AcDbEntity
  8
1
  6
Continuous
 62
     2
100
AcDbHatch
 10
0.0
 20
0.0
 30
0.0
210
0.0
220
0.0
230
1.0
  2
CUSTOM14
 70
     0
 71
     1
 91
        1
 92
        1
 93
        1
 72
     4
 94
        3
 73
     0
 74
     0
 95
       99
 96
       95
 40
0.0
 40
0.0
 40
0.0
 40
0.0
 40
0.0796417172272034
 40
0.1621768542355709
 40
0.248648916095716
 40
0.3404969668524147
 40
0.4381912511164205
 40
0.5434463660244527
 40
0.6518115192846861
 40
0.7530190937886396
 40
0.8492196919724736
 40
0.9419290312997823
 40
1.034249663569995
 40
1.129078600620141
 40
1.226697027573213
 40
1.327220425421668
 40
1.470572134938007
 40
1.595489863371212
 40
1.719934125348391
 40
1.850576620127414
 40
1.989059629987293
 40
2.134139054226906
 40
2.280698007207187
 40
2.424529739039455
 40
2.565929576985821
 40
2.708239260773555
 40
2.861717887443679
 40
3.045168540347316
 40
3.183798301138563
 40
3.314813961455452
 40
3.442083470447302
 40
3.569912708372938
 40
3.702177512509339
 40
3.842307559659518
 40
3.992872223245915
 40
4.156750662218303
 40
4.310981861107524
 40
4.445859909322562
 40
4.57239393613156
 40
4.701656719781951
 40
4.768279086008455
 40
4.835960697898385
 40
4.912788918729329
 40
5.006285208481517
 40
5.026909478751594
 40
5.047533749021158
 40
5.1018080314712
 40
5.162325165538501
 40
5.226919745995813
 40
5.294231806596678
 40
5.36454485255484
 40
5.438319055467875
 40
5.517877651324207
 40
5.607647714861519
 40
5.700449642544364
 40
5.788251142364089
 40
5.872714706039735
 40
5.955167292575262
 40
6.037192395190348
 40
6.120669181469041
 40
6.206848616686289
 40
6.296680855416761
 40
6.442558392872515
 40
6.568190371608218
 40
6.69290456736029
 40
6.824220446557058
 40
6.963121850329308
 40
7.107843738851111
 40
7.253431663907218
 40
7.395187468036636
 40
7.533140753237689
 40
7.670550457175196
 40
7.816236511769207
 40
7.987691657359147
 40
8.1422774219692
 40
8.293662615414929
 40
8.442962460879205
 40
8.59159831618524
 40
8.743678992361707
 40
8.903725323699112
 40
9.076307008890456
 40
9.265578604680512
 40
9.459203795360688
 40
9.617619810273471
 40
9.753609671361849
 40
9.87487330000402
 40
9.954520184977703
 40
10.02416413719235
 40
10.09769764405434
 40
10.18909955924965
 40
10.20974586420126
 40
10.23039218263372
 40
10.30057101881256
 40
10.37632012987542
 40
10.37632012987542
 40
10.37632012987542
 40
10.37632012987542
 10
170.1465954835851
 20
14.13795663215988
 10
170.1632217851219
 20
14.11720608845309
 10
170.1970784206577
 20
14.07495111711901
 10
170.2599822541036
 20
14.02029811392069
 10
170.3332500940392
 20
13.97299025121052
 10
170.4175969238636
 20
13.93527231437936
 10
170.513224061546
 20
13.91040619731951
 10
170.6171853775346
 20
13.90309559345933
 10
170.7224020220405
 20
13.91142322794052
 10
170.8206626371334
 20
13.94149179651525
 10
170.9058986427547
 20
13.98848822971874
 10
170.9779220206103
 20
14.04952991250856
 10
171.0350917709096
 20
14.1241296957858
 10
171.0767868747439
 20
14.21002464660172
 10
171.1026952846292
 20
14.3048585043221
 10
171.1118037332653
 20
14.41854979038367
 10
171.0986864796487
 20
14.54332587770779
 10
171.0325330334414
 20
14.66014719171895
 10
170.9369370919568
 20
14.74512539577375
 10
170.8249681022369
 20
14.81416684459164
 10
170.6993659583269
 20
14.8720414204589
 10
170.5656691620856
 20
14.92373723284339
 10
170.4313122818831
 20
14.97899092397178
 10
170.3051983986877
 20
15.04939770641646
 10
170.1926579987534
 20
15.13785540731246
 10
170.0969963064458
 20
15.24981067868474
 10
170.0334157151826
 20
15.39949910101383
 10
170.0200706505015
 20
15.5593279438514
 10
170.0320510987449
 20
15.71048405306842
 10
170.071229892884
 20
15.83809244591537
 10
170.135498775091
 20
15.95080874030845
 10
170.223820499974
 20
16.04648609268683
 10
170.3338091207627
 20
16.1235421498575
 10
170.4632284401265
 20
16.1815139693628
 10
170.6111838967793
 20
16.21739177588818
 10
170.7682069455486
 20
16.22746719050561
 10
170.917494046643
 20
16.21863637762588
 10
171.059625361417
 20
16.19074899340356
 10
171.1595922609625
 20
16.13413314701138
 10
171.3125074736185
 20
16.08674602105508
 10
171.2455131717169
 20
16.00197553001186
 10
171.2296479120268
 20
15.93438901873485
 10
171.1978750531297
 20
15.86926092793191
 10
171.215020220957
 20
15.76723453256954
 10
171.1666427208232
 20
15.77493211681903
 10
171.1315789440766
 20
15.76806771724809
 10
171.1296697985717
 20
15.83263831158195
 10
171.0985692931989
 20
15.87825639621395
 10
171.0664551628455
 20
15.93561036628454
 10
171.0208038475168
 20
15.98540462692556
 10
170.9658508218387
 20
16.02994813718996
 10
170.9010841173007
 20
16.06763988836548
 10
170.8232377310596
 20
16.09283375791349
 10
170.7355160553352
 20
16.09931230998107
 10
170.6452903277806
 20
16.09235709285607
 10
170.5594594694064
 20
16.06909190460924
 10
170.4828343638596
 20
16.03131644107543
 10
170.4165265636201
 20
15.9805164108957
 10
170.3622560536965
 20
15.91731143407209
 10
170.3224925345458
 20
15.84276455710368
 10
170.2976775510588
 20
15.75917313997763
 10
170.289212426287
 20
15.65192948382285
 10
170.3019697987104
 20
15.52965457267559
 10
170.3681548409273
 20
15.41149724291213
 10
170.4640977399832
 20
15.3260632570953
 10
170.5757914963182
 20
15.25583362306726
 10
170.7010863668703
 20
15.19659162305306
 10
170.8349823941447
 20
15.14616708086127
 10
170.968993033315
 20
15.09322516984381
 10
171.0950885316915
 20
15.02750170625174
 10
171.2076216638418
 20
14.94480352537321
 10
171.3031370284232
 20
14.83996006310071
 10
171.3672706486963
 20
14.69937117251568
 10
171.3811103725278
 20
14.5406540945159
 10
171.3673954712231
 20
14.38153155217875
 10
171.3244739153984
 20
14.2348382881921
 10
171.2545906329066
 20
14.10119796587142
 10
171.1574592213829
 20
13.98532387699293
 10
171.0347806023657
 20
13.89089981770092
 10
170.8874408413167
 20
13.82179270651977
 10
170.7177132497125
 20
13.77953210858854
 10
170.5317404979596
 20
13.76781736230402
 10
170.3528955926183
 20
13.77809486683438
 10
170.1881733753743
 20
13.8196657376915
 10
170.0834410841056
 20
13.88797642883944
 10
169.9350960790365
 20
13.93675219032108
 10
169.9980378194729
 20
14.02976591290841
 10
170.007227443006
 20
14.10296536248278
 10
170.0303711301231
 20
14.16936294501344
 10
170.0034588335317
 20
14.2697480952758
 10
170.0521338956339
 20
14.26234033517378
 10
170.0916530580696
 20
14.26894063620895
 10
170.0996204944703
 20
14.19078703218931
 10
170.1305436967922
 20
14.15600927375853
 10
170.1465954835851
 20
14.13795663215988
 97
        1
330
B8
 75
     1
 76
     2
 52
45.0
 41
0.1
 77
     0
 78
     1
 53
45.0
 43
0.0
 44
0.0
 45
-0.282842712474619
 46
0.0
 79
     0
 98
        1
 10
0.0
 20
0.0
  0
ENDBLK
  5
4A
330
48
100
AcDbEntity
  8
0
100
AcDbBlockEnd
  0
BLOCK
  5
4D
330
4B
100
AcDbEntity
  8
0
100
AcDbBlockBegin
  2
開示A4枠
 70
     0
 10
0.0
 20
0.0
 30
0.0
  3
開示A4枠
  1

  0
INSERT
  5
4C
330
4B
100
AcDbEntity
  8
1
100
AcDbBlockReference
  2
開示A4
 10
0.0
 20
0.0
 30
0.0
  0
ENDBLK
  5
4E
330
4B
100
AcDbEntity
  8
0
100
AcDbBlockEnd
  0
BLOCK
  5
50
330
4F
100
AcDbEntity
  8
0
100
AcDbBlockBegin
  2
tumami
 70
     0
 10
105.823808489357
 20
88.99356701847668
 30
0.0
  3
tumami
  1

  0
LINE
  5
D5
330
4F
100
AcDbEntity
  8
1
  6
Continuous
 62
     7
100
AcDbLine
 10
105.823808489357
 20
103.2068179432113
 30
0.0
 11
105.823808489357
 21
101.2068179432113
 31
0.0
  0
LINE
  5
D6
330
4F
100
AcDbEntity
  8
1
  6
Continuous
 62
     7
100
AcDbLine
 10
120.023808489357
 20
103.2068179432113
 30
0.0
 11
120.023808489357
 21
101.2068179432113
 31
0.0
  0
LINE
  5
D7
330
4F
100
AcDbEntity
  8
1
  6
Continuous
 62
     7
100
AcDbLine
 10
107.673808489357
 20
88.9935670184767
 30
0.0
 11
107.023808489357
 21
90.99356701847667
 31
0.0
  0
LINE
  5
D8
330
4F
100
AcDbEntity
  8
1
  6
Continuous
 62
     7
100
AcDbLine
 10
118.173808489357
 20
88.99356701847668
 30
0.0
 11
118.823808489357
 21
90.9935670184767
 31
0.0
  0
LINE
  5
D9
330
4F
100
AcDbEntity
  8
1
  6
Continuous
 62
     7
100
AcDbLine
 10
107.673808489357
 20
88.9935670184767
 30
0.0
 11
118.173808489357
 21
88.99356701847668
 31
0.0
  0
LINE
  5
DA
330
4F
100
AcDbEntity
  8
1
  6
Continuous
 62
     7
100
AcDbLine
 10
105.823808489357
 20
101.2068179432113
 30
0.0
 11
120.023808489357
 21
101.2068179432113
 31
0.0
  0
LINE
  5
DB
330
4F
100
AcDbEntity
  8
1
  6
Continuous
 62
     7
100
AcDbLine
 10
120.023808489357
 20
103.2068179432113
 30
0.0
 11
105.823808489357
 21
103.2068179432113
 31
0.0
  0
LINE
  5
DC
330
4F
100
AcDbEntity
  8
1
  6
Continuous
 62
     7
100
AcDbLine
 10
107.494698970219
 20
97.99356701847668
 30
0.0
 11
105.823808489357
 21
101.2068179432113
 31
0.0
  0
LINE
  5
DD
330
4F
100
AcDbEntity
  8
1
  6
Continuous
 62
     7
100
AcDbLine
 10
118.352918008495
 20
97.99356701847668
 30
0.0
 11
120.023808489357
 21
101.2068179432113
 31
0.0
  0
ARC
  5
DE
330
4F
100
AcDbEntity
  8
1
  6
Continuous
 62
     7
100
AcDbCircle
 10
112.923808489357
 20
89.99356701847668
 30
0.0
 40
15.00000000000001
100
AcDbArc
 50
61.7491111089488
 51
90.0
  0
ARC
  5
DF
330
4F
100
AcDbEntity
  8
1
  6
Continuous
 62
     7
100
AcDbCircle
 10
112.923808489357
 20
89.99356701847668
 30
0.0
 40
15.00000000000001
100
AcDbArc
 50
90.0
 51
118.2508888910512
  0
CIRCLE
  5
E0
330
4F
100
AcDbEntity
  8
1
  6
Continuous
 62
     7
100
AcDbCircle
 10
112.923808489357
 20
193.8450787765954
 30
0.0
 40
7.099999999999994
  0
ENDBLK
  5
51
330
4F
100
AcDbEntity
  8
0
100
AcDbBlockEnd
  0
BLOCK
  5
53
330
52
100
AcDbEntity
  8
0
100
AcDbBlockBegin
  2
huta
 70
     0
 10
69.52380848935698
 20
90.99356701847668
 30
0.0
  3
huta
  1

  0
LINE
  5
E1
330
52
100
AcDbEntity
  8
1
  6
Continuous
 62
     7
100
AcDbLine
 10
118.352918008495
 20
97.99356701847668
 30
0.0
 11
80.67380848935697
 21
97.99356701847668
 31
0.0
  0
LINE
  5
E2
330
52
100
AcDbEntity
  8
1
  6
Continuous
 62
     7
100
AcDbLine
 10
156.423808489357
 20
97.99356701847668
 30
0.0
 11
156.423808489357
 21
96.7935670184767
 31
0.0
  0
LINE
  5
E3
330
52
100
AcDbEntity
  8
1
  6
Continuous
 62
     7
100
AcDbLine
 10
145.173808489357
 20
97.99356701847668
 30
0.0
 11
156.423808489357
 21
97.99356701847668
 31
0.0
  0
LINE
  5
E4
330
52
100
AcDbEntity
  8
1
  6
Continuous
 62
     7
100
AcDbLine
 10
156.423808489357
 20
96.7935670184767
 30
0.0
 11
154.923808489357
 21
96.79356701847671
 31
0.0
  0
LINE
  5
E5
330
52
100
AcDbEntity
  8
1
  6
Continuous
 62
     7
100
AcDbLine
 10
154.923808489357
 20
96.79356701847671
 30
0.0
 11
152.923808489357
 21
95.49356701847668
 31
0.0
  0
LINE
  5
E6
330
52
100
AcDbEntity
  8
1
  6
Continuous
 62
     7
100
AcDbLine
 10
152.673808489357
 20
91.49356701847668
 30
0.0
 11
152.923808489357
 21
95.49356701847668
 31
0.0
  0
LINE
  5
E7
330
52
100
AcDbEntity
  8
1
  6
Continuous
 62
     7
100
AcDbLine
 10
152.673808489357
 20
91.49356701847668
 30
0.0
 11
149.673808489357
 21
91.4935670184767
 31
0.0
  0
LINE
  5
E8
330
52
100
AcDbEntity
  8
1
  6
Continuous
 62
     7
100
AcDbLine
 10
145.173808489357
 20
97.99356701847668
 30
0.0
 11
118.352918008495
 21
97.99356701847668
 31
0.0
  0
LINE
  5
E9
330
52
100
AcDbEntity
  8
1
  6
Continuous
 62
     7
100
AcDbLine
 10
149.673808489357
 20
91.4935670184767
 30
0.0
 11
134.6699573613221
 21
91.49356701847668
 31
0.0
  0
LINE
  5
EA
330
52
100
AcDbEntity
  8
1
  6
Continuous
 62
     7
100
AcDbLine
 10
92.73256476567192
 20
90.99356701847668
 30
0.0
 11
109.923808489357
 21
90.99356701847667
 31
0.0
  0
LINE
  5
EB
330
52
100
AcDbEntity
  8
1
  6
Continuous
 62
     7
100
AcDbLine
 10
69.42380848935696
 20
96.7935670184767
 30
0.0
 11
69.42380848935696
 21
97.99356701847668
 31
0.0
  0
LINE
  5
EC
330
52
100
AcDbEntity
  8
1
  6
Continuous
 62
     7
100
AcDbLine
 10
69.42380848935696
 20
97.99356701847668
 30
0.0
 11
80.67380848935697
 21
97.99356701847668
 31
0.0
  0
LINE
  5
ED
330
52
100
AcDbEntity
  8
1
  6
Continuous
 62
     7
100
AcDbLine
 10
70.92380848935697
 20
96.79356701847671
 30
0.0
 11
69.42380848935696
 21
96.7935670184767
 31
0.0
  0
LINE
  5
EE
330
52
100
AcDbEntity
  8
1
  6
Continuous
 62
     7
100
AcDbLine
 10
72.92380848935697
 20
95.49356701847668
 30
0.0
 11
70.92380848935697
 21
96.79356701847671
 31
0.0
  0
LINE
  5
EF
330
52
100
AcDbEntity
  8
1
  6
Continuous
 62
     7
100
AcDbLine
 10
72.92380848935697
 20
95.49356701847668
 30
0.0
 11
73.17380848935697
 21
91.49356701847668
 31
0.0
  0
LINE
  5
F0
330
52
100
AcDbEntity
  8
1
  6
Continuous
 62
     7
100
AcDbLine
 10
76.17380848935697
 20
91.4935670184767
 30
0.0
 11
73.17380848935697
 21
91.49356701847668
 31
0.0
  0
LINE
  5
F1
330
52
100
AcDbEntity
  8
1
  6
Continuous
 62
     7
100
AcDbLine
 10
134.6699573613221
 20
91.49356701847668
 30
0.0
 11
76.17380848935697
 21
91.4935670184767
 31
0.0
  0
LINE
  5
F2
330
52
100
AcDbEntity
  8
1
  6
Continuous
 62
     7
100
AcDbLine
 10
109.923808489357
 20
90.99356701847667
 30
0.0
 11
133.115052213042
 21
90.99356701847668
 31
0.0
  0
LINE
  5
F3
330
52
100
AcDbEntity
  8
1
  6
Continuous
 62
     7
100
AcDbLine
 10
154.923808489357
 20
96.79356701847671
 30
0.0
 11
70.92380848935697
 21
96.79356701847671
 31
0.0
  0
LINE
  5
F4
330
52
100
AcDbEntity
  8
1
  6
Continuous
 62
     7
100
AcDbLine
 10
72.92380848935697
 20
95.49356701847668
 30
0.0
 11
152.923808489357
 21
95.49356701847668
 31
0.0
  0
LINE
  5
F5
330
52
100
AcDbEntity
  8
1
  6
Continuous
 62
     7
100
AcDbLine
 10
91.06943035119947
 20
91.49356701847668
 30
0.0
 11
91.17765961739187
 21
91.42797352381463
 31
0.0
  0
LINE
  5
F6
330
52
100
AcDbEntity
  8
1
  6
Continuous
 62
     7
100
AcDbLine
 10
134.6699573613221
 20
91.42797352381463
 30
0.0
 11
134.7781866275145
 21
91.49356701847668
 31
0.0
  0
CIRCLE
  5
F7
330
52
100
AcDbEntity
  8
1
  6
Continuous
 62
     7
100
AcDbCircle
 10
112.923808489357
 20
193.8450787765954
 30
0.0
 40
43.49999999999999
  0
CIRCLE
  5
F8
330
52
100
AcDbEntity
  8
1
  6
Continuous
 62
     7
100
AcDbCircle
 10
112.923808489357
 20
193.8450787765954
 30
0.0
 40
20.74999999999999
  0
CIRCLE
  5
F9
330
52
100
AcDbEntity
  8
1
  6
Continuous
 62
     7
100
AcDbCircle
 10
112.923808489357
 20
193.8450787765954
 30
0.0
 40
28.99999999999999
  0
CIRCLE
  5
FA
330
52
100
AcDbEntity
  8
1
  6
Continuous
 62
     7
100
AcDbCircle
 10
112.923808489357
 20
193.8450787765954
 30
0.0
 40
32.24999999999999
  0
ARC
  5
FB
330
52
100
AcDbEntity
  8
1
  6
Continuous
 62
     7
100
AcDbCircle
 10
92.73256476567192
 20
93.99356701847668
 30
0.0
 40
3.000000000000012
100
AcDbArc
 50
238.7815972356532
 51
270.0
  0
ARC
  5
FC
330
52
100
AcDbEntity
  8
1
  6
Continuous
 62
     7
100
AcDbCircle
 10
133.115052213042
 20
93.99356701847668
 30
0.0
 40
3.0
100
AcDbArc
 50
270.0
 51
301.2184027643477
  0
ENDBLK
  5
54
330
52
100
AcDbEntity
  8
0
100
AcDbBlockEnd
  0
BLOCK
  5
114
330
10D
100
AcDbEntity
  8
0
100
AcDbBlockBegin
  2
*D5
 70
     1
 10
0.0
 20
0.0
 30
0.0
  3
*D5
  1

  0
LINE
  5
10E
330
10D
100
AcDbEntity
  8
1
  6
Continuous
 62
     2
100
AcDbLine
 10
73.173808489357
 20
79.99356701847668
 30
0.0
 11
152.673808489357
 21
79.99356701847668
 31
0.0
  0
LINE
  5
10F
330
10D
100
AcDbEntity
  8
1
  6
Continuous
 62
     2
100
AcDbLine
 10
152.673808489357
 20
91.4935670184767
 30
0.0
 11
152.673808489357
 21
78.99356701847668
 31
0.0
  0
LINE
  5
110
330
10D
100
AcDbEntity
  8
1
  6
Continuous
 62
     2
100
AcDbLine
 10
73.173808489357
 20
91.4935670184767
 30
0.0
 11
73.173808489357
 21
78.99356701847668
 31
0.0
  0
SOLID
  5
111
330
10D
100
AcDbEntity
  8
1
 62
     2
100
AcDbTrace
 10
76.673808489357
 20
80.45435076003257
 30
0.0
 11
76.673808489357
 21
79.5327832769208
 31
0.0
 12
73.173808489357
 22
79.99356701847668
 32
0.0
 13
73.173808489357
 23
79.99356701847668
 33
0.0
  0
SOLID
  5
112
330
10D
100
AcDbEntity
  8
1
 62
     2
100
AcDbTrace
 10
149.173808489357
 20
79.5327832769208
 30
0.0
 11
149.173808489357
 21
80.45435076003257
 31
0.0
 12
152.673808489357
 22
79.99356701847668
 32
0.0
 13
152.673808489357
 23
79.99356701847668
 33
0.0
  0
MTEXT
  5
113
330
10D
100
AcDbEntity
  8
1
 62
     7
100
AcDbMText
 10
109.5288084893654
 20
80.99356006140036
 30
0.0
 40
3.5
 41
0.0
 71
     7
 72
     1
  1
\C7;{\Fgdt;n}\C7;80
  7
CONVERTER_12
 11
0.9999999999970619
 21
2.424068405545306E-6
 31
0.0
 73
     1
 44
0.60024009603842
  0
ENDBLK
  5
115
330
10D
100
AcDbEntity
  8
0
100
AcDbBlockEnd
  0
BLOCK
  5
11F
330
118
100
AcDbEntity
  8
0
100
AcDbBlockBegin
  2
*D6
 70
     1
 10
0.0
 20
0.0
 30
0.0
  3
*D6
  1

  0
LINE
  5
119
330
118
100
AcDbEntity
  8
1
  6
Continuous
 62
     2
100
AcDbLine
 10
69.42380848935699
 20
115.9935670184767
 30
0.0
 11
156.423808489357
 21
115.9935670184767
 31
0.0
  0
LINE
  5
11A
330
118
100
AcDbEntity
  8
1
  6
Continuous
 62
     2
100
AcDbLine
 10
156.423808489357
 20
97.99356701847668
 30
0.0
 11
156.423808489357
 21
116.9935670184767
 31
0.0
  0
LINE
  5
11B
330
118
100
AcDbEntity
  8
1
  6
Continuous
 62
     2
100
AcDbLine
 10
69.42380848935699
 20
97.99356701847668
 30
0.0
 11
69.42380848935699
 21
116.9935670184767
 31
0.0
  0
SOLID
  5
11C
330
118
100
AcDbEntity
  8
1
 62
     2
100
AcDbTrace
 10
72.92380848935699
 20
116.4543507600326
 30
0.0
 11
72.92380848935699
 21
115.5327832769208
 31
0.0
 12
69.42380848935699
 22
115.9935670184767
 32
0.0
 13
69.42380848935699
 23
115.9935670184767
 33
0.0
  0
SOLID
  5
11D
330
118
100
AcDbEntity
  8
1
 62
     2
100
AcDbTrace
 10
152.923808489357
 20
115.5327832769208
 30
0.0
 11
152.923808489357
 21
116.4543507600326
 31
0.0
 12
156.423808489357
 22
115.9935670184767
 32
0.0
 13
156.423808489357
 23
115.9935670184767
 33
0.0
  0
MTEXT
  5
11E
330
118
100
AcDbEntity
  8
1
 62
     7
100
AcDbMText
 10
109.5288084893654
 20
116.9935600614004
 30
0.0
 40
3.5
 41
0.0
 71
     7
 72
     1
  1
\C7;{\Fgdt;n}\C7;87
  7
CONVERTER_12
 11
0.9999999999970619
 21
2.424068405545306E-6
 31
0.0
 73
     1
 44
0.60024009603842
  0
ENDBLK
  5
120
330
118
100
AcDbEntity
  8
0
100
AcDbBlockEnd
  0
BLOCK
  5
12A
330
123
100
AcDbEntity
  8
0
100
AcDbBlockBegin
  2
*D7
 70
     1
 10
0.0
 20
0.0
 30
0.0
  3
*D7
  1

  0
LINE
  5
124
330
123
100
AcDbEntity
  8
1
  6
Continuous
 62
     2
100
AcDbLine
 10
50.42380848935697
 20
104.9935670184767
 30
0.0
 11
50.42380848935697
 21
88.9935670184767
 31
0.0
  0
LINE
  5
125
330
123
100
AcDbEntity
  8
1
  6
Continuous
 62
     2
100
AcDbLine
 10
107.673808489357
 20
88.9935670184767
 30
0.0
 11
49.42380848935697
 21
88.9935670184767
 31
0.0
  0
LINE
  5
126
330
123
100
AcDbEntity
  8
1
  6
Continuous
 62
     2
100
AcDbLine
 10
112.923808489357
 20
104.9935670184767
 30
0.0
 11
49.42380848935697
 21
104.9935670184767
 31
0.0
  0
SOLID
  5
127
330
123
100
AcDbEntity
  8
1
 62
     2
100
AcDbTrace
 10
50.88459223091286
 20
101.4935670184767
 30
0.0
 11
49.96302474780109
 21
101.4935670184767
 31
0.0
 12
50.42380848935697
 22
104.9935670184767
 32
0.0
 13
50.42380848935697
 23
104.9935670184767
 33
0.0
  0
SOLID
  5
128
330
123
100
AcDbEntity
  8
1
 62
     2
100
AcDbTrace
 10
49.96302474780109
 20
92.4935670184767
 30
0.0
 11
50.88459223091286
 21
92.4935670184767
 31
0.0
 12
50.42380848935697
 22
88.9935670184767
 32
0.0
 13
50.42380848935697
 23
88.9935670184767
 33
0.0
  0
MTEXT
  5
129
330
123
100
AcDbEntity
  8
1
 62
     7
100
AcDbMText
 10
49.42380848935697
 20
94.49924830539359
 30
0.0
 40
3.5
 41
0.0
 71
     7
 72
     1
  1
16
  7
CONVERTER_12
 11
0.0
 21
1.0
 31
0.0
 73
     1
 44
0.60024009603842
  0
ENDBLK
  5
12B
330
123
100
AcDbEntity
  8
0
100
AcDbBlockEnd
  0
BLOCK
  5
137
330
12E
100
AcDbEntity
  8
0
100
AcDbBlockBegin
  2
*D8
 70
     1
 10
0.0
 20
0.0
 30
0.0
  3
*D8
  1

  0
LINE
  5
12F
330
12E
100
AcDbEntity
  8
1
  6
Continuous
 62
     2
100
AcDbLine
 10
58.42380848935697
 20
90.99356701847668
 30
0.0
 11
58.42380848935697
 21
83.99356701847668
 31
0.0
  0
LINE
  5
130
330
12E
100
AcDbEntity
  8
1
  6
Continuous
 62
     2
100
AcDbLine
 10
58.42380848935697
 20
97.99356701847668
 30
0.0
 11
58.42380848935697
 21
90.99356701847668
 31
0.0
  0
LINE
  5
131
330
12E
100
AcDbEntity
  8
1
  6
Continuous
 62
     2
100
AcDbLine
 10
58.42380848935697
 20
104.9935670184767
 30
0.0
 11
58.42380848935697
 21
97.99356701847668
 31
0.0
  0
LINE
  5
132
330
12E
100
AcDbEntity
  8
1
  6
Continuous
 62
     2
100
AcDbLine
 10
92.73256476567192
 20
90.99356701847668
 30
0.0
 11
57.42380848935697
 21
90.99356701847668
 31
0.0
  0
LINE
  5
133
330
12E
100
AcDbEntity
  8
1
  6
Continuous
 62
     2
100
AcDbLine
 10
69.42380848935696
 20
97.99356701847668
 30
0.0
 11
57.42380848935697
 21
97.99356701847668
 31
0.0
  0
SOLID
  5
134
330
12E
100
AcDbEntity
  8
1
 62
     2
100
AcDbTrace
 10
57.96302474780109
 20
101.4935670184767
 30
0.0
 11
58.88459223091286
 21
101.4935670184767
 31
0.0
 12
58.42380848935697
 22
97.99356701847668
 32
0.0
 13
58.42380848935697
 23
97.99356701847668
 33
0.0
  0
SOLID
  5
135
330
12E
100
AcDbEntity
  8
1
 62
     2
100
AcDbTrace
 10
58.88459223091286
 20
87.49356701847668
 30
0.0
 11
57.96302474780109
 21
87.49356701847668
 31
0.0
 12
58.42380848935697
 22
90.99356701847668
 32
0.0
 13
58.42380848935697
 23
90.99356701847668
 33
0.0
  0
MTEXT
  5
136
330
12E
100
AcDbEntity
  8
1
 62
     7
100
AcDbMText
 10
57.42380848935697
 20
93.19186617763619
 30
0.0
 40
3.5
 41
0.0
 71
     7
 72
     1
  1
7
  7
CONVERTER_12
 11
0.0
 21
1.0
 31
0.0
 73
     1
 44
0.60024009603842
  0
ENDBLK
  5
138
330
12E
100
AcDbEntity
  8
0
100
AcDbBlockEnd
  0
ENDSEC
  0
SECTION
  2
ENTITIES
  0
INSERT
  5
55
330
1F
100
AcDbEntity
  8
0
100
AcDbBlockReference
  2
開示A4枠
 10
0.0
 20
0.0
 30
0.0
  0
INSERT
  5
56
330
1F
100
AcDbEntity
  8
1
100
AcDbBlockReference
  2
tumami
 10
105.823808489357
 20
88.99356701847668
 30
0.0
  0
INSERT
  5
57
330
1F
100
AcDbEntity
  8
1
100
AcDbBlockReference
  2
huta
 10
69.52380848935698
 20
90.99356701847668
 30
0.0
  0
LINE
  5
FD
330
1F
100
AcDbEntity
  8
1
  6
DASH_CENTER
 62
     2
100
AcDbLine
 10
112.923808489357
 20
107.9935670184768
 30
0.0
 11
112.923808489357
 21
85.99356701847667
 31
0.0
  0
LINE
  5
FE
330
1F
100
AcDbEntity
  8
1
  6
DASH_CENTER
 62
     2
100
AcDbLine
 10
112.923808489357
 20
240.2450787765954
 30
0.0
 11
112.923808489357
 21
147.4450787765954
 31
0.0
  0
LINE
  5
FF
330
1F
100
AcDbEntity
  8
1
  6
DASH_CENTER
 62
     2
100
AcDbLine
 10
66.52380848935697
 20
193.8450787765954
 30
0.0
 11
159.323808489357
 21
193.8450787765954
 31
0.0
  0
MTEXT
  5
101
330
1F
100
AcDbEntity
  8
1
 62
     7
100
AcDbMText
 10
157.4999999999999
 20
12.49999999999999
 30
0.0
 40
2.5
 41
0.0
 71
     5
 72
     1
  1
6
  7
CONVERTER_12
 73
     1
 44
0.7202881152461
  0
MTEXT
  5
102
330
1F
100
AcDbEntity
  8
1
 62
     7
100
AcDbMText
 10
151.7499999999999
 20
12.49999999999999
 30
0.0
 40
2.5
 41
0.0
 71
     5
 72
     1
  1
04
  7
CONVERTER_12
 73
     1
 44
0.7202881152461
  0
MTEXT
  5
103
330
1F
100
AcDbEntity
  8
1
 62
     7
100
AcDbMText
 10
140.4999999999999
 20
12.49999999999999
 30
0.0
 40
2.5
 41
0.0
 71
     5
 72
     1
  1
6
  7
CONVERTER_12
 73
     1
 44
0.7202881152461
  0
MTEXT
  5
104
330
1F
100
AcDbEntity
  8
1
 62
     7
100
AcDbMText
 10
134.7499999999999
 20
12.49999999999999
 30
0.0
 40
2.5
 41
0.0
 71
     5
 72
     1
  1
04
  7
CONVERTER_12
 73
     1
 44
0.7202881152461
  0
MTEXT
  5
105
330
1F
100
AcDbEntity
  8
1
 62
     7
100
AcDbMText
 10
123.5
 20
12.49999999999999
 30
0.0
 40
2.5
 41
0.0
 71
     5
 72
     1
  1
6
  7
CONVERTER_12
 73
     1
 44
0.7202881152461
  0
MTEXT
  5
106
330
1F
100
AcDbEntity
  8
1
 62
     7
100
AcDbMText
 10
117.75
 20
12.49999999999999
 30
0.0
 40
2.5
 41
0.0
 71
     5
 72
     1
  1
04
  7
CONVERTER_12
 73
     1
 44
0.7202881152461
  0
MTEXT
  5
107
330
1F
100
AcDbEntity
  8
1
 62
     7
100
AcDbMText
 10
100.75
 20
12.49999999999999
 30
0.0
 40
2.5
 41
0.0
 71
     5
 72
     1
  1
04
  7
CONVERTER_12
 73
     1
 44
0.7202881152461
  0
MTEXT
  5
108
330
1F
100
AcDbEntity
  8
1
 62
     7
100
AcDbMText
 10
106.5
 20
12.49999999999999
 30
0.0
 40
2.5
 41
0.0
 71
     5
 72
     1
  1
6
  7
CONVERTER_12
 73
     1
 44
0.7202881152461
  0
MTEXT
  5
109
330
1F
100
AcDbEntity
  8
1
 62
     7
100
AcDbMText
 10
85.25
 20
16.99999999999999
 30
0.0
 40
3.5
 41
0.0
 71
     5
 72
     1
  1
1
  7
CONVERTER_12
 73
     1
 44
0.7202881152461
  0
MTEXT
  5
10A
330
1F
100
AcDbEntity
  8
1
 62
     7
100
AcDbMText
 10
56.99999999999999
 20
22.74999999999999
 30
0.0
 40
3.5
 41
0.0
 71
     5
 72
     1
  1
流し排水栓フタ
  7
CONVERTER_11
 73
     1
 44
0.54545454545455
  0
MTEXT
  5
10B
330
1F
100
AcDbEntity
  8
1
 62
     7
100
AcDbMText
 10
56.99999999999999
 20
14.24999999999999
 30
0.0
 40
3.5
 41
0.0
 71
     5
 72
     1
  1
H65F-3
  7
CONVERTER_12
 73
     1
 44
0.7202881152461
  0
MTEXT
  5
10C
330
1F
100
AcDbEntity
  8
1
 62
     7
100
AcDbMText
 10
93.75
 20
16.99999999999999
 30
0.0
 40
3.5
 41
0.0
 71
     5
 72
     1
  1
1
  7
CONVERTER_12
 73
     1
 44
0.7202881152461
  0
DIMENSION
  5
117
330
1F
100
AcDbEntity
  8
1
100
AcDbDimension
  2
*D5
 10
73.173808489357
 20
79.99356701847668
 30
0.0
 11
112.923808489357
 21
82.74356701847668
 31
0.0
 70
    32
  1
{\Fgdt;n}80
 71
     5
 42
-1.0
 53
0.00013888888889
  3
ME10_DIM_10
100
AcDbAlignedDimension
 13
152.673808489357
 23
91.49356701847668
 33
0.0
 14
73.17380848935697
 24
91.49356701847668
 34
0.0
100
AcDbRotatedDimension
  0
DIMENSION
  5
122
330
1F
100
AcDbEntity
  8
1
100
AcDbDimension
  2
*D6
 10
69.42380848935699
 20
115.9935670184767
 30
0.0
 11
112.923808489357
 21
118.7435670184767
 31
0.0
 70
    32
  1
<>
 71
     5
 42
-1.0
 53
0.00013888888889
  3
ME10_DIM_11
100
AcDbAlignedDimension
 13
156.423808489357
 23
97.99356701847668
 33
0.0
 14
69.42380848935696
 24
97.99356701847668
 34
0.0
100
AcDbRotatedDimension
  0
DIMENSION
  5
12D
330
1F
100
AcDbEntity
  8
1
100
AcDbDimension
  2
*D7
 10
50.42380848935697
 20
104.9935670184767
 30
0.0
 11
47.67380848935697
 21
96.59924830539359
 31
0.0
 70
    32
  1
<>
 71
     5
 42
-1.0
 53
90.0
  3
ME10_DIM_12
100
AcDbAlignedDimension
 13
107.673808489357
 23
88.9935670184767
 33
0.0
 14
112.923808489357
 24
104.9935670184767
 34
0.0
 50
90.0
100
AcDbRotatedDimension
  0
DIMENSION
  5
13A
330
1F
100
AcDbEntity
  8
1
100
AcDbDimension
  2
*D8
 10
58.42380848935697
 20
97.99356701847668
 30
0.0
 11
55.67380848935697
 21
94.24186617763618
 31
0.0
 70
    32
  1
<>
 71
     5
 42
-1.0
 53
90.0
  3
ME10_DIM_13
100
AcDbAlignedDimension
 13
92.73256476567192
 23
90.99356701847668
 33
0.0
 14
69.42380848935696
 24
97.99356701847668
 34
0.0
 50
90.0
100
AcDbRotatedDimension
  0
ENDSEC
  0
SECTION
  2
OBJECTS
  0
DICTIONARY
  5
C
330
0
100
AcDbDictionary
281
     1
  3
ACAD_GROUP
350
D
  3
ACAD_LAYOUT
350
1A
  3
ACAD_MATERIAL
350
3B
  3
ACAD_MLEADERSTYLE
350
13D
  3
ACAD_MLINESTYLE
350
17
  3
ACAD_PLOTSETTINGS
350
19
  3
ACAD_PLOTSTYLENAME
350
E
  3
ACAD_VISUALSTYLE
350
2A
  3
AcDbVariableDictionary
350
13B
  0
DICTIONARY
  5
D
102
{ACAD_REACTORS
330
C
102
}
330
C
100
AcDbDictionary
281
     1
  0
DICTIONARY
  5
1A
102
{ACAD_REACTORS
330
C
102
}
330
C
100
AcDbDictionary
281
     1
  3
Layout1
350
1E
  3
Layout2
350
26
  3
Model
350
22
  0
DICTIONARY
  5
3B
102
{ACAD_REACTORS
330
C
102
}
330
C
100
AcDbDictionary
281
     1
  3
ByBlock
350
3D
  3
ByLayer
350
3C
  3
Global
350
3E
  0
DICTIONARY
  5
13D
102
{ACAD_REACTORS
330
C
102
}
330
C
100
AcDbDictionary
281
     1
  0
DICTIONARY
  5
17
102
{ACAD_REACTORS
330
C
102
}
330
C
100
AcDbDictionary
281
     1
  3
Standard
350
18
  0
DICTIONARY
  5
19
102
{ACAD_REACTORS
330
C
102
}
330
C
100
AcDbDictionary
281
     1
  0
ACDBDICTIONARYWDFLT
  5
E
102
{ACAD_REACTORS
330
C
102
}
330
C
100
AcDbDictionary
281
     1
  3
Normal
350
F
100
AcDbDictionaryWithDefault
340
F
  0
DICTIONARY
  5
2A
102
{ACAD_REACTORS
330
C
102
}
330
C
100
AcDbDictionary
281
     1
  3
2dWireframe
350
2F
  3
3D Hidden
350
31
  3
3dWireframe
350
30
  3
Basic
350
32
  3
Brighten
350
36
  3
ColorChange
350
3A
  3
Conceptual
350
34
  3
Dim
350
35
  3
Facepattern
350
39
  3
Flat
350
2B
  3
FlatWithEdges
350
2C
  3
Gouraud
350
2D
  3
GouraudWithEdges
350
2E
  3
Linepattern
350
38
  3
Realistic
350
33
  3
Thicken
350
37
  0
DICTIONARY
  5
13B
102
{ACAD_REACTORS
330
C
102
}
330
C
100
AcDbDictionary
281
     1
  3
DIMASSOC
350
13E
  3
HIDETEXT
350
13F
  0
LAYOUT
  5
1E
102
{ACAD_REACTORS
330
1A
102
}
330
1A
100
AcDbPlotSettings
  1

  2
none_device
  4

  6

 40
0.0
 41
0.0
 42
0.0
 43
0.0
 44
0.0
 45
0.0
 46
0.0
 47
0.0
 48
0.0
 49
0.0
140
0.0
141
0.0
142
1.0
143
1.0
 70
   688
 72
     0
 73
     0
 74
     5
  7

 75
    16
147
1.0
148
0.0
149
0.0
100
AcDbLayout
  1
Layout1
 70
     1
 71
     1
 10
0.0
 20
0.0
 11
12.0
 21
9.0
 12
0.0
 22
0.0
 32
0.0
 14
1.00000000000000E+20
 24
1.00000000000000E+20
 34
1.00000000000000E+20
 15
-1.00000000000000E+20
 25
-1.00000000000000E+20
 35
-1.00000000000000E+20
146
0.0
 13
0.0
 23
0.0
 33
0.0
 16
1.0
 26
0.0
 36
0.0
 17
0.0
 27
1.0
 37
0.0
 76
     0
330
1B
  0
LAYOUT
  5
26
102
{ACAD_REACTORS
330
1A
102
}
330
1A
100
AcDbPlotSettings
  1

  2
none_device
  4

  6

 40
0.0
 41
0.0
 42
0.0
 43
0.0
 44
0.0
 45
0.0
 46
0.0
 47
0.0
 48
0.0
 49
0.0
140
0.0
141
0.0
142
1.0
143
1.0
 70
   688
 72
     0
 73
     0
 74
     5
  7

 75
    16
147
1.0
148
0.0
149
0.0
100
AcDbLayout
  1
Layout2
 70
     1
 71
     2
 10
0.0
 20
0.0
 11
0.0
 21
0.0
 12
0.0
 22
0.0
 32
0.0
 14
0.0
 24
0.0
 34
0.0
 15
0.0
 25
0.0
 35
0.0
146
0.0
 13
0.0
 23
0.0
 33
0.0
 16
1.0
 26
0.0
 36
0.0
 17
0.0
 27
1.0
 37
0.0
 76
     0
330
23
  0
LAYOUT
  5
22
102
{ACAD_REACTORS
330
1A
102
}
330
1A
100
AcDbPlotSettings
  1

  2
none_device
  4

  6

 40
0.0
 41
0.0
 42
0.0
 43
0.0
 44
0.0
 45
0.0
 46
0.0
 47
0.0
 48
0.0
 49
0.0
140
0.0
141
0.0
142
1.0
143
1.0
 70
  1712
 72
     0
 73
     0
 74
     0
  7

 75
     0
147
1.0
148
0.0
149
0.0
100
AcDbLayout
  1
Model
 70
     1
 71
     0
 10
0.0
 20
0.0
 11
12.0
 21
9.0
 12
0.0
 22
0.0
 32
0.0
 14
0.0
 24
0.0
 34
0.0
 15
210.0
 25
297.0
 35
0.0
146
0.0
 13
0.0
 23
0.0
 33
0.0
 16
1.0
 26
0.0
 36
0.0
 17
0.0
 27
1.0
 37
0.0
 76
     0
330
1F
331
29
  0
MATERIAL
  5
3D
102
{ACAD_REACTORS
330
3B
102
}
102
{ACAD_XDICTIONARY
360
162
102
}
330
3B
100
AcDbMaterial
  1
ByBlock
  0
MATERIAL
  5
3C
102
{ACAD_REACTORS
330
3B
102
}
102
{ACAD_XDICTIONARY
360
160
102
}
330
3B
100
AcDbMaterial
  1
ByLayer
  0
MATERIAL
  5
3E
102
{ACAD_REACTORS
330
3B
102
}
102
{ACAD_XDICTIONARY
360
164
102
}
330
3B
100
AcDbMaterial
  1
Global
  0
MLINESTYLE
  5
18
102
{ACAD_REACTORS
330
17
102
}
330
17
100
AcDbMlineStyle
  2
Standard
 70
     0
  3

 62
   256
 51
90.0
 52
90.0
 71
     2
 49
0.5
 62
   256
  6
BYLAYER
 49
-0.5
 62
   256
  6
BYLAYER
  0
ACDBPLACEHOLDER
  5
F
102
{ACAD_REACTORS
330
E
102
}
330
E
  0
VISUALSTYLE
  5
2F
102
{ACAD_REACTORS
330
2A
102
}
102
{ACAD_XDICTIONARY
360
148
102
}
330
2A
100
AcDbVisualStyle
  2
2dWireframe
 70
     4
 71
     0
 72
     2
 73
     0
 90
        0
 40
-0.6
 41
-30.0
 62
     5
 63
     7
 74
     1
 91
        4
 64
     7
 65
   257
 75
     1
175
     1
 42
1.0
 92
        0
 66
   257
 43
1.0
 76
     1
 77
     6
 78
     2
 67
     7
 79
     5
170
     0
171
     0
290
     0
174
     0
 93
        1
 44
0.0
173
     0
291
     0
 45
0.0
1001
ACAD
1000
AcDbSavedByObjectVersion
1070
     0
  0
VISUALSTYLE
  5
31
102
{ACAD_REACTORS
330
2A
102
}
102
{ACAD_XDICTIONARY
360
14C
102
}
330
2A
100
AcDbVisualStyle
  2
3D Hidden
 70
     6
 71
     1
 72
     2
 73
     2
 90
        0
 40
-0.6
 41
-30.0
 62
     5
 63
     7
 74
     2
 91
        2
 64
     7
 65
   257
 75
     2
175
     1
 42
40.0
 92
        0
 66
   257
 43
1.0
 76
     1
 77
     6
 78
     2
 67
     7
 79
     3
170
     0
171
     0
290
     0
174
     0
 93
        1
 44
0.0
173
     0
291
     0
 45
0.0
1001
ACAD
1000
AcDbSavedByObjectVersion
1070
     0
  0
VISUALSTYLE
  5
30
102
{ACAD_REACTORS
330
2A
102
}
102
{ACAD_XDICTIONARY
360
14A
102
}
330
2A
100
AcDbVisualStyle
  2
3dWireframe
 70
     5
 71
     0
 72
     2
 73
     0
 90
        0
 40
-0.6
 41
-30.0
 62
     5
 63
     7
 74
     1
 91
        4
 64
     7
 65
   257
 75
     1
175
     1
 42
1.0
 92
        0
 66
   257
 43
1.0
 76
     1
 77
     6
 78
     2
 67
     7
 79
     5
170
     0
171
     0
290
     0
174
     0
 93
        1
 44
0.0
173
     0
291
     0
 45
0.0
1001
ACAD
1000
AcDbSavedByObjectVersion
1070
     0
  0
VISUALSTYLE
  5
32
102
{ACAD_REACTORS
330
2A
102
}
102
{ACAD_XDICTIONARY
360
14E
102
}
330
2A
100
AcDbVisualStyle
  2
Basic
 70
     7
 71
     1
 72
     0
 73
     1
 90
        0
 40
-0.6
 41
-30.0
 62
     5
 63
     7
 74
     0
 91
        4
 64
     7
 65
   257
 75
     1
175
     1
 42
1.0
 92
        8
 66
     7
 43
1.0
 76
     1
 77
     6
 78
     2
 67
     7
 79
     5
170
     0
171
     0
290
     0
174
     0
 93
        1
 44
0.0
173
     0
291
     1
 45
0.0
1001
ACAD
1000
AcDbSavedByObjectVersion
1070
     0
  0
VISUALSTYLE
  5
36
102
{ACAD_REACTORS
330
2A
102
}
102
{ACAD_XDICTIONARY
360
156
102
}
330
2A
100
AcDbVisualStyle
  2
Brighten
 70
    12
 71
     2
 72
     2
 73
     0
 90
        0
 40
-0.6
 41
-30.0
 62
     5
 63
     7
 74
     1
 91
        4
 64
     7
 65
   257
 75
     1
175
     1
 42
1.0
 92
        8
 66
     7
 43
1.0
 76
     1
 77
     6
 78
     2
 67
     7
 79
     5
170
     0
171
     0
290
     0
174
     0
 93
        1
 44
50.0
173
     0
291
     1
 45
0.0
1001
ACAD
1000
AcDbSavedByObjectVersion
1070
     0
  0
VISUALSTYLE
  5
3A
102
{ACAD_REACTORS
330
2A
102
}
102
{ACAD_XDICTIONARY
360
15E
102
}
330
2A
100
AcDbVisualStyle
  2
ColorChange
 70
    16
 71
     2
 72
     2
 73
     3
 90
        0
 40
-0.6
 41
-30.0
 62
     5
 63
     8
 74
     1
 91
        4
 64
     7
 65
   257
 75
     1
175
     1
 42
1.0
 92
        8
 66
     8
 43
1.0
 76
     1
 77
     6
 78
     2
 67
     7
 79
     5
170
     0
171
     0
290
     0
174
     0
 93
        1
 44
0.0
173
     0
291
     1
 45
0.0
1001
ACAD
1000
AcDbSavedByObjectVersion
1070
     0
  0
VISUALSTYLE
  5
34
102
{ACAD_REACTORS
330
2A
102
}
102
{ACAD_XDICTIONARY
360
152
102
}
330
2A
100
AcDbVisualStyle
  2
Conceptual
 70
     9
 71
     3
 72
     2
 73
     0
 90
        0
 40
-0.6
 41
-30.0
 62
     5
 63
     7
 74
     2
 91
        2
 64
     7
 65
   257
 75
     1
175
     1
 42
40.0
 92
        8
 66
     7
 43
1.0
 76
     1
 77
     6
 78
     2
 67
     7
 79
     3
170
     0
171
     0
290
     0
174
     0
 93
        1
 44
0.0
173
     0
291
     0
 45
0.0
1001
ACAD
1000
AcDbSavedByObjectVersion
1070
     0
  0
VISUALSTYLE
  5
35
102
{ACAD_REACTORS
330
2A
102
}
102
{ACAD_XDICTIONARY
360
154
102
}
330
2A
100
AcDbVisualStyle
  2
Dim
 70
    11
 71
     2
 72
     2
 73
     0
 90
        0
 40
-0.6
 41
-30.0
 62
     5
 63
     7
 74
     1
 91
        4
 64
     7
 65
   257
 75
     1
175
     1
 42
1.0
 92
        8
 66
     7
 43
1.0
 76
     1
 77
     6
 78
     2
 67
     7
 79
     5
170
     0
171
     0
290
     0
174
     0
 93
        1
 44
-50.0
173
     0
291
     1
 45
0.0
1001
ACAD
1000
AcDbSavedByObjectVersion
1070
     0
  0
VISUALSTYLE
  5
39
102
{ACAD_REACTORS
330
2A
102
}
102
{ACAD_XDICTIONARY
360
15C
102
}
330
2A
100
AcDbVisualStyle
  2
Facepattern
 70
    15
 71
     2
 72
     2
 73
     0
 90
        0
 40
-0.6
 41
-30.0
 62
     5
 63
     7
 74
     1
 91
        4
 64
     7
 65
   257
 75
     1
175
     1
 42
1.0
 92
        8
 66
     7
 43
1.0
 76
     1
 77
     6
 78
     2
 67
     7
 79
     5
170
     0
171
     0
290
     0
174
     0
 93
        1
 44
0.0
173
     0
291
     1
 45
0.0
1001
ACAD
1000
AcDbSavedByObjectVersion
1070
     0
  0
VISUALSTYLE
  5
2B
102
{ACAD_REACTORS
330
2A
102
}
102
{ACAD_XDICTIONARY
360
140
102
}
330
2A
100
AcDbVisualStyle
  2
Flat
 70
     0
 71
     2
 72
     1
 73
     1
 90
        2
 40
-0.6
 41
30.0
 62
     5
 63
     7
 74
     0
 91
        4
 64
     7
 65
   257
 75
     1
175
     1
 42
1.0
 92
        8
 66
     7
 43
1.0
 76
     1
 77
     6
 78
     2
 67
     7
 79
     5
170
     0
171
     0
290
     0
174
     0
 93
       13
 44
0.0
173
     0
291
     1
 45
0.0
1001
ACAD
1000
AcDbSavedByObjectVersion
1070
     0
  0
VISUALSTYLE
  5
2C
102
{ACAD_REACTORS
330
2A
102
}
102
{ACAD_XDICTIONARY
360
142
102
}
330
2A
100
AcDbVisualStyle
  2
FlatWithEdges
 70
     1
 71
     2
 72
     1
 73
     1
 90
        2
 40
-0.6
 41
30.0
 62
     5
 63
     7
 74
     1
 91
        4
 64
     7
 65
   257
 75
     1
175
     1
 42
1.0
 92
        0
 66
   257
 43
1.0
 76
     1
 77
     6
 78
     2
 67
     7
 79
     5
170
     0
171
     0
290
     0
174
     0
 93
       13
 44
0.0
173
     0
291
     1
 45
0.0
1001
ACAD
1000
AcDbSavedByObjectVersion
1070
     0
  0
VISUALSTYLE
  5
2D
102
{ACAD_REACTORS
330
2A
102
}
102
{ACAD_XDICTIONARY
360
144
102
}
330
2A
100
AcDbVisualStyle
  2
Gouraud
 70
     2
 71
     2
 72
     2
 73
     1
 90
        2
 40
-0.6
 41
30.0
 62
     5
 63
     7
 74
     0
 91
        4
 64
     7
 65
   257
 75
     1
175
     1
 42
1.0
 92
        0
 66
     7
 43
1.0
 76
     1
 77
     6
 78
     2
 67
     7
 79
     5
170
     0
171
     0
290
     0
174
     0
 93
       13
 44
0.0
173
     0
291
     1
 45
0.0
1001
ACAD
1000
AcDbSavedByObjectVersion
1070
     0
  0
VISUALSTYLE
  5
2E
102
{ACAD_REACTORS
330
2A
102
}
102
{ACAD_XDICTIONARY
360
146
102
}
330
2A
100
AcDbVisualStyle
  2
GouraudWithEdges
 70
     3
 71
     2
 72
     2
 73
     1
 90
        2
 40
-0.6
 41
30.0
 62
     5
 63
     7
 74
     1
 91
        4
 64
     7
 65
   257
 75
     1
175
     1
 42
1.0
 92
        0
 66
   257
 43
1.0
 76
     1
 77
     6
 78
     2
 67
     7
 79
     5
170
     0
171
     0
290
     0
174
     0
 93
       13
 44
0.0
173
     0
291
     1
 45
0.0
1001
ACAD
1000
AcDbSavedByObjectVersion
1070
     0
  0
VISUALSTYLE
  5
38
102
{ACAD_REACTORS
330
2A
102
}
102
{ACAD_XDICTIONARY
360
15A
102
}
330
2A
100
AcDbVisualStyle
  2
Linepattern
 70
    14
 71
     2
 72
     2
 73
     0
 90
        0
 40
-0.6
 41
-30.0
 62
     5
 63
     7
 74
     1
 91
        4
 64
     7
 65
   257
 75
     7
175
     7
 42
1.0
 92
        8
 66
     7
 43
1.0
 76
     1
 77
     6
 78
     2
 67
     7
 79
     5
170
     0
171
     0
290
     0
174
     0
 93
        1
 44
0.0
173
     0
291
     1
 45
0.0
1001
ACAD
1000
AcDbSavedByObjectVersion
1070
     0
  0
VISUALSTYLE
  5
33
102
{ACAD_REACTORS
330
2A
102
}
102
{ACAD_XDICTIONARY
360
150
102
}
330
2A
100
AcDbVisualStyle
  2
Realistic
 70
     8
 71
     2
 72
     2
 73
     0
 90
        0
 40
-0.6
 41
-30.0
 62
     5
 63
     7
 74
     1
 91
        0
 64
     7
 65
   257
 75
     1
175
     1
 42
1.0
 92
        8
 66
     8
 43
1.0
 76
     1
 77
     6
 78
     2
 67
     7
 79
     5
170
     0
171
     0
290
     0
174
     0
 93
       13
 44
0.0
173
     0
291
     0
 45
0.0
1001
ACAD
1000
AcDbSavedByObjectVersion
1070
     0
  0
VISUALSTYLE
  5
37
102
{ACAD_REACTORS
330
2A
102
}
102
{ACAD_XDICTIONARY
360
158
102
}
330
2A
100
AcDbVisualStyle
  2
Thicken
 70
    13
 71
     2
 72
     2
 73
     0
 90
        0
 40
-0.6
 41
-30.0
 62
     5
 63
     7
 74
     1
 91
        4
 64
     7
 65
   257
 75
     1
175
     1
 42
1.0
 92
       12
 66
     7
 43
1.0
 76
     1
 77
     6
 78
     2
 67
     7
 79
     5
170
     0
171
     0
290
     0
174
     0
 93
        1
 44
0.0
173
     0
291
     1
 45
0.0
1001
ACAD
1000
AcDbSavedByObjectVersion
1070
     0
  0
DICTIONARYVAR
  5
13E
102
{ACAD_REACTORS
330
13B
102
}
330
13B
100
DictionaryVariables
280
     0
  1
2
  0
DICTIONARYVAR
  5
13F
102
{ACAD_REACTORS
330
13B
102
}
330
13B
100
DictionaryVariables
280
     0
  1
1
  0
DICTIONARY
  5
162
330
3D
100
AcDbDictionary
280
     1
281
     1
  3
ACAD_XREC_ROUNDTRIP
360
163
  0
DICTIONARY
  5
160
330
3C
100
AcDbDictionary
280
     1
281
     1
  3
ACAD_XREC_ROUNDTRIP
360
161
  0
DICTIONARY
  5
164
330
3E
100
AcDbDictionary
280
     1
281
     1
  3
ACAD_XREC_ROUNDTRIP
360
165
  0
DICTIONARY
  5
148
330
2F
100
AcDbDictionary
280
     1
281
     1
  3
ACAD_XREC_ROUNDTRIP
360
149
  0
DICTIONARY
  5
14C
330
31
100
AcDbDictionary
280
     1
281
     1
  3
ACAD_XREC_ROUNDTRIP
360
14D
  0
DICTIONARY
  5
14A
330
30
100
AcDbDictionary
280
     1
281
     1
  3
ACAD_XREC_ROUNDTRIP
360
14B
  0
DICTIONARY
  5
14E
330
32
100
AcDbDictionary
280
     1
281
     1
  3
ACAD_XREC_ROUNDTRIP
360
14F
  0
DICTIONARY
  5
156
330
36
100
AcDbDictionary
280
     1
281
     1
  3
ACAD_XREC_ROUNDTRIP
360
157
  0
DICTIONARY
  5
15E
330
3A
100
AcDbDictionary
280
     1
281
     1
  3
ACAD_XREC_ROUNDTRIP
360
15F
  0
DICTIONARY
  5
152
330
34
100
AcDbDictionary
280
     1
281
     1
  3
ACAD_XREC_ROUNDTRIP
360
153
  0
DICTIONARY
  5
154
330
35
100
AcDbDictionary
280
     1
281
     1
  3
ACAD_XREC_ROUNDTRIP
360
155
  0
DICTIONARY
  5
15C
330
39
100
AcDbDictionary
280
     1
281
     1
  3
ACAD_XREC_ROUNDTRIP
360
15D
  0
DICTIONARY
  5
140
330
2B
100
AcDbDictionary
280
     1
281
     1
  3
ACAD_XREC_ROUNDTRIP
360
141
  0
DICTIONARY
  5
142
330
2C
100
AcDbDictionary
280
     1
281
     1
  3
ACAD_XREC_ROUNDTRIP
360
143
  0
DICTIONARY
  5
144
330
2D
100
AcDbDictionary
280
     1
281
     1
  3
ACAD_XREC_ROUNDTRIP
360
145
  0
DICTIONARY
  5
146
330
2E
100
AcDbDictionary
280
     1
281
     1
  3
ACAD_XREC_ROUNDTRIP
360
147
  0
DICTIONARY
  5
15A
330
38
100
AcDbDictionary
280
     1
281
     1
  3
ACAD_XREC_ROUNDTRIP
360
15B
  0
DICTIONARY
  5
150
330
33
100
AcDbDictionary
280
     1
281
     1
  3
ACAD_XREC_ROUNDTRIP
360
151
  0
DICTIONARY
  5
158
330
37
100
AcDbDictionary
280
     1
281
     1
  3
ACAD_XREC_ROUNDTRIP
360
159
  0
XRECORD
  5
163
102
{ACAD_REACTORS
330
162
102
}
330
162
100
AcDbXrecord
280
     1
102
MATERIAL
148
0.0
149
0.0
149
0.0
 93
        0
 94
      127
282
     0
 72
     1
 77
     1
171
     1
175
     1
179
     1
273
     0
  0
XRECORD
  5
161
102
{ACAD_REACTORS
330
160
102
}
330
160
100
AcDbXrecord
280
     1
102
MATERIAL
148
0.0
149
0.0
149
0.0
 93
        0
 94
      127
282
     0
 72
     1
 77
     1
171
     1
175
     1
179
     1
273
     0
  0
XRECORD
  5
165
102
{ACAD_REACTORS
330
164
102
}
330
164
100
AcDbXrecord
280
     1
102
MATERIAL
148
0.0
149
0.0
149
0.0
 93
        0
 94
      127
282
     0
 72
     1
 77
     1
171
     1
175
     1
179
     1
273
     0
  0
XRECORD
  5
149
102
{ACAD_REACTORS
330
148
102
}
330
148
100
AcDbXrecord
280
     1
102
RTVSPropertyOp0
 70
     1
102
RTVSPropertyOp1
 70
     1
102
RTVSPropertyOp2
 70
     1
102
RTVSPropertyOp3
 70
     1
102
RTVSPropertyOp4
 70
     1
102
RTVSPropertyOp5
 70
     1
102
RTVSPropertyOp6
 70
     1
102
RTVSPropertyOp7
 70
     1
102
RTVSPropertyOp8
 70
     1
102
RTVSPropertyOp9
 70
     1
102
RTVSPropertyOp10
 70
     1
102
RTVSPropertyOp11
 70
     1
102
RTVSPropertyOp12
 70
     1
102
RTVSPropertyOp13
 70
     1
102
RTVSPropertyOp14
 70
     1
102
RTVSPropertyOp15
 70
     1
102
RTVSPropertyOp16
 70
     1
102
RTVSPropertyOp17
 70
     1
102
RTVSPropertyOp18
 70
     1
102
RTVSPropertyOp19
 70
     1
102
RTVSPropertyOp20
 70
     1
102
RTVSPropertyOp21
 70
     1
102
RTVSPropertyOp22
 70
     1
102
RTVSPropertyOp23
 70
     1
102
RTVSPropertyOp24
 70
     1
102
RTVSPropertyOp25
 70
     1
102
RTVSPropertyOp26
 70
     1
102
RTVSPropertyOp27
 70
     1
102
RTVSPropertyOp28
 70
     1
102
RTVSPropertyOp29
 70
     1
102
RTVSPropertyOp30
 70
     1
102
RTVSPropertyOp31
 70
     1
102
RTVSPropertyOp32
 70
     1
  0
XRECORD
  5
14D
102
{ACAD_REACTORS
330
14C
102
}
330
14C
100
AcDbXrecord
280
     1
102
RTVSPropertyOp0
 70
     1
102
RTVSPropertyOp1
 70
     1
102
RTVSPropertyOp2
 70
     1
102
RTVSPropertyOp3
 70
     1
102
RTVSPropertyOp4
 70
     1
102
RTVSPropertyOp5
 70
     1
102
RTVSPropertyOp6
 70
     1
102
RTVSPropertyOp7
 70
     1
102
RTVSPropertyOp8
 70
     1
102
RTVSPropertyOp9
 70
     1
102
RTVSPropertyOp10
 70
     1
102
RTVSPropertyOp11
 70
     1
102
RTVSPropertyOp12
 70
     1
102
RTVSPropertyOp13
 70
     1
102
RTVSPropertyOp14
 70
     1
102
RTVSPropertyOp15
 70
     1
102
RTVSPropertyOp16
 70
     1
102
RTVSPropertyOp17
 70
     1
102
RTVSPropertyOp18
 70
     1
102
RTVSPropertyOp19
 70
     1
102
RTVSPropertyOp20
 70
     1
102
RTVSPropertyOp21
 70
     1
102
RTVSPropertyOp22
 70
     1
102
RTVSPropertyOp23
 70
     1
102
RTVSPropertyOp24
 70
     1
102
RTVSPropertyOp25
 70
     1
102
RTVSPropertyOp26
 70
     1
102
RTVSPropertyOp27
 70
     1
102
RTVSPropertyOp28
 70
     1
102
RTVSPropertyOp29
 70
     1
102
RTVSPropertyOp30
 70
     1
102
RTVSPropertyOp31
 70
     1
102
RTVSPropertyOp32
 70
     1
  0
XRECORD
  5
14B
102
{ACAD_REACTORS
330
14A
102
}
330
14A
100
AcDbXrecord
280
     1
102
RTVSPropertyOp0
 70
     1
102
RTVSPropertyOp1
 70
     1
102
RTVSPropertyOp2
 70
     1
102
RTVSPropertyOp3
 70
     1
102
RTVSPropertyOp4
 70
     1
102
RTVSPropertyOp5
 70
     1
102
RTVSPropertyOp6
 70
     1
102
RTVSPropertyOp7
 70
     1
102
RTVSPropertyOp8
 70
     1
102
RTVSPropertyOp9
 70
     1
102
RTVSPropertyOp10
 70
     1
102
RTVSPropertyOp11
 70
     1
102
RTVSPropertyOp12
 70
     1
102
RTVSPropertyOp13
 70
     1
102
RTVSPropertyOp14
 70
     1
102
RTVSPropertyOp15
 70
     1
102
RTVSPropertyOp16
 70
     1
102
RTVSPropertyOp17
 70
     1
102
RTVSPropertyOp18
 70
     1
102
RTVSPropertyOp19
 70
     1
102
RTVSPropertyOp20
 70
     1
102
RTVSPropertyOp21
 70
     1
102
RTVSPropertyOp22
 70
     1
102
RTVSPropertyOp23
 70
     1
102
RTVSPropertyOp24
 70
     1
102
RTVSPropertyOp25
 70
     1
102
RTVSPropertyOp26
 70
     1
102
RTVSPropertyOp27
 70
     1
102
RTVSPropertyOp28
 70
     1
102
RTVSPropertyOp29
 70
     1
102
RTVSPropertyOp30
 70
     1
102
RTVSPropertyOp31
 70
     1
102
RTVSPropertyOp32
 70
     1
  0
XRECORD
  5
14F
102
{ACAD_REACTORS
330
14E
102
}
330
14E
100
AcDbXrecord
280
     1
102
RTVSPropertyOp0
 70
     1
102
RTVSPropertyOp1
 70
     1
102
RTVSPropertyOp2
 70
     1
102
RTVSPropertyOp3
 70
     1
102
RTVSPropertyOp4
 70
     1
102
RTVSPropertyOp5
 70
     1
102
RTVSPropertyOp6
 70
     1
102
RTVSPropertyOp7
 70
     1
102
RTVSPropertyOp8
 70
     1
102
RTVSPropertyOp9
 70
     1
102
RTVSPropertyOp10
 70
     1
102
RTVSPropertyOp11
 70
     1
102
RTVSPropertyOp12
 70
     1
102
RTVSPropertyOp13
 70
     1
102
RTVSPropertyOp14
 70
     1
102
RTVSPropertyOp15
 70
     1
102
RTVSPropertyOp16
 70
     1
102
RTVSPropertyOp17
 70
     1
102
RTVSPropertyOp18
 70
     1
102
RTVSPropertyOp19
 70
     1
102
RTVSPropertyOp20
 70
     1
102
RTVSPropertyOp21
 70
     1
102
RTVSPropertyOp22
 70
     1
102
RTVSPropertyOp23
 70
     1
102
RTVSPropertyOp24
 70
     1
102
RTVSPropertyOp25
 70
     1
102
RTVSPropertyOp26
 70
     1
102
RTVSPropertyOp27
 70
     1
102
RTVSPropertyOp28
 70
     1
102
RTVSPropertyOp29
 70
     1
102
RTVSPropertyOp30
 70
     1
102
RTVSPropertyOp31
 70
     1
102
RTVSPropertyOp32
 70
     1
  0
XRECORD
  5
157
102
{ACAD_REACTORS
330
156
102
}
330
156
100
AcDbXrecord
280
     1
102
RTVSPropertyOp0
 70
     1
102
RTVSPropertyOp1
 70
     1
102
RTVSPropertyOp2
 70
     1
102
RTVSPropertyOp3
 70
     1
102
RTVSPropertyOp4
 70
     1
102
RTVSPropertyOp5
 70
     1
102
RTVSPropertyOp6
 70
     1
102
RTVSPropertyOp7
 70
     1
102
RTVSPropertyOp8
 70
     1
102
RTVSPropertyOp9
 70
     1
102
RTVSPropertyOp10
 70
     1
102
RTVSPropertyOp11
 70
     1
102
RTVSPropertyOp12
 70
     1
102
RTVSPropertyOp13
 70
     1
102
RTVSPropertyOp14
 70
     1
102
RTVSPropertyOp15
 70
     1
102
RTVSPropertyOp16
 70
     1
102
RTVSPropertyOp17
 70
     1
102
RTVSPropertyOp18
 70
     1
102
RTVSPropertyOp19
 70
     1
102
RTVSPropertyOp20
 70
     1
102
RTVSPropertyOp21
 70
     1
102
RTVSPropertyOp22
 70
     1
102
RTVSPropertyOp23
 70
     1
102
RTVSPropertyOp24
 70
     1
102
RTVSPropertyOp25
 70
     1
102
RTVSPropertyOp26
 70
     1
102
RTVSPropertyOp27
 70
     1
102
RTVSPropertyOp28
 70
     1
102
RTVSPropertyOp29
 70
     1
102
RTVSPropertyOp30
 70
     1
102
RTVSPropertyOp31
 70
     1
102
RTVSPropertyOp32
 70
     1
  0
XRECORD
  5
15F
102
{ACAD_REACTORS
330
15E
102
}
330
15E
100
AcDbXrecord
280
     1
102
RTVSPropertyOp0
 70
     1
102
RTVSPropertyOp1
 70
     1
102
RTVSPropertyOp2
 70
     1
102
RTVSPropertyOp3
 70
     1
102
RTVSPropertyOp4
 70
     1
102
RTVSPropertyOp5
 70
     1
102
RTVSPropertyOp6
 70
     1
102
RTVSPropertyOp7
 70
     1
102
RTVSPropertyOp8
 70
     1
102
RTVSPropertyOp9
 70
     1
102
RTVSPropertyOp10
 70
     1
102
RTVSPropertyOp11
 70
     1
102
RTVSPropertyOp12
 70
     1
102
RTVSPropertyOp13
 70
     1
102
RTVSPropertyOp14
 70
     1
102
RTVSPropertyOp15
 70
     1
102
RTVSPropertyOp16
 70
     1
102
RTVSPropertyOp17
 70
     1
102
RTVSPropertyOp18
 70
     1
102
RTVSPropertyOp19
 70
     1
102
RTVSPropertyOp20
 70
     1
102
RTVSPropertyOp21
 70
     1
102
RTVSPropertyOp22
 70
     1
102
RTVSPropertyOp23
 70
     1
102
RTVSPropertyOp24
 70
     1
102
RTVSPropertyOp25
 70
     1
102
RTVSPropertyOp26
 70
     1
102
RTVSPropertyOp27
 70
     1
102
RTVSPropertyOp28
 70
     1
102
RTVSPropertyOp29
 70
     1
102
RTVSPropertyOp30
 70
     1
102
RTVSPropertyOp31
 70
     1
102
RTVSPropertyOp32
 70
     1
  0
XRECORD
  5
153
102
{ACAD_REACTORS
330
152
102
}
330
152
100
AcDbXrecord
280
     1
102
RTVSPropertyOp0
 70
     1
102
RTVSPropertyOp1
 70
     1
102
RTVSPropertyOp2
 70
     1
102
RTVSPropertyOp3
 70
     1
102
RTVSPropertyOp4
 70
     1
102
RTVSPropertyOp5
 70
     1
102
RTVSPropertyOp6
 70
     1
102
RTVSPropertyOp7
 70
     1
102
RTVSPropertyOp8
 70
     1
102
RTVSPropertyOp9
 70
     1
102
RTVSPropertyOp10
 70
     1
102
RTVSPropertyOp11
 70
     1
102
RTVSPropertyOp12
 70
     1
102
RTVSPropertyOp13
 70
     1
102
RTVSPropertyOp14
 70
     1
102
RTVSPropertyOp15
 70
     1
102
RTVSPropertyOp16
 70
     1
102
RTVSPropertyOp17
 70
     1
102
RTVSPropertyOp18
 70
     1
102
RTVSPropertyOp19
 70
     1
102
RTVSPropertyOp20
 70
     1
102
RTVSPropertyOp21
 70
     1
102
RTVSPropertyOp22
 70
     1
102
RTVSPropertyOp23
 70
     1
102
RTVSPropertyOp24
 70
     1
102
RTVSPropertyOp25
 70
     1
102
RTVSPropertyOp26
 70
     1
102
RTVSPropertyOp27
 70
     1
102
RTVSPropertyOp28
 70
     1
102
RTVSPropertyOp29
 70
     1
102
RTVSPropertyOp30
 70
     1
102
RTVSPropertyOp31
 70
     1
102
RTVSPropertyOp32
 70
     1
  0
XRECORD
  5
155
102
{ACAD_REACTORS
330
154
102
}
330
154
100
AcDbXrecord
280
     1
102
RTVSPropertyOp0
 70
     1
102
RTVSPropertyOp1
 70
     1
102
RTVSPropertyOp2
 70
     1
102
RTVSPropertyOp3
 70
     1
102
RTVSPropertyOp4
 70
     1
102
RTVSPropertyOp5
 70
     1
102
RTVSPropertyOp6
 70
     1
102
RTVSPropertyOp7
 70
     1
102
RTVSPropertyOp8
 70
     1
102
RTVSPropertyOp9
 70
     1
102
RTVSPropertyOp10
 70
     1
102
RTVSPropertyOp11
 70
     1
102
RTVSPropertyOp12
 70
     1
102
RTVSPropertyOp13
 70
     1
102
RTVSPropertyOp14
 70
     1
102
RTVSPropertyOp15
 70
     1
102
RTVSPropertyOp16
 70
     1
102
RTVSPropertyOp17
 70
     1
102
RTVSPropertyOp18
 70
     1
102
RTVSPropertyOp19
 70
     1
102
RTVSPropertyOp20
 70
     1
102
RTVSPropertyOp21
 70
     1
102
RTVSPropertyOp22
 70
     1
102
RTVSPropertyOp23
 70
     1
102
RTVSPropertyOp24
 70
     1
102
RTVSPropertyOp25
 70
     1
102
RTVSPropertyOp26
 70
     1
102
RTVSPropertyOp27
 70
     1
102
RTVSPropertyOp28
 70
     1
102
RTVSPropertyOp29
 70
     1
102
RTVSPropertyOp30
 70
     1
102
RTVSPropertyOp31
 70
     1
102
RTVSPropertyOp32
 70
     1
  0
XRECORD
  5
15D
102
{ACAD_REACTORS
330
15C
102
}
330
15C
100
AcDbXrecord
280
     1
102
RTVSPropertyOp0
 70
     1
102
RTVSPropertyOp1
 70
     1
102
RTVSPropertyOp2
 70
     1
102
RTVSPropertyOp3
 70
     1
102
RTVSPropertyOp4
 70
     1
102
RTVSPropertyOp5
 70
     1
102
RTVSPropertyOp6
 70
     1
102
RTVSPropertyOp7
 70
     1
102
RTVSPropertyOp8
 70
     1
102
RTVSPropertyOp9
 70
     1
102
RTVSPropertyOp10
 70
     1
102
RTVSPropertyOp11
 70
     1
102
RTVSPropertyOp12
 70
     1
102
RTVSPropertyOp13
 70
     1
102
RTVSPropertyOp14
 70
     1
102
RTVSPropertyOp15
 70
     1
102
RTVSPropertyOp16
 70
     1
102
RTVSPropertyOp17
 70
     1
102
RTVSPropertyOp18
 70
     1
102
RTVSPropertyOp19
 70
     1
102
RTVSPropertyOp20
 70
     1
102
RTVSPropertyOp21
 70
     1
102
RTVSPropertyOp22
 70
     1
102
RTVSPropertyOp23
 70
     1
102
RTVSPropertyOp24
 70
     1
102
RTVSPropertyOp25
 70
     1
102
RTVSPropertyOp26
 70
     1
102
RTVSPropertyOp27
 70
     1
102
RTVSPropertyOp28
 70
     1
102
RTVSPropertyOp29
 70
     1
102
RTVSPropertyOp30
 70
     1
102
RTVSPropertyOp31
 70
     1
102
RTVSPropertyOp32
 70
     1
  0
XRECORD
  5
141
102
{ACAD_REACTORS
330
140
102
}
330
140
100
AcDbXrecord
280
     1
102
RTVSPropertyOp0
 70
     1
102
RTVSPropertyOp1
 70
     1
102
RTVSPropertyOp2
 70
     1
102
RTVSPropertyOp3
 70
     1
102
RTVSPropertyOp4
 70
     1
102
RTVSPropertyOp5
 70
     1
102
RTVSPropertyOp6
 70
     1
102
RTVSPropertyOp7
 70
     1
102
RTVSPropertyOp8
 70
     1
102
RTVSPropertyOp9
 70
     1
102
RTVSPropertyOp10
 70
     1
102
RTVSPropertyOp11
 70
     1
102
RTVSPropertyOp12
 70
     1
102
RTVSPropertyOp13
 70
     1
102
RTVSPropertyOp14
 70
     1
102
RTVSPropertyOp15
 70
     1
102
RTVSPropertyOp16
 70
     1
102
RTVSPropertyOp17
 70
     1
102
RTVSPropertyOp18
 70
     1
102
RTVSPropertyOp19
 70
     1
102
RTVSPropertyOp20
 70
     1
102
RTVSPropertyOp21
 70
     1
102
RTVSPropertyOp22
 70
     1
102
RTVSPropertyOp23
 70
     1
102
RTVSPropertyOp24
 70
     1
102
RTVSPropertyOp25
 70
     1
102
RTVSPropertyOp26
 70
     1
102
RTVSPropertyOp27
 70
     1
102
RTVSPropertyOp28
 70
     1
102
RTVSPropertyOp29
 70
     1
102
RTVSPropertyOp30
 70
     1
102
RTVSPropertyOp31
 70
     1
102
RTVSPropertyOp32
 70
     1
  0
XRECORD
  5
143
102
{ACAD_REACTORS
330
142
102
}
330
142
100
AcDbXrecord
280
     1
102
RTVSPropertyOp0
 70
     1
102
RTVSPropertyOp1
 70
     1
102
RTVSPropertyOp2
 70
     1
102
RTVSPropertyOp3
 70
     1
102
RTVSPropertyOp4
 70
     1
102
RTVSPropertyOp5
 70
     1
102
RTVSPropertyOp6
 70
     1
102
RTVSPropertyOp7
 70
     1
102
RTVSPropertyOp8
 70
     1
102
RTVSPropertyOp9
 70
     1
102
RTVSPropertyOp10
 70
     1
102
RTVSPropertyOp11
 70
     1
102
RTVSPropertyOp12
 70
     1
102
RTVSPropertyOp13
 70
     1
102
RTVSPropertyOp14
 70
     1
102
RTVSPropertyOp15
 70
     1
102
RTVSPropertyOp16
 70
     1
102
RTVSPropertyOp17
 70
     1
102
RTVSPropertyOp18
 70
     1
102
RTVSPropertyOp19
 70
     1
102
RTVSPropertyOp20
 70
     1
102
RTVSPropertyOp21
 70
     1
102
RTVSPropertyOp22
 70
     1
102
RTVSPropertyOp23
 70
     1
102
RTVSPropertyOp24
 70
     1
102
RTVSPropertyOp25
 70
     1
102
RTVSPropertyOp26
 70
     1
102
RTVSPropertyOp27
 70
     1
102
RTVSPropertyOp28
 70
     1
102
RTVSPropertyOp29
 70
     1
102
RTVSPropertyOp30
 70
     1
102
RTVSPropertyOp31
 70
     1
102
RTVSPropertyOp32
 70
     1
  0
XRECORD
  5
145
102
{ACAD_REACTORS
330
144
102
}
330
144
100
AcDbXrecord
280
     1
102
RTVSPropertyOp0
 70
     1
102
RTVSPropertyOp1
 70
     1
102
RTVSPropertyOp2
 70
     1
102
RTVSPropertyOp3
 70
     1
102
RTVSPropertyOp4
 70
     1
102
RTVSPropertyOp5
 70
     1
102
RTVSPropertyOp6
 70
     1
102
RTVSPropertyOp7
 70
     1
102
RTVSPropertyOp8
 70
     1
102
RTVSPropertyOp9
 70
     1
102
RTVSPropertyOp10
 70
     1
102
RTVSPropertyOp11
 70
     1
102
RTVSPropertyOp12
 70
     1
102
RTVSPropertyOp13
 70
     1
102
RTVSPropertyOp14
 70
     1
102
RTVSPropertyOp15
 70
     1
102
RTVSPropertyOp16
 70
     1
102
RTVSPropertyOp17
 70
     1
102
RTVSPropertyOp18
 70
     1
102
RTVSPropertyOp19
 70
     1
102
RTVSPropertyOp20
 70
     1
102
RTVSPropertyOp21
 70
     1
102
RTVSPropertyOp22
 70
     1
102
RTVSPropertyOp23
 70
     1
102
RTVSPropertyOp24
 70
     1
102
RTVSPropertyOp25
 70
     1
102
RTVSPropertyOp26
 70
     1
102
RTVSPropertyOp27
 70
     1
102
RTVSPropertyOp28
 70
     1
102
RTVSPropertyOp29
 70
     1
102
RTVSPropertyOp30
 70
     1
102
RTVSPropertyOp31
 70
     1
102
RTVSPropertyOp32
 70
     1
  0
XRECORD
  5
147
102
{ACAD_REACTORS
330
146
102
}
330
146
100
AcDbXrecord
280
     1
102
RTVSPropertyOp0
 70
     1
102
RTVSPropertyOp1
 70
     1
102
RTVSPropertyOp2
 70
     1
102
RTVSPropertyOp3
 70
     1
102
RTVSPropertyOp4
 70
     1
102
RTVSPropertyOp5
 70
     1
102
RTVSPropertyOp6
 70
     1
102
RTVSPropertyOp7
 70
     1
102
RTVSPropertyOp8
 70
     1
102
RTVSPropertyOp9
 70
     1
102
RTVSPropertyOp10
 70
     1
102
RTVSPropertyOp11
 70
     1
102
RTVSPropertyOp12
 70
     1
102
RTVSPropertyOp13
 70
     1
102
RTVSPropertyOp14
 70
     1
102
RTVSPropertyOp15
 70
     1
102
RTVSPropertyOp16
 70
     1
102
RTVSPropertyOp17
 70
     1
102
RTVSPropertyOp18
 70
     1
102
RTVSPropertyOp19
 70
     1
102
RTVSPropertyOp20
 70
     1
102
RTVSPropertyOp21
 70
     1
102
RTVSPropertyOp22
 70
     1
102
RTVSPropertyOp23
 70
     1
102
RTVSPropertyOp24
 70
     1
102
RTVSPropertyOp25
 70
     1
102
RTVSPropertyOp26
 70
     1
102
RTVSPropertyOp27
 70
     1
102
RTVSPropertyOp28
 70
     1
102
RTVSPropertyOp29
 70
     1
102
RTVSPropertyOp30
 70
     1
102
RTVSPropertyOp31
 70
     1
102
RTVSPropertyOp32
 70
     1
  0
XRECORD
  5
15B
102
{ACAD_REACTORS
330
15A
102
}
330
15A
100
AcDbXrecord
280
     1
102
RTVSPropertyOp0
 70
     1
102
RTVSPropertyOp1
 70
     1
102
RTVSPropertyOp2
 70
     1
102
RTVSPropertyOp3
 70
     1
102
RTVSPropertyOp4
 70
     1
102
RTVSPropertyOp5
 70
     1
102
RTVSPropertyOp6
 70
     1
102
RTVSPropertyOp7
 70
     1
102
RTVSPropertyOp8
 70
     1
102
RTVSPropertyOp9
 70
     1
102
RTVSPropertyOp10
 70
     1
102
RTVSPropertyOp11
 70
     1
102
RTVSPropertyOp12
 70
     1
102
RTVSPropertyOp13
 70
     1
102
RTVSPropertyOp14
 70
     1
102
RTVSPropertyOp15
 70
     1
102
RTVSPropertyOp16
 70
     1
102
RTVSPropertyOp17
 70
     1
102
RTVSPropertyOp18
 70
     1
102
RTVSPropertyOp19
 70
     1
102
RTVSPropertyOp20
 70
     1
102
RTVSPropertyOp21
 70
     1
102
RTVSPropertyOp22
 70
     1
102
RTVSPropertyOp23
 70
     1
102
RTVSPropertyOp24
 70
     1
102
RTVSPropertyOp25
 70
     1
102
RTVSPropertyOp26
 70
     1
102
RTVSPropertyOp27
 70
     1
102
RTVSPropertyOp28
 70
     1
102
RTVSPropertyOp29
 70
     1
102
RTVSPropertyOp30
 70
     1
102
RTVSPropertyOp31
 70
     1
102
RTVSPropertyOp32
 70
     1
  0
XRECORD
  5
151
102
{ACAD_REACTORS
330
150
102
}
330
150
100
AcDbXrecord
280
     1
102
RTVSPropertyOp0
 70
     1
102
RTVSPropertyOp1
 70
     1
102
RTVSPropertyOp2
 70
     1
102
RTVSPropertyOp3
 70
     1
102
RTVSPropertyOp4
 70
     1
102
RTVSPropertyOp5
 70
     1
102
RTVSPropertyOp6
 70
     1
102
RTVSPropertyOp7
 70
     1
102
RTVSPropertyOp8
 70
     1
102
RTVSPropertyOp9
 70
     1
102
RTVSPropertyOp10
 70
     1
102
RTVSPropertyOp11
 70
     1
102
RTVSPropertyOp12
 70
     1
102
RTVSPropertyOp13
 70
     1
102
RTVSPropertyOp14
 70
     1
102
RTVSPropertyOp15
 70
     1
102
RTVSPropertyOp16
 70
     1
102
RTVSPropertyOp17
 70
     1
102
RTVSPropertyOp18
 70
     1
102
RTVSPropertyOp19
 70
     1
102
RTVSPropertyOp20
 70
     1
102
RTVSPropertyOp21
 70
     1
102
RTVSPropertyOp22
 70
     1
102
RTVSPropertyOp23
 70
     1
102
RTVSPropertyOp24
 70
     1
102
RTVSPropertyOp25
 70
     1
102
RTVSPropertyOp26
 70
     1
102
RTVSPropertyOp27
 70
     1
102
RTVSPropertyOp28
 70
     1
102
RTVSPropertyOp29
 70
     1
102
RTVSPropertyOp30
 70
     1
102
RTVSPropertyOp31
 70
     1
102
RTVSPropertyOp32
 70
     1
  0
XRECORD
  5
159
102
{ACAD_REACTORS
330
158
102
}
330
158
100
AcDbXrecord
280
     1
102
RTVSPropertyOp0
 70
     1
102
RTVSPropertyOp1
 70
     1
102
RTVSPropertyOp2
 70
     1
102
RTVSPropertyOp3
 70
     1
102
RTVSPropertyOp4
 70
     1
102
RTVSPropertyOp5
 70
     1
102
RTVSPropertyOp6
 70
     1
102
RTVSPropertyOp7
 70
     1
102
RTVSPropertyOp8
 70
     1
102
RTVSPropertyOp9
 70
     1
102
RTVSPropertyOp10
 70
     1
102
RTVSPropertyOp11
 70
     1
102
RTVSPropertyOp12
 70
     1
102
RTVSPropertyOp13
 70
     1
102
RTVSPropertyOp14
 70
     1
102
RTVSPropertyOp15
 70
     1
102
RTVSPropertyOp16
 70
     1
102
RTVSPropertyOp17
 70
     1
102
RTVSPropertyOp18
 70
     1
102
RTVSPropertyOp19
 70
     1
102
RTVSPropertyOp20
 70
     1
102
RTVSPropertyOp21
 70
     1
102
RTVSPropertyOp22
 70
     1
102
RTVSPropertyOp23
 70
     1
102
RTVSPropertyOp24
 70
     1
102
RTVSPropertyOp25
 70
     1
102
RTVSPropertyOp26
 70
     1
102
RTVSPropertyOp27
 70
     1
102
RTVSPropertyOp28
 70
     1
102
RTVSPropertyOp29
 70
     1
102
RTVSPropertyOp30
 70
     1
102
RTVSPropertyOp31
 70
     1
102
RTVSPropertyOp32
 70
     1
  0
ENDSEC
  0
EOF
