  0
SECTION
  2
HEADER
  9
$ACADVER
  1
AC1015
  9
$ACADMAINTVER
 70
     6
  9
$DWGCODEPAGE
  3
ANSI_932
  9
$INSBASE
 10
0.0
 20
0.0
 30
0.0
  9
$EXTMIN
 10
0.0
 20
-0.00000000000002
 30
0.0
  9
$EXTMAX
 10
210.0
 20
296.9999999999999
 30
0.0
  9
$LIMMIN
 10
0.0
 20
0.0
  9
$LIMMAX
 10
12.0
 20
9.0
  9
$ORTHOMODE
 70
     0
  9
$REGENMODE
 70
     1
  9
$FILLMODE
 70
     1
  9
$QTEXTMODE
 70
     0
  9
$MIRRTEXT
 70
     1
  9
$LTSCALE
 40
1.0
  9
$ATTMODE
 70
     1
  9
$TEXTSIZE
 40
0.2
  9
$TRACEWID
 40
0.05
  9
$TEXTSTYLE
  7
Standard
  9
$CLAYER
  8
0
  9
$CELTYPE
  6
ByLayer
  9
$CECOLOR
 62
   256
  9
$CELTSCALE
 40
1.0
  9
$DISPSILH
 70
     0
  9
$DIMSCALE
 40
1.0
  9
$DIMASZ
 40
0.18
  9
$DIMEXO
 40
0.0625
  9
$DIMDLI
 40
0.38
  9
$DIMRND
 40
0.0
  9
$DIMDLE
 40
0.0
  9
$DIMEXE
 40
0.18
  9
$DIMTP
 40
0.0
  9
$DIMTM
 40
0.0
  9
$DIMTXT
 40
0.18
  9
$DIMCEN
 40
0.09
  9
$DIMTSZ
 40
0.0
  9
$DIMTOL
 70
     0
  9
$DIMLIM
 70
     0
  9
$DIMTIH
 70
     1
  9
$DIMTOH
 70
     1
  9
$DIMSE1
 70
     0
  9
$DIMSE2
 70
     0
  9
$DIMTAD
 70
     0
  9
$DIMZIN
 70
     0
  9
$DIMBLK
  1

  9
$DIMASO
 70
     1
  9
$DIMSHO
 70
     1
  9
$DIMPOST
  1

  9
$DIMAPOST
  1

  9
$DIMALT
 70
     0
  9
$DIMALTD
 70
     2
  9
$DIMALTF
 40
25.4
  9
$DIMLFAC
 40
1.0
  9
$DIMTOFL
 70
     0
  9
$DIMTVP
 40
0.0
  9
$DIMTIX
 70
     0
  9
$DIMSOXD
 70
     0
  9
$DIMSAH
 70
     0
  9
$DIMBLK1
  1

  9
$DIMBLK2
  1

  9
$DIMSTYLE
  2
Standard
  9
$DIMCLRD
 70
     0
  9
$DIMCLRE
 70
     0
  9
$DIMCLRT
 70
     0
  9
$DIMTFAC
 40
1.0
  9
$DIMGAP
 40
0.09
  9
$DIMJUST
 70
     0
  9
$DIMSD1
 70
     0
  9
$DIMSD2
 70
     0
  9
$DIMTOLJ
 70
     1
  9
$DIMTZIN
 70
     0
  9
$DIMALTZ
 70
     0
  9
$DIMALTTZ
 70
     0
  9
$DIMUPT
 70
     0
  9
$DIMDEC
 70
     4
  9
$DIMTDEC
 70
     4
  9
$DIMALTU
 70
     2
  9
$DIMALTTD
 70
     2
  9
$DIMTXSTY
  7
Standard
  9
$DIMAUNIT
 70
     0
  9
$DIMADEC
 70
     0
  9
$DIMALTRND
 40
0.0
  9
$DIMAZIN
 70
     0
  9
$DIMDSEP
 70
    46
  9
$DIMATFIT
 70
     3
  9
$DIMFRAC
 70
     0
  9
$DIMLDRBLK
  1

  9
$DIMLUNIT
 70
     2
  9
$DIMLWD
 70
    -2
  9
$DIMLWE
 70
    -2
  9
$DIMTMOVE
 70
     0
  9
$LUNITS
 70
     2
  9
$LUPREC
 70
     4
  9
$SKETCHINC
 40
0.1
  9
$FILLETRAD
 40
0.5
  9
$AUNITS
 70
     0
  9
$AUPREC
 70
     0
  9
$MENU
  1
.
  9
$ELEVATION
 40
0.0
  9
$PELEVATION
 40
0.0
  9
$THICKNESS
 40
0.0
  9
$LIMCHECK
 70
     0
  9
$CHAMFERA
 40
0.5
  9
$CHAMFERB
 40
0.5
  9
$CHAMFERC
 40
1.0
  9
$CHAMFERD
 40
0.0
  9
$SKPOLY
 70
     0
  9
$TDCREATE
 40
2459765.605165139
  9
$TDUCREATE
 40
2459765.230165139
  9
$TDUPDATE
 40
2459765.605166586
  9
$TDUUPDATE
 40
2459765.230166586
  9
$TDINDWG
 40
0.0000000116
  9
$TDUSRTIMER
 40
0.0000000116
  9
$USRTIMER
 70
     1
  9
$ANGBASE
 50
0.0
  9
$ANGDIR
 70
     0
  9
$PDMODE
 70
     0
  9
$PDSIZE
 40
0.0
  9
$PLINEWID
 40
0.0
  9
$SPLFRAME
 70
     0
  9
$SPLINETYPE
 70
     6
  9
$SPLINESEGS
 70
     8
  9
$HANDSEED
  5
146
  9
$SURFTAB1
 70
     6
  9
$SURFTAB2
 70
     6
  9
$SURFTYPE
 70
     6
  9
$SURFU
 70
     6
  9
$SURFV
 70
     6
  9
$UCSBASE
  2

  9
$UCSNAME
  2

  9
$UCSORG
 10
0.0
 20
0.0
 30
0.0
  9
$UCSXDIR
 10
1.0
 20
0.0
 30
0.0
  9
$UCSYDIR
 10
0.0
 20
1.0
 30
0.0
  9
$UCSORTHOREF
  2

  9
$UCSORTHOVIEW
 70
     0
  9
$UCSORGTOP
 10
0.0
 20
0.0
 30
0.0
  9
$UCSORGBOTTOM
 10
0.0
 20
0.0
 30
0.0
  9
$UCSORGLEFT
 10
0.0
 20
0.0
 30
0.0
  9
$UCSORGRIGHT
 10
0.0
 20
0.0
 30
0.0
  9
$UCSORGFRONT
 10
0.0
 20
0.0
 30
0.0
  9
$UCSORGBACK
 10
0.0
 20
0.0
 30
0.0
  9
$PUCSBASE
  2

  9
$PUCSNAME
  2

  9
$PUCSORG
 10
0.0
 20
0.0
 30
0.0
  9
$PUCSXDIR
 10
1.0
 20
0.0
 30
0.0
  9
$PUCSYDIR
 10
0.0
 20
1.0
 30
0.0
  9
$PUCSORTHOREF
  2

  9
$PUCSORTHOVIEW
 70
     0
  9
$PUCSORGTOP
 10
0.0
 20
0.0
 30
0.0
  9
$PUCSORGBOTTOM
 10
0.0
 20
0.0
 30
0.0
  9
$PUCSORGLEFT
 10
0.0
 20
0.0
 30
0.0
  9
$PUCSORGRIGHT
 10
0.0
 20
0.0
 30
0.0
  9
$PUCSORGFRONT
 10
0.0
 20
0.0
 30
0.0
  9
$PUCSORGBACK
 10
0.0
 20
0.0
 30
0.0
  9
$USERI1
 70
     0
  9
$USERI2
 70
     0
  9
$USERI3
 70
     0
  9
$USERI4
 70
     0
  9
$USERI5
 70
     0
  9
$USERR1
 40
18.1
  9
$USERR2
 40
0.0
  9
$USERR3
 40
0.0
  9
$USERR4
 40
0.0
  9
$USERR5
 40
0.0
  9
$WORLDVIEW
 70
     1
  9
$SHADEDGE
 70
     3
  9
$SHADEDIF
 70
    70
  9
$TILEMODE
 70
     1
  9
$MAXACTVP
 70
    64
  9
$PINSBASE
 10
0.0
 20
0.0
 30
0.0
  9
$PLIMCHECK
 70
     0
  9
$PEXTMIN
 10
1.00000000000000E+20
 20
1.00000000000000E+20
 30
1.00000000000000E+20
  9
$PEXTMAX
 10
-1.00000000000000E+20
 20
-1.00000000000000E+20
 30
-1.00000000000000E+20
  9
$PLIMMIN
 10
0.0
 20
0.0
  9
$PLIMMAX
 10
12.0
 20
9.0
  9
$UNITMODE
 70
     0
  9
$VISRETAIN
 70
     1
  9
$PLINEGEN
 70
     0
  9
$PSLTSCALE
 70
     1
  9
$TREEDEPTH
 70
  3020
  9
$CMLSTYLE
  2
Standard
  9
$CMLJUST
 70
     0
  9
$CMLSCALE
 40
1.0
  9
$PROXYGRAPHICS
 70
     1
  9
$MEASUREMENT
 70
     1
  9
$CELWEIGHT
370
    -1
  9
$ENDCAPS
280
     0
  9
$JOINSTYLE
280
     0
  9
$LWDISPLAY
290
     0
  9
$INSUNITS
 70
     4
  9
$HYPERLINKBASE
  1

  9
$STYLESHEET
  1

  9
$XEDIT
290
     1
  9
$CEPSNTYPE
380
     0
  9
$PSTYLEMODE
290
     1
  9
$FINGERPRINTGUID
  2
{B43203E6-68CD-49B5-8CDE-5E5D078AFAA5}
  9
$VERSIONGUID
  2
{FAEB1C32-E019-11D5-929B-00C0DF256EC4}
  9
$EXTNAMES
290
     1
  9
$PSVPSCALE
 40
0.0
  9
$OLESTARTUP
290
     0
  0
ENDSEC
  0
SECTION
  2
CLASSES
  0
CLASS
  1
ACDBDICTIONARYWDFLT
  2
AcDbDictionaryWithDefault
  3
ObjectDBX Classes
 90
        0
280
     0
281
     0
  0
CLASS
  1
VISUALSTYLE
  2
AcDbVisualStyle
  3
ObjectDBX Classes
 90
     4095
280
     0
281
     0
  0
CLASS
  1
MATERIAL
  2
AcDbMaterial
  3
ObjectDBX Classes
 90
     1153
280
     0
281
     0
  0
CLASS
  1
DICTIONARYVAR
  2
AcDbDictionaryVar
  3
ObjectDBX Classes
 90
        0
280
     0
281
     0
  0
CLASS
  1
ACDBPLACEHOLDER
  2
AcDbPlaceHolder
  3
ObjectDBX Classes
 90
        0
280
     0
281
     0
  0
CLASS
  1
LAYOUT
  2
AcDbLayout
  3
ObjectDBX Classes
 90
        0
280
     0
281
     0
  0
ENDSEC
  0
SECTION
  2
TABLES
  0
TABLE
  2
VPORT
  5
8
330
0
100
AcDbSymbolTable
 70
     1
  0
VPORT
  5
29
330
8
100
AcDbSymbolTableRecord
100
AcDbViewportTableRecord
  2
*Active
 70
     0
 10
0.0
 20
0.0
 11
1.0
 21
1.0
 12
105.0
 22
148.4999999999999
 13
0.0
 23
0.0
 14
0.5
 24
0.5
 15
0.5
 25
0.5
 16
0.0
 26
0.0
 36
1.0
 17
0.0
 27
0.0
 37
0.0
 40
326.6999999999999
 41
1.60267857142857
 42
50.0
 43
0.0
 44
0.0
 50
0.0
 51
0.0
 71
     0
 72
   100
 73
     1
 74
     3
 75
     0
 76
     0
 77
     0
 78
     0
281
     0
 65
     1
110
0.0
120
0.0
130
0.0
111
1.0
121
0.0
131
0.0
112
0.0
122
1.0
132
0.0
 79
     0
146
0.0
  0
ENDTAB
  0
TABLE
  2
LTYPE
  5
5
330
0
100
AcDbSymbolTable
 70
     8
  0
LTYPE
  5
14
330
5
100
AcDbSymbolTableRecord
100
AcDbLinetypeTableRecord
  2
ByBlock
 70
     0
  3

 72
    65
 73
     0
 40
0.0
  0
LTYPE
  5
15
330
5
100
AcDbSymbolTableRecord
100
AcDbLinetypeTableRecord
  2
ByLayer
 70
     0
  3

 72
    65
 73
     0
 40
0.0
  0
LTYPE
  5
16
330
5
100
AcDbSymbolTableRecord
100
AcDbLinetypeTableRecord
  2
Continuous
 70
     0
  3
Solid line
 72
    65
 73
     0
 40
0.0
  0
LTYPE
  5
3F
330
5
100
AcDbSymbolTableRecord
100
AcDbLinetypeTableRecord
  2
DASHED
 70
     0
  3
Dashed
 72
    65
 73
     2
 40
15.0
 49
7.0
 74
     0
 49
-8.0
 74
     0
  0
LTYPE
  5
40
330
5
100
AcDbSymbolTableRecord
100
AcDbLinetypeTableRecord
  2
DOTTED
 70
     0
  3
Dotted
 72
    65
 73
     2
 40
1.0
 49
0.0
 74
     0
 49
-1.0
 74
     0
  0
LTYPE
  5
41
330
5
100
AcDbSymbolTableRecord
100
AcDbLinetypeTableRecord
  2
DOT_CENTER
 70
     0
  3
Dot_Center
 72
    65
 73
     4
 40
14.0
 49
12.0
 74
     0
 49
-1.0
 74
     0
 49
0.0
 74
     0
 49
-1.0
 74
     0
  0
LTYPE
  5
42
330
5
100
AcDbSymbolTableRecord
100
AcDbLinetypeTableRecord
  2
LONG_DASHED
 70
     0
  3
Long_Dashed
 72
    65
 73
     2
 40
15.0
 49
10.0
 74
     0
 49
-5.0
 74
     0
  0
LTYPE
  5
43
330
5
100
AcDbSymbolTableRecord
100
AcDbLinetypeTableRecord
  2
DASH_CENTER
 70
     0
  3
Dash_Center
 72
    65
 73
     4
 40
14.0
 49
11.0
 74
     0
 49
-1.0
 74
     0
 49
1.0
 74
     0
 49
-1.0
 74
     0
  0
LTYPE
  5
44
330
5
100
AcDbSymbolTableRecord
100
AcDbLinetypeTableRecord
  2
PHANTOM
 70
     0
  3
Phantom
 72
    65
 73
     6
 40
13.0
 49
10.0
 74
     0
 49
-1.0
 74
     0
 49
0.0
 74
     0
 49
-1.0
 74
     0
 49
0.0
 74
     0
 49
-1.0
 74
     0
  0
LTYPE
  5
45
330
5
100
AcDbSymbolTableRecord
100
AcDbLinetypeTableRecord
  2
CENTER_DASH_DASH
 70
     0
  3
Center_Dash_Dash
 72
    65
 73
     6
 40
14.0
 49
9.0
 74
     0
 49
-1.0
 74
     0
 49
1.0
 74
     0
 49
-1.0
 74
     0
 49
1.0
 74
     0
 49
-1.0
 74
     0
  0
ENDTAB
  0
TABLE
  2
LAYER
  5
2
330
0
100
AcDbSymbolTable
 70
     3
  0
LAYER
  5
10
330
2
100
AcDbSymbolTableRecord
100
AcDbLayerTableRecord
  2
0
 70
     0
 62
     7
  6
Continuous
370
    -3
390
F
  0
LAYER
  5
46
330
2
100
AcDbSymbolTableRecord
100
AcDbLayerTableRecord
  2
1
 70
     0
 62
     7
  6
Continuous
370
    -3
390
F
  0
LAYER
  5
47
330
2
100
AcDbSymbolTableRecord
100
AcDbLayerTableRecord
  2
_U_30EC_U_30A4_U_30E4_U_30FC_1
 70
     0
 62
     7
  6
Continuous
370
    -3
390
F
  0
ENDTAB
  0
TABLE
  2
STYLE
  5
3
330
0
100
AcDbSymbolTable
 70
     3
  0
STYLE
  5
11
330
3
100
AcDbSymbolTableRecord
100
AcDbTextStyleTableRecord
  2
Standard
 70
     0
 40
0.0
 41
1.0
 50
0.0
 71
     0
 42
0.2
  3
txt
  4

  0
STYLE
  5
B6
330
3
100
AcDbSymbolTableRecord
100
AcDbTextStyleTableRecord
  2
CONVERTER_11
 70
     0
 40
0.0
 41
0.89
 50
0.0
 71
     0
 42
0.2
  3
MS Mincho.ttf
  4

1001
ACAD
1000
MS Mincho
1071
    32785
  0
STYLE
  5
ED
330
3
100
AcDbSymbolTableRecord
100
AcDbTextStyleTableRecord
  2
CONVERTER_12
 70
     0
 40
0.0
 41
0.9
 50
0.0
 71
     0
 42
0.2
  3
txt.shx
  4

  0
ENDTAB
  0
TABLE
  2
VIEW
  5
6
330
0
100
AcDbSymbolTable
 70
     0
  0
ENDTAB
  0
TABLE
  2
UCS
  5
7
330
0
100
AcDbSymbolTable
 70
     0
  0
ENDTAB
  0
TABLE
  2
APPID
  5
9
330
0
100
AcDbSymbolTable
 70
     1
  0
APPID
  5
12
330
9
100
AcDbSymbolTableRecord
100
AcDbRegAppTableRecord
  2
ACAD
 70
     0
  0
ENDTAB
  0
TABLE
  2
DIMSTYLE
  5
A
330
0
100
AcDbSymbolTable
 70
     4
100
AcDbDimStyleTable
  0
DIMSTYLE
105
27
330
A
100
AcDbSymbolTableRecord
100
AcDbDimStyleTableRecord
  2
Standard
 70
     0
178
     0
340
11
  0
DIMSTYLE
105
103
102
{ACAD_REACTORS
330
104
102
}
330
A
100
AcDbSymbolTableRecord
100
AcDbDimStyleTableRecord
  2
ME10_DIM_10
 70
     0
 41
3.5
 42
0.0
 44
1.0
 73
     0
 74
     0
 77
     1
 78
     8
140
3.5
147
1.0
172
     1
173
     1
174
     1
175
     1
176
     2
177
     2
271
     2
178
     7
271
     2
340
ED
  0
DIMSTYLE
105
10E
102
{ACAD_REACTORS
330
10F
102
}
330
A
100
AcDbSymbolTableRecord
100
AcDbDimStyleTableRecord
  2
ME10_DIM_11
 70
     0
 41
3.5
 42
0.0
 44
1.0
 73
     0
 74
     0
 77
     1
 78
     8
140
3.5
147
1.0
172
     1
173
     1
174
     1
175
     1
176
     2
177
     2
271
     2
178
     7
271
     2
340
ED
  0
DIMSTYLE
105
119
102
{ACAD_REACTORS
330
11A
102
}
330
A
100
AcDbSymbolTableRecord
100
AcDbDimStyleTableRecord
  2
ME10_DIM_12
 70
     0
  3
{\Fgdt;n}<>
 41
3.5
 42
0.0
 44
1.0
 73
     0
 74
     0
 77
     1
 78
     8
140
3.5
147
1.0
172
     1
173
     1
174
     1
175
     1
176
     2
177
     2
271
     2
178
     7
271
     2
340
ED
  0
ENDTAB
  0
TABLE
  2
BLOCK_RECORD
  5
1
330
0
100
AcDbSymbolTable
 70
     7
  0
BLOCK_RECORD
  5
1F
330
1
100
AcDbSymbolTableRecord
100
AcDbBlockTableRecord
  2
*Model_Space
340
22
  0
BLOCK_RECORD
  5
1B
330
1
100
AcDbSymbolTableRecord
100
AcDbBlockTableRecord
  2
*Paper_Space
340
1E
  0
BLOCK_RECORD
  5
23
330
1
100
AcDbSymbolTableRecord
100
AcDbBlockTableRecord
  2
*Paper_Space0
340
26
  0
BLOCK_RECORD
  5
48
330
1
100
AcDbSymbolTableRecord
100
AcDbBlockTableRecord
  2
開示A4
340
0
102
{BLKREFS
331
4C
102
}
  0
BLOCK_RECORD
  5
4B
330
1
100
AcDbSymbolTableRecord
100
AcDbBlockTableRecord
  2
開示A4枠
340
0
102
{BLKREFS
331
52
102
}
  0
BLOCK_RECORD
  5
4F
330
1
100
AcDbSymbolTableRecord
100
AcDbBlockTableRecord
  2
futa
340
0
102
{BLKREFS
331
53
102
}
  0
BLOCK_RECORD
  5
FA
330
1
100
AcDbSymbolTableRecord
100
AcDbBlockTableRecord
  2
*D4
340
0
  0
BLOCK_RECORD
  5
105
330
1
100
AcDbSymbolTableRecord
100
AcDbBlockTableRecord
  2
*D5
340
0
  0
BLOCK_RECORD
  5
110
330
1
100
AcDbSymbolTableRecord
100
AcDbBlockTableRecord
  2
*D6
340
0
  0
ENDTAB
  0
ENDSEC
  0
SECTION
  2
BLOCKS
  0
BLOCK
  5
20
330
1F
100
AcDbEntity
  8
0
100
AcDbBlockBegin
  2
*Model_Space
 70
     0
 10
0.0
 20
0.0
 30
0.0
  3
*Model_Space
  1

  0
ENDBLK
  5
21
330
1F
100
AcDbEntity
  8
0
100
AcDbBlockEnd
  0
BLOCK
  5
1C
330
1B
100
AcDbEntity
 67
     1
  8
0
100
AcDbBlockBegin
  2
*Paper_Space
 70
     0
 10
0.0
 20
0.0
 30
0.0
  3
*Paper_Space
  1

  0
ENDBLK
  5
1D
330
1B
100
AcDbEntity
 67
     1
  8
0
100
AcDbBlockEnd
  0
BLOCK
  5
24
330
23
100
AcDbEntity
  8
0
100
AcDbBlockBegin
  2
*Paper_Space0
 70
     0
 10
0.0
 20
0.0
 30
0.0
  3
*Paper_Space0
  1

  0
ENDBLK
  5
25
330
23
100
AcDbEntity
  8
0
100
AcDbBlockEnd
  0
BLOCK
  5
49
330
48
100
AcDbEntity
  8
0
100
AcDbBlockBegin
  2
開示A4
 70
     0
 10
0.0
 20
-0.00000000000002
 30
0.0
  3
開示A4
  1

  0
POINT
  5
54
330
48
100
AcDbEntity
  8
1
 62
     4
100
AcDbPoint
 10
183.0
 20
14.99999999999999
 30
0.0
  0
POINT
  5
55
330
48
100
AcDbEntity
  8
1
 62
     4
100
AcDbPoint
 10
93.75000000000003
 20
16.99999999999997
 30
0.0
  0
POINT
  5
56
330
48
100
AcDbEntity
  8
1
 62
     4
100
AcDbPoint
 10
85.25
 20
16.99999999999997
 30
0.0
  0
POINT
  5
57
330
48
100
AcDbEntity
  8
1
 62
     4
100
AcDbPoint
 10
106.5
 20
18.99999999999999
 30
0.0
  0
POINT
  5
58
330
48
100
AcDbEntity
  8
1
 62
     4
100
AcDbPoint
 10
106.5
 20
12.49999999999997
 30
0.0
  0
POINT
  5
59
330
48
100
AcDbEntity
  8
1
 62
     4
100
AcDbPoint
 10
112.25
 20
12.49999999999997
 30
0.0
  0
POINT
  5
5A
330
48
100
AcDbEntity
  8
1
 62
     4
100
AcDbPoint
 10
100.75
 20
12.49999999999997
 30
0.0
  0
POINT
  5
5B
330
48
100
AcDbEntity
  8
1
 62
     4
100
AcDbPoint
 10
123.5
 20
18.99999999999999
 30
0.0
  0
POINT
  5
5C
330
48
100
AcDbEntity
  8
1
 62
     4
100
AcDbPoint
 10
123.5
 20
12.49999999999997
 30
0.0
  0
POINT
  5
5D
330
48
100
AcDbEntity
  8
1
 62
     4
100
AcDbPoint
 10
129.25
 20
12.49999999999997
 30
0.0
  0
POINT
  5
5E
330
48
100
AcDbEntity
  8
1
 62
     4
100
AcDbPoint
 10
117.75
 20
12.49999999999997
 30
0.0
  0
POINT
  5
5F
330
48
100
AcDbEntity
  8
1
 62
     4
100
AcDbPoint
 10
140.5
 20
18.99999999999999
 30
0.0
  0
POINT
  5
60
330
48
100
AcDbEntity
  8
1
 62
     4
100
AcDbPoint
 10
140.5
 20
12.49999999999997
 30
0.0
  0
POINT
  5
61
330
48
100
AcDbEntity
  8
1
 62
     4
100
AcDbPoint
 10
146.25
 20
12.49999999999997
 30
0.0
  0
POINT
  5
62
330
48
100
AcDbEntity
  8
1
 62
     4
100
AcDbPoint
 10
134.75
 20
12.49999999999997
 30
0.0
  0
POINT
  5
63
330
48
100
AcDbEntity
  8
1
 62
     4
100
AcDbPoint
 10
151.75
 20
12.49999999999997
 30
0.0
  0
POINT
  5
64
330
48
100
AcDbEntity
  8
1
 62
     4
100
AcDbPoint
 10
163.25
 20
12.49999999999997
 30
0.0
  0
POINT
  5
65
330
48
100
AcDbEntity
  8
1
 62
     4
100
AcDbPoint
 10
157.5
 20
12.49999999999997
 30
0.0
  0
POINT
  5
66
330
48
100
AcDbEntity
  8
1
 62
     4
100
AcDbPoint
 10
57.0
 20
14.24999999999997
 30
0.0
  0
POINT
  5
67
330
48
100
AcDbEntity
  8
1
 62
     4
100
AcDbPoint
 10
57.0
 20
22.74999999999999
 30
0.0
  0
POINT
  5
68
330
48
100
AcDbEntity
  8
1
 62
     4
100
AcDbPoint
 10
47.5
 20
282.0000000000002
 30
0.0
  0
POINT
  5
69
330
48
100
AcDbEntity
  8
1
 62
     4
100
AcDbPoint
 10
157.5
 20
18.99999999999999
 30
0.0
  0
POINT
  5
6A
330
48
100
AcDbEntity
  8
1
 62
     4
100
AcDbPoint
 10
57.0
 20
16.24999999999997
 30
0.0
  0
POINT
  5
6B
330
48
100
AcDbEntity
  8
1
 62
     4
100
AcDbPoint
 10
57.0
 20
24.74999999999998
 30
0.0
  0
POINT
  5
6C
330
48
100
AcDbEntity
  8
1
 62
     4
100
AcDbPoint
 10
57.0
 20
20.74999999999999
 30
0.0
  0
POINT
  5
6D
330
48
100
AcDbEntity
  8
1
 62
     4
100
AcDbPoint
 10
57.0
 20
12.24999999999997
 30
0.0
  0
POINT
  5
6E
330
48
100
AcDbEntity
  8
1
 62
     4
100
AcDbPoint
 10
34.0
 20
33.99999999999999
 30
0.0
  0
LINE
  5
73
330
48
100
AcDbEntity
  8
1
  6
Continuous
 62
     7
100
AcDbLine
 10
105.0
 20
9.99999999999997
 30
0.0
 11
200.0
 21
9.99999999999997
 31
0.0
  0
LINE
  5
74
330
48
100
AcDbEntity
  8
1
  6
Continuous
 62
     2
100
AcDbLine
 10
105.0
 20
9.99999999999997
 30
0.0
 11
105.0
 21
4.99999999999998
 31
0.0
  0
LINE
  5
75
330
48
100
AcDbEntity
  8
1
  6
Continuous
 62
     7
100
AcDbLine
 10
200.0
 20
148.4999999999999
 30
0.0
 11
200.0
 21
287.0000000000002
 31
0.0
  0
LINE
  5
76
330
48
100
AcDbEntity
  8
1
  6
Continuous
 62
     2
100
AcDbLine
 10
200.0
 20
148.4999999999999
 30
0.0
 11
205.0
 21
148.4999999999999
 31
0.0
  0
LINE
  5
77
330
48
100
AcDbEntity
  8
1
  6
Continuous
 62
     7
100
AcDbLine
 10
25.0
 20
148.4999999999999
 30
0.0
 11
25.0
 21
287.0000000000002
 31
0.0
  0
LINE
  5
78
330
48
100
AcDbEntity
  8
1
  6
Continuous
 62
     2
100
AcDbLine
 10
25.0
 20
148.4999999999999
 30
0.0
 11
20.0
 21
148.4999999999999
 31
0.0
  0
LINE
  5
79
330
48
100
AcDbEntity
  8
1
  6
Continuous
 62
     7
100
AcDbLine
 10
105.0
 20
287.0000000000002
 30
0.0
 11
25.0
 21
287.0000000000002
 31
0.0
  0
LINE
  5
7A
330
48
100
AcDbEntity
  8
1
  6
Continuous
 62
     2
100
AcDbLine
 10
105.0
 20
287.0000000000002
 30
0.0
 11
105.0
 21
292.0000000000002
 31
0.0
  0
LINE
  5
7B
330
48
100
AcDbEntity
  8
1
  6
Continuous
 62
     2
100
AcDbLine
 10
166.0
 20
19.99999999999999
 30
0.0
 11
200.0
 21
19.99999999999999
 31
0.0
  0
LINE
  5
7C
330
48
100
AcDbEntity
  8
1
  6
Continuous
 62
     2
100
AcDbLine
 10
98.00000000000003
 20
26.99999999999998
 30
0.0
 11
98.00000000000003
 21
9.99999999999997
 31
0.0
  0
LINE
  5
7D
330
48
100
AcDbEntity
  8
1
  6
Continuous
 62
     2
100
AcDbLine
 10
115.0
 20
26.99999999999998
 30
0.0
 11
115.0
 21
9.99999999999997
 31
0.0
  0
LINE
  5
7E
330
48
100
AcDbEntity
  8
1
  6
Continuous
 62
     2
100
AcDbLine
 10
149.0
 20
26.99999999999998
 30
0.0
 11
149.0
 21
9.99999999999997
 31
0.0
  0
LINE
  5
7F
330
48
100
AcDbEntity
  8
1
  6
Continuous
 62
     2
100
AcDbLine
 10
132.0
 20
26.99999999999998
 30
0.0
 11
132.0
 21
9.99999999999997
 31
0.0
  0
LINE
  5
80
330
48
100
AcDbEntity
  8
1
  6
Continuous
 62
     2
100
AcDbLine
 10
166.0
 20
26.99999999999998
 30
0.0
 11
166.0
 21
9.99999999999997
 31
0.0
  0
LINE
  5
81
330
48
100
AcDbEntity
  8
1
  6
Continuous
 62
     2
100
AcDbLine
 10
55.0
 20
277.0000000000002
 30
0.0
 11
25.0
 21
277.0000000000002
 31
0.0
  0
LINE
  5
82
330
48
100
AcDbEntity
  8
1
  6
Continuous
 62
     7
100
AcDbLine
 10
25.0
 20
9.99999999999997
 30
0.0
 11
25.0
 21
148.4999999999999
 31
0.0
  0
LINE
  5
83
330
48
100
AcDbEntity
  8
1
  6
Continuous
 62
     2
100
AcDbLine
 10
40.0
 20
287.0000000000002
 30
0.0
 11
40.0
 21
277.0000000000002
 31
0.0
  0
LINE
  5
84
330
48
100
AcDbEntity
  8
1
  6
Continuous
 62
     2
100
AcDbLine
 10
55.0
 20
287.0000000000002
 30
0.0
 11
55.0
 21
277.0000000000002
 31
0.0
  0
LINE
  5
85
330
48
100
AcDbEntity
  8
1
  6
Continuous
 62
     2
100
AcDbLine
 10
33.0
 20
40.99999999999999
 30
0.0
 11
33.0
 21
26.99999999999997
 31
0.0
  0
LINE
  5
86
330
48
100
AcDbEntity
  8
1
  6
Continuous
 62
     7
100
AcDbLine
 10
200.0
 20
26.99999999999998
 30
0.0
 11
25.0
 21
26.99999999999998
 31
0.0
  0
LINE
  5
87
330
48
100
AcDbEntity
  8
1
  6
Continuous
 62
     7
100
AcDbLine
 10
25.0
 20
40.99999999999997
 30
0.0
 11
200.0
 21
40.99999999999997
 31
0.0
  0
LINE
  5
88
330
48
100
AcDbEntity
  8
1
  6
PHANTOM
 62
     4
100
AcDbLine
 10
0.0
 20
-0.00000000000002
 30
0.0
 11
210.0
 21
-0.00000000000002
 31
0.0
  0
LINE
  5
89
330
48
100
AcDbEntity
  8
1
  6
PHANTOM
 62
     4
100
AcDbLine
 10
210.0
 20
-0.00000000000002
 30
0.0
 11
210.0
 21
296.9999999999999
 31
0.0
  0
LINE
  5
8A
330
48
100
AcDbEntity
  8
1
  6
PHANTOM
 62
     4
100
AcDbLine
 10
210.0
 20
296.9999999999999
 30
0.0
 11
0.0
 21
296.9999999999999
 31
0.0
  0
LINE
  5
8B
330
48
100
AcDbEntity
  8
1
  6
PHANTOM
 62
     4
100
AcDbLine
 10
0.0
 20
296.9999999999999
 30
0.0
 11
0.0
 21
-0.00000000000002
 31
0.0
  0
LINE
  5
8C
330
48
100
AcDbEntity
  8
1
  6
Continuous
 62
     7
100
AcDbLine
 10
25.0
 20
9.99999999999997
 30
0.0
 11
105.0
 21
9.99999999999997
 31
0.0
  0
LINE
  5
8D
330
48
100
AcDbEntity
  8
1
  6
Continuous
 62
     7
100
AcDbLine
 10
200.0
 20
9.99999999999997
 30
0.0
 11
200.0
 21
148.4999999999999
 31
0.0
  0
LINE
  5
8E
330
48
100
AcDbEntity
  8
1
  6
Continuous
 62
     7
100
AcDbLine
 10
200.0
 20
287.0000000000002
 30
0.0
 11
105.0
 21
287.0000000000002
 31
0.0
  0
LINE
  5
8F
330
48
100
AcDbEntity
  8
1
  6
Continuous
 62
     2
100
AcDbLine
 10
25.0
 20
18.49999999999999
 30
0.0
 11
81.0
 21
18.49999999999999
 31
0.0
  0
LINE
  5
90
330
48
100
AcDbEntity
  8
1
  6
Continuous
 62
     2
100
AcDbLine
 10
33.0
 20
26.99999999999997
 30
0.0
 11
33.0
 21
9.99999999999997
 31
0.0
  0
LINE
  5
91
330
48
100
AcDbEntity
  8
1
  6
Continuous
 62
     7
100
AcDbLine
 10
191.0
 20
24.69999999999999
 30
0.0
 11
191.0
 21
22.29999999999998
 31
0.0
  0
LINE
  5
92
330
48
100
AcDbEntity
  8
1
  6
Continuous
 62
     7
100
AcDbLine
 10
191.0
 20
24.69999999999999
 30
0.0
 11
196.0
 21
25.49999999999998
 31
0.0
  0
LINE
  5
93
330
48
100
AcDbEntity
  8
1
  6
Continuous
 62
     7
100
AcDbLine
 10
196.0
 20
25.49999999999998
 30
0.0
 11
196.0
 21
21.49999999999999
 31
0.0
  0
LINE
  5
94
330
48
100
AcDbEntity
  8
1
  6
Continuous
 62
     7
100
AcDbLine
 10
196.0
 20
21.49999999999999
 30
0.0
 11
191.0
 21
22.29999999999998
 31
0.0
  0
LINE
  5
95
330
48
100
AcDbEntity
  8
1
  6
DOT_CENTER
 62
     2
100
AcDbLine
 10
184.0
 20
23.49999999999999
 30
0.0
 11
197.0
 21
23.49999999999999
 31
0.0
  0
LINE
  5
96
330
48
100
AcDbEntity
  8
1
  6
DOT_CENTER
 62
     2
100
AcDbLine
 10
187.0
 20
26.49999999999998
 30
0.0
 11
187.0
 21
20.49999999999999
 31
0.0
  0
LINE
  5
97
330
48
100
AcDbEntity
  8
1
  6
Continuous
 62
     2
100
AcDbLine
 10
81.0
 20
26.99999999999998
 30
0.0
 11
81.0
 21
9.99999999999997
 31
0.0
  0
CIRCLE
  5
98
330
48
100
AcDbEntity
  8
1
  6
Continuous
 62
     7
100
AcDbCircle
 10
103.5
 20
12.49999999999997
 30
0.0
 40
0.2999999999999972
  0
CIRCLE
  5
99
330
48
100
AcDbEntity
  8
1
  6
Continuous
 62
     7
100
AcDbCircle
 10
109.5
 20
12.49999999999997
 30
0.0
 40
0.2999999999999972
  0
CIRCLE
  5
9A
330
48
100
AcDbEntity
  8
1
  6
Continuous
 62
     7
100
AcDbCircle
 10
120.5
 20
12.49999999999997
 30
0.0
 40
0.2999999999999972
  0
CIRCLE
  5
9B
330
48
100
AcDbEntity
  8
1
  6
Continuous
 62
     7
100
AcDbCircle
 10
126.5
 20
12.49999999999997
 30
0.0
 40
0.2999999999999972
  0
CIRCLE
  5
9C
330
48
100
AcDbEntity
  8
1
  6
Continuous
 62
     7
100
AcDbCircle
 10
137.5
 20
12.49999999999997
 30
0.0
 40
0.3000000000000114
  0
CIRCLE
  5
9D
330
48
100
AcDbEntity
  8
1
  6
Continuous
 62
     7
100
AcDbCircle
 10
143.5
 20
12.49999999999997
 30
0.0
 40
0.3000000000000114
  0
CIRCLE
  5
9E
330
48
100
AcDbEntity
  8
1
  6
Continuous
 62
     7
100
AcDbCircle
 10
160.5
 20
12.49999999999997
 30
0.0
 40
0.3000000000000114
  0
CIRCLE
  5
9F
330
48
100
AcDbEntity
  8
1
  6
Continuous
 62
     7
100
AcDbCircle
 10
154.5
 20
12.49999999999997
 30
0.0
 40
0.3000000000000114
  0
CIRCLE
  5
A0
330
48
100
AcDbEntity
  8
1
  6
Continuous
 62
     7
100
AcDbCircle
 10
187.0
 20
23.49999999999999
 30
0.0
 40
1.200000000000102
  0
CIRCLE
  5
A1
330
48
100
AcDbEntity
  8
1
  6
Continuous
 62
     7
100
AcDbCircle
 10
187.0
 20
23.49999999999999
 30
0.0
 40
2.0
  0
CIRCLE
  5
A2
330
48
100
AcDbEntity
  8
1
  6
DOT_CENTER
 62
     7
100
AcDbCircle
 10
89.5
 20
15.99999999999997
 30
0.0
 40
0.1000000000000227
  0
CIRCLE
  5
A3
330
48
100
AcDbEntity
  8
1
  6
DOT_CENTER
 62
     7
100
AcDbCircle
 10
89.5
 20
17.99999999999997
 30
0.0
 40
0.1000000000000227
  0
SPLINE
  5
A4
102
{ACAD_REACTORS
330
C3
102
}
330
48
100
AcDbEntity
  8
_U_30EC_U_30A4_U_30E4_U_30FC_1
  6
Continuous
 62
     2
100
AcDbSpline
210
0.0
220
0.0
230
1.0
 70
     8
 71
     3
 72
    24
 73
    20
 74
    18
 42
0.000000001
 43
0.0000000001
 44
0.00000001
 40
0.0
 40
0.0
 40
0.0
 40
0.0
 40
0.221107500875387
 40
0.427321858624527
 40
0.5080174679239211
 40
0.5914835907870105
 40
0.8143265690192589
 40
1.05465130268657
 40
1.295452694023156
 40
1.518109231328815
 40
1.54086432190543
 40
1.595126460622692
 40
1.659890947896004
 40
1.714153085187363
 40
1.736908174961663
 40
1.764951100735352
 40
1.801562291220942
 40
1.953914424543615
 40
2.126104167379697
 40
2.126104167379697
 40
2.126104167379697
 40
2.126104167379697
 10
185.9375369556889
 20
15.58989295113014
 30
0.0
 10
185.9112579081811
 20
15.53097628234372
 30
0.0
 10
185.8604698894426
 20
15.41711139679255
 30
0.0
 10
185.8131784839111
 20
15.14441958233116
 30
0.0
 10
185.7043482802618
 20
15.24445482575452
 30
0.0
 10
185.5514800279637
 20
15.27118593367329
 30
0.0
 10
185.7686155181199
 20
15.4851813501763
 30
0.0
 10
185.783848367438
 20
15.70332117782484
 30
0.0
 10
185.8906889492001
 20
15.88451579066424
 30
0.0
 10
185.8305380947077
 20
16.16913226311399
 30
0.0
 10
185.9334317395402
 20
16.14114089222448
 30
0.0
 10
185.977993346815
 20
16.13243251602297
 30
0.0
 10
186.0380842395396
 20
16.12139654183353
 30
0.0
 10
186.0756619587439
 20
16.10767523055557
 30
0.0
 10
186.1252466928605
 20
16.1075607616022
 30
0.0
 10
186.0930158919325
 20
16.07306592398621
 30
0.0
 10
186.017180222188
 20
16.08404104537961
 30
0.0
 10
186.0429447159694
 20
15.89858969582448
 30
0.0
 10
186.005589676385
 20
15.80702313549587
 30
0.0
 10
185.9857704961609
 20
15.75844135397703
 30
0.0
 11
185.9375369556889
 21
15.58989295113014
 31
0.0
 11
185.8616471328552
 21
15.38221708318557
 31
0.0
 11
185.7717402238433
 21
15.19663392356191
 31
0.0
 11
185.701149392311
 21
15.23573272563548
 31
0.0
 11
185.6245525192651
 21
15.26889163187717
 31
0.0
 11
185.7214026947455
 21
15.46958801203535
 31
0.0
 11
185.7994641467471
 21
15.69688163177021
 31
0.0
 11
185.858971692972
 21
15.93021436608689
 31
0.0
 11
185.9001601511226
 21
16.14902808999052
 31
0.0
 11
185.9224183822214
 21
16.14429889221393
 31
0.0
 11
185.975495702534
 21
16.13302157443897
 31
0.0
 11
186.0388460525844
 21
16.1195615499979
 31
0.0
 11
186.091923372897
 21
16.10828423222294
 31
0.0
 11
186.1141816039958
 21
16.10355503444635
 31
0.0
 11
186.096409715746
 21
16.08186250841008
 31
0.0
 11
186.0606122998071
 21
16.07418628445365
 31
0.0
 11
186.028195330148
 21
15.92532288171311
 31
0.0
 11
185.9857704961609
 21
15.75844135397703
 31
0.0
  0
SPLINE
  5
A5
102
{ACAD_REACTORS
330
C3
102
}
330
48
100
AcDbEntity
  8
_U_30EC_U_30A4_U_30E4_U_30FC_1
  6
Continuous
 62
     2
100
AcDbSpline
210
0.0
220
0.0
230
1.0
 70
     8
 71
     3
 72
    70
 73
    66
 74
    64
 42
0.000000001
 43
0.0000000001
 44
0.00000001
 40
0.0
 40
0.0
 40
0.0
 40
0.0
 40
0.0241731073021472
 40
0.0846058988987013
 40
0.1631685280353284
 40
0.2417311571789756
 40
0.3021639488292751
 40
0.3263370654895541
 40
0.3533118254248899
 40
0.4228783438922129
 40
0.5179999095313402
 40
0.6216398239466084
 40
0.7167613891499688
 40
0.7863279069649846
 40
0.8133026791761818
 40
0.8372943998771656
 40
0.8945054261372849
 40
0.9627895541962621
 40
1.020000580349072
 40
1.04399230097517
 40
1.071934345522903
 40
1.113121768772915
 40
1.14522519933224
 40
1.225483775412775
 40
1.329819923771483
 40
1.434156071994373
 40
1.514414647795792
 40
1.5465180782084
 40
1.578974764260174
 40
1.662678849314169
 40
1.777131373668389
 40
1.90183337747478
 40
2.01628590050057
 40
2.099989982527937
 40
2.132446666570296
 40
2.15878235448602
 40
2.216720867907808
 40
2.274659381334232
 40
2.300995069256166
 40
2.333451754066138
 40
2.417155836543818
 40
2.531608358985258
 40
2.656310362283753
 40
2.770762886388885
 40
2.854466971340051
 40
2.886923657363857
 40
2.913597976833291
 40
2.982389642875093
 40
3.076451716946959
 40
3.178937260458573
 40
3.272999334739978
 40
3.341791001059201
 40
3.368465320663512
 40
3.396976080738733
 40
3.47214081184597
 40
3.578408190308659
 40
3.700226892456095
 40
3.822045594634313
 40
3.928312973256419
 40
4.003477705314817
 40
4.031988456866882
 40
4.05832414479768
 40
4.116262658236842
 40
4.174201171400641
 40
4.200536849608573
 40
4.200536849608573
 40
4.200536849608573
 40
4.200536849608573
 10
185.9857704961609
 20
15.75844135397703
 30
0.0
 10
185.9938259544679
 20
15.75844359811684
 30
0.0
 10
186.0220200663241
 20
15.75845146032796
 30
0.0
 10
186.0765534803672
 20
15.7583075482837
 30
0.0
 10
186.1482891808604
 20
15.75909120499896
 30
0.0
 10
186.2236240137062
 20
15.75627570463809
 30
0.0
 10
186.2713052366439
 20
15.76298403400955
 30
0.0
 10
186.3195071245616
 20
15.7519756369243
 30
0.0
 10
186.3062571799873
 20
15.80546402997031
 30
0.0
 10
186.3151093964538
 20
15.86049583543089
 30
0.0
 10
186.3108698036285
 20
15.95419908726107
 30
0.0
 10
186.313348348128
 20
16.0495948221853
 30
0.0
 10
186.309093870606
 20
16.14356821983385
 30
0.0
 10
186.3179818665846
 20
16.1979506243801
 30
0.0
 10
186.3046977409945
 20
16.25233997691458
 30
0.0
 10
186.3514119277109
 20
16.23842216335355
 30
0.0
 10
186.3943254545736
 20
16.24103877374042
 30
0.0
 10
186.4605443456684
 20
16.23648422450752
 30
0.0
 10
186.5013342271799
 20
16.2277816213416
 30
0.0
 10
186.5525145690818
 20
16.23531799890193
 30
0.0
 10
186.5253720487201
 20
16.19349970223283
 30
0.0
 10
186.4803096055707
 20
16.20284992072594
 30
0.0
 10
186.4942065045051
 20
16.13841207371835
 30
0.0
 10
186.4858414431653
 20
16.07378219627397
 30
0.0
 10
186.4903632178398
 20
15.97529141193885
 30
0.0
 10
186.4854741311167
 20
15.87595932842568
 30
0.0
 10
186.4950258992082
 20
15.81293115552967
 30
0.0
 10
186.47997614552
 20
15.74964011499786
 30
0.0
 10
186.5449159457208
 20
15.76515072944267
 30
0.0
 10
186.6116246399496
 20
15.7549938769781
 30
0.0
 10
186.7241435470828
 20
15.75988800099365
 30
0.0
 10
186.8390235448954
 20
15.75691204732782
 30
0.0
 10
186.9519871999747
 20
15.76221664184989
 30
0.0
 10
187.0176267597678
 20
15.75107306472087
 30
0.0
 10
187.0816276691053
 20
15.76744532319855
 30
0.0
 10
187.070314288919
 20
15.71761689905273
 30
0.0
 10
187.0775339871509
 20
15.67416715212121
 30
0.0
 10
187.0703142611269
 20
15.63071745587442
 30
0.0
 10
187.0816277175994
 20
15.58088895196875
 30
0.0
 10
187.0176263598971
 20
15.5972616609136
 30
0.0
 10
186.951992124046
 20
15.58611271661586
 30
0.0
 10
186.838997431733
 20
15.59144857206852
 30
0.0
 10
186.7242456548644
 20
15.5883434566382
 30
0.0
 10
186.611318368686
 20
15.59364894682586
 30
0.0
 10
186.5455220903585
 20
15.58257300019592
 30
0.0
 10
186.4816097975358
 20
15.59887597847615
 30
0.0
 10
186.4936015165126
 20
15.5442352439574
 30
0.0
 10
186.4862104613005
 20
15.4885429504784
 30
0.0
 10
186.4892684841983
 20
15.39649689140568
 30
0.0
 10
186.4893422785683
 20
15.30179109873099
 30
0.0
 10
186.4860313578359
 20
15.20952782902263
 30
0.0
 10
186.4939505989904
 20
15.15435768736138
 30
0.0
 10
186.4815076611617
 20
15.10058169100134
 30
0.0
 10
186.5389116551632
 20
15.11453768862778
 30
0.0
 10
186.5994708140383
 20
15.10511457884224
 30
0.0
 10
186.7048680855081
 20
15.10942885928702
 30
0.0
 10
186.8204294070622
 20
15.10835504612029
 30
0.0
 10
186.9359688877797
 20
15.10725965900993
 30
0.0
 10
187.0414181130841
 20
15.1116252577063
 30
0.0
 10
187.1018680471804
 20
15.10209426030669
 30
0.0
 10
187.159283773911
 20
15.11617289606377
 30
0.0
 10
187.1477773876709
 20
15.06707153265681
 30
0.0
 10
187.153756678175
 20
15.02564658018647
 30
0.0
 10
187.1520311050801
 20
14.97651677966694
 30
0.0
 10
187.1521500122971
 20
14.94854428447606
 30
0.0
 10
187.1521871691833
 20
14.93980288195948
 30
0.0
 11
185.9857704961609
 21
15.75844135397703
 31
0.0
 11
186.0099436128282
 21
15.75844135397703
 31
0.0
 11
186.0703764044962
 21
15.75844135397703
 31
0.0
 11
186.1489390336648
 21
15.75844135397703
 31
0.0
 11
186.2275016628334
 21
15.75844135397703
 31
0.0
 11
186.2879344545015
 21
15.75844135397703
 31
0.0
 11
186.3121075711687
 21
15.75844135397703
 31
0.0
 11
186.3121075711687
 21
15.78541612620061
 31
0.0
 11
186.3121075711687
 21
15.85498264404037
 31
0.0
 11
186.3121075711687
 21
15.95010420924983
 31
0.0
 11
186.3121075711687
 21
16.05374412358254
 31
0.0
 11
186.3121075711687
 21
16.148865688792
 31
0.0
 11
186.3121075711687
 21
16.21843220663176
 31
0.0
 11
186.3121075711687
 21
16.24540697885534
 31
0.0
 11
186.3360407604892
 21
16.24373213107798
 31
0.0
 11
186.3931122119458
 21
16.2397382633012
 31
0.0
 11
186.461229750781
 21
16.23497138885793
 31
0.0
 11
186.5183012022376
 21
16.23097752108115
 31
0.0
 11
186.5422343915581
 21
16.22930267330379
 31
0.0
 11
186.5274972731229
 21
16.20556293372638
 31
0.0
 11
186.4886640249976
 21
16.1918376733131
 31
0.0
 11
186.4886640249976
 21
16.15973424225117
 31
0.0
 11
186.4886640249976
 21
16.07947566459634
 31
0.0
 11
186.4886640249976
 21
15.97513951364506
 31
0.0
 11
186.4886640249976
 21
15.87080336269379
 31
0.0
 11
186.4886640249976
 21
15.79054478503896
 31
0.0
 11
186.4886640249976
 21
15.75844135397703
 31
0.0
 11
186.5211207110824
 21
15.75844135397703
 31
0.0
 11
186.6048247962486
 21
15.75844135397703
 31
0.0
 11
186.7192773208634
 21
15.75844135397703
 31
0.0
 11
186.8439793252946
 21
15.75844135397703
 31
0.0
 11
186.9584318499095
 21
15.75844135397703
 31
0.0
 11
187.0421359350756
 21
15.75844135397703
 31
0.0
 11
187.0745926211604
 21
15.75844135397703
 31
0.0
 11
187.0745926211604
 21
15.73210566604959
 31
0.0
 11
187.0745926211604
 21
15.67416715260923
 31
0.0
 11
187.0745926211604
 21
15.61622863916886
 31
0.0
 11
187.0745926211604
 21
15.58989295124142
 31
0.0
 11
187.0421359350756
 21
15.58989295124142
 31
0.0
 11
186.9584318499095
 21
15.58989295124142
 31
0.0
 11
186.8439793252946
 21
15.58989295124142
 31
0.0
 11
186.7192773208634
 21
15.58989295124142
 31
0.0
 11
186.6048247962485
 21
15.58989295124142
 31
0.0
 11
186.5211207110824
 21
15.58989295124142
 31
0.0
 11
186.4886640249976
 21
15.58989295124142
 31
0.0
 11
186.4886640249976
 21
15.5632186315202
 31
0.0
 11
186.4886640249976
 21
15.49442696487073
 31
0.0
 11
186.4886640249976
 21
15.40036489006432
 31
0.0
 11
186.4886640249976
 21
15.29787934587225
 31
0.0
 11
186.4886640249976
 21
15.20381727106584
 31
0.0
 11
186.4886640249976
 21
15.13502560441637
 31
0.0
 11
186.4886640249976
 21
15.10835128469515
 31
0.0
 11
186.5171747850993
 21
15.10835128469515
 31
0.0
 11
186.5923395162766
 21
15.10835128469515
 31
0.0
 11
186.6986068948376
 21
15.10835128469515
 31
0.0
 11
186.8204255970904
 21
15.10835128469515
 31
0.0
 11
186.9422442993433
 21
15.10835128469515
 31
0.0
 11
187.0485116779043
 21
15.10835128469515
 31
0.0
 11
187.1236764090816
 21
15.10835128469515
 31
0.0
 11
187.1521871691833
 21
15.10835128469515
 31
0.0
 11
187.1521871691833
 21
15.0820155967677
 31
0.0
 11
187.1521871691833
 21
15.02407708332731
 31
0.0
 11
187.1521871691833
 21
14.96613856988693
 31
0.0
 11
187.1521871691833
 21
14.93980288195948
 31
0.0
  0
SPLINE
  5
A6
102
{ACAD_REACTORS
330
C3
102
}
330
48
100
AcDbEntity
  8
_U_30EC_U_30A4_U_30E4_U_30FC_1
  6
Continuous
 62
     2
100
AcDbSpline
210
0.0
220
0.0
230
1.0
 70
     8
 71
     3
 72
    62
 73
    58
 74
    56
 42
0.000000001
 43
0.0000000001
 44
0.00000001
 40
0.0
 40
0.0
 40
0.0
 40
0.0
 40
0.0598250028308485
 40
0.2024846486897331
 40
0.3727558389221031
 40
0.515415484793607
 40
0.5752404975785339
 40
0.9332326775487246
 40
1.290451762839475
 40
1.602077253145876
 40
1.699931634112132
 40
1.799359756425049
 40
2.270120149657084
 40
2.804661928461549
 40
2.882342287383262
 40
3.076543185719114
 40
3.329004354835578
 40
3.581465524568408
 40
3.775666424543692
 40
3.853346784558314
 40
3.89912067959506
 40
3.984129341792058
 40
4.029903236817406
 40
4.10579749605956
 40
4.295533144152522
 40
4.542189486611768
 40
4.78884582887572
 40
4.978581476410104
 40
5.054475735244349
 40
5.621734664339373
 40
6.130867242037379
 40
6.225249780948622
 40
6.318913039727315
 40
6.663579954558939
 40
7.047498900224793
 40
7.435230791575721
 40
7.498943906668133
 40
7.650875181210127
 40
7.832212509001637
 40
7.984143783697023
 40
8.04785689890315
 40
8.091554632732656
 40
8.172707566964315
 40
8.216405300768036
 40
8.289021782160921
 40
8.462184160757294
 40
8.668861838005375
 40
8.842024215263967
 40
8.914640695475162
 40
8.989881580861367
 40
9.155411528827276
 40
9.32094147774406
 40
9.396182352487312
 40
9.454709011143859
 40
9.583467660170793
 40
9.712226309013072
 40
9.770752957989526
 40
9.770752957989526
 40
9.770752957989526
 40
9.770752957989526
 10
187.1521871691833
 20
14.93980288195948
 30
0.0
 10
187.1322348171623
 20
14.93980875568669
 30
0.0
 10
187.0647037716466
 20
14.93982863806155
 30
0.0
 10
186.9410612161788
 20
14.93949362520324
 30
0.0
 10
186.7863180150056
 20
14.9410767375051
 30
0.0
 10
186.669734948248
 20
14.93686078860493
 30
0.0
 10
186.4550942634241
 20
14.95215205331624
 30
0.0
 10
186.8518948407228
 20
14.5919872128619
 30
0.0
 10
186.8945656069267
 20
14.37510503397164
 30
0.0
 10
187.3189162146612
 20
14.19325062511444
 30
0.0
 10
187.1439821496074
 20
14.0898519656807
 30
0.0
 10
187.0194523925084
 20
13.87831523212722
 30
0.0
 10
186.7666277235942
 20
14.34806081001559
 30
0.0
 10
186.4797602893627
 20
14.9951151698452
 30
0.0
 10
186.4906335926659
 20
14.68782672154692
 30
0.0
 10
186.488289277796
 20
14.52288616971776
 30
0.0
 10
186.4861096126411
 20
14.28879670711691
 30
0.0
 10
186.4980774396346
 20
14.0449807242178
 30
0.0
 10
186.468798474063
 20
13.89855796860982
 30
0.0
 10
186.511452262547
 20
13.75113490174535
 30
0.0
 10
186.4239814005639
 20
13.76685797306217
 30
0.0
 10
186.3768527606744
 20
13.76694303543452
 30
0.0
 10
186.2898973207713
 20
13.75109425482906
 30
0.0
 10
186.3313474021722
 20
13.8952777142276
 30
0.0
 10
186.3029875004285
 20
14.03855052698452
 30
0.0
 10
186.3145973775299
 20
14.27674947365262
 30
0.0
 10
186.3124175648272
 20
14.50517235240344
 30
0.0
 10
186.3103111127993
 20
14.66705729375993
 30
0.0
 10
186.3208035438323
 20
14.98153709333749
 30
0.0
 10
186.0128963252893
 20
14.29229470872433
 30
0.0
 10
185.7055258267456
 20
13.81476750243052
 30
0.0
 10
185.5851367066274
 20
14.03741112637424
 30
0.0
 10
185.4074607910721
 20
14.15011034955564
 30
0.0
 10
185.8853326362895
 20
14.32548143465459
 30
0.0
 10
185.9353959057207
 20
14.56091929252029
 30
0.0
 10
186.3583799621717
 20
14.95322989344605
 30
0.0
 10
186.127675427354
 20
14.93655307029064
 30
0.0
 10
186.004968585934
 20
14.94269518948768
 30
0.0
 10
185.8325483095661
 20
14.93312822699571
 30
0.0
 10
185.721322469445
 20
14.95448818489665
 30
0.0
 10
185.6025779627447
 20
14.92136265357417
 30
0.0
 10
185.6183169706686
 20
15.00203900606882
 30
0.0
 10
185.6178550933762
 20
15.04645414290852
 30
0.0
 10
185.6027881889931
 20
15.12967081778531
 30
0.0
 10
185.7372380935443
 20
15.0906265198388
 30
0.0
 10
185.8619755545746
 20
15.1173972932842
 30
0.0
 10
186.062875523728
 20
15.10063949044051
 30
0.0
 10
186.1921540949352
 20
15.12204225913002
 30
0.0
 10
186.3328419928295
 20
15.08868778853419
 30
0.0
 10
186.2980927452614
 20
15.22651875785066
 30
0.0
 10
186.3222185666714
 20
15.34963257349479
 30
0.0
 10
186.2967086182392
 20
15.47024055670333
 30
0.0
 10
186.3333251146684
 20
15.60539865141492
 30
0.0
 10
186.2211417027769
 20
15.58094545781889
 30
0.0
 10
186.1280356457136
 20
15.59307749842021
 30
0.0
 10
186.0191547579819
 20
15.58957630069991
 30
0.0
 10
185.9569697640964
 20
15.58981755951601
 30
0.0
 10
185.9375369557246
 20
15.58989295124142
 30
0.0
 11
187.1521871691833
 21
14.93980288195948
 31
0.0
 11
187.0923621563982
 21
14.93980288195948
 31
0.0
 11
186.949702510526
 21
14.93980288195948
 31
0.0
 11
186.7794313202913
 21
14.93980288195948
 31
0.0
 11
186.6367716744191
 21
14.93980288195948
 31
0.0
 11
186.576946661634
 21
14.93980288195948
 31
0.0
 11
186.7679960754842
 21
14.63705127966889
 31
0.0
 11
186.994127278563
 21
14.36051890576682
 31
0.0
 11
187.2244526173371
 21
14.15061253493455
 31
0.0
 11
187.1521596330704
 21
14.08466403668714
 31
0.0
 11
187.0879364402643
 21
14.00876059052558
 31
0.0
 11
186.7732818215558
 21
14.3589145834936
 31
0.0
 11
186.4886640249976
 21
14.81138295143599
 31
0.0
 11
186.4886640249976
 21
14.73370259137311
 31
0.0
 11
186.4886640249976
 21
14.53950169121591
 31
0.0
 11
186.4886640249976
 21
14.28704052101154
 31
0.0
 11
186.4886640249976
 21
14.03457935080717
 31
0.0
 11
186.4886640249976
 21
13.84037845064997
 31
0.0
 11
186.4886640249976
 21
13.76269809058709
 31
0.0
 11
186.4428901295605
 21
13.76269809058709
 31
0.0
 11
186.3578814666058
 21
13.76269809058709
 31
0.0
 11
186.3121075711687
 21
13.76269809058709
 31
0.0
 11
186.3121075711687
 21
13.83859234982737
 31
0.0
 11
186.3121075711687
 21
14.02832799792808
 31
0.0
 11
186.3121075711687
 21
14.27498434045901
 31
0.0
 11
186.3121075711687
 21
14.52164068298994
 31
0.0
 11
186.3121075711687
 21
14.71137633109064
 31
0.0
 11
186.3121075711687
 21
14.78727059033093
 31
0.0
 11
185.9987626399266
 21
14.3144094619769
 31
0.0
 11
185.6352328662148
 21
13.9579517710938
 31
0.0
 11
185.5773927461627
 21
14.0325345054502
 31
0.0
 11
185.5094852305341
 21
14.0970432293924
 31
0.0
 11
185.7750721898319
 21
14.31672219795888
 31
0.0
 11
186.0233764972061
 21
14.60953395971696
 31
0.0
 11
186.226498280526
 21
14.93980288195948
 31
0.0
 11
186.1627851652721
 21
14.93980288195948
 31
0.0
 11
186.0108538904359
 21
14.93980288195948
 31
0.0
 11
185.8295165624055
 21
14.93980288195948
 31
0.0
 11
185.6775852875693
 21
14.93980288195948
 31
0.0
 11
185.6138721723154
 21
14.93980288195948
 31
0.0
 11
185.6138721723154
 21
14.98350061600206
 31
0.0
 11
185.6138721723154
 21
15.06465355065257
 31
0.0
 11
185.6138721723154
 21
15.10835128469515
 31
0.0
 11
185.6864886537961
 21
15.10835128469515
 31
0.0
 11
185.8596510327118
 21
15.10835128469515
 31
0.0
 11
186.0663287107723
 21
15.10835128469515
 31
0.0
 11
186.239491089688
 21
15.10835128469515
 31
0.0
 11
186.3121075711687
 21
15.10835128469515
 31
0.0
 11
186.3121075711687
 21
15.183592170093
 31
0.0
 11
186.3121075711687
 21
15.34912211796829
 31
0.0
 11
186.3121075711687
 21
15.51465206584357
 31
0.0
 11
186.3121075711687
 21
15.58989295124142
 31
0.0
 11
186.2535809125055
 21
15.58989295124142
 31
0.0
 11
186.1248222634467
 21
15.58989295124142
 31
0.0
 11
185.9960636143877
 21
15.58989295124142
 31
0.0
 11
185.9375369557246
 21
15.58989295124142
 31
0.0
  0
SPLINE
  5
A7
102
{ACAD_REACTORS
330
C4
102
}
330
48
100
AcDbEntity
  8
_U_30EC_U_30A4_U_30E4_U_30FC_1
  6
Continuous
 62
     2
100
AcDbSpline
210
0.0
220
0.0
230
1.0
 70
    11
 71
     3
 72
   124
 73
   120
 74
   118
 42
0.000000001
 43
0.0000000001
 44
0.00000001
 40
0.0
 40
0.0
 40
0.0
 40
0.0
 40
0.027818722962451
 40
0.1011590162384269
 40
0.2048470170590239
 40
0.3237088716559245
 40
0.4425707262522
 40
0.5462587270699547
 40
0.6195990203311798
 40
0.647417752257866
 40
0.6750060736115224
 40
0.7357003855242741
 40
0.7963946998054474
 40
0.8239830245571766
 40
0.854093381110286
 40
0.937339662940954
 40
1.063094687343235
 40
1.220731268638073
 40
1.399622220914748
 40
1.589140358637732
 40
1.778658496423898
 40
1.957549448940509
 40
2.115186030873159
 40
2.240941056914463
 40
2.324187341760532
 40
2.354297700109382
 40
2.381886024671888
 40
2.442580338710477
 40
2.503274652750497
 40
2.530862977314606
 40
2.560983949278559
 40
2.640393784452905
 40
2.752662861759128
 40
2.881361560118145
 40
3.010060258455192
 40
3.122329335705339
 40
3.201739170817953
 40
3.231860142753313
 40
3.264298024030368
 40
3.352343701778241
 40
3.482095226868764
 40
3.639650650173027
 40
3.811108022565484
 40
3.982565394927991
 40
4.140120818152574
 40
4.269872343141285
 40
4.357918020802345
 40
4.390355902043974
 40
4.423256253992544
 40
4.508104530073065
 40
4.624121560636833
 40
4.750528176031589
 40
4.866545206602036
 40
4.951393482691993
 40
4.984293834645395
 40
5.01145083324231
 40
5.071196230152094
 40
5.130941627057173
 40
5.158098625648839
 40
5.19099897760153
 40
5.275847253689355
 40
5.39186428425679
 40
5.518270899648335
 40
5.634287930209374
 40
5.719136206288048
 40
5.752036558235935
 40
5.782130946282961
 40
5.862783906229136
 40
5.979550131775002
 40
6.117984316640407
 40
6.263641154587954
 40
6.402075339414156
 40
6.518841564907949
 40
6.599494524815534
 40
6.629588912848772
 40
6.654403028226348
 40
6.713575149488115
 40
6.784199939329433
 40
6.843372060493535
 40
6.868186175802781
 40
6.896246243201864
 40
6.939586233758257
 40
6.967846564564889
 40
7.043584251089824
 40
7.153234334451684
 40
7.283231855734433
 40
7.420011856035465
 40
7.550009376579817
 40
7.659659458835218
 40
7.735397144417211
 40
7.763657474851383
 40
7.79640972801104
 40
7.880876065096315
 40
7.9963708524657
 40
8.122208446418595
 40
8.237703224799189
 40
8.322169562010883
 40
8.354921815205897
 40
8.382078813307679
 40
8.441824209206985
 40
8.501569605240135
 40
8.528726603485714
 40
8.561478856695762
 40
8.645945193877813
 40
8.761439980865324
 40
8.887277580764467
 40
9.002772362000988
 40
9.087238696661208
 40
9.119990949235662
 40
9.152428830613362
 40
9.240474508638579
 40
9.370226034149532
 40
9.527781457984414
 40
9.699238830981404
 40
9.870696203978593
 40
10.02825162781402
 40
10.15800315332564
 40
10.24604883135119
 40
10.27848670378521
 40
10.27848670378521
 40
10.27848670378521
 40
10.27848670378521
 10
195.3821827564383
 20
14.01410517385754
 30
0.0
 10
195.3914554737523
 20
14.01410498511271
 30
0.0
 10
195.4251744536861
 20
14.01410430876711
 30
0.0
 10
195.4934706812465
 20
14.01411807243301
 30
0.0
 10
195.592014171158
 20
14.01403224219542
 30
0.0
 10
195.7062066464812
 20
14.01441755612247
 30
0.0
 10
195.818589441707
 20
14.01300835897543
 30
0.0
 10
195.9214376600118
 20
14.01719117422239
 30
0.0
 10
195.9806839874849
 20
14.0082308925198
 30
0.0
 10
196.0371265937033
 20
14.02164434526058
 30
0.0
 10
196.0246255586955
 20
13.97087198613359
 30
0.0
 10
196.0329549635703
 20
13.92589320939064
 30
0.0
 10
196.024817084112
 20
13.88056752990485
 30
0.0
 10
196.0370529214457
 20
13.82931932408463
 30
0.0
 10
195.9747773490333
 20
13.84447955365274
 30
0.0
 10
195.9060513026868
 20
13.8335975071074
 30
0.0
 10
195.7782756749592
 20
13.83911304747969
 30
0.0
 10
195.6262984511643
 20
13.83700851253696
 30
0.0
 10
195.4502695972523
 20
13.8377100258847
 30
0.0
 10
195.2644431934287
 20
13.83745237531289
 30
0.0
 10
195.0786167437175
 20
13.837710051446
 30
0.0
 10
194.9025880142168
 20
13.83700841847728
 30
0.0
 10
194.7506104154195
 20
13.83911332229986
 30
0.0
 10
194.6228357664554
 20
13.83359680767637
 30
0.0
 10
194.554107783658
 20
13.84448077125939
 30
0.0
 10
194.4918349042883
 20
13.82931786684206
 30
0.0
 10
194.5040616290017
 20
13.88057510805169
 30
0.0
 10
194.4960004462597
 20
13.92582473272422
 30
0.0
 10
194.5040675809892
 20
13.9710635795532
 30
0.0
 10
194.4918238487083
 20
14.02234176909955
 30
0.0
 10
194.5525017120697
 20
14.00749577363131
 30
0.0
 10
194.6162810745736
 20
14.01756448170732
 30
0.0
 10
194.7277314353502
 20
14.01294644211996
 30
0.0
 10
194.8497533443824
 20
14.01413328905466
 30
0.0
 10
194.9719538137823
 20
14.01515863900632
 30
0.0
 10
195.0829794287392
 20
14.01092475623398
 30
0.0
 10
195.1476517413959
 20
14.02018584521736
 30
0.0
 10
195.2091162810501
 20
14.00604423049679
 30
0.0
 10
195.1930065601337
 20
14.07235527884514
 30
0.0
 10
195.2042980327358
 20
14.14447790121973
 30
0.0
 10
195.1987400822561
 20
14.27513760888283
 30
0.0
 10
195.200803506169
 20
14.42607323708238
 30
0.0
 10
195.2000167127295
 20
14.59335873107883
 30
0.0
 10
195.2007845215627
 20
14.760611103323
 30
0.0
 10
195.1988038785628
 20
14.91163289269912
 30
0.0
 10
195.2041306156621
 20
15.04206069552992
 30
0.0
 10
195.1933101388425
 20
15.11465442605897
 30
0.0
 10
195.2090326429875
 20
15.18150469436796
 30
0.0
 10
195.143270813249
 20
15.16580512490822
 30
0.0
 10
195.0756367830764
 20
15.17609243083993
 30
0.0
 10
194.9615885293809
 20
15.1711378684712
 30
0.0
 10
194.8451242674902
 20
15.17414128030473
 30
0.0
 10
194.7306554121477
 20
15.16880303143386
 30
0.0
 10
194.6640324657812
 20
15.18001268074823
 30
0.0
 10
194.5990769715186
 20
15.16349132665009
 30
0.0
 10
194.6107989758708
 20
15.21473720477057
 30
0.0
 10
194.6032830189121
 20
15.25950333784088
 30
0.0
 10
194.6107989878835
 20
15.30426944897959
 30
0.0
 10
194.5990769505347
 20
15.35551536129739
 30
0.0
 10
194.6640326339199
 20
15.33899381766812
 30
0.0
 10
194.7306533339822
 20
15.35020571373942
 30
0.0
 10
194.8451352858063
 20
15.34485436710662
 30
0.0
 10
194.9615454436962
 20
15.34791188771115
 30
0.0
 10
195.0757660174641
 20
15.34278499010706
 30
0.0
 10
195.1430150439227
 20
15.35345733355596
 30
0.0
 10
195.2083325941438
 20
15.33742082669075
 30
0.0
 10
195.1941391448553
 20
15.39949685750052
 30
0.0
 10
195.2036059462994
 20
15.4658676162876
 30
0.0
 10
195.1990269004086
 20
15.58239972741965
 30
0.0
 10
195.2007696555947
 20
15.71426685022373
 30
0.0
 10
195.1997551495392
 20
15.85615960150272
 30
0.0
 10
195.2017191344372
 20
15.98769050702577
 30
0.0
 10
195.1964668553852
 20
16.10524577283001
 30
0.0
 10
195.2073408763474
 20
16.16947789001581
 30
0.0
 10
195.1919536641853
 20
16.23108802545045
 30
0.0
 10
195.24075915378
 20
16.21702407382109
 30
0.0
 10
195.2853995564726
 20
16.21954742075312
 30
0.0
 10
195.3538643946742
 20
16.21512797401706
 30
0.0
 10
195.3959106169103
 20
16.20613025544034
 30
0.0
 10
195.4487544758775
 20
16.21411714866508
 30
0.0
 10
195.4207035002014
 20
16.17113917611671
 30
0.0
 10
195.3749142248594
 20
16.18259552043834
 30
0.0
 10
195.3869539073265
 20
16.12173520005135
 30
0.0
 10
195.3796086070641
 20
16.05769299468771
 30
0.0
 10
195.3831195826161
 20
15.9490936886391
 30
0.0
 10
195.3819806760173
 20
15.82494319144751
 30
0.0
 10
195.3819174780262
 20
15.69189719829876
 30
0.0
 10
195.3832872966868
 20
15.56797381249553
 30
0.0
 10
195.3791638801314
 20
15.45868337849337
 30
0.0
 10
195.3877763103563
 20
15.39608580094168
 30
0.0
 10
195.3746757454402
 20
15.33740133296363
 30
0.0
 10
195.4393884328198
 20
15.35362113810899
 30
0.0
 10
195.5060405953156
 20
15.3427026038331
 30
0.0
 10
195.6198779541102
 20
15.34793740173753
 30
0.0
 10
195.7357259122097
 20
15.34485547516912
 30
0.0
 10
195.849692426328
 20
15.3501825981251
 30
0.0
 10
195.9160341018099
 20
15.33904208166541
 30
0.0
 10
195.980718852548
 20
15.35546979593176
 30
0.0
 10
195.9689820772722
 20
15.30425925210049
 30
0.0
 10
195.9765168063041
 20
15.25950334120999
 30
0.0
 10
195.9689820992257
 20
15.21474739010025
 30
0.0
 10
195.9807188140736
 20
15.16353690871038
 30
0.0
 10
195.9160344075252
 20
15.17996427794218
 30
0.0
 10
195.8496886430824
 20
15.16882784447267
 30
0.0
 10
195.7357459487012
 20
15.17413115893118
 30
0.0
 10
195.6197995623054
 20
15.17114764593542
 30
0.0
 10
195.5062756882122
 20
15.17606892268391
 30
0.0
 10
195.4389231318804
 20
15.16585087513517
 30
0.0
 10
195.3734285122495
 20
15.18145996138813
 30
0.0
 10
195.3891713619218
 20
15.11463851827409
 30
0.0
 10
195.3783275998212
 20
15.04207057815876
 30
0.0
 10
195.3836581629793
 20
14.91162247614414
 30
0.0
 10
195.3817136151854
 20
14.76064558185223
 30
0.0
 10
195.3823133683215
 20
14.59322243934156
 30
0.0
 10
195.3821506559604
 20
14.42656176118368
 30
0.0
 10
195.3821895488136
 20
14.27360142921633
 30
0.0
 10
195.3821816413099
 20
14.14849178985702
 30
0.0
 10
195.3821828382744
 20
14.06507890991417
 30
0.0
 10
195.3821827716208
 20
14.02491778281972
 30
0.0
 10
195.3821827564383
 20
14.01410517385754
 30
0.0
 11
195.3821827564383
 21
14.01410517385754
 31
0.0
 11
195.4100014883675
 21
14.01410517385754
 31
0.0
 11
195.4833417816353
 21
14.01410517385754
 31
0.0
 11
195.5870297824622
 21
14.01410517385754
 31
0.0
 11
195.7058916370687
 21
14.01410517385754
 31
0.0
 11
195.8247534916751
 21
14.01410517385754
 31
0.0
 11
195.928441492502
 21
14.01410517385754
 31
0.0
 11
196.0017817857698
 21
14.01410517385754
 31
0.0
 11
196.029600517699
 21
14.01410517385754
 31
0.0
 11
196.029600517699
 21
13.98651684921167
 31
0.0
 11
196.029600517699
 21
13.92582253499074
 31
0.0
 11
196.029600517699
 21
13.86512822076982
 31
0.0
 11
196.029600517699
 21
13.83753989612394
 31
0.0
 11
195.9994901593494
 21
13.83753989612394
 31
0.0
 11
195.9162438745004
 21
13.83753989612394
 31
0.0
 11
195.7904888484521
 21
13.83753989612394
 31
0.0
 11
195.6328522665041
 21
13.83753989612394
 31
0.0
 11
195.4539613139564
 21
13.83753989612394
 31
0.0
 11
195.2644431761089
 21
13.83753989612394
 31
0.0
 11
195.0749250382613
 21
13.83753989612394
 31
0.0
 11
194.8960340857136
 21
13.83753989612394
 31
0.0
 11
194.7383975037656
 21
13.83753989612394
 31
0.0
 11
194.6126424777172
 21
13.83753989612394
 31
0.0
 11
194.5293961928683
 21
13.83753989612394
 31
0.0
 11
194.4992858345187
 21
13.83753989612394
 31
0.0
 11
194.4992858345187
 21
13.86512822076982
 31
0.0
 11
194.4992858345187
 21
13.92582253499074
 31
0.0
 11
194.4992858345187
 21
13.98651684921166
 31
0.0
 11
194.4992858345187
 21
14.01410517385754
 31
0.0
 11
194.5294068064947
 21
14.01410517385754
 31
0.0
 11
194.608816641704
 21
14.01410517385754
 31
0.0
 11
194.721085719069
 21
14.01410517385754
 31
0.0
 11
194.8497844175118
 21
14.01410517385754
 31
0.0
 11
194.9784831159545
 21
14.01410517385754
 31
0.0
 11
195.0907521933195
 21
14.01410517385754
 31
0.0
 11
195.1701620285289
 21
14.01410517385754
 31
0.0
 11
195.2002830005048
 21
14.01410517385754
 31
0.0
 11
195.2002830005048
 21
14.04654305523832
 31
0.0
 11
195.2002830005048
 21
14.13458873327187
 31
0.0
 11
195.2002830005048
 21
14.264340258795
 31
0.0
 11
195.2002830005048
 21
14.42189568264451
 31
0.0
 11
195.2002830005048
 21
14.59335305565721
 31
0.0
 11
195.2002830005048
 21
14.76481042866991
 31
0.0
 11
195.2002830005048
 21
14.92236585251942
 31
0.0
 11
195.2002830005048
 21
15.05211737804255
 31
0.0
 11
195.2002830005048
 21
15.1401630560761
 31
0.0
 11
195.2002830005048
 21
15.17260093745688
 31
0.0
 11
195.1673826485529
 21
15.17260093745688
 31
0.0
 11
195.0825343724662
 21
15.17260093745688
 31
0.0
 11
194.9665173418988
 21
15.17260093745688
 31
0.0
 11
194.8401107265044
 21
15.17260093745688
 31
0.0
 11
194.724093695937
 21
15.17260093745688
 31
0.0
 11
194.6392454198503
 21
15.17260093745688
 31
0.0
 11
194.6063450678984
 21
15.17260093745688
 31
0.0
 11
194.6063450678984
 21
15.199757936148
 31
0.0
 11
194.6063450678984
 21
15.25950333326848
 31
0.0
 11
194.6063450678984
 21
15.31924873038896
 31
0.0
 11
194.6063450678984
 21
15.34640572908008
 31
0.0
 11
194.6392454198504
 21
15.34640572908008
 31
0.0
 11
194.724093695937
 21
15.34640572908008
 31
0.0
 11
194.8401107265044
 21
15.34640572908008
 31
0.0
 11
194.9665173418988
 21
15.34640572908008
 31
0.0
 11
195.0825343724662
 21
15.34640572908008
 31
0.0
 11
195.1673826485529
 21
15.34640572908008
 31
0.0
 11
195.2002830005048
 21
15.34640572908008
 31
0.0
 11
195.2002830005048
 21
15.37650011731368
 31
0.0
 11
195.2002830005048
 21
15.45715307777972
 31
0.0
 11
195.2002830005048
 21
15.57391930412607
 31
0.0
 11
195.2002830005048
 21
15.71235349000061
 31
0.0
 11
195.2002830005048
 21
15.85801032905122
 31
0.0
 11
195.2002830005048
 21
15.99644451492576
 31
0.0
 11
195.2002830005048
 21
16.11321074127211
 31
0.0
 11
195.2002830005048
 21
16.19386370173815
 31
0.0
 11
195.2002830005048
 21
16.22395808997175
 31
0.0
 11
195.2250405288618
 21
16.2222832421944
 31
0.0
 11
195.2840777118669
 21
16.21828937441763
 31
0.0
 11
195.3545414464214
 21
16.21352249997439
 31
0.0
 11
195.4135786294265
 21
16.20952863219762
 31
0.0
 11
195.4383361577835
 21
16.20785378442027
 31
0.0
 11
195.423306722403
 21
16.18415814206507
 31
0.0
 11
195.3821827564383
 21
16.17047697887402
 31
0.0
 11
195.3821827564383
 21
16.1422166479483
 31
0.0
 11
195.3821827564383
 21
16.06647896106738
 31
0.0
 11
195.3821827564383
 21
15.95682887707559
 31
0.0
 11
195.3821827564383
 21
15.82683135481729
 31
0.0
 11
195.3821827564383
 21
15.69005135313681
 31
0.0
 11
195.3821827564383
 21
15.56005383087851
 31
0.0
 11
195.3821827564383
 21
15.45040374688672
 31
0.0
 11
195.3821827564383
 21
15.3746660600058
 31
0.0
 11
195.3821827564383
 21
15.34640572908008
 31
0.0
 11
195.4149350096115
 21
15.34640572908008
 31
0.0
 11
195.4994013467422
 21
15.34640572908008
 31
0.0
 11
195.6148961342476
 21
15.34640572908008
 31
0.0
 11
195.7407337385445
 21
15.34640572908008
 31
0.0
 11
195.8562285260498
 21
15.34640572908008
 31
0.0
 11
195.9406948631806
 21
15.34640572908008
 31
0.0
 11
195.9734471163538
 21
15.34640572908008
 31
0.0
 11
195.9734471163538
 21
15.31924873038895
 31
0.0
 11
195.9734471163538
 21
15.25950333326848
 31
0.0
 11
195.9734471163538
 21
15.199757936148
 31
0.0
 11
195.9734471163538
 21
15.17260093745688
 31
0.0
 11
195.9406948631806
 21
15.17260093745688
 31
0.0
 11
195.8562285260498
 21
15.17260093745688
 31
0.0
 11
195.7407337385445
 21
15.17260093745688
 31
0.0
 11
195.6148961342476
 21
15.17260093745688
 31
0.0
 11
195.4994013467422
 21
15.17260093745688
 31
0.0
 11
195.4149350096114
 21
15.17260093745688
 31
0.0
 11
195.3821827564383
 21
15.17260093745688
 31
0.0
 11
195.3821827564383
 21
15.1401630560761
 31
0.0
 11
195.3821827564383
 21
15.05211737804255
 31
0.0
 11
195.3821827564383
 21
14.92236585251942
 31
0.0
 11
195.3821827564383
 21
14.76481042866991
 31
0.0
 11
195.3821827564383
 21
14.59335305565721
 31
0.0
 11
195.3821827564383
 21
14.42189568264451
 31
0.0
 11
195.3821827564383
 21
14.264340258795
 31
0.0
 11
195.3821827564383
 21
14.13458873327187
 31
0.0
 11
195.3821827564383
 21
14.04654305523832
 31
0.0
 11
195.3821827564383
 21
14.01410517385754
 31
0.0
  0
SPLINE
  5
A8
102
{ACAD_REACTORS
330
C5
102
}
330
48
100
AcDbEntity
  8
_U_30EC_U_30A4_U_30E4_U_30FC_1
  6
Continuous
 62
     2
100
AcDbSpline
210
0.0
220
0.0
230
1.0
 70
    11
 71
     3
 72
   131
 73
   127
 74
   125
 42
0.000000001
 43
0.0000000001
 44
0.00000001
 40
0.0
 40
0.0
 40
0.0
 40
0.0
 40
0.0195577029826142
 40
0.0426490537461464
 40
0.2863607575856635
 40
0.53449484361893
 40
0.7842238845573183
 40
0.8737315789467378
 40
0.9803832810312875
 40
1.092842274517034
 40
1.19976114665679
 40
1.289788768186494
 40
1.351573580786184
 40
1.37072711756141
 40
1.416400936017826
 40
1.470914848355969
 40
1.516588666791763
 40
1.535742203552844
 40
1.634216592293194
 40
1.760283341175033
 40
1.897966686682095
 40
2.031216387368916
 40
2.04968975113791
 40
2.101115601646844
 40
2.179502577739963
 40
2.278859318314078
 40
2.393194462258737
 40
2.516516648383849
 40
2.642834515405976
 40
2.766156701983481
 40
2.880491846754596
 40
2.979848588358635
 40
3.058235565443812
 40
3.109661416668966
 40
3.128134780704144
 40
3.14678374238646
 40
3.191254343315321
 40
3.24433215731598
 40
3.288802758225884
 40
3.307451719895127
 40
3.327717853844738
 40
3.383747753580099
 40
3.468388665924491
 40
3.574487837698795
 40
3.694892515728902
 40
3.822449946852041
 40
3.95000737792043
 40
4.070412055800521
 40
4.176511227368078
 40
4.261152139501524
 40
4.317182039076716
 40
4.337448172964637
 40
4.620011002696247
 40
4.885096638397516
 40
4.945373043518335
 40
5.014107710488646
 40
5.070481727652039
 40
5.319246955636563
 40
5.584812164506034
 40
5.859000912056885
 40
6.133746937542067
 40
6.401732212968872
 40
6.420736683995463
 40
6.472845717451113
 40
6.550702743894041
 40
6.64695119387425
 40
6.754234497930574
 40
6.865196086587352
 40
6.97247939035781
 40
7.068727839771972
 40
7.146584865450981
 40
7.198693898189211
 40
7.217698368905351
 40
7.234950401630828
 40
7.276089864269871
 40
7.325191803515978
 40
7.366331266090361
 40
7.383583298769711
 40
7.402779163492088
 40
7.453386443254519
 40
7.524934666445521
 40
7.606953361405861
 40
7.688972056429012
 40
7.760520279784263
 40
7.811127559734505
 40
7.830323424546126
 40
7.847844055299754
 40
7.894799345666797
 40
7.962779392744487
 40
8.043374293560536
 40
8.128174145149444
 40
8.208769044817249
 40
8.276749090376953
 40
8.323704379669511
 40
8.341225010056245
 40
8.358497614800394
 40
8.401679126686599
 40
8.457815092185657
 40
8.513951057728061
 40
8.557132569708017
 40
8.57440517450506
 40
8.602340668616424
 40
8.643455660539965
 40
8.663225271966636
 40
8.71534515656428
 40
8.789031889628616
 40
8.87350204552035
 40
8.957972194323975
 40
9.03165892556787
 40
9.083778811234557
 40
9.103548423003021
 40
9.119550083123558
 40
9.16081752237986
 40
9.217244429110226
 40
9.278724491644711
 40
9.335151398295496
 40
9.376418837357791
 40
9.392420497300579
 40
9.401196302734798
 40
9.417494229384273
 40
9.426270027749545
 40
9.440875075477576
 40
9.475702496998757
 40
9.517270709865917
 40
9.552098131994086
 40
9.566703169884294
 40
9.566703169884294
 40
9.566703169884294
 40
9.566703169884294
 10
194.6170254148479
 20
15.67015871511025
 30
0.0
 10
194.6134345093371
 20
15.66453690702157
 30
0.0
 10
194.6056039123625
 20
15.6522775441911
 30
0.0
 10
194.5129968974545
 20
15.61601916040967
 30
0.0
 10
194.4887622233248
 20
15.40148444212713
 30
0.0
 10
194.3858709845938
 20
15.22197284509705
 30
0.0
 10
194.1220492364305
 20
15.03615573798144
 30
0.0
 10
194.284547156918
 20
14.95959336566078
 30
0.0
 10
194.3607225760838
 20
14.8985669319544
 30
0.0
 10
194.4492171072758
 20
14.83515804544757
 30
0.0
 10
194.538993023311
 20
14.77525634219559
 30
0.0
 10
194.5883817636046
 20
14.72102154849206
 30
0.0
 10
194.6745708157382
 20
14.69286240541833
 30
0.0
 10
194.6411260674229
 20
14.6571330965281
 30
0.0
 10
194.6214671166311
 20
14.62550387991904
 30
0.0
 10
194.5919888217882
 20
14.58475872796068
 30
0.0
 10
194.5688989446031
 20
14.55504663489642
 30
0.0
 10
194.5380205968356
 20
14.50211422668492
 30
0.0
 10
194.4729193365741
 20
14.627403349389
 30
0.0
 10
194.3796000122415
 20
14.68213900233933
 30
0.0
 10
194.2950636285139
 20
14.73916423939342
 30
0.0
 10
194.1722498125741
 20
14.89675287427521
 30
0.0
 10
194.1764450847301
 20
14.82035806766835
 30
0.0
 10
194.1751478652677
 20
14.77361280161294
 30
0.0
 10
194.1758126448076
 20
14.69584785812599
 30
0.0
 10
194.1755549986957
 20
14.59902068324421
 30
0.0
 10
194.1756431239922
 20
14.48650279078807
 30
0.0
 10
194.1756077302281
 20
14.36524085945698
 30
0.0
 10
194.1756511758279
 20
14.2408689785896
 30
0.0
 10
194.1755199942405
 20
14.11967683631334
 30
0.0
 10
194.1759477562046
 20
14.00691148919741
 30
0.0
 10
194.174667820231
 20
13.91082913768742
 30
0.0
 10
194.1779759851044
 20
13.83113826468698
 30
0.0
 10
194.1715197740086
 20
13.78815175788782
 30
0.0
 10
194.1806208705556
 20
13.7495543237204
 30
0.0
 10
194.1447910339935
 20
13.75810887724068
 30
0.0
 10
194.1115223815252
 20
13.75342519985445
 30
0.0
 10
194.0604562576041
 20
13.75351298759782
 30
0.0
 10
194.0269723972812
 20
13.75794430283818
 30
0.0
 10
193.9907585408754
 20
13.74960793842508
 30
0.0
 10
194.0009782568666
 20
13.79145277179283
 30
0.0
 10
193.9936487887773
 20
13.83778560820171
 30
0.0
 10
193.9973633136102
 20
13.92374831106012
 30
0.0
 10
193.9959480554896
 20
14.02605142704847
 30
0.0
 10
193.9964105554638
 20
14.14453223931509
 30
0.0
 10
193.996277368623
 20
14.26957683153354
 30
0.0
 10
193.9963015910045
 20
14.39475828107047
 30
0.0
 10
193.9963354925551
 20
14.51286645379055
 30
0.0
 10
193.9962060293132
 20
14.61628748709514
 30
0.0
 10
193.9965507549081
 20
14.69932036153665
 30
0.0
 10
193.995869827869
 20
14.75143368521241
 30
0.0
 10
193.9994586600621
 20
14.87912907821359
 30
0.0
 10
193.7826171386438
 20
14.58048716819618
 30
0.0
 10
193.6021354921949
 20
14.35263981511513
 30
0.0
 10
193.5490322295612
 20
14.49373443289812
 30
0.0
 10
193.5200429133149
 20
14.54325767560942
 30
0.0
 10
193.419664806282
 20
14.64641779790103
 30
0.0
 10
193.7405127723261
 20
14.72695035023777
 30
0.0
 10
193.8689897005429
 20
14.91066283036432
 30
0.0
 10
194.0906454325359
 20
15.1193199577176
 30
0.0
 10
194.1770224894068
 20
15.29339211228342
 30
0.0
 10
194.4549394229075
 20
15.56967051342509
 30
0.0
 10
194.3346247839283
 20
15.56534559551111
 30
0.0
 10
194.2863197351349
 20
15.56614856202551
 30
0.0
 10
194.2102377454905
 20
15.56574582146582
 30
0.0
 10
194.116701000975
 20
15.56590275611607
 30
0.0
 10
194.0117594788557
 20
15.56582502576222
 30
0.0
 10
193.9033887738717
 20
15.56595464378552
 30
0.0
 10
193.7981454235897
 20
15.56554393490689
 30
0.0
 10
193.7056237819412
 20
15.56682073671589
 30
0.0
 10
193.6268130800707
 20
15.56340766534848
 30
0.0
 10
193.5839674565379
 20
15.57023350036318
 30
0.0
 10
193.5449499586516
 20
15.56065064201121
 30
0.0
 10
193.5526365271863
 20
15.5942077956554
 30
0.0
 10
193.5485464404312
 20
15.6252355032223
 30
0.0
 10
193.5485531368814
 20
15.67236529270898
 30
0.0
 10
193.5526239724911
 20
15.70340941646775
 30
0.0
 10
193.5449495574582
 20
15.73701861635898
 30
0.0
 10
193.5834819405495
 20
15.72748410420869
 30
0.0
 10
193.624122801448
 20
15.73397435498067
 30
0.0
 10
193.6951471850463
 20
15.73100150650251
 30
0.0
 10
193.7729318149633
 20
15.73174761399154
 30
0.0
 10
193.8507292246474
 20
15.73247814044523
 30
0.0
 10
193.9217232089908
 20
15.72954235514157
 30
0.0
 10
193.9624279791819
 20
15.73595468772948
 30
0.0
 10
194.0009853489909
 20
15.72650524176001
 30
0.0
 10
193.9927342754928
 20
15.76264692158782
 30
0.0
 10
193.9982346669358
 20
15.80129837613224
 30
0.0
 10
193.9955754206163
 20
15.86913528561836
 30
0.0
 10
193.9965815471533
 20
15.94591641538737
 30
0.0
 10
193.9960178018319
 20
16.02849393582755
 30
0.0
 10
193.9970714526593
 20
16.10517329229875
 30
0.0
 10
193.9942675863129
 20
16.17331990776697
 30
0.0
 10
194.0000702721304
 20
16.21132399809344
 30
0.0
 10
193.9915654551158
 20
16.24758448077644
 30
0.0
 10
194.0255610233125
 20
16.2375572377185
 30
0.0
 10
194.05945756831
 20
16.24073266813705
 30
0.0
 10
194.1126669060346
 20
16.23508965640607
 30
0.0
 10
194.1660768574482
 20
16.23434774436423
 30
0.0
 10
194.1995914649491
 20
16.22819223482978
 30
0.0
 10
194.2388086183038
 20
16.2334602977359
 30
0.0
 10
194.2120263698492
 20
16.19253380793488
 30
0.0
 10
194.1708111001723
 20
16.20371204538109
 30
0.0
 10
194.1782641540873
 20
16.15867056192121
 30
0.0
 10
194.1742227952184
 20
16.11412278028142
 30
0.0
 10
194.176171404964
 20
16.042235726217
 30
0.0
 10
194.1752364849758
 20
15.96168630588768
 30
0.0
 10
194.176510719003
 20
15.88173995404992
 30
0.0
 10
194.1732043793863
 20
15.8084183708318
 30
0.0
 10
194.1802106179962
 20
15.76688643002565
 30
0.0
 10
194.1701440380125
 20
15.7275241856811
 30
0.0
 10
194.2029814803921
 20
15.73468063430978
 30
0.0
 10
194.236457729648
 20
15.73027243137941
 30
0.0
 10
194.2915053476019
 20
15.73217943347894
 30
0.0
 10
194.3489502595314
 20
15.73185366407285
 30
0.0
 10
194.4023026248309
 20
15.73106308733079
 30
0.0
 10
194.4398540896638
 20
15.73313959118071
 30
0.0
 10
194.4623172523237
 20
15.73022338167106
 30
0.0
 10
194.4751678073731
 20
15.73572552644053
 30
0.0
 10
194.4858255685888
 20
15.73801118197787
 30
0.0
 10
194.4986635650143
 20
15.74494972588049
 30
0.0
 10
194.514599103307
 20
15.72853046313669
 30
0.0
 10
194.5410623920892
 20
15.71709122319445
 30
0.0
 10
194.5726805253757
 20
15.69644687835188
 30
0.0
 10
194.5987255892151
 20
15.68116869628292
 30
0.0
 10
194.6128517723973
 20
15.67266976323181
 30
0.0
 10
194.6170254148479
 20
15.67015871511025
 30
0.0
 11
194.6170254148479
 21
15.67015871511025
 31
0.0
 11
194.6049990002243
 21
15.65473571164186
 31
0.0
 11
194.5848961795565
 21
15.64337406233915
 31
0.0
 11
194.4778986355813
 21
15.42440620231156
 31
0.0
 11
194.3477039934324
 21
15.21317201512158
 31
0.0
 11
194.1996540366071
 21
15.01206059027477
 31
0.0
 11
194.2734958253735
 21
14.96147384935377
 31
0.0
 11
194.36056643118
 21
14.89988411653737
 31
0.0
 11
194.4518003750404
 21
14.83413160594423
 31
0.0
 11
194.5381321779687
 21
14.77105653169303
 31
0.0
 11
194.6104963609787
 21
14.7174991079024
 31
0.0
 11
194.6598274450843
 21
14.68029954869103
 31
0.0
 11
194.6486940702213
 21
14.66471410869493
 31
0.0
 11
194.6221452532403
 21
14.62754882870422
 31
0.0
 11
194.5904579555533
 21
14.58319026871531
 31
0.0
 11
194.5639091385723
 21
14.5460249887246
 31
0.0
 11
194.5527757637093
 21
14.5304395487285
 31
0.0
 11
194.4807013362947
 21
14.59754008690615
 31
0.0
 11
194.385285698538
 21
14.67993354174668
 31
0.0
 11
194.279326415217
 21
14.76785017366915
 31
0.0
 11
194.175621051109
 21
14.85152024309265
 31
0.0
 11
194.175621051109
 21
14.83304687900861
 31
0.0
 11
194.175621051109
 21
14.78162102763953
 31
0.0
 11
194.175621051109
 21
14.70323405030997
 31
0.0
 11
194.175621051109
 21
14.60387730834447
 31
0.0
 11
194.175621051109
 21
14.48954216306758
 31
0.0
 11
194.175621051109
 21
14.36621997580387
 31
0.0
 11
194.175621051109
 21
14.23990210787788
 31
0.0
 11
194.175621051109
 21
14.11657992061417
 31
0.0
 11
194.175621051109
 21
14.00224477533728
 31
0.0
 11
194.175621051109
 21
13.90288803337178
 31
0.0
 11
194.175621051109
 21
13.82450105604222
 31
0.0
 11
194.175621051109
 21
13.77307520467314
 31
0.0
 11
194.175621051109
 21
13.7546018405891
 31
0.0
 11
194.1569720893626
 21
13.7546018405891
 31
0.0
 11
194.1125014882749
 21
13.7546018405891
 31
0.0
 11
194.0594236740736
 21
13.7546018405891
 31
0.0
 11
194.0149530729859
 21
13.7546018405891
 31
0.0
 11
193.9963041112395
 21
13.7546018405891
 31
0.0
 11
193.9963041112395
 21
13.77486797460217
 31
0.0
 11
193.9963041112395
 21
13.83089787452064
 31
0.0
 11
193.9963041112395
 21
13.91553878716345
 31
0.0
 11
193.9963041112395
 21
14.02163795934951
 31
0.0
 11
193.9963041112395
 21
14.14204263789773
 31
0.0
 11
193.9963041112395
 21
14.26960006962704
 31
0.0
 11
193.9963041112395
 21
14.39715750135634
 31
0.0
 11
193.9963041112395
 21
14.51756217990456
 31
0.0
 11
193.9963041112395
 21
14.62366135209062
 31
0.0
 11
193.9963041112395
 21
14.70830226473342
 31
0.0
 11
193.9963041112395
 21
14.7643321646519
 31
0.0
 11
193.9963041112395
 21
14.78459829866497
 31
0.0
 11
193.7883272849481
 21
14.59331998274055
 31
0.0
 11
193.5763486358425
 21
14.43414885430809
 31
0.0
 11
193.5495629014482
 21
14.48814671952093
 31
0.0
 11
193.5138765415024
 21
14.54689140572024
 31
0.0
 11
193.4799697494124
 21
14.59192871537974
 31
0.0
 11
193.6830287742319
 21
14.73563387201052
 31
0.0
 11
193.881853195826
 21
14.91168423529986
 31
0.0
 11
194.0677041444178
 21
15.11327514524947
 31
0.0
 11
194.2318427502303
 21
15.33360194186107
 31
0.0
 11
194.3655301434864
 21
15.56585996513633
 31
0.0
 11
194.3465256724482
 21
15.56585996513633
 31
0.0
 11
194.2944166389562
 21
15.56585996513633
 31
0.0
 11
194.2165596124447
 21
15.56585996513633
 31
0.0
 11
194.1203111623478
 21
15.56585996513633
 31
0.0
 11
194.0130278580997
 21
15.56585996513633
 31
0.0
 11
193.9020662691345
 21
15.56585996513633
 31
0.0
 11
193.7947829648864
 21
15.56585996513633
 31
0.0
 11
193.6985345147895
 21
15.56585996513633
 31
0.0
 11
193.620677488278
 21
15.56585996513633
 31
0.0
 11
193.568568454786
 21
15.56585996513633
 31
0.0
 11
193.5495639837478
 21
15.56585996513633
 31
0.0
 11
193.5495639837478
 21
15.58311199790979
 31
0.0
 11
193.5495639837478
 21
15.62425146067729
 31
0.0
 11
193.5495639837478
 21
15.67335340010946
 31
0.0
 11
193.5495639837478
 21
15.71449286287696
 31
0.0
 11
193.5495639837478
 21
15.73174489565042
 31
0.0
 11
193.5687598486009
 21
15.73174489565042
 31
0.0
 11
193.6193671286684
 21
15.73174489565042
 31
0.0
 11
193.690915352212
 21
15.73174489565042
 31
0.0
 11
193.7729340474937
 21
15.73174489565042
 31
0.0
 11
193.8549527427753
 21
15.73174489565042
 31
0.0
 11
193.9265009663189
 21
15.73174489565042
 31
0.0
 11
193.9771082463864
 21
15.73174489565042
 31
0.0
 11
193.9963041112395
 21
15.73174489565042
 31
0.0
 11
193.9963041112395
 21
15.74926552655215
 31
0.0
 11
193.9963041112395
 21
15.79622081736879
 31
0.0
 11
193.9963041112395
 21
15.8642008652675
 31
0.0
 11
193.9963041112395
 21
15.94479576741546
 31
0.0
 11
193.9963041112395
 21
16.02959562097984
 31
0.0
 11
193.9963041112395
 21
16.1101905231278
 31
0.0
 11
193.9963041112395
 21
16.17817057102651
 31
0.0
 11
193.9963041112395
 21
16.22512586184315
 31
0.0
 11
193.9963041112395
 21
16.24264649274488
 31
0.0
 11
194.0135484112111
 21
16.24165806167517
 31
0.0
 11
194.0566591611401
 21
16.23918698400089
 31
0.0
 11
194.1127031360477
 21
16.23597458302433
 31
0.0
 11
194.1687471109553
 21
16.23276218204778
 31
0.0
 11
194.2118578608843
 21
16.2302911043735
 31
0.0
 11
194.2291021608559
 21
16.22930267330379
 31
0.0
 11
194.2143774674851
 21
16.20556293372638
 31
0.0
 11
194.175621051109
 21
16.1918376733131
 31
0.0
 11
194.175621051109
 21
16.1720680617729
 31
0.0
 11
194.175621051109
 21
16.11994817680331
 31
0.0
 11
194.175621051109
 21
16.04626144288077
 31
0.0
 11
194.175621051109
 21
15.96179128448176
 31
0.0
 11
194.175621051109
 21
15.87732112608275
 31
0.0
 11
194.175621051109
 21
15.80363439216021
 31
0.0
 11
194.175621051109
 21
15.75151450719061
 31
0.0
 11
194.175621051109
 21
15.73174489565042
 31
0.0
 11
194.1916227112935
 21
15.73174489565042
 31
0.0
 11
194.232890150717
 21
15.73174489565042
 31
0.0
 11
194.2893170576837
 21
15.73174489565042
 31
0.0
 11
194.3507971204981
 21
15.73174489565042
 31
0.0
 11
194.4072240274648
 21
15.73174489565042
 31
0.0
 11
194.4484914668882
 21
15.73174489565042
 31
0.0
 11
194.4644931270728
 21
15.73174489565042
 31
0.0
 11
194.4728206422924
 21
15.73451387455918
 31
0.0
 11
194.4882860277004
 21
15.73965626396115
 31
0.0
 11
194.49661354292
 21
15.74242524286991
 31
0.0
 11
194.5091363776005
 21
15.73490952398291
 31
0.0
 11
194.5389985218386
 21
15.71698742509851
 31
0.0
 11
194.5746404359293
 21
15.69559653288165
 31
0.0
 11
194.6045025801674
 21
15.67767443399726
 31
0.0
 11
194.6170254148479
 21
15.67015871511025
 31
0.0
  0
SPLINE
  5
A9
102
{ACAD_REACTORS
330
C6
102
}
330
48
100
AcDbEntity
  8
_U_30EC_U_30A4_U_30E4_U_30FC_1
  6
Continuous
 62
     2
100
AcDbSpline
210
0.0
220
0.0
230
1.0
 70
    11
 71
     3
 72
    91
 73
    87
 74
    85
 42
0.000000001
 43
0.0000000001
 44
0.00000001
 40
0.0
 40
0.0
 40
0.0
 40
0.0
 40
0.0267532254356719
 40
0.0856103386464155
 40
0.1444674521996727
 40
0.1712206856618621
 40
0.2039416005642643
 40
0.2955601971652591
 40
0.4362601844617024
 40
0.6162252844507357
 40
0.8256392189704804
 40
1.054685709844421
 40
1.293548478893542
 40
1.532411247938314
 40
1.761457738799579
 40
1.970871673298547
 40
2.150836773256743
 40
2.291536760495604
 40
2.383155356836711
 40
2.415876284101331
 40
2.442629517487975
 40
2.501486630949111
 40
2.560343744424261
 40
2.587096977826536
 40
2.617068194440964
 40
2.699247336756105
 40
2.822032643466417
 40
2.973822353257947
 40
3.143014704823389
 40
3.318007936879968
 40
3.487200288186801
 40
3.638989997548282
 40
3.761775303794781
 40
3.843954445753115
 40
3.873925662229811
 40
3.890812773500518
 40
3.907699884771695
 40
3.937960767857307
 40
3.980983618142339
 40
4.19908591522848
 40
4.439444339237274
 40
4.677588241260918
 40
5.050698317837804
 40
5.44821245476319
 40
5.855291218044715
 40
6.138575438885382
 40
6.41743450758422
 40
6.444551104393902
 40
6.504207617363202
 40
6.563864130314525
 40
6.590980727104118
 40
6.848609460381504
 40
7.109611990668466
 40
7.352910904446131
 40
7.557830220705502
 40
7.58751892591342
 40
7.652834077375838
 40
7.718149228845772
 40
7.747837934062075
 40
7.854880190301035
 40
7.976511257403583
 40
8.369487896592386
 40
8.757514959223679
 40
9.126072419331141
 40
9.460639380392204
 40
9.746695593035945
 40
9.777569943118715
 40
9.807050320931813
 40
9.830377336128945
 40
9.886003295436021
 40
9.95239556942993
 40
10.00802152870628
 40
10.03134854388221
 40
10.21356951009591
 40
10.42203479292874
 40
10.66154556731066
 40
10.91693789564306
 40
11.15832906556567
 40
11.18982674596624
 40
11.27286608520409
 40
11.39026653033351
 40
11.52484752840887
 40
11.65942852648449
 40
11.77682897161485
 40
11.85986831085684
 40
11.89136598230429
 40
11.89136598230429
 40
11.89136598230429
 40
11.89136598230429
 10
190.7027885008196
 20
14.70699600701769
 30
0.0
 10
190.7028237765288
 20
14.71587847311982
 30
0.0
 10
190.7029366710796
 20
14.74430237047344
 30
0.0
 10
190.7012984568489
 20
14.794096391698
 30
0.0
 10
190.706975029291
 20
14.83657564478152
 30
0.0
 10
190.6956928731706
 20
14.88730154856845
 30
0.0
 10
190.7632296979032
 20
14.87012900740107
 30
0.0
 10
190.8388029210699
 20
14.88290227165993
 30
0.0
 10
190.9828357056001
 20
14.8762972945738
 30
0.0
 10
191.1569419185426
 20
14.87888462206464
 30
0.0
 10
191.3639599611004
 20
14.87800591955551
 30
0.0
 10
191.5894688172378
 20
14.87828207920026
 30
0.0
 10
191.8251162293406
 20
14.8781833965866
 30
0.0
 10
192.0607640531348
 20
14.87828184412765
 30
0.0
 10
192.2862717580626
 20
14.87800678190787
 30
0.0
 10
192.4932934632805
 20
14.87888186270733
 30
0.0
 10
192.6673888915288
 20
14.87630522678445
 30
0.0
 10
192.8114492071986
 20
14.88288290449211
 30
0.0
 10
192.8869691915293
 20
14.87016243405602
 30
0.0
 10
192.954577603703
 20
14.88726400191684
 30
0.0
 10
192.9430840140676
 20
14.83674785802938
 30
0.0
 10
192.9505104581733
 20
14.79253252226499
 30
0.0
 10
192.9428838927986
 20
14.74867966503607
 30
0.0
 10
192.9546489459425
 20
14.69878374479325
 30
0.0
 10
192.8930788491983
 20
14.71393227712508
 30
0.0
 10
192.8256791738671
 20
14.70310665350671
 30
0.0
 10
192.7013004056222
 20
14.70852031626233
 30
0.0
 10
192.555442823657
 20
14.70649205390782
 30
0.0
 10
192.3893576440086
 20
14.70715777578384
 30
0.0
 10
192.2188412621724
 20
14.70689643521239
 30
0.0
 10
192.0519790855388
 20
14.70721553391091
 30
0.0
 10
191.9087346827105
 20
14.70635302590759
 30
0.0
 10
191.7773313869834
 20
14.70863300482986
 30
0.0
 10
191.7239859134656
 20
14.70407704374198
 30
0.0
 10
191.6485188456913
 20
14.70999914992874
 30
0.0
 10
191.6769075779232
 20
14.7009416934335
 30
0.0
 10
191.7033652409542
 20
14.69725912268927
 30
0.0
 10
191.6633522907701
 20
14.66654271968271
 30
0.0
 10
191.5713663691868
 20
14.67667591174633
 30
0.0
 10
191.5439396207069
 20
14.43032502247781
 30
0.0
 10
191.4478793967235
 20
14.27499558764373
 30
0.0
 10
191.1917277964473
 20
13.94525417931565
 30
0.0
 10
191.7627537732762
 20
14.08430022210449
 30
0.0
 10
192.0173656320516
 20
14.08291779973361
 30
0.0
 10
192.6279647048617
 20
13.99790569242085
 30
0.0
 10
192.3340698578083
 20
14.29685417558201
 30
0.0
 10
192.0133304286517
 20
14.44330856901779
 30
0.0
 10
192.1313543360434
 20
14.50025540818285
 30
0.0
 10
192.1724716466261
 20
14.52420099873346
 30
0.0
 10
192.2156812394411
 20
14.54599758811228
 30
0.0
 10
192.3174574094451
 20
14.60928721253902
 30
0.0
 10
192.4328867625247
 20
14.35147151408777
 30
0.0
 10
192.6329591642277
 20
14.2161604111368
 30
0.0
 10
192.7269077387228
 20
14.0379279513888
 30
0.0
 10
192.9558829746392
 20
13.87997821027044
 30
0.0
 10
192.8596031846708
 20
13.82915972576297
 30
0.0
 10
192.8167959763778
 20
13.79881292523051
 30
0.0
 10
192.7718243528779
 20
13.77466130281456
 30
0.0
 10
192.7121720925214
 20
13.72552146747566
 30
0.0
 10
192.6789731061324
 20
13.85997475673607
 30
0.0
 10
192.5582013350796
 20
14.0159426528658
 30
0.0
 10
192.1970976005978
 20
13.88569928059555
 30
0.0
 10
191.8385061955541
 20
13.90224694409482
 30
0.0
 10
191.457092045008
 20
13.89331229351863
 30
0.0
 10
191.170345528289
 20
13.82882671672406
 30
0.0
 10
190.8592055599715
 20
13.94230668192824
 30
0.0
 10
190.8268737818787
 20
13.83122259927766
 30
0.0
 10
190.7896178253318
 20
13.81196313850012
 30
0.0
 10
190.7865737632753
 20
13.85874784087295
 30
0.0
 10
190.7679892860608
 20
13.89806853919134
 30
0.0
 10
190.7512436616777
 20
13.95765983478231
 30
0.0
 10
190.7383730915753
 20
14.00201969871282
 30
0.0
 10
190.7042327806429
 20
14.09106331120199
 30
0.0
 10
190.9482714457754
 20
14.02181042943768
 30
0.0
 10
191.1441394486671
 20
14.00030369057742
 30
0.0
 10
191.2395426381277
 20
14.28226484478461
 30
0.0
 10
191.2945135769597
 20
14.4436304542112
 30
0.0
 10
191.5159619357154
 20
14.71391177589736
 30
0.0
 10
191.3849239381217
 20
14.70548446853731
 30
0.0
 10
191.3110026555853
 20
14.70779008496967
 30
0.0
 10
191.1977459876244
 20
14.70671378321655
 30
0.0
 10
191.0694251807484
 20
14.70707639076507
 30
0.0
 10
190.9404252030415
 20
14.70697724466083
 30
0.0
 10
190.828784094629
 20
14.70699932712569
 30
0.0
 10
190.7514663970026
 20
14.70699579189667
 30
0.0
 10
190.713287653201
 20
14.70699595845078
 30
0.0
 10
190.7027885008196
 20
14.70699600701769
 30
0.0
 11
190.7027885008196
 21
14.70699600701769
 31
0.0
 11
190.7027885008196
 21
14.73374924051795
 31
0.0
 11
190.7027885008196
 21
14.79260635421851
 31
0.0
 11
190.7027885008196
 21
14.85146346791907
 31
0.0
 11
190.7027885008196
 21
14.87821670141933
 31
0.0
 11
190.7355094280989
 21
14.87821670141933
 31
0.0
 11
190.8271280244809
 21
14.87821670141933
 31
0.0
 11
190.9678280117818
 21
14.87821670141933
 31
0.0
 11
191.1477931118179
 21
14.87821670141933
 31
0.0
 11
191.3572070464054
 21
14.87821670141933
 31
0.0
 11
191.5862535373604
 21
14.87821670141933
 31
0.0
 11
191.8251163064992
 21
14.87821670141933
 31
0.0
 11
192.0639790756381
 21
14.87821670141933
 31
0.0
 11
192.2930255665931
 21
14.87821670141933
 31
0.0
 11
192.5024395011806
 21
14.87821670141933
 31
0.0
 11
192.6824046012167
 21
14.87821670141933
 31
0.0
 11
192.8231045885176
 21
14.87821670141933
 31
0.0
 11
192.9147231848996
 21
14.87821670141933
 31
0.0
 11
192.9474441121789
 21
14.87821670141933
 31
0.0
 11
192.9474441121789
 21
14.85146346791907
 31
0.0
 11
192.9474441121789
 21
14.79260635421851
 31
0.0
 11
192.9474441121789
 21
14.73374924051795
 31
0.0
 11
192.9474441121789
 21
14.70699600701769
 31
0.0
 11
192.9174728954758
 21
14.70699600701769
 31
0.0
 11
192.8352937529027
 21
14.70699600701769
 31
0.0
 11
192.7125084457639
 21
14.70699600701769
 31
0.0
 11
192.5607187353642
 21
14.70699600701769
 31
0.0
 11
192.3915263830077
 21
14.70699600701769
 31
0.0
 11
192.2165331499991
 21
14.70699600701769
 31
0.0
 11
192.0473407976426
 21
14.70699600701769
 31
0.0
 11
191.8955510872428
 21
14.70699600701769
 31
0.0
 11
191.7727657801042
 21
14.70699600701769
 31
0.0
 11
191.690586637531
 21
14.70699600701769
 31
0.0
 11
191.6606154208279
 21
14.70699600701769
 31
0.0
 11
191.6766359412525
 21
14.70165583340791
 31
0.0
 11
191.6926564616771
 21
14.69631565979813
 31
0.0
 11
191.670615568142
 21
14.6755811459144
 31
0.0
 11
191.6284861855363
 21
14.66685871536107
 31
0.0
 11
191.5365235541377
 21
14.46909247312654
 31
0.0
 11
191.4279078521763
 21
14.25467511978506
 31
0.0
 11
191.3127500824807
 21
14.04622559051617
 31
0.0
 11
191.685736667502
 21
14.05582441253026
 31
0.0
 11
192.083070003615
 21
14.06781232404992
 31
0.0
 11
192.4899342191145
 21
14.08102711828531
 31
0.0
 11
192.2983119496978
 21
14.28966761302479
 31
0.0
 11
192.0966752013698
 21
14.4822942015183
 31
0.0
 11
192.1204947794749
 21
14.49525327269562
 31
0.0
 11
192.1728978513061
 21
14.52376322928574
 31
0.0
 11
192.2253009231374
 21
14.55227318587585
 31
0.0
 11
192.2491205012425
 21
14.56523225705318
 31
0.0
 11
192.4387101558627
 21
14.39079508370266
 31
0.0
 11
192.6200310940435
 21
14.20305846374089
 31
0.0
 11
192.7777729231147
 21
14.01782380992433
 31
0.0
 11
192.8966252504058
 21
13.85089253500946
 31
0.0
 11
192.8715408217923
 21
13.83501202286066
 31
0.0
 11
192.8163550788425
 21
13.80007489613329
 31
0.0
 11
192.7611693358928
 21
13.76513776940593
 31
0.0
 11
192.7360849072793
 21
13.74925725725713
 31
0.0
 11
192.6775518151612
 21
13.83887824681807
 31
0.0
 11
192.6050015078457
 21
13.93650288221031
 31
0.0
 11
192.2125412924095
 21
13.91636286943758
 31
0.0
 11
191.824947406956
 21
13.89803302999772
 31
0.0
 11
191.4567378976213
 21
13.88202178722394
 31
0.0
 11
191.1224308105412
 21
13.86883756444946
 31
0.0
 11
190.8365441918518
 21
13.85898878500748
 31
0.0
 11
190.821186232174
 21
13.83220523466694
 31
0.0
 11
190.7937434290546
 21
13.82143559057244
 31
0.0
 11
190.7867927192319
 21
13.84370299445576
 31
0.0
 11
190.7702179496548
 21
13.89680218833137
 31
0.0
 11
190.7504351601596
 21
13.96017864553775
 31
0.0
 11
190.7338603905825
 21
14.01327783941336
 31
0.0
 11
190.7269096807598
 21
14.03554524329668
 31
0.0
 11
190.9091199859153
 21
14.0375163891295
 31
0.0
 11
191.1174975848588
 21
14.0435621182947
 31
0.0
 11
191.2303203127216
 21
14.25483550301552
 31
0.0
 11
191.3407936722035
 21
14.48509813155877
 31
0.0
 11
191.4358254265627
 21
14.70699600701769
 31
0.0
 11
191.4043277461597
 21
14.70699600701769
 31
0.0
 11
191.3212884069153
 21
14.70699600701769
 31
0.0
 11
191.2038879617768
 21
14.70699600701769
 31
0.0
 11
191.0693069636912
 21
14.70699600701769
 31
0.0
 11
190.9347259656055
 21
14.70699600701769
 31
0.0
 11
190.817325520467
 21
14.70699600701769
 31
0.0
 11
190.7342861812226
 21
14.70699600701769
 31
0.0
 11
190.7027885008196
 21
14.70699600701769
 31
0.0
  0
SPLINE
  5
AA
102
{ACAD_REACTORS
330
C7
102
}
330
48
100
AcDbEntity
  8
_U_30EC_U_30A4_U_30E4_U_30FC_1
  6
Continuous
 62
     2
100
AcDbSpline
210
0.0
220
0.0
230
1.0
 70
    11
 71
     3
 72
    35
 73
    31
 74
    29
 42
0.000000001
 43
0.0000000001
 44
0.00000001
 40
0.0
 40
0.0
 40
0.0
 40
0.0
 40
0.0335231036620673
 40
0.0713218571712079
 40
0.4278866681487083
 40
0.8116865841964116
 40
1.198190238000071
 40
1.561379546812697
 40
1.659983174622065
 40
1.75931557380721
 40
2.132719617231098
 40
2.525233363588851
 40
2.91081539777972
 40
3.26524436430331
 40
3.592606723582056
 40
3.964386154604001
 40
4.359942131737823
 40
4.758154118639332
 40
4.843846538699944
 40
4.936650065543263
 40
5.256616602537343
 40
5.581707404416077
 40
5.899719158308172
 40
6.198363494280777
 40
6.466301046615807
 40
6.493895311537128
 40
6.55969702019692
 40
6.638234543442495
 40
6.704036252154247
 40
6.731630508423053
 40
6.731630508423053
 40
6.731630508423053
 40
6.731630508423053
 10
191.9736010568669
 20
16.23463843719132
 30
0.0
 10
191.9676006097789
 20
16.22480690542321
 30
0.0
 10
191.9548344099156
 20
16.20388988579796
 30
0.0
 10
191.7949362006556
 20
16.17127126532687
 30
0.0
 10
192.2322025842336
 20
15.88206680336699
 30
0.0
 10
192.4345394828262
 20
15.68041138358437
 30
0.0
 10
192.6819564267973
 20
15.43749387603274
 30
0.0
 10
193.1831513624607
 20
15.36047662757775
 30
0.0
 10
193.012556219897
 20
15.21876939174654
 30
0.0
 10
192.9383299463202
 20
15.01710366209104
 30
0.0
 10
192.6131432248188
 20
15.36956287174724
 30
0.0
 10
192.3277741670664
 20
15.5317521255956
 30
0.0
 10
192.0337604077658
 20
15.73687130053046
 30
0.0
 10
191.8084452691134
 20
16.21827488595454
 30
0.0
 10
191.5993085055522
 20
15.7534304660922
 30
0.0
 10
191.3207873674834
 20
15.54350952252909
 30
0.0
 10
191.0371383177209
 20
15.37424456359982
 30
0.0
 10
190.7078639527832
 20
15.00142360907934
 30
0.0
 10
190.6277012318224
 20
15.19708014458999
 30
0.0
 10
190.4759724909744
 20
15.32491104190593
 30
0.0
 10
190.9083395826794
 20
15.40454031765933
 30
0.0
 10
191.0962565329766
 20
15.6002663491547
 30
0.0
 10
191.3468477420503
 20
15.81632996916753
 30
0.0
 10
191.5714350470161
 20
15.98190992300056
 30
0.0
 10
191.6259775409712
 20
16.26133964636823
 30
0.0
 10
191.7494661029011
 20
16.24737950408076
 30
0.0
 10
191.8060273344519
 20
16.24521268867644
 30
0.0
 10
191.8761870984945
 20
16.24046859881358
 30
0.0
 10
191.9333414022105
 20
16.23709429350539
 30
0.0
 10
191.9644190320839
 20
16.23519854711117
 30
0.0
 10
191.9736010568669
 20
16.23463843719132
 30
0.0
 11
191.9736010568669
 21
16.23463843719132
 31
0.0
 11
191.9525319069884
 21
16.20856374969783
 31
0.0
 11
191.9174464559425
 21
16.19450114553467
 31
0.0
 11
192.1512374769094
 21
15.9252796113138
 31
0.0
 11
192.4414585957566
 21
15.67413407969257
 31
0.0
 11
192.7612797483684
 21
15.45710987618781
 31
0.0
 11
193.0838708706289
 21
15.29025232631635
 31
0.0
 11
193.0213299868076
 21
15.21402035584926
 31
0.0
 11
192.9688035818975
 21
15.12971197913421
 31
0.0
 11
192.6436279095814
 21
15.31326404831577
 31
0.0
 11
192.3237227768436
 21
15.54070139743426
 31
0.0
 11
192.0354200158608
 21
15.79673855123308
 31
0.0
 11
191.8050514588095
 21
16.06609003445564
 31
0.0
 11
191.5995531719516
 21
15.81126348721033
 31
0.0
 11
191.3288301341535
 21
15.55645182277753
 31
0.0
 11
191.0119538423246
 21
15.31969466354854
 31
0.0
 11
190.6679957933741
 21
15.11903163191464
 31
0.0
 11
190.6218855341338
 21
15.19126067703551
 31
0.0
 11
190.5636970460348
 21
15.26355586798964
 31
0.0
 11
190.8433040489015
 21
15.41911456961742
 31
0.0
 11
191.1093004621154
 21
15.60601009790402
 31
0.0
 11
191.3499997459746
 21
15.81384496285206
 31
0.0
 11
191.5537153607774
 21
16.03222167446413
 31
0.0
 11
191.7087607668218
 21
16.25074274274284
 31
0.0
 11
191.7363041569865
 21
16.24906789496548
 31
0.0
 11
191.8019845489177
 21
16.24507402718871
 31
0.0
 11
191.880377274771
 21
16.24030715274546
 31
0.0
 11
191.9460576667022
 21
16.23631328496868
 31
0.0
 11
191.9736010568669
 21
16.23463843719132
 31
0.0
  0
SPLINE
  5
AB
102
{ACAD_REACTORS
330
C8
102
}
330
48
100
AcDbEntity
  8
_U_30EC_U_30A4_U_30E4_U_30FC_1
  6
Continuous
 62
     2
100
AcDbSpline
210
0.0
220
0.0
230
1.0
 70
    11
 71
     3
 72
    15
 73
    11
 74
     9
 42
0.000000001
 43
0.0000000001
 44
0.00000001
 40
0.0
 40
0.0
 40
0.0
 40
0.0
 40
0.2785535985096595
 40
0.5215624748198932
 40
0.6076917376040567
 40
0.693821000174129
 40
0.9405019146455178
 40
1.221691403489146
 40
1.300471877081065
 40
1.379252341684832
 40
1.379252341684832
 40
1.379252341684832
 40
1.379252341684832
 10
189.5681493630999
 20
16.22930267330379
 30
0.0
 10
189.6296017794178
 20
16.17691646592713
 30
0.0
 10
189.7446649974113
 20
16.07882876798219
 30
0.0
 10
190.0397348497243
 20
15.92889785897219
 30
0.0
 10
189.9025147631857
 20
15.84343227515011
 30
0.0
 10
189.8041227843778
 20
15.71085785201551
 30
0.0
 10
189.713003359065
 20
16.01616985781419
 30
0.0
 10
189.3636839480654
 20
16.07967869465371
 30
0.0
 10
189.5119258376571
 20
16.17896509880876
 30
0.0
 10
189.5494081874236
 20
16.2125234840238
 30
0.0
 10
189.5681493630999
 20
16.22930267330379
 30
0.0
 11
189.5681493630999
 21
16.22930267330379
 31
0.0
 11
189.7919222440596
 21
16.0634177427897
 31
0.0
 11
189.9695046306383
 21
15.89753281227561
 31
0.0
 11
189.9066308127979
 21
15.83866743034589
 31
0.0
 11
189.8437569949575
 21
15.77980204841617
 31
0.0
 11
189.6688535117725
 21
15.95375677059489
 31
0.0
 11
189.447825685614
 21
16.127579201107
 31
0.0
 11
189.507987524357
 21
16.17844093720539
 31
0.0
 11
189.5681493630999
 21
16.22930267330379
 31
0.0
  0
SPLINE
  5
AC
102
{ACAD_REACTORS
330
C9
102
}
330
48
100
AcDbEntity
  8
_U_30EC_U_30A4_U_30E4_U_30FC_1
  6
Continuous
 62
     2
100
AcDbSpline
210
0.0
220
0.0
230
1.0
 70
    11
 71
     3
 72
    75
 73
    71
 74
    69
 42
0.000000001
 43
0.0000000001
 44
0.00000001
 40
0.0
 40
0.0
 40
0.0
 40
0.0
 40
0.0342546099129691
 40
0.1245622414432346
 40
0.2522385480897518
 40
0.3985991922940662
 40
0.5449598364980839
 40
0.6726361431438852
 40
0.7629437746736942
 40
0.7971983935297973
 40
1.101723623449661
 40
1.408591244036667
 40
1.433332471690375
 40
1.487763172450175
 40
1.542193873082008
 40
1.566935100592559
 40
1.923523931821871
 40
2.271755704953671
 40
2.590579755100912
 40
2.858943305581171
 40
2.889120339309192
 40
2.918305855191143
 40
2.941366645531267
 40
2.996357760973162
 40
3.061992318140708
 40
3.116983433626907
 40
3.140044223997588
 40
3.411273122936509
 40
3.732441619741174
 40
3.761068217532873
 40
3.837787499630434
 40
3.948858699126072
 40
4.080541049104449
 40
4.219093782625833
 40
4.350776132722382
 40
4.461847332405716
 40
4.53856661467845
 40
4.567193212544696
 40
4.594907573998954
 40
4.666381453557493
 40
4.764111044011104
 40
4.870592538125907
 40
4.968322128642358
 40
5.039796008287043
 40
5.067510369784502
 40
5.094263603185714
 40
5.153120716668347
 40
5.211977830150792
 40
5.238731063551795
 40
5.272290535139033
 40
5.363380529444894
 40
5.497618415781572
 40
5.660621563453814
 40
5.838007341749515
 40
6.015393119910867
 40
6.178396267038492
 40
6.312634151842444
 40
6.403724143059433
 40
6.437283612672529
 40
6.464036846261143
 40
6.522893960004756
 40
6.581751071484019
 40
6.608504301590964
 40
6.637253941281111
 40
6.711397748902963
 40
6.812778057283575
 40
6.923237199249352
 40
7.024617507623995
 40
7.098761315207648
 40
7.127510946007598
 40
7.127510946007598
 40
7.127510946007598
 40
7.127510946007598
 10
188.4418622390564
 20
14.95849128473262
 30
0.0
 10
188.4418622819707
 20
14.94707313408718
 30
0.0
 10
188.4418624481129
 20
14.90555257842627
 30
0.0
 10
188.4418593081786
 20
14.82146922003769
 30
0.0
 10
188.4418788279801
 20
14.70004497322327
 30
0.0
 10
188.4417912187737
 20
14.55980494047446
 30
0.0
 10
188.442111623523
 20
14.42006556794574
 30
0.0
 10
188.4411605909741
 20
14.29745038894927
 30
0.0
 10
188.4431978595967
 20
14.2158707443804
 30
0.0
 10
188.4349433178746
 20
14.06271267077697
 30
0.0
 10
188.7430797940902
 20
14.22560236054718
 30
0.0
 10
189.0350645173735
 20
14.39482938688002
 30
0.0
 10
189.0408354448708
 20
14.2597323578191
 30
0.0
 10
189.0455471719891
 20
14.21617221160443
 30
0.0
 10
189.0482535411917
 20
14.17211249350542
 30
0.0
 10
189.067254567296
 20
14.02272590363133
 30
0.0
 10
188.6583942247302
 20
14.08681172241259
 30
0.0
 10
188.3793710348831
 20
13.97296341411014
 30
0.0
 10
188.1018081587167
 20
13.87364095811141
 30
0.0
 10
187.8099837184399
 20
13.91630687596351
 30
0.0
 10
187.7869144678658
 20
13.81321679744539
 30
0.0
 10
187.7537474383332
 20
13.78691091244466
 30
0.0
 10
187.7480653962739
 20
13.83455309036302
 30
0.0
 10
187.7284214559043
 20
13.87180336115066
 30
0.0
 10
187.7095089485623
 20
13.93007387847562
 30
0.0
 10
187.6942849867708
 20
13.97385201007802
 30
0.0
 10
187.6477246372935
 20
14.0875942104631
 30
0.0
 10
187.989089731245
 20
14.05576301120044
 30
0.0
 10
188.2679649367388
 20
14.02161435106478
 30
0.0
 10
188.2617753034906
 20
14.1691397647965
 30
0.0
 10
188.2630935452773
 20
14.24013150908831
 30
0.0
 10
188.2624831689948
 20
14.34719767958659
 30
0.0
 10
188.2625871570724
 20
14.47398529785995
 30
0.0
 10
188.2629987964055
 20
14.60849243496048
 30
0.0
 10
188.2613907841969
 20
14.73395549951182
 30
0.0
 10
188.2659902567925
 20
14.84505246719115
 30
0.0
 10
188.256418650221
 20
14.90761886800686
 30
0.0
 10
188.2704001783691
 20
14.96595388294999
 30
0.0
 10
188.2147384386704
 20
14.95289710582235
 30
0.0
 10
188.1575655197821
 20
14.96136307749496
 30
0.0
 10
188.0616048925648
 20
14.95729976080634
 30
0.0
 10
187.963376752282
 20
14.95970889852472
 30
0.0
 10
187.8672582457561
 20
14.95551600613386
 30
0.0
 10
187.8104648525811
 20
14.96429346441161
 30
0.0
 10
187.7550356873384
 20
14.95094936850118
 30
0.0
 10
187.7670679427917
 20
15.00036910959254
 30
0.0
 10
187.7592003173937
 20
15.04393988030393
 30
0.0
 10
187.7666295563828
 20
15.08830469118522
 30
0.0
 10
187.7551930564144
 20
15.13902297763988
 30
0.0
 10
187.8232102370132
 20
15.1216246075774
 30
0.0
 10
187.8968496879747
 20
15.13417450237186
 30
0.0
 10
188.0325064058211
 20
15.12799677011094
 30
0.0
 10
188.1884909024525
 20
15.13029203093081
 30
0.0
 10
188.3615926358143
 20
15.12940968262527
 30
0.0
 10
188.5346942964181
 20
15.13029207142405
 30
0.0
 10
188.6906789811216
 20
15.12799662955547
 30
0.0
 10
188.8263351889797
 20
15.13417486262428
 30
0.0
 10
188.8999756705652
 20
15.12162394218332
 30
0.0
 10
188.9679914174724
 20
15.1390237301214
 30
0.0
 10
188.9565590885922
 20
15.08830130414552
 30
0.0
 10
188.9639539458298
 20
15.04397060811106
 30
0.0
 10
188.956203991227
 20
15.00028307550193
 30
0.0
 10
188.9681203741877
 20
14.95063590098475
 30
0.0
 10
188.9108170223616
 20
14.96461411338423
 30
0.0
 10
188.8520145789772
 20
14.95539755673252
 30
0.0
 10
188.7525293633199
 20
14.95952268164927
 30
0.0
 10
188.649428009835
 20
14.95822760025886
 30
0.0
 10
188.5537846354573
 20
14.95854077077638
 30
0.0
 10
188.4857467971617
 20
14.95848776697143
 30
0.0
 10
188.4514462213443
 20
14.95849051871654
 30
0.0
 10
188.4418622390564
 20
14.95849128473262
 30
0.0
 11
188.4418622390564
 21
14.95849128473262
 31
0.0
 11
188.4418622390564
 21
14.92423666587183
 31
0.0
 11
188.4418622390564
 21
14.83392903432973
 31
0.0
 11
188.4418622390564
 21
14.70625272766677
 31
0.0
 11
188.4418622390564
 21
14.55989208344338
 31
0.0
 11
188.4418622390564
 21
14.41353143921998
 31
0.0
 11
188.4418622390564
 21
14.28585513255702
 31
0.0
 11
188.4418622390564
 21
14.19554750101493
 31
0.0
 11
188.4418622390564
 21
14.16129288215413
 31
0.0
 11
188.7391932644567
 21
14.22709475713766
 31
0.0
 11
189.0384623627245
 21
14.29496038212071
 31
0.0
 11
189.0405487124976
 21
14.27030727882826
 31
0.0
 11
189.0451386819987
 21
14.21607045158488
 31
0.0
 11
189.0497286514996
 21
14.1618336243415
 31
0.0
 11
189.0518150012728
 21
14.13718052104905
 31
0.0
 11
188.705639688924
 21
14.05163370140895
 31
0.0
 11
188.3669653138838
 21
13.97060877629899
 31
0.0
 11
188.0563731516688
 21
13.89862764024927
 31
0.0
 11
187.7944444777955
 21
13.84021218778989
 31
0.0
 11
187.7817515029292
 21
13.81283442738011
 31
0.0
 11
187.7569794787513
 21
13.79740260446732
 31
0.0
 11
187.7491867589501
 21
13.81910683390634
 31
0.0
 11
187.7306041194242
 21
13.87086307333783
 31
0.0
 11
187.70842483999
 21
13.93263664943349
 31
0.0
 11
187.689842200464
 21
13.98439288886498
 31
0.0
 11
187.6820494806628
 21
14.006097118304
 31
0.0
 11
187.9482776335931
 21
14.05794001759664
 31
0.0
 11
188.2626334936289
 21
14.12373968771908
 31
0.0
 11
188.2626334936289
 21
14.15236628569623
 31
0.0
 11
188.2626334936289
 21
14.22908556827497
 31
0.0
 11
188.2626334936289
 21
14.34015676842629
 31
0.0
 11
188.2626334936289
 21
14.47183911912116
 31
0.0
 11
188.2626334936289
 21
14.61039185333054
 31
0.0
 11
188.2626334936289
 21
14.74207420402541
 31
0.0
 11
188.2626334936289
 21
14.85314540417673
 31
0.0
 11
188.2626334936289
 21
14.92986468675548
 31
0.0
 11
188.2626334936289
 21
14.95849128473262
 31
0.0
 11
188.2349191321108
 21
14.95849128473262
 31
0.0
 11
188.1634452524063
 21
14.95849128473262
 31
0.0
 11
188.06571566179
 21
14.95849128473262
 31
0.0
 11
187.9592341675364
 21
14.95849128473262
 31
0.0
 11
187.8615045769201
 21
14.95849128473262
 31
0.0
 11
187.7900306972156
 21
14.95849128473262
 31
0.0
 11
187.7623163356975
 21
14.95849128473262
 31
0.0
 11
187.7623163356975
 21
14.98524451823287
 31
0.0
 11
187.7623163356975
 21
15.04410163193342
 31
0.0
 11
187.7623163356975
 21
15.10295874563396
 31
0.0
 11
187.7623163356975
 21
15.12971197913421
 31
0.0
 11
187.7958758072874
 21
15.12971197913421
 31
0.0
 11
187.8869658016031
 21
15.12971197913421
 31
0.0
 11
188.0212036879629
 21
15.12971197913421
 31
0.0
 11
188.1842068356856
 21
15.12971197913421
 31
0.0
 11
188.3615926140897
 21
15.12971197913421
 31
0.0
 11
188.5389783924938
 21
15.12971197913421
 31
0.0
 11
188.7019815402164
 21
15.12971197913421
 31
0.0
 11
188.8362194265763
 21
15.12971197913421
 31
0.0
 11
188.9273094208918
 21
15.12971197913421
 31
0.0
 11
188.9608688924818
 21
15.12971197913421
 31
0.0
 11
188.9608688924818
 21
15.10295874563396
 31
0.0
 11
188.9608688924818
 21
15.04410163193342
 31
0.0
 11
188.9608688924818
 21
14.98524451823287
 31
0.0
 11
188.9608688924818
 21
14.95849128473262
 31
0.0
 11
188.9321192527877
 21
14.95849128473262
 31
0.0
 11
188.8579754451555
 21
14.95849128473262
 31
0.0
 11
188.7565951367604
 21
14.95849128473262
 31
0.0
 11
188.6461359947778
 21
14.95849128473262
 31
0.0
 11
188.5447556863827
 21
14.95849128473262
 31
0.0
 11
188.4706118787505
 21
14.95849128473262
 31
0.0
 11
188.4418622390564
 21
14.95849128473262
 31
0.0
  0
SPLINE
  5
AD
102
{ACAD_REACTORS
330
CA
102
}
330
48
100
AcDbEntity
  8
_U_30EC_U_30A4_U_30E4_U_30FC_1
  6
Continuous
 62
     2
100
AcDbSpline
210
0.0
220
0.0
230
1.0
 70
    11
 71
     3
 72
    91
 73
    87
 74
    85
 42
0.000000001
 43
0.0000000001
 44
0.00000001
 40
0.0
 40
0.0
 40
0.0
 40
0.0
 40
0.0345987051695718
 40
0.1258134969461369
 40
0.2547723404888987
 40
0.4026032099154125
 40
0.5504340793416704
 40
0.679392922883608
 40
0.7706077146571035
 40
0.8052064287780925
 40
1.124852390615278
 40
1.427402236308874
 40
1.706356627453512
 40
1.9555414178752
 40
2.169485938566345
 40
2.344350786664804
 40
2.480568411561955
 40
2.590440557428977
 40
2.649189927151131
 40
2.749320643306337
 40
2.912632739880043
 40
3.147745656000247
 40
3.24482749638514
 40
3.33849005694673
 40
3.583815413207154
 40
3.761423943238517
 40
3.886956104362681
 40
3.985855451886847
 40
4.091766255337732
 40
4.250186473811925
 40
4.422734315084571
 40
4.628285684838666
 40
4.8720932277585
 40
5.152549652145611
 40
5.464967135837596
 40
5.803201477852511
 40
6.160362988813987
 40
6.193449448276042
 40
6.284170385501697
 40
6.419718138764567
 40
6.587285046385817
 40
6.774063446723731
 40
6.967245678113714
 40
7.1540240788177
 40
7.321590987026085
 40
7.457138740890444
 40
7.54785967855618
 40
7.58094613818274
 40
7.608533084714792
 40
7.669224367077766
 40
7.729915649429981
 40
7.757502595950034
 40
7.790278062553488
 40
7.880146277430986
 40
8.014419963180448
 40
8.180411842397948
 40
8.365434637679417
 40
8.556801071622719
 40
8.741823866830831
 40
8.907815745916341
 40
9.042089431507495
 40
9.13195764624962
 40
9.164733112797197
 40
9.415425063140123
 40
9.667986180958595
 40
9.694169807462762
 40
9.756607686047722
 40
9.831130315322529
 40
9.893568193899993
 40
9.91975182039881
 40
9.950967964690644
 40
9.996421631210755
 40
10.22087981037465
 40
10.44341866197553
 40
10.47847970788865
 40
10.57091337438766
 40
10.7015954546124
 40
10.85140174170371
 40
11.00120802880488
 40
11.13189010907394
 40
11.22432377583022
 40
11.25938480938968
 40
11.28697175596156
 40
11.3476630383593
 40
11.40835432042081
 40
11.43594125892115
 40
11.43594125892115
 40
11.43594125892115
 40
11.43594125892115
 10
190.0818114333289
 20
15.55242795125075
 30
0.0
 10
190.0702785844941
 20
15.55242790287913
 30
0.0
 10
190.0283409444998
 20
15.55242773704162
 30
0.0
 10
189.9434129719026
 20
15.55243125800907
 30
0.0
 10
189.8207688553128
 20
15.55240926435877
 30
0.0
 10
189.6791206916993
 20
15.55250801177052
 30
0.0
 10
189.537975369849
 20
15.55214686232418
 30
0.0
 10
189.4141351317905
 20
15.55321883609087
 30
0.0
 10
189.3317217825381
 20
15.55092249091266
 30
0.0
 10
189.1727791229693
 20
15.56048569373419
 30
0.0
 10
189.3503402353375
 20
15.19785394311368
 30
0.0
 10
189.3379739205453
 20
14.95243127723112
 30
0.0
 10
189.4064519473864
 20
14.66862501324832
 30
0.0
 10
189.469302432097
 20
14.43250999939033
 30
0.0
 10
189.5452253431728
 20
14.23326740396127
 30
0.0
 10
189.6303189577017
 20
14.07745347451371
 30
0.0
 10
189.7244607592935
 20
13.97657857781389
 30
0.0
 10
189.8282648207728
 20
13.92465852638962
 30
0.0
 10
189.9125872030773
 20
13.97606484379614
 30
0.0
 10
189.9351322179452
 20
14.09144544037515
 30
0.0
 10
189.9745730975371
 20
14.21885149702378
 30
0.0
 10
189.9202919734942
 20
14.53622328086754
 30
0.0
 10
190.0451218072473
 20
14.38982180140904
 30
0.0
 10
190.2019291513603
 20
14.35795300331169
 30
0.0
 10
190.0947720007057
 20
14.12421357767626
 30
0.0
 10
190.0808711209867
 20
13.95972776583654
 30
0.0
 10
190.0234709467225
 20
13.83130869122481
 30
0.0
 10
189.9335020145008
 20
13.76018802352823
 30
0.0
 10
189.8095274657877
 20
13.74432324142251
 30
0.0
 10
189.663427319686
 20
13.77993797554169
 30
0.0
 10
189.5243894320284
 20
13.90000570500274
 30
0.0
 10
189.4102003962144
 20
14.07435682550318
 30
0.0
 10
189.3146141301485
 20
14.29946603111238
 30
0.0
 10
189.2318652572627
 20
14.56388246006441
 30
0.0
 10
189.1807179256411
 20
14.88187933098541
 30
0.0
 10
189.0770189207338
 20
15.1554372848891
 30
0.0
 10
189.2042841208522
 20
15.56005818612866
 30
0.0
 10
189.0357890623018
 20
15.55112367849676
 30
0.0
 10
188.9511995787077
 20
15.55315961418361
 30
0.0
 10
188.8189876387627
 20
15.55213937388404
 30
0.0
 10
188.6560505094104
 20
15.55253230318427
 30
0.0
 10
188.4733759170532
 20
15.55235696313366
 30
0.0
 10
188.2847057373383
 20
15.55260105307466
 30
0.0
 10
188.1014469020189
 20
15.55185657906234
 30
0.0
 10
187.9404746832718
 20
15.55416360522423
 30
0.0
 10
187.8029808335276
 20
15.54799804883661
 30
0.0
 10
187.728959037231
 20
15.56032838458209
 30
0.0
 10
187.6613215186856
 20
15.54329323723554
 30
0.0
 10
187.673237371927
 20
15.59524438447525
 30
0.0
 10
187.6655677285694
 20
15.64071424966527
 30
0.0
 10
187.6732592225115
 20
15.68614453703703
 30
0.0
 10
187.6613141797761
 20
15.73802395984567
 30
0.0
 10
187.7283588305867
 20
15.72119143490261
 30
0.0
 10
187.8017375665676
 20
15.73335409092668
 30
0.0
 10
187.9379128305272
 20
15.72727231074955
 30
0.0
 10
188.0973811801512
 20
15.72954834315055
 30
0.0
 10
188.2789173085836
 20
15.72881233998959
 30
0.0
 10
188.4658034862179
 20
15.7290595419613
 30
0.0
 10
188.6468012316836
 20
15.72886400799251
 30
0.0
 10
188.8080802578878
 20
15.72932234714836
 30
0.0
 10
188.9393882124887
 20
15.72812673751203
 30
0.0
 10
189.0225051322596
 20
15.7305134731974
 30
0.0
 10
189.1556236547814
 20
15.7223060572546
 30
0.0
 10
189.0645893502659
 20
15.97752868952653
 30
0.0
 10
188.9789633074417
 20
16.24164358328243
 30
0.0
 10
189.0990589003455
 20
16.22904442969164
 30
0.0
 10
189.1514264948543
 20
16.22694235763073
 30
0.0
 10
189.2214497569716
 20
16.22535399889655
 30
0.0
 10
189.2671922337817
 20
16.2160256753811
 30
0.0
 10
189.3220812646934
 20
16.22545966915425
 30
0.0
 10
189.2963574785681
 20
16.1773302865517
 30
0.0
 10
189.1825397571453
 20
16.18266829744165
 30
0.0
 10
189.3159346621136
 20
15.95449174576774
 30
0.0
 10
189.1943658735471
 20
15.7215685659592
 30
0.0
 10
189.3223188769413
 20
15.73087258884436
 30
0.0
 10
189.4049048406461
 20
15.72801001754677
 30
0.0
 10
189.5307214850824
 20
15.72923437412299
 30
0.0
 10
189.6741469838058
 20
15.72932431888961
 30
0.0
 10
189.8157420951728
 20
15.7274616318385
 30
0.0
 10
189.9459127249968
 20
15.7333307593716
 30
0.0
 10
190.019345228619
 20
15.720703408232
 30
0.0
 10
190.0891112922096
 20
15.73877563110409
 30
0.0
 10
190.0775772605396
 20
15.68612850546323
 30
0.0
 10
190.0833184346682
 20
15.64221317686545
 30
0.0
 10
190.081661577091
 20
15.59089982676547
 30
0.0
 10
190.081775756167
 20
15.56158792021633
 30
0.0
 10
190.0818114333289
 20
15.55242795125075
 30
0.0
 11
190.0818114333289
 21
15.55242795125075
 31
0.0
 11
190.0472127192051
 21
15.55242795125075
 31
0.0
 11
189.9559979274241
 21
15.55242795125075
 31
0.0
 11
189.8270390838717
 21
15.55242795125075
 31
0.0
 11
189.6792082144335
 21
15.55242795125075
 31
0.0
 11
189.5313773449954
 21
15.55242795125075
 31
0.0
 11
189.402418501443
 21
15.55242795125075
 31
0.0
 11
189.311203709662
 21
15.55242795125075
 31
0.0
 11
189.2766049955382
 21
15.55242795125075
 31
0.0
 11
189.3083140497693
 21
15.23435864930119
 31
0.0
 11
189.3527866656865
 21
14.93509522788078
 31
0.0
 11
189.4092389118319
 21
14.66191269512574
 31
0.0
 11
189.4768868567478
 21
14.42208605917225
 31
0.0
 11
189.5549465689761
 21
14.22289032815652
 31
0.0
 11
189.6426341170591
 21
14.07160051021475
 31
0.0
 11
189.7391655695388
 21
13.97549161348314
 31
0.0
 11
189.8437569949575
 21
13.94183864609789
 31
0.0
 11
189.8943077302786
 21
13.97177376978832
 31
0.0
 11
189.9310588991551
 21
14.06491619815045
 31
0.0
 11
189.9562640977528
 21
14.22627151712052
 31
0.0
 11
189.9721769222368
 21
14.4608453126348
 31
0.0
 11
190.0494082682583
 21
14.40202182306616
 31
0.0
 11
190.1327184184385
 21
14.35921885432688
 31
0.0
 11
190.1066365811217
 21
14.11528388661008
 31
0.0
 11
190.0673317805105
 21
13.9420790288756
 31
0.0
 11
190.0105702596765
 21
13.83011272445915
 31
0.0
 11
189.932118261691
 21
13.76989341669643
 31
0.0
 11
189.8277420296256
 21
13.75192954892314
 31
0.0
 11
189.6738595065097
 21
13.78957440012358
 31
0.0
 11
189.5388902376747
 21
13.897073488774
 31
0.0
 11
189.4221739916163
 21
14.06627361744806
 31
0.0
 11
189.32305053683
 21
14.28902158871941
 31
0.0
 11
189.2408596418113
 21
14.5571642051617
 31
0.0
 11
189.1749410750559
 21
14.86254826934858
 31
0.0
 11
189.1246346050593
 21
15.19702058385371
 31
0.0
 11
189.0892800003171
 21
15.55242795125075
 31
0.0
 11
189.0561935405844
 21
15.55242795125075
 31
0.0
 11
188.9654726026075
 21
15.55242795125075
 31
0.0
 11
188.8299248482185
 21
15.55242795125075
 31
0.0
 11
188.6623579392495
 21
15.55242795125075
 31
0.0
 11
188.4755795375324
 21
15.55242795125075
 31
0.0
 11
188.2823973048992
 21
15.55242795125075
 31
0.0
 11
188.0956189031822
 21
15.55242795125075
 31
0.0
 11
187.9280519942131
 21
15.55242795125075
 31
0.0
 11
187.7925042398241
 21
15.55242795125075
 31
0.0
 11
187.7017833018473
 21
15.55242795125075
 31
0.0
 11
187.6686968421145
 21
15.55242795125075
 31
0.0
 11
187.6686968421145
 21
15.58001489785844
 31
0.0
 11
187.6686968421145
 21
15.64070618039535
 31
0.0
 11
187.6686968421145
 21
15.70139746293226
 31
0.0
 11
187.6686968421145
 21
15.72898440953995
 31
0.0
 11
187.7014723087631
 21
15.72898440953995
 31
0.0
 11
187.7913405237673
 21
15.72898440953995
 31
0.0
 11
187.9256142097148
 21
15.72898440953995
 31
0.0
 11
188.0916060891932
 21
15.72898440953995
 31
0.0
 11
188.2766288847901
 21
15.72898440953995
 31
0.0
 11
188.4679953190932
 21
15.72898440953995
 31
0.0
 11
188.6530181146902
 21
15.72898440953995
 31
0.0
 11
188.8190099941685
 21
15.72898440953995
 31
0.0
 11
188.953283680116
 21
15.72898440953995
 31
0.0
 11
189.0431518951202
 21
15.72898440953995
 31
0.0
 11
189.0759273617688
 21
15.72898440953995
 31
0.0
 11
189.0659183950103
 21
15.97947647544956
 31
0.0
 11
189.0599112510663
 21
16.23196614552529
 31
0.0
 11
189.0860575870659
 21
16.2305692160812
 31
0.0
 11
189.1484065421419
 21
16.22723807663759
 31
0.0
 11
189.2228230369099
 21
16.22326220052748
 31
0.0
 11
189.2851719919859
 21
16.21993106108387
 31
0.0
 11
189.3113183279855
 21
16.21853413163977
 31
0.0
 11
189.298293111304
 21
16.19016528616078
 31
0.0
 11
189.2551649266405
 21
16.17581274276162
 31
0.0
 11
189.2574991961821
 21
15.95136670115105
 31
0.0
 11
189.2658452735903
 21
15.72898440953995
 31
0.0
 11
189.3009063195165
 21
15.72898440953995
 31
0.0
 11
189.3933399860495
 21
15.72898440953995
 31
0.0
 11
189.5240220663201
 21
15.72898440953995
 31
0.0
 11
189.6738283534596
 21
15.72898440953995
 31
0.0
 11
189.8236346405991
 21
15.72898440953995
 31
0.0
 11
189.9543167208697
 21
15.72898440953995
 31
0.0
 11
190.0467503874027
 21
15.72898440953995
 31
0.0
 11
190.0818114333289
 21
15.72898440953995
 31
0.0
 11
190.0818114333289
 21
15.70139746293226
 31
0.0
 11
190.0818114333289
 21
15.64070618039535
 31
0.0
 11
190.0818114333289
 21
15.58001489785844
 31
0.0
 11
190.0818114333289
 21
15.55242795125075
 31
0.0
  0
SPLINE
  5
AE
102
{ACAD_REACTORS
330
CB
102
}
330
48
100
AcDbEntity
  8
_U_30EC_U_30A4_U_30E4_U_30FC_1
  6
Continuous
 62
     2
100
AcDbSpline
210
0.0
220
0.0
230
1.0
 70
    11
 71
     3
 72
   118
 73
   114
 74
   112
 42
0.000000001
 43
0.0000000001
 44
0.00000001
 40
0.0
 40
0.0
 40
0.0
 40
0.0
 40
0.105470816297341
 40
0.246609827005191
 40
0.3965912874591233
 40
0.5285525069753975
 40
0.6156245055642185
 40
0.6431434105797498
 40
0.7036850037986188
 40
0.7642265984504585
 40
0.7917455052354903
 40
0.9287404319989886
 40
1.106572819088039
 40
1.287544879681028
 40
1.317578308030545
 40
1.399928030857182
 40
1.522968204799958
 40
1.675072986590579
 40
1.844616533180658
 40
2.019973001638721
 40
2.189516548880033
 40
2.341621331585372
 40
2.464661506320506
 40
2.547011229647071
 40
2.577044658168036
 40
2.603797890893106
 40
2.662655002908793
 40
2.721512114949605
 40
2.748265347702785
 40
2.774215307344861
 40
2.845959313407191
 40
2.954338556588392
 40
3.090194227585571
 40
3.244367517100536
 40
3.407699615844296
 40
3.571031714539445
 40
3.725205003920125
 40
3.861060674729626
 40
3.969439917716319
 40
4.041183923628993
 40
4.067133883212986
 40
4.311886746012174
 40
4.54789725833554
 40
4.764747083043979
 40
4.952749679951782
 40
5.045772974195907
 40
5.137862019644992
 40
5.330543169793038
 40
5.553448265244029
 40
5.79508385588819
 40
6.043293412177253
 40
6.285761695541202
 40
6.313902908752686
 40
6.384255941793276
 40
6.475714884766864
 40
6.567173827758927
 40
6.637526860839705
 40
6.665668074074068
 40
6.69201892032804
 40
6.74999078207111
 40
6.80796264379048
 40
6.834313490017953
 40
6.856393084245232
 40
6.913335195649855
 40
6.991194817302519
 40
7.07602694228378
 40
7.153886563725271
 40
7.210828674844853
 40
7.232908268931189
 40
7.25819933492371
 40
7.324875781592359
 40
7.419142481925016
 40
7.527204308841956
 40
7.635266135230536
 40
7.729532834168518
 40
7.796209279292841
 40
7.821500344594787
 40
7.844652988850857
 40
7.899863140541636
 40
7.965759128053802
 40
8.020969279771087
 40
8.044121924046554
 40
8.069356610160643
 40
8.109134395441414
 40
8.132238100191126
 40
8.193147867786491
 40
8.279261678876663
 40
8.377977512673876
 40
8.476693347146659
 40
8.562807160411712
 40
8.623716930826498
 40
8.646820636853452
 40
8.671988793774265
 40
8.734909185828176
 40
8.81670569518889
 40
8.898502204815461
 40
8.961422597377922
 40
8.986590754551035
 40
9.01294160073319
 40
9.070913462380274
 40
9.128885324081768
 40
9.15523617032509
 40
9.180404327929132
 40
9.243324721948206
 40
9.325121234211998
 40
9.406917746637653
 40
9.469838141978109
 40
9.495006288270883
 40
9.517811184379026
 40
9.572192090487025
 40
9.637098333281253
 40
9.691479239515456
 40
9.714284125643495
 40
9.714284125643495
 40
9.714284125643495
 40
9.714284125643495
 10
185.2874469028653
 20
15.26889163187717
 30
0.0
 10
185.3090990569037
 20
15.24111869242809
 30
0.0
 10
185.3597257109474
 20
15.17618054561234
 30
0.0
 10
185.4349383202591
 20
15.06891060312895
 30
0.0
 10
185.5248482274347
 20
14.95377438266624
 30
0.0
 10
185.5709169676672
 20
14.85357045748317
 30
0.0
 10
185.6655825294656
 20
14.78434006814941
 30
0.0
 10
185.6204439320412
 20
14.73771639678272
 30
0.0
 10
185.594704778579
 20
14.69660308866037
 30
0.0
 10
185.5645196708012
 20
14.66065971727937
 30
0.0
 10
185.5193684730562
 20
14.58579782596092
 30
0.0
 10
185.4710504458562
 20
14.80782524253603
 30
0.0
 10
185.3968539713073
 20
14.84510677337708
 30
0.0
 10
185.2836047324606
 20
15.11610202130597
 30
0.0
 10
185.288513357817
 20
15.00095328446226
 30
0.0
 10
185.2868486556306
 20
14.92836675781624
 30
0.0
 10
185.2876830076713
 20
14.80625588483983
 30
0.0
 10
185.2873609540264
 20
14.65913800810458
 30
0.0
 10
185.2875076912455
 20
14.49307063956553
 30
0.0
 10
185.2872950092722
 20
14.32187554608599
 30
0.0
 10
185.2879497252034
 20
14.15552828635495
 30
0.0
 10
185.2859192461139
 20
14.0093517305569
 30
0.0
 10
185.291346039993
 20
13.88471047474608
 30
0.0
 10
185.2804930868708
 20
13.81718656540623
 30
0.0
 10
185.2956739155555
 20
13.7554906141702
 30
0.0
 10
185.2457895108134
 20
13.76727503896998
 30
0.0
 10
185.2017150342522
 20
13.75943822779966
 30
0.0
 10
185.15823716302
 20
13.767604413727
 30
0.0
 10
185.1092346786489
 20
13.75538056738465
 30
0.0
 10
185.1218731234825
 20
13.8096066724931
 30
0.0
 10
185.113018296845
 20
13.86936918907554
 30
0.0
 10
185.1175058770314
 20
13.97922029044368
 30
0.0
 10
185.115796013599
 20
14.11029975405676
 30
0.0
 10
185.1163550915987
 20
14.26198011444325
 30
0.0
 10
185.1161928768694
 20
14.42211074929951
 30
0.0
 10
185.1162269924674
 20
14.58236865674564
 30
0.0
 10
185.1162514960128
 20
14.73370247520437
 30
0.0
 10
185.1161453543224
 20
14.86582156338599
 30
0.0
 10
185.1164299141932
 20
14.97294802533192
 30
0.0
 10
185.1158675547567
 20
15.03808619579471
 30
0.0
 10
185.118076508369
 20
15.16618957858674
 30
0.0
 10
185.0319435998601
 20
14.79097610391572
 30
0.0
 10
184.9555140818499
 20
14.63918193123393
 30
0.0
 10
184.8660040767833
 20
14.47766206446303
 30
0.0
 10
184.7640413217327
 20
14.2047184882017
 30
0.0
 10
184.7187976491039
 20
14.36717346596508
 30
0.0
 10
184.610235594167
 20
14.45605432058118
 30
0.0
 10
184.7995791751752
 20
14.60549794961406
 30
0.0
 10
184.85653405457
 20
14.79749136974923
 30
0.0
 10
184.9717520993352
 20
15.02899622906754
 30
0.0
 10
184.9940151630132
 20
15.21797259759061
 30
0.0
 10
185.177190515214
 20
15.49454089325928
 30
0.0
 10
185.0538033597552
 20
15.48698978832092
 30
0.0
 10
184.9925684166834
 20
15.48856772366116
 30
0.0
 10
184.9081999617064
 20
15.48882592573671
 30
0.0
 10
184.8204235085965
 20
15.48544845751204
 30
0.0
 10
184.7656768696123
 20
15.49394814982019
 30
0.0
 10
184.7104703026024
 20
15.48048561049785
 30
0.0
 10
184.7222823035537
 20
15.52931442126762
 30
0.0
 10
184.7142496151793
 20
15.57269004896706
 30
0.0
 10
184.7228186104679
 20
15.61509438309571
 30
0.0
 10
184.7102943409156
 20
15.66267796552116
 30
0.0
 10
184.7555101538736
 20
15.65267212995107
 30
0.0
 10
184.8014815562723
 20
15.65894105174059
 30
0.0
 10
184.877722204771
 20
15.6559356140587
 30
0.0
 10
184.9561296131993
 20
15.65770448278539
 30
0.0
 10
185.0323992648932
 20
15.65464793981658
 30
0.0
 10
185.0783009459475
 20
15.66103971376175
 30
0.0
 10
185.12317339654
 20
15.65093822978895
 30
0.0
 10
185.1105552275634
 20
15.70157201581896
 30
0.0
 10
185.1191936582707
 20
15.75501261882068
 30
0.0
 10
185.1152361595442
 20
15.84863255131678
 30
0.0
 10
185.1162325068335
 20
15.95112606688922
 30
0.0
 10
185.1171927413073
 20
16.05353270248161
 30
0.0
 10
185.1133211458005
 20
16.14735929609319
 30
0.0
 10
185.1217789814364
 20
16.2003654284035
 30
0.0
 10
185.1093075932835
 20
16.25211435651186
 30
0.0
 10
185.1542106389849
 20
16.23850747226755
 30
0.0
 10
185.1955083836772
 20
16.24100480320583
 30
0.0
 10
185.259534428105
 20
16.23648060574486
 30
0.0
 10
185.2986111148786
 20
16.22781003043306
 30
0.0
 10
185.3476543498742
 20
16.23515102070684
 30
0.0
 10
185.322508003059
 20
16.19602896051756
 30
0.0
 10
185.2815901333723
 20
16.20563842455806
 30
0.0
 10
185.2910109616604
 20
16.15540148169776
 30
0.0
 10
185.2855647318746
 20
16.10385945639488
 30
0.0
 10
185.2881699601803
 20
16.01959707584518
 30
0.0
 10
185.2870102202153
 20
15.92559135583406
 30
0.0
 10
185.2883591064231
 20
15.83196865395523
 30
0.0
 10
185.2849970101509
 20
15.74679517552221
 30
0.0
 10
185.2920959917769
 20
15.69716856072042
 30
0.0
 10
185.2812569154545
 20
15.64993694969987
 30
0.0
 10
185.3304010225245
 20
15.6620167493685
 30
0.0
 10
185.3794877630147
 20
15.65447393363009
 30
0.0
 10
185.4573714280641
 20
15.65686070361431
 30
0.0
 10
185.5350365172896
 20
15.65899381905412
 30
0.0
 10
185.5845393931355
 20
15.65193391922453
 30
0.0
 10
185.6344594750639
 20
15.66360151936212
 30
0.0
 10
185.6223198516881
 20
15.61540235371391
 30
0.0
 10
185.6305838229143
 20
15.57249219801233
 30
0.0
 10
185.6223198650783
 20
15.52958201851383
 30
0.0
 10
185.6344594549855
 20
15.48138288754862
 30
0.0
 10
185.5845395158746
 20
15.49305034471509
 30
0.0
 10
185.5350350651203
 20
15.48599202435043
 30
0.0
 10
185.4573784382973
 20
15.48811665228602
 30
0.0
 10
185.379464386576
 20
15.49053389365758
 30
0.0
 10
185.3304500352716
 20
15.48291848194483
 30
0.0
 10
185.2813246108943
 20
15.4950795255759
 30
0.0
 10
185.2915559988571
 20
15.45073013424156
 30
0.0
 10
185.2856677678053
 20
15.40925436202909
 30
0.0
 10
185.2878788305569
 20
15.34915394315301
 30
0.0
 10
185.2874109346146
 20
15.30225782762886
 30
0.0
 10
185.2874386992913
 20
15.27650146418194
 30
0.0
 10
185.2874469028653
 20
15.26889163187717
 30
0.0
 11
185.2874469028653
 21
15.26889163187717
 31
0.0
 11
185.3516977534484
 21
15.18524999634254
 31
0.0
 11
185.4348258835499
 21
15.07118889748218
 31
0.0
 11
185.5216831568896
 21
14.94891767195721
 31
0.0
 11
185.5971214371872
 21
14.84064565642874
 31
0.0
 11
185.6459925881626
 21
14.76858218755788
 31
0.0
 11
185.6296821285093
 21
14.74641782124397
 31
0.0
 11
185.5937991172719
 21
14.69765621535338
 31
0.0
 11
185.5579161060346
 21
14.64889460946278
 31
0.0
 11
185.5416056463813
 21
14.62673024314887
 31
0.0
 11
185.4763067109446
 21
14.74716139023811
 31
0.0
 11
185.3848434243234
 21
14.89966983670205
 31
0.0
 11
185.2874469028653
 21
15.05219788193139
 31
0.0
 11
185.2874469028653
 21
15.0221644532825
 31
0.0
 11
185.2874469028653
 21
14.9398147295678
 31
0.0
 11
185.2874469028653
 21
14.81677455413525
 31
0.0
 11
185.2874469028653
 21
14.6646697703328
 31
0.0
 11
185.2874469028653
 21
14.49512622150842
 31
0.0
 11
185.2874469028653
 21
14.31976975101006
 31
0.0
 11
185.2874469028653
 21
14.15022620218568
 31
0.0
 11
185.2874469028653
 21
13.99812141838323
 31
0.0
 11
185.2874469028653
 21
13.87508124295068
 31
0.0
 11
185.2874469028653
 21
13.79273151923598
 31
0.0
 11
185.2874469028653
 21
13.76269809058709
 31
0.0
 11
185.2606936700409
 21
13.76269809058709
 31
0.0
 11
185.2018365578272
 21
13.76269809058709
 31
0.0
 11
185.1429794456134
 21
13.76269809058709
 31
0.0
 11
185.116226212789
 21
13.76269809058709
 31
0.0
 11
185.116226212789
 21
13.78864805031247
 31
0.0
 11
185.116226212789
 21
13.86039205661205
 31
0.0
 11
185.116226212789
 21
13.96877130017099
 31
0.0
 11
185.116226212789
 21
14.10462697167445
 31
0.0
 11
185.116226212789
 21
14.25880026180758
 31
0.0
 11
185.116226212789
 21
14.42213236125556
 31
0.0
 11
185.116226212789
 21
14.58546446070354
 31
0.0
 11
185.116226212789
 21
14.73963775083668
 31
0.0
 11
185.116226212789
 21
14.87549342234013
 31
0.0
 11
185.116226212789
 21
14.98387266589907
 31
0.0
 11
185.116226212789
 21
15.05561667219865
 31
0.0
 11
185.116226212789
 21
15.08156663192403
 31
0.0
 11
185.0379865861721
 21
14.8496560330237
 31
0.0
 11
184.9497110789303
 21
14.63077616328676
 31
0.0
 11
184.8544106930045
 21
14.43598991333545
 31
0.0
 11
184.7550964303356
 21
14.276360173792
 31
0.0
 11
184.7109198342406
 21
14.35822446196597
 31
0.0
 11
184.658805738348
 21
14.43414885430809
 31
0.0
 11
184.7627302590299
 21
14.59640087926755
 31
0.0
 11
184.8629319864735
 21
14.79551465421778
 31
0.0
 11
184.9550446607901
 21
15.01890447916194
 31
0.0
 11
185.0347020220912
 21
15.25398465410317
 31
0.0
 11
185.097537810488
 21
15.48816947904463
 31
0.0
 11
185.0693965972142
 21
15.48816947904463
 31
0.0
 11
184.9990435640297
 21
15.48816947904463
 31
0.0
 11
184.9075846208898
 21
15.48816947904463
 31
0.0
 11
184.8161256777499
 21
15.48816947904463
 31
0.0
 11
184.7457726445654
 21
15.48816947904463
 31
0.0
 11
184.7176314312916
 21
15.48816947904463
 31
0.0
 11
184.7176314312916
 21
15.5145203253922
 31
0.0
 11
184.7176314312916
 21
15.57249218735686
 31
0.0
 11
184.7176314312916
 21
15.63046404932153
 31
0.0
 11
184.7176314312916
 21
15.6568148956691
 31
0.0
 11
184.739711025602
 21
15.6568148956691
 31
0.0
 11
184.7966531372444
 21
15.6568148956691
 31
0.0
 11
184.8745127592862
 21
15.6568148956691
 31
0.0
 11
184.9593448847944
 21
15.6568148956691
 31
0.0
 11
185.0372045068361
 21
15.6568148956691
 31
0.0
 11
185.0941466184786
 21
15.6568148956691
 31
0.0
 11
185.116226212789
 21
15.6568148956691
 31
0.0
 11
185.116226212789
 21
15.68210596174351
 31
0.0
 11
185.116226212789
 21
15.74878240866695
 31
0.0
 11
185.116226212789
 21
15.84304910948975
 31
0.0
 11
185.116226212789
 21
15.95111093726222
 31
0.0
 11
185.116226212789
 21
16.0591727650347
 31
0.0
 11
185.116226212789
 21
16.15343946585749
 31
0.0
 11
185.116226212789
 21
16.22011591278093
 31
0.0
 11
185.116226212789
 21
16.24540697885534
 31
0.0
 11
185.1393181988665
 21
16.24373213107798
 31
0.0
 11
185.1943837041284
 21
16.2397382633012
 31
0.0
 11
185.2601070491184
 21
16.23497138885794
 31
0.0
 11
185.3151725543802
 21
16.23097752108115
 31
0.0
 11
185.3382645404578
 21
16.22930267330379
 31
0.0
 11
185.3249012644362
 21
16.20789677921189
 31
0.0
 11
185.2874469028653
 21
16.19450114553467
 31
0.0
 11
185.2874469028653
 21
16.17139743948576
 31
0.0
 11
185.2874469028653
 21
16.11048766899317
 31
0.0
 11
185.2874469028653
 21
16.02437385553814
 31
0.0
 11
185.2874469028653
 21
15.92565802060188
 31
0.0
 11
185.2874469028653
 21
15.82694218566563
 31
0.0
 11
185.2874469028653
 21
15.7408283722106
 31
0.0
 11
185.2874469028653
 21
15.67991860171801
 31
0.0
 11
185.2874469028653
 21
15.6568148956691
 31
0.0
 11
185.3126150604809
 21
15.6568148956691
 31
0.0
 11
185.3755354545199
 21
15.6568148956691
 31
0.0
 11
185.4573319667706
 21
15.6568148956691
 31
0.0
 11
185.5391284790212
 21
15.6568148956691
 31
0.0
 11
185.6020488730602
 21
15.6568148956691
 31
0.0
 11
185.6272170306758
 21
15.6568148956691
 31
0.0
 11
185.6272170306758
 21
15.63046404932153
 31
0.0
 11
185.6272170306758
 21
15.57249218735687
 31
0.0
 11
185.6272170306758
 21
15.5145203253922
 31
0.0
 11
185.6272170306758
 21
15.48816947904463
 31
0.0
 11
185.6020488730602
 21
15.48816947904463
 31
0.0
 11
185.5391284790212
 21
15.48816947904463
 31
0.0
 11
185.4573319667705
 21
15.48816947904463
 31
0.0
 11
185.3755354545199
 21
15.48816947904463
 31
0.0
 11
185.3126150604809
 21
15.48816947904463
 31
0.0
 11
185.2874469028653
 21
15.48816947904463
 31
0.0
 11
185.2874469028653
 21
15.46536458293921
 31
0.0
 11
185.2874469028653
 21
15.41098367684168
 31
0.0
 11
185.2874469028653
 21
15.34607743408012
 31
0.0
 11
185.2874469028653
 21
15.29169652798259
 31
0.0
 11
185.2874469028653
 21
15.26889163187717
 31
0.0
  0
SPLINE
  5
AF
102
{ACAD_REACTORS
330
CC
102
}
330
48
100
AcDbEntity
  8
_U_30EC_U_30A4_U_30E4_U_30FC_1
  6
Continuous
 62
     2
100
AcDbSpline
210
0.0
220
0.0
230
1.0
 70
    11
 71
     3
 72
    47
 73
    43
 74
    41
 42
0.000000001
 43
0.0000000001
 44
0.00000001
 40
0.0
 40
0.0
 40
0.0
 40
0.0
 40
0.220791280995716
 40
0.4459404186303024
 40
0.4902387190459239
 40
0.5327473892722197
 40
0.5742260451225515
 40
0.6155432630560808
 40
0.6568164066315726
 40
0.6982511618780644
 40
0.7407663929317158
 40
0.7851366743175218
 40
1.010288833836322
 40
1.231080507002169
 40
1.451765243652401
 40
1.676638205891694
 40
1.720461045359663
 40
1.830018144043528
 40
1.972442372353156
 40
2.114866600677521
 40
2.224423699395144
 40
2.268246538883384
 40
2.49362880120722
 40
2.715602830286616
 40
2.934211330706368
 40
3.149502369855362
 40
3.231387784851008
 40
3.318231873854043
 40
3.405143198198031
 40
3.486970301720467
 40
3.70225817249391
 40
3.920866283534139
 40
4.142839325931925
 40
4.368221903865392
 40
4.412044743359872
 40
4.521601842095884
 40
4.664026070452363
 40
4.806450298809069
 40
4.91600739754676
 40
4.959830237043081
 40
5.184703515847121
 40
5.4053872507675
 40
5.4053872507675
 40
5.4053872507675
 40
5.4053872507675
 10
182.6507427258645
 20
15.7340644095387
 30
0.0
 10
182.6568139420002
 20
15.79758482501208
 30
0.0
 10
182.6690762107243
 20
15.92587938689624
 30
0.0
 10
182.5604706879411
 20
16.20166220174074
 30
0.0
 10
182.6761985896603
 20
16.17188133432051
 30
0.0
 10
182.7171842509016
 20
16.16765556262818
 30
0.0
 10
182.7591205797518
 20
16.16310446389605
 30
0.0
 10
182.800419662571
 20
16.16201982929482
 30
0.0
 10
182.8417032115556
 20
16.16310338195226
 30
0.0
 10
182.8836148270647
 20
16.1676611271134
 30
0.0
 10
182.9245983549019
 20
16.17187430209726
 30
0.0
 10
183.0404922843489
 20
16.20177611317532
 30
0.0
 10
182.9295652727456
 20
15.92339806609887
 30
0.0
 10
182.9574856365267
 20
15.7428314082495
 30
0.0
 10
182.9404267346969
 20
15.50961042346469
 30
0.0
 10
182.9414637282102
 20
15.34906622543143
 30
0.0
 10
182.9414099399405
 20
15.22284817558719
 30
0.0
 10
182.9414277372481
 20
15.12428963336239
 30
0.0
 10
182.941418858108
 20
14.9928070244296
 30
0.0
 10
182.9414263928033
 20
14.86132844968647
 30
0.0
 10
182.9414129405128
 20
14.76276222694088
 30
0.0
 10
182.9414531717492
 20
14.6363973562415
 30
0.0
 10
182.9406746403817
 20
14.47482068822868
 30
0.0
 10
182.9565958319267
 20
14.24361821892912
 30
0.0
 10
182.9333468885407
 20
14.05874351972
 30
0.0
 10
183.0360183444366
 20
13.78935602770053
 30
0.0
 10
182.8820238362836
 20
13.82660112685815
 30
0.0
 10
182.8004129802832
 20
13.82137994680532
 30
0.0
 10
182.7188192292582
 20
13.82660620378348
 30
0.0
 10
182.5648513666843
 20
13.78937069885385
 30
0.0
 10
182.6674183421917
 20
14.05875129862877
 30
0.0
 10
182.6442045316088
 20
14.24361585325412
 30
0.0
 10
182.6600444655139
 20
14.47482218565636
 30
0.0
 10
182.6593296313427
 20
14.63639712308501
 30
0.0
 10
182.6593664569907
 20
14.76276231210518
 30
0.0
 10
182.659354900027
 20
14.86132756635979
 30
0.0
 10
182.6593575019214
 20
14.99281127417217
 30
0.0
 10
182.6593648531779
 20
15.12427548031197
 30
0.0
 10
182.6593442541351
 20
15.22287786275323
 30
0.0
 10
182.6594082192027
 20
15.34896149354423
 30
0.0
 10
182.6581733947592
 20
15.5121009138377
 30
0.0
 10
182.6532040396744
 20
15.66054183777547
 30
0.0
 10
182.6507427258645
 20
15.7340644095387
 30
0.0
 11
182.6507427258645
 21
15.7340644095387
 31
0.0
 11
182.6417328200379
 21
15.95467178795575
 31
0.0
 11
182.6318769706146
 21
16.17960510387177
 31
0.0
 11
182.6756985840801
 21
16.17312391463726
 31
0.0
 11
182.7178400934215
 21
16.16754892331922
 31
0.0
 11
182.759137140979
 21
16.16367167505629
 31
0.0
 11
182.8004341885365
 21
16.16238072887605
 31
0.0
 11
182.841687138873
 21
16.16367167505629
 31
0.0
 11
182.8829400892097
 21
16.16754892331922
 31
0.0
 11
182.9250882131343
 21
16.17312391463726
 31
0.0
 11
182.9689825870145
 21
16.17960510387177
 31
0.0
 11
182.9590577693891
 21
15.95467178795575
 31
0.0
 11
182.950038420831
 21
15.7340644095387
 31
0.0
 11
182.9435638463435
 21
15.51347467001052
 31
0.0
 11
182.9414218238286
 21
15.28861190965004
 31
0.0
 11
182.9414218238286
 21
15.24478907015483
 31
0.0
 11
182.9414218238286
 21
15.13523197141679
 31
0.0
 11
182.9414218238286
 21
14.99280774305734
 31
0.0
 11
182.9414218238286
 21
14.8503835146979
 31
0.0
 11
182.9414218238286
 21
14.74082641595986
 31
0.0
 11
182.9414218238286
 21
14.69700357646465
 31
0.0
 11
182.9435638463435
 21
14.47163149318764
 31
0.0
 11
182.950038420831
 21
14.24975190990978
 31
0.0
 11
182.9590577693891
 21
14.03132954885327
 31
0.0
 11
182.9689825870145
 21
13.81626739612925
 31
0.0
 11
182.887261616877
 21
13.82145433189183
 31
0.0
 11
182.8004341885365
 21
13.8231553822386
 31
0.0
 11
182.7135395119339
 21
13.82145433189183
 31
0.0
 11
182.6318769706146
 21
13.81626739612925
 31
0.0
 11
182.6417328200379
 21
14.03132954885327
 31
0.0
 11
182.6507427258645
 21
14.24975190990978
 31
0.0
 11
182.6571833838798
 21
14.47163149318764
 31
0.0
 11
182.6593583588023
 21
14.69700357646465
 31
0.0
 11
182.6593583588023
 21
14.74082641595986
 31
0.0
 11
182.6593583588023
 21
14.8503835146979
 31
0.0
 11
182.6593583588023
 21
14.99280774305735
 31
0.0
 11
182.6593583588023
 21
15.13523197141679
 31
0.0
 11
182.6593583588023
 21
15.24478907015483
 31
0.0
 11
182.6593583588023
 21
15.28861190965004
 31
0.0
 11
182.6571833838798
 21
15.51347467001052
 31
0.0
 11
182.6507427258645
 21
15.7340644095387
 31
0.0
  0
SPLINE
  5
B0
102
{ACAD_REACTORS
330
CD
102
}
330
48
100
AcDbEntity
  8
_U_30EC_U_30A4_U_30E4_U_30FC_1
  6
Continuous
 62
     2
100
AcDbSpline
210
0.0
220
0.0
230
1.0
 70
    11
 71
     3
 72
   110
 73
   106
 74
   104
 42
0.000000001
 43
0.0000000001
 44
0.00000001
 40
0.0
 40
0.0
 40
0.0
 40
0.0
 40
0.2203406257277684
 40
0.4407808782838073
 40
0.595249449461505
 40
0.7488431659393056
 40
0.9023581831309038
 40
1.056801968670402
 40
1.210736449099903
 40
1.363041386539781
 40
1.515315729683124
 40
1.669377239148075
 40
1.721611652756565
 40
1.773199502942952
 40
1.824933793209998
 40
1.877110426487976
 40
1.982682281206739
 40
2.078781667087547
 40
2.172809640822269
 40
2.271937807378924
 40
2.378349933379316
 40
2.494131557736505
 40
2.626681683943639
 40
2.783145050796066
 40
2.890701232940927
 40
2.993130312454826
 40
3.099869730691803
 40
3.220237816691297
 40
3.352695482737587
 40
3.481732806389838
 40
3.593499473690372
 40
3.674323013331884
 40
3.817951711952834
 40
3.946167120793831
 40
4.061405053453517
 40
4.166480796003157
 40
4.262478775059194
 40
4.35073667355115
 40
4.433071991254036
 40
4.511216293814639
 40
4.56426245411796
 40
4.618474415571582
 40
4.670128488754179
 40
4.722296879126375
 40
4.819540945314244
 40
4.9311949841281
 40
5.049996040257742
 40
5.168643755415287
 40
5.283970811762499
 40
5.392260784910325
 40
5.486512254876399
 40
5.559178233949798
 40
5.591425852853472
 40
5.626215969637853
 40
5.667155838674393
 40
5.717449290214206
 40
5.738402360944819
 40
5.784499116553785
 40
5.830595872164754
 40
5.851548942897613
 40
5.873019280661725
 40
5.924217778408267
 40
5.985325662817643
 40
6.036524160567654
 40
6.057994498334183
 40
6.236847789607446
 40
6.381409928945617
 40
6.493190424178644
 40
6.574067534230457
 40
6.691018086205551
 40
6.814881554220468
 40
6.944307823240421
 40
7.071266716066045
 40
7.19348860446189
 40
7.309042773128118
 40
7.414007203170743
 40
7.505140441886497
 40
7.53115036059964
 40
7.559221645322231
 40
7.58720221892089
 40
7.612569159499093
 40
7.662550809480982
 40
7.702878875764109
 40
7.857328205230924
 40
8.010799568088569
 40
8.165256399657519
 40
8.322232698713858
 40
8.479564855016545
 40
8.635216230290748
 40
8.790882550925666
 40
8.948305154947231
 40
9.16827183903292
 40
9.387358980987193
 40
9.608047961033432
 40
9.832914234792636
 40
9.85833869496297
 40
9.92536681722998
 40
10.02013071422756
 40
10.12876249858995
 40
10.23739428295245
 40
10.33215817995187
 40
10.3991863022239
 40
10.42461076239779
 40
10.64992019336939
 40
10.87188524531184
 40
10.87188524531184
 40
10.87188524531184
 40
10.87188524531184
 10
179.9057788376618
 20
15.73923260398188
 30
0.0
 10
179.9092864933541
 20
15.80616462073802
 30
0.0
 10
179.9163033987662
 20
15.94005891915857
 30
0.0
 10
179.8198027599072
 20
16.22548554971467
 30
0.0
 10
180.0510134726108
 20
16.16284386190282
 30
0.0
 10
180.1919290057156
 20
16.17001554055988
 30
0.0
 10
180.3490417757588
 20
16.16235883078243
 30
0.0
 10
180.5025913427288
 20
16.16252752283038
 30
0.0
 10
180.654510493508
 20
16.16182040535431
 30
0.0
 10
180.814221481323
 20
16.17210158351636
 30
0.0
 10
180.9408972601118
 20
16.15496511080749
 30
0.0
 10
181.137082112208
 20
16.22727260107143
 30
0.0
 10
181.1034395279078
 20
16.12640699080115
 30
0.0
 10
181.1052011317183
 20
16.07619253947667
 30
0.0
 10
181.1027342073458
 20
16.02712335586463
 30
0.0
 10
181.1347076966011
 20
15.94063490846996
 30
0.0
 10
181.0010399903256
 20
15.98997438608334
 30
0.0
 10
180.9172208688057
 20
15.98430634314164
 30
0.0
 10
180.8173861139323
 20
15.99465516706296
 30
0.0
 10
180.7186576720146
 20
16.00086450411085
 30
0.0
 10
180.612153277111
 20
16.00697763816775
 30
0.0
 10
180.491051169806
 20
16.01588883484584
 30
0.0
 10
180.3703381502453
 20
16.00521605912382
 30
0.0
 10
180.1812553843436
 20
16.06468503080364
 30
0.0
 10
180.2129028505311
 20
15.90558320077538
 30
0.0
 10
180.1995563316833
 20
15.80839128339902
 30
0.0
 10
180.197495842645
 20
15.696340651101
 30
0.0
 10
180.195818804467
 20
15.57699685629349
 30
0.0
 10
180.1973336794233
 20
15.45032592155108
 30
0.0
 10
180.195658247867
 20
15.32301588016115
 30
0.0
 10
180.2058844271657
 20
15.22451566404461
 30
0.0
 10
180.1779006596583
 20
15.08388702625628
 30
0.0
 10
180.3508029999305
 20
15.13989551134092
 30
0.0
 10
180.4645020202772
 20
15.12719951478496
 30
0.0
 10
180.5840151672239
 20
15.13448377051253
 30
0.0
 10
180.6888491425072
 20
15.13878017056751
 30
0.0
 10
180.7843084898611
 20
15.14330568258975
 30
0.0
 10
180.8763823507032
 20
15.15149201146198
 30
0.0
 10
180.9476551782438
 20
15.14643850638109
 30
0.0
 10
181.0544931705685
 20
15.18536425031672
 30
0.0
 10
181.0226603598036
 20
15.10517122005877
 30
0.0
 10
181.026616450393
 20
15.05562936846031
 30
0.0
 10
181.0234502392013
 20
15.00557478039816
 30
0.0
 10
181.0550791490585
 20
14.9212884761202
 30
0.0
 10
180.9210133677691
 20
14.97425365495155
 30
0.0
 10
180.82923227932
 20
14.96540080890439
 30
0.0
 10
180.7079729189603
 20
14.97570049965152
 30
0.0
 10
180.5914113119771
 20
14.97748911767498
 30
0.0
 10
180.4783375745879
 20
14.97787017109693
 30
0.0
 10
180.3679246308471
 20
14.98415449472178
 30
0.0
 10
180.289812406784
 20
14.97189133255361
 30
0.0
 10
180.1913625833644
 20
15.00453887616124
 30
0.0
 10
180.2012355173561
 20
14.94769748054204
 30
0.0
 10
180.1973923244402
 20
14.91392130557981
 30
0.0
 10
180.1966789884269
 20
14.87119604709409
 30
0.0
 10
180.1963369642975
 20
14.83401607262151
 30
0.0
 10
180.1963834255345
 20
14.79487237370768
 30
0.0
 10
180.1963649429927
 20
14.75716849497684
 30
0.0
 10
180.1963703431807
 20
14.719449552324
 30
0.0
 10
180.19636972142
 20
14.68994324745147
 30
0.0
 10
180.1963698151546
 20
14.65873577699299
 30
0.0
 10
180.196370428792
 20
14.61414424908083
 30
0.0
 10
180.1963671499337
 20
14.5596395650885
 30
0.0
 10
180.196375962348
 20
14.51505540201446
 30
0.0
 10
180.1963359653417
 20
14.43117808585739
 30
0.0
 10
180.1976024270254
 20
14.31737520677676
 30
0.0
 10
180.1950274117842
 20
14.16830395933707
 30
0.0
 10
180.206500938172
 20
14.06597203813904
 30
0.0
 10
180.1823506222263
 20
13.93338903885832
 30
0.0
 10
180.3332993946476
 20
13.97895732272019
 30
0.0
 10
180.4428436671556
 20
13.96427012162347
 30
0.0
 10
180.573397047392
 20
13.96920435125061
 30
0.0
 10
180.6990312209514
 20
13.9725770532336
 30
0.0
 10
180.8188730625601
 20
13.97711497498769
 30
0.0
 10
180.9391362611426
 20
13.99048536182003
 30
0.0
 10
181.0222761663514
 20
13.98068712782594
 30
0.0
 10
181.1456080421075
 20
14.04126214623316
 30
0.0
 10
181.1244269203955
 20
13.98532460134019
 30
0.0
 10
181.1235950270117
 20
13.95939249372345
 30
0.0
 10
181.1218963707558
 20
13.93197256190937
 30
0.0
 10
181.1217974888829
 20
13.89738195206383
 30
0.0
 10
181.1203659301329
 20
13.86050408220766
 30
0.0
 10
181.153280419219
 20
13.76846841021804
 30
0.0
 10
180.9551306988107
 20
13.84132015974829
 30
0.0
 10
180.8300548294891
 20
13.81825726508604
 30
0.0
 10
180.6673071295155
 20
13.82454021985783
 30
0.0
 10
180.5129366450001
 20
13.82260943909924
 30
0.0
 10
180.3566670436943
 20
13.82393762599265
 30
0.0
 10
180.1970544465282
 20
13.8205987248786
 30
0.0
 10
180.0540326342237
 20
13.83265795728238
 30
0.0
 10
179.8197144881628
 20
13.76952001976916
 30
0.0
 10
179.9173810751197
 20
14.05620527466315
 30
0.0
 10
179.9006868780059
 20
14.24988308142658
 30
0.0
 10
179.9146296709684
 20
14.47848242880293
 30
0.0
 10
179.9142987846632
 20
14.63384593955046
 30
0.0
 10
179.9143078119263
 20
14.73966336444124
 30
0.0
 10
179.9143055876316
 20
14.80205784124212
 30
0.0
 10
179.9143065551888
 20
14.89220425248325
 30
0.0
 10
179.9143065473261
 20
14.99621167157436
 30
0.0
 10
179.9143053861102
 20
15.10022131375294
 30
0.0
 10
179.9143090971503
 20
15.19036243688765
 30
0.0
 10
179.9143011051051
 20
15.25276803097213
 30
0.0
 10
179.9143334275017
 20
15.35868835961116
 30
0.0
 10
179.913144078832
 20
15.51626716544738
 30
0.0
 10
179.9082216489256
 20
15.66528219822063
 30
0.0
 10
179.9057788376618
 20
15.73923260398188
 30
0.0
 11
179.9057788376618
 21
15.73923260398188
 31
0.0
 11
179.896691822374
 21
15.95938578101015
 31
0.0
 11
179.8868249573133
 21
16.17960510387177
 31
0.0
 11
180.04115751414
 21
16.17312391463726
 31
0.0
 11
180.1946500189046
 21
16.16754892331922
 31
0.0
 11
180.3481160653366
 21
16.16367167505629
 31
0.0
 11
180.5025544554939
 21
16.16238072887605
 31
0.0
 11
180.6564835227473
 21
16.16367167505629
 31
0.0
 11
180.80873910046
 21
16.16754892331922
 31
0.0
 11
180.9609113551074
 21
16.17312391463726
 31
0.0
 11
181.1148364762483
 21
16.17960510387177
 31
0.0
 11
181.1070811703123
 21
16.12794961777356
 31
0.0
 11
181.1044991623591
 21
16.07642642334201
 31
0.0
 11
181.1070811703123
 21
16.02475660564657
 31
0.0
 11
181.1148364762483
 21
15.97315954836782
 31
0.0
 11
181.0094874054411
 21
15.98001446156055
 31
0.0
 11
180.913637570006
 21
15.98693552058654
 31
0.0
 11
180.8198593171903
 21
15.99378381919597
 31
0.0
 11
180.7209679915881
 21
16.00063211780538
 31
0.0
 11
180.6147532199924
 21
16.00710999974822
 31
0.0
 11
180.4991060528038
 21
16.01268829835792
 31
0.0
 11
180.3666126447258
 21
16.01656554662086
 31
0.0
 11
180.2101546018423
 21
16.0178564928011
 31
0.0
 11
180.2062663293721
 21
15.91037061609184
 31
0.0
 11
180.20153800484
 21
15.80805072896462
 31
0.0
 11
180.1976607566749
 21
15.70138175329685
 31
0.0
 11
180.1963698105272
 21
15.58102059013248
 31
0.0
 11
180.1967799146836
 21
15.44856355891563
 31
0.0
 11
180.1980896021502
 21
15.31953288186453
 31
0.0
 11
180.1994074577049
 21
15.20777398432306
 31
0.0
 11
180.199819115366
 21
15.12695149302382
 31
0.0
 11
180.3434452935874
 21
15.12780256941247
 31
0.0
 11
180.4716343930758
 21
15.13039989580075
 31
0.0
 11
180.5868078221795
 21
15.13425509545252
 31
0.0
 11
180.691775631222
 21
15.13901649302073
 31
0.0
 11
180.7876346289421
 21
15.14418027774173
 31
0.0
 11
180.8757413374193
 21
15.14934406246265
 31
0.0
 11
180.9578881438496
 21
15.15491243919737
 31
0.0
 11
181.0357692335571
 21
15.16132086801522
 31
0.0
 11
181.0280180445186
 21
15.10884407115334
 31
0.0
 11
181.0254328449317
 21
15.05469378470855
 31
0.0
 11
181.0280180445186
 21
15.00310444444364
 31
0.0
 11
181.0357692335571
 21
14.9515151041788
 31
0.0
 11
180.9389813454014
 21
14.96092324653754
 31
0.0
 11
180.8275950722015
 21
14.9686512847301
 31
0.0
 11
180.7089261429373
 21
14.97425273438143
 31
0.0
 11
180.5903167449213
 21
14.97726788195008
 31
0.0
 11
180.4750025117521
 21
14.97898767361636
 31
0.0
 11
180.36672619507
 21
14.98070746528255
 31
0.0
 11
180.2724839317708
 21
14.98202486979615
 31
0.0
 11
180.199819115366
 21
14.98243607639327
 31
0.0
 11
180.199407457705
 21
14.95019108508188
 31
0.0
 11
180.1980896021502
 21
14.91542593752115
 31
0.0
 11
180.1967799146836
 21
14.87450702260082
 31
0.0
 11
180.1963698105272
 21
14.82421524309949
 31
0.0
 11
180.1963698105272
 21
14.80326217235819
 31
0.0
 11
180.1963698105272
 21
14.75716541672734
 31
0.0
 11
180.1963698105272
 21
14.71106866109649
 31
0.0
 11
180.1963698105272
 21
14.69011559035519
 31
0.0
 11
180.1963698105272
 21
14.66864525258278
 31
0.0
 11
180.1963698105272
 21
14.61744675481782
 31
0.0
 11
180.1963698105272
 21
14.55633887038866
 31
0.0
 11
180.1963698105272
 21
14.5051403726237
 31
0.0
 11
180.1963698105272
 21
14.48367003485129
 31
0.0
 11
180.1967799146836
 21
14.30481721371545
 31
0.0
 11
180.1980896021502
 21
14.1602610071544
 31
0.0
 11
180.2002868589709
 21
14.04850210961287
 31
0.0
 11
180.2032586986985
 21
13.96767961831363
 31
0.0
 11
180.3202092517447
 21
13.96767961831363
 31
0.0
 11
180.4440727208746
 21
13.96767961831363
 31
0.0
 11
180.5734925526422
 21
13.96897056449388
 31
0.0
 11
180.7003922282244
 21
13.9728478127568
 31
0.0
 11
180.8224658067973
 21
13.97886708358862
 31
0.0
 11
180.9377587499463
 21
13.98663260442
 31
0.0
 11
181.0421754573518
 21
13.997341614834
 31
0.0
 11
181.1320599255448
 21
14.01237656274689
 31
0.0
 11
181.1264254031191
 21
13.98698427976714
 31
0.0
 11
181.1234433285423
 21
13.959071840538
 31
0.0
 11
181.12213398812
 21
13.93112191867
 31
0.0
 11
181.1217235369195
 21
13.90575829888471
 31
0.0
 11
181.1243087365064
 21
13.85584355063323
 31
0.0
 11
181.1320599255448
 21
13.81626739612925
 31
0.0
 11
180.9776977178344
 21
13.82145433189183
 31
0.0
 11
180.8242357818765
 21
13.8231553822386
 31
0.0
 11
180.6697789496483
 21
13.8231553822386
 31
0.0
 11
180.5128026496768
 21
13.8231553822386
 31
0.0
 11
180.3554704921536
 21
13.8231553822386
 31
0.0
 11
180.199819115366
 21
13.8231553822386
 31
0.0
 11
180.0441620874241
 21
13.82145433189183
 31
0.0
 11
179.8868249573133
 21
13.81626739612925
 31
0.0
 11
179.896691822374
 21
14.03601267385208
 31
0.0
 11
179.9057788376618
 21
14.25491128490849
 31
0.0
 11
179.91217215184
 21
14.47550763902
 31
0.0
 11
179.9143063455009
 21
14.70036378479713
 31
0.0
 11
179.9143063455009
 21
14.72578824496872
 31
0.0
 11
179.9143063455009
 21
14.7928163672393
 31
0.0
 11
179.9143063455009
 21
14.88758026424251
 31
0.0
 11
179.9143063455009
 21
14.99621204861205
 31
0.0
 11
179.9143063455009
 21
15.1048438329816
 31
0.0
 11
179.9143063455009
 21
15.19960772998482
 31
0.0
 11
179.9143063455009
 21
15.26663585225539
 31
0.0
 11
179.9143063455009
 21
15.29206031242698
 31
0.0
 11
179.91217215184
 21
15.51735963528733
 31
0.0
 11
179.9057788376618
 21
15.73923260398188
 31
0.0
  0
SPLINE
  5
B1
102
{ACAD_REACTORS
330
CE
102
}
330
48
100
AcDbEntity
  8
_U_30EC_U_30A4_U_30E4_U_30FC_1
  6
Continuous
 62
     2
100
AcDbSpline
210
0.0
220
0.0
230
1.0
 70
    11
 71
     3
 72
    95
 73
    91
 74
    89
 42
0.000000001
 43
0.0000000001
 44
0.00000001
 40
0.0
 40
0.0
 40
0.0
 40
0.0
 40
0.6550406656911534
 40
1.308087289031932
 40
1.4208037398358
 40
1.566130759770792
 40
1.757067341888461
 40
2.006513545026453
 40
2.087328263121548
 40
2.185328872295614
 40
2.294612454748361
 40
2.408936380534807
 40
2.526802767798554
 40
2.646360524615613
 40
2.76253572397158
 40
2.870057342870153
 40
2.966883448431646
 40
3.050803243518302
 40
3.115818222436604
 40
3.156030057150239
 40
3.213914225080141
 40
3.276689026450542
 40
3.342960320981319
 40
3.404230667150568
 40
3.453822809493373
 40
3.532499827188433
 40
3.634775188507176
 40
3.754909333008178
 40
3.889736761660667
 40
4.035769602175223
 40
4.187256681197614
 40
4.338733685675955
 40
4.488478734676121
 40
4.634708317831594
 40
4.771493189921281
 40
4.892686571561217
 40
5.199775528944455
 40
5.460353566929654
 40
5.667603142345515
 40
5.814722905404491
 40
5.828990806219789
 40
5.855488336304486
 40
5.869756237118818
 40
6.189796507762819
 40
6.531890469873003
 40
6.883053637016996
 40
7.230512024911476
 40
7.566966656764574
 40
7.885203559707403
 40
8.1728874397192
 40
8.418011594062756
 40
8.443926721190678
 40
8.510760470613164
 40
8.602145393795672
 40
8.701714041647108
 40
8.793098965075338
 40
8.85993271505791
 40
8.885847842603559
 40
9.242301256612784
 40
9.589275455016738
 40
9.92180854316414
 40
10.23479624298465
 40
10.29968150889175
 40
10.35323493887763
 40
10.40154625355148
 40
10.46482922477824
 40
10.55973900668404
 40
10.69239545985617
 40
10.84920353475671
 40
11.01626328594779
 40
11.18672024367443
 40
11.35372582577209
 40
11.50257442292426
 40
11.61866495023291
 40
11.71329869152874
 40
11.82511050573907
 40
11.94464880845715
 40
12.06929242642506
 40
12.19707290435176
 40
12.32562632860529
 40
12.45034565331278
 40
12.56646595170327
 40
12.67099007414635
 40
12.76077625936781
 40
12.82703233506694
 40
12.87429132785991
 40
12.8983199032333
 40
12.92234847860019
 40
13.53984767410318
 40
14.18294284359363
 40
14.18294284359363
 40
14.18294284359363
 40
14.18294284359363
 10
177.3067935648021
 20
14.70898038201722
 30
0.0
 10
177.175201975855
 20
14.82265058603229
 30
0.0
 10
176.9124193802728
 20
15.04964496316154
 30
0.0
 10
176.399739344102
 20
15.89214462956284
 30
0.0
 10
176.4106654595363
 20
15.53423377577017
 30
0.0
 10
176.4041226527991
 20
15.3926739227213
 30
0.0
 10
176.4028026631772
 20
15.19421305299278
 30
0.0
 10
176.4018117602538
 20
15.0215029604598
 30
0.0
 10
176.4024101751975
 20
14.87865373257578
 30
0.0
 10
176.4038994301883
 20
14.78265005413356
 30
0.0
 10
176.4055683588472
 20
14.6754550326314
 30
0.0
 10
176.4071934954618
 20
14.5616421151758
 30
0.0
 10
176.4092429501685
 20
14.44441572604586
 30
0.0
 10
176.4123165501927
 20
14.32656411232967
 30
0.0
 10
176.4156339697043
 20
14.21228087320618
 30
0.0
 10
176.419360534028
 20
14.10521401867274
 30
0.0
 10
176.4217338161424
 20
14.01007408766919
 30
0.0
 10
176.4278718888358
 20
13.92558557205692
 30
0.0
 10
176.4239784495946
 20
13.86923087298139
 30
0.0
 10
176.4455230443078
 20
13.79825022472354
 30
0.0
 10
176.3680940058617
 20
13.82902677604481
 30
0.0
 10
176.3116353240191
 20
13.82011242517611
 30
0.0
 10
176.2540495896807
 20
13.82896218398273
 30
0.0
 10
176.1690163478473
 20
13.79738225225943
 30
0.0
 10
176.2009714146382
 20
13.88095155992188
 30
0.0
 10
176.1990705282539
 20
13.94882608968307
 30
0.0
 10
176.21079600473
 20
14.05233256764417
 30
0.0
 10
176.2164241053
 20
14.17002125616693
 30
0.0
 10
176.2237902178941
 20
14.30388609164421
 30
0.0
 10
176.2320759701611
 20
14.4476415287263
 30
0.0
 10
176.2398851897426
 20
14.59714022843442
 30
0.0
 10
176.2457571222657
 20
14.74792549402075
 30
0.0
 10
176.2503667817968
 20
14.89699943878434
 30
0.0
 10
176.2542632117543
 20
15.0412291316302
 30
0.0
 10
176.2570715126563
 20
15.17583905213015
 30
0.0
 10
176.2576698755023
 20
15.36469614347353
 30
0.0
 10
176.2616023867149
 20
15.58975494313151
 30
0.0
 10
176.2442175378499
 20
15.86367091125706
 30
0.0
 10
176.2850417342582
 20
16.02787112098593
 30
0.0
 10
176.1995153256004
 20
16.22749661465096
 30
0.0
 10
176.2660558907687
 20
16.22385458403975
 30
0.0
 10
176.283872427323
 20
16.22413447160851
 30
0.0
 10
176.4056801797506
 20
16.22632927398612
 30
0.0
 10
176.508077033546
 20
15.94675118721511
 30
0.0
 10
176.7580021509356
 20
15.74563008536
 30
0.0
 10
176.987003533111
 20
15.47792614987915
 30
0.0
 10
177.2245151213108
 20
15.22646413862373
 30
0.0
 10
177.4486090740772
 20
14.98969974061357
 30
0.0
 10
177.6750716283009
 20
14.73218692583077
 30
0.0
 10
177.8325687886515
 20
14.61649335056919
 30
0.0
 10
178.0472129612673
 20
14.27997152538792
 30
0.0
 10
178.0422645974619
 20
14.40464754091601
 30
0.0
 10
178.0433931602546
 20
14.46327691935735
 30
0.0
 10
178.0428877841517
 20
14.55043662371975
 30
0.0
 10
178.0430475158113
 20
14.6441614318287
 30
0.0
 10
178.0430054891318
 20
14.73018971297032
 30
0.0
 10
178.0430202040372
 20
14.79153891945492
 30
0.0
 10
178.0429706255985
 20
14.9413523152099
 30
0.0
 10
178.045881152281
 20
15.17989612510101
 30
0.0
 10
178.0259521041162
 20
15.54486509868699
 30
0.0
 10
178.0750433936247
 20
15.8079963199341
 30
0.0
 10
177.917795150918
 20
16.2192890494775
 30
0.0
 10
178.0762112872421
 20
16.16398282551745
 30
0.0
 10
178.1311680478628
 20
16.16199686500174
 30
0.0
 10
178.182788776674
 20
16.16264778248249
 30
0.0
 10
178.2713198965366
 20
16.20369527738243
 30
0.0
 10
178.2204898303168
 20
16.05696326622985
 30
0.0
 10
178.2313389930283
 20
15.95019971954431
 30
0.0
 10
178.2166036994847
 20
15.7908570541411
 30
0.0
 10
178.2099976446203
 20
15.62853061652871
 30
0.0
 10
178.2014961399915
 20
15.45992521892393
 30
0.0
 10
178.1943227202199
 20
15.29814814703539
 30
0.0
 10
178.1889063215389
 20
15.1542233145793
 30
0.0
 10
178.1871713967648
 20
15.03437493466922
 30
0.0
 10
178.1875440672318
 20
14.92686101590512
 30
0.0
 10
178.1873656126263
 20
14.81820024645584
 30
0.0
 10
178.187701086314
 20
14.69953570165528
 30
0.0
 10
178.1890040622184
 20
14.57555163512738
 30
0.0
 10
178.1908887351574
 20
14.44858294171102
 30
0.0
 10
178.1925004454851
 20
14.32153861551029
 30
0.0
 10
178.1941403137429
 20
14.19854884492175
 30
0.0
 10
178.1962570745751
 20
14.08300931383757
 30
0.0
 10
178.1963848422363
 20
13.98090903955835
 30
0.0
 10
178.2006514396554
 20
13.89009848838154
 30
0.0
 10
178.1908440085289
 20
13.83213621208785
 30
0.0
 10
178.2118474771689
 20
13.76517130132028
 30
0.0
 10
178.1725639739897
 20
13.77291153966686
 30
0.0
 10
177.9595307117747
 20
13.75755254145198
 30
0.0
 10
177.7636297943186
 20
14.31403058094465
 30
0.0
 10
177.4611197631543
 20
14.57556035348507
 30
0.0
 10
177.3067935648021
 20
14.70898038201722
 30
0.0
 11
177.3067935648021
 21
14.70898038201722
 31
0.0
 11
176.8595529338511
 21
15.18757635411975
 31
0.0
 11
176.4124049070643
 21
15.66352649288967
 31
0.0
 11
176.4089664262494
 21
15.55086249986229
 31
0.0
 11
176.40556101835
 21
15.40557538184308
 31
0.0
 11
176.4029636920274
 21
15.21465645827965
 31
0.0
 11
176.4021126156603
 21
14.96521170139755
 31
0.0
 11
176.4025239230289
 21
14.88439802954278
 31
0.0
 11
176.4038420329817
 21
14.7864062847756
 31
0.0
 11
176.4055192267718
 21
14.67713557299737
 31
0.0
 11
176.4072367127518
 21
14.56282454872037
 31
0.0
 11
176.4094007838772
 21
14.44497802965264
 31
0.0
 11
176.4124049070643
 21
14.32545802100196
 31
0.0
 11
176.4158359733138
 21
14.20933349846154
 31
0.0
 11
176.4192928929998
 21
14.10186746550227
 31
0.0
 11
176.4227085253088
 21
14.00510162351262
 31
0.0
 11
176.4261896983793
 21
13.92125406276969
 31
0.0
 11
176.4296006184313
 21
13.85632862007757
 31
0.0
 11
176.4330776843148
 21
13.81626739612925
 31
0.0
 11
176.3754263821571
 21
13.82145433189183
 31
0.0
 11
176.3126746318309
 21
13.8231553822386
 31
0.0
 11
176.2464251717157
 21
13.82145433189183
 31
0.0
 11
176.1853747739675
 21
13.81626739612925
 31
0.0
 11
176.1926772737812
 21
13.86531894125587
 31
0.0
 11
176.2008793569054
 21
13.94356725720853
 31
0.0
 11
176.2090098822348
 21
14.04551893253027
 31
0.0
 11
176.2163406441397
 21
14.16542920159751
 31
0.0
 11
176.2236358280421
 21
14.30005912343887
 31
0.0
 11
176.2318444255596
 21
14.44586107652742
 31
0.0
 11
176.2395504149465
 21
14.5971520313507
 31
0.0
 11
176.2455763002093
 21
14.74850913200731
 31
0.0
 11
176.2503046247416
 21
14.89817951391433
 31
0.0
 11
176.254192897212
 21
15.0443573958222
 31
0.0
 11
176.2567527408965
 21
15.18111831592694
 31
0.0
 11
176.2576324804574
 21
15.30230850686888
 31
0.0
 11
176.257192610677
 21
15.60939715262542
 31
0.0
 11
176.2559126888347
 21
15.86997204839364
 31
0.0
 11
176.2528658717893
 21
16.07719922716123
 31
0.0
 11
176.2473049112763
 21
16.22421385386059
 31
0.0
 11
176.2615728121469
 21
16.22421385386059
 31
0.0
 11
176.2880703423352
 21
16.22421385386059
 31
0.0
 11
176.3023382432058
 21
16.22421385386059
 31
0.0
 11
176.5194743650277
 21
15.9891017966277
 31
0.0
 11
176.7512744123079
 21
15.7375128123156
 31
0.0
 11
176.9894816018839
 21
15.47949555543568
 31
0.0
 11
177.2260074557521
 21
15.22497079855486
 31
0.0
 11
177.4555698717705
 21
14.97899759549136
 31
0.0
 11
177.6731797360103
 21
14.74678934034105
 31
0.0
 11
177.8713724913707
 21
14.53826680567098
 31
0.0
 11
178.0430143099086
 21
14.36326697932587
 31
0.0
 11
178.0430143099086
 21
14.38918210687041
 31
0.0
 11
178.0430143099086
 21
14.45601585685369
 31
0.0
 11
178.0430143099086
 21
14.54740078030022
 31
0.0
 11
178.0430143099086
 21
14.64696942823451
 31
0.0
 11
178.0430143099086
 21
14.73835435168104
 31
0.0
 11
178.0430143099086
 21
14.80518810166432
 31
0.0
 11
178.0430143099086
 21
14.83110322920886
 31
0.0
 11
178.0417233637609
 21
15.18755430550865
 31
0.0
 11
178.0378461155958
 21
15.53450684014413
 31
0.0
 11
178.0296197790002
 21
15.86693815950549
 31
0.0
 11
178.0154535467228
 21
16.17960510387177
 31
0.0
 11
178.0790351249618
 21
16.16666367158332
 31
0.0
 11
178.1324170159611
 21
16.16238072887605
 31
0.0
 11
178.1805381084833
 21
16.16666367158332
 31
0.0
 11
178.2424836798197
 21
16.17960510387177
 31
0.0
 11
178.2351216487575
 21
16.08498128445099
 31
0.0
 11
178.2269790968818
 21
15.95257496503962
 31
0.0
 11
178.2183705364004
 21
15.79600336785654
 31
0.0
 11
178.2097547223215
 21
15.62916593734268
 31
0.0
 11
178.2016187850288
 21
15.45890325509358
 31
0.0
 11
178.1942501393835
 21
15.29206031242698
 31
0.0
 11
178.1891406931522
 21
15.14329943572807
 31
0.0
 11
178.1874503478904
 21
15.02722121527098
 31
0.0
 11
178.1874503478904
 21
14.93258747397516
 31
0.0
 11
178.1874503478904
 21
14.82077565976705
 31
0.0
 11
178.1878461204497
 21
14.70123801222746
 31
0.0
 11
178.1890819450708
 21
14.57660052093917
 31
0.0
 11
178.1908392193317
 21
14.44883212687389
 31
0.0
 11
178.1925303477608
 21
14.32028982655876
 31
0.0
 11
178.1942876220214
 21
14.19558288214553
 31
0.0
 11
178.1959787504505
 21
14.07947489606347
 31
0.0
 11
178.1972884379172
 21
13.97495896727015
 31
0.0
 11
178.1976985420735
 21
13.88517371555651
 31
0.0
 11
178.1976985420735
 21
13.81891763918414
 31
0.0
 11
178.1976985420735
 21
13.7716586461404
 31
0.0
 11
178.1736699662976
 21
13.7716586461404
 31
0.0
 11
178.1496413905217
 21
13.7716586461404
 31
0.0
 11
177.7410729200423
 21
14.23466735262189
 31
0.0
 11
177.3067935648021
 21
14.70898038201722
 31
0.0
  0
SPLINE
  5
B2
102
{ACAD_REACTORS
330
CF
102
}
330
48
100
AcDbEntity
  8
_U_30EC_U_30A4_U_30E4_U_30FC_1
  6
Continuous
 62
     2
100
AcDbSpline
210
0.0
220
0.0
230
1.0
 70
    11
 71
     3
 72
    25
 73
    21
 74
    19
 42
0.000000001
 43
0.0000000001
 44
0.00000001
 40
0.0
 40
0.0
 40
0.0
 40
0.0
 40
0.0911479969064822
 40
0.1858117896204666
 40
0.2804128399734493
 40
0.3715889190714513
 40
0.4679080494218711
 40
0.5642683809229235
 40
0.6605683222644994
 40
0.7569653015810259
 40
0.8561348172522759
 40
1.092615965104294
 40
1.374867658141882
 40
1.611348812011608
 40
1.710518328425257
 40
1.809403163726578
 40
2.045205463294082
 40
2.326646917622146
 40
2.562449217190608
 40
2.661334043833929
 40
2.661334043833929
 40
2.661334043833929
 40
2.661334043833929
 10
173.2683700567199
 20
14.8861453819729
 30
0.0
 10
173.2987525917922
 20
14.88598079714552
 30
0.0
 10
173.3606895889111
 20
14.88564528689919
 30
0.0
 10
173.454135696033
 20
14.88269055451998
 30
0.0
 10
173.5475095236357
 20
14.87977752877147
 30
0.0
 10
173.6417760753475
 20
14.87894201643413
 30
0.0
 10
173.7354964790967
 20
14.87996644658044
 30
0.0
 10
173.8352040303205
 20
14.87916977470972
 30
0.0
 10
173.9188949546312
 20
14.88921410235216
 30
0.0
 10
174.0637996315045
 20
14.86234617674164
 30
0.0
 10
173.93961324448
 20
15.03665530280046
 30
0.0
 10
173.8965867286282
 20
15.1965171100609
 30
0.0
 10
173.780892214221
 20
15.45518458550214
 30
0.0
 10
173.7017565431257
 20
15.59231052861857
 30
0.0
 10
173.6431576621816
 20
15.80937033134076
 30
0.0
 10
173.5864803939438
 20
15.59266134213426
 30
0.0
 10
173.5052809900477
 20
15.45327012438234
 30
0.0
 10
173.4063701281488
 20
15.20406969370193
 30
0.0
 10
173.3253625094259
 20
15.01925830226071
 30
0.0
 10
173.2813683325838
 20
14.91650446856115
 30
0.0
 10
173.2683700567199
 20
14.8861453819729
 30
0.0
 11
173.2683700567199
 21
14.8861453819729
 31
0.0
 11
173.359513773782
 21
14.88526123266757
 31
0.0
 11
173.4541428297581
 21
14.88269697919597
 31
0.0
 11
173.5487082179706
 21
14.88009965280775
 31
0.0
 11
173.6398803250196
 21
14.87924857641907
 31
0.0
 11
173.7361985777706
 21
14.87965978301619
 31
0.0
 11
173.8325499034376
 21
14.8809771875297
 31
0.0
 11
173.9288262638286
 21
14.8831081857931
 31
0.0
 11
174.0251753846343
 21
14.8861453819729
 31
0.0
 11
173.9854633323141
 21
14.97701642195018
 31
0.0
 11
173.8907653613968
 21
15.193708901896
 31
0.0
 11
173.7777387509471
 21
15.45234186183134
 31
0.0
 11
173.6830407800297
 21
15.66903434177716
 31
0.0
 11
173.6433287277095
 21
15.75990538175444
 31
0.0
 11
173.6043330259266
 21
15.66903434177716
 31
0.0
 11
173.5113432755212
 21
15.45234186183134
 31
0.0
 11
173.4003555089082
 21
15.193708901896
 31
0.0
 11
173.3073657585028
 21
14.97701642195018
 31
0.0
 11
173.2683700567199
 21
14.8861453819729
 31
0.0
  0
SPLINE
  5
B3
102
{ACAD_REACTORS
330
CF
102
}
330
48
100
AcDbEntity
  8
_U_30EC_U_30A4_U_30E4_U_30FC_1
  6
Continuous
 62
     2
100
AcDbSpline
210
0.0
220
0.0
230
1.0
 70
    11
 71
     3
 72
    57
 73
    53
 74
    51
 42
0.000000001
 43
0.0000000001
 44
0.00000001
 40
0.0
 40
0.0
 40
0.0
 40
0.0
 40
0.0471632082809233
 40
0.0914861054632151
 40
0.1357762519702387
 40
0.1826527001610682
 40
0.2295203288572591
 40
0.273775197222076
 40
0.3181310461543069
 40
0.365260719839851
 40
0.4571007286314431
 40
0.5671851029165192
 40
0.6894623283868296
 40
0.8181758272545883
 40
0.9510087229273987
 40
1.085852229674056
 40
1.218126164475309
 40
1.343545131142375
 40
1.454537202956792
 40
1.567187607530801
 40
1.68071096664242
 40
1.794226869736784
 40
1.900009184247583
 40
2.004085860447863
 40
2.108162674451751
 40
2.214000150155296
 40
2.496038577352129
 40
2.762350745479263
 40
2.997275353279393
 40
3.185110082137718
 40
3.246407890063945
 40
3.312607550212676
 40
3.378877742711578
 40
3.440140399651432
 40
4.100501696006449
 40
4.754913085563508
 40
5.41133169342391
 40
6.077890432568687
 40
6.110575292670966
 40
6.143260152775746
 40
6.367989363395131
 40
6.610525374951536
 40
6.863389136467287
 40
7.119380025547573
 40
7.376036605091069
 40
7.631164770966268
 40
7.876722425456402
 40
8.104953735855936
 40
8.312916685924273
 40
8.49773029494128
 40
8.651018984313831
 40
8.764738853624566
 40
8.764738853624566
 40
8.764738853624566
 40
8.764738853624566
 10
174.7922649500513
 20
13.81626739612925
 30
0.0
 10
174.7766616726931
 20
13.81826231079076
 30
0.0
 10
174.7463947960302
 20
13.82213201360297
 30
0.0
 10
174.7010994202252
 20
13.82341984967266
 30
0.0
 10
174.6559553129349
 20
13.82308683554048
 30
0.0
 10
174.6099017123399
 20
13.82314658674222
 30
0.0
 10
174.5640496172096
 20
13.82325813649998
 30
0.0
 10
174.5183711648164
 20
13.82277833456588
 30
0.0
 10
174.4750811541608
 20
13.82461109618719
 30
0.0
 10
174.4039947951513
 20
13.80049556814655
 30
0.0
 10
174.4057477261441
 20
13.92184693977249
 30
0.0
 10
174.358619637057
 20
14.00726239751231
 30
0.0
 10
174.3191478251761
 20
14.12486929345132
 30
0.0
 10
174.2706635532645
 20
14.24232752540436
 30
0.0
 10
174.2201017402523
 20
14.36405935761507
 30
0.0
 10
174.1718634610477
 20
14.49075967862463
 30
0.0
 10
174.1135232947595
 20
14.5993368778495
 30
0.0
 10
174.0980892667261
 20
14.75620657134407
 30
0.0
 10
173.9566586330635
 20
14.7237344654832
 30
0.0
 10
173.8508397414904
 20
14.73512888682178
 30
0.0
 10
173.7358569725221
 20
14.73392591514612
 30
0.0
 10
173.6253142252141
 20
14.73506945347407
 30
0.0
 10
173.5176583522783
 20
14.73418350037524
 30
0.0
 10
173.4121322529243
 20
14.73416602390517
 30
0.0
 10
173.3109192682012
 20
14.72714032472413
 30
0.0
 10
173.1266804827753
 20
14.75135859859864
 30
0.0
 10
173.1157393685411
 20
14.44741691121883
 30
0.0
 10
173.008769163475
 20
14.22353177253394
 30
0.0
 10
172.9098148604347
 20
14.03895314292495
 30
0.0
 10
172.9225090524007
 20
13.79530204804204
 30
0.0
 10
172.8050091716397
 20
13.82508046753195
 30
0.0
 10
172.742205586831
 20
13.82258089509601
 30
0.0
 10
172.67858720934
 20
13.82344075102803
 30
0.0
 10
172.3946014194076
 20
13.78098039941943
 30
0.0
 10
173.025163849938
 20
14.50081952444784
 30
0.0
 10
173.1087645289071
 20
15.01276539435727
 30
0.0
 10
173.4929252789339
 20
15.5335374355004
 30
0.0
 10
173.4777208288567
 20
16.23519626253213
 30
0.0
 10
173.7239265722696
 20
16.22345633081254
 30
0.0
 10
173.8256346157562
 20
16.23225004452771
 30
0.0
 10
173.8249752035817
 20
15.98059650730343
 30
0.0
 10
173.9428317155829
 20
15.79818020733956
 30
0.0
 10
174.0315515260484
 20
15.55563740662863
 30
0.0
 10
174.1322292485259
 20
15.32340030530125
 30
0.0
 10
174.2311142712243
 20
15.0867464456691
 30
0.0
 10
174.3299676990669
 20
14.85461739170091
 30
0.0
 10
174.4256166390925
 20
14.63122222788785
 30
0.0
 10
174.5159904573271
 20
14.42272549049314
 30
0.0
 10
174.5989944568189
 20
14.23308448529317
 30
0.0
 10
174.6726088582799
 20
14.06663106068097
 30
0.0
 10
174.7342815895545
 20
13.92917699626095
 30
0.0
 10
174.7749458885604
 20
13.84999239430032
 30
0.0
 10
174.7922649500513
 20
13.81626739612925
 30
0.0
 11
174.7922649500513
 21
13.81626739612925
 31
0.0
 11
174.7453878317448
 21
13.82145433189183
 31
0.0
 11
174.7010975896125
 21
13.8231553822386
 31
0.0
 11
174.6568074431729
 21
13.8231553822386
 31
0.0
 11
174.6099309947159
 21
13.8231553822386
 31
0.0
 11
174.5630633657033
 21
13.8231553822386
 31
0.0
 11
174.5188084970408
 21
13.8231553822386
 31
0.0
 11
174.4744852776854
 21
13.82145433189183
 31
0.0
 11
174.4276419021443
 21
13.81626739612925
 31
0.0
 11
174.3992532136325
 21
13.90360966173242
 31
0.0
 11
174.3622721815898
 21
14.00729656274817
 31
0.0
 11
174.3188386236701
 21
14.12159987001125
 31
0.0
 11
174.2711055866936
 21
14.24113531268966
 31
0.0
 11
174.2208160133237
 21
14.36408057307563
 31
0.0
 11
174.1696467003932
 21
14.48883822929444
 31
0.0
 11
174.1197531801326
 21
14.61134141502769
 31
0.0
 11
174.0733119111841
 21
14.72784517367914
 31
0.0
 11
173.9623611907589
 21
14.73087465284504
 31
0.0
 11
173.8497309225089
 21
14.73300454867788
 31
0.0
 11
173.7362152069449
 21
14.73432195319138
 31
0.0
 11
173.62270004768
 21
14.73473315978851
 31
0.0
 11
173.5169185312816
 21
14.73432195319138
 31
0.0
 11
173.4128501919225
 21
14.73300454867788
 31
0.0
 11
173.3087951724045
 21
14.73087465284504
 31
0.0
 11
173.2030010615596
 21
14.72784517367914
 31
0.0
 11
173.0980914750139
 21
14.46604437513348
 31
0.0
 11
173.0034868690331
 21
14.21710232658458
 31
0.0
 11
172.9252231210298
 21
13.99559756969555
 31
0.0
 11
172.8693431224555
 21
13.81626739612925
 31
0.0
 11
172.8082651639442
 21
13.82145433189183
 31
0.0
 11
172.742087361813
 21
13.8231553822386
 31
0.0
 11
172.6758390041282
 21
13.82145433189183
 31
0.0
 11
172.6147963233938
 21
13.81626739612925
 31
0.0
 11
172.889968495193
 21
14.4165650869514
 31
0.0
 11
173.158294573417
 21
15.01343642360773
 31
0.0
 11
173.4240277350405
 21
15.61366245644379
 31
0.0
 11
173.6914740737033
 21
16.22421385386059
 31
0.0
 11
173.7241589339806
 21
16.22421385386059
 31
0.0
 11
173.7568437942579
 21
16.22421385386059
 31
0.0
 11
173.8428300681057
 21
16.01658539037081
 31
0.0
 11
173.9357285813609
 21
15.79254614563514
 31
0.0
 11
174.0328714521463
 21
15.55908663180466
 31
0.0
 11
174.1317936458031
 21
15.32298128464143
 31
0.0
 11
174.2315341249927
 21
15.08649780379782
 31
0.0
 11
174.3313071129353
 21
14.85168781253708
 31
0.0
 11
174.4280608257448
 21
14.62599492196847
 31
0.0
 11
174.5188084970408
 21
14.41658052097917
 31
0.0
 11
174.6022150834546
 21
14.22607611130459
 31
0.0
 11
174.6770293263377
 21
14.05708232662465
 31
0.0
 11
174.7410729186603
 21
13.91781337700665
 31
0.0
 11
174.7922649500513
 21
13.81626739612925
 31
0.0
  0
SPLINE
  5
B4
102
{ACAD_REACTORS
330
D0
102
}
330
48
100
AcDbEntity
  8
_U_30EC_U_30A4_U_30E4_U_30FC_1
  6
Continuous
 62
     2
100
AcDbSpline
210
0.0
220
0.0
230
1.0
 70
    11
 71
     3
 72
    99
 73
    95
 74
    93
 42
0.000000001
 43
0.0000000001
 44
0.00000001
 40
0.0
 40
0.0
 40
0.0
 40
0.0
 40
0.0796417172272426
 40
0.1621768542355948
 40
0.2486489160957621
 40
0.3404969668524608
 40
0.4381912511164595
 40
0.5434463660244893
 40
0.6518115192847208
 40
0.753019093788677
 40
0.8492196919725041
 40
0.9419290312998094
 40
1.034249663570035
 40
1.129078600620185
 40
1.226697027573225
 40
1.327220425421682
 40
1.470572134938002
 40
1.595489863371206
 40
1.719934125348387
 40
1.850576620127404
 40
1.989059629987293
 40
2.134139054226912
 40
2.280698007207199
 40
2.424529739039469
 40
2.565929576985833
 40
2.708239260773531
 40
2.861717887443646
 40
3.045168540347361
 40
3.1837983011386
 40
3.314813961455449
 40
3.4420834704473
 40
3.56991270837295
 40
3.702177512509353
 40
3.842307559659519
 40
3.992872223245922
 40
4.15675066221831
 40
4.310981861107531
 40
4.445859909322575
 40
4.57239393613157
 40
4.701656719781972
 40
4.768279086008456
 40
4.835960697898396
 40
4.912788918729319
 40
5.006285208481529
 40
5.026909478751605
 40
5.04753374902117
 40
5.101808031471244
 40
5.162325165538531
 40
5.226919745995851
 40
5.294231806596724
 40
5.364544852554872
 40
5.438319055467918
 40
5.517877651324252
 40
5.607647714861564
 40
5.700449642544411
 40
5.788251142364142
 40
5.872714706039774
 40
5.955167292575289
 40
6.037192395190382
 40
6.12066918146912
 40
6.206848616686354
 40
6.296680855416771
 40
6.442558392872597
 40
6.568190371608289
 40
6.692904567360368
 40
6.824220446557143
 40
6.963121850329379
 40
7.107843738851164
 40
7.253431663907279
 40
7.395187468036706
 40
7.533140753237759
 40
7.670550457175242
 40
7.816236511769265
 40
7.987691657359233
 40
8.142277421969254
 40
8.293662615415021
 40
8.44296246087928
 40
8.591598316185332
 40
8.743678992361808
 40
8.90372532369919
 40
9.076307008890536
 40
9.26557860468059
 40
9.459203795360764
 40
9.617619810273549
 40
9.753609671361906
 40
9.874873300004081
 40
9.954520184977792
 40
10.02416413719246
 40
10.09769764405445
 40
10.18909955924973
 40
10.20974586420134
 40
10.2303921826338
 40
10.30057101881265
 40
10.37632012987546
 40
10.37632012987546
 40
10.37632012987546
 40
10.37632012987546
 10
170.1465954835851
 20
14.13795663215991
 30
0.0
 10
170.1632217851219
 20
14.1172060884531
 30
0.0
 10
170.1970784206577
 20
14.07495111711899
 30
0.0
 10
170.2599822541036
 20
14.0202981139207
 30
0.0
 10
170.3332500940393
 20
13.97299025121048
 30
0.0
 10
170.4175969238636
 20
13.93527231437931
 30
0.0
 10
170.513224061546
 20
13.9104061973195
 30
0.0
 10
170.6171853775345
 20
13.90309559345936
 30
0.0
 10
170.7224020220405
 20
13.91142322794051
 30
0.0
 10
170.8206626371333
 20
13.94149179651527
 30
0.0
 10
170.9058986427548
 20
13.98848822971874
 30
0.0
 10
170.9779220206103
 20
14.04952991250855
 30
0.0
 10
171.0350917709096
 20
14.12412969578581
 30
0.0
 10
171.0767868747439
 20
14.21002464660172
 30
0.0
 10
171.1026952846292
 20
14.30485850432208
 30
0.0
 10
171.1118037332652
 20
14.41854979038365
 30
0.0
 10
171.0986864796487
 20
14.54332587770775
 30
0.0
 10
171.0325330334414
 20
14.66014719171891
 30
0.0
 10
170.9369370919569
 20
14.7451253957737
 30
0.0
 10
170.8249681022369
 20
14.8141668445916
 30
0.0
 10
170.699365958327
 20
14.87204142045888
 30
0.0
 10
170.5656691620856
 20
14.92373723284338
 30
0.0
 10
170.431312281883
 20
14.97899092397178
 30
0.0
 10
170.3051983986877
 20
15.04939770641648
 30
0.0
 10
170.1926579987535
 20
15.13785540731247
 30
0.0
 10
170.0969963064458
 20
15.2498106786847
 30
0.0
 10
170.0334157151826
 20
15.39949910101381
 30
0.0
 10
170.0200706505015
 20
15.55932794385139
 30
0.0
 10
170.0320510987449
 20
15.71048405306843
 30
0.0
 10
170.071229892884
 20
15.83809244591536
 30
0.0
 10
170.135498775091
 20
15.95080874030843
 30
0.0
 10
170.223820499974
 20
16.04648609268683
 30
0.0
 10
170.3338091207627
 20
16.12354214985751
 30
0.0
 10
170.4632284401265
 20
16.18151396936275
 30
0.0
 10
170.6111838967794
 20
16.2173917758882
 30
0.0
 10
170.7682069455486
 20
16.22746719050561
 30
0.0
 10
170.917494046643
 20
16.21863637762588
 30
0.0
 10
171.059625361417
 20
16.19074899340351
 30
0.0
 10
171.1595922609625
 20
16.13413314701135
 30
0.0
 10
171.3125074736186
 20
16.08674602105504
 30
0.0
 10
171.2455131717168
 20
16.00197553001182
 30
0.0
 10
171.2296479120268
 20
15.93438901873482
 30
0.0
 10
171.1978750531296
 20
15.86926092793188
 30
0.0
 10
171.2150202209572
 20
15.76723453256951
 30
0.0
 10
171.1666427208231
 20
15.77493211681899
 30
0.0
 10
171.1315789440766
 20
15.76806771724805
 30
0.0
 10
171.1296697985717
 20
15.83263831158193
 30
0.0
 10
171.0985692931989
 20
15.87825639621393
 30
0.0
 10
171.0664551628455
 20
15.93561036628452
 30
0.0
 10
171.0208038475168
 20
15.98540462692557
 30
0.0
 10
170.9658508218386
 20
16.02994813718993
 30
0.0
 10
170.9010841173007
 20
16.06763988836548
 30
0.0
 10
170.8232377310597
 20
16.09283375791349
 30
0.0
 10
170.7355160553352
 20
16.09931230998109
 30
0.0
 10
170.6452903277806
 20
16.09235709285604
 30
0.0
 10
170.5594594694064
 20
16.06909190460919
 30
0.0
 10
170.4828343638596
 20
16.03131644107543
 30
0.0
 10
170.4165265636201
 20
15.98051641089571
 30
0.0
 10
170.3622560536963
 20
15.91731143407208
 30
0.0
 10
170.3224925345459
 20
15.84276455710364
 30
0.0
 10
170.2976775510588
 20
15.75917313997761
 30
0.0
 10
170.289212426287
 20
15.65192948382283
 30
0.0
 10
170.3019697987103
 20
15.52965457267556
 30
0.0
 10
170.3681548409273
 20
15.41149724291209
 30
0.0
 10
170.4640977399832
 20
15.32606325709525
 30
0.0
 10
170.5757914963182
 20
15.2558336230672
 30
0.0
 10
170.7010863668702
 20
15.19659162305302
 30
0.0
 10
170.8349823941448
 20
15.14616708086131
 30
0.0
 10
170.968993033315
 20
15.0932251698438
 30
0.0
 10
171.0950885316915
 20
15.02750170625172
 30
0.0
 10
171.2076216638417
 20
14.94480352537319
 30
0.0
 10
171.3031370284233
 20
14.83996006310072
 30
0.0
 10
171.3672706486962
 20
14.69937117251567
 30
0.0
 10
171.3811103725279
 20
14.5406540945159
 30
0.0
 10
171.367395471223
 20
14.38153155217872
 30
0.0
 10
171.3244739153984
 20
14.23483828819208
 30
0.0
 10
171.2545906329066
 20
14.1011979658714
 30
0.0
 10
171.1574592213828
 20
13.98532387699289
 30
0.0
 10
171.0347806023657
 20
13.89089981770085
 30
0.0
 10
170.8874408413168
 20
13.8217927065198
 30
0.0
 10
170.7177132497125
 20
13.77953210858851
 30
0.0
 10
170.5317404979596
 20
13.76781736230406
 30
0.0
 10
170.3528955926183
 20
13.77809486683435
 30
0.0
 10
170.1881733753743
 20
13.81966573769152
 30
0.0
 10
170.0834410841056
 20
13.88797642883937
 30
0.0
 10
169.9350960790365
 20
13.93675219032104
 30
0.0
 10
169.9980378194729
 20
14.0297659129084
 30
0.0
 10
170.0072274430059
 20
14.10296536248278
 30
0.0
 10
170.0303711301231
 20
14.16936294501344
 30
0.0
 10
170.0034588335317
 20
14.26974809527578
 30
0.0
 10
170.0521338956339
 20
14.26234033517376
 30
0.0
 10
170.0916530580697
 20
14.26894063620893
 30
0.0
 10
170.0996204944701
 20
14.19078703218929
 30
0.0
 10
170.1305436967922
 20
14.15600927375854
 30
0.0
 10
170.1465954835851
 20
14.13795663215991
 30
0.0
 11
170.1465954835851
 21
14.13795663215991
 31
0.0
 11
170.1982038075864
 21
14.07729869814734
 31
0.0
 11
170.2601105501335
 21
14.02271295163318
 31
0.0
 11
170.3327764009802
 21
13.9758398092838
 31
0.0
 11
170.4166468655843
 21
13.93839906276534
 31
0.0
 11
170.511221073241
 21
13.91390636311876
 31
0.0
 11
170.6161603327165
 21
13.90575829888471
 31
0.0
 11
170.7240739497552
 21
13.91564048638221
 31
0.0
 11
170.8208419941616
 21
13.9452870488748
 31
0.0
 11
170.9050776083319
 21
13.99175118948817
 31
0.0
 11
170.9756144207686
 21
14.05191413218148
 31
0.0
 11
171.031944210998
 21
14.12505819466318
 31
0.0
 11
171.0736690016003
 21
14.2102143404752
 31
0.0
 11
171.0994680808032
 21
14.3043619098961
 31
0.0
 11
171.1080824729446
 21
14.40451552098217
 31
0.0
 11
171.0878517703357
 21
14.54643250879395
 31
0.0
 11
171.0272522666731
 21
14.65566684036385
 31
0.0
 11
170.9364971286285
 21
14.74081306430092
 31
0.0
 11
170.826010188474
 21
14.81052746532514
 31
0.0
 11
170.7008523531254
 21
14.8697985416992
 31
0.0
 11
170.5662951950998
 21
14.92404253474118
 31
0.0
 11
170.4316884277007
 21
14.98201274306001
 31
0.0
 11
170.3065802017258
 21
15.0529739930423
 31
0.0
 11
170.196027609828
 21
15.14113315968692
 31
0.0
 11
170.1053381235265
 21
15.25080295132615
 31
0.0
 11
170.0447055469484
 21
15.39179720476313
 31
0.0
 11
170.0245079172553
 21
15.57413260402312
 31
0.0
 11
170.0374030471347
 21
15.71216131926639
 31
0.0
 11
170.0761016659391
 21
15.83733128451287
 31
0.0
 11
170.1393141731506
 21
15.94779262129082
 31
0.0
 11
170.2257499954545
 21
16.04196885390618
 31
0.0
 11
170.3336492808962
 21
16.11846540770648
 31
0.0
 11
170.4613526283328
 21
16.17615670109485
 31
0.0
 11
170.6075393259923
 21
16.2122006680997
 31
0.0
 11
170.770976856545
 21
16.22421385386059
 31
0.0
 11
170.9248918431289
 21
16.21434269066862
 31
0.0
 11
171.0564887242607
 21
16.18477329831495
 31
0.0
 11
171.172563634494
 21
16.1343999389525
 31
0.0
 11
171.2800792741122
 21
16.06264163167874
 31
0.0
 11
171.2516994050444
 21
16.00236624106883
 31
0.0
 11
171.2284855254283
 21
15.93879017337645
 31
0.0
 11
171.2078381040801
 21
15.86478841992267
 31
0.0
 11
171.1871840681487
 21
15.77360197897325
 31
0.0
 11
171.1665597978415
 21
15.77360197897325
 31
0.0
 11
171.1459355275343
 21
15.77360197897325
 31
0.0
 11
171.1256706495791
 21
15.82395108486345
 31
0.0
 11
171.0994658759421
 21
15.87850045116927
 31
0.0
 11
171.0650468924451
 21
15.93316116296113
 31
0.0
 11
171.0203554612937
 21
15.98349593725409
 31
0.0
 11
170.9657333359511
 21
16.02777175321527
 31
0.0
 11
170.9016722004326
 21
16.06436142334499
 31
0.0
 11
170.825968296114
 21
16.08882545979725
 31
0.0
 11
170.7365722046449
 21
16.0970110066702
 31
0.0
 11
170.6440937174207
 21
16.08926973931099
 31
0.0
 11
170.5594072091645
 21
16.06609003445564
 31
0.0
 11
170.483702448884
 21
16.02863495634006
 31
0.0
 11
170.4183754766516
 21
15.978327742811
 31
0.0
 11
170.3650487887664
 21
15.91600293379877
 31
0.0
 11
170.3254809233901
 21
15.84249947895604
 31
0.0
 11
170.3009523754711
 21
15.75988443557389
 31
0.0
 11
170.2927954104108
 21
15.6704232984435
 31
0.0
 11
170.3130095765617
 21
15.52595308146571
 31
0.0
 11
170.373625616682
 21
15.41591177072934
 31
0.0
 11
170.4643479320758
 21
15.33033670130629
 31
0.0
 11
170.5748676948813
 21
15.25941954854623
 31
0.0
 11
170.7000089937719
 21
15.19914305550577
 31
0.0
 11
170.8345826882553
 21
15.1459044791302
 31
0.0
 11
170.9691729191968
 21
15.09039489581072
 31
0.0
 11
171.0942976816297
 21
15.02377281249407
 31
0.0
 11
171.204800907977
 21
14.94118863716747
 31
0.0
 11
171.2955397598288
 21
14.8380000347627
 31
0.0
 11
171.3561557999489
 21
14.70552315979582
 31
0.0
 11
171.3763699660998
 21
14.53526378483836
 31
0.0
 11
171.3621839747998
 21
14.3813303039741
 31
0.0
 11
171.3196087009193
 21
14.23605531269095
 31
0.0
 11
171.2499752884265
 21
14.10398854189066
 31
0.0
 11
171.1544992078713
 21
13.99007218775245
 31
0.0
 11
171.0341060772624
 21
13.89715272597015
 31
0.0
 11
170.8896160201846
 21
13.82832357668178
 31
0.0
 11
170.7223519532713
 21
13.78581275203965
 31
0.0
 11
170.5336103348226
 21
13.7716586461404
 31
0.0
 11
170.3405031726387
 21
13.78581275203965
 31
0.0
 11
170.1878975900911
 21
13.82832357668178
 31
0.0
 11
170.0661897942203
 21
13.88899033013887
 31
0.0
 11
169.9660261826363
 21
13.95734322942735
 31
0.0
 11
169.9922320587039
 21
14.03255545163075
 31
0.0
 11
170.0090121537618
 21
14.10014767383611
 31
0.0
 11
170.0206196447852
 21
14.17275926235959
 31
0.0
 11
170.0313606254139
 21
14.26352788212857
 31
0.0
 11
170.0520069443315
 21
14.26352788212857
 31
0.0
 11
170.0726532632492
 21
14.26352788212857
 31
0.0
 11
170.1048916391629
 21
14.20119204881082
 31
0.0
 11
170.1465954835851
 21
14.13795663215991
 31
0.0
  0
LWPOLYLINE
  5
B5
102
{ACAD_REACTORS
330
C2
102
}
330
48
100
AcDbEntity
  8
_U_30EC_U_30A4_U_30E4_U_30FC_1
  6
Continuous
 62
     2
100
AcDbPolyline
 90
        5
 70
     1
 43
0.0
 10
192.4578138032672
 20
15.39722336795623
 10
192.4578138032672
 20
15.22875434022055
 10
191.1602971697031
 20
15.22875434022055
 10
191.1602971697031
 20
15.39722336795623
 10
192.4578138032672
 20
15.39722336795623
  0
MTEXT
  5
B7
330
48
100
AcDbEntity
  8
1
 62
     2
100
AcDbMText
 10
32.5
 20
282.0000000000002
 30
0.0
 40
5.0
 41
0.0
 71
     5
 72
     1
  1
図番
  7
CONVERTER_11
 73
     1
 44
0.45454545454545
  0
MTEXT
  5
B8
330
48
100
AcDbEntity
  8
1
 62
     2
100
AcDbMText
 10
29.0
 20
33.99999999999999
 30
0.0
 40
3.5
 41
0.0
 71
     5
 72
     1
  1
備考
  7
CONVERTER_11
 73
     1
 44
0.45454545454545
  0
MTEXT
  5
B9
330
48
100
AcDbEntity
  8
1
 62
     2
100
AcDbMText
 10
29.0
 20
22.74999999999997
 30
0.0
 40
3.5
 41
0.0
 71
     5
 72
     1
  1
品名
  7
CONVERTER_11
 73
     1
 44
0.72727272727273
  0
MTEXT
  5
BA
330
48
100
AcDbEntity
  8
1
 62
     2
100
AcDbMText
 10
29.0
 20
14.24999999999997
 30
0.0
 40
3.5
 41
0.0
 71
     5
 72
     1
  1
品番
  7
CONVERTER_11
 73
     1
 44
0.72727272727273
  0
MTEXT
  5
BB
330
48
100
AcDbEntity
  8
1
 62
     2
100
AcDbMText
 10
101.5
 20
24.99999999999998
 30
0.0
 40
3.0
 41
0.0
 71
     5
 72
     1
  1
承認
  7
CONVERTER_11
 73
     1
 44
0.59090909090909
  0
MTEXT
  5
BC
330
48
100
AcDbEntity
  8
1
 62
     2
100
AcDbMText
 10
175.0
 20
23.49999999999999
 30
0.0
 40
3.5
 41
0.0
 71
     5
 72
     1
  1
第三角法
  7
CONVERTER_11
 73
     1
 44
0.54545454545455
  0
MTEXT
  5
BD
330
48
100
AcDbEntity
  8
1
 62
     2
100
AcDbMText
 10
118.5
 20
24.99999999999998
 30
0.0
 40
3.0
 41
0.0
 71
     5
 72
     1
  1
検図
  7
CONVERTER_11
 73
     1
 44
0.59090909090909
  0
MTEXT
  5
BE
330
48
100
AcDbEntity
  8
1
 62
     2
100
AcDbMText
 10
152.5
 20
24.99999999999998
 30
0.0
 40
3.0
 41
0.0
 71
     5
 72
     1
  1
設計
  7
CONVERTER_11
 73
     1
 44
0.59090909090909
  0
MTEXT
  5
BF
330
48
100
AcDbEntity
  8
1
 62
     2
100
AcDbMText
 10
135.5
 20
24.99999999999998
 30
0.0
 40
3.0
 41
0.0
 71
     5
 72
     1
  1
製図
  7
CONVERTER_11
 73
     1
 44
0.59090909090909
  0
MTEXT
  5
C0
330
48
100
AcDbEntity
  8
1
 62
     2
100
AcDbMText
 10
89.5
 20
23.99999999999998
 30
0.0
 40
3.5
 41
0.0
 71
     5
 72
     1
  1
尺度
  7
CONVERTER_11
 73
     1
 44
0.54545454545455
  0
MTEXT
  5
C1
330
48
100
AcDbEntity
  8
1
 62
   250
100
AcDbMText
 10
25.0
 20
4.99999999999998
 30
0.0
 40
3.5
 41
0.0
 71
     4
 72
     1
  1
備考欄の文字列 原点位置=4
  7
CONVERTER_11
 73
     1
 44
0.54545454545455
  0
HATCH
  5
C2
330
48
100
AcDbEntity
  8
1
  6
Continuous
 62
     2
100
AcDbHatch
 10
0.0
 20
0.0
 30
0.0
210
0.0
220
0.0
230
1.0
  2
CUSTOM0
 70
     0
 71
     1
 91
        1
 92
        1
 93
        4
 72
     1
 10
192.4578138032672
 20
15.39722336795623
 11
192.4578138032672
 21
15.22875434022055
 72
     1
 10
192.4578138032672
 20
15.22875434022055
 11
191.1602971697031
 21
15.22875434022055
 72
     1
 10
191.1602971697031
 20
15.22875434022055
 11
191.1602971697031
 21
15.39722336795623
 72
     1
 10
191.1602971697031
 20
15.39722336795623
 11
192.4578138032672
 21
15.39722336795623
 97
        1
330
B5
 75
     1
 76
     2
 52
45.0
 41
0.1
 77
     0
 78
     1
 53
45.0
 43
0.0
 44
0.0
 45
-0.282842712474619
 46
0.0
 79
     0
 98
        1
 10
0.0
 20
0.0
  0
HATCH
  5
C3
330
48
100
AcDbEntity
  8
1
  6
Continuous
 62
     2
100
AcDbHatch
 10
0.0
 20
0.0
 30
0.0
210
0.0
220
0.0
230
1.0
  2
CUSTOM1
 70
     0
 71
     1
 91
        1
 92
        1
 93
        3
 72
     4
 94
        3
 73
     0
 74
     0
 95
       24
 96
       20
 40
0.0
 40
0.0
 40
0.0
 40
0.0
 40
0.221107500875387
 40
0.427321858624527
 40
0.5080174679239211
 40
0.5914835907870105
 40
0.8143265690192589
 40
1.05465130268657
 40
1.295452694023156
 40
1.518109231328815
 40
1.54086432190543
 40
1.595126460622692
 40
1.659890947896004
 40
1.714153085187363
 40
1.736908174961663
 40
1.764951100735352
 40
1.801562291220942
 40
1.953914424543615
 40
2.126104167379697
 40
2.126104167379697
 40
2.126104167379697
 40
2.126104167379697
 10
185.9375369556889
 20
15.58989295113014
 10
185.9112579081811
 20
15.53097628234372
 10
185.8604698894426
 20
15.41711139679255
 10
185.8131784839111
 20
15.14441958233116
 10
185.7043482802618
 20
15.24445482575452
 10
185.5514800279637
 20
15.27118593367329
 10
185.7686155181199
 20
15.4851813501763
 10
185.783848367438
 20
15.70332117782484
 10
185.8906889492001
 20
15.88451579066424
 10
185.8305380947077
 20
16.16913226311399
 10
185.9334317395402
 20
16.14114089222448
 10
185.977993346815
 20
16.13243251602297
 10
186.0380842395396
 20
16.12139654183353
 10
186.0756619587439
 20
16.10767523055557
 10
186.1252466928605
 20
16.1075607616022
 10
186.0930158919325
 20
16.07306592398621
 10
186.017180222188
 20
16.08404104537961
 10
186.0429447159694
 20
15.89858969582448
 10
186.005589676385
 20
15.80702313549587
 10
185.9857704961609
 20
15.75844135397703
 72
     4
 94
        3
 73
     0
 74
     0
 95
       70
 96
       66
 40
0.0
 40
0.0
 40
0.0
 40
0.0
 40
0.0241731073021472
 40
0.0846058988987013
 40
0.1631685280353284
 40
0.2417311571789756
 40
0.3021639488292751
 40
0.3263370654895541
 40
0.3533118254248899
 40
0.4228783438922129
 40
0.5179999095313402
 40
0.6216398239466084
 40
0.7167613891499688
 40
0.7863279069649846
 40
0.8133026791761818
 40
0.8372943998771656
 40
0.8945054261372849
 40
0.9627895541962621
 40
1.020000580349072
 40
1.04399230097517
 40
1.071934345522903
 40
1.113121768772915
 40
1.14522519933224
 40
1.225483775412775
 40
1.329819923771483
 40
1.434156071994373
 40
1.514414647795792
 40
1.5465180782084
 40
1.578974764260174
 40
1.662678849314169
 40
1.777131373668389
 40
1.90183337747478
 40
2.01628590050057
 40
2.099989982527937
 40
2.132446666570296
 40
2.15878235448602
 40
2.216720867907808
 40
2.274659381334232
 40
2.300995069256166
 40
2.333451754066138
 40
2.417155836543818
 40
2.531608358985258
 40
2.656310362283753
 40
2.770762886388885
 40
2.854466971340051
 40
2.886923657363857
 40
2.913597976833291
 40
2.982389642875093
 40
3.076451716946959
 40
3.178937260458573
 40
3.272999334739978
 40
3.341791001059201
 40
3.368465320663512
 40
3.396976080738733
 40
3.47214081184597
 40
3.578408190308659
 40
3.700226892456095
 40
3.822045594634313
 40
3.928312973256419
 40
4.003477705314817
 40
4.031988456866882
 40
4.05832414479768
 40
4.116262658236842
 40
4.174201171400641
 40
4.200536849608573
 40
4.200536849608573
 40
4.200536849608573
 40
4.200536849608573
 10
185.9857704961609
 20
15.75844135397703
 10
185.9938259544679
 20
15.75844359811684
 10
186.0220200663241
 20
15.75845146032796
 10
186.0765534803672
 20
15.7583075482837
 10
186.1482891808604
 20
15.75909120499896
 10
186.2236240137062
 20
15.75627570463809
 10
186.2713052366439
 20
15.76298403400955
 10
186.3195071245616
 20
15.7519756369243
 10
186.3062571799873
 20
15.80546402997031
 10
186.3151093964538
 20
15.86049583543089
 10
186.3108698036285
 20
15.95419908726107
 10
186.313348348128
 20
16.0495948221853
 10
186.309093870606
 20
16.14356821983385
 10
186.3179818665846
 20
16.1979506243801
 10
186.3046977409945
 20
16.25233997691458
 10
186.3514119277109
 20
16.23842216335355
 10
186.3943254545736
 20
16.24103877374042
 10
186.4605443456684
 20
16.23648422450752
 10
186.5013342271799
 20
16.2277816213416
 10
186.5525145690818
 20
16.23531799890193
 10
186.5253720487201
 20
16.19349970223283
 10
186.4803096055707
 20
16.20284992072594
 10
186.4942065045051
 20
16.13841207371835
 10
186.4858414431653
 20
16.07378219627397
 10
186.4903632178398
 20
15.97529141193885
 10
186.4854741311167
 20
15.87595932842568
 10
186.4950258992082
 20
15.81293115552967
 10
186.47997614552
 20
15.74964011499786
 10
186.5449159457208
 20
15.76515072944267
 10
186.6116246399496
 20
15.7549938769781
 10
186.7241435470828
 20
15.75988800099365
 10
186.8390235448954
 20
15.75691204732782
 10
186.9519871999747
 20
15.76221664184989
 10
187.0176267597678
 20
15.75107306472087
 10
187.0816276691053
 20
15.76744532319855
 10
187.070314288919
 20
15.71761689905273
 10
187.0775339871509
 20
15.67416715212121
 10
187.0703142611269
 20
15.63071745587442
 10
187.0816277175994
 20
15.58088895196875
 10
187.0176263598971
 20
15.5972616609136
 10
186.951992124046
 20
15.58611271661586
 10
186.838997431733
 20
15.59144857206852
 10
186.7242456548644
 20
15.5883434566382
 10
186.611318368686
 20
15.59364894682586
 10
186.5455220903585
 20
15.58257300019592
 10
186.4816097975358
 20
15.59887597847615
 10
186.4936015165126
 20
15.5442352439574
 10
186.4862104613005
 20
15.4885429504784
 10
186.4892684841983
 20
15.39649689140568
 10
186.4893422785683
 20
15.30179109873099
 10
186.4860313578359
 20
15.20952782902263
 10
186.4939505989904
 20
15.15435768736138
 10
186.4815076611617
 20
15.10058169100134
 10
186.5389116551632
 20
15.11453768862778
 10
186.5994708140383
 20
15.10511457884224
 10
186.7048680855081
 20
15.10942885928702
 10
186.8204294070622
 20
15.10835504612029
 10
186.9359688877797
 20
15.10725965900993
 10
187.0414181130841
 20
15.1116252577063
 10
187.1018680471804
 20
15.10209426030669
 10
187.159283773911
 20
15.11617289606377
 10
187.1477773876709
 20
15.06707153265681
 10
187.153756678175
 20
15.02564658018647
 10
187.1520311050801
 20
14.97651677966694
 10
187.1521500122971
 20
14.94854428447606
 10
187.1521871691833
 20
14.93980288195948
 72
     4
 94
        3
 73
     0
 74
     0
 95
       62
 96
       58
 40
0.0
 40
0.0
 40
0.0
 40
0.0
 40
0.0598250028308485
 40
0.2024846486897331
 40
0.3727558389221031
 40
0.515415484793607
 40
0.5752404975785339
 40
0.9332326775487246
 40
1.290451762839475
 40
1.602077253145876
 40
1.699931634112132
 40
1.799359756425049
 40
2.270120149657084
 40
2.804661928461549
 40
2.882342287383262
 40
3.076543185719114
 40
3.329004354835578
 40
3.581465524568408
 40
3.775666424543692
 40
3.853346784558314
 40
3.89912067959506
 40
3.984129341792058
 40
4.029903236817406
 40
4.10579749605956
 40
4.295533144152522
 40
4.542189486611768
 40
4.78884582887572
 40
4.978581476410104
 40
5.054475735244349
 40
5.621734664339373
 40
6.130867242037379
 40
6.225249780948622
 40
6.318913039727315
 40
6.663579954558939
 40
7.047498900224793
 40
7.435230791575721
 40
7.498943906668133
 40
7.650875181210127
 40
7.832212509001637
 40
7.984143783697023
 40
8.04785689890315
 40
8.091554632732656
 40
8.172707566964315
 40
8.216405300768036
 40
8.289021782160921
 40
8.462184160757294
 40
8.668861838005375
 40
8.842024215263967
 40
8.914640695475162
 40
8.989881580861367
 40
9.155411528827276
 40
9.32094147774406
 40
9.396182352487312
 40
9.454709011143859
 40
9.583467660170793
 40
9.712226309013072
 40
9.770752957989526
 40
9.770752957989526
 40
9.770752957989526
 40
9.770752957989526
 10
187.1521871691833
 20
14.93980288195948
 10
187.1322348171623
 20
14.93980875568669
 10
187.0647037716466
 20
14.93982863806155
 10
186.9410612161788
 20
14.93949362520324
 10
186.7863180150056
 20
14.9410767375051
 10
186.669734948248
 20
14.93686078860493
 10
186.4550942634241
 20
14.95215205331624
 10
186.8518948407228
 20
14.5919872128619
 10
186.8945656069267
 20
14.37510503397164
 10
187.3189162146612
 20
14.19325062511444
 10
187.1439821496074
 20
14.0898519656807
 10
187.0194523925084
 20
13.87831523212722
 10
186.7666277235942
 20
14.34806081001559
 10
186.4797602893627
 20
14.9951151698452
 10
186.4906335926659
 20
14.68782672154692
 10
186.488289277796
 20
14.52288616971776
 10
186.4861096126411
 20
14.28879670711691
 10
186.4980774396346
 20
14.0449807242178
 10
186.468798474063
 20
13.89855796860982
 10
186.511452262547
 20
13.75113490174535
 10
186.4239814005639
 20
13.76685797306217
 10
186.3768527606744
 20
13.76694303543452
 10
186.2898973207713
 20
13.75109425482906
 10
186.3313474021722
 20
13.8952777142276
 10
186.3029875004285
 20
14.03855052698452
 10
186.3145973775299
 20
14.27674947365262
 10
186.3124175648272
 20
14.50517235240344
 10
186.3103111127993
 20
14.66705729375993
 10
186.3208035438323
 20
14.98153709333749
 10
186.0128963252893
 20
14.29229470872433
 10
185.7055258267456
 20
13.81476750243052
 10
185.5851367066274
 20
14.03741112637424
 10
185.4074607910721
 20
14.15011034955564
 10
185.8853326362895
 20
14.32548143465459
 10
185.9353959057207
 20
14.56091929252029
 10
186.3583799621717
 20
14.95322989344605
 10
186.127675427354
 20
14.93655307029064
 10
186.004968585934
 20
14.94269518948768
 10
185.8325483095661
 20
14.93312822699571
 10
185.721322469445
 20
14.95448818489665
 10
185.6025779627447
 20
14.92136265357417
 10
185.6183169706686
 20
15.00203900606882
 10
185.6178550933762
 20
15.04645414290852
 10
185.6027881889931
 20
15.12967081778531
 10
185.7372380935443
 20
15.0906265198388
 10
185.8619755545746
 20
15.1173972932842
 10
186.062875523728
 20
15.10063949044051
 10
186.1921540949352
 20
15.12204225913002
 10
186.3328419928295
 20
15.08868778853419
 10
186.2980927452614
 20
15.22651875785066
 10
186.3222185666714
 20
15.34963257349479
 10
186.2967086182392
 20
15.47024055670333
 10
186.3333251146684
 20
15.60539865141492
 10
186.2211417027769
 20
15.58094545781889
 10
186.1280356457136
 20
15.59307749842021
 10
186.0191547579819
 20
15.58957630069991
 10
185.9569697640964
 20
15.58981755951601
 10
185.9375369557246
 20
15.58989295124142
 97
        3
330
A6
330
A4
330
A5
 75
     1
 76
     2
 52
45.0
 41
0.1
 77
     0
 78
     1
 53
45.0
 43
0.0
 44
0.0
 45
-0.282842712474619
 46
0.0
 79
     0
 98
        1
 10
0.0
 20
0.0
  0
HATCH
  5
C4
330
48
100
AcDbEntity
  8
1
  6
Continuous
 62
     2
100
AcDbHatch
 10
0.0
 20
0.0
 30
0.0
210
0.0
220
0.0
230
1.0
  2
CUSTOM2
 70
     0
 71
     1
 91
        1
 92
        1
 93
        1
 72
     4
 94
        3
 73
     0
 74
     0
 95
      124
 96
      120
 40
0.0
 40
0.0
 40
0.0
 40
0.0
 40
0.027818722962451
 40
0.1011590162384269
 40
0.2048470170590239
 40
0.3237088716559245
 40
0.4425707262522
 40
0.5462587270699547
 40
0.6195990203311798
 40
0.647417752257866
 40
0.6750060736115224
 40
0.7357003855242741
 40
0.7963946998054474
 40
0.8239830245571766
 40
0.854093381110286
 40
0.937339662940954
 40
1.063094687343235
 40
1.220731268638073
 40
1.399622220914748
 40
1.589140358637732
 40
1.778658496423898
 40
1.957549448940509
 40
2.115186030873159
 40
2.240941056914463
 40
2.324187341760532
 40
2.354297700109382
 40
2.381886024671888
 40
2.442580338710477
 40
2.503274652750497
 40
2.530862977314606
 40
2.560983949278559
 40
2.640393784452905
 40
2.752662861759128
 40
2.881361560118145
 40
3.010060258455192
 40
3.122329335705339
 40
3.201739170817953
 40
3.231860142753313
 40
3.264298024030368
 40
3.352343701778241
 40
3.482095226868764
 40
3.639650650173027
 40
3.811108022565484
 40
3.982565394927991
 40
4.140120818152574
 40
4.269872343141285
 40
4.357918020802345
 40
4.390355902043974
 40
4.423256253992544
 40
4.508104530073065
 40
4.624121560636833
 40
4.750528176031589
 40
4.866545206602036
 40
4.951393482691993
 40
4.984293834645395
 40
5.01145083324231
 40
5.071196230152094
 40
5.130941627057173
 40
5.158098625648839
 40
5.19099897760153
 40
5.275847253689355
 40
5.39186428425679
 40
5.518270899648335
 40
5.634287930209374
 40
5.719136206288048
 40
5.752036558235935
 40
5.782130946282961
 40
5.862783906229136
 40
5.979550131775002
 40
6.117984316640407
 40
6.263641154587954
 40
6.402075339414156
 40
6.518841564907949
 40
6.599494524815534
 40
6.629588912848772
 40
6.654403028226348
 40
6.713575149488115
 40
6.784199939329433
 40
6.843372060493535
 40
6.868186175802781
 40
6.896246243201864
 40
6.939586233758257
 40
6.967846564564889
 40
7.043584251089824
 40
7.153234334451684
 40
7.283231855734433
 40
7.420011856035465
 40
7.550009376579817
 40
7.659659458835218
 40
7.735397144417211
 40
7.763657474851383
 40
7.79640972801104
 40
7.880876065096315
 40
7.9963708524657
 40
8.122208446418595
 40
8.237703224799189
 40
8.322169562010883
 40
8.354921815205897
 40
8.382078813307679
 40
8.441824209206985
 40
8.501569605240135
 40
8.528726603485714
 40
8.561478856695762
 40
8.645945193877813
 40
8.761439980865324
 40
8.887277580764467
 40
9.002772362000988
 40
9.087238696661208
 40
9.119990949235662
 40
9.152428830613362
 40
9.240474508638579
 40
9.370226034149532
 40
9.527781457984414
 40
9.699238830981404
 40
9.870696203978593
 40
10.02825162781402
 40
10.15800315332564
 40
10.24604883135119
 40
10.27848670378521
 40
10.27848670378521
 40
10.27848670378521
 40
10.27848670378521
 10
195.3821827564383
 20
14.01410517385754
 10
195.3914554737523
 20
14.01410498511271
 10
195.4251744536861
 20
14.01410430876711
 10
195.4934706812465
 20
14.01411807243301
 10
195.592014171158
 20
14.01403224219542
 10
195.7062066464812
 20
14.01441755612247
 10
195.818589441707
 20
14.01300835897543
 10
195.9214376600118
 20
14.01719117422239
 10
195.9806839874849
 20
14.0082308925198
 10
196.0371265937033
 20
14.02164434526058
 10
196.0246255586955
 20
13.97087198613359
 10
196.0329549635703
 20
13.92589320939064
 10
196.024817084112
 20
13.88056752990485
 10
196.0370529214457
 20
13.82931932408463
 10
195.9747773490333
 20
13.84447955365274
 10
195.9060513026868
 20
13.8335975071074
 10
195.7782756749592
 20
13.83911304747969
 10
195.6262984511643
 20
13.83700851253696
 10
195.4502695972523
 20
13.8377100258847
 10
195.2644431934287
 20
13.83745237531289
 10
195.0786167437175
 20
13.837710051446
 10
194.9025880142168
 20
13.83700841847728
 10
194.7506104154195
 20
13.83911332229986
 10
194.6228357664554
 20
13.83359680767637
 10
194.554107783658
 20
13.84448077125939
 10
194.4918349042883
 20
13.82931786684206
 10
194.5040616290017
 20
13.88057510805169
 10
194.4960004462597
 20
13.92582473272422
 10
194.5040675809892
 20
13.9710635795532
 10
194.4918238487083
 20
14.02234176909955
 10
194.5525017120697
 20
14.00749577363131
 10
194.6162810745736
 20
14.01756448170732
 10
194.7277314353502
 20
14.01294644211996
 10
194.8497533443824
 20
14.01413328905466
 10
194.9719538137823
 20
14.01515863900632
 10
195.0829794287392
 20
14.01092475623398
 10
195.1476517413959
 20
14.02018584521736
 10
195.2091162810501
 20
14.00604423049679
 10
195.1930065601337
 20
14.07235527884514
 10
195.2042980327358
 20
14.14447790121973
 10
195.1987400822561
 20
14.27513760888283
 10
195.200803506169
 20
14.42607323708238
 10
195.2000167127295
 20
14.59335873107883
 10
195.2007845215627
 20
14.760611103323
 10
195.1988038785628
 20
14.91163289269912
 10
195.2041306156621
 20
15.04206069552992
 10
195.1933101388425
 20
15.11465442605897
 10
195.2090326429875
 20
15.18150469436796
 10
195.143270813249
 20
15.16580512490822
 10
195.0756367830764
 20
15.17609243083993
 10
194.9615885293809
 20
15.1711378684712
 10
194.8451242674902
 20
15.17414128030473
 10
194.7306554121477
 20
15.16880303143386
 10
194.6640324657812
 20
15.18001268074823
 10
194.5990769715186
 20
15.16349132665009
 10
194.6107989758708
 20
15.21473720477057
 10
194.6032830189121
 20
15.25950333784088
 10
194.6107989878835
 20
15.30426944897959
 10
194.5990769505347
 20
15.35551536129739
 10
194.6640326339199
 20
15.33899381766812
 10
194.7306533339822
 20
15.35020571373942
 10
194.8451352858063
 20
15.34485436710662
 10
194.9615454436962
 20
15.34791188771115
 10
195.0757660174641
 20
15.34278499010706
 10
195.1430150439227
 20
15.35345733355596
 10
195.2083325941438
 20
15.33742082669075
 10
195.1941391448553
 20
15.39949685750052
 10
195.2036059462994
 20
15.4658676162876
 10
195.1990269004086
 20
15.58239972741965
 10
195.2007696555947
 20
15.71426685022373
 10
195.1997551495392
 20
15.85615960150272
 10
195.2017191344372
 20
15.98769050702577
 10
195.1964668553852
 20
16.10524577283001
 10
195.2073408763474
 20
16.16947789001581
 10
195.1919536641853
 20
16.23108802545045
 10
195.24075915378
 20
16.21702407382109
 10
195.2853995564726
 20
16.21954742075312
 10
195.3538643946742
 20
16.21512797401706
 10
195.3959106169103
 20
16.20613025544034
 10
195.4487544758775
 20
16.21411714866508
 10
195.4207035002014
 20
16.17113917611671
 10
195.3749142248594
 20
16.18259552043834
 10
195.3869539073265
 20
16.12173520005135
 10
195.3796086070641
 20
16.05769299468771
 10
195.3831195826161
 20
15.9490936886391
 10
195.3819806760173
 20
15.82494319144751
 10
195.3819174780262
 20
15.69189719829876
 10
195.3832872966868
 20
15.56797381249553
 10
195.3791638801314
 20
15.45868337849337
 10
195.3877763103563
 20
15.39608580094168
 10
195.3746757454402
 20
15.33740133296363
 10
195.4393884328198
 20
15.35362113810899
 10
195.5060405953156
 20
15.3427026038331
 10
195.6198779541102
 20
15.34793740173753
 10
195.7357259122097
 20
15.34485547516912
 10
195.849692426328
 20
15.3501825981251
 10
195.9160341018099
 20
15.33904208166541
 10
195.980718852548
 20
15.35546979593176
 10
195.9689820772722
 20
15.30425925210049
 10
195.9765168063041
 20
15.25950334120999
 10
195.9689820992257
 20
15.21474739010025
 10
195.9807188140736
 20
15.16353690871038
 10
195.9160344075252
 20
15.17996427794218
 10
195.8496886430824
 20
15.16882784447267
 10
195.7357459487012
 20
15.17413115893118
 10
195.6197995623054
 20
15.17114764593542
 10
195.5062756882122
 20
15.17606892268391
 10
195.4389231318804
 20
15.16585087513517
 10
195.3734285122495
 20
15.18145996138813
 10
195.3891713619218
 20
15.11463851827409
 10
195.3783275998212
 20
15.04207057815876
 10
195.3836581629793
 20
14.91162247614414
 10
195.3817136151854
 20
14.76064558185223
 10
195.3823133683215
 20
14.59322243934156
 10
195.3821506559604
 20
14.42656176118368
 10
195.3821895488136
 20
14.27360142921633
 10
195.3821816413099
 20
14.14849178985702
 10
195.3821828382744
 20
14.06507890991417
 10
195.3821827716208
 20
14.02491778281972
 10
195.3821827564383
 20
14.01410517385754
 97
        1
330
A7
 75
     1
 76
     2
 52
45.0
 41
0.1
 77
     0
 78
     1
 53
45.0
 43
0.0
 44
0.0
 45
-0.282842712474619
 46
0.0
 79
     0
 98
        1
 10
0.0
 20
0.0
  0
HATCH
  5
C5
330
48
100
AcDbEntity
  8
1
  6
Continuous
 62
     2
100
AcDbHatch
 10
0.0
 20
0.0
 30
0.0
210
0.0
220
0.0
230
1.0
  2
CUSTOM3
 70
     0
 71
     1
 91
        1
 92
        1
 93
        1
 72
     4
 94
        3
 73
     0
 74
     0
 95
      131
 96
      127
 40
0.0
 40
0.0
 40
0.0
 40
0.0
 40
0.0195577029826142
 40
0.0426490537461464
 40
0.2863607575856635
 40
0.53449484361893
 40
0.7842238845573183
 40
0.8737315789467378
 40
0.9803832810312875
 40
1.092842274517034
 40
1.19976114665679
 40
1.289788768186494
 40
1.351573580786184
 40
1.37072711756141
 40
1.416400936017826
 40
1.470914848355969
 40
1.516588666791763
 40
1.535742203552844
 40
1.634216592293194
 40
1.760283341175033
 40
1.897966686682095
 40
2.031216387368916
 40
2.04968975113791
 40
2.101115601646844
 40
2.179502577739963
 40
2.278859318314078
 40
2.393194462258737
 40
2.516516648383849
 40
2.642834515405976
 40
2.766156701983481
 40
2.880491846754596
 40
2.979848588358635
 40
3.058235565443812
 40
3.109661416668966
 40
3.128134780704144
 40
3.14678374238646
 40
3.191254343315321
 40
3.24433215731598
 40
3.288802758225884
 40
3.307451719895127
 40
3.327717853844738
 40
3.383747753580099
 40
3.468388665924491
 40
3.574487837698795
 40
3.694892515728902
 40
3.822449946852041
 40
3.95000737792043
 40
4.070412055800521
 40
4.176511227368078
 40
4.261152139501524
 40
4.317182039076716
 40
4.337448172964637
 40
4.620011002696247
 40
4.885096638397516
 40
4.945373043518335
 40
5.014107710488646
 40
5.070481727652039
 40
5.319246955636563
 40
5.584812164506034
 40
5.859000912056885
 40
6.133746937542067
 40
6.401732212968872
 40
6.420736683995463
 40
6.472845717451113
 40
6.550702743894041
 40
6.64695119387425
 40
6.754234497930574
 40
6.865196086587352
 40
6.97247939035781
 40
7.068727839771972
 40
7.146584865450981
 40
7.198693898189211
 40
7.217698368905351
 40
7.234950401630828
 40
7.276089864269871
 40
7.325191803515978
 40
7.366331266090361
 40
7.383583298769711
 40
7.402779163492088
 40
7.453386443254519
 40
7.524934666445521
 40
7.606953361405861
 40
7.688972056429012
 40
7.760520279784263
 40
7.811127559734505
 40
7.830323424546126
 40
7.847844055299754
 40
7.894799345666797
 40
7.962779392744487
 40
8.043374293560536
 40
8.128174145149444
 40
8.208769044817249
 40
8.276749090376953
 40
8.323704379669511
 40
8.341225010056245
 40
8.358497614800394
 40
8.401679126686599
 40
8.457815092185657
 40
8.513951057728061
 40
8.557132569708017
 40
8.57440517450506
 40
8.602340668616424
 40
8.643455660539965
 40
8.663225271966636
 40
8.71534515656428
 40
8.789031889628616
 40
8.87350204552035
 40
8.957972194323975
 40
9.03165892556787
 40
9.083778811234557
 40
9.103548423003021
 40
9.119550083123558
 40
9.16081752237986
 40
9.217244429110226
 40
9.278724491644711
 40
9.335151398295496
 40
9.376418837357791
 40
9.392420497300579
 40
9.401196302734798
 40
9.417494229384273
 40
9.426270027749545
 40
9.440875075477576
 40
9.475702496998757
 40
9.517270709865917
 40
9.552098131994086
 40
9.566703169884294
 40
9.566703169884294
 40
9.566703169884294
 40
9.566703169884294
 10
194.6170254148479
 20
15.67015871511025
 10
194.6134345093371
 20
15.66453690702157
 10
194.6056039123625
 20
15.6522775441911
 10
194.5129968974545
 20
15.61601916040967
 10
194.4887622233248
 20
15.40148444212713
 10
194.3858709845938
 20
15.22197284509705
 10
194.1220492364305
 20
15.03615573798144
 10
194.284547156918
 20
14.95959336566078
 10
194.3607225760838
 20
14.8985669319544
 10
194.4492171072758
 20
14.83515804544757
 10
194.538993023311
 20
14.77525634219559
 10
194.5883817636046
 20
14.72102154849206
 10
194.6745708157382
 20
14.69286240541833
 10
194.6411260674229
 20
14.6571330965281
 10
194.6214671166311
 20
14.62550387991904
 10
194.5919888217882
 20
14.58475872796068
 10
194.5688989446031
 20
14.55504663489642
 10
194.5380205968356
 20
14.50211422668492
 10
194.4729193365741
 20
14.627403349389
 10
194.3796000122415
 20
14.68213900233933
 10
194.2950636285139
 20
14.73916423939342
 10
194.1722498125741
 20
14.89675287427521
 10
194.1764450847301
 20
14.82035806766835
 10
194.1751478652677
 20
14.77361280161294
 10
194.1758126448076
 20
14.69584785812599
 10
194.1755549986957
 20
14.59902068324421
 10
194.1756431239922
 20
14.48650279078807
 10
194.1756077302281
 20
14.36524085945698
 10
194.1756511758279
 20
14.2408689785896
 10
194.1755199942405
 20
14.11967683631334
 10
194.1759477562046
 20
14.00691148919741
 10
194.174667820231
 20
13.91082913768742
 10
194.1779759851044
 20
13.83113826468698
 10
194.1715197740086
 20
13.78815175788782
 10
194.1806208705556
 20
13.7495543237204
 10
194.1447910339935
 20
13.75810887724068
 10
194.1115223815252
 20
13.75342519985445
 10
194.0604562576041
 20
13.75351298759782
 10
194.0269723972812
 20
13.75794430283818
 10
193.9907585408754
 20
13.74960793842508
 10
194.0009782568666
 20
13.79145277179283
 10
193.9936487887773
 20
13.83778560820171
 10
193.9973633136102
 20
13.92374831106012
 10
193.9959480554896
 20
14.02605142704847
 10
193.9964105554638
 20
14.14453223931509
 10
193.996277368623
 20
14.26957683153354
 10
193.9963015910045
 20
14.39475828107047
 10
193.9963354925551
 20
14.51286645379055
 10
193.9962060293132
 20
14.61628748709514
 10
193.9965507549081
 20
14.69932036153665
 10
193.995869827869
 20
14.75143368521241
 10
193.9994586600621
 20
14.87912907821359
 10
193.7826171386438
 20
14.58048716819618
 10
193.6021354921949
 20
14.35263981511513
 10
193.5490322295612
 20
14.49373443289812
 10
193.5200429133149
 20
14.54325767560942
 10
193.419664806282
 20
14.64641779790103
 10
193.7405127723261
 20
14.72695035023777
 10
193.8689897005429
 20
14.91066283036432
 10
194.0906454325359
 20
15.1193199577176
 10
194.1770224894068
 20
15.29339211228342
 10
194.4549394229075
 20
15.56967051342509
 10
194.3346247839283
 20
15.56534559551111
 10
194.2863197351349
 20
15.56614856202551
 10
194.2102377454905
 20
15.56574582146582
 10
194.116701000975
 20
15.56590275611607
 10
194.0117594788557
 20
15.56582502576222
 10
193.9033887738717
 20
15.56595464378552
 10
193.7981454235897
 20
15.56554393490689
 10
193.7056237819412
 20
15.56682073671589
 10
193.6268130800707
 20
15.56340766534848
 10
193.5839674565379
 20
15.57023350036318
 10
193.5449499586516
 20
15.56065064201121
 10
193.5526365271863
 20
15.5942077956554
 10
193.5485464404312
 20
15.6252355032223
 10
193.5485531368814
 20
15.67236529270898
 10
193.5526239724911
 20
15.70340941646775
 10
193.5449495574582
 20
15.73701861635898
 10
193.5834819405495
 20
15.72748410420869
 10
193.624122801448
 20
15.73397435498067
 10
193.6951471850463
 20
15.73100150650251
 10
193.7729318149633
 20
15.73174761399154
 10
193.8507292246474
 20
15.73247814044523
 10
193.9217232089908
 20
15.72954235514157
 10
193.9624279791819
 20
15.73595468772948
 10
194.0009853489909
 20
15.72650524176001
 10
193.9927342754928
 20
15.76264692158782
 10
193.9982346669358
 20
15.80129837613224
 10
193.9955754206163
 20
15.86913528561836
 10
193.9965815471533
 20
15.94591641538737
 10
193.9960178018319
 20
16.02849393582755
 10
193.9970714526593
 20
16.10517329229875
 10
193.9942675863129
 20
16.17331990776697
 10
194.0000702721304
 20
16.21132399809344
 10
193.9915654551158
 20
16.24758448077644
 10
194.0255610233125
 20
16.2375572377185
 10
194.05945756831
 20
16.24073266813705
 10
194.1126669060346
 20
16.23508965640607
 10
194.1660768574482
 20
16.23434774436423
 10
194.1995914649491
 20
16.22819223482978
 10
194.2388086183038
 20
16.2334602977359
 10
194.2120263698492
 20
16.19253380793488
 10
194.1708111001723
 20
16.20371204538109
 10
194.1782641540873
 20
16.15867056192121
 10
194.1742227952184
 20
16.11412278028142
 10
194.176171404964
 20
16.042235726217
 10
194.1752364849758
 20
15.96168630588768
 10
194.176510719003
 20
15.88173995404992
 10
194.1732043793863
 20
15.8084183708318
 10
194.1802106179962
 20
15.76688643002565
 10
194.1701440380125
 20
15.7275241856811
 10
194.2029814803921
 20
15.73468063430978
 10
194.236457729648
 20
15.73027243137941
 10
194.2915053476019
 20
15.73217943347894
 10
194.3489502595314
 20
15.73185366407285
 10
194.4023026248309
 20
15.73106308733079
 10
194.4398540896638
 20
15.73313959118071
 10
194.4623172523237
 20
15.73022338167106
 10
194.4751678073731
 20
15.73572552644053
 10
194.4858255685888
 20
15.73801118197787
 10
194.4986635650143
 20
15.74494972588049
 10
194.514599103307
 20
15.72853046313669
 10
194.5410623920892
 20
15.71709122319445
 10
194.5726805253757
 20
15.69644687835188
 10
194.5987255892151
 20
15.68116869628292
 10
194.6128517723973
 20
15.67266976323181
 10
194.6170254148479
 20
15.67015871511025
 97
        1
330
A8
 75
     1
 76
     2
 52
45.0
 41
0.1
 77
     0
 78
     1
 53
45.0
 43
0.0
 44
0.0
 45
-0.282842712474619
 46
0.0
 79
     0
 98
        1
 10
0.0
 20
0.0
  0
HATCH
  5
C6
330
48
100
AcDbEntity
  8
1
  6
Continuous
 62
     2
100
AcDbHatch
 10
0.0
 20
0.0
 30
0.0
210
0.0
220
0.0
230
1.0
  2
CUSTOM4
 70
     0
 71
     1
 91
        1
 92
        1
 93
        1
 72
     4
 94
        3
 73
     0
 74
     0
 95
       91
 96
       87
 40
0.0
 40
0.0
 40
0.0
 40
0.0
 40
0.0267532254356719
 40
0.0856103386464155
 40
0.1444674521996727
 40
0.1712206856618621
 40
0.2039416005642643
 40
0.2955601971652591
 40
0.4362601844617024
 40
0.6162252844507357
 40
0.8256392189704804
 40
1.054685709844421
 40
1.293548478893542
 40
1.532411247938314
 40
1.761457738799579
 40
1.970871673298547
 40
2.150836773256743
 40
2.291536760495604
 40
2.383155356836711
 40
2.415876284101331
 40
2.442629517487975
 40
2.501486630949111
 40
2.560343744424261
 40
2.587096977826536
 40
2.617068194440964
 40
2.699247336756105
 40
2.822032643466417
 40
2.973822353257947
 40
3.143014704823389
 40
3.318007936879968
 40
3.487200288186801
 40
3.638989997548282
 40
3.761775303794781
 40
3.843954445753115
 40
3.873925662229811
 40
3.890812773500518
 40
3.907699884771695
 40
3.937960767857307
 40
3.980983618142339
 40
4.19908591522848
 40
4.439444339237274
 40
4.677588241260918
 40
5.050698317837804
 40
5.44821245476319
 40
5.855291218044715
 40
6.138575438885382
 40
6.41743450758422
 40
6.444551104393902
 40
6.504207617363202
 40
6.563864130314525
 40
6.590980727104118
 40
6.848609460381504
 40
7.109611990668466
 40
7.352910904446131
 40
7.557830220705502
 40
7.58751892591342
 40
7.652834077375838
 40
7.718149228845772
 40
7.747837934062075
 40
7.854880190301035
 40
7.976511257403583
 40
8.369487896592386
 40
8.757514959223679
 40
9.126072419331141
 40
9.460639380392204
 40
9.746695593035945
 40
9.777569943118715
 40
9.807050320931813
 40
9.830377336128945
 40
9.886003295436021
 40
9.95239556942993
 40
10.00802152870628
 40
10.03134854388221
 40
10.21356951009591
 40
10.42203479292874
 40
10.66154556731066
 40
10.91693789564306
 40
11.15832906556567
 40
11.18982674596624
 40
11.27286608520409
 40
11.39026653033351
 40
11.52484752840887
 40
11.65942852648449
 40
11.77682897161485
 40
11.85986831085684
 40
11.89136598230429
 40
11.89136598230429
 40
11.89136598230429
 40
11.89136598230429
 10
190.7027885008196
 20
14.70699600701769
 10
190.7028237765288
 20
14.71587847311982
 10
190.7029366710796
 20
14.74430237047344
 10
190.7012984568489
 20
14.794096391698
 10
190.706975029291
 20
14.83657564478152
 10
190.6956928731706
 20
14.88730154856845
 10
190.7632296979032
 20
14.87012900740107
 10
190.8388029210699
 20
14.88290227165993
 10
190.9828357056001
 20
14.8762972945738
 10
191.1569419185426
 20
14.87888462206464
 10
191.3639599611004
 20
14.87800591955551
 10
191.5894688172378
 20
14.87828207920026
 10
191.8251162293406
 20
14.8781833965866
 10
192.0607640531348
 20
14.87828184412765
 10
192.2862717580626
 20
14.87800678190787
 10
192.4932934632805
 20
14.87888186270733
 10
192.6673888915288
 20
14.87630522678445
 10
192.8114492071986
 20
14.88288290449211
 10
192.8869691915293
 20
14.87016243405602
 10
192.954577603703
 20
14.88726400191684
 10
192.9430840140676
 20
14.83674785802938
 10
192.9505104581733
 20
14.79253252226499
 10
192.9428838927986
 20
14.74867966503607
 10
192.9546489459425
 20
14.69878374479325
 10
192.8930788491983
 20
14.71393227712508
 10
192.8256791738671
 20
14.70310665350671
 10
192.7013004056222
 20
14.70852031626233
 10
192.555442823657
 20
14.70649205390782
 10
192.3893576440086
 20
14.70715777578384
 10
192.2188412621724
 20
14.70689643521239
 10
192.0519790855388
 20
14.70721553391091
 10
191.9087346827105
 20
14.70635302590759
 10
191.7773313869834
 20
14.70863300482986
 10
191.7239859134656
 20
14.70407704374198
 10
191.6485188456913
 20
14.70999914992874
 10
191.6769075779232
 20
14.7009416934335
 10
191.7033652409542
 20
14.69725912268927
 10
191.6633522907701
 20
14.66654271968271
 10
191.5713663691868
 20
14.67667591174633
 10
191.5439396207069
 20
14.43032502247781
 10
191.4478793967235
 20
14.27499558764373
 10
191.1917277964473
 20
13.94525417931565
 10
191.7627537732762
 20
14.08430022210449
 10
192.0173656320516
 20
14.08291779973361
 10
192.6279647048617
 20
13.99790569242085
 10
192.3340698578083
 20
14.29685417558201
 10
192.0133304286517
 20
14.44330856901779
 10
192.1313543360434
 20
14.50025540818285
 10
192.1724716466261
 20
14.52420099873346
 10
192.2156812394411
 20
14.54599758811228
 10
192.3174574094451
 20
14.60928721253902
 10
192.4328867625247
 20
14.35147151408777
 10
192.6329591642277
 20
14.2161604111368
 10
192.7269077387228
 20
14.0379279513888
 10
192.9558829746392
 20
13.87997821027044
 10
192.8596031846708
 20
13.82915972576297
 10
192.8167959763778
 20
13.79881292523051
 10
192.7718243528779
 20
13.77466130281456
 10
192.7121720925214
 20
13.72552146747566
 10
192.6789731061324
 20
13.85997475673607
 10
192.5582013350796
 20
14.0159426528658
 10
192.1970976005978
 20
13.88569928059555
 10
191.8385061955541
 20
13.90224694409482
 10
191.457092045008
 20
13.89331229351863
 10
191.170345528289
 20
13.82882671672406
 10
190.8592055599715
 20
13.94230668192824
 10
190.8268737818787
 20
13.83122259927766
 10
190.7896178253318
 20
13.81196313850012
 10
190.7865737632753
 20
13.85874784087295
 10
190.7679892860608
 20
13.89806853919134
 10
190.7512436616777
 20
13.95765983478231
 10
190.7383730915753
 20
14.00201969871282
 10
190.7042327806429
 20
14.09106331120199
 10
190.9482714457754
 20
14.02181042943768
 10
191.1441394486671
 20
14.00030369057742
 10
191.2395426381277
 20
14.28226484478461
 10
191.2945135769597
 20
14.4436304542112
 10
191.5159619357154
 20
14.71391177589736
 10
191.3849239381217
 20
14.70548446853731
 10
191.3110026555853
 20
14.70779008496967
 10
191.1977459876244
 20
14.70671378321655
 10
191.0694251807484
 20
14.70707639076507
 10
190.9404252030415
 20
14.70697724466083
 10
190.828784094629
 20
14.70699932712569
 10
190.7514663970026
 20
14.70699579189667
 10
190.713287653201
 20
14.70699595845078
 10
190.7027885008196
 20
14.70699600701769
 97
        1
330
A9
 75
     1
 76
     2
 52
45.0
 41
0.1
 77
     0
 78
     1
 53
45.0
 43
0.0
 44
0.0
 45
-0.282842712474619
 46
0.0
 79
     0
 98
        1
 10
0.0
 20
0.0
  0
HATCH
  5
C7
330
48
100
AcDbEntity
  8
1
  6
Continuous
 62
     2
100
AcDbHatch
 10
0.0
 20
0.0
 30
0.0
210
0.0
220
0.0
230
1.0
  2
CUSTOM5
 70
     0
 71
     1
 91
        1
 92
        1
 93
        1
 72
     4
 94
        3
 73
     0
 74
     0
 95
       35
 96
       31
 40
0.0
 40
0.0
 40
0.0
 40
0.0
 40
0.0335231036620673
 40
0.0713218571712079
 40
0.4278866681487083
 40
0.8116865841964116
 40
1.198190238000071
 40
1.561379546812697
 40
1.659983174622065
 40
1.75931557380721
 40
2.132719617231098
 40
2.525233363588851
 40
2.91081539777972
 40
3.26524436430331
 40
3.592606723582056
 40
3.964386154604001
 40
4.359942131737823
 40
4.758154118639332
 40
4.843846538699944
 40
4.936650065543263
 40
5.256616602537343
 40
5.581707404416077
 40
5.899719158308172
 40
6.198363494280777
 40
6.466301046615807
 40
6.493895311537128
 40
6.55969702019692
 40
6.638234543442495
 40
6.704036252154247
 40
6.731630508423053
 40
6.731630508423053
 40
6.731630508423053
 40
6.731630508423053
 10
191.9736010568669
 20
16.23463843719132
 10
191.9676006097789
 20
16.22480690542321
 10
191.9548344099156
 20
16.20388988579796
 10
191.7949362006556
 20
16.17127126532687
 10
192.2322025842336
 20
15.88206680336699
 10
192.4345394828262
 20
15.68041138358437
 10
192.6819564267973
 20
15.43749387603274
 10
193.1831513624607
 20
15.36047662757775
 10
193.012556219897
 20
15.21876939174654
 10
192.9383299463202
 20
15.01710366209104
 10
192.6131432248188
 20
15.36956287174724
 10
192.3277741670664
 20
15.5317521255956
 10
192.0337604077658
 20
15.73687130053046
 10
191.8084452691134
 20
16.21827488595454
 10
191.5993085055522
 20
15.7534304660922
 10
191.3207873674834
 20
15.54350952252909
 10
191.0371383177209
 20
15.37424456359982
 10
190.7078639527832
 20
15.00142360907934
 10
190.6277012318224
 20
15.19708014458999
 10
190.4759724909744
 20
15.32491104190593
 10
190.9083395826794
 20
15.40454031765933
 10
191.0962565329766
 20
15.6002663491547
 10
191.3468477420503
 20
15.81632996916753
 10
191.5714350470161
 20
15.98190992300056
 10
191.6259775409712
 20
16.26133964636823
 10
191.7494661029011
 20
16.24737950408076
 10
191.8060273344519
 20
16.24521268867644
 10
191.8761870984945
 20
16.24046859881358
 10
191.9333414022105
 20
16.23709429350539
 10
191.9644190320839
 20
16.23519854711117
 10
191.9736010568669
 20
16.23463843719132
 97
        1
330
AA
 75
     1
 76
     2
 52
45.0
 41
0.1
 77
     0
 78
     1
 53
45.0
 43
0.0
 44
0.0
 45
-0.282842712474619
 46
0.0
 79
     0
 98
        1
 10
0.0
 20
0.0
  0
HATCH
  5
C8
330
48
100
AcDbEntity
  8
1
  6
Continuous
 62
     2
100
AcDbHatch
 10
0.0
 20
0.0
 30
0.0
210
0.0
220
0.0
230
1.0
  2
CUSTOM6
 70
     0
 71
     1
 91
        1
 92
        1
 93
        1
 72
     4
 94
        3
 73
     0
 74
     0
 95
       15
 96
       11
 40
0.0
 40
0.0
 40
0.0
 40
0.0
 40
0.2785535985096595
 40
0.5215624748198932
 40
0.6076917376040567
 40
0.693821000174129
 40
0.9405019146455178
 40
1.221691403489146
 40
1.300471877081065
 40
1.379252341684832
 40
1.379252341684832
 40
1.379252341684832
 40
1.379252341684832
 10
189.5681493630999
 20
16.22930267330379
 10
189.6296017794178
 20
16.17691646592713
 10
189.7446649974113
 20
16.07882876798219
 10
190.0397348497243
 20
15.92889785897219
 10
189.9025147631857
 20
15.84343227515011
 10
189.8041227843778
 20
15.71085785201551
 10
189.713003359065
 20
16.01616985781419
 10
189.3636839480654
 20
16.07967869465371
 10
189.5119258376571
 20
16.17896509880876
 10
189.5494081874236
 20
16.2125234840238
 10
189.5681493630999
 20
16.22930267330379
 97
        1
330
AB
 75
     1
 76
     2
 52
45.0
 41
0.1
 77
     0
 78
     1
 53
45.0
 43
0.0
 44
0.0
 45
-0.282842712474619
 46
0.0
 79
     0
 98
        1
 10
0.0
 20
0.0
  0
HATCH
  5
C9
330
48
100
AcDbEntity
  8
1
  6
Continuous
 62
     2
100
AcDbHatch
 10
0.0
 20
0.0
 30
0.0
210
0.0
220
0.0
230
1.0
  2
CUSTOM7
 70
     0
 71
     1
 91
        1
 92
        1
 93
        1
 72
     4
 94
        3
 73
     0
 74
     0
 95
       75
 96
       71
 40
0.0
 40
0.0
 40
0.0
 40
0.0
 40
0.0342546099129691
 40
0.1245622414432346
 40
0.2522385480897518
 40
0.3985991922940662
 40
0.5449598364980839
 40
0.6726361431438852
 40
0.7629437746736942
 40
0.7971983935297973
 40
1.101723623449661
 40
1.408591244036667
 40
1.433332471690375
 40
1.487763172450175
 40
1.542193873082008
 40
1.566935100592559
 40
1.923523931821871
 40
2.271755704953671
 40
2.590579755100912
 40
2.858943305581171
 40
2.889120339309192
 40
2.918305855191143
 40
2.941366645531267
 40
2.996357760973162
 40
3.061992318140708
 40
3.116983433626907
 40
3.140044223997588
 40
3.411273122936509
 40
3.732441619741174
 40
3.761068217532873
 40
3.837787499630434
 40
3.948858699126072
 40
4.080541049104449
 40
4.219093782625833
 40
4.350776132722382
 40
4.461847332405716
 40
4.53856661467845
 40
4.567193212544696
 40
4.594907573998954
 40
4.666381453557493
 40
4.764111044011104
 40
4.870592538125907
 40
4.968322128642358
 40
5.039796008287043
 40
5.067510369784502
 40
5.094263603185714
 40
5.153120716668347
 40
5.211977830150792
 40
5.238731063551795
 40
5.272290535139033
 40
5.363380529444894
 40
5.497618415781572
 40
5.660621563453814
 40
5.838007341749515
 40
6.015393119910867
 40
6.178396267038492
 40
6.312634151842444
 40
6.403724143059433
 40
6.437283612672529
 40
6.464036846261143
 40
6.522893960004756
 40
6.581751071484019
 40
6.608504301590964
 40
6.637253941281111
 40
6.711397748902963
 40
6.812778057283575
 40
6.923237199249352
 40
7.024617507623995
 40
7.098761315207648
 40
7.127510946007598
 40
7.127510946007598
 40
7.127510946007598
 40
7.127510946007598
 10
188.4418622390564
 20
14.95849128473262
 10
188.4418622819707
 20
14.94707313408718
 10
188.4418624481129
 20
14.90555257842627
 10
188.4418593081786
 20
14.82146922003769
 10
188.4418788279801
 20
14.70004497322327
 10
188.4417912187737
 20
14.55980494047446
 10
188.442111623523
 20
14.42006556794574
 10
188.4411605909741
 20
14.29745038894927
 10
188.4431978595967
 20
14.2158707443804
 10
188.4349433178746
 20
14.06271267077697
 10
188.7430797940902
 20
14.22560236054718
 10
189.0350645173735
 20
14.39482938688002
 10
189.0408354448708
 20
14.2597323578191
 10
189.0455471719891
 20
14.21617221160443
 10
189.0482535411917
 20
14.17211249350542
 10
189.067254567296
 20
14.02272590363133
 10
188.6583942247302
 20
14.08681172241259
 10
188.3793710348831
 20
13.97296341411014
 10
188.1018081587167
 20
13.87364095811141
 10
187.8099837184399
 20
13.91630687596351
 10
187.7869144678658
 20
13.81321679744539
 10
187.7537474383332
 20
13.78691091244466
 10
187.7480653962739
 20
13.83455309036302
 10
187.7284214559043
 20
13.87180336115066
 10
187.7095089485623
 20
13.93007387847562
 10
187.6942849867708
 20
13.97385201007802
 10
187.6477246372935
 20
14.0875942104631
 10
187.989089731245
 20
14.05576301120044
 10
188.2679649367388
 20
14.02161435106478
 10
188.2617753034906
 20
14.1691397647965
 10
188.2630935452773
 20
14.24013150908831
 10
188.2624831689948
 20
14.34719767958659
 10
188.2625871570724
 20
14.47398529785995
 10
188.2629987964055
 20
14.60849243496048
 10
188.2613907841969
 20
14.73395549951182
 10
188.2659902567925
 20
14.84505246719115
 10
188.256418650221
 20
14.90761886800686
 10
188.2704001783691
 20
14.96595388294999
 10
188.2147384386704
 20
14.95289710582235
 10
188.1575655197821
 20
14.96136307749496
 10
188.0616048925648
 20
14.95729976080634
 10
187.963376752282
 20
14.95970889852472
 10
187.8672582457561
 20
14.95551600613386
 10
187.8104648525811
 20
14.96429346441161
 10
187.7550356873384
 20
14.95094936850118
 10
187.7670679427917
 20
15.00036910959254
 10
187.7592003173937
 20
15.04393988030393
 10
187.7666295563828
 20
15.08830469118522
 10
187.7551930564144
 20
15.13902297763988
 10
187.8232102370132
 20
15.1216246075774
 10
187.8968496879747
 20
15.13417450237186
 10
188.0325064058211
 20
15.12799677011094
 10
188.1884909024525
 20
15.13029203093081
 10
188.3615926358143
 20
15.12940968262527
 10
188.5346942964181
 20
15.13029207142405
 10
188.6906789811216
 20
15.12799662955547
 10
188.8263351889797
 20
15.13417486262428
 10
188.8999756705652
 20
15.12162394218332
 10
188.9679914174724
 20
15.1390237301214
 10
188.9565590885922
 20
15.08830130414552
 10
188.9639539458298
 20
15.04397060811106
 10
188.956203991227
 20
15.00028307550193
 10
188.9681203741877
 20
14.95063590098475
 10
188.9108170223616
 20
14.96461411338423
 10
188.8520145789772
 20
14.95539755673252
 10
188.7525293633199
 20
14.95952268164927
 10
188.649428009835
 20
14.95822760025886
 10
188.5537846354573
 20
14.95854077077638
 10
188.4857467971617
 20
14.95848776697143
 10
188.4514462213443
 20
14.95849051871654
 10
188.4418622390564
 20
14.95849128473262
 97
        1
330
AC
 75
     1
 76
     2
 52
45.0
 41
0.1
 77
     0
 78
     1
 53
45.0
 43
0.0
 44
0.0
 45
-0.282842712474619
 46
0.0
 79
     0
 98
        1
 10
0.0
 20
0.0
  0
HATCH
  5
CA
330
48
100
AcDbEntity
  8
1
  6
Continuous
 62
     2
100
AcDbHatch
 10
0.0
 20
0.0
 30
0.0
210
0.0
220
0.0
230
1.0
  2
CUSTOM8
 70
     0
 71
     1
 91
        1
 92
        1
 93
        1
 72
     4
 94
        3
 73
     0
 74
     0
 95
       91
 96
       87
 40
0.0
 40
0.0
 40
0.0
 40
0.0
 40
0.0345987051695718
 40
0.1258134969461369
 40
0.2547723404888987
 40
0.4026032099154125
 40
0.5504340793416704
 40
0.679392922883608
 40
0.7706077146571035
 40
0.8052064287780925
 40
1.124852390615278
 40
1.427402236308874
 40
1.706356627453512
 40
1.9555414178752
 40
2.169485938566345
 40
2.344350786664804
 40
2.480568411561955
 40
2.590440557428977
 40
2.649189927151131
 40
2.749320643306337
 40
2.912632739880043
 40
3.147745656000247
 40
3.24482749638514
 40
3.33849005694673
 40
3.583815413207154
 40
3.761423943238517
 40
3.886956104362681
 40
3.985855451886847
 40
4.091766255337732
 40
4.250186473811925
 40
4.422734315084571
 40
4.628285684838666
 40
4.8720932277585
 40
5.152549652145611
 40
5.464967135837596
 40
5.803201477852511
 40
6.160362988813987
 40
6.193449448276042
 40
6.284170385501697
 40
6.419718138764567
 40
6.587285046385817
 40
6.774063446723731
 40
6.967245678113714
 40
7.1540240788177
 40
7.321590987026085
 40
7.457138740890444
 40
7.54785967855618
 40
7.58094613818274
 40
7.608533084714792
 40
7.669224367077766
 40
7.729915649429981
 40
7.757502595950034
 40
7.790278062553488
 40
7.880146277430986
 40
8.014419963180448
 40
8.180411842397948
 40
8.365434637679417
 40
8.556801071622719
 40
8.741823866830831
 40
8.907815745916341
 40
9.042089431507495
 40
9.13195764624962
 40
9.164733112797197
 40
9.415425063140123
 40
9.667986180958595
 40
9.694169807462762
 40
9.756607686047722
 40
9.831130315322529
 40
9.893568193899993
 40
9.91975182039881
 40
9.950967964690644
 40
9.996421631210755
 40
10.22087981037465
 40
10.44341866197553
 40
10.47847970788865
 40
10.57091337438766
 40
10.7015954546124
 40
10.85140174170371
 40
11.00120802880488
 40
11.13189010907394
 40
11.22432377583022
 40
11.25938480938968
 40
11.28697175596156
 40
11.3476630383593
 40
11.40835432042081
 40
11.43594125892115
 40
11.43594125892115
 40
11.43594125892115
 40
11.43594125892115
 10
190.0818114333289
 20
15.55242795125075
 10
190.0702785844941
 20
15.55242790287913
 10
190.0283409444998
 20
15.55242773704162
 10
189.9434129719026
 20
15.55243125800907
 10
189.8207688553128
 20
15.55240926435877
 10
189.6791206916993
 20
15.55250801177052
 10
189.537975369849
 20
15.55214686232418
 10
189.4141351317905
 20
15.55321883609087
 10
189.3317217825381
 20
15.55092249091266
 10
189.1727791229693
 20
15.56048569373419
 10
189.3503402353375
 20
15.19785394311368
 10
189.3379739205453
 20
14.95243127723112
 10
189.4064519473864
 20
14.66862501324832
 10
189.469302432097
 20
14.43250999939033
 10
189.5452253431728
 20
14.23326740396127
 10
189.6303189577017
 20
14.07745347451371
 10
189.7244607592935
 20
13.97657857781389
 10
189.8282648207728
 20
13.92465852638962
 10
189.9125872030773
 20
13.97606484379614
 10
189.9351322179452
 20
14.09144544037515
 10
189.9745730975371
 20
14.21885149702378
 10
189.9202919734942
 20
14.53622328086754
 10
190.0451218072473
 20
14.38982180140904
 10
190.2019291513603
 20
14.35795300331169
 10
190.0947720007057
 20
14.12421357767626
 10
190.0808711209867
 20
13.95972776583654
 10
190.0234709467225
 20
13.83130869122481
 10
189.9335020145008
 20
13.76018802352823
 10
189.8095274657877
 20
13.74432324142251
 10
189.663427319686
 20
13.77993797554169
 10
189.5243894320284
 20
13.90000570500274
 10
189.4102003962144
 20
14.07435682550318
 10
189.3146141301485
 20
14.29946603111238
 10
189.2318652572627
 20
14.56388246006441
 10
189.1807179256411
 20
14.88187933098541
 10
189.0770189207338
 20
15.1554372848891
 10
189.2042841208522
 20
15.56005818612866
 10
189.0357890623018
 20
15.55112367849676
 10
188.9511995787077
 20
15.55315961418361
 10
188.8189876387627
 20
15.55213937388404
 10
188.6560505094104
 20
15.55253230318427
 10
188.4733759170532
 20
15.55235696313366
 10
188.2847057373383
 20
15.55260105307466
 10
188.1014469020189
 20
15.55185657906234
 10
187.9404746832718
 20
15.55416360522423
 10
187.8029808335276
 20
15.54799804883661
 10
187.728959037231
 20
15.56032838458209
 10
187.6613215186856
 20
15.54329323723554
 10
187.673237371927
 20
15.59524438447525
 10
187.6655677285694
 20
15.64071424966527
 10
187.6732592225115
 20
15.68614453703703
 10
187.6613141797761
 20
15.73802395984567
 10
187.7283588305867
 20
15.72119143490261
 10
187.8017375665676
 20
15.73335409092668
 10
187.9379128305272
 20
15.72727231074955
 10
188.0973811801512
 20
15.72954834315055
 10
188.2789173085836
 20
15.72881233998959
 10
188.4658034862179
 20
15.7290595419613
 10
188.6468012316836
 20
15.72886400799251
 10
188.8080802578878
 20
15.72932234714836
 10
188.9393882124887
 20
15.72812673751203
 10
189.0225051322596
 20
15.7305134731974
 10
189.1556236547814
 20
15.7223060572546
 10
189.0645893502659
 20
15.97752868952653
 10
188.9789633074417
 20
16.24164358328243
 10
189.0990589003455
 20
16.22904442969164
 10
189.1514264948543
 20
16.22694235763073
 10
189.2214497569716
 20
16.22535399889655
 10
189.2671922337817
 20
16.2160256753811
 10
189.3220812646934
 20
16.22545966915425
 10
189.2963574785681
 20
16.1773302865517
 10
189.1825397571453
 20
16.18266829744165
 10
189.3159346621136
 20
15.95449174576774
 10
189.1943658735471
 20
15.7215685659592
 10
189.3223188769413
 20
15.73087258884436
 10
189.4049048406461
 20
15.72801001754677
 10
189.5307214850824
 20
15.72923437412299
 10
189.6741469838058
 20
15.72932431888961
 10
189.8157420951728
 20
15.7274616318385
 10
189.9459127249968
 20
15.7333307593716
 10
190.019345228619
 20
15.720703408232
 10
190.0891112922096
 20
15.73877563110409
 10
190.0775772605396
 20
15.68612850546323
 10
190.0833184346682
 20
15.64221317686545
 10
190.081661577091
 20
15.59089982676547
 10
190.081775756167
 20
15.56158792021633
 10
190.0818114333289
 20
15.55242795125075
 97
        1
330
AD
 75
     1
 76
     2
 52
45.0
 41
0.1
 77
     0
 78
     1
 53
45.0
 43
0.0
 44
0.0
 45
-0.282842712474619
 46
0.0
 79
     0
 98
        1
 10
0.0
 20
0.0
  0
HATCH
  5
CB
330
48
100
AcDbEntity
  8
1
  6
Continuous
 62
     2
100
AcDbHatch
 10
0.0
 20
0.0
 30
0.0
210
0.0
220
0.0
230
1.0
  2
CUSTOM9
 70
     0
 71
     1
 91
        1
 92
        1
 93
        1
 72
     4
 94
        3
 73
     0
 74
     0
 95
      118
 96
      114
 40
0.0
 40
0.0
 40
0.0
 40
0.0
 40
0.105470816297341
 40
0.246609827005191
 40
0.3965912874591233
 40
0.5285525069753975
 40
0.6156245055642185
 40
0.6431434105797498
 40
0.7036850037986188
 40
0.7642265984504585
 40
0.7917455052354903
 40
0.9287404319989886
 40
1.106572819088039
 40
1.287544879681028
 40
1.317578308030545
 40
1.399928030857182
 40
1.522968204799958
 40
1.675072986590579
 40
1.844616533180658
 40
2.019973001638721
 40
2.189516548880033
 40
2.341621331585372
 40
2.464661506320506
 40
2.547011229647071
 40
2.577044658168036
 40
2.603797890893106
 40
2.662655002908793
 40
2.721512114949605
 40
2.748265347702785
 40
2.774215307344861
 40
2.845959313407191
 40
2.954338556588392
 40
3.090194227585571
 40
3.244367517100536
 40
3.407699615844296
 40
3.571031714539445
 40
3.725205003920125
 40
3.861060674729626
 40
3.969439917716319
 40
4.041183923628993
 40
4.067133883212986
 40
4.311886746012174
 40
4.54789725833554
 40
4.764747083043979
 40
4.952749679951782
 40
5.045772974195907
 40
5.137862019644992
 40
5.330543169793038
 40
5.553448265244029
 40
5.79508385588819
 40
6.043293412177253
 40
6.285761695541202
 40
6.313902908752686
 40
6.384255941793276
 40
6.475714884766864
 40
6.567173827758927
 40
6.637526860839705
 40
6.665668074074068
 40
6.69201892032804
 40
6.74999078207111
 40
6.80796264379048
 40
6.834313490017953
 40
6.856393084245232
 40
6.913335195649855
 40
6.991194817302519
 40
7.07602694228378
 40
7.153886563725271
 40
7.210828674844853
 40
7.232908268931189
 40
7.25819933492371
 40
7.324875781592359
 40
7.419142481925016
 40
7.527204308841956
 40
7.635266135230536
 40
7.729532834168518
 40
7.796209279292841
 40
7.821500344594787
 40
7.844652988850857
 40
7.899863140541636
 40
7.965759128053802
 40
8.020969279771087
 40
8.044121924046554
 40
8.069356610160643
 40
8.109134395441414
 40
8.132238100191126
 40
8.193147867786491
 40
8.279261678876663
 40
8.377977512673876
 40
8.476693347146659
 40
8.562807160411712
 40
8.623716930826498
 40
8.646820636853452
 40
8.671988793774265
 40
8.734909185828176
 40
8.81670569518889
 40
8.898502204815461
 40
8.961422597377922
 40
8.986590754551035
 40
9.01294160073319
 40
9.070913462380274
 40
9.128885324081768
 40
9.15523617032509
 40
9.180404327929132
 40
9.243324721948206
 40
9.325121234211998
 40
9.406917746637653
 40
9.469838141978109
 40
9.495006288270883
 40
9.517811184379026
 40
9.572192090487025
 40
9.637098333281253
 40
9.691479239515456
 40
9.714284125643495
 40
9.714284125643495
 40
9.714284125643495
 40
9.714284125643495
 10
185.2874469028653
 20
15.26889163187717
 10
185.3090990569037
 20
15.24111869242809
 10
185.3597257109474
 20
15.17618054561234
 10
185.4349383202591
 20
15.06891060312895
 10
185.5248482274347
 20
14.95377438266624
 10
185.5709169676672
 20
14.85357045748317
 10
185.6655825294656
 20
14.78434006814941
 10
185.6204439320412
 20
14.73771639678272
 10
185.594704778579
 20
14.69660308866037
 10
185.5645196708012
 20
14.66065971727937
 10
185.5193684730562
 20
14.58579782596092
 10
185.4710504458562
 20
14.80782524253603
 10
185.3968539713073
 20
14.84510677337708
 10
185.2836047324606
 20
15.11610202130597
 10
185.288513357817
 20
15.00095328446226
 10
185.2868486556306
 20
14.92836675781624
 10
185.2876830076713
 20
14.80625588483983
 10
185.2873609540264
 20
14.65913800810458
 10
185.2875076912455
 20
14.49307063956553
 10
185.2872950092722
 20
14.32187554608599
 10
185.2879497252034
 20
14.15552828635495
 10
185.2859192461139
 20
14.0093517305569
 10
185.291346039993
 20
13.88471047474608
 10
185.2804930868708
 20
13.81718656540623
 10
185.2956739155555
 20
13.7554906141702
 10
185.2457895108134
 20
13.76727503896998
 10
185.2017150342522
 20
13.75943822779966
 10
185.15823716302
 20
13.767604413727
 10
185.1092346786489
 20
13.75538056738465
 10
185.1218731234825
 20
13.8096066724931
 10
185.113018296845
 20
13.86936918907554
 10
185.1175058770314
 20
13.97922029044368
 10
185.115796013599
 20
14.11029975405676
 10
185.1163550915987
 20
14.26198011444325
 10
185.1161928768694
 20
14.42211074929951
 10
185.1162269924674
 20
14.58236865674564
 10
185.1162514960128
 20
14.73370247520437
 10
185.1161453543224
 20
14.86582156338599
 10
185.1164299141932
 20
14.97294802533192
 10
185.1158675547567
 20
15.03808619579471
 10
185.118076508369
 20
15.16618957858674
 10
185.0319435998601
 20
14.79097610391572
 10
184.9555140818499
 20
14.63918193123393
 10
184.8660040767833
 20
14.47766206446303
 10
184.7640413217327
 20
14.2047184882017
 10
184.7187976491039
 20
14.36717346596508
 10
184.610235594167
 20
14.45605432058118
 10
184.7995791751752
 20
14.60549794961406
 10
184.85653405457
 20
14.79749136974923
 10
184.9717520993352
 20
15.02899622906754
 10
184.9940151630132
 20
15.21797259759061
 10
185.177190515214
 20
15.49454089325928
 10
185.0538033597552
 20
15.48698978832092
 10
184.9925684166834
 20
15.48856772366116
 10
184.9081999617064
 20
15.48882592573671
 10
184.8204235085965
 20
15.48544845751204
 10
184.7656768696123
 20
15.49394814982019
 10
184.7104703026024
 20
15.48048561049785
 10
184.7222823035537
 20
15.52931442126762
 10
184.7142496151793
 20
15.57269004896706
 10
184.7228186104679
 20
15.61509438309571
 10
184.7102943409156
 20
15.66267796552116
 10
184.7555101538736
 20
15.65267212995107
 10
184.8014815562723
 20
15.65894105174059
 10
184.877722204771
 20
15.6559356140587
 10
184.9561296131993
 20
15.65770448278539
 10
185.0323992648932
 20
15.65464793981658
 10
185.0783009459475
 20
15.66103971376175
 10
185.12317339654
 20
15.65093822978895
 10
185.1105552275634
 20
15.70157201581896
 10
185.1191936582707
 20
15.75501261882068
 10
185.1152361595442
 20
15.84863255131678
 10
185.1162325068335
 20
15.95112606688922
 10
185.1171927413073
 20
16.05353270248161
 10
185.1133211458005
 20
16.14735929609319
 10
185.1217789814364
 20
16.2003654284035
 10
185.1093075932835
 20
16.25211435651186
 10
185.1542106389849
 20
16.23850747226755
 10
185.1955083836772
 20
16.24100480320583
 10
185.259534428105
 20
16.23648060574486
 10
185.2986111148786
 20
16.22781003043306
 10
185.3476543498742
 20
16.23515102070684
 10
185.322508003059
 20
16.19602896051756
 10
185.2815901333723
 20
16.20563842455806
 10
185.2910109616604
 20
16.15540148169776
 10
185.2855647318746
 20
16.10385945639488
 10
185.2881699601803
 20
16.01959707584518
 10
185.2870102202153
 20
15.92559135583406
 10
185.2883591064231
 20
15.83196865395523
 10
185.2849970101509
 20
15.74679517552221
 10
185.2920959917769
 20
15.69716856072042
 10
185.2812569154545
 20
15.64993694969987
 10
185.3304010225245
 20
15.6620167493685
 10
185.3794877630147
 20
15.65447393363009
 10
185.4573714280641
 20
15.65686070361431
 10
185.5350365172896
 20
15.65899381905412
 10
185.5845393931355
 20
15.65193391922453
 10
185.6344594750639
 20
15.66360151936212
 10
185.6223198516881
 20
15.61540235371391
 10
185.6305838229143
 20
15.57249219801233
 10
185.6223198650783
 20
15.52958201851383
 10
185.6344594549855
 20
15.48138288754862
 10
185.5845395158746
 20
15.49305034471509
 10
185.5350350651203
 20
15.48599202435043
 10
185.4573784382973
 20
15.48811665228602
 10
185.379464386576
 20
15.49053389365758
 10
185.3304500352716
 20
15.48291848194483
 10
185.2813246108943
 20
15.4950795255759
 10
185.2915559988571
 20
15.45073013424156
 10
185.2856677678053
 20
15.40925436202909
 10
185.2878788305569
 20
15.34915394315301
 10
185.2874109346146
 20
15.30225782762886
 10
185.2874386992913
 20
15.27650146418194
 10
185.2874469028653
 20
15.26889163187717
 97
        1
330
AE
 75
     1
 76
     2
 52
45.0
 41
0.1
 77
     0
 78
     1
 53
45.0
 43
0.0
 44
0.0
 45
-0.282842712474619
 46
0.0
 79
     0
 98
        1
 10
0.0
 20
0.0
  0
HATCH
  5
CC
330
48
100
AcDbEntity
  8
1
  6
Continuous
 62
     2
100
AcDbHatch
 10
0.0
 20
0.0
 30
0.0
210
0.0
220
0.0
230
1.0
  2
CUSTOM10
 70
     0
 71
     1
 91
        1
 92
        1
 93
        1
 72
     4
 94
        3
 73
     0
 74
     0
 95
       47
 96
       43
 40
0.0
 40
0.0
 40
0.0
 40
0.0
 40
0.220791280995716
 40
0.4459404186303024
 40
0.4902387190459239
 40
0.5327473892722197
 40
0.5742260451225515
 40
0.6155432630560808
 40
0.6568164066315726
 40
0.6982511618780644
 40
0.7407663929317158
 40
0.7851366743175218
 40
1.010288833836322
 40
1.231080507002169
 40
1.451765243652401
 40
1.676638205891694
 40
1.720461045359663
 40
1.830018144043528
 40
1.972442372353156
 40
2.114866600677521
 40
2.224423699395144
 40
2.268246538883384
 40
2.49362880120722
 40
2.715602830286616
 40
2.934211330706368
 40
3.149502369855362
 40
3.231387784851008
 40
3.318231873854043
 40
3.405143198198031
 40
3.486970301720467
 40
3.70225817249391
 40
3.920866283534139
 40
4.142839325931925
 40
4.368221903865392
 40
4.412044743359872
 40
4.521601842095884
 40
4.664026070452363
 40
4.806450298809069
 40
4.91600739754676
 40
4.959830237043081
 40
5.184703515847121
 40
5.4053872507675
 40
5.4053872507675
 40
5.4053872507675
 40
5.4053872507675
 10
182.6507427258645
 20
15.7340644095387
 10
182.6568139420002
 20
15.79758482501208
 10
182.6690762107243
 20
15.92587938689624
 10
182.5604706879411
 20
16.20166220174074
 10
182.6761985896603
 20
16.17188133432051
 10
182.7171842509016
 20
16.16765556262818
 10
182.7591205797518
 20
16.16310446389605
 10
182.800419662571
 20
16.16201982929482
 10
182.8417032115556
 20
16.16310338195226
 10
182.8836148270647
 20
16.1676611271134
 10
182.9245983549019
 20
16.17187430209726
 10
183.0404922843489
 20
16.20177611317532
 10
182.9295652727456
 20
15.92339806609887
 10
182.9574856365267
 20
15.7428314082495
 10
182.9404267346969
 20
15.50961042346469
 10
182.9414637282102
 20
15.34906622543143
 10
182.9414099399405
 20
15.22284817558719
 10
182.9414277372481
 20
15.12428963336239
 10
182.941418858108
 20
14.9928070244296
 10
182.9414263928033
 20
14.86132844968647
 10
182.9414129405128
 20
14.76276222694088
 10
182.9414531717492
 20
14.6363973562415
 10
182.9406746403817
 20
14.47482068822868
 10
182.9565958319267
 20
14.24361821892912
 10
182.9333468885407
 20
14.05874351972
 10
183.0360183444366
 20
13.78935602770053
 10
182.8820238362836
 20
13.82660112685815
 10
182.8004129802832
 20
13.82137994680532
 10
182.7188192292582
 20
13.82660620378348
 10
182.5648513666843
 20
13.78937069885385
 10
182.6674183421917
 20
14.05875129862877
 10
182.6442045316088
 20
14.24361585325412
 10
182.6600444655139
 20
14.47482218565636
 10
182.6593296313427
 20
14.63639712308501
 10
182.6593664569907
 20
14.76276231210518
 10
182.659354900027
 20
14.86132756635979
 10
182.6593575019214
 20
14.99281127417217
 10
182.6593648531779
 20
15.12427548031197
 10
182.6593442541351
 20
15.22287786275323
 10
182.6594082192027
 20
15.34896149354423
 10
182.6581733947592
 20
15.5121009138377
 10
182.6532040396744
 20
15.66054183777547
 10
182.6507427258645
 20
15.7340644095387
 97
        1
330
AF
 75
     1
 76
     2
 52
45.0
 41
0.1
 77
     0
 78
     1
 53
45.0
 43
0.0
 44
0.0
 45
-0.282842712474619
 46
0.0
 79
     0
 98
        1
 10
0.0
 20
0.0
  0
HATCH
  5
CD
330
48
100
AcDbEntity
  8
1
  6
Continuous
 62
     2
100
AcDbHatch
 10
0.0
 20
0.0
 30
0.0
210
0.0
220
0.0
230
1.0
  2
CUSTOM11
 70
     0
 71
     1
 91
        1
 92
        1
 93
        1
 72
     4
 94
        3
 73
     0
 74
     0
 95
      110
 96
      106
 40
0.0
 40
0.0
 40
0.0
 40
0.0
 40
0.2203406257277684
 40
0.4407808782838073
 40
0.595249449461505
 40
0.7488431659393056
 40
0.9023581831309038
 40
1.056801968670402
 40
1.210736449099903
 40
1.363041386539781
 40
1.515315729683124
 40
1.669377239148075
 40
1.721611652756565
 40
1.773199502942952
 40
1.824933793209998
 40
1.877110426487976
 40
1.982682281206739
 40
2.078781667087547
 40
2.172809640822269
 40
2.271937807378924
 40
2.378349933379316
 40
2.494131557736505
 40
2.626681683943639
 40
2.783145050796066
 40
2.890701232940927
 40
2.993130312454826
 40
3.099869730691803
 40
3.220237816691297
 40
3.352695482737587
 40
3.481732806389838
 40
3.593499473690372
 40
3.674323013331884
 40
3.817951711952834
 40
3.946167120793831
 40
4.061405053453517
 40
4.166480796003157
 40
4.262478775059194
 40
4.35073667355115
 40
4.433071991254036
 40
4.511216293814639
 40
4.56426245411796
 40
4.618474415571582
 40
4.670128488754179
 40
4.722296879126375
 40
4.819540945314244
 40
4.9311949841281
 40
5.049996040257742
 40
5.168643755415287
 40
5.283970811762499
 40
5.392260784910325
 40
5.486512254876399
 40
5.559178233949798
 40
5.591425852853472
 40
5.626215969637853
 40
5.667155838674393
 40
5.717449290214206
 40
5.738402360944819
 40
5.784499116553785
 40
5.830595872164754
 40
5.851548942897613
 40
5.873019280661725
 40
5.924217778408267
 40
5.985325662817643
 40
6.036524160567654
 40
6.057994498334183
 40
6.236847789607446
 40
6.381409928945617
 40
6.493190424178644
 40
6.574067534230457
 40
6.691018086205551
 40
6.814881554220468
 40
6.944307823240421
 40
7.071266716066045
 40
7.19348860446189
 40
7.309042773128118
 40
7.414007203170743
 40
7.505140441886497
 40
7.53115036059964
 40
7.559221645322231
 40
7.58720221892089
 40
7.612569159499093
 40
7.662550809480982
 40
7.702878875764109
 40
7.857328205230924
 40
8.010799568088569
 40
8.165256399657519
 40
8.322232698713858
 40
8.479564855016545
 40
8.635216230290748
 40
8.790882550925666
 40
8.948305154947231
 40
9.16827183903292
 40
9.387358980987193
 40
9.608047961033432
 40
9.832914234792636
 40
9.85833869496297
 40
9.92536681722998
 40
10.02013071422756
 40
10.12876249858995
 40
10.23739428295245
 40
10.33215817995187
 40
10.3991863022239
 40
10.42461076239779
 40
10.64992019336939
 40
10.87188524531184
 40
10.87188524531184
 40
10.87188524531184
 40
10.87188524531184
 10
179.9057788376618
 20
15.73923260398188
 10
179.9092864933541
 20
15.80616462073802
 10
179.9163033987662
 20
15.94005891915857
 10
179.8198027599072
 20
16.22548554971467
 10
180.0510134726108
 20
16.16284386190282
 10
180.1919290057156
 20
16.17001554055988
 10
180.3490417757588
 20
16.16235883078243
 10
180.5025913427288
 20
16.16252752283038
 10
180.654510493508
 20
16.16182040535431
 10
180.814221481323
 20
16.17210158351636
 10
180.9408972601118
 20
16.15496511080749
 10
181.137082112208
 20
16.22727260107143
 10
181.1034395279078
 20
16.12640699080115
 10
181.1052011317183
 20
16.07619253947667
 10
181.1027342073458
 20
16.02712335586463
 10
181.1347076966011
 20
15.94063490846996
 10
181.0010399903256
 20
15.98997438608334
 10
180.9172208688057
 20
15.98430634314164
 10
180.8173861139323
 20
15.99465516706296
 10
180.7186576720146
 20
16.00086450411085
 10
180.612153277111
 20
16.00697763816775
 10
180.491051169806
 20
16.01588883484584
 10
180.3703381502453
 20
16.00521605912382
 10
180.1812553843436
 20
16.06468503080364
 10
180.2129028505311
 20
15.90558320077538
 10
180.1995563316833
 20
15.80839128339902
 10
180.197495842645
 20
15.696340651101
 10
180.195818804467
 20
15.57699685629349
 10
180.1973336794233
 20
15.45032592155108
 10
180.195658247867
 20
15.32301588016115
 10
180.2058844271657
 20
15.22451566404461
 10
180.1779006596583
 20
15.08388702625628
 10
180.3508029999305
 20
15.13989551134092
 10
180.4645020202772
 20
15.12719951478496
 10
180.5840151672239
 20
15.13448377051253
 10
180.6888491425072
 20
15.13878017056751
 10
180.7843084898611
 20
15.14330568258975
 10
180.8763823507032
 20
15.15149201146198
 10
180.9476551782438
 20
15.14643850638109
 10
181.0544931705685
 20
15.18536425031672
 10
181.0226603598036
 20
15.10517122005877
 10
181.026616450393
 20
15.05562936846031
 10
181.0234502392013
 20
15.00557478039816
 10
181.0550791490585
 20
14.9212884761202
 10
180.9210133677691
 20
14.97425365495155
 10
180.82923227932
 20
14.96540080890439
 10
180.7079729189603
 20
14.97570049965152
 10
180.5914113119771
 20
14.97748911767498
 10
180.4783375745879
 20
14.97787017109693
 10
180.3679246308471
 20
14.98415449472178
 10
180.289812406784
 20
14.97189133255361
 10
180.1913625833644
 20
15.00453887616124
 10
180.2012355173561
 20
14.94769748054204
 10
180.1973923244402
 20
14.91392130557981
 10
180.1966789884269
 20
14.87119604709409
 10
180.1963369642975
 20
14.83401607262151
 10
180.1963834255345
 20
14.79487237370768
 10
180.1963649429927
 20
14.75716849497684
 10
180.1963703431807
 20
14.719449552324
 10
180.19636972142
 20
14.68994324745147
 10
180.1963698151546
 20
14.65873577699299
 10
180.196370428792
 20
14.61414424908083
 10
180.1963671499337
 20
14.5596395650885
 10
180.196375962348
 20
14.51505540201446
 10
180.1963359653417
 20
14.43117808585739
 10
180.1976024270254
 20
14.31737520677676
 10
180.1950274117842
 20
14.16830395933707
 10
180.206500938172
 20
14.06597203813904
 10
180.1823506222263
 20
13.93338903885832
 10
180.3332993946476
 20
13.97895732272019
 10
180.4428436671556
 20
13.96427012162347
 10
180.573397047392
 20
13.96920435125061
 10
180.6990312209514
 20
13.9725770532336
 10
180.8188730625601
 20
13.97711497498769
 10
180.9391362611426
 20
13.99048536182003
 10
181.0222761663514
 20
13.98068712782594
 10
181.1456080421075
 20
14.04126214623316
 10
181.1244269203955
 20
13.98532460134019
 10
181.1235950270117
 20
13.95939249372345
 10
181.1218963707558
 20
13.93197256190937
 10
181.1217974888829
 20
13.89738195206383
 10
181.1203659301329
 20
13.86050408220766
 10
181.153280419219
 20
13.76846841021804
 10
180.9551306988107
 20
13.84132015974829
 10
180.8300548294891
 20
13.81825726508604
 10
180.6673071295155
 20
13.82454021985783
 10
180.5129366450001
 20
13.82260943909924
 10
180.3566670436943
 20
13.82393762599265
 10
180.1970544465282
 20
13.8205987248786
 10
180.0540326342237
 20
13.83265795728238
 10
179.8197144881628
 20
13.76952001976916
 10
179.9173810751197
 20
14.05620527466315
 10
179.9006868780059
 20
14.24988308142658
 10
179.9146296709684
 20
14.47848242880293
 10
179.9142987846632
 20
14.63384593955046
 10
179.9143078119263
 20
14.73966336444124
 10
179.9143055876316
 20
14.80205784124212
 10
179.9143065551888
 20
14.89220425248325
 10
179.9143065473261
 20
14.99621167157436
 10
179.9143053861102
 20
15.10022131375294
 10
179.9143090971503
 20
15.19036243688765
 10
179.9143011051051
 20
15.25276803097213
 10
179.9143334275017
 20
15.35868835961116
 10
179.913144078832
 20
15.51626716544738
 10
179.9082216489256
 20
15.66528219822063
 10
179.9057788376618
 20
15.73923260398188
 97
        1
330
B0
 75
     1
 76
     2
 52
45.0
 41
0.1
 77
     0
 78
     1
 53
45.0
 43
0.0
 44
0.0
 45
-0.282842712474619
 46
0.0
 79
     0
 98
        1
 10
0.0
 20
0.0
  0
HATCH
  5
CE
330
48
100
AcDbEntity
  8
1
  6
Continuous
 62
     2
100
AcDbHatch
 10
0.0
 20
0.0
 30
0.0
210
0.0
220
0.0
230
1.0
  2
CUSTOM12
 70
     0
 71
     1
 91
        1
 92
        1
 93
        1
 72
     4
 94
        3
 73
     0
 74
     0
 95
       95
 96
       91
 40
0.0
 40
0.0
 40
0.0
 40
0.0
 40
0.6550406656911534
 40
1.308087289031932
 40
1.4208037398358
 40
1.566130759770792
 40
1.757067341888461
 40
2.006513545026453
 40
2.087328263121548
 40
2.185328872295614
 40
2.294612454748361
 40
2.408936380534807
 40
2.526802767798554
 40
2.646360524615613
 40
2.76253572397158
 40
2.870057342870153
 40
2.966883448431646
 40
3.050803243518302
 40
3.115818222436604
 40
3.156030057150239
 40
3.213914225080141
 40
3.276689026450542
 40
3.342960320981319
 40
3.404230667150568
 40
3.453822809493373
 40
3.532499827188433
 40
3.634775188507176
 40
3.754909333008178
 40
3.889736761660667
 40
4.035769602175223
 40
4.187256681197614
 40
4.338733685675955
 40
4.488478734676121
 40
4.634708317831594
 40
4.771493189921281
 40
4.892686571561217
 40
5.199775528944455
 40
5.460353566929654
 40
5.667603142345515
 40
5.814722905404491
 40
5.828990806219789
 40
5.855488336304486
 40
5.869756237118818
 40
6.189796507762819
 40
6.531890469873003
 40
6.883053637016996
 40
7.230512024911476
 40
7.566966656764574
 40
7.885203559707403
 40
8.1728874397192
 40
8.418011594062756
 40
8.443926721190678
 40
8.510760470613164
 40
8.602145393795672
 40
8.701714041647108
 40
8.793098965075338
 40
8.85993271505791
 40
8.885847842603559
 40
9.242301256612784
 40
9.589275455016738
 40
9.92180854316414
 40
10.23479624298465
 40
10.29968150889175
 40
10.35323493887763
 40
10.40154625355148
 40
10.46482922477824
 40
10.55973900668404
 40
10.69239545985617
 40
10.84920353475671
 40
11.01626328594779
 40
11.18672024367443
 40
11.35372582577209
 40
11.50257442292426
 40
11.61866495023291
 40
11.71329869152874
 40
11.82511050573907
 40
11.94464880845715
 40
12.06929242642506
 40
12.19707290435176
 40
12.32562632860529
 40
12.45034565331278
 40
12.56646595170327
 40
12.67099007414635
 40
12.76077625936781
 40
12.82703233506694
 40
12.87429132785991
 40
12.8983199032333
 40
12.92234847860019
 40
13.53984767410318
 40
14.18294284359363
 40
14.18294284359363
 40
14.18294284359363
 40
14.18294284359363
 10
177.3067935648021
 20
14.70898038201722
 10
177.175201975855
 20
14.82265058603229
 10
176.9124193802728
 20
15.04964496316154
 10
176.399739344102
 20
15.89214462956284
 10
176.4106654595363
 20
15.53423377577017
 10
176.4041226527991
 20
15.3926739227213
 10
176.4028026631772
 20
15.19421305299278
 10
176.4018117602538
 20
15.0215029604598
 10
176.4024101751975
 20
14.87865373257578
 10
176.4038994301883
 20
14.78265005413356
 10
176.4055683588472
 20
14.6754550326314
 10
176.4071934954618
 20
14.5616421151758
 10
176.4092429501685
 20
14.44441572604586
 10
176.4123165501927
 20
14.32656411232967
 10
176.4156339697043
 20
14.21228087320618
 10
176.419360534028
 20
14.10521401867274
 10
176.4217338161424
 20
14.01007408766919
 10
176.4278718888358
 20
13.92558557205692
 10
176.4239784495946
 20
13.86923087298139
 10
176.4455230443078
 20
13.79825022472354
 10
176.3680940058617
 20
13.82902677604481
 10
176.3116353240191
 20
13.82011242517611
 10
176.2540495896807
 20
13.82896218398273
 10
176.1690163478473
 20
13.79738225225943
 10
176.2009714146382
 20
13.88095155992188
 10
176.1990705282539
 20
13.94882608968307
 10
176.21079600473
 20
14.05233256764417
 10
176.2164241053
 20
14.17002125616693
 10
176.2237902178941
 20
14.30388609164421
 10
176.2320759701611
 20
14.4476415287263
 10
176.2398851897426
 20
14.59714022843442
 10
176.2457571222657
 20
14.74792549402075
 10
176.2503667817968
 20
14.89699943878434
 10
176.2542632117543
 20
15.0412291316302
 10
176.2570715126563
 20
15.17583905213015
 10
176.2576698755023
 20
15.36469614347353
 10
176.2616023867149
 20
15.58975494313151
 10
176.2442175378499
 20
15.86367091125706
 10
176.2850417342582
 20
16.02787112098593
 10
176.1995153256004
 20
16.22749661465096
 10
176.2660558907687
 20
16.22385458403975
 10
176.283872427323
 20
16.22413447160851
 10
176.4056801797506
 20
16.22632927398612
 10
176.508077033546
 20
15.94675118721511
 10
176.7580021509356
 20
15.74563008536
 10
176.987003533111
 20
15.47792614987915
 10
177.2245151213108
 20
15.22646413862373
 10
177.4486090740772
 20
14.98969974061357
 10
177.6750716283009
 20
14.73218692583077
 10
177.8325687886515
 20
14.61649335056919
 10
178.0472129612673
 20
14.27997152538792
 10
178.0422645974619
 20
14.40464754091601
 10
178.0433931602546
 20
14.46327691935735
 10
178.0428877841517
 20
14.55043662371975
 10
178.0430475158113
 20
14.6441614318287
 10
178.0430054891318
 20
14.73018971297032
 10
178.0430202040372
 20
14.79153891945492
 10
178.0429706255985
 20
14.9413523152099
 10
178.045881152281
 20
15.17989612510101
 10
178.0259521041162
 20
15.54486509868699
 10
178.0750433936247
 20
15.8079963199341
 10
177.917795150918
 20
16.2192890494775
 10
178.0762112872421
 20
16.16398282551745
 10
178.1311680478628
 20
16.16199686500174
 10
178.182788776674
 20
16.16264778248249
 10
178.2713198965366
 20
16.20369527738243
 10
178.2204898303168
 20
16.05696326622985
 10
178.2313389930283
 20
15.95019971954431
 10
178.2166036994847
 20
15.7908570541411
 10
178.2099976446203
 20
15.62853061652871
 10
178.2014961399915
 20
15.45992521892393
 10
178.1943227202199
 20
15.29814814703539
 10
178.1889063215389
 20
15.1542233145793
 10
178.1871713967648
 20
15.03437493466922
 10
178.1875440672318
 20
14.92686101590512
 10
178.1873656126263
 20
14.81820024645584
 10
178.187701086314
 20
14.69953570165528
 10
178.1890040622184
 20
14.57555163512738
 10
178.1908887351574
 20
14.44858294171102
 10
178.1925004454851
 20
14.32153861551029
 10
178.1941403137429
 20
14.19854884492175
 10
178.1962570745751
 20
14.08300931383757
 10
178.1963848422363
 20
13.98090903955835
 10
178.2006514396554
 20
13.89009848838154
 10
178.1908440085289
 20
13.83213621208785
 10
178.2118474771689
 20
13.76517130132028
 10
178.1725639739897
 20
13.77291153966686
 10
177.9595307117747
 20
13.75755254145198
 10
177.7636297943186
 20
14.31403058094465
 10
177.4611197631543
 20
14.57556035348507
 10
177.3067935648021
 20
14.70898038201722
 97
        1
330
B1
 75
     1
 76
     2
 52
45.0
 41
0.1
 77
     0
 78
     1
 53
45.0
 43
0.0
 44
0.0
 45
-0.282842712474619
 46
0.0
 79
     0
 98
        1
 10
0.0
 20
0.0
  0
HATCH
  5
CF
330
48
100
AcDbEntity
  8
1
  6
Continuous
 62
     2
100
AcDbHatch
 10
0.0
 20
0.0
 30
0.0
210
0.0
220
0.0
230
1.0
  2
CUSTOM13
 70
     0
 71
     1
 91
        2
 92
        1
 93
        1
 72
     4
 94
        3
 73
     0
 74
     0
 95
       57
 96
       53
 40
0.0
 40
0.0
 40
0.0
 40
0.0
 40
0.0471632082809233
 40
0.0914861054632151
 40
0.1357762519702387
 40
0.1826527001610682
 40
0.2295203288572591
 40
0.273775197222076
 40
0.3181310461543069
 40
0.365260719839851
 40
0.4571007286314431
 40
0.5671851029165192
 40
0.6894623283868296
 40
0.8181758272545883
 40
0.9510087229273987
 40
1.085852229674056
 40
1.218126164475309
 40
1.343545131142375
 40
1.454537202956792
 40
1.567187607530801
 40
1.68071096664242
 40
1.794226869736784
 40
1.900009184247583
 40
2.004085860447863
 40
2.108162674451751
 40
2.214000150155296
 40
2.496038577352129
 40
2.762350745479263
 40
2.997275353279393
 40
3.185110082137718
 40
3.246407890063945
 40
3.312607550212676
 40
3.378877742711578
 40
3.440140399651432
 40
4.100501696006449
 40
4.754913085563508
 40
5.41133169342391
 40
6.077890432568687
 40
6.110575292670966
 40
6.143260152775746
 40
6.367989363395131
 40
6.610525374951536
 40
6.863389136467287
 40
7.119380025547573
 40
7.376036605091069
 40
7.631164770966268
 40
7.876722425456402
 40
8.104953735855936
 40
8.312916685924273
 40
8.49773029494128
 40
8.651018984313831
 40
8.764738853624566
 40
8.764738853624566
 40
8.764738853624566
 40
8.764738853624566
 10
174.7922649500513
 20
13.81626739612925
 10
174.7766616726931
 20
13.81826231079076
 10
174.7463947960302
 20
13.82213201360297
 10
174.7010994202252
 20
13.82341984967266
 10
174.6559553129349
 20
13.82308683554048
 10
174.6099017123399
 20
13.82314658674222
 10
174.5640496172096
 20
13.82325813649998
 10
174.5183711648164
 20
13.82277833456588
 10
174.4750811541608
 20
13.82461109618719
 10
174.4039947951513
 20
13.80049556814655
 10
174.4057477261441
 20
13.92184693977249
 10
174.358619637057
 20
14.00726239751231
 10
174.3191478251761
 20
14.12486929345132
 10
174.2706635532645
 20
14.24232752540436
 10
174.2201017402523
 20
14.36405935761507
 10
174.1718634610477
 20
14.49075967862463
 10
174.1135232947595
 20
14.5993368778495
 10
174.0980892667261
 20
14.75620657134407
 10
173.9566586330635
 20
14.7237344654832
 10
173.8508397414904
 20
14.73512888682178
 10
173.7358569725221
 20
14.73392591514612
 10
173.6253142252141
 20
14.73506945347407
 10
173.5176583522783
 20
14.73418350037524
 10
173.4121322529243
 20
14.73416602390517
 10
173.3109192682012
 20
14.72714032472413
 10
173.1266804827753
 20
14.75135859859864
 10
173.1157393685411
 20
14.44741691121883
 10
173.008769163475
 20
14.22353177253394
 10
172.9098148604347
 20
14.03895314292495
 10
172.9225090524007
 20
13.79530204804204
 10
172.8050091716397
 20
13.82508046753195
 10
172.742205586831
 20
13.82258089509601
 10
172.67858720934
 20
13.82344075102803
 10
172.3946014194076
 20
13.78098039941943
 10
173.025163849938
 20
14.50081952444784
 10
173.1087645289071
 20
15.01276539435727
 10
173.4929252789339
 20
15.5335374355004
 10
173.4777208288567
 20
16.23519626253213
 10
173.7239265722696
 20
16.22345633081254
 10
173.8256346157562
 20
16.23225004452771
 10
173.8249752035817
 20
15.98059650730343
 10
173.9428317155829
 20
15.79818020733956
 10
174.0315515260484
 20
15.55563740662863
 10
174.1322292485259
 20
15.32340030530125
 10
174.2311142712243
 20
15.0867464456691
 10
174.3299676990669
 20
14.85461739170091
 10
174.4256166390925
 20
14.63122222788785
 10
174.5159904573271
 20
14.42272549049314
 10
174.5989944568189
 20
14.23308448529317
 10
174.6726088582799
 20
14.06663106068097
 10
174.7342815895545
 20
13.92917699626095
 10
174.7749458885604
 20
13.84999239430032
 10
174.7922649500513
 20
13.81626739612925
 97
        1
330
B3
 92
       16
 93
        1
 72
     4
 94
        3
 73
     0
 74
     0
 95
       25
 96
       21
 40
0.0
 40
0.0
 40
0.0
 40
0.0
 40
0.0911479969064822
 40
0.1858117896204666
 40
0.2804128399734493
 40
0.3715889190714513
 40
0.4679080494218711
 40
0.5642683809229235
 40
0.6605683222644994
 40
0.7569653015810259
 40
0.8561348172522759
 40
1.092615965104294
 40
1.374867658141882
 40
1.611348812011608
 40
1.710518328425257
 40
1.809403163726578
 40
2.045205463294082
 40
2.326646917622146
 40
2.562449217190608
 40
2.661334043833929
 40
2.661334043833929
 40
2.661334043833929
 40
2.661334043833929
 10
173.2683700567199
 20
14.8861453819729
 10
173.2987525917922
 20
14.88598079714552
 10
173.3606895889111
 20
14.88564528689919
 10
173.454135696033
 20
14.88269055451998
 10
173.5475095236357
 20
14.87977752877147
 10
173.6417760753475
 20
14.87894201643413
 10
173.7354964790967
 20
14.87996644658044
 10
173.8352040303205
 20
14.87916977470972
 10
173.9188949546312
 20
14.88921410235216
 10
174.0637996315045
 20
14.86234617674164
 10
173.93961324448
 20
15.03665530280046
 10
173.8965867286282
 20
15.1965171100609
 10
173.780892214221
 20
15.45518458550214
 10
173.7017565431257
 20
15.59231052861857
 10
173.6431576621816
 20
15.80937033134076
 10
173.5864803939438
 20
15.59266134213426
 10
173.5052809900477
 20
15.45327012438234
 10
173.4063701281488
 20
15.20406969370193
 10
173.3253625094259
 20
15.01925830226071
 10
173.2813683325838
 20
14.91650446856115
 10
173.2683700567199
 20
14.8861453819729
 97
        1
330
B2
 75
     1
 76
     2
 52
45.0
 41
0.1
 77
     0
 78
     1
 53
45.0
 43
0.0
 44
0.0
 45
-0.282842712474619
 46
0.0
 79
     0
 98
        1
 10
0.0
 20
0.0
  0
HATCH
  5
D0
330
48
100
AcDbEntity
  8
1
  6
Continuous
 62
     2
100
AcDbHatch
 10
0.0
 20
0.0
 30
0.0
210
0.0
220
0.0
230
1.0
  2
CUSTOM14
 70
     0
 71
     1
 91
        1
 92
        1
 93
        1
 72
     4
 94
        3
 73
     0
 74
     0
 95
       99
 96
       95
 40
0.0
 40
0.0
 40
0.0
 40
0.0
 40
0.0796417172272426
 40
0.1621768542355948
 40
0.2486489160957621
 40
0.3404969668524608
 40
0.4381912511164595
 40
0.5434463660244893
 40
0.6518115192847208
 40
0.753019093788677
 40
0.8492196919725041
 40
0.9419290312998094
 40
1.034249663570035
 40
1.129078600620185
 40
1.226697027573225
 40
1.327220425421682
 40
1.470572134938002
 40
1.595489863371206
 40
1.719934125348387
 40
1.850576620127404
 40
1.989059629987293
 40
2.134139054226912
 40
2.280698007207199
 40
2.424529739039469
 40
2.565929576985833
 40
2.708239260773531
 40
2.861717887443646
 40
3.045168540347361
 40
3.1837983011386
 40
3.314813961455449
 40
3.4420834704473
 40
3.56991270837295
 40
3.702177512509353
 40
3.842307559659519
 40
3.992872223245922
 40
4.15675066221831
 40
4.310981861107531
 40
4.445859909322575
 40
4.57239393613157
 40
4.701656719781972
 40
4.768279086008456
 40
4.835960697898396
 40
4.912788918729319
 40
5.006285208481529
 40
5.026909478751605
 40
5.04753374902117
 40
5.101808031471244
 40
5.162325165538531
 40
5.226919745995851
 40
5.294231806596724
 40
5.364544852554872
 40
5.438319055467918
 40
5.517877651324252
 40
5.607647714861564
 40
5.700449642544411
 40
5.788251142364142
 40
5.872714706039774
 40
5.955167292575289
 40
6.037192395190382
 40
6.12066918146912
 40
6.206848616686354
 40
6.296680855416771
 40
6.442558392872597
 40
6.568190371608289
 40
6.692904567360368
 40
6.824220446557143
 40
6.963121850329379
 40
7.107843738851164
 40
7.253431663907279
 40
7.395187468036706
 40
7.533140753237759
 40
7.670550457175242
 40
7.816236511769265
 40
7.987691657359233
 40
8.142277421969254
 40
8.293662615415021
 40
8.44296246087928
 40
8.591598316185332
 40
8.743678992361808
 40
8.90372532369919
 40
9.076307008890536
 40
9.26557860468059
 40
9.459203795360764
 40
9.617619810273549
 40
9.753609671361906
 40
9.874873300004081
 40
9.954520184977792
 40
10.02416413719246
 40
10.09769764405445
 40
10.18909955924973
 40
10.20974586420134
 40
10.2303921826338
 40
10.30057101881265
 40
10.37632012987546
 40
10.37632012987546
 40
10.37632012987546
 40
10.37632012987546
 10
170.1465954835851
 20
14.13795663215991
 10
170.1632217851219
 20
14.1172060884531
 10
170.1970784206577
 20
14.07495111711899
 10
170.2599822541036
 20
14.0202981139207
 10
170.3332500940393
 20
13.97299025121048
 10
170.4175969238636
 20
13.93527231437931
 10
170.513224061546
 20
13.9104061973195
 10
170.6171853775345
 20
13.90309559345936
 10
170.7224020220405
 20
13.91142322794051
 10
170.8206626371333
 20
13.94149179651527
 10
170.9058986427548
 20
13.98848822971874
 10
170.9779220206103
 20
14.04952991250855
 10
171.0350917709096
 20
14.12412969578581
 10
171.0767868747439
 20
14.21002464660172
 10
171.1026952846292
 20
14.30485850432208
 10
171.1118037332652
 20
14.41854979038365
 10
171.0986864796487
 20
14.54332587770775
 10
171.0325330334414
 20
14.66014719171891
 10
170.9369370919569
 20
14.7451253957737
 10
170.8249681022369
 20
14.8141668445916
 10
170.699365958327
 20
14.87204142045888
 10
170.5656691620856
 20
14.92373723284338
 10
170.431312281883
 20
14.97899092397178
 10
170.3051983986877
 20
15.04939770641648
 10
170.1926579987535
 20
15.13785540731247
 10
170.0969963064458
 20
15.2498106786847
 10
170.0334157151826
 20
15.39949910101381
 10
170.0200706505015
 20
15.55932794385139
 10
170.0320510987449
 20
15.71048405306843
 10
170.071229892884
 20
15.83809244591536
 10
170.135498775091
 20
15.95080874030843
 10
170.223820499974
 20
16.04648609268683
 10
170.3338091207627
 20
16.12354214985751
 10
170.4632284401265
 20
16.18151396936275
 10
170.6111838967794
 20
16.2173917758882
 10
170.7682069455486
 20
16.22746719050561
 10
170.917494046643
 20
16.21863637762588
 10
171.059625361417
 20
16.19074899340351
 10
171.1595922609625
 20
16.13413314701135
 10
171.3125074736186
 20
16.08674602105504
 10
171.2455131717168
 20
16.00197553001182
 10
171.2296479120268
 20
15.93438901873482
 10
171.1978750531296
 20
15.86926092793188
 10
171.2150202209572
 20
15.76723453256951
 10
171.1666427208231
 20
15.77493211681899
 10
171.1315789440766
 20
15.76806771724805
 10
171.1296697985717
 20
15.83263831158193
 10
171.0985692931989
 20
15.87825639621393
 10
171.0664551628455
 20
15.93561036628452
 10
171.0208038475168
 20
15.98540462692557
 10
170.9658508218386
 20
16.02994813718993
 10
170.9010841173007
 20
16.06763988836548
 10
170.8232377310597
 20
16.09283375791349
 10
170.7355160553352
 20
16.09931230998109
 10
170.6452903277806
 20
16.09235709285604
 10
170.5594594694064
 20
16.06909190460919
 10
170.4828343638596
 20
16.03131644107543
 10
170.4165265636201
 20
15.98051641089571
 10
170.3622560536963
 20
15.91731143407208
 10
170.3224925345459
 20
15.84276455710364
 10
170.2976775510588
 20
15.75917313997761
 10
170.289212426287
 20
15.65192948382283
 10
170.3019697987103
 20
15.52965457267556
 10
170.3681548409273
 20
15.41149724291209
 10
170.4640977399832
 20
15.32606325709525
 10
170.5757914963182
 20
15.2558336230672
 10
170.7010863668702
 20
15.19659162305302
 10
170.8349823941448
 20
15.14616708086131
 10
170.968993033315
 20
15.0932251698438
 10
171.0950885316915
 20
15.02750170625172
 10
171.2076216638417
 20
14.94480352537319
 10
171.3031370284233
 20
14.83996006310072
 10
171.3672706486962
 20
14.69937117251567
 10
171.3811103725279
 20
14.5406540945159
 10
171.367395471223
 20
14.38153155217872
 10
171.3244739153984
 20
14.23483828819208
 10
171.2545906329066
 20
14.1011979658714
 10
171.1574592213828
 20
13.98532387699289
 10
171.0347806023657
 20
13.89089981770085
 10
170.8874408413168
 20
13.8217927065198
 10
170.7177132497125
 20
13.77953210858851
 10
170.5317404979596
 20
13.76781736230406
 10
170.3528955926183
 20
13.77809486683435
 10
170.1881733753743
 20
13.81966573769152
 10
170.0834410841056
 20
13.88797642883937
 10
169.9350960790365
 20
13.93675219032104
 10
169.9980378194729
 20
14.0297659129084
 10
170.0072274430059
 20
14.10296536248278
 10
170.0303711301231
 20
14.16936294501344
 10
170.0034588335317
 20
14.26974809527578
 10
170.0521338956339
 20
14.26234033517376
 10
170.0916530580697
 20
14.26894063620893
 10
170.0996204944701
 20
14.19078703218929
 10
170.1305436967922
 20
14.15600927375854
 10
170.1465954835851
 20
14.13795663215991
 97
        1
330
B4
 75
     1
 76
     2
 52
45.0
 41
0.1
 77
     0
 78
     1
 53
45.0
 43
0.0
 44
0.0
 45
-0.282842712474619
 46
0.0
 79
     0
 98
        1
 10
0.0
 20
0.0
  0
ENDBLK
  5
4A
330
48
100
AcDbEntity
  8
0
100
AcDbBlockEnd
  0
BLOCK
  5
4D
330
4B
100
AcDbEntity
  8
0
100
AcDbBlockBegin
  2
開示A4枠
 70
     0
 10
0.0
 20
-0.00000000000002
 30
0.0
  3
開示A4枠
  1

  0
INSERT
  5
4C
330
4B
100
AcDbEntity
  8
1
100
AcDbBlockReference
  2
開示A4
 10
0.0
 20
-0.00000000000002
 30
0.0
  0
ENDBLK
  5
4E
330
4B
100
AcDbEntity
  8
0
100
AcDbBlockEnd
  0
BLOCK
  5
50
330
4F
100
AcDbEntity
  8
0
100
AcDbBlockBegin
  2
futa
 70
     0
 10
52.50000000000004
 20
69.63781562756154
 30
0.0
  3
futa
  1

  0
LINE
  5
D1
330
4F
100
AcDbEntity
  8
1
  6
Continuous
 62
     7
100
AcDbLine
 10
172.5
 20
72.53374811381144
 30
0.0
 11
52.50000000000001
 21
72.53374811381147
 31
0.0
  0
LINE
  5
D2
330
4F
100
AcDbEntity
  8
1
  6
Continuous
 62
     7
100
AcDbLine
 10
164.5
 20
79.03374811381147
 30
0.0
 11
164.5
 21
74.6398706828424
 31
0.0
  0
LINE
  5
D3
330
4F
100
AcDbEntity
  8
1
  6
Continuous
 62
     7
100
AcDbLine
 10
151.5
 20
79.03374811381147
 30
0.0
 11
151.5
 21
77.3892315820004
 31
0.0
  0
LINE
  5
D4
330
4F
100
AcDbEntity
  8
1
  6
Continuous
 62
     7
100
AcDbLine
 10
154.0
 20
81.53374811381147
 30
0.0
 11
162.0
 21
81.53374811381147
 31
0.0
  0
LINE
  5
D5
330
4F
100
AcDbEntity
  8
1
  6
Continuous
 62
     7
100
AcDbLine
 10
52.49999999999998
 20
71.03374811381147
 30
0.0
 11
172.5
 21
71.03374811381144
 31
0.0
  0
LINE
  5
D6
330
4F
100
AcDbEntity
  8
1
  6
Continuous
 62
     7
100
AcDbLine
 10
52.50000000000001
 20
72.53374811381147
 30
0.0
 11
52.49999999999998
 21
71.03374811381147
 31
0.0
  0
LINE
  5
D7
330
4F
100
AcDbEntity
  8
1
  6
Continuous
 62
     7
100
AcDbLine
 10
172.5
 20
72.53374811381144
 30
0.0
 11
172.5
 21
71.03374811381144
 31
0.0
  0
LINE
  5
D8
330
4F
100
AcDbEntity
  8
1
  6
Continuous
 62
     7
100
AcDbLine
 10
115.0
 20
211.9872484924968
 30
0.0
 11
115.0
 21
219.9872484924968
 31
0.0
  0
LINE
  5
D9
330
4F
100
AcDbEntity
  8
1
  6
Continuous
 62
     7
100
AcDbLine
 10
110.0
 20
219.9872484924968
 30
0.0
 11
110.0
 21
211.9872484924968
 31
0.0
  0
ARC
  5
DA
330
4F
100
AcDbEntity
  8
1
  6
Continuous
 62
     7
100
AcDbCircle
 10
112.5000000000065
 20
-139.1263567713257
 30
0.0
 40
219.9999999999692
100
AcDbArc
 50
76.327981895618
 51
79.78905599244098
  0
ARC
  5
DB
330
4F
100
AcDbEntity
  8
1
  6
Continuous
 62
     7
100
AcDbCircle
 10
112.5
 20
170.4872484924968
 30
0.0
 40
59.99999999999996
100
AcDbArc
 50
180.0
 51
0.0
  0
ARC
  5
DC
330
4F
100
AcDbEntity
  8
1
  6
Continuous
 62
     7
100
AcDbCircle
 10
112.5
 20
170.4872484924968
 30
0.0
 40
60.0
100
AcDbArc
 50
0.0
 51
180.0
  0
ARC
  5
DD
330
4F
100
AcDbEntity
  8
1
  6
Continuous
 62
     7
100
AcDbCircle
 10
112.5
 20
-139.1263567713575
 30
0.0
 40
220.0000000000016
100
AcDbArc
 50
74.17337986812777
 51
76.3279818956183
  0
ARC
  5
DE
330
4F
100
AcDbEntity
  8
1
  6
Continuous
 62
     7
100
AcDbCircle
 10
162.0
 20
79.03374811381147
 30
0.0
 40
2.5
100
AcDbArc
 50
0.0
 51
90.0
  0
ARC
  5
DF
330
4F
100
AcDbEntity
  8
1
  6
Continuous
 62
     7
100
AcDbCircle
 10
154.0
 20
79.03374811381147
 30
0.0
 40
2.5
100
AcDbArc
 50
90.0
 51
180.0
  0
ARC
  5
E0
330
4F
100
AcDbEntity
  8
1
  6
Continuous
 62
     7
100
AcDbCircle
 10
112.5
 20
-139.1263567713575
 30
0.0
 40
220.0000000000016
100
AcDbArc
 50
90.0
 51
105.8266201318722
  0
ARC
  5
E1
330
4F
100
AcDbEntity
  8
1
  6
Continuous
 62
     7
100
AcDbCircle
 10
112.5
 20
211.9872484924968
 30
0.0
 40
2.5
100
AcDbArc
 50
180.0
 51
0.0
  0
ARC
  5
E2
330
4F
100
AcDbEntity
  8
1
  6
Continuous
 62
     7
100
AcDbCircle
 10
112.5
 20
219.9872484924968
 30
0.0
 40
2.5
100
AcDbArc
 50
0.0
 51
180.0
  0
ARC
  5
E3
330
4F
100
AcDbEntity
  8
1
  6
Continuous
 62
     7
100
AcDbCircle
 10
112.5
 20
-139.1263567713575
 30
0.0
 40
220.0000000000017
100
AcDbArc
 50
79.78905599244077
 51
90.0
  0
MTEXT
  5
E4
330
4F
100
AcDbEntity
  8
1
 62
     7
100
AcDbMText
 10
136.8100125153343
 20
138.3309479641873
 30
0.0
 40
12.0
 41
0.0
 71
     7
 72
     1
  1
と
  7
CONVERTER_11
 11
0.8660254037844387
 21
0.4999999999999998
 31
0.0
 73
     1
 44
1.0
  0
MTEXT
  5
E5
330
4F
100
AcDbEntity
  8
1
 62
     7
100
AcDbMText
 10
121.003685841152
 20
131.2885251885614
 30
0.0
 40
12.0
 41
0.0
 71
     7
 72
     1
  1
っ
  7
CONVERTER_11
 11
0.9659258262890684
 21
0.2588190451025206
 31
0.0
 73
     1
 44
1.0
  0
MTEXT
  5
E6
330
4F
100
AcDbEntity
  8
1
 62
     7
100
AcDbMText
 10
98.46793295914934
 20
132.0710166080754
 30
0.0
 40
12.0
 41
0.0
 71
     7
 72
     1
  1
た
  7
CONVERTER_11
 11
0.9961946980917455
 21
-0.08715574274765814
 31
0.0
 73
     1
 44
1.0
  0
MTEXT
  5
E7
330
4F
100
AcDbEntity
  8
1
 62
     7
100
AcDbMText
 10
80.15763374252235
 20
140.6784222227292
 30
0.0
 40
12.0
 41
0.0
 71
     7
 72
     1
  1
ぴ
  7
CONVERTER_11
 11
0.9659258262890684
 21
-0.2588190451025207
 31
0.0
 73
     1
 44
1.0
  0
ENDBLK
  5
51
330
4F
100
AcDbEntity
  8
0
100
AcDbBlockEnd
  0
BLOCK
  5
101
330
FA
100
AcDbEntity
  8
0
100
AcDbBlockBegin
  2
*D4
 70
     1
 10
0.0
 20
0.0
 30
0.0
  3
*D4
  1

  0
LINE
  5
FB
330
FA
100
AcDbEntity
  8
1
  6
Continuous
 62
     2
100
AcDbLine
 10
181.5
 20
71.03374811381144
 30
0.0
 11
181.5
 21
81.53374811381147
 31
0.0
  0
LINE
  5
FC
330
FA
100
AcDbEntity
  8
1
  6
Continuous
 62
     2
100
AcDbLine
 10
162.0
 20
81.53374811381147
 30
0.0
 11
182.5
 21
81.53374811381147
 31
0.0
  0
LINE
  5
FD
330
FA
100
AcDbEntity
  8
1
  6
Continuous
 62
     2
100
AcDbLine
 10
172.5
 20
71.03374811381144
 30
0.0
 11
182.5
 21
71.03374811381144
 31
0.0
  0
SOLID
  5
FE
330
FA
100
AcDbEntity
  8
1
 62
     2
100
AcDbTrace
 10
181.0392162584441
 20
74.53374811381144
 30
0.0
 11
181.9607837415559
 21
74.53374811381144
 31
0.0
 12
181.5
 22
71.03374811381144
 32
0.0
 13
181.5
 23
71.03374811381144
 33
0.0
  0
SOLID
  5
FF
330
FA
100
AcDbEntity
  8
1
 62
     2
100
AcDbTrace
 10
181.9607837415559
 20
78.03374811381147
 30
0.0
 11
181.0392162584441
 21
78.03374811381147
 31
0.0
 12
181.5
 22
81.53374811381147
 32
0.0
 13
181.5
 23
81.53374811381147
 33
0.0
  0
MTEXT
  5
100
330
FA
100
AcDbEntity
  8
1
 62
     7
100
AcDbMText
 10
180.5
 20
74.53778674656795
 30
0.0
 40
3.5
 41
0.0
 71
     7
 72
     1
  1
11
  7
CONVERTER_12
 11
0.0
 21
1.0
 31
0.0
 73
     1
 44
0.60024009603842
  0
ENDBLK
  5
102
330
FA
100
AcDbEntity
  8
0
100
AcDbBlockEnd
  0
BLOCK
  5
10C
330
105
100
AcDbEntity
  8
0
100
AcDbBlockBegin
  2
*D5
 70
     1
 10
0.0
 20
0.0
 30
0.0
  3
*D5
  1

  0
LINE
  5
106
330
105
100
AcDbEntity
  8
1
  6
Continuous
 62
     2
100
AcDbLine
 10
41.49999999999998
 20
71.03374811381147
 30
0.0
 11
41.49999999999998
 21
80.87364322864414
 31
0.0
  0
LINE
  5
107
330
105
100
AcDbEntity
  8
1
  6
Continuous
 62
     2
100
AcDbLine
 10
112.5
 20
80.87364322864414
 30
0.0
 11
40.49999999999998
 21
80.87364322864414
 31
0.0
  0
LINE
  5
108
330
105
100
AcDbEntity
  8
1
  6
Continuous
 62
     2
100
AcDbLine
 10
52.49999999999998
 20
71.03374811381147
 30
0.0
 11
40.49999999999998
 21
71.03374811381147
 31
0.0
  0
SOLID
  5
109
330
105
100
AcDbEntity
  8
1
 62
     2
100
AcDbTrace
 10
41.03921625844409
 20
74.53374811381147
 30
0.0
 11
41.96078374155586
 21
74.53374811381147
 31
0.0
 12
41.49999999999998
 22
71.03374811381147
 32
0.0
 13
41.49999999999998
 23
71.03374811381147
 33
0.0
  0
SOLID
  5
10A
330
105
100
AcDbEntity
  8
1
 62
     2
100
AcDbTrace
 10
41.96078374155586
 20
77.37364322864414
 30
0.0
 11
41.03921625844409
 21
77.37364322864414
 31
0.0
 12
41.49999999999998
 22
80.87364322864414
 32
0.0
 13
41.49999999999998
 23
80.87364322864414
 33
0.0
  0
MTEXT
  5
10B
330
105
100
AcDbEntity
  8
1
 62
     7
100
AcDbMText
 10
40.49999999999998
 20
74.52244668743467
 30
0.0
 40
3.5
 41
0.0
 71
     7
 72
     1
  1
10
  7
CONVERTER_12
 11
0.0
 21
1.0
 31
0.0
 73
     1
 44
0.60024009603842
  0
ENDBLK
  5
10D
330
105
100
AcDbEntity
  8
0
100
AcDbBlockEnd
  0
BLOCK
  5
117
330
110
100
AcDbEntity
  8
0
100
AcDbBlockBegin
  2
*D6
 70
     1
 10
0.0
 20
0.0
 30
0.0
  3
*D6
  1

  0
LINE
  5
111
330
110
100
AcDbEntity
  8
1
  6
Continuous
 62
     2
100
AcDbLine
 10
52.5
 20
241.4872484924968
 30
0.0
 11
172.5
 21
241.4872484924968
 31
0.0
  0
LINE
  5
112
330
110
100
AcDbEntity
  8
1
  6
Continuous
 62
     2
100
AcDbLine
 10
172.5
 20
170.4872484924968
 30
0.0
 11
172.5
 21
242.4872484924968
 31
0.0
  0
LINE
  5
113
330
110
100
AcDbEntity
  8
1
  6
Continuous
 62
     2
100
AcDbLine
 10
52.5
 20
170.4872484924968
 30
0.0
 11
52.5
 21
242.4872484924968
 31
0.0
  0
SOLID
  5
114
330
110
100
AcDbEntity
  8
1
 62
     2
100
AcDbTrace
 10
56.0
 20
241.9480322340527
 30
0.0
 11
56.0
 21
241.0264647509409
 31
0.0
 12
52.5
 22
241.4872484924968
 32
0.0
 13
52.5
 23
241.4872484924968
 33
0.0
  0
SOLID
  5
115
330
110
100
AcDbEntity
  8
1
 62
     2
100
AcDbTrace
 10
169.0
 20
241.0264647509409
 30
0.0
 11
169.0
 21
241.9480322340527
 31
0.0
 12
172.5
 22
241.4872484924968
 32
0.0
 13
172.5
 23
241.4872484924968
 33
0.0
  0
MTEXT
  5
116
330
110
100
AcDbEntity
  8
1
 62
     7
100
AcDbMText
 10
108.0550000000084
 20
242.4872415354205
 30
0.0
 40
3.5
 41
0.0
 71
     7
 72
     1
  1
\C7;{\Fgdt;n}\C7;120
  7
CONVERTER_12
 11
0.9999999999970619
 21
2.424068405545306E-6
 31
0.0
 73
     1
 44
0.60024009603842
  0
ENDBLK
  5
118
330
110
100
AcDbEntity
  8
0
100
AcDbBlockEnd
  0
ENDSEC
  0
SECTION
  2
ENTITIES
  0
INSERT
  5
52
330
1F
100
AcDbEntity
  8
0
100
AcDbBlockReference
  2
開示A4枠
 10
0.0
 20
-0.00000000000002
 30
0.0
  0
INSERT
  5
53
330
1F
100
AcDbEntity
  8
1
100
AcDbBlockReference
  2
futa
 10
52.50000000000004
 20
69.63781562756154
 30
0.0
  0
LINE
  5
E8
330
1F
100
AcDbEntity
  8
1
  6
DASH_CENTER
 62
     2
100
AcDbLine
 10
112.5
 20
83.87364322864414
 30
0.0
 11
112.5
 21
68.03374811381144
 31
0.0
  0
LINE
  5
E9
330
1F
100
AcDbEntity
  8
1
  6
DASH_CENTER
 62
     2
100
AcDbLine
 10
112.5
 20
233.4872484924968
 30
0.0
 11
112.5
 21
170.4872484924968
 31
0.0
  0
LINE
  5
EA
330
1F
100
AcDbEntity
  8
1
  6
DASH_CENTER
 62
     2
100
AcDbLine
 10
49.50000000000004
 20
170.4872484924968
 30
0.0
 11
112.5
 21
170.4872484924968
 31
0.0
  0
LINE
  5
EB
330
1F
100
AcDbEntity
  8
1
  6
DASH_CENTER
 62
     2
100
AcDbLine
 10
112.5
 20
170.4872484924968
 30
0.0
 11
112.5
 21
107.4872484924968
 31
0.0
  0
LINE
  5
EC
330
1F
100
AcDbEntity
  8
1
  6
DASH_CENTER
 62
     2
100
AcDbLine
 10
112.5
 20
170.4872484924968
 30
0.0
 11
175.5
 21
170.4872484924968
 31
0.0
  0
MTEXT
  5
EE
330
1F
100
AcDbEntity
  8
1
 62
     7
100
AcDbMText
 10
157.5
 20
12.49999999999997
 30
0.0
 40
2.5
 41
0.0
 71
     5
 72
     1
  1
6
  7
CONVERTER_12
 73
     1
 44
0.7202881152461
  0
MTEXT
  5
EF
330
1F
100
AcDbEntity
  8
1
 62
     7
100
AcDbMText
 10
151.75
 20
12.49999999999997
 30
0.0
 40
2.5
 41
0.0
 71
     5
 72
     1
  1
04
  7
CONVERTER_12
 73
     1
 44
0.7202881152461
  0
MTEXT
  5
F0
330
1F
100
AcDbEntity
  8
1
 62
     7
100
AcDbMText
 10
140.5
 20
12.49999999999997
 30
0.0
 40
2.5
 41
0.0
 71
     5
 72
     1
  1
6
  7
CONVERTER_12
 73
     1
 44
0.7202881152461
  0
MTEXT
  5
F1
330
1F
100
AcDbEntity
  8
1
 62
     7
100
AcDbMText
 10
134.75
 20
12.49999999999997
 30
0.0
 40
2.5
 41
0.0
 71
     5
 72
     1
  1
04
  7
CONVERTER_12
 73
     1
 44
0.7202881152461
  0
MTEXT
  5
F2
330
1F
100
AcDbEntity
  8
1
 62
     7
100
AcDbMText
 10
123.5
 20
12.49999999999997
 30
0.0
 40
2.5
 41
0.0
 71
     5
 72
     1
  1
6
  7
CONVERTER_12
 73
     1
 44
0.7202881152461
  0
MTEXT
  5
F3
330
1F
100
AcDbEntity
  8
1
 62
     7
100
AcDbMText
 10
117.75
 20
12.49999999999997
 30
0.0
 40
2.5
 41
0.0
 71
     5
 72
     1
  1
04
  7
CONVERTER_12
 73
     1
 44
0.7202881152461
  0
MTEXT
  5
F4
330
1F
100
AcDbEntity
  8
1
 62
     7
100
AcDbMText
 10
100.75
 20
12.49999999999997
 30
0.0
 40
2.5
 41
0.0
 71
     5
 72
     1
  1
04
  7
CONVERTER_12
 73
     1
 44
0.7202881152461
  0
MTEXT
  5
F5
330
1F
100
AcDbEntity
  8
1
 62
     7
100
AcDbMText
 10
106.5
 20
12.49999999999997
 30
0.0
 40
2.5
 41
0.0
 71
     5
 72
     1
  1
6
  7
CONVERTER_12
 73
     1
 44
0.7202881152461
  0
MTEXT
  5
F6
330
1F
100
AcDbEntity
  8
1
 62
     7
100
AcDbMText
 10
85.25
 20
16.99999999999999
 30
0.0
 40
3.5
 41
0.0
 71
     5
 72
     1
  1
1
  7
CONVERTER_12
 73
     1
 44
0.7202881152461
  0
MTEXT
  5
F7
330
1F
100
AcDbEntity
  8
1
 62
     7
100
AcDbMText
 10
57.0
 20
22.75
 30
0.0
 40
3.5
 41
0.0
 71
     5
 72
     1
  1
流し排水用ぴたっと
  7
CONVERTER_11
 73
     1
 44
0.54545454545455
  0
MTEXT
  5
F8
330
1F
100
AcDbEntity
  8
1
 62
     7
100
AcDbMText
 10
57.0
 20
14.24999999999999
 30
0.0
 40
3.5
 41
0.0
 71
     5
 72
     1
  1
H69
  7
CONVERTER_12
 73
     1
 44
0.7202881152461
  0
MTEXT
  5
F9
330
1F
100
AcDbEntity
  8
1
 62
     7
100
AcDbMText
 10
93.75000000000003
 20
16.99999999999999
 30
0.0
 40
3.5
 41
0.0
 71
     5
 72
     1
  1
1
  7
CONVERTER_12
 73
     1
 44
0.7202881152461
  0
DIMENSION
  5
104
330
1F
100
AcDbEntity
  8
1
100
AcDbDimension
  2
*D4
 10
181.5
 20
71.03374811381144
 30
0.0
 11
178.75
 21
76.11278674656795
 31
0.0
 70
    32
  1
11
 71
     5
 42
-1.0
 53
90.0
  3
ME10_DIM_10
100
AcDbAlignedDimension
 13
162.0
 23
81.53374811381147
 33
0.0
 14
172.5
 24
71.03374811381144
 34
0.0
 50
90.0
100
AcDbRotatedDimension
  0
DIMENSION
  5
10F
330
1F
100
AcDbEntity
  8
1
100
AcDbDimension
  2
*D5
 10
41.49999999999998
 20
71.03374811381147
 30
0.0
 11
38.74999999999998
 21
76.62244668743466
 31
0.0
 70
    32
  1
10
 71
     5
 42
-1.0
 53
90.0
  3
ME10_DIM_11
100
AcDbAlignedDimension
 13
112.5
 23
80.87364322864414
 33
0.0
 14
52.49999999999998
 24
71.03374811381147
 34
0.0
 50
90.0
100
AcDbRotatedDimension
  0
DIMENSION
  5
11A
330
1F
100
AcDbEntity
  8
1
100
AcDbDimension
  2
*D6
 10
52.5
 20
241.4872484924968
 30
0.0
 11
112.5
 21
244.2372484924968
 31
0.0
 70
    32
  1
<>
 71
     5
 42
-1.0
 53
0.00013888888889
  3
ME10_DIM_12
100
AcDbAlignedDimension
 13
172.5
 23
170.4872484924968
 33
0.0
 14
52.50000000000004
 24
170.4872484924968
 34
0.0
100
AcDbRotatedDimension
  0
ENDSEC
  0
SECTION
  2
OBJECTS
  0
DICTIONARY
  5
C
330
0
100
AcDbDictionary
281
     1
  3
ACAD_GROUP
350
D
  3
ACAD_LAYOUT
350
1A
  3
ACAD_MATERIAL
350
3B
  3
ACAD_MLEADERSTYLE
350
11D
  3
ACAD_MLINESTYLE
350
17
  3
ACAD_PLOTSETTINGS
350
19
  3
ACAD_PLOTSTYLENAME
350
E
  3
ACAD_VISUALSTYLE
350
2A
  3
AcDbVariableDictionary
350
11B
  0
DICTIONARY
  5
D
102
{ACAD_REACTORS
330
C
102
}
330
C
100
AcDbDictionary
281
     1
  0
DICTIONARY
  5
1A
102
{ACAD_REACTORS
330
C
102
}
330
C
100
AcDbDictionary
281
     1
  3
Layout1
350
1E
  3
Layout2
350
26
  3
Model
350
22
  0
DICTIONARY
  5
3B
102
{ACAD_REACTORS
330
C
102
}
330
C
100
AcDbDictionary
281
     1
  3
ByBlock
350
3D
  3
ByLayer
350
3C
  3
Global
350
3E
  0
DICTIONARY
  5
11D
102
{ACAD_REACTORS
330
C
102
}
330
C
100
AcDbDictionary
281
     1
  0
DICTIONARY
  5
17
102
{ACAD_REACTORS
330
C
102
}
330
C
100
AcDbDictionary
281
     1
  3
Standard
350
18
  0
DICTIONARY
  5
19
102
{ACAD_REACTORS
330
C
102
}
330
C
100
AcDbDictionary
281
     1
  0
ACDBDICTIONARYWDFLT
  5
E
102
{ACAD_REACTORS
330
C
102
}
330
C
100
AcDbDictionary
281
     1
  3
Normal
350
F
100
AcDbDictionaryWithDefault
340
F
  0
DICTIONARY
  5
2A
102
{ACAD_REACTORS
330
C
102
}
330
C
100
AcDbDictionary
281
     1
  3
2dWireframe
350
2F
  3
3D Hidden
350
31
  3
3dWireframe
350
30
  3
Basic
350
32
  3
Brighten
350
36
  3
ColorChange
350
3A
  3
Conceptual
350
34
  3
Dim
350
35
  3
Facepattern
350
39
  3
Flat
350
2B
  3
FlatWithEdges
350
2C
  3
Gouraud
350
2D
  3
GouraudWithEdges
350
2E
  3
Linepattern
350
38
  3
Realistic
350
33
  3
Thicken
350
37
  0
DICTIONARY
  5
11B
102
{ACAD_REACTORS
330
C
102
}
330
C
100
AcDbDictionary
281
     1
  3
DIMASSOC
350
11E
  3
HIDETEXT
350
11F
  0
LAYOUT
  5
1E
102
{ACAD_REACTORS
330
1A
102
}
330
1A
100
AcDbPlotSettings
  1

  2
none_device
  4

  6

 40
0.0
 41
0.0
 42
0.0
 43
0.0
 44
0.0
 45
0.0
 46
0.0
 47
0.0
 48
0.0
 49
0.0
140
0.0
141
0.0
142
1.0
143
1.0
 70
   688
 72
     0
 73
     0
 74
     5
  7

 75
    16
147
1.0
148
0.0
149
0.0
100
AcDbLayout
  1
Layout1
 70
     1
 71
     1
 10
0.0
 20
0.0
 11
12.0
 21
9.0
 12
0.0
 22
0.0
 32
0.0
 14
1.00000000000000E+20
 24
1.00000000000000E+20
 34
1.00000000000000E+20
 15
-1.00000000000000E+20
 25
-1.00000000000000E+20
 35
-1.00000000000000E+20
146
0.0
 13
0.0
 23
0.0
 33
0.0
 16
1.0
 26
0.0
 36
0.0
 17
0.0
 27
1.0
 37
0.0
 76
     0
330
1B
  0
LAYOUT
  5
26
102
{ACAD_REACTORS
330
1A
102
}
330
1A
100
AcDbPlotSettings
  1

  2
none_device
  4

  6

 40
0.0
 41
0.0
 42
0.0
 43
0.0
 44
0.0
 45
0.0
 46
0.0
 47
0.0
 48
0.0
 49
0.0
140
0.0
141
0.0
142
1.0
143
1.0
 70
   688
 72
     0
 73
     0
 74
     5
  7

 75
    16
147
1.0
148
0.0
149
0.0
100
AcDbLayout
  1
Layout2
 70
     1
 71
     2
 10
0.0
 20
0.0
 11
0.0
 21
0.0
 12
0.0
 22
0.0
 32
0.0
 14
0.0
 24
0.0
 34
0.0
 15
0.0
 25
0.0
 35
0.0
146
0.0
 13
0.0
 23
0.0
 33
0.0
 16
1.0
 26
0.0
 36
0.0
 17
0.0
 27
1.0
 37
0.0
 76
     0
330
23
  0
LAYOUT
  5
22
102
{ACAD_REACTORS
330
1A
102
}
330
1A
100
AcDbPlotSettings
  1

  2
none_device
  4

  6

 40
0.0
 41
0.0
 42
0.0
 43
0.0
 44
0.0
 45
0.0
 46
0.0
 47
0.0
 48
0.0
 49
0.0
140
0.0
141
0.0
142
1.0
143
1.0
 70
  1712
 72
     0
 73
     0
 74
     0
  7

 75
     0
147
1.0
148
0.0
149
0.0
100
AcDbLayout
  1
Model
 70
     1
 71
     0
 10
0.0
 20
0.0
 11
12.0
 21
9.0
 12
0.0
 22
0.0
 32
0.0
 14
0.0
 24
-0.00000000000002
 34
0.0
 15
210.0
 25
296.9999999999999
 35
0.0
146
0.0
 13
0.0
 23
0.0
 33
0.0
 16
1.0
 26
0.0
 36
0.0
 17
0.0
 27
1.0
 37
0.0
 76
     0
330
1F
331
29
  0
MATERIAL
  5
3D
102
{ACAD_REACTORS
330
3B
102
}
102
{ACAD_XDICTIONARY
360
142
102
}
330
3B
100
AcDbMaterial
  1
ByBlock
  0
MATERIAL
  5
3C
102
{ACAD_REACTORS
330
3B
102
}
102
{ACAD_XDICTIONARY
360
140
102
}
330
3B
100
AcDbMaterial
  1
ByLayer
  0
MATERIAL
  5
3E
102
{ACAD_REACTORS
330
3B
102
}
102
{ACAD_XDICTIONARY
360
144
102
}
330
3B
100
AcDbMaterial
  1
Global
  0
MLINESTYLE
  5
18
102
{ACAD_REACTORS
330
17
102
}
330
17
100
AcDbMlineStyle
  2
Standard
 70
     0
  3

 62
   256
 51
90.0
 52
90.0
 71
     2
 49
0.5
 62
   256
  6
BYLAYER
 49
-0.5
 62
   256
  6
BYLAYER
  0
ACDBPLACEHOLDER
  5
F
102
{ACAD_REACTORS
330
E
102
}
330
E
  0
VISUALSTYLE
  5
2F
102
{ACAD_REACTORS
330
2A
102
}
102
{ACAD_XDICTIONARY
360
128
102
}
330
2A
100
AcDbVisualStyle
  2
2dWireframe
 70
     4
 71
     0
 72
     2
 73
     0
 90
        0
 40
-0.6
 41
-30.0
 62
     5
 63
     7
 74
     1
 91
        4
 64
     7
 65
   257
 75
     1
175
     1
 42
1.0
 92
        0
 66
   257
 43
1.0
 76
     1
 77
     6
 78
     2
 67
     7
 79
     5
170
     0
171
     0
290
     0
174
     0
 93
        1
 44
0.0
173
     0
291
     0
 45
0.0
1001
ACAD
1000
AcDbSavedByObjectVersion
1070
     0
  0
VISUALSTYLE
  5
31
102
{ACAD_REACTORS
330
2A
102
}
102
{ACAD_XDICTIONARY
360
12C
102
}
330
2A
100
AcDbVisualStyle
  2
3D Hidden
 70
     6
 71
     1
 72
     2
 73
     2
 90
        0
 40
-0.6
 41
-30.0
 62
     5
 63
     7
 74
     2
 91
        2
 64
     7
 65
   257
 75
     2
175
     1
 42
40.0
 92
        0
 66
   257
 43
1.0
 76
     1
 77
     6
 78
     2
 67
     7
 79
     3
170
     0
171
     0
290
     0
174
     0
 93
        1
 44
0.0
173
     0
291
     0
 45
0.0
1001
ACAD
1000
AcDbSavedByObjectVersion
1070
     0
  0
VISUALSTYLE
  5
30
102
{ACAD_REACTORS
330
2A
102
}
102
{ACAD_XDICTIONARY
360
12A
102
}
330
2A
100
AcDbVisualStyle
  2
3dWireframe
 70
     5
 71
     0
 72
     2
 73
     0
 90
        0
 40
-0.6
 41
-30.0
 62
     5
 63
     7
 74
     1
 91
        4
 64
     7
 65
   257
 75
     1
175
     1
 42
1.0
 92
        0
 66
   257
 43
1.0
 76
     1
 77
     6
 78
     2
 67
     7
 79
     5
170
     0
171
     0
290
     0
174
     0
 93
        1
 44
0.0
173
     0
291
     0
 45
0.0
1001
ACAD
1000
AcDbSavedByObjectVersion
1070
     0
  0
VISUALSTYLE
  5
32
102
{ACAD_REACTORS
330
2A
102
}
102
{ACAD_XDICTIONARY
360
12E
102
}
330
2A
100
AcDbVisualStyle
  2
Basic
 70
     7
 71
     1
 72
     0
 73
     1
 90
        0
 40
-0.6
 41
-30.0
 62
     5
 63
     7
 74
     0
 91
        4
 64
     7
 65
   257
 75
     1
175
     1
 42
1.0
 92
        8
 66
     7
 43
1.0
 76
     1
 77
     6
 78
     2
 67
     7
 79
     5
170
     0
171
     0
290
     0
174
     0
 93
        1
 44
0.0
173
     0
291
     1
 45
0.0
1001
ACAD
1000
AcDbSavedByObjectVersion
1070
     0
  0
VISUALSTYLE
  5
36
102
{ACAD_REACTORS
330
2A
102
}
102
{ACAD_XDICTIONARY
360
136
102
}
330
2A
100
AcDbVisualStyle
  2
Brighten
 70
    12
 71
     2
 72
     2
 73
     0
 90
        0
 40
-0.6
 41
-30.0
 62
     5
 63
     7
 74
     1
 91
        4
 64
     7
 65
   257
 75
     1
175
     1
 42
1.0
 92
        8
 66
     7
 43
1.0
 76
     1
 77
     6
 78
     2
 67
     7
 79
     5
170
     0
171
     0
290
     0
174
     0
 93
        1
 44
50.0
173
     0
291
     1
 45
0.0
1001
ACAD
1000
AcDbSavedByObjectVersion
1070
     0
  0
VISUALSTYLE
  5
3A
102
{ACAD_REACTORS
330
2A
102
}
102
{ACAD_XDICTIONARY
360
13E
102
}
330
2A
100
AcDbVisualStyle
  2
ColorChange
 70
    16
 71
     2
 72
     2
 73
     3
 90
        0
 40
-0.6
 41
-30.0
 62
     5
 63
     8
 74
     1
 91
        4
 64
     7
 65
   257
 75
     1
175
     1
 42
1.0
 92
        8
 66
     8
 43
1.0
 76
     1
 77
     6
 78
     2
 67
     7
 79
     5
170
     0
171
     0
290
     0
174
     0
 93
        1
 44
0.0
173
     0
291
     1
 45
0.0
1001
ACAD
1000
AcDbSavedByObjectVersion
1070
     0
  0
VISUALSTYLE
  5
34
102
{ACAD_REACTORS
330
2A
102
}
102
{ACAD_XDICTIONARY
360
132
102
}
330
2A
100
AcDbVisualStyle
  2
Conceptual
 70
     9
 71
     3
 72
     2
 73
     0
 90
        0
 40
-0.6
 41
-30.0
 62
     5
 63
     7
 74
     2
 91
        2
 64
     7
 65
   257
 75
     1
175
     1
 42
40.0
 92
        8
 66
     7
 43
1.0
 76
     1
 77
     6
 78
     2
 67
     7
 79
     3
170
     0
171
     0
290
     0
174
     0
 93
        1
 44
0.0
173
     0
291
     0
 45
0.0
1001
ACAD
1000
AcDbSavedByObjectVersion
1070
     0
  0
VISUALSTYLE
  5
35
102
{ACAD_REACTORS
330
2A
102
}
102
{ACAD_XDICTIONARY
360
134
102
}
330
2A
100
AcDbVisualStyle
  2
Dim
 70
    11
 71
     2
 72
     2
 73
     0
 90
        0
 40
-0.6
 41
-30.0
 62
     5
 63
     7
 74
     1
 91
        4
 64
     7
 65
   257
 75
     1
175
     1
 42
1.0
 92
        8
 66
     7
 43
1.0
 76
     1
 77
     6
 78
     2
 67
     7
 79
     5
170
     0
171
     0
290
     0
174
     0
 93
        1
 44
-50.0
173
     0
291
     1
 45
0.0
1001
ACAD
1000
AcDbSavedByObjectVersion
1070
     0
  0
VISUALSTYLE
  5
39
102
{ACAD_REACTORS
330
2A
102
}
102
{ACAD_XDICTIONARY
360
13C
102
}
330
2A
100
AcDbVisualStyle
  2
Facepattern
 70
    15
 71
     2
 72
     2
 73
     0
 90
        0
 40
-0.6
 41
-30.0
 62
     5
 63
     7
 74
     1
 91
        4
 64
     7
 65
   257
 75
     1
175
     1
 42
1.0
 92
        8
 66
     7
 43
1.0
 76
     1
 77
     6
 78
     2
 67
     7
 79
     5
170
     0
171
     0
290
     0
174
     0
 93
        1
 44
0.0
173
     0
291
     1
 45
0.0
1001
ACAD
1000
AcDbSavedByObjectVersion
1070
     0
  0
VISUALSTYLE
  5
2B
102
{ACAD_REACTORS
330
2A
102
}
102
{ACAD_XDICTIONARY
360
120
102
}
330
2A
100
AcDbVisualStyle
  2
Flat
 70
     0
 71
     2
 72
     1
 73
     1
 90
        2
 40
-0.6
 41
30.0
 62
     5
 63
     7
 74
     0
 91
        4
 64
     7
 65
   257
 75
     1
175
     1
 42
1.0
 92
        8
 66
     7
 43
1.0
 76
     1
 77
     6
 78
     2
 67
     7
 79
     5
170
     0
171
     0
290
     0
174
     0
 93
       13
 44
0.0
173
     0
291
     1
 45
0.0
1001
ACAD
1000
AcDbSavedByObjectVersion
1070
     0
  0
VISUALSTYLE
  5
2C
102
{ACAD_REACTORS
330
2A
102
}
102
{ACAD_XDICTIONARY
360
122
102
}
330
2A
100
AcDbVisualStyle
  2
FlatWithEdges
 70
     1
 71
     2
 72
     1
 73
     1
 90
        2
 40
-0.6
 41
30.0
 62
     5
 63
     7
 74
     1
 91
        4
 64
     7
 65
   257
 75
     1
175
     1
 42
1.0
 92
        0
 66
   257
 43
1.0
 76
     1
 77
     6
 78
     2
 67
     7
 79
     5
170
     0
171
     0
290
     0
174
     0
 93
       13
 44
0.0
173
     0
291
     1
 45
0.0
1001
ACAD
1000
AcDbSavedByObjectVersion
1070
     0
  0
VISUALSTYLE
  5
2D
102
{ACAD_REACTORS
330
2A
102
}
102
{ACAD_XDICTIONARY
360
124
102
}
330
2A
100
AcDbVisualStyle
  2
Gouraud
 70
     2
 71
     2
 72
     2
 73
     1
 90
        2
 40
-0.6
 41
30.0
 62
     5
 63
     7
 74
     0
 91
        4
 64
     7
 65
   257
 75
     1
175
     1
 42
1.0
 92
        0
 66
     7
 43
1.0
 76
     1
 77
     6
 78
     2
 67
     7
 79
     5
170
     0
171
     0
290
     0
174
     0
 93
       13
 44
0.0
173
     0
291
     1
 45
0.0
1001
ACAD
1000
AcDbSavedByObjectVersion
1070
     0
  0
VISUALSTYLE
  5
2E
102
{ACAD_REACTORS
330
2A
102
}
102
{ACAD_XDICTIONARY
360
126
102
}
330
2A
100
AcDbVisualStyle
  2
GouraudWithEdges
 70
     3
 71
     2
 72
     2
 73
     1
 90
        2
 40
-0.6
 41
30.0
 62
     5
 63
     7
 74
     1
 91
        4
 64
     7
 65
   257
 75
     1
175
     1
 42
1.0
 92
        0
 66
   257
 43
1.0
 76
     1
 77
     6
 78
     2
 67
     7
 79
     5
170
     0
171
     0
290
     0
174
     0
 93
       13
 44
0.0
173
     0
291
     1
 45
0.0
1001
ACAD
1000
AcDbSavedByObjectVersion
1070
     0
  0
VISUALSTYLE
  5
38
102
{ACAD_REACTORS
330
2A
102
}
102
{ACAD_XDICTIONARY
360
13A
102
}
330
2A
100
AcDbVisualStyle
  2
Linepattern
 70
    14
 71
     2
 72
     2
 73
     0
 90
        0
 40
-0.6
 41
-30.0
 62
     5
 63
     7
 74
     1
 91
        4
 64
     7
 65
   257
 75
     7
175
     7
 42
1.0
 92
        8
 66
     7
 43
1.0
 76
     1
 77
     6
 78
     2
 67
     7
 79
     5
170
     0
171
     0
290
     0
174
     0
 93
        1
 44
0.0
173
     0
291
     1
 45
0.0
1001
ACAD
1000
AcDbSavedByObjectVersion
1070
     0
  0
VISUALSTYLE
  5
33
102
{ACAD_REACTORS
330
2A
102
}
102
{ACAD_XDICTIONARY
360
130
102
}
330
2A
100
AcDbVisualStyle
  2
Realistic
 70
     8
 71
     2
 72
     2
 73
     0
 90
        0
 40
-0.6
 41
-30.0
 62
     5
 63
     7
 74
     1
 91
        0
 64
     7
 65
   257
 75
     1
175
     1
 42
1.0
 92
        8
 66
     8
 43
1.0
 76
     1
 77
     6
 78
     2
 67
     7
 79
     5
170
     0
171
     0
290
     0
174
     0
 93
       13
 44
0.0
173
     0
291
     0
 45
0.0
1001
ACAD
1000
AcDbSavedByObjectVersion
1070
     0
  0
VISUALSTYLE
  5
37
102
{ACAD_REACTORS
330
2A
102
}
102
{ACAD_XDICTIONARY
360
138
102
}
330
2A
100
AcDbVisualStyle
  2
Thicken
 70
    13
 71
     2
 72
     2
 73
     0
 90
        0
 40
-0.6
 41
-30.0
 62
     5
 63
     7
 74
     1
 91
        4
 64
     7
 65
   257
 75
     1
175
     1
 42
1.0
 92
       12
 66
     7
 43
1.0
 76
     1
 77
     6
 78
     2
 67
     7
 79
     5
170
     0
171
     0
290
     0
174
     0
 93
        1
 44
0.0
173
     0
291
     1
 45
0.0
1001
ACAD
1000
AcDbSavedByObjectVersion
1070
     0
  0
DICTIONARYVAR
  5
11E
102
{ACAD_REACTORS
330
11B
102
}
330
11B
100
DictionaryVariables
280
     0
  1
2
  0
DICTIONARYVAR
  5
11F
102
{ACAD_REACTORS
330
11B
102
}
330
11B
100
DictionaryVariables
280
     0
  1
1
  0
DICTIONARY
  5
142
330
3D
100
AcDbDictionary
280
     1
281
     1
  3
ACAD_XREC_ROUNDTRIP
360
143
  0
DICTIONARY
  5
140
330
3C
100
AcDbDictionary
280
     1
281
     1
  3
ACAD_XREC_ROUNDTRIP
360
141
  0
DICTIONARY
  5
144
330
3E
100
AcDbDictionary
280
     1
281
     1
  3
ACAD_XREC_ROUNDTRIP
360
145
  0
DICTIONARY
  5
128
330
2F
100
AcDbDictionary
280
     1
281
     1
  3
ACAD_XREC_ROUNDTRIP
360
129
  0
DICTIONARY
  5
12C
330
31
100
AcDbDictionary
280
     1
281
     1
  3
ACAD_XREC_ROUNDTRIP
360
12D
  0
DICTIONARY
  5
12A
330
30
100
AcDbDictionary
280
     1
281
     1
  3
ACAD_XREC_ROUNDTRIP
360
12B
  0
DICTIONARY
  5
12E
330
32
100
AcDbDictionary
280
     1
281
     1
  3
ACAD_XREC_ROUNDTRIP
360
12F
  0
DICTIONARY
  5
136
330
36
100
AcDbDictionary
280
     1
281
     1
  3
ACAD_XREC_ROUNDTRIP
360
137
  0
DICTIONARY
  5
13E
330
3A
100
AcDbDictionary
280
     1
281
     1
  3
ACAD_XREC_ROUNDTRIP
360
13F
  0
DICTIONARY
  5
132
330
34
100
AcDbDictionary
280
     1
281
     1
  3
ACAD_XREC_ROUNDTRIP
360
133
  0
DICTIONARY
  5
134
330
35
100
AcDbDictionary
280
     1
281
     1
  3
ACAD_XREC_ROUNDTRIP
360
135
  0
DICTIONARY
  5
13C
330
39
100
AcDbDictionary
280
     1
281
     1
  3
ACAD_XREC_ROUNDTRIP
360
13D
  0
DICTIONARY
  5
120
330
2B
100
AcDbDictionary
280
     1
281
     1
  3
ACAD_XREC_ROUNDTRIP
360
121
  0
DICTIONARY
  5
122
330
2C
100
AcDbDictionary
280
     1
281
     1
  3
ACAD_XREC_ROUNDTRIP
360
123
  0
DICTIONARY
  5
124
330
2D
100
AcDbDictionary
280
     1
281
     1
  3
ACAD_XREC_ROUNDTRIP
360
125
  0
DICTIONARY
  5
126
330
2E
100
AcDbDictionary
280
     1
281
     1
  3
ACAD_XREC_ROUNDTRIP
360
127
  0
DICTIONARY
  5
13A
330
38
100
AcDbDictionary
280
     1
281
     1
  3
ACAD_XREC_ROUNDTRIP
360
13B
  0
DICTIONARY
  5
130
330
33
100
AcDbDictionary
280
     1
281
     1
  3
ACAD_XREC_ROUNDTRIP
360
131
  0
DICTIONARY
  5
138
330
37
100
AcDbDictionary
280
     1
281
     1
  3
ACAD_XREC_ROUNDTRIP
360
139
  0
XRECORD
  5
143
102
{ACAD_REACTORS
330
142
102
}
330
142
100
AcDbXrecord
280
     1
102
MATERIAL
148
0.0
149
0.0
149
0.0
 93
        0
 94
      127
282
     0
 72
     1
 77
     1
171
     1
175
     1
179
     1
273
     0
  0
XRECORD
  5
141
102
{ACAD_REACTORS
330
140
102
}
330
140
100
AcDbXrecord
280
     1
102
MATERIAL
148
0.0
149
0.0
149
0.0
 93
        0
 94
      127
282
     0
 72
     1
 77
     1
171
     1
175
     1
179
     1
273
     0
  0
XRECORD
  5
145
102
{ACAD_REACTORS
330
144
102
}
330
144
100
AcDbXrecord
280
     1
102
MATERIAL
148
0.0
149
0.0
149
0.0
 93
        0
 94
      127
282
     0
 72
     1
 77
     1
171
     1
175
     1
179
     1
273
     0
  0
XRECORD
  5
129
102
{ACAD_REACTORS
330
128
102
}
330
128
100
AcDbXrecord
280
     1
102
RTVSPropertyOp0
 70
     1
102
RTVSPropertyOp1
 70
     1
102
RTVSPropertyOp2
 70
     1
102
RTVSPropertyOp3
 70
     1
102
RTVSPropertyOp4
 70
     1
102
RTVSPropertyOp5
 70
     1
102
RTVSPropertyOp6
 70
     1
102
RTVSPropertyOp7
 70
     1
102
RTVSPropertyOp8
 70
     1
102
RTVSPropertyOp9
 70
     1
102
RTVSPropertyOp10
 70
     1
102
RTVSPropertyOp11
 70
     1
102
RTVSPropertyOp12
 70
     1
102
RTVSPropertyOp13
 70
     1
102
RTVSPropertyOp14
 70
     1
102
RTVSPropertyOp15
 70
     1
102
RTVSPropertyOp16
 70
     1
102
RTVSPropertyOp17
 70
     1
102
RTVSPropertyOp18
 70
     1
102
RTVSPropertyOp19
 70
     1
102
RTVSPropertyOp20
 70
     1
102
RTVSPropertyOp21
 70
     1
102
RTVSPropertyOp22
 70
     1
102
RTVSPropertyOp23
 70
     1
102
RTVSPropertyOp24
 70
     1
102
RTVSPropertyOp25
 70
     1
102
RTVSPropertyOp26
 70
     1
102
RTVSPropertyOp27
 70
     1
102
RTVSPropertyOp28
 70
     1
102
RTVSPropertyOp29
 70
     1
102
RTVSPropertyOp30
 70
     1
102
RTVSPropertyOp31
 70
     1
102
RTVSPropertyOp32
 70
     1
  0
XRECORD
  5
12D
102
{ACAD_REACTORS
330
12C
102
}
330
12C
100
AcDbXrecord
280
     1
102
RTVSPropertyOp0
 70
     1
102
RTVSPropertyOp1
 70
     1
102
RTVSPropertyOp2
 70
     1
102
RTVSPropertyOp3
 70
     1
102
RTVSPropertyOp4
 70
     1
102
RTVSPropertyOp5
 70
     1
102
RTVSPropertyOp6
 70
     1
102
RTVSPropertyOp7
 70
     1
102
RTVSPropertyOp8
 70
     1
102
RTVSPropertyOp9
 70
     1
102
RTVSPropertyOp10
 70
     1
102
RTVSPropertyOp11
 70
     1
102
RTVSPropertyOp12
 70
     1
102
RTVSPropertyOp13
 70
     1
102
RTVSPropertyOp14
 70
     1
102
RTVSPropertyOp15
 70
     1
102
RTVSPropertyOp16
 70
     1
102
RTVSPropertyOp17
 70
     1
102
RTVSPropertyOp18
 70
     1
102
RTVSPropertyOp19
 70
     1
102
RTVSPropertyOp20
 70
     1
102
RTVSPropertyOp21
 70
     1
102
RTVSPropertyOp22
 70
     1
102
RTVSPropertyOp23
 70
     1
102
RTVSPropertyOp24
 70
     1
102
RTVSPropertyOp25
 70
     1
102
RTVSPropertyOp26
 70
     1
102
RTVSPropertyOp27
 70
     1
102
RTVSPropertyOp28
 70
     1
102
RTVSPropertyOp29
 70
     1
102
RTVSPropertyOp30
 70
     1
102
RTVSPropertyOp31
 70
     1
102
RTVSPropertyOp32
 70
     1
  0
XRECORD
  5
12B
102
{ACAD_REACTORS
330
12A
102
}
330
12A
100
AcDbXrecord
280
     1
102
RTVSPropertyOp0
 70
     1
102
RTVSPropertyOp1
 70
     1
102
RTVSPropertyOp2
 70
     1
102
RTVSPropertyOp3
 70
     1
102
RTVSPropertyOp4
 70
     1
102
RTVSPropertyOp5
 70
     1
102
RTVSPropertyOp6
 70
     1
102
RTVSPropertyOp7
 70
     1
102
RTVSPropertyOp8
 70
     1
102
RTVSPropertyOp9
 70
     1
102
RTVSPropertyOp10
 70
     1
102
RTVSPropertyOp11
 70
     1
102
RTVSPropertyOp12
 70
     1
102
RTVSPropertyOp13
 70
     1
102
RTVSPropertyOp14
 70
     1
102
RTVSPropertyOp15
 70
     1
102
RTVSPropertyOp16
 70
     1
102
RTVSPropertyOp17
 70
     1
102
RTVSPropertyOp18
 70
     1
102
RTVSPropertyOp19
 70
     1
102
RTVSPropertyOp20
 70
     1
102
RTVSPropertyOp21
 70
     1
102
RTVSPropertyOp22
 70
     1
102
RTVSPropertyOp23
 70
     1
102
RTVSPropertyOp24
 70
     1
102
RTVSPropertyOp25
 70
     1
102
RTVSPropertyOp26
 70
     1
102
RTVSPropertyOp27
 70
     1
102
RTVSPropertyOp28
 70
     1
102
RTVSPropertyOp29
 70
     1
102
RTVSPropertyOp30
 70
     1
102
RTVSPropertyOp31
 70
     1
102
RTVSPropertyOp32
 70
     1
  0
XRECORD
  5
12F
102
{ACAD_REACTORS
330
12E
102
}
330
12E
100
AcDbXrecord
280
     1
102
RTVSPropertyOp0
 70
     1
102
RTVSPropertyOp1
 70
     1
102
RTVSPropertyOp2
 70
     1
102
RTVSPropertyOp3
 70
     1
102
RTVSPropertyOp4
 70
     1
102
RTVSPropertyOp5
 70
     1
102
RTVSPropertyOp6
 70
     1
102
RTVSPropertyOp7
 70
     1
102
RTVSPropertyOp8
 70
     1
102
RTVSPropertyOp9
 70
     1
102
RTVSPropertyOp10
 70
     1
102
RTVSPropertyOp11
 70
     1
102
RTVSPropertyOp12
 70
     1
102
RTVSPropertyOp13
 70
     1
102
RTVSPropertyOp14
 70
     1
102
RTVSPropertyOp15
 70
     1
102
RTVSPropertyOp16
 70
     1
102
RTVSPropertyOp17
 70
     1
102
RTVSPropertyOp18
 70
     1
102
RTVSPropertyOp19
 70
     1
102
RTVSPropertyOp20
 70
     1
102
RTVSPropertyOp21
 70
     1
102
RTVSPropertyOp22
 70
     1
102
RTVSPropertyOp23
 70
     1
102
RTVSPropertyOp24
 70
     1
102
RTVSPropertyOp25
 70
     1
102
RTVSPropertyOp26
 70
     1
102
RTVSPropertyOp27
 70
     1
102
RTVSPropertyOp28
 70
     1
102
RTVSPropertyOp29
 70
     1
102
RTVSPropertyOp30
 70
     1
102
RTVSPropertyOp31
 70
     1
102
RTVSPropertyOp32
 70
     1
  0
XRECORD
  5
137
102
{ACAD_REACTORS
330
136
102
}
330
136
100
AcDbXrecord
280
     1
102
RTVSPropertyOp0
 70
     1
102
RTVSPropertyOp1
 70
     1
102
RTVSPropertyOp2
 70
     1
102
RTVSPropertyOp3
 70
     1
102
RTVSPropertyOp4
 70
     1
102
RTVSPropertyOp5
 70
     1
102
RTVSPropertyOp6
 70
     1
102
RTVSPropertyOp7
 70
     1
102
RTVSPropertyOp8
 70
     1
102
RTVSPropertyOp9
 70
     1
102
RTVSPropertyOp10
 70
     1
102
RTVSPropertyOp11
 70
     1
102
RTVSPropertyOp12
 70
     1
102
RTVSPropertyOp13
 70
     1
102
RTVSPropertyOp14
 70
     1
102
RTVSPropertyOp15
 70
     1
102
RTVSPropertyOp16
 70
     1
102
RTVSPropertyOp17
 70
     1
102
RTVSPropertyOp18
 70
     1
102
RTVSPropertyOp19
 70
     1
102
RTVSPropertyOp20
 70
     1
102
RTVSPropertyOp21
 70
     1
102
RTVSPropertyOp22
 70
     1
102
RTVSPropertyOp23
 70
     1
102
RTVSPropertyOp24
 70
     1
102
RTVSPropertyOp25
 70
     1
102
RTVSPropertyOp26
 70
     1
102
RTVSPropertyOp27
 70
     1
102
RTVSPropertyOp28
 70
     1
102
RTVSPropertyOp29
 70
     1
102
RTVSPropertyOp30
 70
     1
102
RTVSPropertyOp31
 70
     1
102
RTVSPropertyOp32
 70
     1
  0
XRECORD
  5
13F
102
{ACAD_REACTORS
330
13E
102
}
330
13E
100
AcDbXrecord
280
     1
102
RTVSPropertyOp0
 70
     1
102
RTVSPropertyOp1
 70
     1
102
RTVSPropertyOp2
 70
     1
102
RTVSPropertyOp3
 70
     1
102
RTVSPropertyOp4
 70
     1
102
RTVSPropertyOp5
 70
     1
102
RTVSPropertyOp6
 70
     1
102
RTVSPropertyOp7
 70
     1
102
RTVSPropertyOp8
 70
     1
102
RTVSPropertyOp9
 70
     1
102
RTVSPropertyOp10
 70
     1
102
RTVSPropertyOp11
 70
     1
102
RTVSPropertyOp12
 70
     1
102
RTVSPropertyOp13
 70
     1
102
RTVSPropertyOp14
 70
     1
102
RTVSPropertyOp15
 70
     1
102
RTVSPropertyOp16
 70
     1
102
RTVSPropertyOp17
 70
     1
102
RTVSPropertyOp18
 70
     1
102
RTVSPropertyOp19
 70
     1
102
RTVSPropertyOp20
 70
     1
102
RTVSPropertyOp21
 70
     1
102
RTVSPropertyOp22
 70
     1
102
RTVSPropertyOp23
 70
     1
102
RTVSPropertyOp24
 70
     1
102
RTVSPropertyOp25
 70
     1
102
RTVSPropertyOp26
 70
     1
102
RTVSPropertyOp27
 70
     1
102
RTVSPropertyOp28
 70
     1
102
RTVSPropertyOp29
 70
     1
102
RTVSPropertyOp30
 70
     1
102
RTVSPropertyOp31
 70
     1
102
RTVSPropertyOp32
 70
     1
  0
XRECORD
  5
133
102
{ACAD_REACTORS
330
132
102
}
330
132
100
AcDbXrecord
280
     1
102
RTVSPropertyOp0
 70
     1
102
RTVSPropertyOp1
 70
     1
102
RTVSPropertyOp2
 70
     1
102
RTVSPropertyOp3
 70
     1
102
RTVSPropertyOp4
 70
     1
102
RTVSPropertyOp5
 70
     1
102
RTVSPropertyOp6
 70
     1
102
RTVSPropertyOp7
 70
     1
102
RTVSPropertyOp8
 70
     1
102
RTVSPropertyOp9
 70
     1
102
RTVSPropertyOp10
 70
     1
102
RTVSPropertyOp11
 70
     1
102
RTVSPropertyOp12
 70
     1
102
RTVSPropertyOp13
 70
     1
102
RTVSPropertyOp14
 70
     1
102
RTVSPropertyOp15
 70
     1
102
RTVSPropertyOp16
 70
     1
102
RTVSPropertyOp17
 70
     1
102
RTVSPropertyOp18
 70
     1
102
RTVSPropertyOp19
 70
     1
102
RTVSPropertyOp20
 70
     1
102
RTVSPropertyOp21
 70
     1
102
RTVSPropertyOp22
 70
     1
102
RTVSPropertyOp23
 70
     1
102
RTVSPropertyOp24
 70
     1
102
RTVSPropertyOp25
 70
     1
102
RTVSPropertyOp26
 70
     1
102
RTVSPropertyOp27
 70
     1
102
RTVSPropertyOp28
 70
     1
102
RTVSPropertyOp29
 70
     1
102
RTVSPropertyOp30
 70
     1
102
RTVSPropertyOp31
 70
     1
102
RTVSPropertyOp32
 70
     1
  0
XRECORD
  5
135
102
{ACAD_REACTORS
330
134
102
}
330
134
100
AcDbXrecord
280
     1
102
RTVSPropertyOp0
 70
     1
102
RTVSPropertyOp1
 70
     1
102
RTVSPropertyOp2
 70
     1
102
RTVSPropertyOp3
 70
     1
102
RTVSPropertyOp4
 70
     1
102
RTVSPropertyOp5
 70
     1
102
RTVSPropertyOp6
 70
     1
102
RTVSPropertyOp7
 70
     1
102
RTVSPropertyOp8
 70
     1
102
RTVSPropertyOp9
 70
     1
102
RTVSPropertyOp10
 70
     1
102
RTVSPropertyOp11
 70
     1
102
RTVSPropertyOp12
 70
     1
102
RTVSPropertyOp13
 70
     1
102
RTVSPropertyOp14
 70
     1
102
RTVSPropertyOp15
 70
     1
102
RTVSPropertyOp16
 70
     1
102
RTVSPropertyOp17
 70
     1
102
RTVSPropertyOp18
 70
     1
102
RTVSPropertyOp19
 70
     1
102
RTVSPropertyOp20
 70
     1
102
RTVSPropertyOp21
 70
     1
102
RTVSPropertyOp22
 70
     1
102
RTVSPropertyOp23
 70
     1
102
RTVSPropertyOp24
 70
     1
102
RTVSPropertyOp25
 70
     1
102
RTVSPropertyOp26
 70
     1
102
RTVSPropertyOp27
 70
     1
102
RTVSPropertyOp28
 70
     1
102
RTVSPropertyOp29
 70
     1
102
RTVSPropertyOp30
 70
     1
102
RTVSPropertyOp31
 70
     1
102
RTVSPropertyOp32
 70
     1
  0
XRECORD
  5
13D
102
{ACAD_REACTORS
330
13C
102
}
330
13C
100
AcDbXrecord
280
     1
102
RTVSPropertyOp0
 70
     1
102
RTVSPropertyOp1
 70
     1
102
RTVSPropertyOp2
 70
     1
102
RTVSPropertyOp3
 70
     1
102
RTVSPropertyOp4
 70
     1
102
RTVSPropertyOp5
 70
     1
102
RTVSPropertyOp6
 70
     1
102
RTVSPropertyOp7
 70
     1
102
RTVSPropertyOp8
 70
     1
102
RTVSPropertyOp9
 70
     1
102
RTVSPropertyOp10
 70
     1
102
RTVSPropertyOp11
 70
     1
102
RTVSPropertyOp12
 70
     1
102
RTVSPropertyOp13
 70
     1
102
RTVSPropertyOp14
 70
     1
102
RTVSPropertyOp15
 70
     1
102
RTVSPropertyOp16
 70
     1
102
RTVSPropertyOp17
 70
     1
102
RTVSPropertyOp18
 70
     1
102
RTVSPropertyOp19
 70
     1
102
RTVSPropertyOp20
 70
     1
102
RTVSPropertyOp21
 70
     1
102
RTVSPropertyOp22
 70
     1
102
RTVSPropertyOp23
 70
     1
102
RTVSPropertyOp24
 70
     1
102
RTVSPropertyOp25
 70
     1
102
RTVSPropertyOp26
 70
     1
102
RTVSPropertyOp27
 70
     1
102
RTVSPropertyOp28
 70
     1
102
RTVSPropertyOp29
 70
     1
102
RTVSPropertyOp30
 70
     1
102
RTVSPropertyOp31
 70
     1
102
RTVSPropertyOp32
 70
     1
  0
XRECORD
  5
121
102
{ACAD_REACTORS
330
120
102
}
330
120
100
AcDbXrecord
280
     1
102
RTVSPropertyOp0
 70
     1
102
RTVSPropertyOp1
 70
     1
102
RTVSPropertyOp2
 70
     1
102
RTVSPropertyOp3
 70
     1
102
RTVSPropertyOp4
 70
     1
102
RTVSPropertyOp5
 70
     1
102
RTVSPropertyOp6
 70
     1
102
RTVSPropertyOp7
 70
     1
102
RTVSPropertyOp8
 70
     1
102
RTVSPropertyOp9
 70
     1
102
RTVSPropertyOp10
 70
     1
102
RTVSPropertyOp11
 70
     1
102
RTVSPropertyOp12
 70
     1
102
RTVSPropertyOp13
 70
     1
102
RTVSPropertyOp14
 70
     1
102
RTVSPropertyOp15
 70
     1
102
RTVSPropertyOp16
 70
     1
102
RTVSPropertyOp17
 70
     1
102
RTVSPropertyOp18
 70
     1
102
RTVSPropertyOp19
 70
     1
102
RTVSPropertyOp20
 70
     1
102
RTVSPropertyOp21
 70
     1
102
RTVSPropertyOp22
 70
     1
102
RTVSPropertyOp23
 70
     1
102
RTVSPropertyOp24
 70
     1
102
RTVSPropertyOp25
 70
     1
102
RTVSPropertyOp26
 70
     1
102
RTVSPropertyOp27
 70
     1
102
RTVSPropertyOp28
 70
     1
102
RTVSPropertyOp29
 70
     1
102
RTVSPropertyOp30
 70
     1
102
RTVSPropertyOp31
 70
     1
102
RTVSPropertyOp32
 70
     1
  0
XRECORD
  5
123
102
{ACAD_REACTORS
330
122
102
}
330
122
100
AcDbXrecord
280
     1
102
RTVSPropertyOp0
 70
     1
102
RTVSPropertyOp1
 70
     1
102
RTVSPropertyOp2
 70
     1
102
RTVSPropertyOp3
 70
     1
102
RTVSPropertyOp4
 70
     1
102
RTVSPropertyOp5
 70
     1
102
RTVSPropertyOp6
 70
     1
102
RTVSPropertyOp7
 70
     1
102
RTVSPropertyOp8
 70
     1
102
RTVSPropertyOp9
 70
     1
102
RTVSPropertyOp10
 70
     1
102
RTVSPropertyOp11
 70
     1
102
RTVSPropertyOp12
 70
     1
102
RTVSPropertyOp13
 70
     1
102
RTVSPropertyOp14
 70
     1
102
RTVSPropertyOp15
 70
     1
102
RTVSPropertyOp16
 70
     1
102
RTVSPropertyOp17
 70
     1
102
RTVSPropertyOp18
 70
     1
102
RTVSPropertyOp19
 70
     1
102
RTVSPropertyOp20
 70
     1
102
RTVSPropertyOp21
 70
     1
102
RTVSPropertyOp22
 70
     1
102
RTVSPropertyOp23
 70
     1
102
RTVSPropertyOp24
 70
     1
102
RTVSPropertyOp25
 70
     1
102
RTVSPropertyOp26
 70
     1
102
RTVSPropertyOp27
 70
     1
102
RTVSPropertyOp28
 70
     1
102
RTVSPropertyOp29
 70
     1
102
RTVSPropertyOp30
 70
     1
102
RTVSPropertyOp31
 70
     1
102
RTVSPropertyOp32
 70
     1
  0
XRECORD
  5
125
102
{ACAD_REACTORS
330
124
102
}
330
124
100
AcDbXrecord
280
     1
102
RTVSPropertyOp0
 70
     1
102
RTVSPropertyOp1
 70
     1
102
RTVSPropertyOp2
 70
     1
102
RTVSPropertyOp3
 70
     1
102
RTVSPropertyOp4
 70
     1
102
RTVSPropertyOp5
 70
     1
102
RTVSPropertyOp6
 70
     1
102
RTVSPropertyOp7
 70
     1
102
RTVSPropertyOp8
 70
     1
102
RTVSPropertyOp9
 70
     1
102
RTVSPropertyOp10
 70
     1
102
RTVSPropertyOp11
 70
     1
102
RTVSPropertyOp12
 70
     1
102
RTVSPropertyOp13
 70
     1
102
RTVSPropertyOp14
 70
     1
102
RTVSPropertyOp15
 70
     1
102
RTVSPropertyOp16
 70
     1
102
RTVSPropertyOp17
 70
     1
102
RTVSPropertyOp18
 70
     1
102
RTVSPropertyOp19
 70
     1
102
RTVSPropertyOp20
 70
     1
102
RTVSPropertyOp21
 70
     1
102
RTVSPropertyOp22
 70
     1
102
RTVSPropertyOp23
 70
     1
102
RTVSPropertyOp24
 70
     1
102
RTVSPropertyOp25
 70
     1
102
RTVSPropertyOp26
 70
     1
102
RTVSPropertyOp27
 70
     1
102
RTVSPropertyOp28
 70
     1
102
RTVSPropertyOp29
 70
     1
102
RTVSPropertyOp30
 70
     1
102
RTVSPropertyOp31
 70
     1
102
RTVSPropertyOp32
 70
     1
  0
XRECORD
  5
127
102
{ACAD_REACTORS
330
126
102
}
330
126
100
AcDbXrecord
280
     1
102
RTVSPropertyOp0
 70
     1
102
RTVSPropertyOp1
 70
     1
102
RTVSPropertyOp2
 70
     1
102
RTVSPropertyOp3
 70
     1
102
RTVSPropertyOp4
 70
     1
102
RTVSPropertyOp5
 70
     1
102
RTVSPropertyOp6
 70
     1
102
RTVSPropertyOp7
 70
     1
102
RTVSPropertyOp8
 70
     1
102
RTVSPropertyOp9
 70
     1
102
RTVSPropertyOp10
 70
     1
102
RTVSPropertyOp11
 70
     1
102
RTVSPropertyOp12
 70
     1
102
RTVSPropertyOp13
 70
     1
102
RTVSPropertyOp14
 70
     1
102
RTVSPropertyOp15
 70
     1
102
RTVSPropertyOp16
 70
     1
102
RTVSPropertyOp17
 70
     1
102
RTVSPropertyOp18
 70
     1
102
RTVSPropertyOp19
 70
     1
102
RTVSPropertyOp20
 70
     1
102
RTVSPropertyOp21
 70
     1
102
RTVSPropertyOp22
 70
     1
102
RTVSPropertyOp23
 70
     1
102
RTVSPropertyOp24
 70
     1
102
RTVSPropertyOp25
 70
     1
102
RTVSPropertyOp26
 70
     1
102
RTVSPropertyOp27
 70
     1
102
RTVSPropertyOp28
 70
     1
102
RTVSPropertyOp29
 70
     1
102
RTVSPropertyOp30
 70
     1
102
RTVSPropertyOp31
 70
     1
102
RTVSPropertyOp32
 70
     1
  0
XRECORD
  5
13B
102
{ACAD_REACTORS
330
13A
102
}
330
13A
100
AcDbXrecord
280
     1
102
RTVSPropertyOp0
 70
     1
102
RTVSPropertyOp1
 70
     1
102
RTVSPropertyOp2
 70
     1
102
RTVSPropertyOp3
 70
     1
102
RTVSPropertyOp4
 70
     1
102
RTVSPropertyOp5
 70
     1
102
RTVSPropertyOp6
 70
     1
102
RTVSPropertyOp7
 70
     1
102
RTVSPropertyOp8
 70
     1
102
RTVSPropertyOp9
 70
     1
102
RTVSPropertyOp10
 70
     1
102
RTVSPropertyOp11
 70
     1
102
RTVSPropertyOp12
 70
     1
102
RTVSPropertyOp13
 70
     1
102
RTVSPropertyOp14
 70
     1
102
RTVSPropertyOp15
 70
     1
102
RTVSPropertyOp16
 70
     1
102
RTVSPropertyOp17
 70
     1
102
RTVSPropertyOp18
 70
     1
102
RTVSPropertyOp19
 70
     1
102
RTVSPropertyOp20
 70
     1
102
RTVSPropertyOp21
 70
     1
102
RTVSPropertyOp22
 70
     1
102
RTVSPropertyOp23
 70
     1
102
RTVSPropertyOp24
 70
     1
102
RTVSPropertyOp25
 70
     1
102
RTVSPropertyOp26
 70
     1
102
RTVSPropertyOp27
 70
     1
102
RTVSPropertyOp28
 70
     1
102
RTVSPropertyOp29
 70
     1
102
RTVSPropertyOp30
 70
     1
102
RTVSPropertyOp31
 70
     1
102
RTVSPropertyOp32
 70
     1
  0
XRECORD
  5
131
102
{ACAD_REACTORS
330
130
102
}
330
130
100
AcDbXrecord
280
     1
102
RTVSPropertyOp0
 70
     1
102
RTVSPropertyOp1
 70
     1
102
RTVSPropertyOp2
 70
     1
102
RTVSPropertyOp3
 70
     1
102
RTVSPropertyOp4
 70
     1
102
RTVSPropertyOp5
 70
     1
102
RTVSPropertyOp6
 70
     1
102
RTVSPropertyOp7
 70
     1
102
RTVSPropertyOp8
 70
     1
102
RTVSPropertyOp9
 70
     1
102
RTVSPropertyOp10
 70
     1
102
RTVSPropertyOp11
 70
     1
102
RTVSPropertyOp12
 70
     1
102
RTVSPropertyOp13
 70
     1
102
RTVSPropertyOp14
 70
     1
102
RTVSPropertyOp15
 70
     1
102
RTVSPropertyOp16
 70
     1
102
RTVSPropertyOp17
 70
     1
102
RTVSPropertyOp18
 70
     1
102
RTVSPropertyOp19
 70
     1
102
RTVSPropertyOp20
 70
     1
102
RTVSPropertyOp21
 70
     1
102
RTVSPropertyOp22
 70
     1
102
RTVSPropertyOp23
 70
     1
102
RTVSPropertyOp24
 70
     1
102
RTVSPropertyOp25
 70
     1
102
RTVSPropertyOp26
 70
     1
102
RTVSPropertyOp27
 70
     1
102
RTVSPropertyOp28
 70
     1
102
RTVSPropertyOp29
 70
     1
102
RTVSPropertyOp30
 70
     1
102
RTVSPropertyOp31
 70
     1
102
RTVSPropertyOp32
 70
     1
  0
XRECORD
  5
139
102
{ACAD_REACTORS
330
138
102
}
330
138
100
AcDbXrecord
280
     1
102
RTVSPropertyOp0
 70
     1
102
RTVSPropertyOp1
 70
     1
102
RTVSPropertyOp2
 70
     1
102
RTVSPropertyOp3
 70
     1
102
RTVSPropertyOp4
 70
     1
102
RTVSPropertyOp5
 70
     1
102
RTVSPropertyOp6
 70
     1
102
RTVSPropertyOp7
 70
     1
102
RTVSPropertyOp8
 70
     1
102
RTVSPropertyOp9
 70
     1
102
RTVSPropertyOp10
 70
     1
102
RTVSPropertyOp11
 70
     1
102
RTVSPropertyOp12
 70
     1
102
RTVSPropertyOp13
 70
     1
102
RTVSPropertyOp14
 70
     1
102
RTVSPropertyOp15
 70
     1
102
RTVSPropertyOp16
 70
     1
102
RTVSPropertyOp17
 70
     1
102
RTVSPropertyOp18
 70
     1
102
RTVSPropertyOp19
 70
     1
102
RTVSPropertyOp20
 70
     1
102
RTVSPropertyOp21
 70
     1
102
RTVSPropertyOp22
 70
     1
102
RTVSPropertyOp23
 70
     1
102
RTVSPropertyOp24
 70
     1
102
RTVSPropertyOp25
 70
     1
102
RTVSPropertyOp26
 70
     1
102
RTVSPropertyOp27
 70
     1
102
RTVSPropertyOp28
 70
     1
102
RTVSPropertyOp29
 70
     1
102
RTVSPropertyOp30
 70
     1
102
RTVSPropertyOp31
 70
     1
102
RTVSPropertyOp32
 70
     1
  0
ENDSEC
  0
EOF
