  0
SECTION
  2
HEADER
  9
$ACADVER
  1
AC1015
  9
$ACADMAINTVER
 70
     6
  9
$DWGCODEPAGE
  3
ANSI_932
  9
$INSBASE
 10
0.0
 20
0.0
 30
0.0
  9
$EXTMIN
 10
0.0
 20
0.00000000000001
 30
0.0
  9
$EXTMAX
 10
210.0
 20
297.0
 30
0.0
  9
$LIMMIN
 10
0.0
 20
0.0
  9
$LIMMAX
 10
12.0
 20
9.0
  9
$ORTHOMODE
 70
     0
  9
$REGENMODE
 70
     1
  9
$FILLMODE
 70
     1
  9
$QTEXTMODE
 70
     0
  9
$MIRRTEXT
 70
     1
  9
$LTSCALE
 40
1.0
  9
$ATTMODE
 70
     1
  9
$TEXTSIZE
 40
0.2
  9
$TRACEWID
 40
0.05
  9
$TEXTSTYLE
  7
Standard
  9
$CLAYER
  8
0
  9
$CELTYPE
  6
ByLayer
  9
$CECOLOR
 62
   256
  9
$CELTSCALE
 40
1.0
  9
$DISPSILH
 70
     0
  9
$DIMSCALE
 40
1.0
  9
$DIMASZ
 40
0.18
  9
$DIMEXO
 40
0.0625
  9
$DIMDLI
 40
0.38
  9
$DIMRND
 40
0.0
  9
$DIMDLE
 40
0.0
  9
$DIMEXE
 40
0.18
  9
$DIMTP
 40
0.0
  9
$DIMTM
 40
0.0
  9
$DIMTXT
 40
0.18
  9
$DIMCEN
 40
0.09
  9
$DIMTSZ
 40
0.0
  9
$DIMTOL
 70
     0
  9
$DIMLIM
 70
     0
  9
$DIMTIH
 70
     1
  9
$DIMTOH
 70
     1
  9
$DIMSE1
 70
     0
  9
$DIMSE2
 70
     0
  9
$DIMTAD
 70
     0
  9
$DIMZIN
 70
     0
  9
$DIMBLK
  1

  9
$DIMASO
 70
     1
  9
$DIMSHO
 70
     1
  9
$DIMPOST
  1

  9
$DIMAPOST
  1

  9
$DIMALT
 70
     0
  9
$DIMALTD
 70
     2
  9
$DIMALTF
 40
25.4
  9
$DIMLFAC
 40
1.0
  9
$DIMTOFL
 70
     0
  9
$DIMTVP
 40
0.0
  9
$DIMTIX
 70
     0
  9
$DIMSOXD
 70
     0
  9
$DIMSAH
 70
     0
  9
$DIMBLK1
  1

  9
$DIMBLK2
  1

  9
$DIMSTYLE
  2
Standard
  9
$DIMCLRD
 70
     0
  9
$DIMCLRE
 70
     0
  9
$DIMCLRT
 70
     0
  9
$DIMTFAC
 40
1.0
  9
$DIMGAP
 40
0.09
  9
$DIMJUST
 70
     0
  9
$DIMSD1
 70
     0
  9
$DIMSD2
 70
     0
  9
$DIMTOLJ
 70
     1
  9
$DIMTZIN
 70
     0
  9
$DIMALTZ
 70
     0
  9
$DIMALTTZ
 70
     0
  9
$DIMUPT
 70
     0
  9
$DIMDEC
 70
     4
  9
$DIMTDEC
 70
     4
  9
$DIMALTU
 70
     2
  9
$DIMALTTD
 70
     2
  9
$DIMTXSTY
  7
Standard
  9
$DIMAUNIT
 70
     0
  9
$DIMADEC
 70
     0
  9
$DIMALTRND
 40
0.0
  9
$DIMAZIN
 70
     0
  9
$DIMDSEP
 70
    46
  9
$DIMATFIT
 70
     3
  9
$DIMFRAC
 70
     0
  9
$DIMLDRBLK
  1

  9
$DIMLUNIT
 70
     2
  9
$DIMLWD
 70
    -2
  9
$DIMLWE
 70
    -2
  9
$DIMTMOVE
 70
     0
  9
$LUNITS
 70
     2
  9
$LUPREC
 70
     4
  9
$SKETCHINC
 40
0.1
  9
$FILLETRAD
 40
0.5
  9
$AUNITS
 70
     0
  9
$AUPREC
 70
     0
  9
$MENU
  1
.
  9
$ELEVATION
 40
0.0
  9
$PELEVATION
 40
0.0
  9
$THICKNESS
 40
0.0
  9
$LIMCHECK
 70
     0
  9
$CHAMFERA
 40
0.5
  9
$CHAMFERB
 40
0.5
  9
$CHAMFERC
 40
1.0
  9
$CHAMFERD
 40
0.0
  9
$SKPOLY
 70
     0
  9
$TDCREATE
 40
2459765.641349884
  9
$TDUCREATE
 40
2459765.266349884
  9
$TDUPDATE
 40
2459765.64135169
  9
$TDUUPDATE
 40
2459765.26635169
  9
$TDINDWG
 40
0.0000000116
  9
$TDUSRTIMER
 40
0.0000000116
  9
$USRTIMER
 70
     1
  9
$ANGBASE
 50
0.0
  9
$ANGDIR
 70
     0
  9
$PDMODE
 70
     0
  9
$PDSIZE
 40
0.0
  9
$PLINEWID
 40
0.0
  9
$SPLFRAME
 70
     0
  9
$SPLINETYPE
 70
     6
  9
$SPLINESEGS
 70
     8
  9
$HANDSEED
  5
137
  9
$SURFTAB1
 70
     6
  9
$SURFTAB2
 70
     6
  9
$SURFTYPE
 70
     6
  9
$SURFU
 70
     6
  9
$SURFV
 70
     6
  9
$UCSBASE
  2

  9
$UCSNAME
  2

  9
$UCSORG
 10
0.0
 20
0.0
 30
0.0
  9
$UCSXDIR
 10
1.0
 20
0.0
 30
0.0
  9
$UCSYDIR
 10
0.0
 20
1.0
 30
0.0
  9
$UCSORTHOREF
  2

  9
$UCSORTHOVIEW
 70
     0
  9
$UCSORGTOP
 10
0.0
 20
0.0
 30
0.0
  9
$UCSORGBOTTOM
 10
0.0
 20
0.0
 30
0.0
  9
$UCSORGLEFT
 10
0.0
 20
0.0
 30
0.0
  9
$UCSORGRIGHT
 10
0.0
 20
0.0
 30
0.0
  9
$UCSORGFRONT
 10
0.0
 20
0.0
 30
0.0
  9
$UCSORGBACK
 10
0.0
 20
0.0
 30
0.0
  9
$PUCSBASE
  2

  9
$PUCSNAME
  2

  9
$PUCSORG
 10
0.0
 20
0.0
 30
0.0
  9
$PUCSXDIR
 10
1.0
 20
0.0
 30
0.0
  9
$PUCSYDIR
 10
0.0
 20
1.0
 30
0.0
  9
$PUCSORTHOREF
  2

  9
$PUCSORTHOVIEW
 70
     0
  9
$PUCSORGTOP
 10
0.0
 20
0.0
 30
0.0
  9
$PUCSORGBOTTOM
 10
0.0
 20
0.0
 30
0.0
  9
$PUCSORGLEFT
 10
0.0
 20
0.0
 30
0.0
  9
$PUCSORGRIGHT
 10
0.0
 20
0.0
 30
0.0
  9
$PUCSORGFRONT
 10
0.0
 20
0.0
 30
0.0
  9
$PUCSORGBACK
 10
0.0
 20
0.0
 30
0.0
  9
$USERI1
 70
     0
  9
$USERI2
 70
     0
  9
$USERI3
 70
     0
  9
$USERI4
 70
     0
  9
$USERI5
 70
     0
  9
$USERR1
 40
18.1
  9
$USERR2
 40
0.0
  9
$USERR3
 40
0.0
  9
$USERR4
 40
0.0
  9
$USERR5
 40
0.0
  9
$WORLDVIEW
 70
     1
  9
$SHADEDGE
 70
     3
  9
$SHADEDIF
 70
    70
  9
$TILEMODE
 70
     1
  9
$MAXACTVP
 70
    64
  9
$PINSBASE
 10
0.0
 20
0.0
 30
0.0
  9
$PLIMCHECK
 70
     0
  9
$PEXTMIN
 10
1.00000000000000E+20
 20
1.00000000000000E+20
 30
1.00000000000000E+20
  9
$PEXTMAX
 10
-1.00000000000000E+20
 20
-1.00000000000000E+20
 30
-1.00000000000000E+20
  9
$PLIMMIN
 10
0.0
 20
0.0
  9
$PLIMMAX
 10
12.0
 20
9.0
  9
$UNITMODE
 70
     0
  9
$VISRETAIN
 70
     1
  9
$PLINEGEN
 70
     0
  9
$PSLTSCALE
 70
     1
  9
$TREEDEPTH
 70
  3020
  9
$CMLSTYLE
  2
Standard
  9
$CMLJUST
 70
     0
  9
$CMLSCALE
 40
1.0
  9
$PROXYGRAPHICS
 70
     1
  9
$MEASUREMENT
 70
     1
  9
$CELWEIGHT
370
    -1
  9
$ENDCAPS
280
     0
  9
$JOINSTYLE
280
     0
  9
$LWDISPLAY
290
     0
  9
$INSUNITS
 70
     4
  9
$HYPERLINKBASE
  1

  9
$STYLESHEET
  1

  9
$XEDIT
290
     1
  9
$CEPSNTYPE
380
     0
  9
$PSTYLEMODE
290
     1
  9
$FINGERPRINTGUID
  2
{6DA3BAF2-33A5-4D08-9278-70E172284FF1}
  9
$VERSIONGUID
  2
{FAEB1C32-E019-11D5-929B-00C0DF256EC4}
  9
$EXTNAMES
290
     1
  9
$PSVPSCALE
 40
0.0
  9
$OLESTARTUP
290
     0
  0
ENDSEC
  0
SECTION
  2
CLASSES
  0
CLASS
  1
ACDBDICTIONARYWDFLT
  2
AcDbDictionaryWithDefault
  3
ObjectDBX Classes
 90
        0
280
     0
281
     0
  0
CLASS
  1
VISUALSTYLE
  2
AcDbVisualStyle
  3
ObjectDBX Classes
 90
     4095
280
     0
281
     0
  0
CLASS
  1
MATERIAL
  2
AcDbMaterial
  3
ObjectDBX Classes
 90
     1153
280
     0
281
     0
  0
CLASS
  1
DICTIONARYVAR
  2
AcDbDictionaryVar
  3
ObjectDBX Classes
 90
        0
280
     0
281
     0
  0
CLASS
  1
ACDBPLACEHOLDER
  2
AcDbPlaceHolder
  3
ObjectDBX Classes
 90
        0
280
     0
281
     0
  0
CLASS
  1
LAYOUT
  2
AcDbLayout
  3
ObjectDBX Classes
 90
        0
280
     0
281
     0
  0
ENDSEC
  0
SECTION
  2
TABLES
  0
TABLE
  2
VPORT
  5
8
330
0
100
AcDbSymbolTable
 70
     1
  0
VPORT
  5
29
330
8
100
AcDbSymbolTableRecord
100
AcDbViewportTableRecord
  2
*Active
 70
     0
 10
0.0
 20
0.0
 11
1.0
 21
1.0
 12
105.0
 22
148.5
 13
0.0
 23
0.0
 14
0.5
 24
0.5
 15
0.5
 25
0.5
 16
0.0
 26
0.0
 36
1.0
 17
0.0
 27
0.0
 37
0.0
 40
326.7
 41
1.60267857142857
 42
50.0
 43
0.0
 44
0.0
 50
0.0
 51
0.0
 71
     0
 72
   100
 73
     1
 74
     3
 75
     0
 76
     0
 77
     0
 78
     0
281
     0
 65
     1
110
0.0
120
0.0
130
0.0
111
1.0
121
0.0
131
0.0
112
0.0
122
1.0
132
0.0
 79
     0
146
0.0
  0
ENDTAB
  0
TABLE
  2
LTYPE
  5
5
330
0
100
AcDbSymbolTable
 70
     8
  0
LTYPE
  5
14
330
5
100
AcDbSymbolTableRecord
100
AcDbLinetypeTableRecord
  2
ByBlock
 70
     0
  3

 72
    65
 73
     0
 40
0.0
  0
LTYPE
  5
15
330
5
100
AcDbSymbolTableRecord
100
AcDbLinetypeTableRecord
  2
ByLayer
 70
     0
  3

 72
    65
 73
     0
 40
0.0
  0
LTYPE
  5
16
330
5
100
AcDbSymbolTableRecord
100
AcDbLinetypeTableRecord
  2
Continuous
 70
     0
  3
Solid line
 72
    65
 73
     0
 40
0.0
  0
LTYPE
  5
3F
330
5
100
AcDbSymbolTableRecord
100
AcDbLinetypeTableRecord
  2
DASHED
 70
     0
  3
Dashed
 72
    65
 73
     2
 40
15.0
 49
7.0
 74
     0
 49
-8.0
 74
     0
  0
LTYPE
  5
40
330
5
100
AcDbSymbolTableRecord
100
AcDbLinetypeTableRecord
  2
DOTTED
 70
     0
  3
Dotted
 72
    65
 73
     2
 40
1.0
 49
0.0
 74
     0
 49
-1.0
 74
     0
  0
LTYPE
  5
41
330
5
100
AcDbSymbolTableRecord
100
AcDbLinetypeTableRecord
  2
DOT_CENTER
 70
     0
  3
Dot_Center
 72
    65
 73
     4
 40
14.0
 49
12.0
 74
     0
 49
-1.0
 74
     0
 49
0.0
 74
     0
 49
-1.0
 74
     0
  0
LTYPE
  5
42
330
5
100
AcDbSymbolTableRecord
100
AcDbLinetypeTableRecord
  2
LONG_DASHED
 70
     0
  3
Long_Dashed
 72
    65
 73
     2
 40
15.0
 49
10.0
 74
     0
 49
-5.0
 74
     0
  0
LTYPE
  5
43
330
5
100
AcDbSymbolTableRecord
100
AcDbLinetypeTableRecord
  2
DASH_CENTER
 70
     0
  3
Dash_Center
 72
    65
 73
     4
 40
14.0
 49
11.0
 74
     0
 49
-1.0
 74
     0
 49
1.0
 74
     0
 49
-1.0
 74
     0
  0
LTYPE
  5
44
330
5
100
AcDbSymbolTableRecord
100
AcDbLinetypeTableRecord
  2
PHANTOM
 70
     0
  3
Phantom
 72
    65
 73
     6
 40
13.0
 49
10.0
 74
     0
 49
-1.0
 74
     0
 49
0.0
 74
     0
 49
-1.0
 74
     0
 49
0.0
 74
     0
 49
-1.0
 74
     0
  0
LTYPE
  5
45
330
5
100
AcDbSymbolTableRecord
100
AcDbLinetypeTableRecord
  2
CENTER_DASH_DASH
 70
     0
  3
Center_Dash_Dash
 72
    65
 73
     6
 40
14.0
 49
9.0
 74
     0
 49
-1.0
 74
     0
 49
1.0
 74
     0
 49
-1.0
 74
     0
 49
1.0
 74
     0
 49
-1.0
 74
     0
  0
ENDTAB
  0
TABLE
  2
LAYER
  5
2
330
0
100
AcDbSymbolTable
 70
     3
  0
LAYER
  5
10
330
2
100
AcDbSymbolTableRecord
100
AcDbLayerTableRecord
  2
0
 70
     0
 62
     7
  6
Continuous
370
    -3
390
F
  0
LAYER
  5
46
330
2
100
AcDbSymbolTableRecord
100
AcDbLayerTableRecord
  2
1
 70
     0
 62
     7
  6
Continuous
370
    -3
390
F
  0
LAYER
  5
47
330
2
100
AcDbSymbolTableRecord
100
AcDbLayerTableRecord
  2
_U_30EC_U_30A4_U_30E4_U_30FC_1
 70
     0
 62
     7
  6
Continuous
370
    -3
390
F
  0
ENDTAB
  0
TABLE
  2
STYLE
  5
3
330
0
100
AcDbSymbolTable
 70
     3
  0
STYLE
  5
11
330
3
100
AcDbSymbolTableRecord
100
AcDbTextStyleTableRecord
  2
Standard
 70
     0
 40
0.0
 41
1.0
 50
0.0
 71
     0
 42
0.2
  3
txt
  4

  0
STYLE
  5
B2
330
3
100
AcDbSymbolTableRecord
100
AcDbTextStyleTableRecord
  2
CONVERTER_11
 70
     0
 40
0.0
 41
0.89
 50
0.0
 71
     0
 42
0.2
  3
MS Mincho.ttf
  4

1001
ACAD
1000
MS Mincho
1071
    32785
  0
STYLE
  5
E1
330
3
100
AcDbSymbolTableRecord
100
AcDbTextStyleTableRecord
  2
CONVERTER_12
 70
     0
 40
0.0
 41
0.9
 50
0.0
 71
     0
 42
0.2
  3
txt.shx
  4

  0
ENDTAB
  0
TABLE
  2
VIEW
  5
6
330
0
100
AcDbSymbolTable
 70
     0
  0
ENDTAB
  0
TABLE
  2
UCS
  5
7
330
0
100
AcDbSymbolTable
 70
     0
  0
ENDTAB
  0
TABLE
  2
APPID
  5
9
330
0
100
AcDbSymbolTable
 70
     1
  0
APPID
  5
12
330
9
100
AcDbSymbolTableRecord
100
AcDbRegAppTableRecord
  2
ACAD
 70
     0
  0
ENDTAB
  0
TABLE
  2
DIMSTYLE
  5
A
330
0
100
AcDbSymbolTable
 70
     3
100
AcDbDimStyleTable
  0
DIMSTYLE
105
27
330
A
100
AcDbSymbolTableRecord
100
AcDbDimStyleTableRecord
  2
Standard
 70
     0
178
     0
340
11
  0
DIMSTYLE
105
F7
102
{ACAD_REACTORS
330
F8
102
}
330
A
100
AcDbSymbolTableRecord
100
AcDbDimStyleTableRecord
  2
ME10_DIM_10
 70
     0
  3
{\Fgdt;n}<>
 41
3.5
 42
0.0
 44
1.0
 73
     0
 74
     0
 77
     1
 78
     8
140
3.5
147
1.0
172
     1
173
     1
174
     1
175
     1
176
     2
177
     2
271
     2
178
     7
271
     2
340
E1
  0
DIMSTYLE
105
102
102
{ACAD_REACTORS
330
103
102
}
330
A
100
AcDbSymbolTableRecord
100
AcDbDimStyleTableRecord
  2
ME10_DIM_11
 70
     0
 41
3.5
 42
0.0
 44
1.0
 73
     0
 74
     0
 77
     1
 78
     8
140
3.5
147
1.0
172
     1
173
     1
174
     1
175
     1
176
     2
177
     2
271
     2
178
     7
271
     2
340
E1
  0
ENDTAB
  0
TABLE
  2
BLOCK_RECORD
  5
1
330
0
100
AcDbSymbolTable
 70
     6
  0
BLOCK_RECORD
  5
1F
330
1
100
AcDbSymbolTableRecord
100
AcDbBlockTableRecord
  2
*Model_Space
340
22
  0
BLOCK_RECORD
  5
1B
330
1
100
AcDbSymbolTableRecord
100
AcDbBlockTableRecord
  2
*Paper_Space
340
1E
  0
BLOCK_RECORD
  5
23
330
1
100
AcDbSymbolTableRecord
100
AcDbBlockTableRecord
  2
*Paper_Space0
340
26
  0
BLOCK_RECORD
  5
48
330
1
100
AcDbSymbolTableRecord
100
AcDbBlockTableRecord
  2
開示A4
340
0
102
{BLKREFS
331
4C
102
}
  0
BLOCK_RECORD
  5
4B
330
1
100
AcDbSymbolTableRecord
100
AcDbBlockTableRecord
  2
開示A4枠
340
0
102
{BLKREFS
331
4F
102
}
  0
BLOCK_RECORD
  5
EE
330
1
100
AcDbSymbolTableRecord
100
AcDbBlockTableRecord
  2
*D3
340
0
  0
BLOCK_RECORD
  5
F9
330
1
100
AcDbSymbolTableRecord
100
AcDbBlockTableRecord
  2
*D4
340
0
  0
BLOCK_RECORD
  5
104
330
1
100
AcDbSymbolTableRecord
100
AcDbBlockTableRecord
  2
*D5
340
0
102
{BLKREFS
331
10B
102
}
  0
ENDTAB
  0
ENDSEC
  0
SECTION
  2
BLOCKS
  0
BLOCK
  5
20
330
1F
100
AcDbEntity
  8
0
100
AcDbBlockBegin
  2
*Model_Space
 70
     0
 10
0.0
 20
0.0
 30
0.0
  3
*Model_Space
  1

  0
ENDBLK
  5
21
330
1F
100
AcDbEntity
  8
0
100
AcDbBlockEnd
  0
BLOCK
  5
1C
330
1B
100
AcDbEntity
 67
     1
  8
0
100
AcDbBlockBegin
  2
*Paper_Space
 70
     0
 10
0.0
 20
0.0
 30
0.0
  3
*Paper_Space
  1

  0
ENDBLK
  5
1D
330
1B
100
AcDbEntity
 67
     1
  8
0
100
AcDbBlockEnd
  0
BLOCK
  5
24
330
23
100
AcDbEntity
  8
0
100
AcDbBlockBegin
  2
*Paper_Space0
 70
     0
 10
0.0
 20
0.0
 30
0.0
  3
*Paper_Space0
  1

  0
ENDBLK
  5
25
330
23
100
AcDbEntity
  8
0
100
AcDbBlockEnd
  0
BLOCK
  5
49
330
48
100
AcDbEntity
  8
0
100
AcDbBlockBegin
  2
開示A4
 70
     0
 10
0.0
 20
0.00000000000001
 30
0.0
  3
開示A4
  1

  0
POINT
  5
50
330
48
100
AcDbEntity
  8
1
 62
     4
100
AcDbPoint
 10
183.0
 20
15.00000000000001
 30
0.0
  0
POINT
  5
51
330
48
100
AcDbEntity
  8
1
 62
     4
100
AcDbPoint
 10
93.75
 20
17.00000000000001
 30
0.0
  0
POINT
  5
52
330
48
100
AcDbEntity
  8
1
 62
     4
100
AcDbPoint
 10
85.25000000000001
 20
17.00000000000001
 30
0.0
  0
POINT
  5
53
330
48
100
AcDbEntity
  8
1
 62
     4
100
AcDbPoint
 10
106.5
 20
19.00000000000001
 30
0.0
  0
POINT
  5
54
330
48
100
AcDbEntity
  8
1
 62
     4
100
AcDbPoint
 10
106.5
 20
12.50000000000001
 30
0.0
  0
POINT
  5
55
330
48
100
AcDbEntity
  8
1
 62
     4
100
AcDbPoint
 10
112.25
 20
12.50000000000001
 30
0.0
  0
POINT
  5
56
330
48
100
AcDbEntity
  8
1
 62
     4
100
AcDbPoint
 10
100.75
 20
12.50000000000001
 30
0.0
  0
POINT
  5
57
330
48
100
AcDbEntity
  8
1
 62
     4
100
AcDbPoint
 10
123.5
 20
19.00000000000001
 30
0.0
  0
POINT
  5
58
330
48
100
AcDbEntity
  8
1
 62
     4
100
AcDbPoint
 10
123.5
 20
12.50000000000001
 30
0.0
  0
POINT
  5
59
330
48
100
AcDbEntity
  8
1
 62
     4
100
AcDbPoint
 10
129.25
 20
12.50000000000001
 30
0.0
  0
POINT
  5
5A
330
48
100
AcDbEntity
  8
1
 62
     4
100
AcDbPoint
 10
117.75
 20
12.50000000000001
 30
0.0
  0
POINT
  5
5B
330
48
100
AcDbEntity
  8
1
 62
     4
100
AcDbPoint
 10
140.5
 20
19.00000000000001
 30
0.0
  0
POINT
  5
5C
330
48
100
AcDbEntity
  8
1
 62
     4
100
AcDbPoint
 10
140.5
 20
12.50000000000001
 30
0.0
  0
POINT
  5
5D
330
48
100
AcDbEntity
  8
1
 62
     4
100
AcDbPoint
 10
146.25
 20
12.50000000000001
 30
0.0
  0
POINT
  5
5E
330
48
100
AcDbEntity
  8
1
 62
     4
100
AcDbPoint
 10
134.75
 20
12.50000000000001
 30
0.0
  0
POINT
  5
5F
330
48
100
AcDbEntity
  8
1
 62
     4
100
AcDbPoint
 10
151.75
 20
12.50000000000001
 30
0.0
  0
POINT
  5
60
330
48
100
AcDbEntity
  8
1
 62
     4
100
AcDbPoint
 10
163.25
 20
12.50000000000001
 30
0.0
  0
POINT
  5
61
330
48
100
AcDbEntity
  8
1
 62
     4
100
AcDbPoint
 10
157.5
 20
12.50000000000001
 30
0.0
  0
POINT
  5
62
330
48
100
AcDbEntity
  8
1
 62
     4
100
AcDbPoint
 10
57.00000000000001
 20
14.25000000000001
 30
0.0
  0
POINT
  5
63
330
48
100
AcDbEntity
  8
1
 62
     4
100
AcDbPoint
 10
57.00000000000001
 20
22.75000000000002
 30
0.0
  0
POINT
  5
64
330
48
100
AcDbEntity
  8
1
 62
     4
100
AcDbPoint
 10
47.50000000000001
 20
282.0000000000003
 30
0.0
  0
POINT
  5
65
330
48
100
AcDbEntity
  8
1
 62
     4
100
AcDbPoint
 10
157.5
 20
19.00000000000001
 30
0.0
  0
POINT
  5
66
330
48
100
AcDbEntity
  8
1
 62
     4
100
AcDbPoint
 10
57.00000000000001
 20
16.25000000000001
 30
0.0
  0
POINT
  5
67
330
48
100
AcDbEntity
  8
1
 62
     4
100
AcDbPoint
 10
57.00000000000001
 20
24.75000000000002
 30
0.0
  0
POINT
  5
68
330
48
100
AcDbEntity
  8
1
 62
     4
100
AcDbPoint
 10
57.00000000000001
 20
20.75000000000002
 30
0.0
  0
POINT
  5
69
330
48
100
AcDbEntity
  8
1
 62
     4
100
AcDbPoint
 10
57.00000000000001
 20
12.25000000000001
 30
0.0
  0
POINT
  5
6A
330
48
100
AcDbEntity
  8
1
 62
     4
100
AcDbPoint
 10
34.00000000000001
 20
34.00000000000001
 30
0.0
  0
LINE
  5
6F
330
48
100
AcDbEntity
  8
1
  6
Continuous
 62
     7
100
AcDbLine
 10
105.0
 20
10.00000000000001
 30
0.0
 11
200.0
 21
10.00000000000001
 31
0.0
  0
LINE
  5
70
330
48
100
AcDbEntity
  8
1
  6
Continuous
 62
     2
100
AcDbLine
 10
105.0
 20
10.00000000000001
 30
0.0
 11
105.0
 21
5.00000000000001
 31
0.0
  0
LINE
  5
71
330
48
100
AcDbEntity
  8
1
  6
Continuous
 62
     7
100
AcDbLine
 10
200.0
 20
148.5
 30
0.0
 11
200.0
 21
287.0000000000003
 31
0.0
  0
LINE
  5
72
330
48
100
AcDbEntity
  8
1
  6
Continuous
 62
     2
100
AcDbLine
 10
200.0
 20
148.5
 30
0.0
 11
205.0
 21
148.5
 31
0.0
  0
LINE
  5
73
330
48
100
AcDbEntity
  8
1
  6
Continuous
 62
     7
100
AcDbLine
 10
25.00000000000001
 20
148.5
 30
0.0
 11
25.00000000000001
 21
287.0000000000003
 31
0.0
  0
LINE
  5
74
330
48
100
AcDbEntity
  8
1
  6
Continuous
 62
     2
100
AcDbLine
 10
25.00000000000001
 20
148.5
 30
0.0
 11
20.00000000000001
 21
148.5
 31
0.0
  0
LINE
  5
75
330
48
100
AcDbEntity
  8
1
  6
Continuous
 62
     7
100
AcDbLine
 10
105.0
 20
287.0000000000003
 30
0.0
 11
25.00000000000001
 21
287.0000000000003
 31
0.0
  0
LINE
  5
76
330
48
100
AcDbEntity
  8
1
  6
Continuous
 62
     2
100
AcDbLine
 10
105.0
 20
287.0000000000003
 30
0.0
 11
105.0
 21
292.0000000000003
 31
0.0
  0
LINE
  5
77
330
48
100
AcDbEntity
  8
1
  6
Continuous
 62
     2
100
AcDbLine
 10
166.0
 20
20.00000000000001
 30
0.0
 11
200.0
 21
20.00000000000001
 31
0.0
  0
LINE
  5
78
330
48
100
AcDbEntity
  8
1
  6
Continuous
 62
     2
100
AcDbLine
 10
98.0
 20
27.00000000000002
 30
0.0
 11
98.0
 21
10.0
 31
0.0
  0
LINE
  5
79
330
48
100
AcDbEntity
  8
1
  6
Continuous
 62
     2
100
AcDbLine
 10
115.0
 20
27.00000000000002
 30
0.0
 11
115.0
 21
10.0
 31
0.0
  0
LINE
  5
7A
330
48
100
AcDbEntity
  8
1
  6
Continuous
 62
     2
100
AcDbLine
 10
149.0
 20
27.00000000000002
 30
0.0
 11
149.0
 21
10.00000000000001
 31
0.0
  0
LINE
  5
7B
330
48
100
AcDbEntity
  8
1
  6
Continuous
 62
     2
100
AcDbLine
 10
132.0
 20
27.00000000000002
 30
0.0
 11
132.0
 21
10.0
 31
0.0
  0
LINE
  5
7C
330
48
100
AcDbEntity
  8
1
  6
Continuous
 62
     2
100
AcDbLine
 10
166.0
 20
27.00000000000002
 30
0.0
 11
166.0
 21
10.00000000000001
 31
0.0
  0
LINE
  5
7D
330
48
100
AcDbEntity
  8
1
  6
Continuous
 62
     2
100
AcDbLine
 10
55.00000000000001
 20
277.0000000000003
 30
0.0
 11
25.00000000000001
 21
277.0000000000003
 31
0.0
  0
LINE
  5
7E
330
48
100
AcDbEntity
  8
1
  6
Continuous
 62
     7
100
AcDbLine
 10
25.00000000000001
 20
10.00000000000001
 30
0.0
 11
25.00000000000001
 21
148.5
 31
0.0
  0
LINE
  5
7F
330
48
100
AcDbEntity
  8
1
  6
Continuous
 62
     2
100
AcDbLine
 10
40.00000000000001
 20
287.0000000000003
 30
0.0
 11
40.00000000000001
 21
277.0000000000003
 31
0.0
  0
LINE
  5
80
330
48
100
AcDbEntity
  8
1
  6
Continuous
 62
     2
100
AcDbLine
 10
55.00000000000001
 20
287.0000000000003
 30
0.0
 11
55.00000000000001
 21
277.0000000000003
 31
0.0
  0
LINE
  5
81
330
48
100
AcDbEntity
  8
1
  6
Continuous
 62
     2
100
AcDbLine
 10
33.00000000000001
 20
41.00000000000001
 30
0.0
 11
33.00000000000001
 21
27.0
 31
0.0
  0
LINE
  5
82
330
48
100
AcDbEntity
  8
1
  6
Continuous
 62
     7
100
AcDbLine
 10
200.0
 20
27.00000000000002
 30
0.0
 11
25.00000000000001
 21
27.00000000000002
 31
0.0
  0
LINE
  5
83
330
48
100
AcDbEntity
  8
1
  6
Continuous
 62
     7
100
AcDbLine
 10
25.00000000000001
 20
41.0
 30
0.0
 11
200.0
 21
41.0
 31
0.0
  0
LINE
  5
84
330
48
100
AcDbEntity
  8
1
  6
PHANTOM
 62
     4
100
AcDbLine
 10
0.0
 20
0.00000000000001
 30
0.0
 11
210.0
 21
0.00000000000001
 31
0.0
  0
LINE
  5
85
330
48
100
AcDbEntity
  8
1
  6
PHANTOM
 62
     4
100
AcDbLine
 10
210.0
 20
0.00000000000001
 30
0.0
 11
210.0
 21
297.0
 31
0.0
  0
LINE
  5
86
330
48
100
AcDbEntity
  8
1
  6
PHANTOM
 62
     4
100
AcDbLine
 10
210.0
 20
297.0
 30
0.0
 11
0.0
 21
297.0
 31
0.0
  0
LINE
  5
87
330
48
100
AcDbEntity
  8
1
  6
PHANTOM
 62
     4
100
AcDbLine
 10
0.0
 20
297.0
 30
0.0
 11
0.0
 21
0.00000000000001
 31
0.0
  0
LINE
  5
88
330
48
100
AcDbEntity
  8
1
  6
Continuous
 62
     7
100
AcDbLine
 10
25.00000000000001
 20
10.00000000000001
 30
0.0
 11
105.0
 21
10.00000000000001
 31
0.0
  0
LINE
  5
89
330
48
100
AcDbEntity
  8
1
  6
Continuous
 62
     7
100
AcDbLine
 10
200.0
 20
10.00000000000001
 30
0.0
 11
200.0
 21
148.5
 31
0.0
  0
LINE
  5
8A
330
48
100
AcDbEntity
  8
1
  6
Continuous
 62
     7
100
AcDbLine
 10
200.0
 20
287.0000000000003
 30
0.0
 11
105.0
 21
287.0000000000003
 31
0.0
  0
LINE
  5
8B
330
48
100
AcDbEntity
  8
1
  6
Continuous
 62
     2
100
AcDbLine
 10
25.00000000000001
 20
18.50000000000001
 30
0.0
 11
81.00000000000001
 21
18.50000000000001
 31
0.0
  0
LINE
  5
8C
330
48
100
AcDbEntity
  8
1
  6
Continuous
 62
     2
100
AcDbLine
 10
33.00000000000001
 20
27.0
 30
0.0
 11
33.00000000000001
 21
10.00000000000001
 31
0.0
  0
LINE
  5
8D
330
48
100
AcDbEntity
  8
1
  6
Continuous
 62
     7
100
AcDbLine
 10
191.0
 20
24.70000000000002
 30
0.0
 11
191.0
 21
22.30000000000001
 31
0.0
  0
LINE
  5
8E
330
48
100
AcDbEntity
  8
1
  6
Continuous
 62
     7
100
AcDbLine
 10
191.0
 20
24.70000000000002
 30
0.0
 11
196.0
 21
25.50000000000002
 31
0.0
  0
LINE
  5
8F
330
48
100
AcDbEntity
  8
1
  6
Continuous
 62
     7
100
AcDbLine
 10
196.0
 20
25.50000000000002
 30
0.0
 11
196.0
 21
21.50000000000002
 31
0.0
  0
LINE
  5
90
330
48
100
AcDbEntity
  8
1
  6
Continuous
 62
     7
100
AcDbLine
 10
196.0
 20
21.50000000000002
 30
0.0
 11
191.0
 21
22.30000000000001
 31
0.0
  0
LINE
  5
91
330
48
100
AcDbEntity
  8
1
  6
DOT_CENTER
 62
     2
100
AcDbLine
 10
184.0
 20
23.50000000000002
 30
0.0
 11
197.0
 21
23.50000000000002
 31
0.0
  0
LINE
  5
92
330
48
100
AcDbEntity
  8
1
  6
DOT_CENTER
 62
     2
100
AcDbLine
 10
187.0
 20
26.50000000000002
 30
0.0
 11
187.0
 21
20.50000000000002
 31
0.0
  0
LINE
  5
93
330
48
100
AcDbEntity
  8
1
  6
Continuous
 62
     2
100
AcDbLine
 10
81.00000000000001
 20
27.00000000000002
 30
0.0
 11
81.00000000000001
 21
10.00000000000001
 31
0.0
  0
CIRCLE
  5
94
330
48
100
AcDbEntity
  8
1
  6
Continuous
 62
     7
100
AcDbCircle
 10
103.5
 20
12.50000000000001
 30
0.0
 40
0.2999999999999972
  0
CIRCLE
  5
95
330
48
100
AcDbEntity
  8
1
  6
Continuous
 62
     7
100
AcDbCircle
 10
109.5
 20
12.50000000000001
 30
0.0
 40
0.2999999999999972
  0
CIRCLE
  5
96
330
48
100
AcDbEntity
  8
1
  6
Continuous
 62
     7
100
AcDbCircle
 10
120.5
 20
12.50000000000001
 30
0.0
 40
0.2999999999999972
  0
CIRCLE
  5
97
330
48
100
AcDbEntity
  8
1
  6
Continuous
 62
     7
100
AcDbCircle
 10
126.5
 20
12.50000000000001
 30
0.0
 40
0.3000000000000966
  0
CIRCLE
  5
98
330
48
100
AcDbEntity
  8
1
  6
Continuous
 62
     7
100
AcDbCircle
 10
137.5
 20
12.50000000000001
 30
0.0
 40
0.3000000000000966
  0
CIRCLE
  5
99
330
48
100
AcDbEntity
  8
1
  6
Continuous
 62
     7
100
AcDbCircle
 10
143.5
 20
12.50000000000001
 30
0.0
 40
0.3000000000000966
  0
CIRCLE
  5
9A
330
48
100
AcDbEntity
  8
1
  6
Continuous
 62
     7
100
AcDbCircle
 10
160.5
 20
12.50000000000001
 30
0.0
 40
0.3000000000000966
  0
CIRCLE
  5
9B
330
48
100
AcDbEntity
  8
1
  6
Continuous
 62
     7
100
AcDbCircle
 10
154.5
 20
12.50000000000001
 30
0.0
 40
0.3000000000000966
  0
CIRCLE
  5
9C
330
48
100
AcDbEntity
  8
1
  6
Continuous
 62
     7
100
AcDbCircle
 10
187.0
 20
23.50000000000002
 30
0.0
 40
1.200000000000102
  0
CIRCLE
  5
9D
330
48
100
AcDbEntity
  8
1
  6
Continuous
 62
     7
100
AcDbCircle
 10
187.0
 20
23.50000000000002
 30
0.0
 40
2.0
  0
CIRCLE
  5
9E
330
48
100
AcDbEntity
  8
1
  6
DOT_CENTER
 62
     7
100
AcDbCircle
 10
89.5
 20
16.00000000000001
 30
0.0
 40
0.1000000000000227
  0
CIRCLE
  5
9F
330
48
100
AcDbEntity
  8
1
  6
DOT_CENTER
 62
     7
100
AcDbCircle
 10
89.5
 20
18.00000000000001
 30
0.0
 40
0.1000000000000227
  0
SPLINE
  5
A0
102
{ACAD_REACTORS
330
BF
102
}
330
48
100
AcDbEntity
  8
_U_30EC_U_30A4_U_30E4_U_30FC_1
  6
Continuous
 62
     2
100
AcDbSpline
210
0.0
220
0.0
230
1.0
 70
     8
 71
     3
 72
    24
 73
    20
 74
    18
 42
0.000000001
 43
0.0000000001
 44
0.00000001
 40
0.0
 40
0.0
 40
0.0
 40
0.0
 40
0.2211075008753968
 40
0.4273218586245324
 40
0.5080174679239574
 40
0.591483590787046
 40
0.8143265690192837
 40
1.054651302686585
 40
1.295452694023179
 40
1.518109231328833
 40
1.54086432190542
 40
1.595126460622681
 40
1.659890947895995
 40
1.714153085187298
 40
1.736908174961598
 40
1.764951100735243
 40
1.801562291220804
 40
1.953914424543497
 40
2.126104167379559
 40
2.126104167379559
 40
2.126104167379559
 40
2.126104167379559
 10
185.937536955689
 20
15.58989295113017
 30
0.0
 10
185.9112579081813
 20
15.53097628234375
 30
0.0
 10
185.8604698894426
 20
15.41711139679259
 30
0.0
 10
185.8131784839113
 20
15.14441958233117
 30
0.0
 10
185.7043482802619
 20
15.24445482575455
 30
0.0
 10
185.5514800279638
 20
15.27118593367331
 30
0.0
 10
185.76861551812
 20
15.48518135017633
 30
0.0
 10
185.7838483674381
 20
15.70332117782489
 30
0.0
 10
185.8906889492001
 20
15.88451579066425
 30
0.0
 10
185.8305380947077
 20
16.16913226311402
 30
0.0
 10
185.9334317395403
 20
16.1411408922245
 30
0.0
 10
185.977993346815
 20
16.13243251602299
 30
0.0
 10
186.0380842395397
 20
16.12139654183356
 30
0.0
 10
186.0756619587438
 20
16.10767523055559
 30
0.0
 10
186.1252466928606
 20
16.10756076160224
 30
0.0
 10
186.0930158919325
 20
16.07306592398623
 30
0.0
 10
186.0171802221882
 20
16.08404104537966
 30
0.0
 10
186.0429447159693
 20
15.89858969582451
 30
0.0
 10
186.005589676385
 20
15.8070231354959
 30
0.0
 10
185.985770496161
 20
15.75844135397706
 30
0.0
 11
185.937536955689
 21
15.58989295113017
 31
0.0
 11
185.8616471328553
 21
15.3822170831856
 31
0.0
 11
185.7717402238434
 21
15.19663392356193
 31
0.0
 11
185.701149392311
 21
15.23573272563551
 31
0.0
 11
185.6245525192652
 21
15.2688916318772
 31
0.0
 11
185.7214026947456
 21
15.46958801203539
 31
0.0
 11
185.7994641467471
 21
15.69688163177024
 31
0.0
 11
185.8589716929721
 21
15.93021436608692
 31
0.0
 11
185.9001601511227
 21
16.14902808999054
 31
0.0
 11
185.9224183822215
 21
16.14429889221395
 31
0.0
 11
185.975495702534
 21
16.13302157443899
 31
0.0
 11
186.0388460525845
 21
16.11956154999792
 31
0.0
 11
186.091923372897
 21
16.10828423222296
 31
0.0
 11
186.1141816039958
 21
16.10355503444637
 31
0.0
 11
186.0964097157461
 21
16.0818625084101
 31
0.0
 11
186.0606122998072
 21
16.07418628445368
 31
0.0
 11
186.028195330148
 21
15.92532288171314
 31
0.0
 11
185.985770496161
 21
15.75844135397706
 31
0.0
  0
SPLINE
  5
A1
102
{ACAD_REACTORS
330
BF
102
}
330
48
100
AcDbEntity
  8
_U_30EC_U_30A4_U_30E4_U_30FC_1
  6
Continuous
 62
     2
100
AcDbSpline
210
0.0
220
0.0
230
1.0
 70
     8
 71
     3
 72
    70
 73
    66
 74
    64
 42
0.000000001
 43
0.0000000001
 44
0.00000001
 40
0.0
 40
0.0
 40
0.0
 40
0.0
 40
0.0241731073021472
 40
0.0846058988987297
 40
0.1631685280353284
 40
0.2417311571789756
 40
0.3021639488292751
 40
0.3263370654895825
 40
0.3533118254249183
 40
0.4228783438922395
 40
0.5179999095313687
 40
0.6216398239466386
 40
0.716761389149999
 40
0.7863279069650148
 40
0.813302679176212
 40
0.8372943998771958
 40
0.894505426137287
 40
0.962789554196264
 40
1.020000580349074
 40
1.043992300975172
 40
1.071934345522908
 40
1.113121768773
 40
1.145225199332324
 40
1.225483775412859
 40
1.329819923771569
 40
1.434156071994459
 40
1.514414647795879
 40
1.546518078208487
 40
1.57897476426026
 40
1.662678849314255
 40
1.777131373668504
 40
1.901833377474923
 40
2.016285900500741
 40
2.099989982528109
 40
2.132446666570467
 40
2.158782354486191
 40
2.21672086790798
 40
2.274659381334405
 40
2.300995069256337
 40
2.333451754066309
 40
2.417155836544018
 40
2.531608358985458
 40
2.656310362283981
 40
2.770762886389114
 40
2.854466971340307
 40
2.886923657364114
 40
2.913597976833548
 40
2.98238964287535
 40
3.076451716947216
 40
3.178937260458828
 40
3.272999334740233
 40
3.341791001059456
 40
3.368465320663769
 40
3.39697608073899
 40
3.472140811846226
 40
3.578408190308916
 40
3.700226892456352
 40
3.822045594634569
 40
3.928312973256676
 40
4.003477705315073
 40
4.031988456867139
 40
4.058324144797937
 40
4.116262658237098
 40
4.174201171400898
 40
4.20053684960883
 40
4.20053684960883
 40
4.20053684960883
 40
4.20053684960883
 10
185.985770496161
 20
15.75844135397706
 30
0.0
 10
185.993825954468
 20
15.75844359811688
 30
0.0
 10
186.0220200663242
 20
15.75845146032799
 30
0.0
 10
186.0765534803674
 20
15.75830754828373
 30
0.0
 10
186.1482891808604
 20
15.75909120499898
 30
0.0
 10
186.2236240137063
 20
15.75627570463812
 30
0.0
 10
186.2713052366439
 20
15.76298403400958
 30
0.0
 10
186.3195071245617
 20
15.75197563692432
 30
0.0
 10
186.3062571799875
 20
15.80546402997035
 30
0.0
 10
186.3151093964538
 20
15.86049583543092
 30
0.0
 10
186.3108698036287
 20
15.95419908726111
 30
0.0
 10
186.313348348128
 20
16.04959482218533
 30
0.0
 10
186.3090938706062
 20
16.14356821983388
 30
0.0
 10
186.3179818665847
 20
16.19795062438013
 30
0.0
 10
186.3046977409946
 20
16.25233997691461
 30
0.0
 10
186.351411927711
 20
16.23842216335359
 30
0.0
 10
186.3943254545738
 20
16.24103877374045
 30
0.0
 10
186.4605443456686
 20
16.23648422450755
 30
0.0
 10
186.5013342271799
 20
16.22778162134163
 30
0.0
 10
186.5525145690819
 20
16.23531799890196
 30
0.0
 10
186.5253720487201
 20
16.19349970223282
 30
0.0
 10
186.4803096055706
 20
16.20284992072601
 30
0.0
 10
186.4942065045052
 20
16.13841207371838
 30
0.0
 10
186.4858414431653
 20
16.073782196274
 30
0.0
 10
186.4903632178398
 20
15.97529141193889
 30
0.0
 10
186.4854741311167
 20
15.87595932842571
 30
0.0
 10
186.4950258992082
 20
15.8129311555297
 30
0.0
 10
186.47997614552
 20
15.7496401149979
 30
0.0
 10
186.5449159457208
 20
15.7651507294427
 30
0.0
 10
186.6116246399497
 20
15.75499387697813
 30
0.0
 10
186.7241435470827
 20
15.75988800099368
 30
0.0
 10
186.8390235448954
 20
15.75691204732784
 30
0.0
 10
186.9519871999747
 20
15.76221664184992
 30
0.0
 10
187.0176267597679
 20
15.7510730647209
 30
0.0
 10
187.0816276691054
 20
15.76744532319858
 30
0.0
 10
187.070314288919
 20
15.71761689905276
 30
0.0
 10
187.077533987151
 20
15.67416715212124
 30
0.0
 10
187.070314261127
 20
15.63071745587446
 30
0.0
 10
187.0816277175995
 20
15.58088895196877
 30
0.0
 10
187.0176263598972
 20
15.59726166091363
 30
0.0
 10
186.951992124046
 20
15.58611271661589
 30
0.0
 10
186.8389974317332
 20
15.59144857206855
 30
0.0
 10
186.7242456548643
 20
15.58834345663822
 30
0.0
 10
186.6113183686861
 20
15.5936489468259
 30
0.0
 10
186.5455220903584
 20
15.58257300019593
 30
0.0
 10
186.4816097975358
 20
15.59887597847619
 30
0.0
 10
186.4936015165125
 20
15.54423524395742
 30
0.0
 10
186.4862104613006
 20
15.48854295047843
 30
0.0
 10
186.4892684841983
 20
15.39649689140571
 30
0.0
 10
186.4893422785683
 20
15.30179109873102
 30
0.0
 10
186.486031357836
 20
15.20952782902266
 30
0.0
 10
186.4939505989904
 20
15.15435768736141
 30
0.0
 10
186.4815076611617
 20
15.10058169100137
 30
0.0
 10
186.5389116551631
 20
15.11453768862782
 30
0.0
 10
186.5994708140383
 20
15.10511457884227
 30
0.0
 10
186.7048680855081
 20
15.10942885928705
 30
0.0
 10
186.8204294070622
 20
15.10835504612032
 30
0.0
 10
186.9359688877797
 20
15.10725965900995
 30
0.0
 10
187.0414181130841
 20
15.11162525770633
 30
0.0
 10
187.1018680471804
 20
15.10209426030672
 30
0.0
 10
187.159283773911
 20
15.1161728960638
 30
0.0
 10
187.1477773876709
 20
15.06707153265684
 30
0.0
 10
187.153756678175
 20
15.0256465801865
 30
0.0
 10
187.1520311050801
 20
14.97651677966696
 30
0.0
 10
187.1521500122971
 20
14.94854428447609
 30
0.0
 10
187.1521871691833
 20
14.93980288195951
 30
0.0
 11
185.985770496161
 21
15.75844135397706
 31
0.0
 11
186.0099436128282
 21
15.75844135397706
 31
0.0
 11
186.0703764044964
 21
15.75844135397706
 31
0.0
 11
186.1489390336649
 21
15.75844135397706
 31
0.0
 11
186.2275016628334
 21
15.75844135397706
 31
0.0
 11
186.2879344545015
 21
15.75844135397706
 31
0.0
 11
186.3121075711688
 21
15.75844135397706
 31
0.0
 11
186.3121075711688
 21
15.78541612620064
 31
0.0
 11
186.3121075711688
 21
15.8549826440404
 31
0.0
 11
186.3121075711688
 21
15.95010420924986
 31
0.0
 11
186.3121075711688
 21
16.05374412358257
 31
0.0
 11
186.3121075711688
 21
16.14886568879203
 31
0.0
 11
186.3121075711688
 21
16.21843220663179
 31
0.0
 11
186.3121075711688
 21
16.24540697885537
 31
0.0
 11
186.3360407604893
 21
16.24373213107801
 31
0.0
 11
186.3931122119459
 21
16.23973826330122
 31
0.0
 11
186.4612297507811
 21
16.23497138885796
 31
0.0
 11
186.5183012022377
 21
16.23097752108118
 31
0.0
 11
186.5422343915582
 21
16.22930267330382
 31
0.0
 11
186.527497273123
 21
16.20556293372641
 31
0.0
 11
186.4886640249976
 21
16.19183767331313
 31
0.0
 11
186.4886640249976
 21
16.1597342422512
 31
0.0
 11
186.4886640249976
 21
16.07947566459637
 31
0.0
 11
186.4886640249976
 21
15.97513951364509
 31
0.0
 11
186.4886640249976
 21
15.87080336269382
 31
0.0
 11
186.4886640249976
 21
15.79054478503899
 31
0.0
 11
186.4886640249976
 21
15.75844135397706
 31
0.0
 11
186.5211207110824
 21
15.75844135397706
 31
0.0
 11
186.6048247962486
 21
15.75844135397706
 31
0.0
 11
186.7192773208635
 21
15.75844135397706
 31
0.0
 11
186.8439793252946
 21
15.75844135397706
 31
0.0
 11
186.9584318499095
 21
15.75844135397706
 31
0.0
 11
187.0421359350757
 21
15.75844135397706
 31
0.0
 11
187.0745926211605
 21
15.75844135397706
 31
0.0
 11
187.0745926211605
 21
15.73210566604962
 31
0.0
 11
187.0745926211605
 21
15.67416715260926
 31
0.0
 11
187.0745926211605
 21
15.61622863916889
 31
0.0
 11
187.0745926211605
 21
15.58989295124145
 31
0.0
 11
187.0421359350757
 21
15.58989295124145
 31
0.0
 11
186.9584318499095
 21
15.58989295124145
 31
0.0
 11
186.8439793252946
 21
15.58989295124145
 31
0.0
 11
186.7192773208635
 21
15.58989295124145
 31
0.0
 11
186.6048247962486
 21
15.58989295124145
 31
0.0
 11
186.5211207110824
 21
15.58989295124145
 31
0.0
 11
186.4886640249976
 21
15.58989295124145
 31
0.0
 11
186.4886640249976
 21
15.56321863152023
 31
0.0
 11
186.4886640249976
 21
15.49442696487076
 31
0.0
 11
186.4886640249976
 21
15.40036489006435
 31
0.0
 11
186.4886640249976
 21
15.29787934587229
 31
0.0
 11
186.4886640249976
 21
15.20381727106587
 31
0.0
 11
186.4886640249976
 21
15.1350256044164
 31
0.0
 11
186.4886640249976
 21
15.10835128469518
 31
0.0
 11
186.5171747850993
 21
15.10835128469518
 31
0.0
 11
186.5923395162766
 21
15.10835128469518
 31
0.0
 11
186.6986068948376
 21
15.10835128469518
 31
0.0
 11
186.8204255970904
 21
15.10835128469518
 31
0.0
 11
186.9422442993433
 21
15.10835128469518
 31
0.0
 11
187.0485116779043
 21
15.10835128469518
 31
0.0
 11
187.1236764090816
 21
15.10835128469518
 31
0.0
 11
187.1521871691833
 21
15.10835128469518
 31
0.0
 11
187.1521871691833
 21
15.08201559676773
 31
0.0
 11
187.1521871691833
 21
15.02407708332735
 31
0.0
 11
187.1521871691833
 21
14.96613856988696
 31
0.0
 11
187.1521871691833
 21
14.93980288195951
 31
0.0
  0
SPLINE
  5
A2
102
{ACAD_REACTORS
330
BF
102
}
330
48
100
AcDbEntity
  8
_U_30EC_U_30A4_U_30E4_U_30FC_1
  6
Continuous
 62
     2
100
AcDbSpline
210
0.0
220
0.0
230
1.0
 70
     8
 71
     3
 72
    62
 73
    58
 74
    56
 42
0.000000001
 43
0.0000000001
 44
0.00000001
 40
0.0
 40
0.0
 40
0.0
 40
0.0
 40
0.0598250028308485
 40
0.2024846486897331
 40
0.3727558389221031
 40
0.515415484793607
 40
0.5752404975785339
 40
0.9332326775487413
 40
1.290451762839509
 40
1.60207725314593
 40
1.699931634112227
 40
1.79935975642517
 40
2.270120149657177
 40
2.80466192846167
 40
2.882342287383382
 40
3.076543185719231
 40
3.329004354835696
 40
3.581465524568522
 40
3.775666424543806
 40
3.853346784558425
 40
3.899120679595171
 40
3.984129341792055
 40
4.029903236817404
 40
4.105797496059559
 40
4.295533144152518
 40
4.542189486611763
 40
4.788845828875711
 40
4.978581476410096
 40
5.054475735244338
 40
5.62173466433937
 40
6.130867242037382
 40
6.225249780948675
 40
6.318913039727371
 40
6.663579954559037
 40
7.047498900224848
 40
7.435230791575783
 40
7.498943906668195
 40
7.650875181210132
 40
7.832212509001614
 40
7.984143783697
 40
8.047856898903127
 40
8.091554632732633
 40
8.17270756696429
 40
8.216405300768013
 40
8.289021782160898
 40
8.462184160757243
 40
8.668861838005409
 40
8.842024215263972
 40
8.914640695475168
 40
8.989881580861375
 40
9.155411528827281
 40
9.320941477744064
 40
9.396182352487317
 40
9.454709011143807
 40
9.583467660170827
 40
9.71222630901305
 40
9.770752957989531
 40
9.770752957989531
 40
9.770752957989531
 40
9.770752957989531
 10
187.1521871691833
 20
14.93980288195951
 30
0.0
 10
187.1322348171623
 20
14.93980875568673
 30
0.0
 10
187.0647037716466
 20
14.93982863806158
 30
0.0
 10
186.9410612161788
 20
14.93949362520326
 30
0.0
 10
186.7863180150056
 20
14.94107673750513
 30
0.0
 10
186.669734948248
 20
14.93686078860496
 30
0.0
 10
186.4550942634239
 20
14.95215205331627
 30
0.0
 10
186.8518948407229
 20
14.59198721286193
 30
0.0
 10
186.8945656069267
 20
14.37510503397167
 30
0.0
 10
187.3189162146613
 20
14.19325062511444
 30
0.0
 10
187.1439821496074
 20
14.08985196568074
 30
0.0
 10
187.0194523925084
 20
13.87831523212725
 30
0.0
 10
186.7666277235944
 20
14.34806081001568
 30
0.0
 10
186.4797602893626
 20
14.99511516984523
 30
0.0
 10
186.490633592666
 20
14.68782672154695
 30
0.0
 10
186.488289277796
 20
14.52288616971779
 30
0.0
 10
186.4861096126411
 20
14.28879670711694
 30
0.0
 10
186.4980774396346
 20
14.04498072421784
 30
0.0
 10
186.4687984740631
 20
13.89855796860985
 30
0.0
 10
186.511452262547
 20
13.75113490174539
 30
0.0
 10
186.423981400564
 20
13.7668579730622
 30
0.0
 10
186.3768527606745
 20
13.76694303543455
 30
0.0
 10
186.2898973207714
 20
13.7510942548291
 30
0.0
 10
186.3313474021725
 20
13.89527771422763
 30
0.0
 10
186.3029875004285
 20
14.03855052698456
 30
0.0
 10
186.3145973775301
 20
14.27674947365266
 30
0.0
 10
186.3124175648273
 20
14.50517235240347
 30
0.0
 10
186.3103111127995
 20
14.66705729375996
 30
0.0
 10
186.3208035438325
 20
14.98153709333754
 30
0.0
 10
186.0128963252893
 20
14.29229470872432
 30
0.0
 10
185.7055258267458
 20
13.81476750243063
 30
0.0
 10
185.5851367066274
 20
14.03741112637425
 30
0.0
 10
185.4074607910722
 20
14.1501103495557
 30
0.0
 10
185.8853326362895
 20
14.32548143465457
 30
0.0
 10
185.9353959057208
 20
14.56091929252035
 30
0.0
 10
186.3583799621718
 20
14.95322989344609
 30
0.0
 10
186.1276754273539
 20
14.93655307029066
 30
0.0
 10
186.0049685859342
 20
14.94269518948772
 30
0.0
 10
185.8325483095662
 20
14.93312822699575
 30
0.0
 10
185.721322469445
 20
14.95448818489667
 30
0.0
 10
185.6025779627449
 20
14.92136265357421
 30
0.0
 10
185.6183169706686
 20
15.00203900606884
 30
0.0
 10
185.6178550933763
 20
15.04645414290855
 30
0.0
 10
185.6027881889932
 20
15.12967081778534
 30
0.0
 10
185.7372380935444
 20
15.09062651983884
 30
0.0
 10
185.8619755545747
 20
15.11739729328423
 30
0.0
 10
186.0628755237281
 20
15.10063949044053
 30
0.0
 10
186.1921540949354
 20
15.12204225913005
 30
0.0
 10
186.3328419928295
 20
15.08868778853421
 30
0.0
 10
186.2980927452618
 20
15.22651875785069
 30
0.0
 10
186.3222185666713
 20
15.34963257349482
 30
0.0
 10
186.2967086182393
 20
15.47024055670335
 30
0.0
 10
186.3333251146686
 20
15.60539865141494
 30
0.0
 10
186.2211417027771
 20
15.58094545781892
 30
0.0
 10
186.1280356457137
 20
15.59307749842024
 30
0.0
 10
186.0191547579821
 20
15.58957630069995
 30
0.0
 10
185.9569697640965
 20
15.58981755951603
 30
0.0
 10
185.9375369557247
 20
15.58989295124145
 30
0.0
 11
187.1521871691833
 21
14.93980288195951
 31
0.0
 11
187.0923621563982
 21
14.93980288195951
 31
0.0
 11
186.949702510526
 21
14.93980288195951
 31
0.0
 11
186.7794313202913
 21
14.93980288195951
 31
0.0
 11
186.6367716744191
 21
14.93980288195951
 31
0.0
 11
186.576946661634
 21
14.93980288195951
 31
0.0
 11
186.7679960754843
 21
14.63705127966892
 31
0.0
 11
186.994127278563
 21
14.36051890576685
 31
0.0
 11
187.2244526173372
 21
14.15061253493458
 31
0.0
 11
187.1521596330704
 21
14.08466403668717
 31
0.0
 11
187.0879364402643
 21
14.0087605905256
 31
0.0
 11
186.7732818215559
 21
14.35891458349364
 31
0.0
 11
186.4886640249976
 21
14.81138295143602
 31
0.0
 11
186.4886640249976
 21
14.73370259137314
 31
0.0
 11
186.4886640249976
 21
14.53950169121594
 31
0.0
 11
186.4886640249976
 21
14.28704052101157
 31
0.0
 11
186.4886640249976
 21
14.03457935080721
 31
0.0
 11
186.4886640249976
 21
13.84037845065001
 31
0.0
 11
186.4886640249976
 21
13.76269809058713
 31
0.0
 11
186.4428901295605
 21
13.76269809058713
 31
0.0
 11
186.3578814666059
 21
13.76269809058713
 31
0.0
 11
186.3121075711688
 21
13.76269809058713
 31
0.0
 11
186.3121075711688
 21
13.83859234982741
 31
0.0
 11
186.3121075711688
 21
14.02832799792812
 31
0.0
 11
186.3121075711688
 21
14.27498434045905
 31
0.0
 11
186.3121075711688
 21
14.52164068298997
 31
0.0
 11
186.3121075711688
 21
14.71137633109068
 31
0.0
 11
186.3121075711688
 21
14.78727059033096
 31
0.0
 11
185.9987626399267
 21
14.31440946197694
 31
0.0
 11
185.6352328662149
 21
13.95795177109383
 31
0.0
 11
185.5773927461627
 21
14.03253450545023
 31
0.0
 11
185.5094852305341
 21
14.09704322939243
 31
0.0
 11
185.775072189832
 21
14.3167221979589
 31
0.0
 11
186.0233764972061
 21
14.60953395971698
 31
0.0
 11
186.226498280526
 21
14.93980288195951
 31
0.0
 11
186.1627851652721
 21
14.93980288195951
 31
0.0
 11
186.0108538904359
 21
14.93980288195951
 31
0.0
 11
185.8295165624056
 21
14.93980288195951
 31
0.0
 11
185.6775852875694
 21
14.93980288195951
 31
0.0
 11
185.6138721723155
 21
14.93980288195951
 31
0.0
 11
185.6138721723155
 21
14.98350061600209
 31
0.0
 11
185.6138721723155
 21
15.0646535506526
 31
0.0
 11
185.6138721723155
 21
15.10835128469518
 31
0.0
 11
185.6864886537962
 21
15.10835128469518
 31
0.0
 11
185.8596510327119
 21
15.10835128469518
 31
0.0
 11
186.0663287107725
 21
15.10835128469518
 31
0.0
 11
186.2394910896881
 21
15.10835128469518
 31
0.0
 11
186.3121075711688
 21
15.10835128469518
 31
0.0
 11
186.3121075711688
 21
15.18359217009304
 31
0.0
 11
186.3121075711688
 21
15.34912211796832
 31
0.0
 11
186.3121075711688
 21
15.5146520658436
 31
0.0
 11
186.3121075711688
 21
15.58989295124145
 31
0.0
 11
186.2535809125057
 21
15.58989295124145
 31
0.0
 11
186.1248222634468
 21
15.58989295124145
 31
0.0
 11
185.9960636143879
 21
15.58989295124145
 31
0.0
 11
185.9375369557247
 21
15.58989295124145
 31
0.0
  0
SPLINE
  5
A3
102
{ACAD_REACTORS
330
C0
102
}
330
48
100
AcDbEntity
  8
_U_30EC_U_30A4_U_30E4_U_30FC_1
  6
Continuous
 62
     2
100
AcDbSpline
210
0.0
220
0.0
230
1.0
 70
    11
 71
     3
 72
   124
 73
   120
 74
   118
 42
0.000000001
 43
0.0000000001
 44
0.00000001
 40
0.0
 40
0.0
 40
0.0
 40
0.0
 40
0.0278187229624226
 40
0.1011590162383985
 40
0.2048470170589954
 40
0.3237088716558677
 40
0.4425707262521431
 40
0.5462587270698694
 40
0.6195990203311229
 40
0.6474177522577808
 40
0.6750060736114372
 40
0.7357003855241888
 40
0.7963946998053621
 40
0.8239830245570914
 40
0.8540933811102007
 40
0.9373396629408688
 40
1.063094687343121
 40
1.220731268637959
 40
1.399622220914634
 40
1.589140358637618
 40
1.778658496423728
 40
1.957549448940367
 40
2.115186030872988
 40
2.240941056914292
 40
2.324187341760362
 40
2.354297700109211
 40
2.381886024671718
 40
2.442580338710305
 40
2.503274652750327
 40
2.530862977314436
 40
2.560983949278389
 40
2.640393784452734
 40
2.752662861758957
 40
2.881361560117946
 40
3.010060258454993
 40
3.122329335705197
 40
3.201739170817754
 40
3.231860142753143
 40
3.264298024030199
 40
3.352343701778069
 40
3.482095226868592
 40
3.639650650172851
 40
3.811108022565308
 40
3.982565394927815
 40
4.140120818152396
 40
4.269872343141105
 40
4.357918020802168
 40
4.390355902043795
 40
4.423256253992364
 40
4.508104530072857
 40
4.624121560636625
 40
4.750528176031353
 40
4.866545206601828
 40
4.951393482691786
 40
4.984293834645187
 40
5.011450833242102
 40
5.07119623015189
 40
5.130941627056965
 40
5.158098625648631
 40
5.190998977601294
 40
5.275847253689119
 40
5.391864284256582
 40
5.518270899648098
 40
5.634287930209109
 40
5.719136206287783
 40
5.752036558235699
 40
5.782130946282725
 40
5.862783906228898
 40
5.979550131774766
 40
6.117984316640171
 40
6.263641154587718
 40
6.402075339413922
 40
6.518841564907718
 40
6.5994945248153
 40
6.629588912848537
 40
6.654403028226114
 40
6.713575149487881
 40
6.784199939329228
 40
6.84337206049333
 40
6.868186175802547
 40
6.896246243201655
 40
6.939586233757995
 40
6.967846564564623
 40
7.043584251089562
 40
7.153234334451422
 40
7.283231855734171
 40
7.420011856035203
 40
7.550009376579554
 40
7.659659458834954
 40
7.735397144416948
 40
7.76365747485112
 40
7.796409728010777
 40
7.880876065096051
 40
7.996370852465437
 40
8.122208446418332
 40
8.237703224798926
 40
8.322169562010648
 40
8.354921815205634
 40
8.382078813307414
 40
8.441824209206722
 40
8.50156960523987
 40
8.52872660348545
 40
8.561478856695471
 40
8.645945193877521
 40
8.761439980865061
 40
8.887277580764204
 40
9.002772362000725
 40
9.087238696660917
 40
9.1199909492354
 40
9.152428830613099
 40
9.240474508638313
 40
9.370226034149264
 40
9.527781457984148
 40
9.699238830981134
 40
9.870696203978326
 40
10.02825162781375
 40
10.15800315332537
 40
10.24604883135091
 40
10.27848670378494
 40
10.27848670378494
 40
10.27848670378494
 40
10.27848670378494
 10
195.3821827564384
 20
14.01410517385758
 30
0.0
 10
195.3914554737524
 20
14.01410498511275
 30
0.0
 10
195.4251744536861
 20
14.01410430876715
 30
0.0
 10
195.4934706812466
 20
14.01411807243305
 30
0.0
 10
195.592014171158
 20
14.01403224219546
 30
0.0
 10
195.7062066464812
 20
14.01441755612251
 30
0.0
 10
195.8185894417071
 20
14.01300835897546
 30
0.0
 10
195.9214376600119
 20
14.01719117422244
 30
0.0
 10
195.9806839874848
 20
14.00823089251983
 30
0.0
 10
196.0371265937033
 20
14.02164434526061
 30
0.0
 10
196.0246255586955
 20
13.97087198613362
 30
0.0
 10
196.0329549635703
 20
13.92589320939068
 30
0.0
 10
196.024817084112
 20
13.88056752990489
 30
0.0
 10
196.0370529214457
 20
13.82931932408467
 30
0.0
 10
195.9747773490333
 20
13.84447955365277
 30
0.0
 10
195.9060513026868
 20
13.83359750710744
 30
0.0
 10
195.7782756749592
 20
13.83911304747973
 30
0.0
 10
195.6262984511643
 20
13.837008512537
 30
0.0
 10
195.4502695972523
 20
13.83771002588474
 30
0.0
 10
195.2644431934287
 20
13.83745237531293
 30
0.0
 10
195.0786167437176
 20
13.83771005144604
 30
0.0
 10
194.9025880142169
 20
13.83700841847732
 30
0.0
 10
194.7506104154195
 20
13.83911332229989
 30
0.0
 10
194.6228357664555
 20
13.83359680767641
 30
0.0
 10
194.5541077836582
 20
13.84448077125944
 30
0.0
 10
194.4918349042884
 20
13.8293178668421
 30
0.0
 10
194.5040616290019
 20
13.88057510805173
 30
0.0
 10
194.4960004462597
 20
13.92582473272426
 30
0.0
 10
194.5040675809894
 20
13.97106357955324
 30
0.0
 10
194.4918238487084
 20
14.02234176909959
 30
0.0
 10
194.5525017120698
 20
14.00749577363135
 30
0.0
 10
194.6162810745737
 20
14.01756448170736
 30
0.0
 10
194.7277314353503
 20
14.01294644212
 30
0.0
 10
194.8497533443824
 20
14.0141332890547
 30
0.0
 10
194.9719538137824
 20
14.01515863900635
 30
0.0
 10
195.0829794287392
 20
14.01092475623402
 30
0.0
 10
195.1476517413959
 20
14.02018584521739
 30
0.0
 10
195.2091162810502
 20
14.00604423049683
 30
0.0
 10
195.1930065601338
 20
14.07235527884517
 30
0.0
 10
195.2042980327359
 20
14.14447790121977
 30
0.0
 10
195.1987400822561
 20
14.27513760888286
 30
0.0
 10
195.2008035061691
 20
14.42607323708242
 30
0.0
 10
195.2000167127295
 20
14.59335873107887
 30
0.0
 10
195.2007845215628
 20
14.76061110332303
 30
0.0
 10
195.1988038785629
 20
14.91163289269915
 30
0.0
 10
195.2041306156621
 20
15.04206069552996
 30
0.0
 10
195.1933101388426
 20
15.114654426059
 30
0.0
 10
195.2090326429876
 20
15.18150469436799
 30
0.0
 10
195.1432708132491
 20
15.16580512490826
 30
0.0
 10
195.0756367830765
 20
15.17609243083996
 30
0.0
 10
194.9615885293811
 20
15.17113786847123
 30
0.0
 10
194.8451242674903
 20
15.17414128030476
 30
0.0
 10
194.7306554121478
 20
15.1688030314339
 30
0.0
 10
194.6640324657813
 20
15.18001268074826
 30
0.0
 10
194.5990769715186
 20
15.16349132665012
 30
0.0
 10
194.610798975871
 20
15.2147372047706
 30
0.0
 10
194.6032830189121
 20
15.25950333784091
 30
0.0
 10
194.6107989878837
 20
15.30426944897962
 30
0.0
 10
194.5990769505347
 20
15.35551536129741
 30
0.0
 10
194.6640326339201
 20
15.33899381766817
 30
0.0
 10
194.7306533339822
 20
15.35020571373944
 30
0.0
 10
194.8451352858065
 20
15.34485436710665
 30
0.0
 10
194.9615454436963
 20
15.34791188771118
 30
0.0
 10
195.0757660174641
 20
15.34278499010709
 30
0.0
 10
195.1430150439228
 20
15.353457333556
 30
0.0
 10
195.2083325941439
 20
15.33742082669078
 30
0.0
 10
195.1941391448553
 20
15.39949685750054
 30
0.0
 10
195.2036059462997
 20
15.46586761628764
 30
0.0
 10
195.1990269004085
 20
15.58239972741967
 30
0.0
 10
195.2007696555949
 20
15.71426685022377
 30
0.0
 10
195.1997551495392
 20
15.85615960150274
 30
0.0
 10
195.2017191344373
 20
15.98769050702581
 30
0.0
 10
195.1964668553851
 20
16.10524577283002
 30
0.0
 10
195.2073408763476
 20
16.16947789001586
 30
0.0
 10
195.1919536641854
 20
16.23108802545048
 30
0.0
 10
195.2407591537801
 20
16.21702407382111
 30
0.0
 10
195.2853995564727
 20
16.21954742075315
 30
0.0
 10
195.3538643946742
 20
16.21512797401709
 30
0.0
 10
195.3959106169103
 20
16.20613025544036
 30
0.0
 10
195.4487544758776
 20
16.21411714866509
 30
0.0
 10
195.4207035002013
 20
16.17113917611677
 30
0.0
 10
195.3749142248595
 20
16.18259552043835
 30
0.0
 10
195.3869539073265
 20
16.12173520005138
 30
0.0
 10
195.3796086070642
 20
16.05769299468773
 30
0.0
 10
195.3831195826162
 20
15.94909368863912
 30
0.0
 10
195.3819806760175
 20
15.82494319144753
 30
0.0
 10
195.3819174780264
 20
15.69189719829879
 30
0.0
 10
195.3832872966868
 20
15.56797381249557
 30
0.0
 10
195.3791638801314
 20
15.45868337849339
 30
0.0
 10
195.3877763103565
 20
15.39608580094171
 30
0.0
 10
195.3746757454402
 20
15.33740133296367
 30
0.0
 10
195.4393884328199
 20
15.35362113810903
 30
0.0
 10
195.5060405953157
 20
15.34270260383312
 30
0.0
 10
195.6198779541103
 20
15.34793740173757
 30
0.0
 10
195.7357259122097
 20
15.34485547516914
 30
0.0
 10
195.8496924263281
 20
15.35018259812513
 30
0.0
 10
195.9160341018099
 20
15.33904208166544
 30
0.0
 10
195.9807188525481
 20
15.35546979593178
 30
0.0
 10
195.9689820772723
 20
15.30425925210052
 30
0.0
 10
195.9765168063042
 20
15.25950334121002
 30
0.0
 10
195.9689820992258
 20
15.21474739010028
 30
0.0
 10
195.9807188140738
 20
15.16353690871042
 30
0.0
 10
195.9160344075253
 20
15.1799642779422
 30
0.0
 10
195.8496886430826
 20
15.16882784447271
 30
0.0
 10
195.7357459487013
 20
15.17413115893121
 30
0.0
 10
195.6197995623055
 20
15.17114764593545
 30
0.0
 10
195.5062756882124
 20
15.17606892268394
 30
0.0
 10
195.4389231318805
 20
15.16585087513521
 30
0.0
 10
195.3734285122496
 20
15.18145996138817
 30
0.0
 10
195.3891713619219
 20
15.11463851827413
 30
0.0
 10
195.3783275998214
 20
15.04207057815879
 30
0.0
 10
195.3836581629793
 20
14.91162247614417
 30
0.0
 10
195.3817136151856
 20
14.76064558185226
 30
0.0
 10
195.3823133683214
 20
14.59322243934159
 30
0.0
 10
195.3821506559606
 20
14.42656176118373
 30
0.0
 10
195.3821895488136
 20
14.27360142921636
 30
0.0
 10
195.38218164131
 20
14.14849178985706
 30
0.0
 10
195.3821828382745
 20
14.06507890991421
 30
0.0
 10
195.3821827716209
 20
14.02491778281976
 30
0.0
 10
195.3821827564384
 20
14.01410517385758
 30
0.0
 11
195.3821827564384
 21
14.01410517385758
 31
0.0
 11
195.4100014883675
 21
14.01410517385758
 31
0.0
 11
195.4833417816353
 21
14.01410517385758
 31
0.0
 11
195.5870297824623
 21
14.01410517385758
 31
0.0
 11
195.7058916370687
 21
14.01410517385758
 31
0.0
 11
195.8247534916752
 21
14.01410517385758
 31
0.0
 11
195.928441492502
 21
14.01410517385758
 31
0.0
 11
196.0017817857699
 21
14.01410517385758
 31
0.0
 11
196.029600517699
 21
14.01410517385758
 31
0.0
 11
196.029600517699
 21
13.98651684921171
 31
0.0
 11
196.029600517699
 21
13.92582253499078
 31
0.0
 11
196.029600517699
 21
13.86512822076985
 31
0.0
 11
196.029600517699
 21
13.83753989612398
 31
0.0
 11
195.9994901593494
 21
13.83753989612398
 31
0.0
 11
195.9162438745004
 21
13.83753989612398
 31
0.0
 11
195.7904888484521
 21
13.83753989612398
 31
0.0
 11
195.6328522665042
 21
13.83753989612398
 31
0.0
 11
195.4539613139565
 21
13.83753989612398
 31
0.0
 11
195.2644431761089
 21
13.83753989612398
 31
0.0
 11
195.0749250382613
 21
13.83753989612398
 31
0.0
 11
194.8960340857137
 21
13.83753989612398
 31
0.0
 11
194.7383975037657
 21
13.83753989612398
 31
0.0
 11
194.6126424777173
 21
13.83753989612398
 31
0.0
 11
194.5293961928684
 21
13.83753989612398
 31
0.0
 11
194.4992858345188
 21
13.83753989612398
 31
0.0
 11
194.4992858345188
 21
13.86512822076985
 31
0.0
 11
194.4992858345188
 21
13.92582253499078
 31
0.0
 11
194.4992858345188
 21
13.9865168492117
 31
0.0
 11
194.4992858345188
 21
14.01410517385758
 31
0.0
 11
194.5294068064948
 21
14.01410517385758
 31
0.0
 11
194.6088166417041
 21
14.01410517385758
 31
0.0
 11
194.7210857190691
 21
14.01410517385758
 31
0.0
 11
194.8497844175118
 21
14.01410517385758
 31
0.0
 11
194.9784831159546
 21
14.01410517385758
 31
0.0
 11
195.0907521933196
 21
14.01410517385758
 31
0.0
 11
195.1701620285289
 21
14.01410517385758
 31
0.0
 11
195.2002830005049
 21
14.01410517385758
 31
0.0
 11
195.2002830005049
 21
14.04654305523836
 31
0.0
 11
195.2002830005049
 21
14.13458873327191
 31
0.0
 11
195.2002830005049
 21
14.26434025879503
 31
0.0
 11
195.2002830005049
 21
14.42189568264454
 31
0.0
 11
195.2002830005049
 21
14.59335305565724
 31
0.0
 11
195.2002830005049
 21
14.76481042866995
 31
0.0
 11
195.2002830005049
 21
14.92236585251946
 31
0.0
 11
195.2002830005049
 21
15.05211737804258
 31
0.0
 11
195.2002830005049
 21
15.14016305607613
 31
0.0
 11
195.2002830005049
 21
15.17260093745691
 31
0.0
 11
195.1673826485529
 21
15.17260093745691
 31
0.0
 11
195.0825343724663
 21
15.17260093745691
 31
0.0
 11
194.9665173418989
 21
15.17260093745691
 31
0.0
 11
194.8401107265045
 21
15.17260093745691
 31
0.0
 11
194.7240936959371
 21
15.17260093745691
 31
0.0
 11
194.6392454198505
 21
15.17260093745691
 31
0.0
 11
194.6063450678985
 21
15.17260093745691
 31
0.0
 11
194.6063450678985
 21
15.19975793614803
 31
0.0
 11
194.6063450678985
 21
15.25950333326851
 31
0.0
 11
194.6063450678985
 21
15.31924873038899
 31
0.0
 11
194.6063450678985
 21
15.34640572908011
 31
0.0
 11
194.6392454198505
 21
15.34640572908011
 31
0.0
 11
194.7240936959371
 21
15.34640572908011
 31
0.0
 11
194.8401107265045
 21
15.34640572908011
 31
0.0
 11
194.9665173418989
 21
15.34640572908011
 31
0.0
 11
195.0825343724663
 21
15.34640572908011
 31
0.0
 11
195.1673826485529
 21
15.34640572908011
 31
0.0
 11
195.2002830005049
 21
15.34640572908011
 31
0.0
 11
195.2002830005049
 21
15.37650011731371
 31
0.0
 11
195.2002830005049
 21
15.45715307777975
 31
0.0
 11
195.2002830005049
 21
15.5739193041261
 31
0.0
 11
195.2002830005049
 21
15.71235349000064
 31
0.0
 11
195.2002830005049
 21
15.85801032905125
 31
0.0
 11
195.2002830005049
 21
15.99644451492579
 31
0.0
 11
195.2002830005049
 21
16.11321074127215
 31
0.0
 11
195.2002830005049
 21
16.19386370173818
 31
0.0
 11
195.2002830005049
 21
16.22395808997178
 31
0.0
 11
195.2250405288619
 21
16.22228324219443
 31
0.0
 11
195.284077711867
 21
16.21828937441766
 31
0.0
 11
195.3545414464215
 21
16.21352249997442
 31
0.0
 11
195.4135786294266
 21
16.20952863219765
 31
0.0
 11
195.4383361577836
 21
16.20785378442029
 31
0.0
 11
195.4233067224031
 21
16.1841581420651
 31
0.0
 11
195.3821827564384
 21
16.17047697887405
 31
0.0
 11
195.3821827564384
 21
16.14221664794833
 31
0.0
 11
195.3821827564384
 21
16.06647896106741
 31
0.0
 11
195.3821827564384
 21
15.95682887707562
 31
0.0
 11
195.3821827564384
 21
15.82683135481732
 31
0.0
 11
195.3821827564384
 21
15.69005135313684
 31
0.0
 11
195.3821827564384
 21
15.56005383087854
 31
0.0
 11
195.3821827564384
 21
15.45040374688675
 31
0.0
 11
195.3821827564384
 21
15.37466606000583
 31
0.0
 11
195.3821827564384
 21
15.34640572908011
 31
0.0
 11
195.4149350096116
 21
15.34640572908011
 31
0.0
 11
195.4994013467423
 21
15.34640572908011
 31
0.0
 11
195.6148961342477
 21
15.34640572908011
 31
0.0
 11
195.7407337385446
 21
15.34640572908011
 31
0.0
 11
195.8562285260499
 21
15.34640572908011
 31
0.0
 11
195.9406948631807
 21
15.34640572908011
 31
0.0
 11
195.9734471163539
 21
15.34640572908011
 31
0.0
 11
195.9734471163539
 21
15.31924873038899
 31
0.0
 11
195.9734471163539
 21
15.25950333326851
 31
0.0
 11
195.9734471163539
 21
15.19975793614804
 31
0.0
 11
195.9734471163539
 21
15.17260093745691
 31
0.0
 11
195.9406948631807
 21
15.17260093745691
 31
0.0
 11
195.85622852605
 21
15.17260093745691
 31
0.0
 11
195.7407337385446
 21
15.17260093745691
 31
0.0
 11
195.6148961342477
 21
15.17260093745691
 31
0.0
 11
195.4994013467423
 21
15.17260093745691
 31
0.0
 11
195.4149350096116
 21
15.17260093745691
 31
0.0
 11
195.3821827564384
 21
15.17260093745691
 31
0.0
 11
195.3821827564384
 21
15.14016305607613
 31
0.0
 11
195.3821827564384
 21
15.05211737804258
 31
0.0
 11
195.3821827564384
 21
14.92236585251946
 31
0.0
 11
195.3821827564384
 21
14.76481042866995
 31
0.0
 11
195.3821827564384
 21
14.59335305565725
 31
0.0
 11
195.3821827564384
 21
14.42189568264454
 31
0.0
 11
195.3821827564384
 21
14.26434025879504
 31
0.0
 11
195.3821827564384
 21
14.13458873327191
 31
0.0
 11
195.3821827564384
 21
14.04654305523836
 31
0.0
 11
195.3821827564384
 21
14.01410517385758
 31
0.0
  0
SPLINE
  5
A4
102
{ACAD_REACTORS
330
C1
102
}
330
48
100
AcDbEntity
  8
_U_30EC_U_30A4_U_30E4_U_30FC_1
  6
Continuous
 62
     2
100
AcDbSpline
210
0.0
220
0.0
230
1.0
 70
    11
 71
     3
 72
   131
 73
   127
 74
   125
 42
0.000000001
 43
0.0000000001
 44
0.00000001
 40
0.0
 40
0.0
 40
0.0
 40
0.0
 40
0.0195577029826142
 40
0.0426490537461455
 40
0.286360757585608
 40
0.5344948436188923
 40
0.7842238845572652
 40
0.8737315789466379
 40
0.9803832810311643
 40
1.092842274516911
 40
1.199761146656669
 40
1.289788768186398
 40
1.351573580786135
 40
1.370727117561378
 40
1.416400936017808
 40
1.470914848355948
 40
1.516588666791773
 40
1.535742203552853
 40
1.634216592293202
 40
1.760283341175038
 40
1.897966686682099
 40
2.031216387368923
 40
2.049689751137917
 40
2.101115601646852
 40
2.179502577739971
 40
2.278859318314085
 40
2.393194462258743
 40
2.516516648383856
 40
2.642834515405983
 40
2.766156701983487
 40
2.880491846754602
 40
2.979848588358642
 40
3.05823556544382
 40
3.109661416668974
 40
3.12813478070415
 40
3.146783742386466
 40
3.191254343315299
 40
3.244332157315901
 40
3.288802758225776
 40
3.307451719895047
 40
3.327717853844659
 40
3.383747753580019
 40
3.46838866592441
 40
3.574487837698717
 40
3.694892515728823
 40
3.822449946851959
 40
3.95000737792035
 40
4.070412055800441
 40
4.176511227367994
 40
4.261152139501442
 40
4.317182039076634
 40
4.337448172964555
 40
4.620011002696186
 40
4.885096638397409
 40
4.945373043518228
 40
5.014107710488582
 40
5.070481727651925
 40
5.319246955636403
 40
5.584812164505853
 40
5.859000912056706
 40
6.133746937541888
 40
6.401732212968719
 40
6.420736683995338
 40
6.472845717450932
 40
6.550702743893916
 40
6.646951193874125
 40
6.754234497930449
 40
6.865196086587256
 40
6.972479390357714
 40
7.068727839771904
 40
7.146584865450913
 40
7.198693898189143
 40
7.217698368905284
 40
7.23495040163076
 40
7.276089864269807
 40
7.325191803515915
 40
7.366331266090301
 40
7.383583298769652
 40
7.402779163492058
 40
7.453386443254461
 40
7.524934666445491
 40
7.60695336140583
 40
7.68897205642901
 40
7.760520279784261
 40
7.811127559734532
 40
7.830323424546153
 40
7.847844055299783
 40
7.894799345666824
 40
7.962779392744512
 40
8.043374293560559
 40
8.128174145149467
 40
8.208769044817268
 40
8.276749090376969
 40
8.323704379669534
 40
8.341225010056265
 40
8.358497614800442
 40
8.401679126686647
 40
8.457815092185676
 40
8.513951057728137
 40
8.557132569708065
 40
8.574405174505108
 40
8.602340668616504
 40
8.643455660540097
 40
8.663225271966764
 40
8.715345156564409
 40
8.789031889628747
 40
8.873502045520476
 40
8.957972194324102
 40
9.031658925567994
 40
9.083778811234682
 40
9.103548423003145
 40
9.119550083123682
 40
9.160817522379984
 40
9.21724442911035
 40
9.278724491644835
 40
9.33515139829562
 40
9.376418837357916
 40
9.392420497300703
 40
9.401196302734922
 40
9.417494229384397
 40
9.42627002774967
 40
9.440875075477702
 40
9.475702496998881
 40
9.517270709866045
 40
9.552098131994214
 40
9.566703169884422
 40
9.566703169884422
 40
9.566703169884422
 40
9.566703169884422
 10
194.6170254148479
 20
15.67015871511028
 30
0.0
 10
194.613434509337
 20
15.6645369070216
 30
0.0
 10
194.6056039123625
 20
15.65227754419113
 30
0.0
 10
194.5129968974547
 20
15.61601916040975
 30
0.0
 10
194.4887622233248
 20
15.40148444212711
 30
0.0
 10
194.3858709845939
 20
15.22197284509711
 30
0.0
 10
194.1220492364306
 20
15.0361557379815
 30
0.0
 10
194.2845471569181
 20
14.95959336566081
 30
0.0
 10
194.3607225760838
 20
14.89856693195442
 30
0.0
 10
194.4492171072759
 20
14.83515804544761
 30
0.0
 10
194.538993023311
 20
14.7752563421956
 30
0.0
 10
194.5883817636047
 20
14.72102154849208
 30
0.0
 10
194.6745708157383
 20
14.69286240541834
 30
0.0
 10
194.641126067423
 20
14.65713309652813
 30
0.0
 10
194.6214671166311
 20
14.62550387991907
 30
0.0
 10
194.5919888217882
 20
14.58475872796068
 30
0.0
 10
194.5688989446031
 20
14.55504663489646
 30
0.0
 10
194.5380205968357
 20
14.50211422668495
 30
0.0
 10
194.472919336574
 20
14.62740334938903
 30
0.0
 10
194.3796000122415
 20
14.68213900233935
 30
0.0
 10
194.2950636285139
 20
14.73916423939345
 30
0.0
 10
194.1722498125741
 20
14.89675287427522
 30
0.0
 10
194.1764450847302
 20
14.82035806766838
 30
0.0
 10
194.1751478652677
 20
14.77361280161296
 30
0.0
 10
194.1758126448076
 20
14.69584785812602
 30
0.0
 10
194.1755549986956
 20
14.59902068324424
 30
0.0
 10
194.1756431239921
 20
14.4865027907881
 30
0.0
 10
194.1756077302282
 20
14.36524085945701
 30
0.0
 10
194.1756511758278
 20
14.24086897858962
 30
0.0
 10
194.1755199942405
 20
14.11967683631337
 30
0.0
 10
194.1759477562047
 20
14.00691148919744
 30
0.0
 10
194.174667820231
 20
13.91082913768745
 30
0.0
 10
194.1779759851044
 20
13.83113826468701
 30
0.0
 10
194.1715197740086
 20
13.78815175788785
 30
0.0
 10
194.1806208705556
 20
13.74955432372043
 30
0.0
 10
194.1447910339935
 20
13.75810887724071
 30
0.0
 10
194.1115223815253
 20
13.75342519985448
 30
0.0
 10
194.0604562576041
 20
13.75351298759785
 30
0.0
 10
194.0269723972814
 20
13.75794430283822
 30
0.0
 10
193.9907585408754
 20
13.7496079384251
 30
0.0
 10
194.0009782568666
 20
13.79145277179285
 30
0.0
 10
193.9936487887774
 20
13.83778560820175
 30
0.0
 10
193.9973633136103
 20
13.92374831106015
 30
0.0
 10
193.9959480554897
 20
14.0260514270485
 30
0.0
 10
193.9964105554639
 20
14.14453223931513
 30
0.0
 10
193.9962773686232
 20
14.26957683153357
 30
0.0
 10
193.9963015910045
 20
14.39475828107051
 30
0.0
 10
193.9963354925552
 20
14.51286645379058
 30
0.0
 10
193.9962060293132
 20
14.61628748709516
 30
0.0
 10
193.9965507549082
 20
14.69932036153667
 30
0.0
 10
193.9958698278691
 20
14.75143368521244
 30
0.0
 10
193.9994586600622
 20
14.87912907821361
 30
0.0
 10
193.7826171386437
 20
14.58048716819627
 30
0.0
 10
193.6021354921952
 20
14.35263981511515
 30
0.0
 10
193.5490322295612
 20
14.49373443289818
 30
0.0
 10
193.5200429133149
 20
14.54325767560939
 30
0.0
 10
193.4196648062823
 20
14.64641779790115
 30
0.0
 10
193.7405127723262
 20
14.72695035023777
 30
0.0
 10
193.868989700543
 20
14.91066283036437
 30
0.0
 10
194.0906454325359
 20
15.11931995771762
 30
0.0
 10
194.1770224894068
 20
15.29339211228347
 30
0.0
 10
194.4549394229075
 20
15.56967051342514
 30
0.0
 10
194.3346247839285
 20
15.56534559551115
 30
0.0
 10
194.2863197351349
 20
15.56614856202554
 30
0.0
 10
194.2102377454906
 20
15.56574582146585
 30
0.0
 10
194.116701000975
 20
15.5659027561161
 30
0.0
 10
194.0117594788557
 20
15.56582502576225
 30
0.0
 10
193.9033887738718
 20
15.56595464378556
 30
0.0
 10
193.7981454235897
 20
15.56554393490692
 30
0.0
 10
193.7056237819413
 20
15.56682073671592
 30
0.0
 10
193.6268130800707
 20
15.5634076653485
 30
0.0
 10
193.5839674565378
 20
15.57023350036321
 30
0.0
 10
193.5449499586516
 20
15.56065064201124
 30
0.0
 10
193.5526365271863
 20
15.59420779565544
 30
0.0
 10
193.5485464404312
 20
15.62523550322234
 30
0.0
 10
193.5485531368814
 20
15.67236529270901
 30
0.0
 10
193.5526239724911
 20
15.70340941646779
 30
0.0
 10
193.5449495574583
 20
15.73701861635903
 30
0.0
 10
193.5834819405495
 20
15.72748410420873
 30
0.0
 10
193.6241228014479
 20
15.73397435498071
 30
0.0
 10
193.6951471850463
 20
15.73100150650255
 30
0.0
 10
193.7729318149634
 20
15.73174761399158
 30
0.0
 10
193.8507292246474
 20
15.73247814044526
 30
0.0
 10
193.9217232089908
 20
15.72954235514161
 30
0.0
 10
193.9624279791821
 20
15.73595468772953
 30
0.0
 10
194.000985348991
 20
15.72650524176005
 30
0.0
 10
193.9927342754929
 20
15.76264692158785
 30
0.0
 10
193.9982346669358
 20
15.80129837613228
 30
0.0
 10
193.9955754206164
 20
15.86913528561839
 30
0.0
 10
193.9965815471534
 20
15.9459164153874
 30
0.0
 10
193.996017801832
 20
16.02849393582758
 30
0.0
 10
193.9970714526593
 20
16.10517329229879
 30
0.0
 10
193.9942675863131
 20
16.17331990776701
 30
0.0
 10
194.0000702721304
 20
16.21132399809347
 30
0.0
 10
193.991565455116
 20
16.24758448077648
 30
0.0
 10
194.0255610233125
 20
16.23755723771852
 30
0.0
 10
194.05945756831
 20
16.24073266813707
 30
0.0
 10
194.1126669060347
 20
16.2350896564061
 30
0.0
 10
194.1660768574484
 20
16.23434774436426
 30
0.0
 10
194.1995914649492
 20
16.22819223482982
 30
0.0
 10
194.238808618304
 20
16.23346029773593
 30
0.0
 10
194.2120263698492
 20
16.19253380793489
 30
0.0
 10
194.1708111001723
 20
16.20371204538114
 30
0.0
 10
194.1782641540874
 20
16.15867056192125
 30
0.0
 10
194.1742227952183
 20
16.11412278028144
 30
0.0
 10
194.1761714049641
 20
16.04223572621705
 30
0.0
 10
194.1752364849758
 20
15.96168630588772
 30
0.0
 10
194.1765107190031
 20
15.88173995404996
 30
0.0
 10
194.1732043793862
 20
15.80841837083183
 30
0.0
 10
194.1802106179962
 20
15.76688643002569
 30
0.0
 10
194.1701440380125
 20
15.72752418568114
 30
0.0
 10
194.2029814803921
 20
15.73468063430982
 30
0.0
 10
194.236457729648
 20
15.73027243137945
 30
0.0
 10
194.2915053476019
 20
15.73217943347898
 30
0.0
 10
194.3489502595314
 20
15.73185366407289
 30
0.0
 10
194.4023026248309
 20
15.73106308733083
 30
0.0
 10
194.4398540896638
 20
15.73313959118074
 30
0.0
 10
194.4623172523237
 20
15.7302233816711
 30
0.0
 10
194.4751678073731
 20
15.73572552644057
 30
0.0
 10
194.4858255685888
 20
15.73801118197791
 30
0.0
 10
194.4986635650143
 20
15.74494972588054
 30
0.0
 10
194.5145991033071
 20
15.72853046313673
 30
0.0
 10
194.5410623920891
 20
15.71709122319449
 30
0.0
 10
194.5726805253757
 20
15.69644687835191
 30
0.0
 10
194.5987255892151
 20
15.68116869628295
 30
0.0
 10
194.6128517723973
 20
15.67266976323184
 30
0.0
 10
194.6170254148479
 20
15.67015871511028
 30
0.0
 11
194.6170254148479
 21
15.67015871511028
 31
0.0
 11
194.6049990002243
 21
15.65473571164189
 31
0.0
 11
194.5848961795565
 21
15.64337406233918
 31
0.0
 11
194.4778986355814
 21
15.4244062023116
 31
0.0
 11
194.3477039934325
 21
15.21317201512161
 31
0.0
 11
194.1996540366072
 21
15.0120605902748
 31
0.0
 11
194.2734958253735
 21
14.9614738493538
 31
0.0
 11
194.36056643118
 21
14.8998841165374
 31
0.0
 11
194.4518003750405
 21
14.83413160594426
 31
0.0
 11
194.5381321779688
 21
14.77105653169305
 31
0.0
 11
194.6104963609788
 21
14.71749910790242
 31
0.0
 11
194.6598274450844
 21
14.68029954869105
 31
0.0
 11
194.6486940702214
 21
14.66471410869495
 31
0.0
 11
194.6221452532403
 21
14.62754882870424
 31
0.0
 11
194.5904579555533
 21
14.58319026871534
 31
0.0
 11
194.5639091385723
 21
14.54602498872463
 31
0.0
 11
194.5527757637093
 21
14.53043954872853
 31
0.0
 11
194.4807013362947
 21
14.59754008690618
 31
0.0
 11
194.385285698538
 21
14.6799335417467
 31
0.0
 11
194.279326415217
 21
14.76785017366917
 31
0.0
 11
194.175621051109
 21
14.85152024309268
 31
0.0
 11
194.175621051109
 21
14.83304687900864
 31
0.0
 11
194.175621051109
 21
14.78162102763956
 31
0.0
 11
194.175621051109
 21
14.70323405031
 31
0.0
 11
194.175621051109
 21
14.6038773083445
 31
0.0
 11
194.175621051109
 21
14.48954216306761
 31
0.0
 11
194.175621051109
 21
14.3662199758039
 31
0.0
 11
194.175621051109
 21
14.23990210787791
 31
0.0
 11
194.175621051109
 21
14.1165799206142
 31
0.0
 11
194.175621051109
 21
14.00224477533731
 31
0.0
 11
194.175621051109
 21
13.90288803337181
 31
0.0
 11
194.175621051109
 21
13.82450105604224
 31
0.0
 11
194.175621051109
 21
13.77307520467317
 31
0.0
 11
194.175621051109
 21
13.75460184058913
 31
0.0
 11
194.1569720893626
 21
13.75460184058913
 31
0.0
 11
194.112501488275
 21
13.75460184058913
 31
0.0
 11
194.0594236740737
 21
13.75460184058913
 31
0.0
 11
194.014953072986
 21
13.75460184058913
 31
0.0
 11
193.9963041112396
 21
13.75460184058913
 31
0.0
 11
193.9963041112396
 21
13.7748679746022
 31
0.0
 11
193.9963041112396
 21
13.83089787452067
 31
0.0
 11
193.9963041112396
 21
13.91553878716348
 31
0.0
 11
193.9963041112396
 21
14.02163795934954
 31
0.0
 11
193.9963041112396
 21
14.14204263789776
 31
0.0
 11
193.9963041112396
 21
14.26960006962706
 31
0.0
 11
193.9963041112396
 21
14.39715750135637
 31
0.0
 11
193.9963041112396
 21
14.51756217990459
 31
0.0
 11
193.9963041112396
 21
14.62366135209064
 31
0.0
 11
193.9963041112396
 21
14.70830226473345
 31
0.0
 11
193.9963041112396
 21
14.76433216465193
 31
0.0
 11
193.9963041112396
 21
14.784598298665
 31
0.0
 11
193.7883272849482
 21
14.59331998274057
 31
0.0
 11
193.5763486358426
 21
14.43414885430812
 31
0.0
 11
193.5495629014484
 21
14.48814671952096
 31
0.0
 11
193.5138765415024
 21
14.54689140572027
 31
0.0
 11
193.4799697494125
 21
14.59192871537977
 31
0.0
 11
193.6830287742319
 21
14.73563387201055
 31
0.0
 11
193.881853195826
 21
14.91168423529989
 31
0.0
 11
194.0677041444178
 21
15.11327514524951
 31
0.0
 11
194.2318427502303
 21
15.3336019418611
 31
0.0
 11
194.3655301434865
 21
15.56585996513636
 31
0.0
 11
194.3465256724482
 21
15.56585996513636
 31
0.0
 11
194.2944166389563
 21
15.56585996513636
 31
0.0
 11
194.2165596124448
 21
15.56585996513636
 31
0.0
 11
194.1203111623479
 21
15.56585996513636
 31
0.0
 11
194.0130278580997
 21
15.56585996513636
 31
0.0
 11
193.9020662691345
 21
15.56585996513636
 31
0.0
 11
193.7947829648864
 21
15.56585996513636
 31
0.0
 11
193.6985345147895
 21
15.56585996513636
 31
0.0
 11
193.620677488278
 21
15.56585996513636
 31
0.0
 11
193.568568454786
 21
15.56585996513636
 31
0.0
 11
193.5495639837478
 21
15.56585996513636
 31
0.0
 11
193.5495639837478
 21
15.58311199790982
 31
0.0
 11
193.5495639837478
 21
15.62425146067732
 31
0.0
 11
193.5495639837478
 21
15.6733534001095
 31
0.0
 11
193.5495639837478
 21
15.71449286287699
 31
0.0
 11
193.5495639837478
 21
15.73174489565046
 31
0.0
 11
193.568759848601
 21
15.73174489565046
 31
0.0
 11
193.6193671286684
 21
15.73174489565046
 31
0.0
 11
193.690915352212
 21
15.73174489565046
 31
0.0
 11
193.7729340474937
 21
15.73174489565046
 31
0.0
 11
193.8549527427754
 21
15.73174489565046
 31
0.0
 11
193.926500966319
 21
15.73174489565046
 31
0.0
 11
193.9771082463865
 21
15.73174489565046
 31
0.0
 11
193.9963041112396
 21
15.73174489565046
 31
0.0
 11
193.9963041112396
 21
15.74926552655219
 31
0.0
 11
193.9963041112396
 21
15.79622081736883
 31
0.0
 11
193.9963041112396
 21
15.86420086526754
 31
0.0
 11
193.9963041112396
 21
15.9447957674155
 31
0.0
 11
193.9963041112396
 21
16.02959562097987
 31
0.0
 11
193.9963041112396
 21
16.11019052312783
 31
0.0
 11
193.9963041112396
 21
16.17817057102654
 31
0.0
 11
193.9963041112396
 21
16.22512586184318
 31
0.0
 11
193.9963041112396
 21
16.24264649274491
 31
0.0
 11
194.0135484112112
 21
16.2416580616752
 31
0.0
 11
194.0566591611402
 21
16.23918698400092
 31
0.0
 11
194.1127031360478
 21
16.23597458302437
 31
0.0
 11
194.1687471109555
 21
16.23276218204781
 31
0.0
 11
194.2118578608844
 21
16.23029110437353
 31
0.0
 11
194.229102160856
 21
16.22930267330382
 31
0.0
 11
194.2143774674852
 21
16.20556293372641
 31
0.0
 11
194.175621051109
 21
16.19183767331313
 31
0.0
 11
194.175621051109
 21
16.17206806177294
 31
0.0
 11
194.175621051109
 21
16.11994817680334
 31
0.0
 11
194.175621051109
 21
16.0462614428808
 31
0.0
 11
194.175621051109
 21
15.9617912844818
 31
0.0
 11
194.175621051109
 21
15.87732112608279
 31
0.0
 11
194.175621051109
 21
15.80363439216025
 31
0.0
 11
194.175621051109
 21
15.75151450719065
 31
0.0
 11
194.175621051109
 21
15.73174489565046
 31
0.0
 11
194.1916227112935
 21
15.73174489565046
 31
0.0
 11
194.232890150717
 21
15.73174489565046
 31
0.0
 11
194.2893170576837
 21
15.73174489565046
 31
0.0
 11
194.3507971204981
 21
15.73174489565046
 31
0.0
 11
194.4072240274648
 21
15.73174489565046
 31
0.0
 11
194.4484914668882
 21
15.73174489565046
 31
0.0
 11
194.4644931270728
 21
15.73174489565046
 31
0.0
 11
194.4728206422924
 21
15.73451387455922
 31
0.0
 11
194.4882860277004
 21
15.73965626396119
 31
0.0
 11
194.49661354292
 21
15.74242524286995
 31
0.0
 11
194.5091363776005
 21
15.73490952398294
 31
0.0
 11
194.5389985218386
 21
15.71698742509855
 31
0.0
 11
194.5746404359293
 21
15.69559653288168
 31
0.0
 11
194.6045025801674
 21
15.67767443399729
 31
0.0
 11
194.6170254148479
 21
15.67015871511028
 31
0.0
  0
SPLINE
  5
A5
102
{ACAD_REACTORS
330
C2
102
}
330
48
100
AcDbEntity
  8
_U_30EC_U_30A4_U_30E4_U_30FC_1
  6
Continuous
 62
     2
100
AcDbSpline
210
0.0
220
0.0
230
1.0
 70
    11
 71
     3
 72
    91
 73
    87
 74
    85
 42
0.000000001
 43
0.0000000001
 44
0.00000001
 40
0.0
 40
0.0
 40
0.0
 40
0.0
 40
0.0267532254356684
 40
0.0856103386464102
 40
0.1444674521996603
 40
0.1712206856618514
 40
0.2039416005642536
 40
0.2955601971652484
 40
0.4362601844616918
 40
0.616225284450725
 40
0.8256392189704982
 40
1.054685709844411
 40
1.293548478893531
 40
1.532411247938275
 40
1.76145773879954
 40
1.970871673298508
 40
2.150836773256704
 40
2.291536760495565
 40
2.383155356836643
 40
2.415876284101292
 40
2.442629517487934
 40
2.501486630949064
 40
2.560343744424215
 40
2.587096977826486
 40
2.617068194440914
 40
2.699247336756055
 40
2.822032643466339
 40
2.973822353257868
 40
3.143014704823311
 40
3.318007936879861
 40
3.487200288186723
 40
3.638989997548204
 40
3.761775303794702
 40
3.843954445753037
 40
3.873925662229733
 40
3.890812773500441
 40
3.907699884771593
 40
3.937960767857219
 40
3.980983618142307
 40
4.19908591522843
 40
4.439444339237221
 40
4.677588241260891
 40
5.050698317837777
 40
5.448212454763163
 40
5.855291218044688
 40
6.13857543888534
 40
6.417434507584201
 40
6.444551104393883
 40
6.504207617363184
 40
6.563864130314507
 40
6.590980727104101
 40
6.848609460381503
 40
7.109611990668464
 40
7.352910904446112
 40
7.557830220705489
 40
7.587518925913407
 40
7.652834077375824
 40
7.71814922884576
 40
7.747837934062062
 40
7.854880190301005
 40
7.976511257403514
 40
8.369487896592343
 40
8.757514959223693
 40
9.126072419331155
 40
9.460639380392161
 40
9.746695593035845
 40
9.777569943118632
 40
9.80705032093181
 40
9.830377336128942
 40
9.886003295436018
 40
9.952395569429934
 40
10.00802152870629
 40
10.03134854388221
 40
10.21356951009597
 40
10.42203479292874
 40
10.66154556731069
 40
10.91693789564307
 40
11.15832906556568
 40
11.18982674596623
 40
11.2728660852041
 40
11.39026653033349
 40
11.52484752840886
 40
11.65942852648442
 40
11.77682897161481
 40
11.85986831085674
 40
11.8913659823042
 40
11.8913659823042
 40
11.8913659823042
 40
11.8913659823042
 10
190.7027885008197
 20
14.70699600701773
 30
0.0
 10
190.7028237765289
 20
14.71587847311986
 30
0.0
 10
190.7029366710796
 20
14.74430237047347
 30
0.0
 10
190.7012984568491
 20
14.79409639169804
 30
0.0
 10
190.7069750292911
 20
14.83657564478155
 30
0.0
 10
190.6956928731708
 20
14.88730154856848
 30
0.0
 10
190.7632296979032
 20
14.8701290074011
 30
0.0
 10
190.8388029210701
 20
14.88290227165997
 30
0.0
 10
190.9828357056002
 20
14.87629729457383
 30
0.0
 10
191.1569419185427
 20
14.87888462206467
 30
0.0
 10
191.3639599611005
 20
14.87800591955554
 30
0.0
 10
191.5894688172378
 20
14.87828207920028
 30
0.0
 10
191.8251162293406
 20
14.87818339658664
 30
0.0
 10
192.0607640531349
 20
14.87828184412768
 30
0.0
 10
192.2862717580627
 20
14.8780067819079
 30
0.0
 10
192.4932934632806
 20
14.87888186270736
 30
0.0
 10
192.6673888915288
 20
14.87630522678447
 30
0.0
 10
192.8114492071987
 20
14.88288290449215
 30
0.0
 10
192.8869691915293
 20
14.87016243405605
 30
0.0
 10
192.9545776037031
 20
14.88726400191688
 30
0.0
 10
192.9430840140676
 20
14.83674785802941
 30
0.0
 10
192.9505104581735
 20
14.79253252226502
 30
0.0
 10
192.9428838927987
 20
14.74867966503611
 30
0.0
 10
192.9546489459426
 20
14.69878374479329
 30
0.0
 10
192.8930788491984
 20
14.71393227712513
 30
0.0
 10
192.8256791738672
 20
14.70310665350675
 30
0.0
 10
192.7013004056223
 20
14.70852031626237
 30
0.0
 10
192.5554428236572
 20
14.70649205390786
 30
0.0
 10
192.3893576440086
 20
14.70715777578388
 30
0.0
 10
192.2188412621725
 20
14.70689643521242
 30
0.0
 10
192.051979085539
 20
14.70721553391095
 30
0.0
 10
191.9087346827106
 20
14.70635302590763
 30
0.0
 10
191.7773313869835
 20
14.70863300482989
 30
0.0
 10
191.7239859134658
 20
14.70407704374203
 30
0.0
 10
191.6485188456913
 20
14.70999914992878
 30
0.0
 10
191.6769075779233
 20
14.70094169343354
 30
0.0
 10
191.7033652409543
 20
14.69725912268929
 30
0.0
 10
191.6633522907702
 20
14.66654271968274
 30
0.0
 10
191.5713663691867
 20
14.67667591174638
 30
0.0
 10
191.543939620707
 20
14.43032502247785
 30
0.0
 10
191.4478793967234
 20
14.27499558764375
 30
0.0
 10
191.1917277964473
 20
13.94525417931571
 30
0.0
 10
191.7627537732762
 20
14.08430022210451
 30
0.0
 10
192.0173656320516
 20
14.08291779973365
 30
0.0
 10
192.6279647048617
 20
13.99790569242086
 30
0.0
 10
192.3340698578083
 20
14.29685417558207
 30
0.0
 10
192.0133304286517
 20
14.44330856901783
 30
0.0
 10
192.1313543360434
 20
14.50025540818288
 30
0.0
 10
192.1724716466261
 20
14.52420099873349
 30
0.0
 10
192.2156812394411
 20
14.54599758811231
 30
0.0
 10
192.317457409445
 20
14.60928721253904
 30
0.0
 10
192.4328867625247
 20
14.35147151408782
 30
0.0
 10
192.6329591642277
 20
14.21616041113684
 30
0.0
 10
192.7269077387228
 20
14.03792795138882
 30
0.0
 10
192.9558829746392
 20
13.87997821027048
 30
0.0
 10
192.8596031846708
 20
13.829159725763
 30
0.0
 10
192.8167959763779
 20
13.79881292523055
 30
0.0
 10
192.7718243528778
 20
13.77466130281459
 30
0.0
 10
192.7121720925214
 20
13.72552146747569
 30
0.0
 10
192.6789731061324
 20
13.85997475673608
 30
0.0
 10
192.5582013350797
 20
14.01594265286586
 30
0.0
 10
192.1970976005978
 20
13.88569928059555
 30
0.0
 10
191.8385061955541
 20
13.90224694409484
 30
0.0
 10
191.4570920450079
 20
13.89331229351864
 30
0.0
 10
191.1703455282893
 20
13.82882671672412
 30
0.0
 10
190.8592055599714
 20
13.9423066819282
 30
0.0
 10
190.8268737818789
 20
13.83122259927766
 30
0.0
 10
190.7896178253318
 20
13.81196313850012
 30
0.0
 10
190.7865737632753
 20
13.85874784087296
 30
0.0
 10
190.7679892860607
 20
13.89806853919137
 30
0.0
 10
190.7512436616778
 20
13.95765983478233
 30
0.0
 10
190.7383730915753
 20
14.00201969871285
 30
0.0
 10
190.7042327806429
 20
14.09106331120203
 30
0.0
 10
190.9482714457753
 20
14.02181042943772
 30
0.0
 10
191.1441394486671
 20
14.00030369057747
 30
0.0
 10
191.2395426381277
 20
14.28226484478461
 30
0.0
 10
191.2945135769597
 20
14.44363045421126
 30
0.0
 10
191.5159619357155
 20
14.71391177589738
 30
0.0
 10
191.3849239381217
 20
14.70548446853735
 30
0.0
 10
191.3110026555854
 20
14.70779008496971
 30
0.0
 10
191.1977459876244
 20
14.70671378321659
 30
0.0
 10
191.0694251807485
 20
14.7070763907651
 30
0.0
 10
190.9404252030416
 20
14.70697724466087
 30
0.0
 10
190.8287840946292
 20
14.70699932712572
 30
0.0
 10
190.7514663970027
 20
14.70699579189672
 30
0.0
 10
190.7132876532011
 20
14.70699595845082
 30
0.0
 10
190.7027885008197
 20
14.70699600701773
 30
0.0
 11
190.7027885008197
 21
14.70699600701773
 31
0.0
 11
190.7027885008197
 21
14.73374924051798
 31
0.0
 11
190.7027885008197
 21
14.79260635421855
 31
0.0
 11
190.7027885008197
 21
14.8514634679191
 31
0.0
 11
190.7027885008197
 21
14.87821670141936
 31
0.0
 11
190.735509428099
 21
14.87821670141936
 31
0.0
 11
190.827128024481
 21
14.87821670141936
 31
0.0
 11
190.967828011782
 21
14.87821670141936
 31
0.0
 11
191.1477931118181
 21
14.87821670141936
 31
0.0
 11
191.3572070464055
 21
14.87821670141936
 31
0.0
 11
191.5862535373605
 21
14.87821670141936
 31
0.0
 11
191.8251163064994
 21
14.87821670141936
 31
0.0
 11
192.0639790756382
 21
14.87821670141936
 31
0.0
 11
192.2930255665932
 21
14.87821670141936
 31
0.0
 11
192.5024395011806
 21
14.87821670141936
 31
0.0
 11
192.6824046012168
 21
14.87821670141936
 31
0.0
 11
192.8231045885177
 21
14.87821670141936
 31
0.0
 11
192.9147231848997
 21
14.87821670141936
 31
0.0
 11
192.947444112179
 21
14.87821670141936
 31
0.0
 11
192.947444112179
 21
14.85146346791911
 31
0.0
 11
192.947444112179
 21
14.79260635421855
 31
0.0
 11
192.947444112179
 21
14.73374924051798
 31
0.0
 11
192.947444112179
 21
14.70699600701773
 31
0.0
 11
192.9174728954758
 21
14.70699600701773
 31
0.0
 11
192.8352937529027
 21
14.70699600701773
 31
0.0
 11
192.7125084457641
 21
14.70699600701773
 31
0.0
 11
192.5607187353643
 21
14.70699600701773
 31
0.0
 11
192.3915263830079
 21
14.70699600701773
 31
0.0
 11
192.2165331499992
 21
14.70699600701773
 31
0.0
 11
192.0473407976427
 21
14.70699600701773
 31
0.0
 11
191.8955510872429
 21
14.70699600701773
 31
0.0
 11
191.7727657801043
 21
14.70699600701773
 31
0.0
 11
191.6905866375311
 21
14.70699600701773
 31
0.0
 11
191.660615420828
 21
14.70699600701773
 31
0.0
 11
191.6766359412526
 21
14.70165583340794
 31
0.0
 11
191.6926564616772
 21
14.69631565979816
 31
0.0
 11
191.6706155681421
 21
14.67558114591444
 31
0.0
 11
191.6284861855363
 21
14.66685871536111
 31
0.0
 11
191.5365235541378
 21
14.46909247312658
 31
0.0
 11
191.4279078521764
 21
14.2546751197851
 31
0.0
 11
191.3127500824807
 21
14.04622559051621
 31
0.0
 11
191.685736667502
 21
14.0558244125303
 31
0.0
 11
192.083070003615
 21
14.06781232404996
 31
0.0
 11
192.4899342191145
 21
14.08102711828533
 31
0.0
 11
192.2983119496979
 21
14.28966761302482
 31
0.0
 11
192.0966752013698
 21
14.48229420151833
 31
0.0
 11
192.1204947794749
 21
14.49525327269565
 31
0.0
 11
192.1728978513061
 21
14.52376322928577
 31
0.0
 11
192.2253009231374
 21
14.55227318587589
 31
0.0
 11
192.2491205012425
 21
14.56523225705321
 31
0.0
 11
192.4387101558627
 21
14.39079508370269
 31
0.0
 11
192.6200310940436
 21
14.20305846374092
 31
0.0
 11
192.7777729231147
 21
14.01782380992437
 31
0.0
 11
192.8966252504058
 21
13.85089253500949
 31
0.0
 11
192.8715408217923
 21
13.83501202286069
 31
0.0
 11
192.8163550788425
 21
13.80007489613332
 31
0.0
 11
192.7611693358928
 21
13.76513776940596
 31
0.0
 11
192.7360849072793
 21
13.74925725725716
 31
0.0
 11
192.6775518151613
 21
13.8388782468181
 31
0.0
 11
192.6050015078458
 21
13.93650288221033
 31
0.0
 11
192.2125412924095
 21
13.9163628694376
 31
0.0
 11
191.824947406956
 21
13.89803302999774
 31
0.0
 11
191.4567378976213
 21
13.88202178722396
 31
0.0
 11
191.1224308105413
 21
13.86883756444948
 31
0.0
 11
190.8365441918519
 21
13.8589887850075
 31
0.0
 11
190.8211862321741
 21
13.83220523466696
 31
0.0
 11
190.7937434290546
 21
13.82143559057246
 31
0.0
 11
190.7867927192319
 21
13.84370299445578
 31
0.0
 11
190.7702179496548
 21
13.8968021883314
 31
0.0
 11
190.7504351601596
 21
13.96017864553778
 31
0.0
 11
190.7338603905825
 21
14.01327783941339
 31
0.0
 11
190.7269096807598
 21
14.03554524329671
 31
0.0
 11
190.9091199859153
 21
14.03751638912953
 31
0.0
 11
191.1174975848588
 21
14.04356211829473
 31
0.0
 11
191.2303203127216
 21
14.25483550301555
 31
0.0
 11
191.3407936722035
 21
14.4850981315588
 31
0.0
 11
191.4358254265627
 21
14.70699600701773
 31
0.0
 11
191.4043277461597
 21
14.70699600701773
 31
0.0
 11
191.3212884069153
 21
14.70699600701773
 31
0.0
 11
191.2038879617768
 21
14.70699600701773
 31
0.0
 11
191.0693069636912
 21
14.70699600701773
 31
0.0
 11
190.9347259656056
 21
14.70699600701773
 31
0.0
 11
190.817325520467
 21
14.70699600701773
 31
0.0
 11
190.7342861812227
 21
14.70699600701773
 31
0.0
 11
190.7027885008197
 21
14.70699600701773
 31
0.0
  0
SPLINE
  5
A6
102
{ACAD_REACTORS
330
C3
102
}
330
48
100
AcDbEntity
  8
_U_30EC_U_30A4_U_30E4_U_30FC_1
  6
Continuous
 62
     2
100
AcDbSpline
210
0.0
220
0.0
230
1.0
 70
    11
 71
     3
 72
    35
 73
    31
 74
    29
 42
0.000000001
 43
0.0000000001
 44
0.00000001
 40
0.0
 40
0.0
 40
0.0
 40
0.0
 40
0.0335231036620673
 40
0.0713218571712105
 40
0.4278866681486697
 40
0.8116865841963696
 40
1.198190238000004
 40
1.561379546812683
 40
1.65998317462207
 40
1.759315573807237
 40
2.132719617231096
 40
2.525233363588825
 40
2.910815397779692
 40
3.265244364303319
 40
3.592606723582058
 40
3.964386154603984
 40
4.359942131737808
 40
4.758154118639269
 40
4.843846538699898
 40
4.936650065543252
 40
5.25661660253733
 40
5.581707404416067
 40
5.899719158308162
 40
6.198363494280764
 40
6.466301046615794
 40
6.493895311537116
 40
6.559697020196937
 40
6.638234543442541
 40
6.70403625215435
 40
6.731630508423156
 40
6.731630508423156
 40
6.731630508423156
 40
6.731630508423156
 10
191.973601056867
 20
16.23463843719135
 30
0.0
 10
191.967600609779
 20
16.22480690542324
 30
0.0
 10
191.9548344099157
 20
16.20388988579798
 30
0.0
 10
191.7949362006559
 20
16.1712712653269
 30
0.0
 10
192.2322025842336
 20
15.88206680336699
 30
0.0
 10
192.4345394828263
 20
15.68041138358441
 30
0.0
 10
192.6819564267974
 20
15.43749387603275
 30
0.0
 10
193.1831513624607
 20
15.36047662757777
 30
0.0
 10
193.0125562198971
 20
15.21876939174656
 30
0.0
 10
192.9383299463201
 20
15.01710366209112
 30
0.0
 10
192.6131432248188
 20
15.36956287174725
 30
0.0
 10
192.3277741670664
 20
15.53175212559563
 30
0.0
 10
192.0337604077658
 20
15.73687130053051
 30
0.0
 10
191.8084452691134
 20
16.21827488595456
 30
0.0
 10
191.5993085055522
 20
15.75343046609226
 30
0.0
 10
191.3207873674834
 20
15.54350952252912
 30
0.0
 10
191.0371383177209
 20
15.37424456359987
 30
0.0
 10
190.7078639527832
 20
15.0014236090794
 30
0.0
 10
190.6277012318225
 20
15.19708014459003
 30
0.0
 10
190.4759724909744
 20
15.32491104190592
 30
0.0
 10
190.9083395826795
 20
15.40454031765937
 30
0.0
 10
191.0962565329766
 20
15.60026634915473
 30
0.0
 10
191.3468477420502
 20
15.81632996916756
 30
0.0
 10
191.5714350470161
 20
15.98190992300059
 30
0.0
 10
191.6259775409713
 20
16.26133964636826
 30
0.0
 10
191.7494661029011
 20
16.24737950408078
 30
0.0
 10
191.806027334452
 20
16.24521268867648
 30
0.0
 10
191.8761870984945
 20
16.2404685988136
 30
0.0
 10
191.9333414022106
 20
16.23709429350543
 30
0.0
 10
191.964419032084
 20
16.2351985471112
 30
0.0
 10
191.973601056867
 20
16.23463843719135
 30
0.0
 11
191.973601056867
 21
16.23463843719135
 31
0.0
 11
191.9525319069885
 21
16.20856374969786
 31
0.0
 11
191.9174464559426
 21
16.19450114553469
 31
0.0
 11
192.1512374769095
 21
15.92527961131382
 31
0.0
 11
192.4414585957567
 21
15.6741340796926
 31
0.0
 11
192.7612797483684
 21
15.45710987618785
 31
0.0
 11
193.083870870629
 21
15.29025232631638
 31
0.0
 11
193.0213299868077
 21
15.21402035584929
 31
0.0
 11
192.9688035818975
 21
15.12971197913425
 31
0.0
 11
192.6436279095814
 21
15.31326404831581
 31
0.0
 11
192.3237227768436
 21
15.54070139743429
 31
0.0
 11
192.0354200158608
 21
15.79673855123311
 31
0.0
 11
191.8050514588095
 21
16.06609003445567
 31
0.0
 11
191.5995531719516
 21
15.81126348721037
 31
0.0
 11
191.3288301341536
 21
15.55645182277757
 31
0.0
 11
191.0119538423247
 21
15.31969466354857
 31
0.0
 11
190.6679957933742
 21
15.11903163191467
 31
0.0
 11
190.6218855341338
 21
15.19126067703554
 31
0.0
 11
190.5636970460348
 21
15.26355586798967
 31
0.0
 11
190.8433040489015
 21
15.41911456961745
 31
0.0
 11
191.1093004621154
 21
15.60601009790405
 31
0.0
 11
191.3499997459746
 21
15.81384496285209
 31
0.0
 11
191.5537153607774
 21
16.03222167446416
 31
0.0
 11
191.7087607668218
 21
16.25074274274287
 31
0.0
 11
191.7363041569865
 21
16.24906789496551
 31
0.0
 11
191.8019845489177
 21
16.24507402718874
 31
0.0
 11
191.8803772747711
 21
16.24030715274548
 31
0.0
 11
191.9460576667023
 21
16.23631328496871
 31
0.0
 11
191.973601056867
 21
16.23463843719135
 31
0.0
  0
SPLINE
  5
A7
102
{ACAD_REACTORS
330
C4
102
}
330
48
100
AcDbEntity
  8
_U_30EC_U_30A4_U_30E4_U_30FC_1
  6
Continuous
 62
     2
100
AcDbSpline
210
0.0
220
0.0
230
1.0
 70
    11
 71
     3
 72
    15
 73
    11
 74
     9
 42
0.000000001
 43
0.0000000001
 44
0.00000001
 40
0.0
 40
0.0
 40
0.0
 40
0.0
 40
0.278553598509703
 40
0.521562474819955
 40
0.6076917376041588
 40
0.693821000174253
 40
0.9405019146455927
 40
1.221691403489267
 40
1.300471877081186
 40
1.379252341684955
 40
1.379252341684955
 40
1.379252341684955
 40
1.379252341684955
 10
189.5681493630999
 20
16.22930267330382
 30
0.0
 10
189.6296017794178
 20
16.17691646592717
 30
0.0
 10
189.7446649974113
 20
16.07882876798224
 30
0.0
 10
190.0397348497246
 20
15.9288978589722
 30
0.0
 10
189.9025147631857
 20
15.84343227515016
 30
0.0
 10
189.8041227843779
 20
15.71085785201557
 30
0.0
 10
189.713003359065
 20
16.01616985781425
 30
0.0
 10
189.3636839480655
 20
16.07967869465374
 30
0.0
 10
189.511925837657
 20
16.17896509880878
 30
0.0
 10
189.5494081874236
 20
16.21252348402383
 30
0.0
 10
189.5681493630999
 20
16.22930267330382
 30
0.0
 11
189.5681493630999
 21
16.22930267330382
 31
0.0
 11
189.7919222440597
 21
16.06341774278973
 31
0.0
 11
189.9695046306384
 21
15.89753281227565
 31
0.0
 11
189.9066308127979
 21
15.83866743034593
 31
0.0
 11
189.8437569949575
 21
15.77980204841621
 31
0.0
 11
189.6688535117725
 21
15.95375677059492
 31
0.0
 11
189.447825685614
 21
16.12757920110703
 31
0.0
 11
189.507987524357
 21
16.17844093720542
 31
0.0
 11
189.5681493630999
 21
16.22930267330382
 31
0.0
  0
SPLINE
  5
A8
102
{ACAD_REACTORS
330
C5
102
}
330
48
100
AcDbEntity
  8
_U_30EC_U_30A4_U_30E4_U_30FC_1
  6
Continuous
 62
     2
100
AcDbSpline
210
0.0
220
0.0
230
1.0
 70
    11
 71
     3
 72
    75
 73
    71
 74
    69
 42
0.000000001
 43
0.0000000001
 44
0.00000001
 40
0.0
 40
0.0
 40
0.0
 40
0.0
 40
0.0342546099129691
 40
0.1245622414432346
 40
0.2522385480897518
 40
0.398599192294068
 40
0.5449598364980821
 40
0.6726361431438816
 40
0.762943774673696
 40
0.7971983935297973
 40
1.101723623449633
 40
1.408591244036582
 40
1.433332471690288
 40
1.487763172450088
 40
1.542193873081923
 40
1.566935100592473
 40
1.92352393182184
 40
2.271755704953639
 40
2.590579755100909
 40
2.858943305581195
 40
2.889120339309213
 40
2.918305855191161
 40
2.941366645531284
 40
2.996357760973175
 40
3.061992318140722
 40
3.116983433626919
 40
3.140044223997598
 40
3.411273122936519
 40
3.732441619741295
 40
3.761068217532993
 40
3.837787499630555
 40
3.948858699126195
 40
4.080541049104569
 40
4.219093782625952
 40
4.350776132722503
 40
4.461847332405839
 40
4.538566614678569
 40
4.567193212544817
 40
4.594907573999075
 40
4.666381453557642
 40
4.764111044011281
 40
4.870592538126113
 40
4.968322128642564
 40
5.039796008287277
 40
5.067510369784737
 40
5.094263603185953
 40
5.153120716668587
 40
5.211977830151032
 40
5.238731063552038
 40
5.272290535139277
 40
5.363380529445138
 40
5.497618415781844
 40
5.660621563454086
 40
5.838007341749787
 40
6.015393119911138
 40
6.178396267038792
 40
6.312634151842772
 40
6.403724143059762
 40
6.437283612672857
 40
6.464036846261475
 40
6.52289396000509
 40
6.581751071484355
 40
6.608504301591301
 40
6.637253941281449
 40
6.711397748903329
 40
6.812778057283913
 40
6.923237199249689
 40
7.024617507624304
 40
7.098761315207986
 40
7.127510946007936
 40
7.127510946007936
 40
7.127510946007936
 40
7.127510946007936
 10
188.4418622390565
 20
14.95849128473265
 30
0.0
 10
188.4418622819707
 20
14.9470731340872
 30
0.0
 10
188.441862448113
 20
14.9055525784263
 30
0.0
 10
188.4418593081787
 20
14.82146922003772
 30
0.0
 10
188.4418788279801
 20
14.70004497322329
 30
0.0
 10
188.4417912187738
 20
14.55980494047449
 30
0.0
 10
188.4421116235231
 20
14.42006556794577
 30
0.0
 10
188.4411605909741
 20
14.29745038894929
 30
0.0
 10
188.4431978595968
 20
14.21587074438044
 30
0.0
 10
188.4349433178746
 20
14.06271267077699
 30
0.0
 10
188.7430797940902
 20
14.22560236054722
 30
0.0
 10
189.0350645173735
 20
14.39482938688002
 30
0.0
 10
189.0408354448708
 20
14.25973235781912
 30
0.0
 10
189.0455471719891
 20
14.21617221160444
 30
0.0
 10
189.0482535411919
 20
14.17211249350546
 30
0.0
 10
189.0672545672959
 20
14.02272590363131
 30
0.0
 10
188.6583942247303
 20
14.08681172241264
 30
0.0
 10
188.3793710348833
 20
13.97296341411017
 30
0.0
 10
188.1018081587165
 20
13.87364095811142
 30
0.0
 10
187.8099837184402
 20
13.91630687596358
 30
0.0
 10
187.7869144678657
 20
13.81321679744542
 30
0.0
 10
187.7537474383333
 20
13.7869109124447
 30
0.0
 10
187.7480653962738
 20
13.83455309036305
 30
0.0
 10
187.7284214559044
 20
13.8718033611507
 30
0.0
 10
187.7095089485622
 20
13.93007387847565
 30
0.0
 10
187.6942849867708
 20
13.97385201007805
 30
0.0
 10
187.6477246372934
 20
14.08759421046312
 30
0.0
 10
187.9890897312451
 20
14.05576301120049
 30
0.0
 10
188.2679649367387
 20
14.02161435106476
 30
0.0
 10
188.2617753034908
 20
14.16913976479653
 30
0.0
 10
188.2630935452774
 20
14.24013150908833
 30
0.0
 10
188.2624831689949
 20
14.34719767958663
 30
0.0
 10
188.2625871570725
 20
14.47398529785999
 30
0.0
 10
188.2629987964057
 20
14.60849243496051
 30
0.0
 10
188.2613907841969
 20
14.73395549951185
 30
0.0
 10
188.2659902567927
 20
14.84505246719118
 30
0.0
 10
188.2564186502211
 20
14.9076188680069
 30
0.0
 10
188.2704001783692
 20
14.96595388295002
 30
0.0
 10
188.2147384386706
 20
14.95289710582239
 30
0.0
 10
188.1575655197822
 20
14.96136307749499
 30
0.0
 10
188.0616048925648
 20
14.95729976080637
 30
0.0
 10
187.9633767522821
 20
14.95970889852475
 30
0.0
 10
187.867258245756
 20
14.95551600613388
 30
0.0
 10
187.8104648525812
 20
14.96429346441165
 30
0.0
 10
187.7550356873384
 20
14.95094936850121
 30
0.0
 10
187.7670679427917
 20
15.00036910959258
 30
0.0
 10
187.7592003173938
 20
15.04393988030396
 30
0.0
 10
187.7666295563828
 20
15.08830469118526
 30
0.0
 10
187.7551930564143
 20
15.13902297763992
 30
0.0
 10
187.8232102370132
 20
15.12162460757744
 30
0.0
 10
187.8968496879747
 20
15.13417450237189
 30
0.0
 10
188.032506405821
 20
15.12799677011098
 30
0.0
 10
188.1884909024525
 20
15.13029203093084
 30
0.0
 10
188.3615926358144
 20
15.12940968262531
 30
0.0
 10
188.5346942964182
 20
15.13029207142409
 30
0.0
 10
188.6906789811216
 20
15.12799662955551
 30
0.0
 10
188.8263351889798
 20
15.13417486262432
 30
0.0
 10
188.8999756705653
 20
15.12162394218336
 30
0.0
 10
188.9679914174725
 20
15.13902373012143
 30
0.0
 10
188.9565590885923
 20
15.08830130414556
 30
0.0
 10
188.9639539458297
 20
15.04397060811109
 30
0.0
 10
188.9562039912271
 20
15.00028307550197
 30
0.0
 10
188.9681203741877
 20
14.95063590098477
 30
0.0
 10
188.9108170223618
 20
14.96461411338427
 30
0.0
 10
188.8520145789773
 20
14.95539755673255
 30
0.0
 10
188.75252936332
 20
14.9595226816493
 30
0.0
 10
188.6494280098349
 20
14.95822760025888
 30
0.0
 10
188.5537846354575
 20
14.95854077077642
 30
0.0
 10
188.4857467971616
 20
14.95848776697146
 30
0.0
 10
188.4514462213444
 20
14.95849051871657
 30
0.0
 10
188.4418622390565
 20
14.95849128473265
 30
0.0
 11
188.4418622390565
 21
14.95849128473265
 31
0.0
 11
188.4418622390565
 21
14.92423666587186
 31
0.0
 11
188.4418622390565
 21
14.83392903432976
 31
0.0
 11
188.4418622390565
 21
14.7062527276668
 31
0.0
 11
188.4418622390565
 21
14.5598920834434
 31
0.0
 11
188.4418622390565
 21
14.41353143922001
 31
0.0
 11
188.4418622390565
 21
14.28585513255705
 31
0.0
 11
188.4418622390565
 21
14.19554750101495
 31
0.0
 11
188.4418622390565
 21
14.16129288215416
 31
0.0
 11
188.7391932644568
 21
14.2270947571377
 31
0.0
 11
189.0384623627245
 21
14.29496038212073
 31
0.0
 11
189.0405487124976
 21
14.27030727882828
 31
0.0
 11
189.0451386819987
 21
14.2160704515849
 31
0.0
 11
189.0497286514997
 21
14.16183362434153
 31
0.0
 11
189.0518150012729
 21
14.13718052104908
 31
0.0
 11
188.705639688924
 21
14.05163370140898
 31
0.0
 11
188.3669653138838
 21
13.97060877629902
 31
0.0
 11
188.0563731516688
 21
13.8986276402493
 31
0.0
 11
187.7944444777955
 21
13.84021218778992
 31
0.0
 11
187.7817515029292
 21
13.81283442738014
 31
0.0
 11
187.7569794787513
 21
13.79740260446736
 31
0.0
 11
187.7491867589501
 21
13.81910683390637
 31
0.0
 11
187.7306041194242
 21
13.87086307333787
 31
0.0
 11
187.70842483999
 21
13.93263664943352
 31
0.0
 11
187.689842200464
 21
13.98439288886502
 31
0.0
 11
187.6820494806628
 21
14.00609711830403
 31
0.0
 11
187.9482776335931
 21
14.05794001759667
 31
0.0
 11
188.262633493629
 21
14.12373968771911
 31
0.0
 11
188.262633493629
 21
14.15236628569625
 31
0.0
 11
188.262633493629
 21
14.229085568275
 31
0.0
 11
188.262633493629
 21
14.34015676842633
 31
0.0
 11
188.262633493629
 21
14.47183911912119
 31
0.0
 11
188.262633493629
 21
14.61039185333057
 31
0.0
 11
188.262633493629
 21
14.74207420402544
 31
0.0
 11
188.262633493629
 21
14.85314540417676
 31
0.0
 11
188.262633493629
 21
14.9298646867555
 31
0.0
 11
188.262633493629
 21
14.95849128473265
 31
0.0
 11
188.2349191321109
 21
14.95849128473265
 31
0.0
 11
188.1634452524064
 21
14.95849128473265
 31
0.0
 11
188.0657156617901
 21
14.95849128473265
 31
0.0
 11
187.9592341675364
 21
14.95849128473265
 31
0.0
 11
187.8615045769201
 21
14.95849128473265
 31
0.0
 11
187.7900306972156
 21
14.95849128473265
 31
0.0
 11
187.7623163356975
 21
14.95849128473265
 31
0.0
 11
187.7623163356975
 21
14.9852445182329
 31
0.0
 11
187.7623163356975
 21
15.04410163193345
 31
0.0
 11
187.7623163356975
 21
15.102958745634
 31
0.0
 11
187.7623163356975
 21
15.12971197913425
 31
0.0
 11
187.7958758072874
 21
15.12971197913425
 31
0.0
 11
187.8869658016031
 21
15.12971197913425
 31
0.0
 11
188.021203687963
 21
15.12971197913425
 31
0.0
 11
188.1842068356856
 21
15.12971197913425
 31
0.0
 11
188.3615926140897
 21
15.12971197913425
 31
0.0
 11
188.5389783924938
 21
15.12971197913425
 31
0.0
 11
188.7019815402165
 21
15.12971197913425
 31
0.0
 11
188.8362194265763
 21
15.12971197913425
 31
0.0
 11
188.9273094208919
 21
15.12971197913425
 31
0.0
 11
188.9608688924819
 21
15.12971197913425
 31
0.0
 11
188.9608688924819
 21
15.102958745634
 31
0.0
 11
188.9608688924819
 21
15.04410163193345
 31
0.0
 11
188.9608688924819
 21
14.9852445182329
 31
0.0
 11
188.9608688924819
 21
14.95849128473265
 31
0.0
 11
188.9321192527878
 21
14.95849128473265
 31
0.0
 11
188.8579754451555
 21
14.95849128473265
 31
0.0
 11
188.7565951367605
 21
14.95849128473265
 31
0.0
 11
188.6461359947778
 21
14.95849128473265
 31
0.0
 11
188.5447556863828
 21
14.95849128473265
 31
0.0
 11
188.4706118787506
 21
14.95849128473265
 31
0.0
 11
188.4418622390565
 21
14.95849128473265
 31
0.0
  0
SPLINE
  5
A9
102
{ACAD_REACTORS
330
C6
102
}
330
48
100
AcDbEntity
  8
_U_30EC_U_30A4_U_30E4_U_30FC_1
  6
Continuous
 62
     2
100
AcDbSpline
210
0.0
220
0.0
230
1.0
 70
    11
 71
     3
 72
    91
 73
    87
 74
    85
 42
0.000000001
 43
0.0000000001
 44
0.00000001
 40
0.0
 40
0.0
 40
0.0
 40
0.0
 40
0.0345987051695434
 40
0.1258134969461369
 40
0.2547723404888987
 40
0.4026032099154409
 40
0.5504340793417273
 40
0.6793929228836932
 40
0.7706077146571888
 40
0.8052064287781777
 40
1.124852390615365
 40
1.427402236308959
 40
1.706356627453597
 40
1.955541417875282
 40
2.169485938566427
 40
2.344350786664879
 40
2.480568411562031
 40
2.590440557429053
 40
2.649189927151255
 40
2.749320643306459
 40
2.912632739880153
 40
3.147745656000355
 40
3.244827496385294
 40
3.338490056946934
 40
3.583815413207358
 40
3.761423943238726
 40
3.886956104362902
 40
3.985855451887108
 40
4.09176625533802
 40
4.250186473812186
 40
4.422734315084808
 40
4.628285684838885
 40
4.872093227758729
 40
5.15254965214584
 40
5.46496713583782
 40
5.803201477852745
 40
6.16036298881422
 40
6.193449448276275
 40
6.28417038550193
 40
6.419718138764771
 40
6.587285046386021
 40
6.774063446723935
 40
6.96724567811389
 40
7.154024078817904
 40
7.321590987026261
 40
7.457138740890591
 40
7.547859678556327
 40
7.580946138182887
 40
7.608533084714939
 40
7.669224367077915
 40
7.729915649430132
 40
7.757502595950183
 40
7.790278062553665
 40
7.880146277431135
 40
8.014419963180568
 40
8.180411842398097
 40
8.365434637679567
 40
8.55680107162284
 40
8.741823866830952
 40
8.907815745916519
 40
9.042089431507645
 40
9.13195764624977
 40
9.164733112797347
 40
9.415425063140274
 40
9.667986180958746
 40
9.694169807462913
 40
9.756607686047872
 40
9.831130315322678
 40
9.893568193900142
 40
9.91975182039896
 40
9.950967964690772
 40
9.996421631210936
 40
10.22087981037482
 40
10.44341866197571
 40
10.47847970788883
 40
10.57091337438784
 40
10.70159545461264
 40
10.85140174170392
 40
11.00120802880515
 40
11.1318901090742
 40
11.22432377583045
 40
11.25938480938994
 40
11.28697175596182
 40
11.34766303835957
 40
11.40835432042107
 40
11.43594125892141
 40
11.43594125892141
 40
11.43594125892141
 40
11.43594125892141
 10
190.081811433329
 20
15.55242795125078
 30
0.0
 10
190.0702785844941
 20
15.55242790287916
 30
0.0
 10
190.0283409445
 20
15.55242773704165
 30
0.0
 10
189.9434129719026
 20
15.5524312580091
 30
0.0
 10
189.8207688553129
 20
15.55240926435879
 30
0.0
 10
189.6791206916993
 20
15.55250801177055
 30
0.0
 10
189.537975369849
 20
15.55214686232421
 30
0.0
 10
189.4141351317904
 20
15.5532188360909
 30
0.0
 10
189.3317217825381
 20
15.55092249091269
 30
0.0
 10
189.1727791229692
 20
15.56048569373421
 30
0.0
 10
189.3503402353376
 20
15.19785394311371
 30
0.0
 10
189.3379739205452
 20
14.95243127723115
 30
0.0
 10
189.4064519473864
 20
14.66862501324835
 30
0.0
 10
189.4693024320969
 20
14.43250999939036
 30
0.0
 10
189.5452253431729
 20
14.23326740396131
 30
0.0
 10
189.6303189577015
 20
14.07745347451374
 30
0.0
 10
189.7244607592935
 20
13.97657857781392
 30
0.0
 10
189.8282648207727
 20
13.92465852638967
 30
0.0
 10
189.9125872030774
 20
13.97606484379615
 30
0.0
 10
189.9351322179452
 20
14.09144544037518
 30
0.0
 10
189.9745730975371
 20
14.21885149702382
 30
0.0
 10
189.9202919734942
 20
14.53622328086757
 30
0.0
 10
190.0451218072473
 20
14.38982180140905
 30
0.0
 10
190.2019291513605
 20
14.35795300331176
 30
0.0
 10
190.0947720007059
 20
14.12421357767628
 30
0.0
 10
190.0808711209868
 20
13.95972776583657
 30
0.0
 10
190.0234709467226
 20
13.83130869122482
 30
0.0
 10
189.9335020145009
 20
13.76018802352828
 30
0.0
 10
189.8095274657877
 20
13.74432324142254
 30
0.0
 10
189.663427319686
 20
13.77993797554173
 30
0.0
 10
189.5243894320285
 20
13.90000570500279
 30
0.0
 10
189.4102003962145
 20
14.07435682550322
 30
0.0
 10
189.3146141301486
 20
14.2994660311124
 30
0.0
 10
189.2318652572627
 20
14.56388246006443
 30
0.0
 10
189.1807179256412
 20
14.88187933098545
 30
0.0
 10
189.0770189207337
 20
15.15543728488912
 30
0.0
 10
189.2042841208522
 20
15.56005818612869
 30
0.0
 10
189.0357890623018
 20
15.55112367849679
 30
0.0
 10
188.9511995787078
 20
15.55315961418365
 30
0.0
 10
188.8189876387628
 20
15.55213937388407
 30
0.0
 10
188.6560505094104
 20
15.5525323031843
 30
0.0
 10
188.4733759170533
 20
15.5523569631337
 30
0.0
 10
188.2847057373383
 20
15.55260105307469
 30
0.0
 10
188.1014469020189
 20
15.55185657906237
 30
0.0
 10
187.9404746832719
 20
15.55416360522427
 30
0.0
 10
187.8029808335276
 20
15.54799804883663
 30
0.0
 10
187.7289590372312
 20
15.56032838458213
 30
0.0
 10
187.6613215186857
 20
15.54329323723557
 30
0.0
 10
187.6732373719271
 20
15.59524438447528
 30
0.0
 10
187.6655677285694
 20
15.64071424966529
 30
0.0
 10
187.6732592225117
 20
15.68614453703706
 30
0.0
 10
187.6613141797762
 20
15.73802395984571
 30
0.0
 10
187.7283588305868
 20
15.72119143490264
 30
0.0
 10
187.8017375665677
 20
15.73335409092671
 30
0.0
 10
187.9379128305273
 20
15.72727231074959
 30
0.0
 10
188.0973811801513
 20
15.72954834315057
 30
0.0
 10
188.2789173085837
 20
15.72881233998961
 30
0.0
 10
188.465803486218
 20
15.72905954196134
 30
0.0
 10
188.6468012316836
 20
15.72886400799254
 30
0.0
 10
188.8080802578879
 20
15.72932234714839
 30
0.0
 10
188.9393882124887
 20
15.72812673751205
 30
0.0
 10
189.0225051322597
 20
15.73051347319743
 30
0.0
 10
189.1556236547814
 20
15.72230605725464
 30
0.0
 10
189.0645893502659
 20
15.97752868952655
 30
0.0
 10
188.978963307442
 20
16.24164358328249
 30
0.0
 10
189.0990589003455
 20
16.22904442969165
 30
0.0
 10
189.1514264948544
 20
16.22694235763076
 30
0.0
 10
189.2214497569715
 20
16.22535399889658
 30
0.0
 10
189.2671922337817
 20
16.21602567538113
 30
0.0
 10
189.3220812646933
 20
16.22545966915428
 30
0.0
 10
189.2963574785682
 20
16.17733028655169
 30
0.0
 10
189.1825397571452
 20
16.18266829744177
 30
0.0
 10
189.3159346621136
 20
15.95449174576774
 30
0.0
 10
189.1943658735471
 20
15.72156856595923
 30
0.0
 10
189.3223188769413
 20
15.73087258884438
 30
0.0
 10
189.4049048406461
 20
15.7280100175468
 30
0.0
 10
189.5307214850824
 20
15.72923437412302
 30
0.0
 10
189.6741469838059
 20
15.72932431888964
 30
0.0
 10
189.8157420951728
 20
15.72746163183853
 30
0.0
 10
189.9459127249969
 20
15.73333075937162
 30
0.0
 10
190.0193452286191
 20
15.72070340823204
 30
0.0
 10
190.0891112922097
 20
15.73877563110413
 30
0.0
 10
190.0775772605397
 20
15.68612850546326
 30
0.0
 10
190.0833184346682
 20
15.64221317686547
 30
0.0
 10
190.0816615770912
 20
15.5908998267655
 30
0.0
 10
190.081775756167
 20
15.56158792021635
 30
0.0
 10
190.081811433329
 20
15.55242795125078
 30
0.0
 11
190.081811433329
 21
15.55242795125078
 31
0.0
 11
190.0472127192052
 21
15.55242795125078
 31
0.0
 11
189.9559979274242
 21
15.55242795125078
 31
0.0
 11
189.8270390838718
 21
15.55242795125078
 31
0.0
 11
189.6792082144336
 21
15.55242795125078
 31
0.0
 11
189.5313773449955
 21
15.55242795125078
 31
0.0
 11
189.402418501443
 21
15.55242795125078
 31
0.0
 11
189.311203709662
 21
15.55242795125078
 31
0.0
 11
189.2766049955382
 21
15.55242795125078
 31
0.0
 11
189.3083140497693
 21
15.23435864930122
 31
0.0
 11
189.3527866656865
 21
14.93509522788081
 31
0.0
 11
189.4092389118319
 21
14.66191269512577
 31
0.0
 11
189.4768868567478
 21
14.42208605917228
 31
0.0
 11
189.5549465689761
 21
14.22289032815655
 31
0.0
 11
189.6426341170591
 21
14.07160051021479
 31
0.0
 11
189.7391655695388
 21
13.97549161348318
 31
0.0
 11
189.8437569949575
 21
13.94183864609793
 31
0.0
 11
189.8943077302786
 21
13.97177376978836
 31
0.0
 11
189.9310588991552
 21
14.06491619815048
 31
0.0
 11
189.9562640977528
 21
14.22627151712055
 31
0.0
 11
189.9721769222368
 21
14.46084531263483
 31
0.0
 11
190.0494082682584
 21
14.40202182306619
 31
0.0
 11
190.1327184184386
 21
14.35921885432691
 31
0.0
 11
190.1066365811218
 21
14.11528388661011
 31
0.0
 11
190.0673317805106
 21
13.94207902887563
 31
0.0
 11
190.0105702596765
 21
13.83011272445918
 31
0.0
 11
189.932118261691
 21
13.76989341669646
 31
0.0
 11
189.8277420296256
 21
13.75192954892318
 31
0.0
 11
189.6738595065097
 21
13.78957440012362
 31
0.0
 11
189.5388902376748
 21
13.89707348877404
 31
0.0
 11
189.4221739916163
 21
14.0662736174481
 31
0.0
 11
189.32305053683
 21
14.28902158871944
 31
0.0
 11
189.2408596418114
 21
14.55716420516173
 31
0.0
 11
189.174941075056
 21
14.86254826934861
 31
0.0
 11
189.1246346050593
 21
15.19702058385374
 31
0.0
 11
189.0892800003171
 21
15.55242795125078
 31
0.0
 11
189.0561935405844
 21
15.55242795125078
 31
0.0
 11
188.9654726026075
 21
15.55242795125078
 31
0.0
 11
188.8299248482185
 21
15.55242795125078
 31
0.0
 11
188.6623579392495
 21
15.55242795125078
 31
0.0
 11
188.4755795375324
 21
15.55242795125078
 31
0.0
 11
188.2823973048993
 21
15.55242795125078
 31
0.0
 11
188.0956189031822
 21
15.55242795125078
 31
0.0
 11
187.9280519942131
 21
15.55242795125078
 31
0.0
 11
187.7925042398242
 21
15.55242795125078
 31
0.0
 11
187.7017833018473
 21
15.55242795125078
 31
0.0
 11
187.6686968421146
 21
15.55242795125078
 31
0.0
 11
187.6686968421146
 21
15.58001489785847
 31
0.0
 11
187.6686968421146
 21
15.64070618039538
 31
0.0
 11
187.6686968421146
 21
15.70139746293229
 31
0.0
 11
187.6686968421146
 21
15.72898440953998
 31
0.0
 11
187.7014723087632
 21
15.72898440953998
 31
0.0
 11
187.7913405237674
 21
15.72898440953998
 31
0.0
 11
187.9256142097149
 21
15.72898440953998
 31
0.0
 11
188.0916060891933
 21
15.72898440953998
 31
0.0
 11
188.2766288847902
 21
15.72898440953998
 31
0.0
 11
188.4679953190933
 21
15.72898440953998
 31
0.0
 11
188.6530181146902
 21
15.72898440953998
 31
0.0
 11
188.8190099941686
 21
15.72898440953998
 31
0.0
 11
188.9532836801161
 21
15.72898440953998
 31
0.0
 11
189.0431518951203
 21
15.72898440953998
 31
0.0
 11
189.0759273617689
 21
15.72898440953998
 31
0.0
 11
189.0659183950103
 21
15.97947647544959
 31
0.0
 11
189.0599112510663
 21
16.23196614552532
 31
0.0
 11
189.0860575870659
 21
16.23056921608122
 31
0.0
 11
189.1484065421419
 21
16.22723807663762
 31
0.0
 11
189.2228230369099
 21
16.2232622005275
 31
0.0
 11
189.2851719919859
 21
16.21993106108389
 31
0.0
 11
189.3113183279855
 21
16.2185341316398
 31
0.0
 11
189.298293111304
 21
16.1901652861608
 31
0.0
 11
189.2551649266405
 21
16.17581274276165
 31
0.0
 11
189.2574991961821
 21
15.95136670115109
 31
0.0
 11
189.2658452735903
 21
15.72898440953998
 31
0.0
 11
189.3009063195165
 21
15.72898440953998
 31
0.0
 11
189.3933399860495
 21
15.72898440953998
 31
0.0
 11
189.5240220663201
 21
15.72898440953998
 31
0.0
 11
189.6738283534596
 21
15.72898440953998
 31
0.0
 11
189.8236346405992
 21
15.72898440953998
 31
0.0
 11
189.9543167208698
 21
15.72898440953998
 31
0.0
 11
190.0467503874027
 21
15.72898440953998
 31
0.0
 11
190.081811433329
 21
15.72898440953998
 31
0.0
 11
190.081811433329
 21
15.70139746293229
 31
0.0
 11
190.081811433329
 21
15.64070618039538
 31
0.0
 11
190.081811433329
 21
15.58001489785847
 31
0.0
 11
190.081811433329
 21
15.55242795125078
 31
0.0
  0
SPLINE
  5
AA
102
{ACAD_REACTORS
330
C7
102
}
330
48
100
AcDbEntity
  8
_U_30EC_U_30A4_U_30E4_U_30FC_1
  6
Continuous
 62
     2
100
AcDbSpline
210
0.0
220
0.0
230
1.0
 70
    11
 71
     3
 72
   118
 73
   114
 74
   112
 42
0.000000001
 43
0.0000000001
 44
0.00000001
 40
0.0
 40
0.0
 40
0.0
 40
0.0
 40
0.105470816297341
 40
0.246609827005191
 40
0.3965912874591412
 40
0.528552506975414
 40
0.6156245055642671
 40
0.6431434105797983
 40
0.7036850037986856
 40
0.7642265984505422
 40
0.7917455052355894
 40
0.9287404319990575
 40
1.106572819088137
 40
1.287544879681138
 40
1.317578308030657
 40
1.399928030857294
 40
1.522968204800068
 40
1.675072986590689
 40
1.844616533180765
 40
2.019973001638832
 40
2.189516548880145
 40
2.341621331585482
 40
2.464661506320618
 40
2.547011229647182
 40
2.577044658168147
 40
2.603797890893218
 40
2.662655002908905
 40
2.721512114949717
 40
2.748265347702897
 40
2.774215307344973
 40
2.845959313407302
 40
2.954338556588502
 40
3.09019422758568
 40
3.244367517100646
 40
3.407699615844405
 40
3.571031714539553
 40
3.725205003920229
 40
3.861060674729729
 40
3.969439917716422
 40
4.041183923629096
 40
4.067133883213089
 40
4.311886746012258
 40
4.547897258335603
 40
4.764747083044069
 40
4.952749679951856
 40
5.045772974195996
 40
5.137862019645112
 40
5.330543169793161
 40
5.553448265244151
 40
5.79508385588833
 40
6.043293412177392
 40
6.285761695541328
 40
6.313902908752811
 40
6.384255941793401
 40
6.475714884766961
 40
6.567173827758995
 40
6.637526860839773
 40
6.665668074074108
 40
6.692018920328084
 40
6.749990782071152
 40
6.807962643790522
 40
6.834313490017995
 40
6.856393084245274
 40
6.913335195649897
 40
6.991194817302532
 40
7.076026942283794
 40
7.153886563725256
 40
7.21082867484481
 40
7.232908268931145
 40
7.258199334923666
 40
7.324875781592316
 40
7.419142481924971
 40
7.527204308841914
 40
7.63526613523049
 40
7.729532834168476
 40
7.796209279292799
 40
7.821500344594745
 40
7.844652988850844
 40
7.899863140541623
 40
7.965759128053818
 40
8.020969279771158
 40
8.044121924046625
 40
8.069356610160778
 40
8.10913439544155
 40
8.132238100191262
 40
8.193147867786625
 40
8.279261678876797
 40
8.377977512674008
 40
8.476693347146792
 40
8.562807160411841
 40
8.623716930826628
 40
8.64682063685358
 40
8.671988793774393
 40
8.734909185828304
 40
8.816705695189018
 40
8.898502204815589
 40
8.96142259737805
 40
8.986590754551163
 40
9.012941600733317
 40
9.070913462380403
 40
9.128885324081898
 40
9.15523617032522
 40
9.180404327929262
 40
9.243324721948335
 40
9.325121234212128
 40
9.406917746637783
 40
9.469838141978238
 40
9.495006288271012
 40
9.517811184379154
 40
9.572192090487153
 40
9.637098333281385
 40
9.691479239515584
 40
9.714284125643623
 40
9.714284125643623
 40
9.714284125643623
 40
9.714284125643623
 10
185.2874469028653
 20
15.2688916318772
 30
0.0
 10
185.3090990569037
 20
15.24111869242812
 30
0.0
 10
185.3597257109473
 20
15.17618054561236
 30
0.0
 10
185.4349383202592
 20
15.06891060312898
 30
0.0
 10
185.5248482274346
 20
14.95377438266627
 30
0.0
 10
185.5709169676673
 20
14.85357045748318
 30
0.0
 10
185.6655825294656
 20
14.78434006814945
 30
0.0
 10
185.6204439320413
 20
14.73771639678274
 30
0.0
 10
185.5947047785791
 20
14.6966030886604
 30
0.0
 10
185.5645196708012
 20
14.6606597172794
 30
0.0
 10
185.5193684730562
 20
14.58579782596097
 30
0.0
 10
185.4710504458562
 20
14.80782524253608
 30
0.0
 10
185.3968539713073
 20
14.84510677337708
 30
0.0
 10
185.2836047324607
 20
15.11610202130602
 30
0.0
 10
185.2885133578169
 20
15.00095328446229
 30
0.0
 10
185.2868486556306
 20
14.92836675781628
 30
0.0
 10
185.2876830076713
 20
14.80625588483987
 30
0.0
 10
185.2873609540265
 20
14.65913800810462
 30
0.0
 10
185.2875076912455
 20
14.49307063956558
 30
0.0
 10
185.2872950092723
 20
14.32187554608603
 30
0.0
 10
185.2879497252034
 20
14.15552828635499
 30
0.0
 10
185.2859192461139
 20
14.00935173055694
 30
0.0
 10
185.291346039993
 20
13.88471047474612
 30
0.0
 10
185.2804930868708
 20
13.81718656540627
 30
0.0
 10
185.2956739155554
 20
13.75549061417023
 30
0.0
 10
185.2457895108133
 20
13.76727503897002
 30
0.0
 10
185.2017150342522
 20
13.75943822779971
 30
0.0
 10
185.15823716302
 20
13.76760441372704
 30
0.0
 10
185.1092346786489
 20
13.75538056738469
 30
0.0
 10
185.1218731234825
 20
13.80960667249314
 30
0.0
 10
185.113018296845
 20
13.86936918907559
 30
0.0
 10
185.1175058770314
 20
13.9792202904437
 30
0.0
 10
185.1157960135991
 20
14.1102997540568
 30
0.0
 10
185.1163550915986
 20
14.26198011444329
 30
0.0
 10
185.1161928768694
 20
14.42211074929954
 30
0.0
 10
185.1162269924675
 20
14.58236865674567
 30
0.0
 10
185.1162514960127
 20
14.7337024752044
 30
0.0
 10
185.1161453543224
 20
14.86582156338601
 30
0.0
 10
185.1164299141931
 20
14.97294802533195
 30
0.0
 10
185.1158675547567
 20
15.03808619579474
 30
0.0
 10
185.1180765083689
 20
15.16618957858676
 30
0.0
 10
185.0319435998603
 20
14.79097610391577
 30
0.0
 10
184.95551408185
 20
14.63918193123393
 30
0.0
 10
184.8660040767835
 20
14.4776620644631
 30
0.0
 10
184.7640413217326
 20
14.20471848820172
 30
0.0
 10
184.718797649104
 20
14.36717346596514
 30
0.0
 10
184.610235594167
 20
14.45605432058118
 30
0.0
 10
184.7995791751753
 20
14.60549794961411
 30
0.0
 10
184.85653405457
 20
14.79749136974927
 30
0.0
 10
184.9717520993353
 20
15.02899622906756
 30
0.0
 10
184.9940151630133
 20
15.21797259759063
 30
0.0
 10
185.177190515214
 20
15.49454089325931
 30
0.0
 10
185.0538033597552
 20
15.48698978832095
 30
0.0
 10
184.9925684166834
 20
15.48856772366119
 30
0.0
 10
184.9081999617064
 20
15.48882592573673
 30
0.0
 10
184.8204235085967
 20
15.48544845751206
 30
0.0
 10
184.7656768696123
 20
15.49394814982021
 30
0.0
 10
184.7104703026025
 20
15.48048561049789
 30
0.0
 10
184.7222823035536
 20
15.52931442126765
 30
0.0
 10
184.7142496151795
 20
15.5726900489671
 30
0.0
 10
184.7228186104679
 20
15.61509438309574
 30
0.0
 10
184.7102943409158
 20
15.66267796552119
 30
0.0
 10
184.7555101538736
 20
15.6526721299511
 30
0.0
 10
184.8014815562724
 20
15.65894105174062
 30
0.0
 10
184.8777222047711
 20
15.65593561405873
 30
0.0
 10
184.9561296131994
 20
15.65770448278542
 30
0.0
 10
185.0323992648933
 20
15.65464793981661
 30
0.0
 10
185.0783009459474
 20
15.66103971376178
 30
0.0
 10
185.12317339654
 20
15.65093822978897
 30
0.0
 10
185.1105552275634
 20
15.701572015819
 30
0.0
 10
185.1191936582707
 20
15.75501261882071
 30
0.0
 10
185.1152361595443
 20
15.84863255131681
 30
0.0
 10
185.1162325068335
 20
15.95112606688925
 30
0.0
 10
185.1171927413073
 20
16.05353270248165
 30
0.0
 10
185.1133211458005
 20
16.14735929609321
 30
0.0
 10
185.1217789814364
 20
16.20036542840354
 30
0.0
 10
185.1093075932835
 20
16.2521143565119
 30
0.0
 10
185.154210638985
 20
16.23850747226758
 30
0.0
 10
185.1955083836771
 20
16.24100480320586
 30
0.0
 10
185.2595344281052
 20
16.23648060574489
 30
0.0
 10
185.2986111148786
 20
16.2278100304331
 30
0.0
 10
185.3476543498744
 20
16.23515102070687
 30
0.0
 10
185.3225080030589
 20
16.19602896051761
 30
0.0
 10
185.2815901333723
 20
16.20563842455807
 30
0.0
 10
185.2910109616604
 20
16.15540148169779
 30
0.0
 10
185.2855647318746
 20
16.1038594563949
 30
0.0
 10
185.2881699601804
 20
16.01959707584521
 30
0.0
 10
185.2870102202153
 20
15.92559135583408
 30
0.0
 10
185.2883591064231
 20
15.83196865395526
 30
0.0
 10
185.2849970101509
 20
15.74679517552224
 30
0.0
 10
185.2920959917769
 20
15.69716856072045
 30
0.0
 10
185.2812569154545
 20
15.6499369496999
 30
0.0
 10
185.3304010225245
 20
15.66201674936853
 30
0.0
 10
185.3794877630147
 20
15.65447393363012
 30
0.0
 10
185.4573714280642
 20
15.65686070361434
 30
0.0
 10
185.5350365172896
 20
15.65899381905415
 30
0.0
 10
185.5845393931355
 20
15.65193391922456
 30
0.0
 10
185.6344594750639
 20
15.66360151936215
 30
0.0
 10
185.6223198516881
 20
15.61540235371394
 30
0.0
 10
185.6305838229143
 20
15.57249219801236
 30
0.0
 10
185.6223198650783
 20
15.52958201851386
 30
0.0
 10
185.6344594549855
 20
15.48138288754865
 30
0.0
 10
185.5845395158746
 20
15.49305034471511
 30
0.0
 10
185.5350350651203
 20
15.48599202435046
 30
0.0
 10
185.4573784382972
 20
15.48811665228604
 30
0.0
 10
185.379464386576
 20
15.49053389365761
 30
0.0
 10
185.3304500352715
 20
15.48291848194486
 30
0.0
 10
185.2813246108943
 20
15.49507952557594
 30
0.0
 10
185.291555998857
 20
15.45073013424158
 30
0.0
 10
185.2856677678054
 20
15.40925436202913
 30
0.0
 10
185.2878788305569
 20
15.34915394315304
 30
0.0
 10
185.2874109346146
 20
15.3022578276289
 30
0.0
 10
185.2874386992913
 20
15.27650146418197
 30
0.0
 10
185.2874469028653
 20
15.2688916318772
 30
0.0
 11
185.2874469028653
 21
15.2688916318772
 31
0.0
 11
185.3516977534484
 21
15.18524999634257
 31
0.0
 11
185.4348258835499
 21
15.07118889748221
 31
0.0
 11
185.5216831568896
 21
14.94891767195724
 31
0.0
 11
185.5971214371872
 21
14.84064565642877
 31
0.0
 11
185.6459925881627
 21
14.76858218755791
 31
0.0
 11
185.6296821285094
 21
14.746417821244
 31
0.0
 11
185.593799117272
 21
14.6976562153534
 31
0.0
 11
185.5579161060346
 21
14.64889460946281
 31
0.0
 11
185.5416056463813
 21
14.6267302431489
 31
0.0
 11
185.4763067109446
 21
14.74716139023814
 31
0.0
 11
185.3848434243234
 21
14.89966983670208
 31
0.0
 11
185.2874469028653
 21
15.05219788193143
 31
0.0
 11
185.2874469028653
 21
15.02216445328254
 31
0.0
 11
185.2874469028653
 21
14.93981472956784
 31
0.0
 11
185.2874469028653
 21
14.81677455413529
 31
0.0
 11
185.2874469028653
 21
14.66466977033284
 31
0.0
 11
185.2874469028653
 21
14.49512622150846
 31
0.0
 11
185.2874469028653
 21
14.3197697510101
 31
0.0
 11
185.2874469028653
 21
14.15022620218572
 31
0.0
 11
185.2874469028653
 21
13.99812141838327
 31
0.0
 11
185.2874469028653
 21
13.87508124295072
 31
0.0
 11
185.2874469028653
 21
13.79273151923602
 31
0.0
 11
185.2874469028653
 21
13.76269809058713
 31
0.0
 11
185.2606936700409
 21
13.76269809058713
 31
0.0
 11
185.2018365578272
 21
13.76269809058713
 31
0.0
 11
185.1429794456134
 21
13.76269809058713
 31
0.0
 11
185.116226212789
 21
13.76269809058713
 31
0.0
 11
185.116226212789
 21
13.78864805031251
 31
0.0
 11
185.116226212789
 21
13.86039205661208
 31
0.0
 11
185.116226212789
 21
13.96877130017102
 31
0.0
 11
185.116226212789
 21
14.10462697167448
 31
0.0
 11
185.116226212789
 21
14.25880026180762
 31
0.0
 11
185.116226212789
 21
14.4221323612556
 31
0.0
 11
185.116226212789
 21
14.58546446070357
 31
0.0
 11
185.116226212789
 21
14.73963775083671
 31
0.0
 11
185.116226212789
 21
14.87549342234016
 31
0.0
 11
185.116226212789
 21
14.9838726658991
 31
0.0
 11
185.116226212789
 21
15.05561667219868
 31
0.0
 11
185.116226212789
 21
15.08156663192406
 31
0.0
 11
185.0379865861722
 21
14.84965603302373
 31
0.0
 11
184.9497110789304
 21
14.63077616328679
 31
0.0
 11
184.8544106930046
 21
14.43598991333548
 31
0.0
 11
184.7550964303357
 21
14.27636017379203
 31
0.0
 11
184.7109198342406
 21
14.358224461966
 31
0.0
 11
184.658805738348
 21
14.43414885430812
 31
0.0
 11
184.7627302590299
 21
14.59640087926758
 31
0.0
 11
184.8629319864735
 21
14.79551465421781
 31
0.0
 11
184.9550446607902
 21
15.01890447916197
 31
0.0
 11
185.0347020220912
 21
15.2539846541032
 31
0.0
 11
185.097537810488
 21
15.48816947904466
 31
0.0
 11
185.0693965972142
 21
15.48816947904466
 31
0.0
 11
184.9990435640297
 21
15.48816947904466
 31
0.0
 11
184.9075846208898
 21
15.48816947904466
 31
0.0
 11
184.81612567775
 21
15.48816947904466
 31
0.0
 11
184.7457726445655
 21
15.48816947904466
 31
0.0
 11
184.7176314312917
 21
15.48816947904466
 31
0.0
 11
184.7176314312917
 21
15.51452032539224
 31
0.0
 11
184.7176314312917
 21
15.57249218735689
 31
0.0
 11
184.7176314312917
 21
15.63046404932156
 31
0.0
 11
184.7176314312917
 21
15.65681489566913
 31
0.0
 11
184.739711025602
 21
15.65681489566913
 31
0.0
 11
184.7966531372445
 21
15.65681489566913
 31
0.0
 11
184.8745127592863
 21
15.65681489566913
 31
0.0
 11
184.9593448847945
 21
15.65681489566913
 31
0.0
 11
185.0372045068362
 21
15.65681489566913
 31
0.0
 11
185.0941466184786
 21
15.65681489566913
 31
0.0
 11
185.116226212789
 21
15.65681489566913
 31
0.0
 11
185.116226212789
 21
15.68210596174354
 31
0.0
 11
185.116226212789
 21
15.74878240866698
 31
0.0
 11
185.116226212789
 21
15.84304910948978
 31
0.0
 11
185.116226212789
 21
15.95111093726225
 31
0.0
 11
185.116226212789
 21
16.05917276503472
 31
0.0
 11
185.116226212789
 21
16.15343946585752
 31
0.0
 11
185.116226212789
 21
16.22011591278096
 31
0.0
 11
185.116226212789
 21
16.24540697885537
 31
0.0
 11
185.1393181988666
 21
16.24373213107801
 31
0.0
 11
185.1943837041285
 21
16.23973826330123
 31
0.0
 11
185.2601070491185
 21
16.23497138885797
 31
0.0
 11
185.3151725543804
 21
16.23097752108118
 31
0.0
 11
185.3382645404579
 21
16.22930267330382
 31
0.0
 11
185.3249012644362
 21
16.20789677921192
 31
0.0
 11
185.2874469028653
 21
16.19450114553469
 31
0.0
 11
185.2874469028653
 21
16.17139743948578
 31
0.0
 11
185.2874469028653
 21
16.1104876689932
 31
0.0
 11
185.2874469028653
 21
16.02437385553817
 31
0.0
 11
185.2874469028653
 21
15.92565802060191
 31
0.0
 11
185.2874469028653
 21
15.82694218566565
 31
0.0
 11
185.2874469028653
 21
15.74082837221063
 31
0.0
 11
185.2874469028653
 21
15.67991860171804
 31
0.0
 11
185.2874469028653
 21
15.65681489566913
 31
0.0
 11
185.3126150604809
 21
15.65681489566913
 31
0.0
 11
185.3755354545199
 21
15.65681489566913
 31
0.0
 11
185.4573319667706
 21
15.65681489566913
 31
0.0
 11
185.5391284790212
 21
15.65681489566913
 31
0.0
 11
185.6020488730602
 21
15.65681489566913
 31
0.0
 11
185.6272170306758
 21
15.65681489566913
 31
0.0
 11
185.6272170306758
 21
15.63046404932156
 31
0.0
 11
185.6272170306758
 21
15.57249218735689
 31
0.0
 11
185.6272170306758
 21
15.51452032539223
 31
0.0
 11
185.6272170306758
 21
15.48816947904466
 31
0.0
 11
185.6020488730602
 21
15.48816947904466
 31
0.0
 11
185.5391284790212
 21
15.48816947904466
 31
0.0
 11
185.4573319667705
 21
15.48816947904466
 31
0.0
 11
185.3755354545199
 21
15.48816947904466
 31
0.0
 11
185.3126150604809
 21
15.48816947904466
 31
0.0
 11
185.2874469028653
 21
15.48816947904466
 31
0.0
 11
185.2874469028653
 21
15.46536458293924
 31
0.0
 11
185.2874469028653
 21
15.41098367684171
 31
0.0
 11
185.2874469028653
 21
15.34607743408014
 31
0.0
 11
185.2874469028653
 21
15.29169652798262
 31
0.0
 11
185.2874469028653
 21
15.2688916318772
 31
0.0
  0
SPLINE
  5
AB
102
{ACAD_REACTORS
330
C8
102
}
330
48
100
AcDbEntity
  8
_U_30EC_U_30A4_U_30E4_U_30FC_1
  6
Continuous
 62
     2
100
AcDbSpline
210
0.0
220
0.0
230
1.0
 70
    11
 71
     3
 72
    47
 73
    43
 74
    41
 42
0.000000001
 43
0.0000000001
 44
0.00000001
 40
0.0
 40
0.0
 40
0.0
 40
0.0
 40
0.2207912809957177
 40
0.4459404186303092
 40
0.4902387190459588
 40
0.5327473892722269
 40
0.574226045122616
 40
0.6155432630560886
 40
0.6568164066316374
 40
0.6982511618781582
 40
0.7407663929317536
 40
0.785136674317644
 40
1.010288833836451
 40
1.231080507002298
 40
1.451765243652521
 40
1.676638205891813
 40
1.720461045359782
 40
1.830018144043647
 40
1.972442372353278
 40
2.114866600677647
 40
2.224423699395272
 40
2.268246538883513
 40
2.493628801207345
 40
2.715602830286752
 40
2.934211330706497
 40
3.149502369855494
 40
3.231387784851196
 40
3.318231873854288
 40
3.405143198198276
 40
3.486970301720712
 40
3.702258172494159
 40
3.920866283534379
 40
4.142839325932178
 40
4.368221903865638
 40
4.412044743360118
 40
4.521601842096134
 40
4.664026070452614
 40
4.806450298809324
 40
4.916007397547016
 40
4.959830237043338
 40
5.184703515847374
 40
5.405387250767745
 40
5.405387250767745
 40
5.405387250767745
 40
5.405387250767745
 10
182.6507427258646
 20
15.73406440953873
 30
0.0
 10
182.6568139420004
 20
15.79758482501212
 30
0.0
 10
182.6690762107244
 20
15.92587938689628
 30
0.0
 10
182.5604706879412
 20
16.20166220174079
 30
0.0
 10
182.6761985896604
 20
16.17188133432055
 30
0.0
 10
182.7171842509016
 20
16.16765556262821
 30
0.0
 10
182.7591205797518
 20
16.16310446389607
 30
0.0
 10
182.8004196625711
 20
16.16201982929485
 30
0.0
 10
182.8417032115556
 20
16.16310338195228
 30
0.0
 10
182.8836148270648
 20
16.16766112711343
 30
0.0
 10
182.9245983549019
 20
16.17187430209731
 30
0.0
 10
183.0404922843491
 20
16.20177611317534
 30
0.0
 10
182.9295652727456
 20
15.92339806609892
 30
0.0
 10
182.9574856365266
 20
15.74283140824954
 30
0.0
 10
182.940426734697
 20
15.50961042346472
 30
0.0
 10
182.9414637282102
 20
15.34906622543146
 30
0.0
 10
182.9414099399405
 20
15.22284817558723
 30
0.0
 10
182.9414277372481
 20
15.12428963336243
 30
0.0
 10
182.941418858108
 20
14.99280702442964
 30
0.0
 10
182.9414263928033
 20
14.86132844968651
 30
0.0
 10
182.9414129405128
 20
14.76276222694091
 30
0.0
 10
182.9414531717492
 20
14.63639735624153
 30
0.0
 10
182.9406746403819
 20
14.47482068822871
 30
0.0
 10
182.9565958319266
 20
14.24361821892915
 30
0.0
 10
182.9333468885408
 20
14.05874351972001
 30
0.0
 10
183.0360183444367
 20
13.78935602770055
 30
0.0
 10
182.8820238362837
 20
13.82660112685818
 30
0.0
 10
182.8004129802832
 20
13.82137994680535
 30
0.0
 10
182.7188192292583
 20
13.82660620378351
 30
0.0
 10
182.5648513666842
 20
13.78937069885387
 30
0.0
 10
182.6674183421918
 20
14.0587512986288
 30
0.0
 10
182.6442045316089
 20
14.24361585325415
 30
0.0
 10
182.6600444655139
 20
14.47482218565638
 30
0.0
 10
182.6593296313427
 20
14.63639712308504
 30
0.0
 10
182.6593664569907
 20
14.76276231210521
 30
0.0
 10
182.659354900027
 20
14.86132756635982
 30
0.0
 10
182.6593575019214
 20
14.99281127417221
 30
0.0
 10
182.6593648531779
 20
15.124275480312
 30
0.0
 10
182.6593442541351
 20
15.22287786275327
 30
0.0
 10
182.6594082192028
 20
15.34896149354428
 30
0.0
 10
182.658173394759
 20
15.51210091383772
 30
0.0
 10
182.6532040396746
 20
15.66054183777551
 30
0.0
 10
182.6507427258646
 20
15.73406440953873
 30
0.0
 11
182.6507427258646
 21
15.73406440953873
 31
0.0
 11
182.641732820038
 21
15.95467178795578
 31
0.0
 11
182.6318769706146
 21
16.1796051038718
 31
0.0
 11
182.6756985840801
 21
16.17312391463729
 31
0.0
 11
182.7178400934215
 21
16.16754892331925
 31
0.0
 11
182.7591371409791
 21
16.16367167505631
 31
0.0
 11
182.8004341885365
 21
16.16238072887607
 31
0.0
 11
182.8416871388731
 21
16.16367167505631
 31
0.0
 11
182.8829400892098
 21
16.16754892331925
 31
0.0
 11
182.9250882131343
 21
16.17312391463729
 31
0.0
 11
182.9689825870146
 21
16.1796051038718
 31
0.0
 11
182.9590577693892
 21
15.95467178795578
 31
0.0
 11
182.950038420831
 21
15.73406440953873
 31
0.0
 11
182.9435638463435
 21
15.51347467001056
 31
0.0
 11
182.9414218238286
 21
15.28861190965008
 31
0.0
 11
182.9414218238286
 21
15.24478907015487
 31
0.0
 11
182.9414218238286
 21
15.13523197141683
 31
0.0
 11
182.9414218238286
 21
14.99280774305738
 31
0.0
 11
182.9414218238286
 21
14.85038351469793
 31
0.0
 11
182.9414218238286
 21
14.74082641595989
 31
0.0
 11
182.9414218238286
 21
14.69700357646468
 31
0.0
 11
182.9435638463435
 21
14.47163149318767
 31
0.0
 11
182.950038420831
 21
14.2497519099098
 31
0.0
 11
182.9590577693892
 21
14.0313295488533
 31
0.0
 11
182.9689825870146
 21
13.81626739612928
 31
0.0
 11
182.8872616168771
 21
13.82145433189186
 31
0.0
 11
182.8004341885365
 21
13.82315538223863
 31
0.0
 11
182.7135395119339
 21
13.82145433189186
 31
0.0
 11
182.6318769706146
 21
13.81626739612928
 31
0.0
 11
182.641732820038
 21
14.0313295488533
 31
0.0
 11
182.6507427258646
 21
14.2497519099098
 31
0.0
 11
182.6571833838798
 21
14.47163149318767
 31
0.0
 11
182.6593583588023
 21
14.69700357646468
 31
0.0
 11
182.6593583588023
 21
14.74082641595989
 31
0.0
 11
182.6593583588023
 21
14.85038351469793
 31
0.0
 11
182.6593583588023
 21
14.99280774305738
 31
0.0
 11
182.6593583588023
 21
15.13523197141683
 31
0.0
 11
182.6593583588023
 21
15.24478907015487
 31
0.0
 11
182.6593583588023
 21
15.28861190965008
 31
0.0
 11
182.6571833838798
 21
15.51347467001055
 31
0.0
 11
182.6507427258646
 21
15.73406440953873
 31
0.0
  0
SPLINE
  5
AC
102
{ACAD_REACTORS
330
C9
102
}
330
48
100
AcDbEntity
  8
_U_30EC_U_30A4_U_30E4_U_30FC_1
  6
Continuous
 62
     2
100
AcDbSpline
210
0.0
220
0.0
230
1.0
 70
    11
 71
     3
 72
   110
 73
   106
 74
   104
 42
0.000000001
 43
0.0000000001
 44
0.00000001
 40
0.0
 40
0.0
 40
0.0
 40
0.0
 40
0.2203406257277732
 40
0.4407808782838111
 40
0.5952494494615372
 40
0.7488431659393947
 40
0.9023581831309363
 40
1.056801968670406
 40
1.210736449099964
 40
1.363041386539785
 40
1.515315729683157
 40
1.669377239148079
 40
1.721611652756565
 40
1.773199502942955
 40
1.824933793210004
 40
1.877110426487971
 40
1.982682281206734
 40
2.078781667087543
 40
2.172809640822236
 40
2.271937807378833
 40
2.378349933379311
 40
2.494131557736386
 40
2.626681683943576
 40
2.783145050796061
 40
2.890701232940919
 40
2.993130312454819
 40
3.099869730691795
 40
3.22023781669129
 40
3.352695482737579
 40
3.481732806389831
 40
3.593499473690359
 40
3.674323013331877
 40
3.817951711952855
 40
3.946167120793937
 40
4.061405053453537
 40
4.166480796003263
 40
4.262478775059243
 40
4.350736673551142
 40
4.433071991254028
 40
4.511216293814743
 40
4.564262454118082
 40
4.618474415571704
 40
4.6701284887543
 40
4.722296879126523
 40
4.819540945314449
 40
4.931194984128249
 40
5.049996040257919
 40
5.16864375541555
 40
5.283970811762762
 40
5.392260784910587
 40
5.486512254876634
 40
5.559178233950061
 40
5.591425852853734
 40
5.626215969638111
 40
5.667155838674657
 40
5.717449290214468
 40
5.738402360945082
 40
5.784499116554047
 40
5.830595872165018
 40
5.851548942897875
 40
5.873019280661989
 40
5.924217778408533
 40
5.985325662817912
 40
6.036524160567925
 40
6.057994498334455
 40
6.236847789607708
 40
6.38140992894588
 40
6.493190424178913
 40
6.574067534230717
 40
6.691018086205811
 40
6.814881554220729
 40
6.944307823240681
 40
7.071266716066419
 40
7.193488604462178
 40
7.309042773128462
 40
7.414007203171059
 40
7.505140441886759
 40
7.531150360599917
 40
7.559221645322501
 40
7.587202218921158
 40
7.612569159499372
 40
7.66255080948125
 40
7.702878875764376
 40
7.85732820523119
 40
8.010799568088835
 40
8.165256399657785
 40
8.322232698714124
 40
8.479564855016754
 40
8.635216230291014
 40
8.790882550925904
 40
8.948305154947498
 40
9.168271839033192
 40
9.387358980987461
 40
9.608047961033705
 40
9.832914234792904
 40
9.858338694963239
 40
9.925366817230245
 40
10.02013071422783
 40
10.12876249859021
 40
10.23739428295271
 40
10.33215817995213
 40
10.39918630222416
 40
10.42461076239805
 40
10.64992019336966
 40
10.87188524531211
 40
10.87188524531211
 40
10.87188524531211
 40
10.87188524531211
 10
179.9057788376618
 20
15.73923260398191
 30
0.0
 10
179.9092864933541
 20
15.80616462073805
 30
0.0
 10
179.9163033987663
 20
15.9400589191586
 30
0.0
 10
179.8198027599073
 20
16.22548554971472
 30
0.0
 10
180.0510134726108
 20
16.16284386190284
 30
0.0
 10
180.1919290057157
 20
16.17001554055991
 30
0.0
 10
180.3490417757588
 20
16.16235883078245
 30
0.0
 10
180.5025913427287
 20
16.16252752283039
 30
0.0
 10
180.6545104935082
 20
16.16182040535433
 30
0.0
 10
180.8142214813231
 20
16.17210158351639
 30
0.0
 10
180.9408972601119
 20
16.15496511080751
 30
0.0
 10
181.1370821122079
 20
16.22727260107147
 30
0.0
 10
181.1034395279079
 20
16.12640699080116
 30
0.0
 10
181.1052011317184
 20
16.07619253947671
 30
0.0
 10
181.1027342073459
 20
16.02712335586467
 30
0.0
 10
181.1347076966011
 20
15.94063490846999
 30
0.0
 10
181.0010399903256
 20
15.98997438608338
 30
0.0
 10
180.9172208688056
 20
15.98430634314168
 30
0.0
 10
180.8173861139325
 20
15.99465516706299
 30
0.0
 10
180.7186576720146
 20
16.00086450411088
 30
0.0
 10
180.6121532771111
 20
16.00697763816777
 30
0.0
 10
180.491051169806
 20
16.01588883484587
 30
0.0
 10
180.3703381502454
 20
16.00521605912383
 30
0.0
 10
180.1812553843437
 20
16.0646850308037
 30
0.0
 10
180.2129028505312
 20
15.9055832007754
 30
0.0
 10
180.1995563316834
 20
15.80839128339905
 30
0.0
 10
180.197495842645
 20
15.69634065110104
 30
0.0
 10
180.195818804467
 20
15.57699685629352
 30
0.0
 10
180.1973336794232
 20
15.45032592155111
 30
0.0
 10
180.1956582478672
 20
15.32301588016118
 30
0.0
 10
180.2058844271658
 20
15.22451566404465
 30
0.0
 10
180.1779006596582
 20
15.0838870262563
 30
0.0
 10
180.3508029999306
 20
15.13989551134097
 30
0.0
 10
180.4645020202772
 20
15.12719951478499
 30
0.0
 10
180.584015167224
 20
15.13448377051256
 30
0.0
 10
180.6888491425071
 20
15.13878017056756
 30
0.0
 10
180.7843084898612
 20
15.14330568258978
 30
0.0
 10
180.8763823507032
 20
15.151492011462
 30
0.0
 10
180.9476551782439
 20
15.14643850638113
 30
0.0
 10
181.0544931705687
 20
15.18536425031677
 30
0.0
 10
181.0226603598035
 20
15.10517122005881
 30
0.0
 10
181.026616450393
 20
15.05562936846034
 30
0.0
 10
181.0234502392013
 20
15.00557478039818
 30
0.0
 10
181.0550791490587
 20
14.92128847612022
 30
0.0
 10
180.9210133677692
 20
14.97425365495157
 30
0.0
 10
180.8292322793201
 20
14.96540080890443
 30
0.0
 10
180.7079729189603
 20
14.97570049965155
 30
0.0
 10
180.5914113119772
 20
14.97748911767503
 30
0.0
 10
180.4783375745879
 20
14.97787017109695
 30
0.0
 10
180.3679246308471
 20
14.98415449472181
 30
0.0
 10
180.289812406784
 20
14.97189133255365
 30
0.0
 10
180.1913625833644
 20
15.00453887616128
 30
0.0
 10
180.2012355173561
 20
14.94769748054207
 30
0.0
 10
180.1973923244404
 20
14.91392130557984
 30
0.0
 10
180.1966789884267
 20
14.87119604709412
 30
0.0
 10
180.1963369642974
 20
14.83401607262153
 30
0.0
 10
180.1963834255345
 20
14.79487237370771
 30
0.0
 10
180.1963649429927
 20
14.75716849497686
 30
0.0
 10
180.1963703431806
 20
14.71944955232403
 30
0.0
 10
180.1963697214201
 20
14.68994324745151
 30
0.0
 10
180.1963698151545
 20
14.65873577699302
 30
0.0
 10
180.1963704287921
 20
14.61414424908086
 30
0.0
 10
180.1963671499336
 20
14.55963956508852
 30
0.0
 10
180.196375962348
 20
14.51505540201448
 30
0.0
 10
180.1963359653418
 20
14.43117808585743
 30
0.0
 10
180.1976024270254
 20
14.31737520677678
 30
0.0
 10
180.1950274117844
 20
14.1683039593371
 30
0.0
 10
180.2065009381719
 20
14.06597203813906
 30
0.0
 10
180.1823506222263
 20
13.93338903885834
 30
0.0
 10
180.3332993946476
 20
13.97895732272022
 30
0.0
 10
180.4428436671556
 20
13.96427012162351
 30
0.0
 10
180.573397047392
 20
13.96920435125064
 30
0.0
 10
180.6990312209514
 20
13.97257705323361
 30
0.0
 10
180.8188730625602
 20
13.97711497498775
 30
0.0
 10
180.9391362611427
 20
13.99048536182006
 30
0.0
 10
181.0222761663515
 20
13.98068712782597
 30
0.0
 10
181.1456080421075
 20
14.04126214623318
 30
0.0
 10
181.1244269203956
 20
13.98532460134022
 30
0.0
 10
181.1235950270117
 20
13.95939249372347
 30
0.0
 10
181.1218963707558
 20
13.9319725619094
 30
0.0
 10
181.1217974888829
 20
13.89738195206386
 30
0.0
 10
181.120365930133
 20
13.86050408220769
 30
0.0
 10
181.1532804192189
 20
13.76846841021806
 30
0.0
 10
180.9551306988106
 20
13.84132015974832
 30
0.0
 10
180.8300548294891
 20
13.81825726508607
 30
0.0
 10
180.6673071295156
 20
13.82454021985786
 30
0.0
 10
180.5129366450001
 20
13.82260943909927
 30
0.0
 10
180.3566670436944
 20
13.82393762599268
 30
0.0
 10
180.1970544465281
 20
13.82059872487863
 30
0.0
 10
180.0540326342237
 20
13.83265795728241
 30
0.0
 10
179.8197144881628
 20
13.76952001976918
 30
0.0
 10
179.9173810751198
 20
14.05620527466318
 30
0.0
 10
179.9006868780058
 20
14.24988308142662
 30
0.0
 10
179.9146296709684
 20
14.47848242880295
 30
0.0
 10
179.9142987846631
 20
14.63384593955049
 30
0.0
 10
179.9143078119264
 20
14.73966336444127
 30
0.0
 10
179.9143055876316
 20
14.80205784124215
 30
0.0
 10
179.9143065551889
 20
14.89220425248327
 30
0.0
 10
179.9143065473262
 20
14.99621167157438
 30
0.0
 10
179.9143053861102
 20
15.10022131375296
 30
0.0
 10
179.9143090971502
 20
15.19036243688768
 30
0.0
 10
179.9143011051052
 20
15.25276803097215
 30
0.0
 10
179.9143334275016
 20
15.35868835961118
 30
0.0
 10
179.913144078832
 20
15.51626716544741
 30
0.0
 10
179.9082216489256
 20
15.66528219822066
 30
0.0
 10
179.9057788376618
 20
15.73923260398191
 30
0.0
 11
179.9057788376618
 21
15.73923260398191
 31
0.0
 11
179.8966918223741
 21
15.95938578101019
 31
0.0
 11
179.8868249573133
 21
16.1796051038718
 31
0.0
 11
180.04115751414
 21
16.17312391463729
 31
0.0
 11
180.1946500189047
 21
16.16754892331925
 31
0.0
 11
180.3481160653367
 21
16.16367167505631
 31
0.0
 11
180.5025544554939
 21
16.16238072887607
 31
0.0
 11
180.6564835227474
 21
16.16367167505631
 31
0.0
 11
180.80873910046
 21
16.16754892331925
 31
0.0
 11
180.9609113551074
 21
16.17312391463729
 31
0.0
 11
181.1148364762483
 21
16.1796051038718
 31
0.0
 11
181.1070811703124
 21
16.12794961777358
 31
0.0
 11
181.1044991623591
 21
16.07642642334204
 31
0.0
 11
181.1070811703124
 21
16.0247566056466
 31
0.0
 11
181.1148364762483
 21
15.97315954836785
 31
0.0
 11
181.0094874054411
 21
15.98001446156058
 31
0.0
 11
180.913637570006
 21
15.98693552058658
 31
0.0
 11
180.8198593171903
 21
15.993783819196
 31
0.0
 11
180.7209679915882
 21
16.00063211780541
 31
0.0
 11
180.6147532199924
 21
16.00710999974825
 31
0.0
 11
180.4991060528039
 21
16.01268829835795
 31
0.0
 11
180.3666126447258
 21
16.01656554662089
 31
0.0
 11
180.2101546018423
 21
16.01785649280113
 31
0.0
 11
180.2062663293722
 21
15.91037061609187
 31
0.0
 11
180.20153800484
 21
15.80805072896465
 31
0.0
 11
180.197660756675
 21
15.70138175329688
 31
0.0
 11
180.1963698105272
 21
15.58102059013251
 31
0.0
 11
180.1967799146836
 21
15.44856355891566
 31
0.0
 11
180.1980896021503
 21
15.31953288186456
 31
0.0
 11
180.1994074577049
 21
15.2077739843231
 31
0.0
 11
180.199819115366
 21
15.12695149302385
 31
0.0
 11
180.3434452935875
 21
15.12780256941251
 31
0.0
 11
180.4716343930759
 21
15.13039989580078
 31
0.0
 11
180.5868078221796
 21
15.13425509545255
 31
0.0
 11
180.6917756312221
 21
15.13901649302077
 31
0.0
 11
180.7876346289422
 21
15.14418027774176
 31
0.0
 11
180.8757413374193
 21
15.14934406246267
 31
0.0
 11
180.9578881438496
 21
15.1549124391974
 31
0.0
 11
181.0357692335572
 21
15.16132086801525
 31
0.0
 11
181.0280180445186
 21
15.10884407115337
 31
0.0
 11
181.0254328449317
 21
15.05469378470858
 31
0.0
 11
181.0280180445186
 21
15.00310444444367
 31
0.0
 11
181.0357692335572
 21
14.95151510417882
 31
0.0
 11
180.9389813454015
 21
14.96092324653758
 31
0.0
 11
180.8275950722016
 21
14.96865128473013
 31
0.0
 11
180.7089261429373
 21
14.97425273438146
 31
0.0
 11
180.5903167449213
 21
14.97726788195012
 31
0.0
 11
180.4750025117521
 21
14.97898767361639
 31
0.0
 11
180.36672619507
 21
14.98070746528258
 31
0.0
 11
180.2724839317708
 21
14.98202486979618
 31
0.0
 11
180.199819115366
 21
14.9824360763933
 31
0.0
 11
180.199407457705
 21
14.95019108508191
 31
0.0
 11
180.1980896021503
 21
14.91542593752118
 31
0.0
 11
180.1967799146836
 21
14.87450702260085
 31
0.0
 11
180.1963698105272
 21
14.82421524309952
 31
0.0
 11
180.1963698105272
 21
14.80326217235822
 31
0.0
 11
180.1963698105272
 21
14.75716541672737
 31
0.0
 11
180.1963698105272
 21
14.71106866109652
 31
0.0
 11
180.1963698105272
 21
14.69011559035522
 31
0.0
 11
180.1963698105272
 21
14.66864525258281
 31
0.0
 11
180.1963698105272
 21
14.61744675481784
 31
0.0
 11
180.1963698105272
 21
14.55633887038868
 31
0.0
 11
180.1963698105272
 21
14.50514037262372
 31
0.0
 11
180.1963698105272
 21
14.48367003485131
 31
0.0
 11
180.1967799146836
 21
14.30481721371548
 31
0.0
 11
180.1980896021503
 21
14.16026100715443
 31
0.0
 11
180.2002868589709
 21
14.04850210961289
 31
0.0
 11
180.2032586986985
 21
13.96767961831366
 31
0.0
 11
180.3202092517447
 21
13.96767961831366
 31
0.0
 11
180.4440727208746
 21
13.96767961831366
 31
0.0
 11
180.5734925526422
 21
13.96897056449391
 31
0.0
 11
180.7003922282245
 21
13.97284781275683
 31
0.0
 11
180.8224658067974
 21
13.97886708358866
 31
0.0
 11
180.9377587499464
 21
13.98663260442003
 31
0.0
 11
181.0421754573519
 21
13.99734161483403
 31
0.0
 11
181.1320599255448
 21
14.01237656274693
 31
0.0
 11
181.1264254031191
 21
13.98698427976716
 31
0.0
 11
181.1234433285423
 21
13.95907184053803
 31
0.0
 11
181.12213398812
 21
13.93112191867003
 31
0.0
 11
181.1217235369195
 21
13.90575829888473
 31
0.0
 11
181.1243087365064
 21
13.85584355063327
 31
0.0
 11
181.1320599255448
 21
13.81626739612928
 31
0.0
 11
180.9776977178344
 21
13.82145433189186
 31
0.0
 11
180.8242357818765
 21
13.82315538223863
 31
0.0
 11
180.6697789496483
 21
13.82315538223863
 31
0.0
 11
180.5128026496768
 21
13.82315538223863
 31
0.0
 11
180.3554704921537
 21
13.82315538223863
 31
0.0
 11
180.199819115366
 21
13.82315538223863
 31
0.0
 11
180.0441620874242
 21
13.82145433189186
 31
0.0
 11
179.8868249573133
 21
13.81626739612928
 31
0.0
 11
179.8966918223741
 21
14.03601267385211
 31
0.0
 11
179.9057788376618
 21
14.25491128490852
 31
0.0
 11
179.91217215184
 21
14.47550763902004
 31
0.0
 11
179.9143063455009
 21
14.70036378479716
 31
0.0
 11
179.9143063455009
 21
14.72578824496875
 31
0.0
 11
179.9143063455009
 21
14.79281636723932
 31
0.0
 11
179.9143063455009
 21
14.88758026424254
 31
0.0
 11
179.9143063455009
 21
14.99621204861208
 31
0.0
 11
179.9143063455009
 21
15.10484383298162
 31
0.0
 11
179.9143063455009
 21
15.19960772998484
 31
0.0
 11
179.9143063455009
 21
15.2666358522554
 31
0.0
 11
179.9143063455009
 21
15.292060312427
 31
0.0
 11
179.91217215184
 21
15.51735963528735
 31
0.0
 11
179.9057788376618
 21
15.73923260398191
 31
0.0
  0
SPLINE
  5
AD
102
{ACAD_REACTORS
330
CA
102
}
330
48
100
AcDbEntity
  8
_U_30EC_U_30A4_U_30E4_U_30FC_1
  6
Continuous
 62
     2
100
AcDbSpline
210
0.0
220
0.0
230
1.0
 70
    11
 71
     3
 72
    95
 73
    91
 74
    89
 42
0.000000001
 43
0.0000000001
 44
0.00000001
 40
0.0
 40
0.0
 40
0.0
 40
0.0
 40
0.6550406656910939
 40
1.30808728903194
 40
1.420803739835811
 40
1.56613075977081
 40
1.757067341888479
 40
2.00651354502647
 40
2.087328263121565
 40
2.18532887229564
 40
2.294612454748381
 40
2.408936380534824
 40
2.526802767798575
 40
2.64636052461562
 40
2.762535723971598
 40
2.87005734287017
 40
2.966883448431662
 40
3.050803243518308
 40
3.115818222436624
 40
3.156030057150261
 40
3.213914225080191
 40
3.276689026450564
 40
3.342960320981398
 40
3.40423066715059
 40
3.453822809493404
 40
3.532499827188456
 40
3.634775188507191
 40
3.75490933300819
 40
3.889736761660684
 40
4.035769602175251
 40
4.187256681197631
 40
4.338733685675981
 40
4.488478734676145
 40
4.634708317831615
 40
4.771493189921299
 40
4.892686571561228
 40
5.199775528944476
 40
5.460353566929663
 40
5.667603142345534
 40
5.814722905404517
 40
5.828990806219844
 40
5.855488336304512
 40
5.869756237118844
 40
6.18979650776283
 40
6.531890469872978
 40
6.883053637016991
 40
7.230512024911445
 40
7.566966656764571
 40
7.885203559707385
 40
8.172887439719199
 40
8.418011594062794
 40
8.443926721190715
 40
8.510760470613203
 40
8.602145393795713
 40
8.70171404164715
 40
8.793098965075384
 40
8.859932715057957
 40
8.885847842603605
 40
9.24230125661282
 40
9.589275455016775
 40
9.921808543164179
 40
10.23479624298469
 40
10.29968150889185
 40
10.35323493887768
 40
10.40154625355155
 40
10.46482922477837
 40
10.55973900668418
 40
10.69239545985631
 40
10.84920353475684
 40
11.01626328594792
 40
11.18672024367456
 40
11.35372582577224
 40
11.5025744229244
 40
11.61866495023304
 40
11.71329869152888
 40
11.8251105057392
 40
11.94464880845729
 40
12.06929242642519
 40
12.19707290435189
 40
12.32562632860541
 40
12.45034565331292
 40
12.5664659517034
 40
12.67099007414648
 40
12.76077625936795
 40
12.82703233506707
 40
12.87429132786005
 40
12.8983199032335
 40
12.92234847860042
 40
13.53984767410337
 40
14.18294284359386
 40
14.18294284359386
 40
14.18294284359386
 40
14.18294284359386
 10
177.3067935648021
 20
14.70898038201725
 30
0.0
 10
177.1752019758551
 20
14.82265058603234
 30
0.0
 10
176.912419380273
 20
15.04964496316166
 30
0.0
 10
176.3997393441019
 20
15.8921446295629
 30
0.0
 10
176.4106654595363
 20
15.53423377577021
 30
0.0
 10
176.404122652799
 20
15.39267392272133
 30
0.0
 10
176.4028026631773
 20
15.19421305299282
 30
0.0
 10
176.4018117602539
 20
15.02150296045983
 30
0.0
 10
176.4024101751975
 20
14.87865373257581
 30
0.0
 10
176.4038994301882
 20
14.78265005413359
 30
0.0
 10
176.4055683588473
 20
14.67545503263142
 30
0.0
 10
176.4071934954617
 20
14.56164211517583
 30
0.0
 10
176.4092429501686
 20
14.44441572604589
 30
0.0
 10
176.4123165501926
 20
14.3265641123297
 30
0.0
 10
176.4156339697043
 20
14.21228087320621
 30
0.0
 10
176.419360534028
 20
14.10521401867277
 30
0.0
 10
176.4217338161424
 20
14.01007408766922
 30
0.0
 10
176.4278718888358
 20
13.92558557205696
 30
0.0
 10
176.4239784495947
 20
13.86923087298142
 30
0.0
 10
176.4455230443078
 20
13.79825022472356
 30
0.0
 10
176.3680940058619
 20
13.82902677604483
 30
0.0
 10
176.3116353240191
 20
13.82011242517614
 30
0.0
 10
176.2540495896808
 20
13.82896218398276
 30
0.0
 10
176.1690163478473
 20
13.79738225225947
 30
0.0
 10
176.2009714146384
 20
13.88095155992191
 30
0.0
 10
176.1990705282539
 20
13.94882608968309
 30
0.0
 10
176.21079600473
 20
14.0523325676442
 30
0.0
 10
176.2164241053001
 20
14.17002125616695
 30
0.0
 10
176.223790217894
 20
14.30388609164424
 30
0.0
 10
176.232075970161
 20
14.44764152872633
 30
0.0
 10
176.2398851897427
 20
14.59714022843445
 30
0.0
 10
176.2457571222658
 20
14.74792549402079
 30
0.0
 10
176.2503667817967
 20
14.89699943878438
 30
0.0
 10
176.2542632117544
 20
15.04122913163023
 30
0.0
 10
176.2570715126564
 20
15.17583905213018
 30
0.0
 10
176.2576698755022
 20
15.36469614347355
 30
0.0
 10
176.261602386715
 20
15.58975494313155
 30
0.0
 10
176.2442175378499
 20
15.86367091125707
 30
0.0
 10
176.2850417342583
 20
16.02787112098598
 30
0.0
 10
176.1995153256001
 20
16.22749661465097
 30
0.0
 10
176.2660558907689
 20
16.2238545840398
 30
0.0
 10
176.2838724273231
 20
16.22413447160855
 30
0.0
 10
176.4056801797508
 20
16.22632927398616
 30
0.0
 10
176.508077033546
 20
15.94675118721515
 30
0.0
 10
176.7580021509356
 20
15.74563008536001
 30
0.0
 10
176.9870035331111
 20
15.4779261498792
 30
0.0
 10
177.2245151213108
 20
15.22646413862374
 30
0.0
 10
177.4486090740772
 20
14.98969974061361
 30
0.0
 10
177.6750716283009
 20
14.73218692583078
 30
0.0
 10
177.8325687886513
 20
14.6164933505692
 30
0.0
 10
178.0472129612677
 20
14.27997152538795
 30
0.0
 10
178.0422645974619
 20
14.40464754091604
 30
0.0
 10
178.0433931602548
 20
14.46327691935738
 30
0.0
 10
178.0428877841517
 20
14.55043662371978
 30
0.0
 10
178.0430475158114
 20
14.64416143182873
 30
0.0
 10
178.0430054891319
 20
14.73018971297035
 30
0.0
 10
178.0430202040374
 20
14.79153891945496
 30
0.0
 10
178.0429706255982
 20
14.94135231520992
 30
0.0
 10
178.0458811522812
 20
15.17989612510106
 30
0.0
 10
178.0259521041162
 20
15.54486509868702
 30
0.0
 10
178.0750433936247
 20
15.80799631993414
 30
0.0
 10
177.9177951509181
 20
16.21928904947755
 30
0.0
 10
178.0762112872421
 20
16.16398282551748
 30
0.0
 10
178.1311680478629
 20
16.16199686500175
 30
0.0
 10
178.182788776674
 20
16.16264778248252
 30
0.0
 10
178.2713198965367
 20
16.20369527738248
 30
0.0
 10
178.2204898303169
 20
16.05696326622988
 30
0.0
 10
178.2313389930283
 20
15.95019971954434
 30
0.0
 10
178.2166036994848
 20
15.79085705414113
 30
0.0
 10
178.2099976446206
 20
15.62853061652874
 30
0.0
 10
178.2014961399915
 20
15.45992521892396
 30
0.0
 10
178.1943227202199
 20
15.29814814703541
 30
0.0
 10
178.188906321539
 20
15.15422331457933
 30
0.0
 10
178.1871713967648
 20
15.03437493466926
 30
0.0
 10
178.187544067232
 20
14.92686101590516
 30
0.0
 10
178.1873656126263
 20
14.81820024645586
 30
0.0
 10
178.1877010863141
 20
14.69953570165531
 30
0.0
 10
178.1890040622183
 20
14.57555163512741
 30
0.0
 10
178.1908887351576
 20
14.44858294171106
 30
0.0
 10
178.1925004454849
 20
14.32153861551033
 30
0.0
 10
178.1941403137431
 20
14.19854884492178
 30
0.0
 10
178.1962570745751
 20
14.0830093138376
 30
0.0
 10
178.1963848422364
 20
13.98090903955837
 30
0.0
 10
178.2006514396554
 20
13.89009848838157
 30
0.0
 10
178.190844008529
 20
13.83213621208786
 30
0.0
 10
178.211847477169
 20
13.76517130132028
 30
0.0
 10
178.1725639739897
 20
13.77291153966689
 30
0.0
 10
177.9595307117747
 20
13.75755254145193
 30
0.0
 10
177.7636297943186
 20
14.31403058094474
 30
0.0
 10
177.4611197631544
 20
14.57556035348512
 30
0.0
 10
177.3067935648021
 20
14.70898038201725
 30
0.0
 11
177.3067935648021
 21
14.70898038201725
 31
0.0
 11
176.8595529338511
 21
15.18757635411978
 31
0.0
 11
176.4124049070643
 21
15.66352649288971
 31
0.0
 11
176.4089664262494
 21
15.55086249986233
 31
0.0
 11
176.40556101835
 21
15.40557538184311
 31
0.0
 11
176.4029636920275
 21
15.21465645827968
 31
0.0
 11
176.4021126156604
 21
14.96521170139758
 31
0.0
 11
176.402523923029
 21
14.88439802954281
 31
0.0
 11
176.4038420329817
 21
14.78640628477562
 31
0.0
 11
176.4055192267718
 21
14.6771355729974
 31
0.0
 11
176.4072367127518
 21
14.5628245487204
 31
0.0
 11
176.4094007838772
 21
14.44497802965266
 31
0.0
 11
176.4124049070643
 21
14.325458021002
 31
0.0
 11
176.4158359733138
 21
14.20933349846156
 31
0.0
 11
176.4192928929998
 21
14.1018674655023
 31
0.0
 11
176.4227085253088
 21
14.00510162351265
 31
0.0
 11
176.4261896983793
 21
13.92125406276973
 31
0.0
 11
176.4296006184313
 21
13.8563286200776
 31
0.0
 11
176.4330776843149
 21
13.81626739612928
 31
0.0
 11
176.3754263821572
 21
13.82145433189186
 31
0.0
 11
176.312674631831
 21
13.82315538223863
 31
0.0
 11
176.2464251717157
 21
13.82145433189186
 31
0.0
 11
176.1853747739676
 21
13.81626739612928
 31
0.0
 11
176.1926772737814
 21
13.86531894125591
 31
0.0
 11
176.2008793569055
 21
13.94356725720856
 31
0.0
 11
176.2090098822349
 21
14.0455189325303
 31
0.0
 11
176.2163406441398
 21
14.16542920159753
 31
0.0
 11
176.2236358280421
 21
14.3000591234389
 31
0.0
 11
176.2318444255596
 21
14.44586107652746
 31
0.0
 11
176.2395504149466
 21
14.59715203135073
 31
0.0
 11
176.2455763002093
 21
14.74850913200735
 31
0.0
 11
176.2503046247416
 21
14.89817951391436
 31
0.0
 11
176.2541928972121
 21
15.04435739582223
 31
0.0
 11
176.2567527408965
 21
15.18111831592697
 31
0.0
 11
176.2576324804574
 21
15.3023085068689
 31
0.0
 11
176.257192610677
 21
15.60939715262545
 31
0.0
 11
176.2559126888348
 21
15.86997204839366
 31
0.0
 11
176.2528658717893
 21
16.07719922716126
 31
0.0
 11
176.2473049112764
 21
16.22421385386063
 31
0.0
 11
176.261572812147
 21
16.22421385386063
 31
0.0
 11
176.2880703423353
 21
16.22421385386063
 31
0.0
 11
176.3023382432059
 21
16.22421385386063
 31
0.0
 11
176.5194743650277
 21
15.98910179662774
 31
0.0
 11
176.7512744123079
 21
15.73751281231563
 31
0.0
 11
176.989481601884
 21
15.47949555543571
 31
0.0
 11
177.2260074557521
 21
15.2249707985549
 31
0.0
 11
177.4555698717706
 21
14.97899759549138
 31
0.0
 11
177.6731797360103
 21
14.74678934034107
 31
0.0
 11
177.8713724913707
 21
14.53826680567101
 31
0.0
 11
178.0430143099087
 21
14.3632669793259
 31
0.0
 11
178.0430143099087
 21
14.38918210687044
 31
0.0
 11
178.0430143099087
 21
14.45601585685372
 31
0.0
 11
178.0430143099087
 21
14.54740078030026
 31
0.0
 11
178.0430143099087
 21
14.64696942823454
 31
0.0
 11
178.0430143099087
 21
14.73835435168107
 31
0.0
 11
178.0430143099087
 21
14.80518810166436
 31
0.0
 11
178.0430143099087
 21
14.8311032292089
 31
0.0
 11
178.041723363761
 21
15.18755430550868
 31
0.0
 11
178.0378461155959
 21
15.53450684014416
 31
0.0
 11
178.0296197790002
 21
15.86693815950552
 31
0.0
 11
178.0154535467228
 21
16.1796051038718
 31
0.0
 11
178.0790351249619
 21
16.16666367158334
 31
0.0
 11
178.1324170159611
 21
16.16238072887607
 31
0.0
 11
178.1805381084833
 21
16.16666367158334
 31
0.0
 11
178.2424836798198
 21
16.1796051038718
 31
0.0
 11
178.2351216487575
 21
16.08498128445101
 31
0.0
 11
178.2269790968818
 21
15.95257496503965
 31
0.0
 11
178.2183705364005
 21
15.79600336785657
 31
0.0
 11
178.2097547223216
 21
15.62916593734271
 31
0.0
 11
178.2016187850289
 21
15.45890325509361
 31
0.0
 11
178.1942501393836
 21
15.292060312427
 31
0.0
 11
178.1891406931522
 21
15.1432994357281
 31
0.0
 11
178.1874503478905
 21
15.02722121527102
 31
0.0
 11
178.1874503478905
 21
14.93258747397519
 31
0.0
 11
178.1874503478905
 21
14.82077565976708
 31
0.0
 11
178.1878461204497
 21
14.70123801222749
 31
0.0
 11
178.1890819450708
 21
14.5766005209392
 31
0.0
 11
178.1908392193318
 21
14.44883212687392
 31
0.0
 11
178.1925303477608
 21
14.3202898265588
 31
0.0
 11
178.1942876220215
 21
14.19558288214556
 31
0.0
 11
178.1959787504505
 21
14.0794748960635
 31
0.0
 11
178.1972884379172
 21
13.97495896727018
 31
0.0
 11
178.1976985420736
 21
13.88517371555653
 31
0.0
 11
178.1976985420736
 21
13.81891763918417
 31
0.0
 11
178.1976985420736
 21
13.77165864614042
 31
0.0
 11
178.1736699662976
 21
13.77165864614042
 31
0.0
 11
178.1496413905217
 21
13.77165864614042
 31
0.0
 11
177.7410729200423
 21
14.23466735262191
 31
0.0
 11
177.3067935648021
 21
14.70898038201725
 31
0.0
  0
SPLINE
  5
AE
102
{ACAD_REACTORS
330
CB
102
}
330
48
100
AcDbEntity
  8
_U_30EC_U_30A4_U_30E4_U_30FC_1
  6
Continuous
 62
     2
100
AcDbSpline
210
0.0
220
0.0
230
1.0
 70
    11
 71
     3
 72
    25
 73
    21
 74
    19
 42
0.000000001
 43
0.0000000001
 44
0.00000001
 40
0.0
 40
0.0
 40
0.0
 40
0.0
 40
0.091147996906539
 40
0.1858117896204666
 40
0.2804128399735059
 40
0.3715889190714509
 40
0.4679080494218707
 40
0.5642683809229229
 40
0.6605683222645273
 40
0.7569653015811106
 40
0.856134817252359
 40
1.092615965104389
 40
1.374867658141986
 40
1.61134881201172
 40
1.710518328425368
 40
1.809403163726685
 40
2.045205463294188
 40
2.32664691762225
 40
2.562449217190712
 40
2.661334043834031
 40
2.661334043834031
 40
2.661334043834031
 40
2.661334043834031
 10
173.2683700567199
 20
14.88614538197293
 30
0.0
 10
173.2987525917923
 20
14.88598079714555
 30
0.0
 10
173.3606895889112
 20
14.88564528689923
 30
0.0
 10
173.454135696033
 20
14.88269055452001
 30
0.0
 10
173.5475095236357
 20
14.87977752877152
 30
0.0
 10
173.6417760753477
 20
14.87894201643417
 30
0.0
 10
173.7354964790966
 20
14.87996644658048
 30
0.0
 10
173.8352040303205
 20
14.87916977470973
 30
0.0
 10
173.9188949546313
 20
14.88921410235221
 30
0.0
 10
174.0637996315046
 20
14.86234617674164
 30
0.0
 10
173.9396132444802
 20
15.0366553028005
 30
0.0
 10
173.8965867286282
 20
15.19651711006092
 30
0.0
 10
173.780892214221
 20
15.45518458550218
 30
0.0
 10
173.7017565431257
 20
15.59231052861858
 30
0.0
 10
173.6431576621816
 20
15.80937033134078
 30
0.0
 10
173.5864803939438
 20
15.59266134213429
 30
0.0
 10
173.5052809900477
 20
15.45327012438237
 30
0.0
 10
173.4063701281488
 20
15.20406969370196
 30
0.0
 10
173.3253625094259
 20
15.01925830226074
 30
0.0
 10
173.2813683325838
 20
14.91650446856118
 30
0.0
 10
173.2683700567199
 20
14.88614538197293
 30
0.0
 11
173.2683700567199
 21
14.88614538197293
 31
0.0
 11
173.3595137737821
 21
14.8852612326676
 31
0.0
 11
173.4541428297581
 21
14.882696979196
 31
0.0
 11
173.5487082179706
 21
14.88009965280779
 31
0.0
 11
173.6398803250196
 21
14.87924857641911
 31
0.0
 11
173.7361985777706
 21
14.87965978301622
 31
0.0
 11
173.8325499034376
 21
14.88097718752972
 31
0.0
 11
173.9288262638286
 21
14.88310818579313
 31
0.0
 11
174.0251753846344
 21
14.88614538197293
 31
0.0
 11
173.9854633323142
 21
14.97701642195021
 31
0.0
 11
173.8907653613969
 21
15.19370890189603
 31
0.0
 11
173.7777387509471
 21
15.45234186183136
 31
0.0
 11
173.6830407800297
 21
15.66903434177718
 31
0.0
 11
173.6433287277095
 21
15.75990538175446
 31
0.0
 11
173.6043330259266
 21
15.66903434177718
 31
0.0
 11
173.5113432755212
 21
15.45234186183136
 31
0.0
 11
173.4003555089082
 21
15.19370890189603
 31
0.0
 11
173.3073657585028
 21
14.97701642195021
 31
0.0
 11
173.2683700567199
 21
14.88614538197293
 31
0.0
  0
SPLINE
  5
AF
102
{ACAD_REACTORS
330
CB
102
}
330
48
100
AcDbEntity
  8
_U_30EC_U_30A4_U_30E4_U_30FC_1
  6
Continuous
 62
     2
100
AcDbSpline
210
0.0
220
0.0
230
1.0
 70
    11
 71
     3
 72
    57
 73
    53
 74
    51
 42
0.000000001
 43
0.0000000001
 44
0.00000001
 40
0.0
 40
0.0
 40
0.0
 40
0.0
 40
0.0471632082809513
 40
0.0914861054631864
 40
0.13577625197021
 40
0.1826527001610679
 40
0.2295203288573156
 40
0.273775197222161
 40
0.318131046154392
 40
0.3652607198398512
 40
0.4571007286314642
 40
0.5671851029165466
 40
0.6894623283868586
 40
0.8181758272545824
 40
0.9510087229274251
 40
1.085852229674052
 40
1.218126164475299
 40
1.343545131142379
 40
1.454537202956767
 40
1.567187607530804
 40
1.68071096664248
 40
1.794226869736873
 40
1.900009184247644
 40
2.004085860447952
 40
2.108162674451811
 40
2.214000150155299
 40
2.496038577352167
 40
2.762350745479275
 40
2.997275353279406
 40
3.185110082137722
 40
3.246407890064005
 40
3.312607550212793
 40
3.378877742711667
 40
3.440140399651435
 40
4.100501696006432
 40
4.754913085563465
 40
5.411331693423891
 40
6.077890432568697
 40
6.110575292670976
 40
6.143260152775756
 40
6.367989363395116
 40
6.610525374951535
 40
6.863389136467295
 40
7.119380025547549
 40
7.376036605091056
 40
7.631164770966243
 40
7.876722425456392
 40
8.10495373585591
 40
8.312916685924272
 40
8.497730294941286
 40
8.651018984313813
 40
8.764738853624573
 40
8.764738853624573
 40
8.764738853624573
 40
8.764738853624573
 10
174.7922649500514
 20
13.81626739612928
 30
0.0
 10
174.7766616726931
 20
13.81826231079078
 30
0.0
 10
174.7463947960303
 20
13.82213201360299
 30
0.0
 10
174.7010994202253
 20
13.82341984967269
 30
0.0
 10
174.655955312935
 20
13.82308683554052
 30
0.0
 10
174.60990171234
 20
13.82314658674225
 30
0.0
 10
174.5640496172096
 20
13.82325813650002
 30
0.0
 10
174.5183711648166
 20
13.82277833456591
 30
0.0
 10
174.4750811541607
 20
13.82461109618722
 30
0.0
 10
174.4039947951515
 20
13.80049556814661
 30
0.0
 10
174.4057477261441
 20
13.92184693977252
 30
0.0
 10
174.358619637057
 20
14.00726239751234
 30
0.0
 10
174.3191478251761
 20
14.12486929345133
 30
0.0
 10
174.2706635532647
 20
14.24232752540443
 30
0.0
 10
174.2201017402521
 20
14.36405935761506
 30
0.0
 10
174.1718634610478
 20
14.49075967862468
 30
0.0
 10
174.1135232947596
 20
14.59933687784954
 30
0.0
 10
174.0980892667262
 20
14.7562065713441
 30
0.0
 10
173.9566586330637
 20
14.72373446548323
 30
0.0
 10
173.8508397414904
 20
14.73512888682179
 30
0.0
 10
173.7358569725222
 20
14.73392591514616
 30
0.0
 10
173.6253142252141
 20
14.73506945347409
 30
0.0
 10
173.5176583522783
 20
14.73418350037527
 30
0.0
 10
173.4121322529243
 20
14.73416602390518
 30
0.0
 10
173.3109192682014
 20
14.72714032472417
 30
0.0
 10
173.1266804827753
 20
14.75135859859866
 30
0.0
 10
173.1157393685411
 20
14.4474169112189
 30
0.0
 10
173.0087691634751
 20
14.22353177253396
 30
0.0
 10
172.9098148604348
 20
14.03895314292498
 30
0.0
 10
172.9225090524008
 20
13.79530204804206
 30
0.0
 10
172.8050091716398
 20
13.82508046753198
 30
0.0
 10
172.7422055868309
 20
13.82258089509604
 30
0.0
 10
172.6785872093401
 20
13.82344075102806
 30
0.0
 10
172.3946014194073
 20
13.78098039941946
 30
0.0
 10
173.0251638499382
 20
14.50081952444789
 30
0.0
 10
173.1087645289071
 20
15.01276539435732
 30
0.0
 10
173.4929252789338
 20
15.53353743550042
 30
0.0
 10
173.4777208288569
 20
16.23519626253218
 30
0.0
 10
173.7239265722698
 20
16.22345633081257
 30
0.0
 10
173.8256346157563
 20
16.23225004452775
 30
0.0
 10
173.8249752035817
 20
15.98059650730344
 30
0.0
 10
173.9428317155829
 20
15.79818020733961
 30
0.0
 10
174.0315515260486
 20
15.55563740662869
 30
0.0
 10
174.1322292485259
 20
15.32340030530126
 30
0.0
 10
174.2311142712244
 20
15.08674644566916
 30
0.0
 10
174.3299676990668
 20
14.85461739170091
 30
0.0
 10
174.4256166390927
 20
14.63122222788792
 30
0.0
 10
174.5159904573271
 20
14.42272549049314
 30
0.0
 10
174.5989944568189
 20
14.23308448529321
 30
0.0
 10
174.67260885828
 20
14.06663106068103
 30
0.0
 10
174.7342815895545
 20
13.92917699626095
 30
0.0
 10
174.7749458885604
 20
13.84999239430034
 30
0.0
 10
174.7922649500514
 20
13.81626739612928
 30
0.0
 11
174.7922649500514
 21
13.81626739612928
 31
0.0
 11
174.7453878317448
 21
13.82145433189186
 31
0.0
 11
174.7010975896126
 21
13.82315538223863
 31
0.0
 11
174.656807443173
 21
13.82315538223863
 31
0.0
 11
174.609930994716
 21
13.82315538223863
 31
0.0
 11
174.5630633657034
 21
13.82315538223863
 31
0.0
 11
174.5188084970408
 21
13.82315538223863
 31
0.0
 11
174.4744852776854
 21
13.82145433189186
 31
0.0
 11
174.4276419021444
 21
13.81626739612928
 31
0.0
 11
174.3992532136325
 21
13.90360966173245
 31
0.0
 11
174.3622721815898
 21
14.0072965627482
 31
0.0
 11
174.3188386236701
 21
14.12159987001128
 31
0.0
 11
174.2711055866937
 21
14.24113531268969
 31
0.0
 11
174.2208160133237
 21
14.36408057307566
 31
0.0
 11
174.1696467003933
 21
14.48883822929447
 31
0.0
 11
174.1197531801327
 21
14.61134141502773
 31
0.0
 11
174.0733119111842
 21
14.72784517367918
 31
0.0
 11
173.962361190759
 21
14.73087465284507
 31
0.0
 11
173.849730922509
 21
14.7330045486779
 31
0.0
 11
173.7362152069449
 21
14.73432195319141
 31
0.0
 11
173.62270004768
 21
14.73473315978853
 31
0.0
 11
173.5169185312816
 21
14.73432195319141
 31
0.0
 11
173.4128501919225
 21
14.7330045486779
 31
0.0
 11
173.3087951724045
 21
14.73087465284507
 31
0.0
 11
173.2030010615597
 21
14.72784517367918
 31
0.0
 11
173.0980914750139
 21
14.46604437513352
 31
0.0
 11
173.0034868690332
 21
14.21710232658461
 31
0.0
 11
172.9252231210299
 21
13.99559756969558
 31
0.0
 11
172.8693431224556
 21
13.81626739612928
 31
0.0
 11
172.8082651639442
 21
13.82145433189186
 31
0.0
 11
172.742087361813
 21
13.82315538223863
 31
0.0
 11
172.6758390041282
 21
13.82145433189186
 31
0.0
 11
172.6147963233939
 21
13.81626739612928
 31
0.0
 11
172.8899684951931
 21
14.41656508695143
 31
0.0
 11
173.158294573417
 21
15.01343642360776
 31
0.0
 11
173.4240277350405
 21
15.61366245644382
 31
0.0
 11
173.6914740737034
 21
16.22421385386063
 31
0.0
 11
173.7241589339807
 21
16.22421385386063
 31
0.0
 11
173.756843794258
 21
16.22421385386063
 31
0.0
 11
173.8428300681057
 21
16.01658539037085
 31
0.0
 11
173.935728581361
 21
15.79254614563518
 31
0.0
 11
174.0328714521464
 21
15.55908663180469
 31
0.0
 11
174.1317936458031
 21
15.32298128464146
 31
0.0
 11
174.2315341249927
 21
15.08649780379784
 31
0.0
 11
174.3313071129353
 21
14.85168781253711
 31
0.0
 11
174.4280608257449
 21
14.62599492196851
 31
0.0
 11
174.5188084970408
 21
14.4165805209792
 31
0.0
 11
174.6022150834546
 21
14.22607611130461
 31
0.0
 11
174.6770293263378
 21
14.05708232662468
 31
0.0
 11
174.7410729186603
 21
13.91781337700668
 31
0.0
 11
174.7922649500514
 21
13.81626739612928
 31
0.0
  0
SPLINE
  5
B0
102
{ACAD_REACTORS
330
CC
102
}
330
48
100
AcDbEntity
  8
_U_30EC_U_30A4_U_30E4_U_30FC_1
  6
Continuous
 62
     2
100
AcDbSpline
210
0.0
220
0.0
230
1.0
 70
    11
 71
     3
 72
    99
 73
    95
 74
    93
 42
0.000000001
 43
0.0000000001
 44
0.00000001
 40
0.0
 40
0.0
 40
0.0
 40
0.0
 40
0.0796417172273046
 40
0.1621768542355941
 40
0.2486489160957833
 40
0.340496966852531
 40
0.4381912511165617
 40
0.5434463660244782
 40
0.6518115192847098
 40
0.7530190937887496
 40
0.849219691972551
 40
0.941929031299879
 40
1.034249663570086
 40
1.129078600620212
 40
1.226697027573259
 40
1.32722042542172
 40
1.470572134938033
 40
1.595489863371234
 40
1.719934125348373
 40
1.850576620127438
 40
1.989059629987274
 40
2.134139054226838
 40
2.280698007207156
 40
2.4245297390395
 40
2.565929576985823
 40
2.708239260773552
 40
2.861717887443636
 40
3.045168540347349
 40
3.183798301138586
 40
3.314813961455444
 40
3.442083470447279
 40
3.569912708372873
 40
3.702177512509276
 40
3.842307559659442
 40
3.992872223245901
 40
4.156750662218347
 40
4.310981861107455
 40
4.4458599093225
 40
4.572393936131546
 40
4.701656719781973
 40
4.768279086008463
 40
4.835960697898399
 40
4.912788918729336
 40
5.006285208481526
 40
5.026909478751659
 40
5.047533749021281
 40
5.101808031471334
 40
5.162325165538646
 40
5.226919745995967
 40
5.294231806596762
 40
5.364544852554932
 40
5.438319055467978
 40
5.517877651324394
 40
5.607647714861592
 40
5.700449642544439
 40
5.788251142364279
 40
5.87271470603986
 40
5.955167292575419
 40
6.037192395190515
 40
6.120669181469241
 40
6.206848616686487
 40
6.296680855416901
 40
6.442558392872733
 40
6.568190371608421
 40
6.692904567360537
 40
6.824220446557338
 40
6.963121850329524
 40
7.107843738851286
 40
7.253431663907397
 40
7.395187468036895
 40
7.533140753237883
 40
7.670550457175426
 40
7.816236511769436
 40
7.98769165735939
 40
8.142277421969423
 40
8.293662615415167
 40
8.44296246087944
 40
8.59159831618547
 40
8.743678992361966
 40
8.903725323699325
 40
9.076307008890728
 40
9.265578604680726
 40
9.459203795360873
 40
9.61761981027377
 40
9.753609671362128
 40
9.874873300004232
 40
9.954520184977925
 40
10.0241641371926
 40
10.0976976440546
 40
10.18909955924988
 40
10.20974586420144
 40
10.23039218263383
 40
10.3005710188127
 40
10.37632012987549
 40
10.37632012987549
 40
10.37632012987549
 40
10.37632012987549
 10
170.1465954835851
 20
14.13795663215995
 30
0.0
 10
170.1632217851219
 20
14.11720608845315
 30
0.0
 10
170.1970784206578
 20
14.07495111711908
 30
0.0
 10
170.2599822541036
 20
14.02029811392069
 30
0.0
 10
170.3332500940393
 20
13.97299025121051
 30
0.0
 10
170.4175969238637
 20
13.93527231437936
 30
0.0
 10
170.513224061546
 20
13.91040619731953
 30
0.0
 10
170.6171853775347
 20
13.90309559345938
 30
0.0
 10
170.7224020220405
 20
13.91142322794055
 30
0.0
 10
170.8206626371334
 20
13.94149179651527
 30
0.0
 10
170.9058986427549
 20
13.98848822971879
 30
0.0
 10
170.9779220206103
 20
14.04952991250856
 30
0.0
 10
171.0350917709097
 20
14.12412969578584
 30
0.0
 10
171.0767868747439
 20
14.21002464660177
 30
0.0
 10
171.1026952846292
 20
14.30485850432212
 30
0.0
 10
171.1118037332653
 20
14.41854979038368
 30
0.0
 10
171.0986864796486
 20
14.54332587770779
 30
0.0
 10
171.0325330334415
 20
14.66014719171892
 30
0.0
 10
170.9369370919568
 20
14.74512539577378
 30
0.0
 10
170.8249681022369
 20
14.81416684459158
 30
0.0
 10
170.699365958327
 20
14.87204142045891
 30
0.0
 10
170.5656691620856
 20
14.92373723284341
 30
0.0
 10
170.4313122818832
 20
14.97899092397184
 30
0.0
 10
170.3051983986877
 20
15.04939770641646
 30
0.0
 10
170.1926579987536
 20
15.13785540731255
 30
0.0
 10
170.0969963064458
 20
15.24981067868469
 30
0.0
 10
170.0334157151827
 20
15.39949910101387
 30
0.0
 10
170.0200706505016
 20
15.55932794385142
 30
0.0
 10
170.0320510987449
 20
15.71048405306847
 30
0.0
 10
170.0712298928842
 20
15.83809244591538
 30
0.0
 10
170.1354987750911
 20
15.95080874030843
 30
0.0
 10
170.223820499974
 20
16.04648609268688
 30
0.0
 10
170.3338091207627
 20
16.12354214985753
 30
0.0
 10
170.4632284401265
 20
16.18151396936279
 30
0.0
 10
170.6111838967794
 20
16.21739177588822
 30
0.0
 10
170.7682069455487
 20
16.22746719050565
 30
0.0
 10
170.917494046643
 20
16.21863637762591
 30
0.0
 10
171.059625361417
 20
16.19074899340352
 30
0.0
 10
171.1595922609626
 20
16.1341331470114
 30
0.0
 10
171.3125074736186
 20
16.08674602105506
 30
0.0
 10
171.2455131717169
 20
16.00197553001187
 30
0.0
 10
171.229647912027
 20
15.93438901873483
 30
0.0
 10
171.1978750531297
 20
15.86926092793192
 30
0.0
 10
171.2150202209572
 20
15.76723453256952
 30
0.0
 10
171.1666427208232
 20
15.77493211681903
 30
0.0
 10
171.1315789440766
 20
15.76806771724806
 30
0.0
 10
171.1296697985719
 20
15.83263831158199
 30
0.0
 10
171.0985692931989
 20
15.87825639621395
 30
0.0
 10
171.0664551628455
 20
15.93561036628451
 30
0.0
 10
171.0208038475169
 20
15.98540462692564
 30
0.0
 10
170.9658508218387
 20
16.02994813718994
 30
0.0
 10
170.9010841173007
 20
16.06763988836553
 30
0.0
 10
170.8232377310598
 20
16.0928337579135
 30
0.0
 10
170.7355160553352
 20
16.09931230998112
 30
0.0
 10
170.6452903277807
 20
16.09235709285606
 30
0.0
 10
170.5594594694065
 20
16.06909190460926
 30
0.0
 10
170.4828343638596
 20
16.03131644107542
 30
0.0
 10
170.4165265636201
 20
15.98051641089577
 30
0.0
 10
170.3622560536963
 20
15.9173114340721
 30
0.0
 10
170.3224925345459
 20
15.84276455710368
 30
0.0
 10
170.2976775510588
 20
15.75917313997764
 30
0.0
 10
170.289212426287
 20
15.65192948382285
 30
0.0
 10
170.3019697987103
 20
15.5296545726756
 30
0.0
 10
170.3681548409273
 20
15.41149724291209
 30
0.0
 10
170.4640977399833
 20
15.3260632570953
 30
0.0
 10
170.5757914963182
 20
15.25583362306725
 30
0.0
 10
170.7010863668703
 20
15.19659162305304
 30
0.0
 10
170.8349823941447
 20
15.14616708086132
 30
0.0
 10
170.9689930333149
 20
15.0932251698438
 30
0.0
 10
171.0950885316916
 20
15.02750170625182
 30
0.0
 10
171.2076216638417
 20
14.94480352537316
 30
0.0
 10
171.3031370284234
 20
14.83996006310079
 30
0.0
 10
171.3672706486963
 20
14.6993711725157
 30
0.0
 10
171.3811103725278
 20
14.54065409451592
 30
0.0
 10
171.367395471223
 20
14.38153155217878
 30
0.0
 10
171.3244739153985
 20
14.23483828819209
 30
0.0
 10
171.2545906329066
 20
14.10119796587144
 30
0.0
 10
171.157459221383
 20
13.9853238769929
 30
0.0
 10
171.0347806023658
 20
13.8908998177009
 30
0.0
 10
170.8874408413169
 20
13.8217927065198
 30
0.0
 10
170.7177132497125
 20
13.77953210858855
 30
0.0
 10
170.5317404979598
 20
13.76781736230408
 30
0.0
 10
170.3528955926183
 20
13.77809486683439
 30
0.0
 10
170.1881733753744
 20
13.81966573769153
 30
0.0
 10
170.0834410841056
 20
13.88797642883939
 30
0.0
 10
169.9350960790367
 20
13.9367521903211
 30
0.0
 10
169.9980378194729
 20
14.02976591290843
 30
0.0
 10
170.007227443006
 20
14.10296536248281
 30
0.0
 10
170.0303711301233
 20
14.16936294501347
 30
0.0
 10
170.0034588335318
 20
14.26974809527579
 30
0.0
 10
170.0521338956339
 20
14.2623403351738
 30
0.0
 10
170.0916530580697
 20
14.26894063620894
 30
0.0
 10
170.0996204944702
 20
14.19078703218934
 30
0.0
 10
170.1305436967923
 20
14.15600927375858
 30
0.0
 10
170.1465954835851
 20
14.13795663215995
 30
0.0
 11
170.1465954835851
 21
14.13795663215995
 31
0.0
 11
170.1982038075865
 21
14.07729869814737
 31
0.0
 11
170.2601105501335
 21
14.02271295163321
 31
0.0
 11
170.3327764009802
 21
13.97583980928384
 31
0.0
 11
170.4166468655844
 21
13.93839906276538
 31
0.0
 11
170.5112210732411
 21
13.91390636311878
 31
0.0
 11
170.6161603327165
 21
13.90575829888473
 31
0.0
 11
170.7240739497552
 21
13.91564048638223
 31
0.0
 11
170.8208419941617
 21
13.94528704887483
 31
0.0
 11
170.9050776083319
 21
13.99175118948819
 31
0.0
 11
170.9756144207687
 21
14.05191413218151
 31
0.0
 11
171.031944210998
 21
14.12505819466321
 31
0.0
 11
171.0736690016003
 21
14.21021434047523
 31
0.0
 11
171.0994680808032
 21
14.30436190989614
 31
0.0
 11
171.1080824729446
 21
14.40451552098221
 31
0.0
 11
171.0878517703357
 21
14.54643250879398
 31
0.0
 11
171.0272522666731
 21
14.65566684036388
 31
0.0
 11
170.9364971286286
 21
14.74081306430095
 31
0.0
 11
170.826010188474
 21
14.81052746532517
 31
0.0
 11
170.7008523531255
 21
14.86979854169923
 31
0.0
 11
170.5662951950999
 21
14.9240425347412
 31
0.0
 11
170.4316884277008
 21
14.98201274306005
 31
0.0
 11
170.3065802017258
 21
15.05297399304233
 31
0.0
 11
170.196027609828
 21
15.14113315968695
 31
0.0
 11
170.1053381235265
 21
15.25080295132618
 31
0.0
 11
170.0447055469485
 21
15.39179720476316
 31
0.0
 11
170.0245079172554
 21
15.57413260402315
 31
0.0
 11
170.0374030471348
 21
15.71216131926642
 31
0.0
 11
170.0761016659392
 21
15.8373312845129
 31
0.0
 11
170.1393141731507
 21
15.94779262129084
 31
0.0
 11
170.2257499954545
 21
16.04196885390621
 31
0.0
 11
170.3336492808962
 21
16.11846540770651
 31
0.0
 11
170.4613526283328
 21
16.17615670109488
 31
0.0
 11
170.6075393259923
 21
16.21220066809974
 31
0.0
 11
170.7709768565451
 21
16.22421385386063
 31
0.0
 11
170.9248918431289
 21
16.21434269066865
 31
0.0
 11
171.0564887242607
 21
16.18477329831498
 31
0.0
 11
171.172563634494
 21
16.13439993895253
 31
0.0
 11
171.2800792741123
 21
16.06264163167877
 31
0.0
 11
171.2516994050445
 21
16.00236624106887
 31
0.0
 11
171.2284855254284
 21
15.93879017337648
 31
0.0
 11
171.2078381040801
 21
15.86478841992269
 31
0.0
 11
171.1871840681488
 21
15.77360197897328
 31
0.0
 11
171.1665597978416
 21
15.77360197897328
 31
0.0
 11
171.1459355275343
 21
15.77360197897328
 31
0.0
 11
171.1256706495791
 21
15.82395108486348
 31
0.0
 11
171.0994658759421
 21
15.8785004511693
 31
0.0
 11
171.0650468924451
 21
15.93316116296116
 31
0.0
 11
171.0203554612938
 21
15.98349593725412
 31
0.0
 11
170.9657333359511
 21
16.0277717532153
 31
0.0
 11
170.9016722004327
 21
16.06436142334502
 31
0.0
 11
170.825968296114
 21
16.08882545979728
 31
0.0
 11
170.736572204645
 21
16.09701100667023
 31
0.0
 11
170.6440937174208
 21
16.08926973931102
 31
0.0
 11
170.5594072091645
 21
16.06609003445567
 31
0.0
 11
170.483702448884
 21
16.02863495634009
 31
0.0
 11
170.4183754766516
 21
15.97832774281103
 31
0.0
 11
170.3650487887664
 21
15.9160029337988
 31
0.0
 11
170.3254809233901
 21
15.84249947895608
 31
0.0
 11
170.3009523754711
 21
15.75988443557392
 31
0.0
 11
170.2927954104108
 21
15.67042329844353
 31
0.0
 11
170.3130095765617
 21
15.52595308146574
 31
0.0
 11
170.373625616682
 21
15.41591177072937
 31
0.0
 11
170.4643479320758
 21
15.33033670130632
 31
0.0
 11
170.5748676948814
 21
15.25941954854626
 31
0.0
 11
170.7000089937719
 21
15.1991430555058
 31
0.0
 11
170.8345826882553
 21
15.14590447913022
 31
0.0
 11
170.9691729191968
 21
15.09039489581075
 31
0.0
 11
171.0942976816298
 21
15.02377281249411
 31
0.0
 11
171.204800907977
 21
14.9411886371675
 31
0.0
 11
171.2955397598289
 21
14.83800003476273
 31
0.0
 11
171.3561557999489
 21
14.70552315979585
 31
0.0
 11
171.3763699660998
 21
14.5352637848384
 31
0.0
 11
171.3621839747998
 21
14.38133030397413
 31
0.0
 11
171.3196087009194
 21
14.23605531269098
 31
0.0
 11
171.2499752884266
 21
14.10398854189069
 31
0.0
 11
171.1544992078714
 21
13.99007218775248
 31
0.0
 11
171.0341060772624
 21
13.89715272597018
 31
0.0
 11
170.8896160201847
 21
13.82832357668181
 31
0.0
 11
170.7223519532714
 21
13.78581275203968
 31
0.0
 11
170.5336103348227
 21
13.77165864614042
 31
0.0
 11
170.3405031726388
 21
13.78581275203968
 31
0.0
 11
170.1878975900911
 21
13.82832357668181
 31
0.0
 11
170.0661897942203
 21
13.8889903301389
 31
0.0
 11
169.9660261826364
 21
13.95734322942738
 31
0.0
 11
169.992232058704
 21
14.03255545163077
 31
0.0
 11
170.0090121537619
 21
14.10014767383613
 31
0.0
 11
170.0206196447853
 21
14.17275926235963
 31
0.0
 11
170.031360625414
 21
14.2635278821286
 31
0.0
 11
170.0520069443316
 21
14.2635278821286
 31
0.0
 11
170.0726532632492
 21
14.2635278821286
 31
0.0
 11
170.1048916391629
 21
14.20119204881085
 31
0.0
 11
170.1465954835851
 21
14.13795663215995
 31
0.0
  0
LWPOLYLINE
  5
B1
102
{ACAD_REACTORS
330
BE
102
}
330
48
100
AcDbEntity
  8
_U_30EC_U_30A4_U_30E4_U_30FC_1
  6
Continuous
 62
     2
100
AcDbPolyline
 90
        5
 70
     1
 43
0.0
 10
192.4578138032672
 20
15.39722336795626
 10
192.4578138032672
 20
15.22875434022058
 10
191.1602971697032
 20
15.22875434022058
 10
191.1602971697032
 20
15.39722336795626
 10
192.4578138032672
 20
15.39722336795626
  0
MTEXT
  5
B3
330
48
100
AcDbEntity
  8
1
 62
     2
100
AcDbMText
 10
32.50000000000001
 20
282.0000000000003
 30
0.0
 40
5.0
 41
0.0
 71
     5
 72
     1
  1
図番
  7
CONVERTER_11
 73
     1
 44
0.45454545454545
  0
MTEXT
  5
B4
330
48
100
AcDbEntity
  8
1
 62
     2
100
AcDbMText
 10
29.00000000000001
 20
34.00000000000001
 30
0.0
 40
3.5
 41
0.0
 71
     5
 72
     1
  1
備考
  7
CONVERTER_11
 73
     1
 44
0.45454545454545
  0
MTEXT
  5
B5
330
48
100
AcDbEntity
  8
1
 62
     2
100
AcDbMText
 10
29.00000000000001
 20
22.75
 30
0.0
 40
3.5
 41
0.0
 71
     5
 72
     1
  1
品名
  7
CONVERTER_11
 73
     1
 44
0.72727272727273
  0
MTEXT
  5
B6
330
48
100
AcDbEntity
  8
1
 62
     2
100
AcDbMText
 10
29.00000000000001
 20
14.25000000000001
 30
0.0
 40
3.5
 41
0.0
 71
     5
 72
     1
  1
品番
  7
CONVERTER_11
 73
     1
 44
0.72727272727273
  0
MTEXT
  5
B7
330
48
100
AcDbEntity
  8
1
 62
     2
100
AcDbMText
 10
101.5
 20
25.00000000000002
 30
0.0
 40
3.0
 41
0.0
 71
     5
 72
     1
  1
承認
  7
CONVERTER_11
 73
     1
 44
0.59090909090909
  0
MTEXT
  5
B8
330
48
100
AcDbEntity
  8
1
 62
     2
100
AcDbMText
 10
175.0
 20
23.50000000000002
 30
0.0
 40
3.5
 41
0.0
 71
     5
 72
     1
  1
第三角法
  7
CONVERTER_11
 73
     1
 44
0.54545454545455
  0
MTEXT
  5
B9
330
48
100
AcDbEntity
  8
1
 62
     2
100
AcDbMText
 10
118.5
 20
25.00000000000002
 30
0.0
 40
3.0
 41
0.0
 71
     5
 72
     1
  1
検図
  7
CONVERTER_11
 73
     1
 44
0.59090909090909
  0
MTEXT
  5
BA
330
48
100
AcDbEntity
  8
1
 62
     2
100
AcDbMText
 10
152.5
 20
25.00000000000002
 30
0.0
 40
3.0
 41
0.0
 71
     5
 72
     1
  1
設計
  7
CONVERTER_11
 73
     1
 44
0.59090909090909
  0
MTEXT
  5
BB
330
48
100
AcDbEntity
  8
1
 62
     2
100
AcDbMText
 10
135.5
 20
25.00000000000002
 30
0.0
 40
3.0
 41
0.0
 71
     5
 72
     1
  1
製図
  7
CONVERTER_11
 73
     1
 44
0.59090909090909
  0
MTEXT
  5
BC
330
48
100
AcDbEntity
  8
1
 62
     2
100
AcDbMText
 10
89.5
 20
24.00000000000002
 30
0.0
 40
3.5
 41
0.0
 71
     5
 72
     1
  1
尺度
  7
CONVERTER_11
 73
     1
 44
0.54545454545455
  0
MTEXT
  5
BD
330
48
100
AcDbEntity
  8
1
 62
   250
100
AcDbMText
 10
25.00000000000001
 20
5.00000000000001
 30
0.0
 40
3.5
 41
0.0
 71
     4
 72
     1
  1
備考欄の文字列 原点位置=4
  7
CONVERTER_11
 73
     1
 44
0.54545454545455
  0
HATCH
  5
BE
330
48
100
AcDbEntity
  8
1
  6
Continuous
 62
     2
100
AcDbHatch
 10
0.0
 20
0.0
 30
0.0
210
0.0
220
0.0
230
1.0
  2
CUSTOM0
 70
     0
 71
     1
 91
        1
 92
        1
 93
        4
 72
     1
 10
192.4578138032672
 20
15.39722336795626
 11
192.4578138032672
 21
15.22875434022058
 72
     1
 10
192.4578138032672
 20
15.22875434022058
 11
191.1602971697032
 21
15.22875434022058
 72
     1
 10
191.1602971697032
 20
15.22875434022058
 11
191.1602971697032
 21
15.39722336795626
 72
     1
 10
191.1602971697032
 20
15.39722336795626
 11
192.4578138032672
 21
15.39722336795626
 97
        1
330
B1
 75
     1
 76
     2
 52
45.0
 41
0.1
 77
     0
 78
     1
 53
45.0
 43
0.0
 44
0.0
 45
-0.282842712474619
 46
0.0
 79
     0
 98
        1
 10
0.0
 20
0.0
  0
HATCH
  5
BF
330
48
100
AcDbEntity
  8
1
  6
Continuous
 62
     2
100
AcDbHatch
 10
0.0
 20
0.0
 30
0.0
210
0.0
220
0.0
230
1.0
  2
CUSTOM1
 70
     0
 71
     1
 91
        1
 92
        1
 93
        3
 72
     4
 94
        3
 73
     0
 74
     0
 95
       24
 96
       20
 40
0.0
 40
0.0
 40
0.0
 40
0.0
 40
0.2211075008753968
 40
0.4273218586245324
 40
0.5080174679239574
 40
0.591483590787046
 40
0.8143265690192837
 40
1.054651302686585
 40
1.295452694023179
 40
1.518109231328833
 40
1.54086432190542
 40
1.595126460622681
 40
1.659890947895995
 40
1.714153085187298
 40
1.736908174961598
 40
1.764951100735243
 40
1.801562291220804
 40
1.953914424543497
 40
2.126104167379559
 40
2.126104167379559
 40
2.126104167379559
 40
2.126104167379559
 10
185.937536955689
 20
15.58989295113017
 10
185.9112579081813
 20
15.53097628234375
 10
185.8604698894426
 20
15.41711139679259
 10
185.8131784839113
 20
15.14441958233117
 10
185.7043482802619
 20
15.24445482575455
 10
185.5514800279638
 20
15.27118593367331
 10
185.76861551812
 20
15.48518135017633
 10
185.7838483674381
 20
15.70332117782489
 10
185.8906889492001
 20
15.88451579066425
 10
185.8305380947077
 20
16.16913226311402
 10
185.9334317395403
 20
16.1411408922245
 10
185.977993346815
 20
16.13243251602299
 10
186.0380842395397
 20
16.12139654183356
 10
186.0756619587438
 20
16.10767523055559
 10
186.1252466928606
 20
16.10756076160224
 10
186.0930158919325
 20
16.07306592398623
 10
186.0171802221882
 20
16.08404104537966
 10
186.0429447159693
 20
15.89858969582451
 10
186.005589676385
 20
15.8070231354959
 10
185.985770496161
 20
15.75844135397706
 72
     4
 94
        3
 73
     0
 74
     0
 95
       70
 96
       66
 40
0.0
 40
0.0
 40
0.0
 40
0.0
 40
0.0241731073021472
 40
0.0846058988987297
 40
0.1631685280353284
 40
0.2417311571789756
 40
0.3021639488292751
 40
0.3263370654895825
 40
0.3533118254249183
 40
0.4228783438922395
 40
0.5179999095313687
 40
0.6216398239466386
 40
0.716761389149999
 40
0.7863279069650148
 40
0.813302679176212
 40
0.8372943998771958
 40
0.894505426137287
 40
0.962789554196264
 40
1.020000580349074
 40
1.043992300975172
 40
1.071934345522908
 40
1.113121768773
 40
1.145225199332324
 40
1.225483775412859
 40
1.329819923771569
 40
1.434156071994459
 40
1.514414647795879
 40
1.546518078208487
 40
1.57897476426026
 40
1.662678849314255
 40
1.777131373668504
 40
1.901833377474923
 40
2.016285900500741
 40
2.099989982528109
 40
2.132446666570467
 40
2.158782354486191
 40
2.21672086790798
 40
2.274659381334405
 40
2.300995069256337
 40
2.333451754066309
 40
2.417155836544018
 40
2.531608358985458
 40
2.656310362283981
 40
2.770762886389114
 40
2.854466971340307
 40
2.886923657364114
 40
2.913597976833548
 40
2.98238964287535
 40
3.076451716947216
 40
3.178937260458828
 40
3.272999334740233
 40
3.341791001059456
 40
3.368465320663769
 40
3.39697608073899
 40
3.472140811846226
 40
3.578408190308916
 40
3.700226892456352
 40
3.822045594634569
 40
3.928312973256676
 40
4.003477705315073
 40
4.031988456867139
 40
4.058324144797937
 40
4.116262658237098
 40
4.174201171400898
 40
4.20053684960883
 40
4.20053684960883
 40
4.20053684960883
 40
4.20053684960883
 10
185.985770496161
 20
15.75844135397706
 10
185.993825954468
 20
15.75844359811688
 10
186.0220200663242
 20
15.75845146032799
 10
186.0765534803674
 20
15.75830754828373
 10
186.1482891808604
 20
15.75909120499898
 10
186.2236240137063
 20
15.75627570463812
 10
186.2713052366439
 20
15.76298403400958
 10
186.3195071245617
 20
15.75197563692432
 10
186.3062571799875
 20
15.80546402997035
 10
186.3151093964538
 20
15.86049583543092
 10
186.3108698036287
 20
15.95419908726111
 10
186.313348348128
 20
16.04959482218533
 10
186.3090938706062
 20
16.14356821983388
 10
186.3179818665847
 20
16.19795062438013
 10
186.3046977409946
 20
16.25233997691461
 10
186.351411927711
 20
16.23842216335359
 10
186.3943254545738
 20
16.24103877374045
 10
186.4605443456686
 20
16.23648422450755
 10
186.5013342271799
 20
16.22778162134163
 10
186.5525145690819
 20
16.23531799890196
 10
186.5253720487201
 20
16.19349970223282
 10
186.4803096055706
 20
16.20284992072601
 10
186.4942065045052
 20
16.13841207371838
 10
186.4858414431653
 20
16.073782196274
 10
186.4903632178398
 20
15.97529141193889
 10
186.4854741311167
 20
15.87595932842571
 10
186.4950258992082
 20
15.8129311555297
 10
186.47997614552
 20
15.7496401149979
 10
186.5449159457208
 20
15.7651507294427
 10
186.6116246399497
 20
15.75499387697813
 10
186.7241435470827
 20
15.75988800099368
 10
186.8390235448954
 20
15.75691204732784
 10
186.9519871999747
 20
15.76221664184992
 10
187.0176267597679
 20
15.7510730647209
 10
187.0816276691054
 20
15.76744532319858
 10
187.070314288919
 20
15.71761689905276
 10
187.077533987151
 20
15.67416715212124
 10
187.070314261127
 20
15.63071745587446
 10
187.0816277175995
 20
15.58088895196877
 10
187.0176263598972
 20
15.59726166091363
 10
186.951992124046
 20
15.58611271661589
 10
186.8389974317332
 20
15.59144857206855
 10
186.7242456548643
 20
15.58834345663822
 10
186.6113183686861
 20
15.5936489468259
 10
186.5455220903584
 20
15.58257300019593
 10
186.4816097975358
 20
15.59887597847619
 10
186.4936015165125
 20
15.54423524395742
 10
186.4862104613006
 20
15.48854295047843
 10
186.4892684841983
 20
15.39649689140571
 10
186.4893422785683
 20
15.30179109873102
 10
186.486031357836
 20
15.20952782902266
 10
186.4939505989904
 20
15.15435768736141
 10
186.4815076611617
 20
15.10058169100137
 10
186.5389116551631
 20
15.11453768862782
 10
186.5994708140383
 20
15.10511457884227
 10
186.7048680855081
 20
15.10942885928705
 10
186.8204294070622
 20
15.10835504612032
 10
186.9359688877797
 20
15.10725965900995
 10
187.0414181130841
 20
15.11162525770633
 10
187.1018680471804
 20
15.10209426030672
 10
187.159283773911
 20
15.1161728960638
 10
187.1477773876709
 20
15.06707153265684
 10
187.153756678175
 20
15.0256465801865
 10
187.1520311050801
 20
14.97651677966696
 10
187.1521500122971
 20
14.94854428447609
 10
187.1521871691833
 20
14.93980288195951
 72
     4
 94
        3
 73
     0
 74
     0
 95
       62
 96
       58
 40
0.0
 40
0.0
 40
0.0
 40
0.0
 40
0.0598250028308485
 40
0.2024846486897331
 40
0.3727558389221031
 40
0.515415484793607
 40
0.5752404975785339
 40
0.9332326775487413
 40
1.290451762839509
 40
1.60207725314593
 40
1.699931634112227
 40
1.79935975642517
 40
2.270120149657177
 40
2.80466192846167
 40
2.882342287383382
 40
3.076543185719231
 40
3.329004354835696
 40
3.581465524568522
 40
3.775666424543806
 40
3.853346784558425
 40
3.899120679595171
 40
3.984129341792055
 40
4.029903236817404
 40
4.105797496059559
 40
4.295533144152518
 40
4.542189486611763
 40
4.788845828875711
 40
4.978581476410096
 40
5.054475735244338
 40
5.62173466433937
 40
6.130867242037382
 40
6.225249780948675
 40
6.318913039727371
 40
6.663579954559037
 40
7.047498900224848
 40
7.435230791575783
 40
7.498943906668195
 40
7.650875181210132
 40
7.832212509001614
 40
7.984143783697
 40
8.047856898903127
 40
8.091554632732633
 40
8.17270756696429
 40
8.216405300768013
 40
8.289021782160898
 40
8.462184160757243
 40
8.668861838005409
 40
8.842024215263972
 40
8.914640695475168
 40
8.989881580861375
 40
9.155411528827281
 40
9.320941477744064
 40
9.396182352487317
 40
9.454709011143807
 40
9.583467660170827
 40
9.71222630901305
 40
9.770752957989531
 40
9.770752957989531
 40
9.770752957989531
 40
9.770752957989531
 10
187.1521871691833
 20
14.93980288195951
 10
187.1322348171623
 20
14.93980875568673
 10
187.0647037716466
 20
14.93982863806158
 10
186.9410612161788
 20
14.93949362520326
 10
186.7863180150056
 20
14.94107673750513
 10
186.669734948248
 20
14.93686078860496
 10
186.4550942634239
 20
14.95215205331627
 10
186.8518948407229
 20
14.59198721286193
 10
186.8945656069267
 20
14.37510503397167
 10
187.3189162146613
 20
14.19325062511444
 10
187.1439821496074
 20
14.08985196568074
 10
187.0194523925084
 20
13.87831523212725
 10
186.7666277235944
 20
14.34806081001568
 10
186.4797602893626
 20
14.99511516984523
 10
186.490633592666
 20
14.68782672154695
 10
186.488289277796
 20
14.52288616971779
 10
186.4861096126411
 20
14.28879670711694
 10
186.4980774396346
 20
14.04498072421784
 10
186.4687984740631
 20
13.89855796860985
 10
186.511452262547
 20
13.75113490174539
 10
186.423981400564
 20
13.7668579730622
 10
186.3768527606745
 20
13.76694303543455
 10
186.2898973207714
 20
13.7510942548291
 10
186.3313474021725
 20
13.89527771422763
 10
186.3029875004285
 20
14.03855052698456
 10
186.3145973775301
 20
14.27674947365266
 10
186.3124175648273
 20
14.50517235240347
 10
186.3103111127995
 20
14.66705729375996
 10
186.3208035438325
 20
14.98153709333754
 10
186.0128963252893
 20
14.29229470872432
 10
185.7055258267458
 20
13.81476750243063
 10
185.5851367066274
 20
14.03741112637425
 10
185.4074607910722
 20
14.1501103495557
 10
185.8853326362895
 20
14.32548143465457
 10
185.9353959057208
 20
14.56091929252035
 10
186.3583799621718
 20
14.95322989344609
 10
186.1276754273539
 20
14.93655307029066
 10
186.0049685859342
 20
14.94269518948772
 10
185.8325483095662
 20
14.93312822699575
 10
185.721322469445
 20
14.95448818489667
 10
185.6025779627449
 20
14.92136265357421
 10
185.6183169706686
 20
15.00203900606884
 10
185.6178550933763
 20
15.04645414290855
 10
185.6027881889932
 20
15.12967081778534
 10
185.7372380935444
 20
15.09062651983884
 10
185.8619755545747
 20
15.11739729328423
 10
186.0628755237281
 20
15.10063949044053
 10
186.1921540949354
 20
15.12204225913005
 10
186.3328419928295
 20
15.08868778853421
 10
186.2980927452618
 20
15.22651875785069
 10
186.3222185666713
 20
15.34963257349482
 10
186.2967086182393
 20
15.47024055670335
 10
186.3333251146686
 20
15.60539865141494
 10
186.2211417027771
 20
15.58094545781892
 10
186.1280356457137
 20
15.59307749842024
 10
186.0191547579821
 20
15.58957630069995
 10
185.9569697640965
 20
15.58981755951603
 10
185.9375369557247
 20
15.58989295124145
 97
        3
330
A2
330
A0
330
A1
 75
     1
 76
     2
 52
45.0
 41
0.1
 77
     0
 78
     1
 53
45.0
 43
0.0
 44
0.0
 45
-0.282842712474619
 46
0.0
 79
     0
 98
        1
 10
0.0
 20
0.0
  0
HATCH
  5
C0
330
48
100
AcDbEntity
  8
1
  6
Continuous
 62
     2
100
AcDbHatch
 10
0.0
 20
0.0
 30
0.0
210
0.0
220
0.0
230
1.0
  2
CUSTOM2
 70
     0
 71
     1
 91
        1
 92
        1
 93
        1
 72
     4
 94
        3
 73
     0
 74
     0
 95
      124
 96
      120
 40
0.0
 40
0.0
 40
0.0
 40
0.0
 40
0.0278187229624226
 40
0.1011590162383985
 40
0.2048470170589954
 40
0.3237088716558677
 40
0.4425707262521431
 40
0.5462587270698694
 40
0.6195990203311229
 40
0.6474177522577808
 40
0.6750060736114372
 40
0.7357003855241888
 40
0.7963946998053621
 40
0.8239830245570914
 40
0.8540933811102007
 40
0.9373396629408688
 40
1.063094687343121
 40
1.220731268637959
 40
1.399622220914634
 40
1.589140358637618
 40
1.778658496423728
 40
1.957549448940367
 40
2.115186030872988
 40
2.240941056914292
 40
2.324187341760362
 40
2.354297700109211
 40
2.381886024671718
 40
2.442580338710305
 40
2.503274652750327
 40
2.530862977314436
 40
2.560983949278389
 40
2.640393784452734
 40
2.752662861758957
 40
2.881361560117946
 40
3.010060258454993
 40
3.122329335705197
 40
3.201739170817754
 40
3.231860142753143
 40
3.264298024030199
 40
3.352343701778069
 40
3.482095226868592
 40
3.639650650172851
 40
3.811108022565308
 40
3.982565394927815
 40
4.140120818152396
 40
4.269872343141105
 40
4.357918020802168
 40
4.390355902043795
 40
4.423256253992364
 40
4.508104530072857
 40
4.624121560636625
 40
4.750528176031353
 40
4.866545206601828
 40
4.951393482691786
 40
4.984293834645187
 40
5.011450833242102
 40
5.07119623015189
 40
5.130941627056965
 40
5.158098625648631
 40
5.190998977601294
 40
5.275847253689119
 40
5.391864284256582
 40
5.518270899648098
 40
5.634287930209109
 40
5.719136206287783
 40
5.752036558235699
 40
5.782130946282725
 40
5.862783906228898
 40
5.979550131774766
 40
6.117984316640171
 40
6.263641154587718
 40
6.402075339413922
 40
6.518841564907718
 40
6.5994945248153
 40
6.629588912848537
 40
6.654403028226114
 40
6.713575149487881
 40
6.784199939329228
 40
6.84337206049333
 40
6.868186175802547
 40
6.896246243201655
 40
6.939586233757995
 40
6.967846564564623
 40
7.043584251089562
 40
7.153234334451422
 40
7.283231855734171
 40
7.420011856035203
 40
7.550009376579554
 40
7.659659458834954
 40
7.735397144416948
 40
7.76365747485112
 40
7.796409728010777
 40
7.880876065096051
 40
7.996370852465437
 40
8.122208446418332
 40
8.237703224798926
 40
8.322169562010648
 40
8.354921815205634
 40
8.382078813307414
 40
8.441824209206722
 40
8.50156960523987
 40
8.52872660348545
 40
8.561478856695471
 40
8.645945193877521
 40
8.761439980865061
 40
8.887277580764204
 40
9.002772362000725
 40
9.087238696660917
 40
9.1199909492354
 40
9.152428830613099
 40
9.240474508638313
 40
9.370226034149264
 40
9.527781457984148
 40
9.699238830981134
 40
9.870696203978326
 40
10.02825162781375
 40
10.15800315332537
 40
10.24604883135091
 40
10.27848670378494
 40
10.27848670378494
 40
10.27848670378494
 40
10.27848670378494
 10
195.3821827564384
 20
14.01410517385758
 10
195.3914554737524
 20
14.01410498511275
 10
195.4251744536861
 20
14.01410430876715
 10
195.4934706812466
 20
14.01411807243305
 10
195.592014171158
 20
14.01403224219546
 10
195.7062066464812
 20
14.01441755612251
 10
195.8185894417071
 20
14.01300835897546
 10
195.9214376600119
 20
14.01719117422244
 10
195.9806839874848
 20
14.00823089251983
 10
196.0371265937033
 20
14.02164434526061
 10
196.0246255586955
 20
13.97087198613362
 10
196.0329549635703
 20
13.92589320939068
 10
196.024817084112
 20
13.88056752990489
 10
196.0370529214457
 20
13.82931932408467
 10
195.9747773490333
 20
13.84447955365277
 10
195.9060513026868
 20
13.83359750710744
 10
195.7782756749592
 20
13.83911304747973
 10
195.6262984511643
 20
13.837008512537
 10
195.4502695972523
 20
13.83771002588474
 10
195.2644431934287
 20
13.83745237531293
 10
195.0786167437176
 20
13.83771005144604
 10
194.9025880142169
 20
13.83700841847732
 10
194.7506104154195
 20
13.83911332229989
 10
194.6228357664555
 20
13.83359680767641
 10
194.5541077836582
 20
13.84448077125944
 10
194.4918349042884
 20
13.8293178668421
 10
194.5040616290019
 20
13.88057510805173
 10
194.4960004462597
 20
13.92582473272426
 10
194.5040675809894
 20
13.97106357955324
 10
194.4918238487084
 20
14.02234176909959
 10
194.5525017120698
 20
14.00749577363135
 10
194.6162810745737
 20
14.01756448170736
 10
194.7277314353503
 20
14.01294644212
 10
194.8497533443824
 20
14.0141332890547
 10
194.9719538137824
 20
14.01515863900635
 10
195.0829794287392
 20
14.01092475623402
 10
195.1476517413959
 20
14.02018584521739
 10
195.2091162810502
 20
14.00604423049683
 10
195.1930065601338
 20
14.07235527884517
 10
195.2042980327359
 20
14.14447790121977
 10
195.1987400822561
 20
14.27513760888286
 10
195.2008035061691
 20
14.42607323708242
 10
195.2000167127295
 20
14.59335873107887
 10
195.2007845215628
 20
14.76061110332303
 10
195.1988038785629
 20
14.91163289269915
 10
195.2041306156621
 20
15.04206069552996
 10
195.1933101388426
 20
15.114654426059
 10
195.2090326429876
 20
15.18150469436799
 10
195.1432708132491
 20
15.16580512490826
 10
195.0756367830765
 20
15.17609243083996
 10
194.9615885293811
 20
15.17113786847123
 10
194.8451242674903
 20
15.17414128030476
 10
194.7306554121478
 20
15.1688030314339
 10
194.6640324657813
 20
15.18001268074826
 10
194.5990769715186
 20
15.16349132665012
 10
194.610798975871
 20
15.2147372047706
 10
194.6032830189121
 20
15.25950333784091
 10
194.6107989878837
 20
15.30426944897962
 10
194.5990769505347
 20
15.35551536129741
 10
194.6640326339201
 20
15.33899381766817
 10
194.7306533339822
 20
15.35020571373944
 10
194.8451352858065
 20
15.34485436710665
 10
194.9615454436963
 20
15.34791188771118
 10
195.0757660174641
 20
15.34278499010709
 10
195.1430150439228
 20
15.353457333556
 10
195.2083325941439
 20
15.33742082669078
 10
195.1941391448553
 20
15.39949685750054
 10
195.2036059462997
 20
15.46586761628764
 10
195.1990269004085
 20
15.58239972741967
 10
195.2007696555949
 20
15.71426685022377
 10
195.1997551495392
 20
15.85615960150274
 10
195.2017191344373
 20
15.98769050702581
 10
195.1964668553851
 20
16.10524577283002
 10
195.2073408763476
 20
16.16947789001586
 10
195.1919536641854
 20
16.23108802545048
 10
195.2407591537801
 20
16.21702407382111
 10
195.2853995564727
 20
16.21954742075315
 10
195.3538643946742
 20
16.21512797401709
 10
195.3959106169103
 20
16.20613025544036
 10
195.4487544758776
 20
16.21411714866509
 10
195.4207035002013
 20
16.17113917611677
 10
195.3749142248595
 20
16.18259552043835
 10
195.3869539073265
 20
16.12173520005138
 10
195.3796086070642
 20
16.05769299468773
 10
195.3831195826162
 20
15.94909368863912
 10
195.3819806760175
 20
15.82494319144753
 10
195.3819174780264
 20
15.69189719829879
 10
195.3832872966868
 20
15.56797381249557
 10
195.3791638801314
 20
15.45868337849339
 10
195.3877763103565
 20
15.39608580094171
 10
195.3746757454402
 20
15.33740133296367
 10
195.4393884328199
 20
15.35362113810903
 10
195.5060405953157
 20
15.34270260383312
 10
195.6198779541103
 20
15.34793740173757
 10
195.7357259122097
 20
15.34485547516914
 10
195.8496924263281
 20
15.35018259812513
 10
195.9160341018099
 20
15.33904208166544
 10
195.9807188525481
 20
15.35546979593178
 10
195.9689820772723
 20
15.30425925210052
 10
195.9765168063042
 20
15.25950334121002
 10
195.9689820992258
 20
15.21474739010028
 10
195.9807188140738
 20
15.16353690871042
 10
195.9160344075253
 20
15.1799642779422
 10
195.8496886430826
 20
15.16882784447271
 10
195.7357459487013
 20
15.17413115893121
 10
195.6197995623055
 20
15.17114764593545
 10
195.5062756882124
 20
15.17606892268394
 10
195.4389231318805
 20
15.16585087513521
 10
195.3734285122496
 20
15.18145996138817
 10
195.3891713619219
 20
15.11463851827413
 10
195.3783275998214
 20
15.04207057815879
 10
195.3836581629793
 20
14.91162247614417
 10
195.3817136151856
 20
14.76064558185226
 10
195.3823133683214
 20
14.59322243934159
 10
195.3821506559606
 20
14.42656176118373
 10
195.3821895488136
 20
14.27360142921636
 10
195.38218164131
 20
14.14849178985706
 10
195.3821828382745
 20
14.06507890991421
 10
195.3821827716209
 20
14.02491778281976
 10
195.3821827564384
 20
14.01410517385758
 97
        1
330
A3
 75
     1
 76
     2
 52
45.0
 41
0.1
 77
     0
 78
     1
 53
45.0
 43
0.0
 44
0.0
 45
-0.282842712474619
 46
0.0
 79
     0
 98
        1
 10
0.0
 20
0.0
  0
HATCH
  5
C1
330
48
100
AcDbEntity
  8
1
  6
Continuous
 62
     2
100
AcDbHatch
 10
0.0
 20
0.0
 30
0.0
210
0.0
220
0.0
230
1.0
  2
CUSTOM3
 70
     0
 71
     1
 91
        1
 92
        1
 93
        1
 72
     4
 94
        3
 73
     0
 74
     0
 95
      131
 96
      127
 40
0.0
 40
0.0
 40
0.0
 40
0.0
 40
0.0195577029826142
 40
0.0426490537461455
 40
0.286360757585608
 40
0.5344948436188923
 40
0.7842238845572652
 40
0.8737315789466379
 40
0.9803832810311643
 40
1.092842274516911
 40
1.199761146656669
 40
1.289788768186398
 40
1.351573580786135
 40
1.370727117561378
 40
1.416400936017808
 40
1.470914848355948
 40
1.516588666791773
 40
1.535742203552853
 40
1.634216592293202
 40
1.760283341175038
 40
1.897966686682099
 40
2.031216387368923
 40
2.049689751137917
 40
2.101115601646852
 40
2.179502577739971
 40
2.278859318314085
 40
2.393194462258743
 40
2.516516648383856
 40
2.642834515405983
 40
2.766156701983487
 40
2.880491846754602
 40
2.979848588358642
 40
3.05823556544382
 40
3.109661416668974
 40
3.12813478070415
 40
3.146783742386466
 40
3.191254343315299
 40
3.244332157315901
 40
3.288802758225776
 40
3.307451719895047
 40
3.327717853844659
 40
3.383747753580019
 40
3.46838866592441
 40
3.574487837698717
 40
3.694892515728823
 40
3.822449946851959
 40
3.95000737792035
 40
4.070412055800441
 40
4.176511227367994
 40
4.261152139501442
 40
4.317182039076634
 40
4.337448172964555
 40
4.620011002696186
 40
4.885096638397409
 40
4.945373043518228
 40
5.014107710488582
 40
5.070481727651925
 40
5.319246955636403
 40
5.584812164505853
 40
5.859000912056706
 40
6.133746937541888
 40
6.401732212968719
 40
6.420736683995338
 40
6.472845717450932
 40
6.550702743893916
 40
6.646951193874125
 40
6.754234497930449
 40
6.865196086587256
 40
6.972479390357714
 40
7.068727839771904
 40
7.146584865450913
 40
7.198693898189143
 40
7.217698368905284
 40
7.23495040163076
 40
7.276089864269807
 40
7.325191803515915
 40
7.366331266090301
 40
7.383583298769652
 40
7.402779163492058
 40
7.453386443254461
 40
7.524934666445491
 40
7.60695336140583
 40
7.68897205642901
 40
7.760520279784261
 40
7.811127559734532
 40
7.830323424546153
 40
7.847844055299783
 40
7.894799345666824
 40
7.962779392744512
 40
8.043374293560559
 40
8.128174145149467
 40
8.208769044817268
 40
8.276749090376969
 40
8.323704379669534
 40
8.341225010056265
 40
8.358497614800442
 40
8.401679126686647
 40
8.457815092185676
 40
8.513951057728137
 40
8.557132569708065
 40
8.574405174505108
 40
8.602340668616504
 40
8.643455660540097
 40
8.663225271966764
 40
8.715345156564409
 40
8.789031889628747
 40
8.873502045520476
 40
8.957972194324102
 40
9.031658925567994
 40
9.083778811234682
 40
9.103548423003145
 40
9.119550083123682
 40
9.160817522379984
 40
9.21724442911035
 40
9.278724491644835
 40
9.33515139829562
 40
9.376418837357916
 40
9.392420497300703
 40
9.401196302734922
 40
9.417494229384397
 40
9.42627002774967
 40
9.440875075477702
 40
9.475702496998881
 40
9.517270709866045
 40
9.552098131994214
 40
9.566703169884422
 40
9.566703169884422
 40
9.566703169884422
 40
9.566703169884422
 10
194.6170254148479
 20
15.67015871511028
 10
194.613434509337
 20
15.6645369070216
 10
194.6056039123625
 20
15.65227754419113
 10
194.5129968974547
 20
15.61601916040975
 10
194.4887622233248
 20
15.40148444212711
 10
194.3858709845939
 20
15.22197284509711
 10
194.1220492364306
 20
15.0361557379815
 10
194.2845471569181
 20
14.95959336566081
 10
194.3607225760838
 20
14.89856693195442
 10
194.4492171072759
 20
14.83515804544761
 10
194.538993023311
 20
14.7752563421956
 10
194.5883817636047
 20
14.72102154849208
 10
194.6745708157383
 20
14.69286240541834
 10
194.641126067423
 20
14.65713309652813
 10
194.6214671166311
 20
14.62550387991907
 10
194.5919888217882
 20
14.58475872796068
 10
194.5688989446031
 20
14.55504663489646
 10
194.5380205968357
 20
14.50211422668495
 10
194.472919336574
 20
14.62740334938903
 10
194.3796000122415
 20
14.68213900233935
 10
194.2950636285139
 20
14.73916423939345
 10
194.1722498125741
 20
14.89675287427522
 10
194.1764450847302
 20
14.82035806766838
 10
194.1751478652677
 20
14.77361280161296
 10
194.1758126448076
 20
14.69584785812602
 10
194.1755549986956
 20
14.59902068324424
 10
194.1756431239921
 20
14.4865027907881
 10
194.1756077302282
 20
14.36524085945701
 10
194.1756511758278
 20
14.24086897858962
 10
194.1755199942405
 20
14.11967683631337
 10
194.1759477562047
 20
14.00691148919744
 10
194.174667820231
 20
13.91082913768745
 10
194.1779759851044
 20
13.83113826468701
 10
194.1715197740086
 20
13.78815175788785
 10
194.1806208705556
 20
13.74955432372043
 10
194.1447910339935
 20
13.75810887724071
 10
194.1115223815253
 20
13.75342519985448
 10
194.0604562576041
 20
13.75351298759785
 10
194.0269723972814
 20
13.75794430283822
 10
193.9907585408754
 20
13.7496079384251
 10
194.0009782568666
 20
13.79145277179285
 10
193.9936487887774
 20
13.83778560820175
 10
193.9973633136103
 20
13.92374831106015
 10
193.9959480554897
 20
14.0260514270485
 10
193.9964105554639
 20
14.14453223931513
 10
193.9962773686232
 20
14.26957683153357
 10
193.9963015910045
 20
14.39475828107051
 10
193.9963354925552
 20
14.51286645379058
 10
193.9962060293132
 20
14.61628748709516
 10
193.9965507549082
 20
14.69932036153667
 10
193.9958698278691
 20
14.75143368521244
 10
193.9994586600622
 20
14.87912907821361
 10
193.7826171386437
 20
14.58048716819627
 10
193.6021354921952
 20
14.35263981511515
 10
193.5490322295612
 20
14.49373443289818
 10
193.5200429133149
 20
14.54325767560939
 10
193.4196648062823
 20
14.64641779790115
 10
193.7405127723262
 20
14.72695035023777
 10
193.868989700543
 20
14.91066283036437
 10
194.0906454325359
 20
15.11931995771762
 10
194.1770224894068
 20
15.29339211228347
 10
194.4549394229075
 20
15.56967051342514
 10
194.3346247839285
 20
15.56534559551115
 10
194.2863197351349
 20
15.56614856202554
 10
194.2102377454906
 20
15.56574582146585
 10
194.116701000975
 20
15.5659027561161
 10
194.0117594788557
 20
15.56582502576225
 10
193.9033887738718
 20
15.56595464378556
 10
193.7981454235897
 20
15.56554393490692
 10
193.7056237819413
 20
15.56682073671592
 10
193.6268130800707
 20
15.5634076653485
 10
193.5839674565378
 20
15.57023350036321
 10
193.5449499586516
 20
15.56065064201124
 10
193.5526365271863
 20
15.59420779565544
 10
193.5485464404312
 20
15.62523550322234
 10
193.5485531368814
 20
15.67236529270901
 10
193.5526239724911
 20
15.70340941646779
 10
193.5449495574583
 20
15.73701861635903
 10
193.5834819405495
 20
15.72748410420873
 10
193.6241228014479
 20
15.73397435498071
 10
193.6951471850463
 20
15.73100150650255
 10
193.7729318149634
 20
15.73174761399158
 10
193.8507292246474
 20
15.73247814044526
 10
193.9217232089908
 20
15.72954235514161
 10
193.9624279791821
 20
15.73595468772953
 10
194.000985348991
 20
15.72650524176005
 10
193.9927342754929
 20
15.76264692158785
 10
193.9982346669358
 20
15.80129837613228
 10
193.9955754206164
 20
15.86913528561839
 10
193.9965815471534
 20
15.9459164153874
 10
193.996017801832
 20
16.02849393582758
 10
193.9970714526593
 20
16.10517329229879
 10
193.9942675863131
 20
16.17331990776701
 10
194.0000702721304
 20
16.21132399809347
 10
193.991565455116
 20
16.24758448077648
 10
194.0255610233125
 20
16.23755723771852
 10
194.05945756831
 20
16.24073266813707
 10
194.1126669060347
 20
16.2350896564061
 10
194.1660768574484
 20
16.23434774436426
 10
194.1995914649492
 20
16.22819223482982
 10
194.238808618304
 20
16.23346029773593
 10
194.2120263698492
 20
16.19253380793489
 10
194.1708111001723
 20
16.20371204538114
 10
194.1782641540874
 20
16.15867056192125
 10
194.1742227952183
 20
16.11412278028144
 10
194.1761714049641
 20
16.04223572621705
 10
194.1752364849758
 20
15.96168630588772
 10
194.1765107190031
 20
15.88173995404996
 10
194.1732043793862
 20
15.80841837083183
 10
194.1802106179962
 20
15.76688643002569
 10
194.1701440380125
 20
15.72752418568114
 10
194.2029814803921
 20
15.73468063430982
 10
194.236457729648
 20
15.73027243137945
 10
194.2915053476019
 20
15.73217943347898
 10
194.3489502595314
 20
15.73185366407289
 10
194.4023026248309
 20
15.73106308733083
 10
194.4398540896638
 20
15.73313959118074
 10
194.4623172523237
 20
15.7302233816711
 10
194.4751678073731
 20
15.73572552644057
 10
194.4858255685888
 20
15.73801118197791
 10
194.4986635650143
 20
15.74494972588054
 10
194.5145991033071
 20
15.72853046313673
 10
194.5410623920891
 20
15.71709122319449
 10
194.5726805253757
 20
15.69644687835191
 10
194.5987255892151
 20
15.68116869628295
 10
194.6128517723973
 20
15.67266976323184
 10
194.6170254148479
 20
15.67015871511028
 97
        1
330
A4
 75
     1
 76
     2
 52
45.0
 41
0.1
 77
     0
 78
     1
 53
45.0
 43
0.0
 44
0.0
 45
-0.282842712474619
 46
0.0
 79
     0
 98
        1
 10
0.0
 20
0.0
  0
HATCH
  5
C2
330
48
100
AcDbEntity
  8
1
  6
Continuous
 62
     2
100
AcDbHatch
 10
0.0
 20
0.0
 30
0.0
210
0.0
220
0.0
230
1.0
  2
CUSTOM4
 70
     0
 71
     1
 91
        1
 92
        1
 93
        1
 72
     4
 94
        3
 73
     0
 74
     0
 95
       91
 96
       87
 40
0.0
 40
0.0
 40
0.0
 40
0.0
 40
0.0267532254356684
 40
0.0856103386464102
 40
0.1444674521996603
 40
0.1712206856618514
 40
0.2039416005642536
 40
0.2955601971652484
 40
0.4362601844616918
 40
0.616225284450725
 40
0.8256392189704982
 40
1.054685709844411
 40
1.293548478893531
 40
1.532411247938275
 40
1.76145773879954
 40
1.970871673298508
 40
2.150836773256704
 40
2.291536760495565
 40
2.383155356836643
 40
2.415876284101292
 40
2.442629517487934
 40
2.501486630949064
 40
2.560343744424215
 40
2.587096977826486
 40
2.617068194440914
 40
2.699247336756055
 40
2.822032643466339
 40
2.973822353257868
 40
3.143014704823311
 40
3.318007936879861
 40
3.487200288186723
 40
3.638989997548204
 40
3.761775303794702
 40
3.843954445753037
 40
3.873925662229733
 40
3.890812773500441
 40
3.907699884771593
 40
3.937960767857219
 40
3.980983618142307
 40
4.19908591522843
 40
4.439444339237221
 40
4.677588241260891
 40
5.050698317837777
 40
5.448212454763163
 40
5.855291218044688
 40
6.13857543888534
 40
6.417434507584201
 40
6.444551104393883
 40
6.504207617363184
 40
6.563864130314507
 40
6.590980727104101
 40
6.848609460381503
 40
7.109611990668464
 40
7.352910904446112
 40
7.557830220705489
 40
7.587518925913407
 40
7.652834077375824
 40
7.71814922884576
 40
7.747837934062062
 40
7.854880190301005
 40
7.976511257403514
 40
8.369487896592343
 40
8.757514959223693
 40
9.126072419331155
 40
9.460639380392161
 40
9.746695593035845
 40
9.777569943118632
 40
9.80705032093181
 40
9.830377336128942
 40
9.886003295436018
 40
9.952395569429934
 40
10.00802152870629
 40
10.03134854388221
 40
10.21356951009597
 40
10.42203479292874
 40
10.66154556731069
 40
10.91693789564307
 40
11.15832906556568
 40
11.18982674596623
 40
11.2728660852041
 40
11.39026653033349
 40
11.52484752840886
 40
11.65942852648442
 40
11.77682897161481
 40
11.85986831085674
 40
11.8913659823042
 40
11.8913659823042
 40
11.8913659823042
 40
11.8913659823042
 10
190.7027885008197
 20
14.70699600701773
 10
190.7028237765289
 20
14.71587847311986
 10
190.7029366710796
 20
14.74430237047347
 10
190.7012984568491
 20
14.79409639169804
 10
190.7069750292911
 20
14.83657564478155
 10
190.6956928731708
 20
14.88730154856848
 10
190.7632296979032
 20
14.8701290074011
 10
190.8388029210701
 20
14.88290227165997
 10
190.9828357056002
 20
14.87629729457383
 10
191.1569419185427
 20
14.87888462206467
 10
191.3639599611005
 20
14.87800591955554
 10
191.5894688172378
 20
14.87828207920028
 10
191.8251162293406
 20
14.87818339658664
 10
192.0607640531349
 20
14.87828184412768
 10
192.2862717580627
 20
14.8780067819079
 10
192.4932934632806
 20
14.87888186270736
 10
192.6673888915288
 20
14.87630522678447
 10
192.8114492071987
 20
14.88288290449215
 10
192.8869691915293
 20
14.87016243405605
 10
192.9545776037031
 20
14.88726400191688
 10
192.9430840140676
 20
14.83674785802941
 10
192.9505104581735
 20
14.79253252226502
 10
192.9428838927987
 20
14.74867966503611
 10
192.9546489459426
 20
14.69878374479329
 10
192.8930788491984
 20
14.71393227712513
 10
192.8256791738672
 20
14.70310665350675
 10
192.7013004056223
 20
14.70852031626237
 10
192.5554428236572
 20
14.70649205390786
 10
192.3893576440086
 20
14.70715777578388
 10
192.2188412621725
 20
14.70689643521242
 10
192.051979085539
 20
14.70721553391095
 10
191.9087346827106
 20
14.70635302590763
 10
191.7773313869835
 20
14.70863300482989
 10
191.7239859134658
 20
14.70407704374203
 10
191.6485188456913
 20
14.70999914992878
 10
191.6769075779233
 20
14.70094169343354
 10
191.7033652409543
 20
14.69725912268929
 10
191.6633522907702
 20
14.66654271968274
 10
191.5713663691867
 20
14.67667591174638
 10
191.543939620707
 20
14.43032502247785
 10
191.4478793967234
 20
14.27499558764375
 10
191.1917277964473
 20
13.94525417931571
 10
191.7627537732762
 20
14.08430022210451
 10
192.0173656320516
 20
14.08291779973365
 10
192.6279647048617
 20
13.99790569242086
 10
192.3340698578083
 20
14.29685417558207
 10
192.0133304286517
 20
14.44330856901783
 10
192.1313543360434
 20
14.50025540818288
 10
192.1724716466261
 20
14.52420099873349
 10
192.2156812394411
 20
14.54599758811231
 10
192.317457409445
 20
14.60928721253904
 10
192.4328867625247
 20
14.35147151408782
 10
192.6329591642277
 20
14.21616041113684
 10
192.7269077387228
 20
14.03792795138882
 10
192.9558829746392
 20
13.87997821027048
 10
192.8596031846708
 20
13.829159725763
 10
192.8167959763779
 20
13.79881292523055
 10
192.7718243528778
 20
13.77466130281459
 10
192.7121720925214
 20
13.72552146747569
 10
192.6789731061324
 20
13.85997475673608
 10
192.5582013350797
 20
14.01594265286586
 10
192.1970976005978
 20
13.88569928059555
 10
191.8385061955541
 20
13.90224694409484
 10
191.4570920450079
 20
13.89331229351864
 10
191.1703455282893
 20
13.82882671672412
 10
190.8592055599714
 20
13.9423066819282
 10
190.8268737818789
 20
13.83122259927766
 10
190.7896178253318
 20
13.81196313850012
 10
190.7865737632753
 20
13.85874784087296
 10
190.7679892860607
 20
13.89806853919137
 10
190.7512436616778
 20
13.95765983478233
 10
190.7383730915753
 20
14.00201969871285
 10
190.7042327806429
 20
14.09106331120203
 10
190.9482714457753
 20
14.02181042943772
 10
191.1441394486671
 20
14.00030369057747
 10
191.2395426381277
 20
14.28226484478461
 10
191.2945135769597
 20
14.44363045421126
 10
191.5159619357155
 20
14.71391177589738
 10
191.3849239381217
 20
14.70548446853735
 10
191.3110026555854
 20
14.70779008496971
 10
191.1977459876244
 20
14.70671378321659
 10
191.0694251807485
 20
14.7070763907651
 10
190.9404252030416
 20
14.70697724466087
 10
190.8287840946292
 20
14.70699932712572
 10
190.7514663970027
 20
14.70699579189672
 10
190.7132876532011
 20
14.70699595845082
 10
190.7027885008197
 20
14.70699600701773
 97
        1
330
A5
 75
     1
 76
     2
 52
45.0
 41
0.1
 77
     0
 78
     1
 53
45.0
 43
0.0
 44
0.0
 45
-0.282842712474619
 46
0.0
 79
     0
 98
        1
 10
0.0
 20
0.0
  0
HATCH
  5
C3
330
48
100
AcDbEntity
  8
1
  6
Continuous
 62
     2
100
AcDbHatch
 10
0.0
 20
0.0
 30
0.0
210
0.0
220
0.0
230
1.0
  2
CUSTOM5
 70
     0
 71
     1
 91
        1
 92
        1
 93
        1
 72
     4
 94
        3
 73
     0
 74
     0
 95
       35
 96
       31
 40
0.0
 40
0.0
 40
0.0
 40
0.0
 40
0.0335231036620673
 40
0.0713218571712105
 40
0.4278866681486697
 40
0.8116865841963696
 40
1.198190238000004
 40
1.561379546812683
 40
1.65998317462207
 40
1.759315573807237
 40
2.132719617231096
 40
2.525233363588825
 40
2.910815397779692
 40
3.265244364303319
 40
3.592606723582058
 40
3.964386154603984
 40
4.359942131737808
 40
4.758154118639269
 40
4.843846538699898
 40
4.936650065543252
 40
5.25661660253733
 40
5.581707404416067
 40
5.899719158308162
 40
6.198363494280764
 40
6.466301046615794
 40
6.493895311537116
 40
6.559697020196937
 40
6.638234543442541
 40
6.70403625215435
 40
6.731630508423156
 40
6.731630508423156
 40
6.731630508423156
 40
6.731630508423156
 10
191.973601056867
 20
16.23463843719135
 10
191.967600609779
 20
16.22480690542324
 10
191.9548344099157
 20
16.20388988579798
 10
191.7949362006559
 20
16.1712712653269
 10
192.2322025842336
 20
15.88206680336699
 10
192.4345394828263
 20
15.68041138358441
 10
192.6819564267974
 20
15.43749387603275
 10
193.1831513624607
 20
15.36047662757777
 10
193.0125562198971
 20
15.21876939174656
 10
192.9383299463201
 20
15.01710366209112
 10
192.6131432248188
 20
15.36956287174725
 10
192.3277741670664
 20
15.53175212559563
 10
192.0337604077658
 20
15.73687130053051
 10
191.8084452691134
 20
16.21827488595456
 10
191.5993085055522
 20
15.75343046609226
 10
191.3207873674834
 20
15.54350952252912
 10
191.0371383177209
 20
15.37424456359987
 10
190.7078639527832
 20
15.0014236090794
 10
190.6277012318225
 20
15.19708014459003
 10
190.4759724909744
 20
15.32491104190592
 10
190.9083395826795
 20
15.40454031765937
 10
191.0962565329766
 20
15.60026634915473
 10
191.3468477420502
 20
15.81632996916756
 10
191.5714350470161
 20
15.98190992300059
 10
191.6259775409713
 20
16.26133964636826
 10
191.7494661029011
 20
16.24737950408078
 10
191.806027334452
 20
16.24521268867648
 10
191.8761870984945
 20
16.2404685988136
 10
191.9333414022106
 20
16.23709429350543
 10
191.964419032084
 20
16.2351985471112
 10
191.973601056867
 20
16.23463843719135
 97
        1
330
A6
 75
     1
 76
     2
 52
45.0
 41
0.1
 77
     0
 78
     1
 53
45.0
 43
0.0
 44
0.0
 45
-0.282842712474619
 46
0.0
 79
     0
 98
        1
 10
0.0
 20
0.0
  0
HATCH
  5
C4
330
48
100
AcDbEntity
  8
1
  6
Continuous
 62
     2
100
AcDbHatch
 10
0.0
 20
0.0
 30
0.0
210
0.0
220
0.0
230
1.0
  2
CUSTOM6
 70
     0
 71
     1
 91
        1
 92
        1
 93
        1
 72
     4
 94
        3
 73
     0
 74
     0
 95
       15
 96
       11
 40
0.0
 40
0.0
 40
0.0
 40
0.0
 40
0.278553598509703
 40
0.521562474819955
 40
0.6076917376041588
 40
0.693821000174253
 40
0.9405019146455927
 40
1.221691403489267
 40
1.300471877081186
 40
1.379252341684955
 40
1.379252341684955
 40
1.379252341684955
 40
1.379252341684955
 10
189.5681493630999
 20
16.22930267330382
 10
189.6296017794178
 20
16.17691646592717
 10
189.7446649974113
 20
16.07882876798224
 10
190.0397348497246
 20
15.9288978589722
 10
189.9025147631857
 20
15.84343227515016
 10
189.8041227843779
 20
15.71085785201557
 10
189.713003359065
 20
16.01616985781425
 10
189.3636839480655
 20
16.07967869465374
 10
189.511925837657
 20
16.17896509880878
 10
189.5494081874236
 20
16.21252348402383
 10
189.5681493630999
 20
16.22930267330382
 97
        1
330
A7
 75
     1
 76
     2
 52
45.0
 41
0.1
 77
     0
 78
     1
 53
45.0
 43
0.0
 44
0.0
 45
-0.282842712474619
 46
0.0
 79
     0
 98
        1
 10
0.0
 20
0.0
  0
HATCH
  5
C5
330
48
100
AcDbEntity
  8
1
  6
Continuous
 62
     2
100
AcDbHatch
 10
0.0
 20
0.0
 30
0.0
210
0.0
220
0.0
230
1.0
  2
CUSTOM7
 70
     0
 71
     1
 91
        1
 92
        1
 93
        1
 72
     4
 94
        3
 73
     0
 74
     0
 95
       75
 96
       71
 40
0.0
 40
0.0
 40
0.0
 40
0.0
 40
0.0342546099129691
 40
0.1245622414432346
 40
0.2522385480897518
 40
0.398599192294068
 40
0.5449598364980821
 40
0.6726361431438816
 40
0.762943774673696
 40
0.7971983935297973
 40
1.101723623449633
 40
1.408591244036582
 40
1.433332471690288
 40
1.487763172450088
 40
1.542193873081923
 40
1.566935100592473
 40
1.92352393182184
 40
2.271755704953639
 40
2.590579755100909
 40
2.858943305581195
 40
2.889120339309213
 40
2.918305855191161
 40
2.941366645531284
 40
2.996357760973175
 40
3.061992318140722
 40
3.116983433626919
 40
3.140044223997598
 40
3.411273122936519
 40
3.732441619741295
 40
3.761068217532993
 40
3.837787499630555
 40
3.948858699126195
 40
4.080541049104569
 40
4.219093782625952
 40
4.350776132722503
 40
4.461847332405839
 40
4.538566614678569
 40
4.567193212544817
 40
4.594907573999075
 40
4.666381453557642
 40
4.764111044011281
 40
4.870592538126113
 40
4.968322128642564
 40
5.039796008287277
 40
5.067510369784737
 40
5.094263603185953
 40
5.153120716668587
 40
5.211977830151032
 40
5.238731063552038
 40
5.272290535139277
 40
5.363380529445138
 40
5.497618415781844
 40
5.660621563454086
 40
5.838007341749787
 40
6.015393119911138
 40
6.178396267038792
 40
6.312634151842772
 40
6.403724143059762
 40
6.437283612672857
 40
6.464036846261475
 40
6.52289396000509
 40
6.581751071484355
 40
6.608504301591301
 40
6.637253941281449
 40
6.711397748903329
 40
6.812778057283913
 40
6.923237199249689
 40
7.024617507624304
 40
7.098761315207986
 40
7.127510946007936
 40
7.127510946007936
 40
7.127510946007936
 40
7.127510946007936
 10
188.4418622390565
 20
14.95849128473265
 10
188.4418622819707
 20
14.9470731340872
 10
188.441862448113
 20
14.9055525784263
 10
188.4418593081787
 20
14.82146922003772
 10
188.4418788279801
 20
14.70004497322329
 10
188.4417912187738
 20
14.55980494047449
 10
188.4421116235231
 20
14.42006556794577
 10
188.4411605909741
 20
14.29745038894929
 10
188.4431978595968
 20
14.21587074438044
 10
188.4349433178746
 20
14.06271267077699
 10
188.7430797940902
 20
14.22560236054722
 10
189.0350645173735
 20
14.39482938688002
 10
189.0408354448708
 20
14.25973235781912
 10
189.0455471719891
 20
14.21617221160444
 10
189.0482535411919
 20
14.17211249350546
 10
189.0672545672959
 20
14.02272590363131
 10
188.6583942247303
 20
14.08681172241264
 10
188.3793710348833
 20
13.97296341411017
 10
188.1018081587165
 20
13.87364095811142
 10
187.8099837184402
 20
13.91630687596358
 10
187.7869144678657
 20
13.81321679744542
 10
187.7537474383333
 20
13.7869109124447
 10
187.7480653962738
 20
13.83455309036305
 10
187.7284214559044
 20
13.8718033611507
 10
187.7095089485622
 20
13.93007387847565
 10
187.6942849867708
 20
13.97385201007805
 10
187.6477246372934
 20
14.08759421046312
 10
187.9890897312451
 20
14.05576301120049
 10
188.2679649367387
 20
14.02161435106476
 10
188.2617753034908
 20
14.16913976479653
 10
188.2630935452774
 20
14.24013150908833
 10
188.2624831689949
 20
14.34719767958663
 10
188.2625871570725
 20
14.47398529785999
 10
188.2629987964057
 20
14.60849243496051
 10
188.2613907841969
 20
14.73395549951185
 10
188.2659902567927
 20
14.84505246719118
 10
188.2564186502211
 20
14.9076188680069
 10
188.2704001783692
 20
14.96595388295002
 10
188.2147384386706
 20
14.95289710582239
 10
188.1575655197822
 20
14.96136307749499
 10
188.0616048925648
 20
14.95729976080637
 10
187.9633767522821
 20
14.95970889852475
 10
187.867258245756
 20
14.95551600613388
 10
187.8104648525812
 20
14.96429346441165
 10
187.7550356873384
 20
14.95094936850121
 10
187.7670679427917
 20
15.00036910959258
 10
187.7592003173938
 20
15.04393988030396
 10
187.7666295563828
 20
15.08830469118526
 10
187.7551930564143
 20
15.13902297763992
 10
187.8232102370132
 20
15.12162460757744
 10
187.8968496879747
 20
15.13417450237189
 10
188.032506405821
 20
15.12799677011098
 10
188.1884909024525
 20
15.13029203093084
 10
188.3615926358144
 20
15.12940968262531
 10
188.5346942964182
 20
15.13029207142409
 10
188.6906789811216
 20
15.12799662955551
 10
188.8263351889798
 20
15.13417486262432
 10
188.8999756705653
 20
15.12162394218336
 10
188.9679914174725
 20
15.13902373012143
 10
188.9565590885923
 20
15.08830130414556
 10
188.9639539458297
 20
15.04397060811109
 10
188.9562039912271
 20
15.00028307550197
 10
188.9681203741877
 20
14.95063590098477
 10
188.9108170223618
 20
14.96461411338427
 10
188.8520145789773
 20
14.95539755673255
 10
188.75252936332
 20
14.9595226816493
 10
188.6494280098349
 20
14.95822760025888
 10
188.5537846354575
 20
14.95854077077642
 10
188.4857467971616
 20
14.95848776697146
 10
188.4514462213444
 20
14.95849051871657
 10
188.4418622390565
 20
14.95849128473265
 97
        1
330
A8
 75
     1
 76
     2
 52
45.0
 41
0.1
 77
     0
 78
     1
 53
45.0
 43
0.0
 44
0.0
 45
-0.282842712474619
 46
0.0
 79
     0
 98
        1
 10
0.0
 20
0.0
  0
HATCH
  5
C6
330
48
100
AcDbEntity
  8
1
  6
Continuous
 62
     2
100
AcDbHatch
 10
0.0
 20
0.0
 30
0.0
210
0.0
220
0.0
230
1.0
  2
CUSTOM8
 70
     0
 71
     1
 91
        1
 92
        1
 93
        1
 72
     4
 94
        3
 73
     0
 74
     0
 95
       91
 96
       87
 40
0.0
 40
0.0
 40
0.0
 40
0.0
 40
0.0345987051695434
 40
0.1258134969461369
 40
0.2547723404888987
 40
0.4026032099154409
 40
0.5504340793417273
 40
0.6793929228836932
 40
0.7706077146571888
 40
0.8052064287781777
 40
1.124852390615365
 40
1.427402236308959
 40
1.706356627453597
 40
1.955541417875282
 40
2.169485938566427
 40
2.344350786664879
 40
2.480568411562031
 40
2.590440557429053
 40
2.649189927151255
 40
2.749320643306459
 40
2.912632739880153
 40
3.147745656000355
 40
3.244827496385294
 40
3.338490056946934
 40
3.583815413207358
 40
3.761423943238726
 40
3.886956104362902
 40
3.985855451887108
 40
4.09176625533802
 40
4.250186473812186
 40
4.422734315084808
 40
4.628285684838885
 40
4.872093227758729
 40
5.15254965214584
 40
5.46496713583782
 40
5.803201477852745
 40
6.16036298881422
 40
6.193449448276275
 40
6.28417038550193
 40
6.419718138764771
 40
6.587285046386021
 40
6.774063446723935
 40
6.96724567811389
 40
7.154024078817904
 40
7.321590987026261
 40
7.457138740890591
 40
7.547859678556327
 40
7.580946138182887
 40
7.608533084714939
 40
7.669224367077915
 40
7.729915649430132
 40
7.757502595950183
 40
7.790278062553665
 40
7.880146277431135
 40
8.014419963180568
 40
8.180411842398097
 40
8.365434637679567
 40
8.55680107162284
 40
8.741823866830952
 40
8.907815745916519
 40
9.042089431507645
 40
9.13195764624977
 40
9.164733112797347
 40
9.415425063140274
 40
9.667986180958746
 40
9.694169807462913
 40
9.756607686047872
 40
9.831130315322678
 40
9.893568193900142
 40
9.91975182039896
 40
9.950967964690772
 40
9.996421631210936
 40
10.22087981037482
 40
10.44341866197571
 40
10.47847970788883
 40
10.57091337438784
 40
10.70159545461264
 40
10.85140174170392
 40
11.00120802880515
 40
11.1318901090742
 40
11.22432377583045
 40
11.25938480938994
 40
11.28697175596182
 40
11.34766303835957
 40
11.40835432042107
 40
11.43594125892141
 40
11.43594125892141
 40
11.43594125892141
 40
11.43594125892141
 10
190.081811433329
 20
15.55242795125078
 10
190.0702785844941
 20
15.55242790287916
 10
190.0283409445
 20
15.55242773704165
 10
189.9434129719026
 20
15.5524312580091
 10
189.8207688553129
 20
15.55240926435879
 10
189.6791206916993
 20
15.55250801177055
 10
189.537975369849
 20
15.55214686232421
 10
189.4141351317904
 20
15.5532188360909
 10
189.3317217825381
 20
15.55092249091269
 10
189.1727791229692
 20
15.56048569373421
 10
189.3503402353376
 20
15.19785394311371
 10
189.3379739205452
 20
14.95243127723115
 10
189.4064519473864
 20
14.66862501324835
 10
189.4693024320969
 20
14.43250999939036
 10
189.5452253431729
 20
14.23326740396131
 10
189.6303189577015
 20
14.07745347451374
 10
189.7244607592935
 20
13.97657857781392
 10
189.8282648207727
 20
13.92465852638967
 10
189.9125872030774
 20
13.97606484379615
 10
189.9351322179452
 20
14.09144544037518
 10
189.9745730975371
 20
14.21885149702382
 10
189.9202919734942
 20
14.53622328086757
 10
190.0451218072473
 20
14.38982180140905
 10
190.2019291513605
 20
14.35795300331176
 10
190.0947720007059
 20
14.12421357767628
 10
190.0808711209868
 20
13.95972776583657
 10
190.0234709467226
 20
13.83130869122482
 10
189.9335020145009
 20
13.76018802352828
 10
189.8095274657877
 20
13.74432324142254
 10
189.663427319686
 20
13.77993797554173
 10
189.5243894320285
 20
13.90000570500279
 10
189.4102003962145
 20
14.07435682550322
 10
189.3146141301486
 20
14.2994660311124
 10
189.2318652572627
 20
14.56388246006443
 10
189.1807179256412
 20
14.88187933098545
 10
189.0770189207337
 20
15.15543728488912
 10
189.2042841208522
 20
15.56005818612869
 10
189.0357890623018
 20
15.55112367849679
 10
188.9511995787078
 20
15.55315961418365
 10
188.8189876387628
 20
15.55213937388407
 10
188.6560505094104
 20
15.5525323031843
 10
188.4733759170533
 20
15.5523569631337
 10
188.2847057373383
 20
15.55260105307469
 10
188.1014469020189
 20
15.55185657906237
 10
187.9404746832719
 20
15.55416360522427
 10
187.8029808335276
 20
15.54799804883663
 10
187.7289590372312
 20
15.56032838458213
 10
187.6613215186857
 20
15.54329323723557
 10
187.6732373719271
 20
15.59524438447528
 10
187.6655677285694
 20
15.64071424966529
 10
187.6732592225117
 20
15.68614453703706
 10
187.6613141797762
 20
15.73802395984571
 10
187.7283588305868
 20
15.72119143490264
 10
187.8017375665677
 20
15.73335409092671
 10
187.9379128305273
 20
15.72727231074959
 10
188.0973811801513
 20
15.72954834315057
 10
188.2789173085837
 20
15.72881233998961
 10
188.465803486218
 20
15.72905954196134
 10
188.6468012316836
 20
15.72886400799254
 10
188.8080802578879
 20
15.72932234714839
 10
188.9393882124887
 20
15.72812673751205
 10
189.0225051322597
 20
15.73051347319743
 10
189.1556236547814
 20
15.72230605725464
 10
189.0645893502659
 20
15.97752868952655
 10
188.978963307442
 20
16.24164358328249
 10
189.0990589003455
 20
16.22904442969165
 10
189.1514264948544
 20
16.22694235763076
 10
189.2214497569715
 20
16.22535399889658
 10
189.2671922337817
 20
16.21602567538113
 10
189.3220812646933
 20
16.22545966915428
 10
189.2963574785682
 20
16.17733028655169
 10
189.1825397571452
 20
16.18266829744177
 10
189.3159346621136
 20
15.95449174576774
 10
189.1943658735471
 20
15.72156856595923
 10
189.3223188769413
 20
15.73087258884438
 10
189.4049048406461
 20
15.7280100175468
 10
189.5307214850824
 20
15.72923437412302
 10
189.6741469838059
 20
15.72932431888964
 10
189.8157420951728
 20
15.72746163183853
 10
189.9459127249969
 20
15.73333075937162
 10
190.0193452286191
 20
15.72070340823204
 10
190.0891112922097
 20
15.73877563110413
 10
190.0775772605397
 20
15.68612850546326
 10
190.0833184346682
 20
15.64221317686547
 10
190.0816615770912
 20
15.5908998267655
 10
190.081775756167
 20
15.56158792021635
 10
190.081811433329
 20
15.55242795125078
 97
        1
330
A9
 75
     1
 76
     2
 52
45.0
 41
0.1
 77
     0
 78
     1
 53
45.0
 43
0.0
 44
0.0
 45
-0.282842712474619
 46
0.0
 79
     0
 98
        1
 10
0.0
 20
0.0
  0
HATCH
  5
C7
330
48
100
AcDbEntity
  8
1
  6
Continuous
 62
     2
100
AcDbHatch
 10
0.0
 20
0.0
 30
0.0
210
0.0
220
0.0
230
1.0
  2
CUSTOM9
 70
     0
 71
     1
 91
        1
 92
        1
 93
        1
 72
     4
 94
        3
 73
     0
 74
     0
 95
      118
 96
      114
 40
0.0
 40
0.0
 40
0.0
 40
0.0
 40
0.105470816297341
 40
0.246609827005191
 40
0.3965912874591412
 40
0.528552506975414
 40
0.6156245055642671
 40
0.6431434105797983
 40
0.7036850037986856
 40
0.7642265984505422
 40
0.7917455052355894
 40
0.9287404319990575
 40
1.106572819088137
 40
1.287544879681138
 40
1.317578308030657
 40
1.399928030857294
 40
1.522968204800068
 40
1.675072986590689
 40
1.844616533180765
 40
2.019973001638832
 40
2.189516548880145
 40
2.341621331585482
 40
2.464661506320618
 40
2.547011229647182
 40
2.577044658168147
 40
2.603797890893218
 40
2.662655002908905
 40
2.721512114949717
 40
2.748265347702897
 40
2.774215307344973
 40
2.845959313407302
 40
2.954338556588502
 40
3.09019422758568
 40
3.244367517100646
 40
3.407699615844405
 40
3.571031714539553
 40
3.725205003920229
 40
3.861060674729729
 40
3.969439917716422
 40
4.041183923629096
 40
4.067133883213089
 40
4.311886746012258
 40
4.547897258335603
 40
4.764747083044069
 40
4.952749679951856
 40
5.045772974195996
 40
5.137862019645112
 40
5.330543169793161
 40
5.553448265244151
 40
5.79508385588833
 40
6.043293412177392
 40
6.285761695541328
 40
6.313902908752811
 40
6.384255941793401
 40
6.475714884766961
 40
6.567173827758995
 40
6.637526860839773
 40
6.665668074074108
 40
6.692018920328084
 40
6.749990782071152
 40
6.807962643790522
 40
6.834313490017995
 40
6.856393084245274
 40
6.913335195649897
 40
6.991194817302532
 40
7.076026942283794
 40
7.153886563725256
 40
7.21082867484481
 40
7.232908268931145
 40
7.258199334923666
 40
7.324875781592316
 40
7.419142481924971
 40
7.527204308841914
 40
7.63526613523049
 40
7.729532834168476
 40
7.796209279292799
 40
7.821500344594745
 40
7.844652988850844
 40
7.899863140541623
 40
7.965759128053818
 40
8.020969279771158
 40
8.044121924046625
 40
8.069356610160778
 40
8.10913439544155
 40
8.132238100191262
 40
8.193147867786625
 40
8.279261678876797
 40
8.377977512674008
 40
8.476693347146792
 40
8.562807160411841
 40
8.623716930826628
 40
8.64682063685358
 40
8.671988793774393
 40
8.734909185828304
 40
8.816705695189018
 40
8.898502204815589
 40
8.96142259737805
 40
8.986590754551163
 40
9.012941600733317
 40
9.070913462380403
 40
9.128885324081898
 40
9.15523617032522
 40
9.180404327929262
 40
9.243324721948335
 40
9.325121234212128
 40
9.406917746637783
 40
9.469838141978238
 40
9.495006288271012
 40
9.517811184379154
 40
9.572192090487153
 40
9.637098333281385
 40
9.691479239515584
 40
9.714284125643623
 40
9.714284125643623
 40
9.714284125643623
 40
9.714284125643623
 10
185.2874469028653
 20
15.2688916318772
 10
185.3090990569037
 20
15.24111869242812
 10
185.3597257109473
 20
15.17618054561236
 10
185.4349383202592
 20
15.06891060312898
 10
185.5248482274346
 20
14.95377438266627
 10
185.5709169676673
 20
14.85357045748318
 10
185.6655825294656
 20
14.78434006814945
 10
185.6204439320413
 20
14.73771639678274
 10
185.5947047785791
 20
14.6966030886604
 10
185.5645196708012
 20
14.6606597172794
 10
185.5193684730562
 20
14.58579782596097
 10
185.4710504458562
 20
14.80782524253608
 10
185.3968539713073
 20
14.84510677337708
 10
185.2836047324607
 20
15.11610202130602
 10
185.2885133578169
 20
15.00095328446229
 10
185.2868486556306
 20
14.92836675781628
 10
185.2876830076713
 20
14.80625588483987
 10
185.2873609540265
 20
14.65913800810462
 10
185.2875076912455
 20
14.49307063956558
 10
185.2872950092723
 20
14.32187554608603
 10
185.2879497252034
 20
14.15552828635499
 10
185.2859192461139
 20
14.00935173055694
 10
185.291346039993
 20
13.88471047474612
 10
185.2804930868708
 20
13.81718656540627
 10
185.2956739155554
 20
13.75549061417023
 10
185.2457895108133
 20
13.76727503897002
 10
185.2017150342522
 20
13.75943822779971
 10
185.15823716302
 20
13.76760441372704
 10
185.1092346786489
 20
13.75538056738469
 10
185.1218731234825
 20
13.80960667249314
 10
185.113018296845
 20
13.86936918907559
 10
185.1175058770314
 20
13.9792202904437
 10
185.1157960135991
 20
14.1102997540568
 10
185.1163550915986
 20
14.26198011444329
 10
185.1161928768694
 20
14.42211074929954
 10
185.1162269924675
 20
14.58236865674567
 10
185.1162514960127
 20
14.7337024752044
 10
185.1161453543224
 20
14.86582156338601
 10
185.1164299141931
 20
14.97294802533195
 10
185.1158675547567
 20
15.03808619579474
 10
185.1180765083689
 20
15.16618957858676
 10
185.0319435998603
 20
14.79097610391577
 10
184.95551408185
 20
14.63918193123393
 10
184.8660040767835
 20
14.4776620644631
 10
184.7640413217326
 20
14.20471848820172
 10
184.718797649104
 20
14.36717346596514
 10
184.610235594167
 20
14.45605432058118
 10
184.7995791751753
 20
14.60549794961411
 10
184.85653405457
 20
14.79749136974927
 10
184.9717520993353
 20
15.02899622906756
 10
184.9940151630133
 20
15.21797259759063
 10
185.177190515214
 20
15.49454089325931
 10
185.0538033597552
 20
15.48698978832095
 10
184.9925684166834
 20
15.48856772366119
 10
184.9081999617064
 20
15.48882592573673
 10
184.8204235085967
 20
15.48544845751206
 10
184.7656768696123
 20
15.49394814982021
 10
184.7104703026025
 20
15.48048561049789
 10
184.7222823035536
 20
15.52931442126765
 10
184.7142496151795
 20
15.5726900489671
 10
184.7228186104679
 20
15.61509438309574
 10
184.7102943409158
 20
15.66267796552119
 10
184.7555101538736
 20
15.6526721299511
 10
184.8014815562724
 20
15.65894105174062
 10
184.8777222047711
 20
15.65593561405873
 10
184.9561296131994
 20
15.65770448278542
 10
185.0323992648933
 20
15.65464793981661
 10
185.0783009459474
 20
15.66103971376178
 10
185.12317339654
 20
15.65093822978897
 10
185.1105552275634
 20
15.701572015819
 10
185.1191936582707
 20
15.75501261882071
 10
185.1152361595443
 20
15.84863255131681
 10
185.1162325068335
 20
15.95112606688925
 10
185.1171927413073
 20
16.05353270248165
 10
185.1133211458005
 20
16.14735929609321
 10
185.1217789814364
 20
16.20036542840354
 10
185.1093075932835
 20
16.2521143565119
 10
185.154210638985
 20
16.23850747226758
 10
185.1955083836771
 20
16.24100480320586
 10
185.2595344281052
 20
16.23648060574489
 10
185.2986111148786
 20
16.2278100304331
 10
185.3476543498744
 20
16.23515102070687
 10
185.3225080030589
 20
16.19602896051761
 10
185.2815901333723
 20
16.20563842455807
 10
185.2910109616604
 20
16.15540148169779
 10
185.2855647318746
 20
16.1038594563949
 10
185.2881699601804
 20
16.01959707584521
 10
185.2870102202153
 20
15.92559135583408
 10
185.2883591064231
 20
15.83196865395526
 10
185.2849970101509
 20
15.74679517552224
 10
185.2920959917769
 20
15.69716856072045
 10
185.2812569154545
 20
15.6499369496999
 10
185.3304010225245
 20
15.66201674936853
 10
185.3794877630147
 20
15.65447393363012
 10
185.4573714280642
 20
15.65686070361434
 10
185.5350365172896
 20
15.65899381905415
 10
185.5845393931355
 20
15.65193391922456
 10
185.6344594750639
 20
15.66360151936215
 10
185.6223198516881
 20
15.61540235371394
 10
185.6305838229143
 20
15.57249219801236
 10
185.6223198650783
 20
15.52958201851386
 10
185.6344594549855
 20
15.48138288754865
 10
185.5845395158746
 20
15.49305034471511
 10
185.5350350651203
 20
15.48599202435046
 10
185.4573784382972
 20
15.48811665228604
 10
185.379464386576
 20
15.49053389365761
 10
185.3304500352715
 20
15.48291848194486
 10
185.2813246108943
 20
15.49507952557594
 10
185.291555998857
 20
15.45073013424158
 10
185.2856677678054
 20
15.40925436202913
 10
185.2878788305569
 20
15.34915394315304
 10
185.2874109346146
 20
15.3022578276289
 10
185.2874386992913
 20
15.27650146418197
 10
185.2874469028653
 20
15.2688916318772
 97
        1
330
AA
 75
     1
 76
     2
 52
45.0
 41
0.1
 77
     0
 78
     1
 53
45.0
 43
0.0
 44
0.0
 45
-0.282842712474619
 46
0.0
 79
     0
 98
        1
 10
0.0
 20
0.0
  0
HATCH
  5
C8
330
48
100
AcDbEntity
  8
1
  6
Continuous
 62
     2
100
AcDbHatch
 10
0.0
 20
0.0
 30
0.0
210
0.0
220
0.0
230
1.0
  2
CUSTOM10
 70
     0
 71
     1
 91
        1
 92
        1
 93
        1
 72
     4
 94
        3
 73
     0
 74
     0
 95
       47
 96
       43
 40
0.0
 40
0.0
 40
0.0
 40
0.0
 40
0.2207912809957177
 40
0.4459404186303092
 40
0.4902387190459588
 40
0.5327473892722269
 40
0.574226045122616
 40
0.6155432630560886
 40
0.6568164066316374
 40
0.6982511618781582
 40
0.7407663929317536
 40
0.785136674317644
 40
1.010288833836451
 40
1.231080507002298
 40
1.451765243652521
 40
1.676638205891813
 40
1.720461045359782
 40
1.830018144043647
 40
1.972442372353278
 40
2.114866600677647
 40
2.224423699395272
 40
2.268246538883513
 40
2.493628801207345
 40
2.715602830286752
 40
2.934211330706497
 40
3.149502369855494
 40
3.231387784851196
 40
3.318231873854288
 40
3.405143198198276
 40
3.486970301720712
 40
3.702258172494159
 40
3.920866283534379
 40
4.142839325932178
 40
4.368221903865638
 40
4.412044743360118
 40
4.521601842096134
 40
4.664026070452614
 40
4.806450298809324
 40
4.916007397547016
 40
4.959830237043338
 40
5.184703515847374
 40
5.405387250767745
 40
5.405387250767745
 40
5.405387250767745
 40
5.405387250767745
 10
182.6507427258646
 20
15.73406440953873
 10
182.6568139420004
 20
15.79758482501212
 10
182.6690762107244
 20
15.92587938689628
 10
182.5604706879412
 20
16.20166220174079
 10
182.6761985896604
 20
16.17188133432055
 10
182.7171842509016
 20
16.16765556262821
 10
182.7591205797518
 20
16.16310446389607
 10
182.8004196625711
 20
16.16201982929485
 10
182.8417032115556
 20
16.16310338195228
 10
182.8836148270648
 20
16.16766112711343
 10
182.9245983549019
 20
16.17187430209731
 10
183.0404922843491
 20
16.20177611317534
 10
182.9295652727456
 20
15.92339806609892
 10
182.9574856365266
 20
15.74283140824954
 10
182.940426734697
 20
15.50961042346472
 10
182.9414637282102
 20
15.34906622543146
 10
182.9414099399405
 20
15.22284817558723
 10
182.9414277372481
 20
15.12428963336243
 10
182.941418858108
 20
14.99280702442964
 10
182.9414263928033
 20
14.86132844968651
 10
182.9414129405128
 20
14.76276222694091
 10
182.9414531717492
 20
14.63639735624153
 10
182.9406746403819
 20
14.47482068822871
 10
182.9565958319266
 20
14.24361821892915
 10
182.9333468885408
 20
14.05874351972001
 10
183.0360183444367
 20
13.78935602770055
 10
182.8820238362837
 20
13.82660112685818
 10
182.8004129802832
 20
13.82137994680535
 10
182.7188192292583
 20
13.82660620378351
 10
182.5648513666842
 20
13.78937069885387
 10
182.6674183421918
 20
14.0587512986288
 10
182.6442045316089
 20
14.24361585325415
 10
182.6600444655139
 20
14.47482218565638
 10
182.6593296313427
 20
14.63639712308504
 10
182.6593664569907
 20
14.76276231210521
 10
182.659354900027
 20
14.86132756635982
 10
182.6593575019214
 20
14.99281127417221
 10
182.6593648531779
 20
15.124275480312
 10
182.6593442541351
 20
15.22287786275327
 10
182.6594082192028
 20
15.34896149354428
 10
182.658173394759
 20
15.51210091383772
 10
182.6532040396746
 20
15.66054183777551
 10
182.6507427258646
 20
15.73406440953873
 97
        1
330
AB
 75
     1
 76
     2
 52
45.0
 41
0.1
 77
     0
 78
     1
 53
45.0
 43
0.0
 44
0.0
 45
-0.282842712474619
 46
0.0
 79
     0
 98
        1
 10
0.0
 20
0.0
  0
HATCH
  5
C9
330
48
100
AcDbEntity
  8
1
  6
Continuous
 62
     2
100
AcDbHatch
 10
0.0
 20
0.0
 30
0.0
210
0.0
220
0.0
230
1.0
  2
CUSTOM11
 70
     0
 71
     1
 91
        1
 92
        1
 93
        1
 72
     4
 94
        3
 73
     0
 74
     0
 95
      110
 96
      106
 40
0.0
 40
0.0
 40
0.0
 40
0.0
 40
0.2203406257277732
 40
0.4407808782838111
 40
0.5952494494615372
 40
0.7488431659393947
 40
0.9023581831309363
 40
1.056801968670406
 40
1.210736449099964
 40
1.363041386539785
 40
1.515315729683157
 40
1.669377239148079
 40
1.721611652756565
 40
1.773199502942955
 40
1.824933793210004
 40
1.877110426487971
 40
1.982682281206734
 40
2.078781667087543
 40
2.172809640822236
 40
2.271937807378833
 40
2.378349933379311
 40
2.494131557736386
 40
2.626681683943576
 40
2.783145050796061
 40
2.890701232940919
 40
2.993130312454819
 40
3.099869730691795
 40
3.22023781669129
 40
3.352695482737579
 40
3.481732806389831
 40
3.593499473690359
 40
3.674323013331877
 40
3.817951711952855
 40
3.946167120793937
 40
4.061405053453537
 40
4.166480796003263
 40
4.262478775059243
 40
4.350736673551142
 40
4.433071991254028
 40
4.511216293814743
 40
4.564262454118082
 40
4.618474415571704
 40
4.6701284887543
 40
4.722296879126523
 40
4.819540945314449
 40
4.931194984128249
 40
5.049996040257919
 40
5.16864375541555
 40
5.283970811762762
 40
5.392260784910587
 40
5.486512254876634
 40
5.559178233950061
 40
5.591425852853734
 40
5.626215969638111
 40
5.667155838674657
 40
5.717449290214468
 40
5.738402360945082
 40
5.784499116554047
 40
5.830595872165018
 40
5.851548942897875
 40
5.873019280661989
 40
5.924217778408533
 40
5.985325662817912
 40
6.036524160567925
 40
6.057994498334455
 40
6.236847789607708
 40
6.38140992894588
 40
6.493190424178913
 40
6.574067534230717
 40
6.691018086205811
 40
6.814881554220729
 40
6.944307823240681
 40
7.071266716066419
 40
7.193488604462178
 40
7.309042773128462
 40
7.414007203171059
 40
7.505140441886759
 40
7.531150360599917
 40
7.559221645322501
 40
7.587202218921158
 40
7.612569159499372
 40
7.66255080948125
 40
7.702878875764376
 40
7.85732820523119
 40
8.010799568088835
 40
8.165256399657785
 40
8.322232698714124
 40
8.479564855016754
 40
8.635216230291014
 40
8.790882550925904
 40
8.948305154947498
 40
9.168271839033192
 40
9.387358980987461
 40
9.608047961033705
 40
9.832914234792904
 40
9.858338694963239
 40
9.925366817230245
 40
10.02013071422783
 40
10.12876249859021
 40
10.23739428295271
 40
10.33215817995213
 40
10.39918630222416
 40
10.42461076239805
 40
10.64992019336966
 40
10.87188524531211
 40
10.87188524531211
 40
10.87188524531211
 40
10.87188524531211
 10
179.9057788376618
 20
15.73923260398191
 10
179.9092864933541
 20
15.80616462073805
 10
179.9163033987663
 20
15.9400589191586
 10
179.8198027599073
 20
16.22548554971472
 10
180.0510134726108
 20
16.16284386190284
 10
180.1919290057157
 20
16.17001554055991
 10
180.3490417757588
 20
16.16235883078245
 10
180.5025913427287
 20
16.16252752283039
 10
180.6545104935082
 20
16.16182040535433
 10
180.8142214813231
 20
16.17210158351639
 10
180.9408972601119
 20
16.15496511080751
 10
181.1370821122079
 20
16.22727260107147
 10
181.1034395279079
 20
16.12640699080116
 10
181.1052011317184
 20
16.07619253947671
 10
181.1027342073459
 20
16.02712335586467
 10
181.1347076966011
 20
15.94063490846999
 10
181.0010399903256
 20
15.98997438608338
 10
180.9172208688056
 20
15.98430634314168
 10
180.8173861139325
 20
15.99465516706299
 10
180.7186576720146
 20
16.00086450411088
 10
180.6121532771111
 20
16.00697763816777
 10
180.491051169806
 20
16.01588883484587
 10
180.3703381502454
 20
16.00521605912383
 10
180.1812553843437
 20
16.0646850308037
 10
180.2129028505312
 20
15.9055832007754
 10
180.1995563316834
 20
15.80839128339905
 10
180.197495842645
 20
15.69634065110104
 10
180.195818804467
 20
15.57699685629352
 10
180.1973336794232
 20
15.45032592155111
 10
180.1956582478672
 20
15.32301588016118
 10
180.2058844271658
 20
15.22451566404465
 10
180.1779006596582
 20
15.0838870262563
 10
180.3508029999306
 20
15.13989551134097
 10
180.4645020202772
 20
15.12719951478499
 10
180.584015167224
 20
15.13448377051256
 10
180.6888491425071
 20
15.13878017056756
 10
180.7843084898612
 20
15.14330568258978
 10
180.8763823507032
 20
15.151492011462
 10
180.9476551782439
 20
15.14643850638113
 10
181.0544931705687
 20
15.18536425031677
 10
181.0226603598035
 20
15.10517122005881
 10
181.026616450393
 20
15.05562936846034
 10
181.0234502392013
 20
15.00557478039818
 10
181.0550791490587
 20
14.92128847612022
 10
180.9210133677692
 20
14.97425365495157
 10
180.8292322793201
 20
14.96540080890443
 10
180.7079729189603
 20
14.97570049965155
 10
180.5914113119772
 20
14.97748911767503
 10
180.4783375745879
 20
14.97787017109695
 10
180.3679246308471
 20
14.98415449472181
 10
180.289812406784
 20
14.97189133255365
 10
180.1913625833644
 20
15.00453887616128
 10
180.2012355173561
 20
14.94769748054207
 10
180.1973923244404
 20
14.91392130557984
 10
180.1966789884267
 20
14.87119604709412
 10
180.1963369642974
 20
14.83401607262153
 10
180.1963834255345
 20
14.79487237370771
 10
180.1963649429927
 20
14.75716849497686
 10
180.1963703431806
 20
14.71944955232403
 10
180.1963697214201
 20
14.68994324745151
 10
180.1963698151545
 20
14.65873577699302
 10
180.1963704287921
 20
14.61414424908086
 10
180.1963671499336
 20
14.55963956508852
 10
180.196375962348
 20
14.51505540201448
 10
180.1963359653418
 20
14.43117808585743
 10
180.1976024270254
 20
14.31737520677678
 10
180.1950274117844
 20
14.1683039593371
 10
180.2065009381719
 20
14.06597203813906
 10
180.1823506222263
 20
13.93338903885834
 10
180.3332993946476
 20
13.97895732272022
 10
180.4428436671556
 20
13.96427012162351
 10
180.573397047392
 20
13.96920435125064
 10
180.6990312209514
 20
13.97257705323361
 10
180.8188730625602
 20
13.97711497498775
 10
180.9391362611427
 20
13.99048536182006
 10
181.0222761663515
 20
13.98068712782597
 10
181.1456080421075
 20
14.04126214623318
 10
181.1244269203956
 20
13.98532460134022
 10
181.1235950270117
 20
13.95939249372347
 10
181.1218963707558
 20
13.9319725619094
 10
181.1217974888829
 20
13.89738195206386
 10
181.120365930133
 20
13.86050408220769
 10
181.1532804192189
 20
13.76846841021806
 10
180.9551306988106
 20
13.84132015974832
 10
180.8300548294891
 20
13.81825726508607
 10
180.6673071295156
 20
13.82454021985786
 10
180.5129366450001
 20
13.82260943909927
 10
180.3566670436944
 20
13.82393762599268
 10
180.1970544465281
 20
13.82059872487863
 10
180.0540326342237
 20
13.83265795728241
 10
179.8197144881628
 20
13.76952001976918
 10
179.9173810751198
 20
14.05620527466318
 10
179.9006868780058
 20
14.24988308142662
 10
179.9146296709684
 20
14.47848242880295
 10
179.9142987846631
 20
14.63384593955049
 10
179.9143078119264
 20
14.73966336444127
 10
179.9143055876316
 20
14.80205784124215
 10
179.9143065551889
 20
14.89220425248327
 10
179.9143065473262
 20
14.99621167157438
 10
179.9143053861102
 20
15.10022131375296
 10
179.9143090971502
 20
15.19036243688768
 10
179.9143011051052
 20
15.25276803097215
 10
179.9143334275016
 20
15.35868835961118
 10
179.913144078832
 20
15.51626716544741
 10
179.9082216489256
 20
15.66528219822066
 10
179.9057788376618
 20
15.73923260398191
 97
        1
330
AC
 75
     1
 76
     2
 52
45.0
 41
0.1
 77
     0
 78
     1
 53
45.0
 43
0.0
 44
0.0
 45
-0.282842712474619
 46
0.0
 79
     0
 98
        1
 10
0.0
 20
0.0
  0
HATCH
  5
CA
330
48
100
AcDbEntity
  8
1
  6
Continuous
 62
     2
100
AcDbHatch
 10
0.0
 20
0.0
 30
0.0
210
0.0
220
0.0
230
1.0
  2
CUSTOM12
 70
     0
 71
     1
 91
        1
 92
        1
 93
        1
 72
     4
 94
        3
 73
     0
 74
     0
 95
       95
 96
       91
 40
0.0
 40
0.0
 40
0.0
 40
0.0
 40
0.6550406656910939
 40
1.30808728903194
 40
1.420803739835811
 40
1.56613075977081
 40
1.757067341888479
 40
2.00651354502647
 40
2.087328263121565
 40
2.18532887229564
 40
2.294612454748381
 40
2.408936380534824
 40
2.526802767798575
 40
2.64636052461562
 40
2.762535723971598
 40
2.87005734287017
 40
2.966883448431662
 40
3.050803243518308
 40
3.115818222436624
 40
3.156030057150261
 40
3.213914225080191
 40
3.276689026450564
 40
3.342960320981398
 40
3.40423066715059
 40
3.453822809493404
 40
3.532499827188456
 40
3.634775188507191
 40
3.75490933300819
 40
3.889736761660684
 40
4.035769602175251
 40
4.187256681197631
 40
4.338733685675981
 40
4.488478734676145
 40
4.634708317831615
 40
4.771493189921299
 40
4.892686571561228
 40
5.199775528944476
 40
5.460353566929663
 40
5.667603142345534
 40
5.814722905404517
 40
5.828990806219844
 40
5.855488336304512
 40
5.869756237118844
 40
6.18979650776283
 40
6.531890469872978
 40
6.883053637016991
 40
7.230512024911445
 40
7.566966656764571
 40
7.885203559707385
 40
8.172887439719199
 40
8.418011594062794
 40
8.443926721190715
 40
8.510760470613203
 40
8.602145393795713
 40
8.70171404164715
 40
8.793098965075384
 40
8.859932715057957
 40
8.885847842603605
 40
9.24230125661282
 40
9.589275455016775
 40
9.921808543164179
 40
10.23479624298469
 40
10.29968150889185
 40
10.35323493887768
 40
10.40154625355155
 40
10.46482922477837
 40
10.55973900668418
 40
10.69239545985631
 40
10.84920353475684
 40
11.01626328594792
 40
11.18672024367456
 40
11.35372582577224
 40
11.5025744229244
 40
11.61866495023304
 40
11.71329869152888
 40
11.8251105057392
 40
11.94464880845729
 40
12.06929242642519
 40
12.19707290435189
 40
12.32562632860541
 40
12.45034565331292
 40
12.5664659517034
 40
12.67099007414648
 40
12.76077625936795
 40
12.82703233506707
 40
12.87429132786005
 40
12.8983199032335
 40
12.92234847860042
 40
13.53984767410337
 40
14.18294284359386
 40
14.18294284359386
 40
14.18294284359386
 40
14.18294284359386
 10
177.3067935648021
 20
14.70898038201725
 10
177.1752019758551
 20
14.82265058603234
 10
176.912419380273
 20
15.04964496316166
 10
176.3997393441019
 20
15.8921446295629
 10
176.4106654595363
 20
15.53423377577021
 10
176.404122652799
 20
15.39267392272133
 10
176.4028026631773
 20
15.19421305299282
 10
176.4018117602539
 20
15.02150296045983
 10
176.4024101751975
 20
14.87865373257581
 10
176.4038994301882
 20
14.78265005413359
 10
176.4055683588473
 20
14.67545503263142
 10
176.4071934954617
 20
14.56164211517583
 10
176.4092429501686
 20
14.44441572604589
 10
176.4123165501926
 20
14.3265641123297
 10
176.4156339697043
 20
14.21228087320621
 10
176.419360534028
 20
14.10521401867277
 10
176.4217338161424
 20
14.01007408766922
 10
176.4278718888358
 20
13.92558557205696
 10
176.4239784495947
 20
13.86923087298142
 10
176.4455230443078
 20
13.79825022472356
 10
176.3680940058619
 20
13.82902677604483
 10
176.3116353240191
 20
13.82011242517614
 10
176.2540495896808
 20
13.82896218398276
 10
176.1690163478473
 20
13.79738225225947
 10
176.2009714146384
 20
13.88095155992191
 10
176.1990705282539
 20
13.94882608968309
 10
176.21079600473
 20
14.0523325676442
 10
176.2164241053001
 20
14.17002125616695
 10
176.223790217894
 20
14.30388609164424
 10
176.232075970161
 20
14.44764152872633
 10
176.2398851897427
 20
14.59714022843445
 10
176.2457571222658
 20
14.74792549402079
 10
176.2503667817967
 20
14.89699943878438
 10
176.2542632117544
 20
15.04122913163023
 10
176.2570715126564
 20
15.17583905213018
 10
176.2576698755022
 20
15.36469614347355
 10
176.261602386715
 20
15.58975494313155
 10
176.2442175378499
 20
15.86367091125707
 10
176.2850417342583
 20
16.02787112098598
 10
176.1995153256001
 20
16.22749661465097
 10
176.2660558907689
 20
16.2238545840398
 10
176.2838724273231
 20
16.22413447160855
 10
176.4056801797508
 20
16.22632927398616
 10
176.508077033546
 20
15.94675118721515
 10
176.7580021509356
 20
15.74563008536001
 10
176.9870035331111
 20
15.4779261498792
 10
177.2245151213108
 20
15.22646413862374
 10
177.4486090740772
 20
14.98969974061361
 10
177.6750716283009
 20
14.73218692583078
 10
177.8325687886513
 20
14.6164933505692
 10
178.0472129612677
 20
14.27997152538795
 10
178.0422645974619
 20
14.40464754091604
 10
178.0433931602548
 20
14.46327691935738
 10
178.0428877841517
 20
14.55043662371978
 10
178.0430475158114
 20
14.64416143182873
 10
178.0430054891319
 20
14.73018971297035
 10
178.0430202040374
 20
14.79153891945496
 10
178.0429706255982
 20
14.94135231520992
 10
178.0458811522812
 20
15.17989612510106
 10
178.0259521041162
 20
15.54486509868702
 10
178.0750433936247
 20
15.80799631993414
 10
177.9177951509181
 20
16.21928904947755
 10
178.0762112872421
 20
16.16398282551748
 10
178.1311680478629
 20
16.16199686500175
 10
178.182788776674
 20
16.16264778248252
 10
178.2713198965367
 20
16.20369527738248
 10
178.2204898303169
 20
16.05696326622988
 10
178.2313389930283
 20
15.95019971954434
 10
178.2166036994848
 20
15.79085705414113
 10
178.2099976446206
 20
15.62853061652874
 10
178.2014961399915
 20
15.45992521892396
 10
178.1943227202199
 20
15.29814814703541
 10
178.188906321539
 20
15.15422331457933
 10
178.1871713967648
 20
15.03437493466926
 10
178.187544067232
 20
14.92686101590516
 10
178.1873656126263
 20
14.81820024645586
 10
178.1877010863141
 20
14.69953570165531
 10
178.1890040622183
 20
14.57555163512741
 10
178.1908887351576
 20
14.44858294171106
 10
178.1925004454849
 20
14.32153861551033
 10
178.1941403137431
 20
14.19854884492178
 10
178.1962570745751
 20
14.0830093138376
 10
178.1963848422364
 20
13.98090903955837
 10
178.2006514396554
 20
13.89009848838157
 10
178.190844008529
 20
13.83213621208786
 10
178.211847477169
 20
13.76517130132028
 10
178.1725639739897
 20
13.77291153966689
 10
177.9595307117747
 20
13.75755254145193
 10
177.7636297943186
 20
14.31403058094474
 10
177.4611197631544
 20
14.57556035348512
 10
177.3067935648021
 20
14.70898038201725
 97
        1
330
AD
 75
     1
 76
     2
 52
45.0
 41
0.1
 77
     0
 78
     1
 53
45.0
 43
0.0
 44
0.0
 45
-0.282842712474619
 46
0.0
 79
     0
 98
        1
 10
0.0
 20
0.0
  0
HATCH
  5
CB
330
48
100
AcDbEntity
  8
1
  6
Continuous
 62
     2
100
AcDbHatch
 10
0.0
 20
0.0
 30
0.0
210
0.0
220
0.0
230
1.0
  2
CUSTOM13
 70
     0
 71
     1
 91
        2
 92
        1
 93
        1
 72
     4
 94
        3
 73
     0
 74
     0
 95
       57
 96
       53
 40
0.0
 40
0.0
 40
0.0
 40
0.0
 40
0.0471632082809513
 40
0.0914861054631864
 40
0.13577625197021
 40
0.1826527001610679
 40
0.2295203288573156
 40
0.273775197222161
 40
0.318131046154392
 40
0.3652607198398512
 40
0.4571007286314642
 40
0.5671851029165466
 40
0.6894623283868586
 40
0.8181758272545824
 40
0.9510087229274251
 40
1.085852229674052
 40
1.218126164475299
 40
1.343545131142379
 40
1.454537202956767
 40
1.567187607530804
 40
1.68071096664248
 40
1.794226869736873
 40
1.900009184247644
 40
2.004085860447952
 40
2.108162674451811
 40
2.214000150155299
 40
2.496038577352167
 40
2.762350745479275
 40
2.997275353279406
 40
3.185110082137722
 40
3.246407890064005
 40
3.312607550212793
 40
3.378877742711667
 40
3.440140399651435
 40
4.100501696006432
 40
4.754913085563465
 40
5.411331693423891
 40
6.077890432568697
 40
6.110575292670976
 40
6.143260152775756
 40
6.367989363395116
 40
6.610525374951535
 40
6.863389136467295
 40
7.119380025547549
 40
7.376036605091056
 40
7.631164770966243
 40
7.876722425456392
 40
8.10495373585591
 40
8.312916685924272
 40
8.497730294941286
 40
8.651018984313813
 40
8.764738853624573
 40
8.764738853624573
 40
8.764738853624573
 40
8.764738853624573
 10
174.7922649500514
 20
13.81626739612928
 10
174.7766616726931
 20
13.81826231079078
 10
174.7463947960303
 20
13.82213201360299
 10
174.7010994202253
 20
13.82341984967269
 10
174.655955312935
 20
13.82308683554052
 10
174.60990171234
 20
13.82314658674225
 10
174.5640496172096
 20
13.82325813650002
 10
174.5183711648166
 20
13.82277833456591
 10
174.4750811541607
 20
13.82461109618722
 10
174.4039947951515
 20
13.80049556814661
 10
174.4057477261441
 20
13.92184693977252
 10
174.358619637057
 20
14.00726239751234
 10
174.3191478251761
 20
14.12486929345133
 10
174.2706635532647
 20
14.24232752540443
 10
174.2201017402521
 20
14.36405935761506
 10
174.1718634610478
 20
14.49075967862468
 10
174.1135232947596
 20
14.59933687784954
 10
174.0980892667262
 20
14.7562065713441
 10
173.9566586330637
 20
14.72373446548323
 10
173.8508397414904
 20
14.73512888682179
 10
173.7358569725222
 20
14.73392591514616
 10
173.6253142252141
 20
14.73506945347409
 10
173.5176583522783
 20
14.73418350037527
 10
173.4121322529243
 20
14.73416602390518
 10
173.3109192682014
 20
14.72714032472417
 10
173.1266804827753
 20
14.75135859859866
 10
173.1157393685411
 20
14.4474169112189
 10
173.0087691634751
 20
14.22353177253396
 10
172.9098148604348
 20
14.03895314292498
 10
172.9225090524008
 20
13.79530204804206
 10
172.8050091716398
 20
13.82508046753198
 10
172.7422055868309
 20
13.82258089509604
 10
172.6785872093401
 20
13.82344075102806
 10
172.3946014194073
 20
13.78098039941946
 10
173.0251638499382
 20
14.50081952444789
 10
173.1087645289071
 20
15.01276539435732
 10
173.4929252789338
 20
15.53353743550042
 10
173.4777208288569
 20
16.23519626253218
 10
173.7239265722698
 20
16.22345633081257
 10
173.8256346157563
 20
16.23225004452775
 10
173.8249752035817
 20
15.98059650730344
 10
173.9428317155829
 20
15.79818020733961
 10
174.0315515260486
 20
15.55563740662869
 10
174.1322292485259
 20
15.32340030530126
 10
174.2311142712244
 20
15.08674644566916
 10
174.3299676990668
 20
14.85461739170091
 10
174.4256166390927
 20
14.63122222788792
 10
174.5159904573271
 20
14.42272549049314
 10
174.5989944568189
 20
14.23308448529321
 10
174.67260885828
 20
14.06663106068103
 10
174.7342815895545
 20
13.92917699626095
 10
174.7749458885604
 20
13.84999239430034
 10
174.7922649500514
 20
13.81626739612928
 97
        1
330
AF
 92
       16
 93
        1
 72
     4
 94
        3
 73
     0
 74
     0
 95
       25
 96
       21
 40
0.0
 40
0.0
 40
0.0
 40
0.0
 40
0.091147996906539
 40
0.1858117896204666
 40
0.2804128399735059
 40
0.3715889190714509
 40
0.4679080494218707
 40
0.5642683809229229
 40
0.6605683222645273
 40
0.7569653015811106
 40
0.856134817252359
 40
1.092615965104389
 40
1.374867658141986
 40
1.61134881201172
 40
1.710518328425368
 40
1.809403163726685
 40
2.045205463294188
 40
2.32664691762225
 40
2.562449217190712
 40
2.661334043834031
 40
2.661334043834031
 40
2.661334043834031
 40
2.661334043834031
 10
173.2683700567199
 20
14.88614538197293
 10
173.2987525917923
 20
14.88598079714555
 10
173.3606895889112
 20
14.88564528689923
 10
173.454135696033
 20
14.88269055452001
 10
173.5475095236357
 20
14.87977752877152
 10
173.6417760753477
 20
14.87894201643417
 10
173.7354964790966
 20
14.87996644658048
 10
173.8352040303205
 20
14.87916977470973
 10
173.9188949546313
 20
14.88921410235221
 10
174.0637996315046
 20
14.86234617674164
 10
173.9396132444802
 20
15.0366553028005
 10
173.8965867286282
 20
15.19651711006092
 10
173.780892214221
 20
15.45518458550218
 10
173.7017565431257
 20
15.59231052861858
 10
173.6431576621816
 20
15.80937033134078
 10
173.5864803939438
 20
15.59266134213429
 10
173.5052809900477
 20
15.45327012438237
 10
173.4063701281488
 20
15.20406969370196
 10
173.3253625094259
 20
15.01925830226074
 10
173.2813683325838
 20
14.91650446856118
 10
173.2683700567199
 20
14.88614538197293
 97
        1
330
AE
 75
     1
 76
     2
 52
45.0
 41
0.1
 77
     0
 78
     1
 53
45.0
 43
0.0
 44
0.0
 45
-0.282842712474619
 46
0.0
 79
     0
 98
        1
 10
0.0
 20
0.0
  0
HATCH
  5
CC
330
48
100
AcDbEntity
  8
1
  6
Continuous
 62
     2
100
AcDbHatch
 10
0.0
 20
0.0
 30
0.0
210
0.0
220
0.0
230
1.0
  2
CUSTOM14
 70
     0
 71
     1
 91
        1
 92
        1
 93
        1
 72
     4
 94
        3
 73
     0
 74
     0
 95
       99
 96
       95
 40
0.0
 40
0.0
 40
0.0
 40
0.0
 40
0.0796417172273046
 40
0.1621768542355941
 40
0.2486489160957833
 40
0.340496966852531
 40
0.4381912511165617
 40
0.5434463660244782
 40
0.6518115192847098
 40
0.7530190937887496
 40
0.849219691972551
 40
0.941929031299879
 40
1.034249663570086
 40
1.129078600620212
 40
1.226697027573259
 40
1.32722042542172
 40
1.470572134938033
 40
1.595489863371234
 40
1.719934125348373
 40
1.850576620127438
 40
1.989059629987274
 40
2.134139054226838
 40
2.280698007207156
 40
2.4245297390395
 40
2.565929576985823
 40
2.708239260773552
 40
2.861717887443636
 40
3.045168540347349
 40
3.183798301138586
 40
3.314813961455444
 40
3.442083470447279
 40
3.569912708372873
 40
3.702177512509276
 40
3.842307559659442
 40
3.992872223245901
 40
4.156750662218347
 40
4.310981861107455
 40
4.4458599093225
 40
4.572393936131546
 40
4.701656719781973
 40
4.768279086008463
 40
4.835960697898399
 40
4.912788918729336
 40
5.006285208481526
 40
5.026909478751659
 40
5.047533749021281
 40
5.101808031471334
 40
5.162325165538646
 40
5.226919745995967
 40
5.294231806596762
 40
5.364544852554932
 40
5.438319055467978
 40
5.517877651324394
 40
5.607647714861592
 40
5.700449642544439
 40
5.788251142364279
 40
5.87271470603986
 40
5.955167292575419
 40
6.037192395190515
 40
6.120669181469241
 40
6.206848616686487
 40
6.296680855416901
 40
6.442558392872733
 40
6.568190371608421
 40
6.692904567360537
 40
6.824220446557338
 40
6.963121850329524
 40
7.107843738851286
 40
7.253431663907397
 40
7.395187468036895
 40
7.533140753237883
 40
7.670550457175426
 40
7.816236511769436
 40
7.98769165735939
 40
8.142277421969423
 40
8.293662615415167
 40
8.44296246087944
 40
8.59159831618547
 40
8.743678992361966
 40
8.903725323699325
 40
9.076307008890728
 40
9.265578604680726
 40
9.459203795360873
 40
9.61761981027377
 40
9.753609671362128
 40
9.874873300004232
 40
9.954520184977925
 40
10.0241641371926
 40
10.0976976440546
 40
10.18909955924988
 40
10.20974586420144
 40
10.23039218263383
 40
10.3005710188127
 40
10.37632012987549
 40
10.37632012987549
 40
10.37632012987549
 40
10.37632012987549
 10
170.1465954835851
 20
14.13795663215995
 10
170.1632217851219
 20
14.11720608845315
 10
170.1970784206578
 20
14.07495111711908
 10
170.2599822541036
 20
14.02029811392069
 10
170.3332500940393
 20
13.97299025121051
 10
170.4175969238637
 20
13.93527231437936
 10
170.513224061546
 20
13.91040619731953
 10
170.6171853775347
 20
13.90309559345938
 10
170.7224020220405
 20
13.91142322794055
 10
170.8206626371334
 20
13.94149179651527
 10
170.9058986427549
 20
13.98848822971879
 10
170.9779220206103
 20
14.04952991250856
 10
171.0350917709097
 20
14.12412969578584
 10
171.0767868747439
 20
14.21002464660177
 10
171.1026952846292
 20
14.30485850432212
 10
171.1118037332653
 20
14.41854979038368
 10
171.0986864796486
 20
14.54332587770779
 10
171.0325330334415
 20
14.66014719171892
 10
170.9369370919568
 20
14.74512539577378
 10
170.8249681022369
 20
14.81416684459158
 10
170.699365958327
 20
14.87204142045891
 10
170.5656691620856
 20
14.92373723284341
 10
170.4313122818832
 20
14.97899092397184
 10
170.3051983986877
 20
15.04939770641646
 10
170.1926579987536
 20
15.13785540731255
 10
170.0969963064458
 20
15.24981067868469
 10
170.0334157151827
 20
15.39949910101387
 10
170.0200706505016
 20
15.55932794385142
 10
170.0320510987449
 20
15.71048405306847
 10
170.0712298928842
 20
15.83809244591538
 10
170.1354987750911
 20
15.95080874030843
 10
170.223820499974
 20
16.04648609268688
 10
170.3338091207627
 20
16.12354214985753
 10
170.4632284401265
 20
16.18151396936279
 10
170.6111838967794
 20
16.21739177588822
 10
170.7682069455487
 20
16.22746719050565
 10
170.917494046643
 20
16.21863637762591
 10
171.059625361417
 20
16.19074899340352
 10
171.1595922609626
 20
16.1341331470114
 10
171.3125074736186
 20
16.08674602105506
 10
171.2455131717169
 20
16.00197553001187
 10
171.229647912027
 20
15.93438901873483
 10
171.1978750531297
 20
15.86926092793192
 10
171.2150202209572
 20
15.76723453256952
 10
171.1666427208232
 20
15.77493211681903
 10
171.1315789440766
 20
15.76806771724806
 10
171.1296697985719
 20
15.83263831158199
 10
171.0985692931989
 20
15.87825639621395
 10
171.0664551628455
 20
15.93561036628451
 10
171.0208038475169
 20
15.98540462692564
 10
170.9658508218387
 20
16.02994813718994
 10
170.9010841173007
 20
16.06763988836553
 10
170.8232377310598
 20
16.0928337579135
 10
170.7355160553352
 20
16.09931230998112
 10
170.6452903277807
 20
16.09235709285606
 10
170.5594594694065
 20
16.06909190460926
 10
170.4828343638596
 20
16.03131644107542
 10
170.4165265636201
 20
15.98051641089577
 10
170.3622560536963
 20
15.9173114340721
 10
170.3224925345459
 20
15.84276455710368
 10
170.2976775510588
 20
15.75917313997764
 10
170.289212426287
 20
15.65192948382285
 10
170.3019697987103
 20
15.5296545726756
 10
170.3681548409273
 20
15.41149724291209
 10
170.4640977399833
 20
15.3260632570953
 10
170.5757914963182
 20
15.25583362306725
 10
170.7010863668703
 20
15.19659162305304
 10
170.8349823941447
 20
15.14616708086132
 10
170.9689930333149
 20
15.0932251698438
 10
171.0950885316916
 20
15.02750170625182
 10
171.2076216638417
 20
14.94480352537316
 10
171.3031370284234
 20
14.83996006310079
 10
171.3672706486963
 20
14.6993711725157
 10
171.3811103725278
 20
14.54065409451592
 10
171.367395471223
 20
14.38153155217878
 10
171.3244739153985
 20
14.23483828819209
 10
171.2545906329066
 20
14.10119796587144
 10
171.157459221383
 20
13.9853238769929
 10
171.0347806023658
 20
13.8908998177009
 10
170.8874408413169
 20
13.8217927065198
 10
170.7177132497125
 20
13.77953210858855
 10
170.5317404979598
 20
13.76781736230408
 10
170.3528955926183
 20
13.77809486683439
 10
170.1881733753744
 20
13.81966573769153
 10
170.0834410841056
 20
13.88797642883939
 10
169.9350960790367
 20
13.9367521903211
 10
169.9980378194729
 20
14.02976591290843
 10
170.007227443006
 20
14.10296536248281
 10
170.0303711301233
 20
14.16936294501347
 10
170.0034588335318
 20
14.26974809527579
 10
170.0521338956339
 20
14.2623403351738
 10
170.0916530580697
 20
14.26894063620894
 10
170.0996204944702
 20
14.19078703218934
 10
170.1305436967923
 20
14.15600927375858
 10
170.1465954835851
 20
14.13795663215995
 97
        1
330
B0
 75
     1
 76
     2
 52
45.0
 41
0.1
 77
     0
 78
     1
 53
45.0
 43
0.0
 44
0.0
 45
-0.282842712474619
 46
0.0
 79
     0
 98
        1
 10
0.0
 20
0.0
  0
ENDBLK
  5
4A
330
48
100
AcDbEntity
  8
0
100
AcDbBlockEnd
  0
BLOCK
  5
4D
330
4B
100
AcDbEntity
  8
0
100
AcDbBlockBegin
  2
開示A4枠
 70
     0
 10
0.0
 20
0.00000000000001
 30
0.0
  3
開示A4枠
  1

  0
INSERT
  5
4C
330
4B
100
AcDbEntity
  8
1
100
AcDbBlockReference
  2
開示A4
 10
0.0
 20
0.00000000000001
 30
0.0
  0
ENDBLK
  5
4E
330
4B
100
AcDbEntity
  8
0
100
AcDbBlockEnd
  0
BLOCK
  5
F5
330
EE
100
AcDbEntity
  8
0
100
AcDbBlockBegin
  2
*D3
 70
     1
 10
0.0
 20
0.0
 30
0.0
  3
*D3
  1

  0
LINE
  5
EF
330
EE
100
AcDbEntity
  8
1
  6
Continuous
 62
     2
100
AcDbLine
 10
84.00000000000006
 20
88.0452826640384
 30
0.0
 11
141.0000000000001
 21
88.0452826640384
 31
0.0
  0
LINE
  5
F0
330
EE
100
AcDbEntity
  8
1
  6
Continuous
 62
     2
100
AcDbLine
 10
141.0000000000001
 20
97.0452826640384
 30
0.0
 11
141.0000000000001
 21
87.0452826640384
 31
0.0
  0
LINE
  5
F1
330
EE
100
AcDbEntity
  8
1
  6
Continuous
 62
     2
100
AcDbLine
 10
84.00000000000006
 20
97.0452826640384
 30
0.0
 11
84.00000000000006
 21
87.0452826640384
 31
0.0
  0
SOLID
  5
F2
330
EE
100
AcDbEntity
  8
1
 62
     2
100
AcDbTrace
 10
87.50000000000006
 20
88.50606640559428
 30
0.0
 11
87.50000000000006
 21
87.58449892248251
 31
0.0
 12
84.00000000000006
 22
88.0452826640384
 32
0.0
 13
84.00000000000006
 23
88.0452826640384
 33
0.0
  0
SOLID
  5
F3
330
EE
100
AcDbEntity
  8
1
 62
     2
100
AcDbTrace
 10
137.5000000000001
 20
87.58449892248251
 30
0.0
 11
137.5000000000001
 21
88.50606640559428
 31
0.0
 12
141.0000000000001
 22
88.0452826640384
 32
0.0
 13
141.0000000000001
 23
88.0452826640384
 33
0.0
  0
MTEXT
  5
F4
330
EE
100
AcDbEntity
  8
1
 62
     7
100
AcDbMText
 10
108.4781185368936
 20
89.04527570696207
 30
0.0
 40
3.5
 41
0.0
 71
     7
 72
     1
  1
\C7;{\Fgdt;n}\C7;57
  7
CONVERTER_12
 11
0.9999999999970619
 21
2.424068405545306E-6
 31
0.0
 73
     1
 44
0.60024009603842
  0
ENDBLK
  5
F6
330
EE
100
AcDbEntity
  8
0
100
AcDbBlockEnd
  0
BLOCK
  5
100
330
F9
100
AcDbEntity
  8
0
100
AcDbBlockBegin
  2
*D4
 70
     1
 10
0.0
 20
0.0
 30
0.0
  3
*D4
  1

  0
LINE
  5
FA
330
F9
100
AcDbEntity
  8
0
  6
Continuous
 62
     2
100
AcDbLine
 10
150.0000000000001
 20
97.0452826640384
 30
0.0
 11
150.0000000000001
 21
112.0452826640384
 31
0.0
  0
LINE
  5
FB
330
F9
100
AcDbEntity
  8
0
  6
Continuous
 62
     2
100
AcDbLine
 10
128.0096189432335
 20
112.0452826640384
 30
0.0
 11
151.0000000000001
 21
112.0452826640384
 31
0.0
  0
LINE
  5
FC
330
F9
100
AcDbEntity
  8
0
  6
Continuous
 62
     2
100
AcDbLine
 10
141.0000000000001
 20
97.0452826640384
 30
0.0
 11
151.0000000000001
 21
97.0452826640384
 31
0.0
  0
SOLID
  5
FD
330
F9
100
AcDbEntity
  8
0
 62
     2
100
AcDbTrace
 10
149.5392162584442
 20
100.5452826640384
 30
0.0
 11
150.460783741556
 21
100.5452826640384
 31
0.0
 12
150.0000000000001
 22
97.0452826640384
 32
0.0
 13
150.0000000000001
 23
97.0452826640384
 33
0.0
  0
SOLID
  5
FE
330
F9
100
AcDbEntity
  8
0
 62
     2
100
AcDbTrace
 10
150.460783741556
 20
108.5452826640384
 30
0.0
 11
149.5392162584442
 21
108.5452826640384
 31
0.0
 12
150.0000000000001
 22
112.0452826640384
 32
0.0
 13
150.0000000000001
 23
112.0452826640384
 33
0.0
  0
MTEXT
  5
FF
330
F9
100
AcDbEntity
  8
0
 62
     7
100
AcDbMText
 10
149.0000000000001
 20
102.2700004658012
 30
0.0
 40
3.5
 41
0.0
 71
     7
 72
     1
  1
15
  7
CONVERTER_12
 11
0.0
 21
1.0
 31
0.0
 73
     1
 44
0.60024009603842
  0
ENDBLK
  5
101
330
F9
100
AcDbEntity
  8
0
100
AcDbBlockEnd
  0
BLOCK
  5
109
330
104
100
AcDbEntity
  8
0
100
AcDbBlockBegin
  2
*D5
 70
     1
 10
0.0
 20
0.0
 30
0.0
  3
*D5
  1

  0
LINE
  5
105
330
104
100
AcDbEntity
  8
0
  6
Continuous
 62
     2
100
AcDbLine
 10
130.6169825115045
 20
207.0581089888961
 30
0.0
 11
76.35442698349593
 21
172.3838493778628
 31
0.0
  0
SOLID
  5
106
330
104
100
AcDbEntity
  8
0
 62
     2
100
AcDbTrace
 10
96.10576973413873
 20
184.4583077886227
 30
0.0
 11
95.60954146565548
 21
185.2348669502369
 31
0.0
 12
98.80693182270014
 22
186.7312013250209
 32
0.0
 13
98.80693182270014
 23
186.7312013250209
 33
0.0
  0
SOLID
  5
107
330
104
100
AcDbEntity
  8
0
 62
     2
100
AcDbTrace
 10
128.8942302658613
 20
206.5040815919077
 30
0.0
 11
129.3904585343446
 21
205.7275224302934
 31
0.0
 12
126.1930681772999
 22
204.2311880555095
 32
0.0
 13
126.1930681772999
 23
204.2311880555095
 33
0.0
  0
MTEXT
  5
108
330
104
100
AcDbEntity
  8
0
 62
     7
100
AcDbMText
 10
76.9366908179922
 20
173.9426530303597
 30
0.0
 40
3.5
 41
0.0
 71
     7
 72
     1
  1
\C7;{\Fgdt;n}\C7;33
  7
CONVERTER_12
 11
0.8426503493722981
 21
0.5384611301688766
 31
0.0
 73
     1
 44
0.60024009603842
  0
ENDBLK
  5
10A
330
104
100
AcDbEntity
  8
0
100
AcDbBlockEnd
  0
ENDSEC
  0
SECTION
  2
ENTITIES
  0
INSERT
  5
4F
330
1F
100
AcDbEntity
  8
0
100
AcDbBlockReference
  2
開示A4枠
 10
0.0
 20
0.00000000000001
 30
0.0
  0
LINE
  5
CD
330
1F
100
AcDbEntity
  8
1
  6
DASH_CENTER
 62
     2
100
AcDbLine
 10
128.7500000000001
 20
195.4811946902652
 30
0.0
 11
141.0000000000001
 21
195.4811946902652
 31
0.0
  0
LINE
  5
CE
330
1F
100
AcDbEntity
  8
1
  6
DASH_CENTER
 62
     2
100
AcDbLine
 10
141.0000000000001
 20
195.4811946902652
 30
0.0
 11
144.0000000000001
 21
195.4811946902652
 31
0.0
  0
LINE
  5
CF
330
1F
100
AcDbEntity
  8
1
  6
DASH_CENTER
 62
     2
100
AcDbLine
 10
81.00000000000003
 20
195.4811946902652
 30
0.0
 11
128.7500000000001
 21
195.4811946902652
 31
0.0
  0
LINE
  5
D0
330
1F
100
AcDbEntity
  8
1
  6
DASH_CENTER
 62
     2
100
AcDbLine
 10
112.5
 20
163.9811946902652
 30
0.0
 11
112.5
 21
226.9811946902652
 31
0.0
  0
LINE
  5
D1
330
1F
100
AcDbEntity
  8
1
  6
Continuous
 62
     7
100
AcDbLine
 10
140.5000000000001
 20
97.0452826640384
 30
0.0
 11
112.5
 21
97.0452826640384
 31
0.0
  0
LINE
  5
D2
330
1F
100
AcDbEntity
  8
1
  6
Continuous
 62
     7
100
AcDbLine
 10
141.0000000000001
 20
97.0452826640384
 30
0.0
 11
140.5000000000001
 21
97.0452826640384
 31
0.0
  0
LINE
  5
D3
330
1F
100
AcDbEntity
  8
1
  6
DASH_CENTER
 62
     2
100
AcDbLine
 10
112.5
 20
115.0452826640384
 30
0.0
 11
112.5
 21
94.04528266403838
 31
0.0
  0
LINE
  5
D4
330
1F
100
AcDbEntity
  8
1
  6
Continuous
 62
     7
100
AcDbLine
 10
112.5
 20
97.0452826640384
 30
0.0
 11
84.50000000000001
 21
97.0452826640384
 31
0.0
  0
LINE
  5
D5
330
1F
100
AcDbEntity
  8
1
  6
Continuous
 62
     7
100
AcDbLine
 10
84.50000000000001
 20
97.0452826640384
 30
0.0
 11
84.00000000000003
 21
97.0452826640384
 31
0.0
  0
LINE
  5
D6
330
1F
100
AcDbEntity
  8
1
  6
Continuous
 62
     7
100
AcDbLine
 10
84.00000000000003
 20
97.0452826640384
 30
0.0
 11
84.00000000000003
 21
101.0524788328491
 31
0.0
  0
LINE
  5
D7
330
1F
100
AcDbEntity
  8
1
  6
Continuous
 62
     7
100
AcDbLine
 10
141.0000000000001
 20
101.0524788328491
 30
0.0
 11
141.0000000000001
 21
97.0452826640384
 31
0.0
  0
LINE
  5
D8
330
1F
100
AcDbEntity
  8
1
  6
Continuous
 62
     7
100
AcDbLine
 10
96.99038105676661
 20
112.0452826640384
 30
0.0
 11
128.0096189432335
 21
112.0452826640384
 31
0.0
  0
ARC
  5
D9
330
1F
100
AcDbEntity
  8
1
  6
Continuous
 62
     7
100
AcDbCircle
 10
128.0096189432335
 20
97.0452826640384
 30
0.0
 40
14.99999999999998
100
AcDbArc
 50
87.17080309877919
 51
90.0
  0
ARC
  5
DA
330
1F
100
AcDbEntity
  8
1
  6
Continuous
 62
     7
100
AcDbCircle
 10
131.0000000000001
 20
101.0524788328491
 30
0.0
 40
10.0
100
AcDbArc
 50
0.0
 51
53.26775967487725
  0
ARC
  5
DB
330
1F
100
AcDbEntity
  8
1
  6
Continuous
 62
     7
100
AcDbCircle
 10
96.99038105676661
 20
97.0452826640384
 30
0.0
 40
15.0
100
AcDbArc
 50
90.0
 51
126.7322403251231
  0
ARC
  5
DC
330
1F
100
AcDbEntity
  8
1
  6
Continuous
 62
     7
100
AcDbCircle
 10
94.00000000000003
 20
101.0524788328491
 30
0.0
 40
10.00000000000012
100
AcDbArc
 50
126.732240325123
 51
180.0
  0
ARC
  5
DD
330
1F
100
AcDbEntity
  8
1
  6
Continuous
 62
     7
100
AcDbCircle
 10
128.0096189432335
 20
97.0452826640384
 30
0.0
 40
15.00000000000007
100
AcDbArc
 50
53.26775967487698
 51
87.17080309877919
  0
CIRCLE
  5
DE
330
1F
100
AcDbEntity
  8
0
  6
Continuous
 62
     7
100
AcDbCircle
 10
112.5
 20
195.4811946902652
 30
0.0
 40
16.25000000000011
  0
CIRCLE
  5
DF
330
1F
100
AcDbEntity
  8
0
  6
Continuous
 62
     7
100
AcDbCircle
 10
112.5
 20
195.4811946902652
 30
0.0
 40
28.50000000000011
  0
CIRCLE
  5
E0
330
1F
100
AcDbEntity
  8
1
  6
Continuous
 62
     7
100
AcDbCircle
 10
112.5
 20
195.4811946902652
 30
0.0
 40
15.75000000000011
  0
MTEXT
  5
E2
330
1F
100
AcDbEntity
  8
1
 62
     7
100
AcDbMText
 10
157.4999999999999
 20
12.50000000000001
 30
0.0
 40
2.5
 41
0.0
 71
     5
 72
     1
  1
6
  7
CONVERTER_12
 73
     1
 44
0.7202881152461
  0
MTEXT
  5
E3
330
1F
100
AcDbEntity
  8
1
 62
     7
100
AcDbMText
 10
151.7499999999999
 20
12.50000000000001
 30
0.0
 40
2.5
 41
0.0
 71
     5
 72
     1
  1
04
  7
CONVERTER_12
 73
     1
 44
0.7202881152461
  0
MTEXT
  5
E4
330
1F
100
AcDbEntity
  8
1
 62
     7
100
AcDbMText
 10
140.4999999999999
 20
12.50000000000001
 30
0.0
 40
2.5
 41
0.0
 71
     5
 72
     1
  1
6
  7
CONVERTER_12
 73
     1
 44
0.7202881152461
  0
MTEXT
  5
E5
330
1F
100
AcDbEntity
  8
1
 62
     7
100
AcDbMText
 10
134.7499999999999
 20
12.50000000000001
 30
0.0
 40
2.5
 41
0.0
 71
     5
 72
     1
  1
04
  7
CONVERTER_12
 73
     1
 44
0.7202881152461
  0
MTEXT
  5
E6
330
1F
100
AcDbEntity
  8
1
 62
     7
100
AcDbMText
 10
123.5
 20
12.50000000000001
 30
0.0
 40
2.5
 41
0.0
 71
     5
 72
     1
  1
6
  7
CONVERTER_12
 73
     1
 44
0.7202881152461
  0
MTEXT
  5
E7
330
1F
100
AcDbEntity
  8
1
 62
     7
100
AcDbMText
 10
117.75
 20
12.50000000000001
 30
0.0
 40
2.5
 41
0.0
 71
     5
 72
     1
  1
04
  7
CONVERTER_12
 73
     1
 44
0.7202881152461
  0
MTEXT
  5
E8
330
1F
100
AcDbEntity
  8
1
 62
     7
100
AcDbMText
 10
100.75
 20
12.50000000000001
 30
0.0
 40
2.5
 41
0.0
 71
     5
 72
     1
  1
04
  7
CONVERTER_12
 73
     1
 44
0.7202881152461
  0
MTEXT
  5
E9
330
1F
100
AcDbEntity
  8
1
 62
     7
100
AcDbMText
 10
106.5
 20
12.50000000000001
 30
0.0
 40
2.5
 41
0.0
 71
     5
 72
     1
  1
6
  7
CONVERTER_12
 73
     1
 44
0.7202881152461
  0
MTEXT
  5
EA
330
1F
100
AcDbEntity
  8
1
 62
     7
100
AcDbMText
 10
85.25000000000001
 20
17.0
 30
0.0
 40
3.5
 41
0.0
 71
     5
 72
     1
  1
1
  7
CONVERTER_12
 73
     1
 44
0.7202881152461
  0
MTEXT
  5
EB
330
1F
100
AcDbEntity
  8
1
 62
     7
100
AcDbMText
 10
57.00000000000001
 20
22.75000000000003
 30
0.0
 40
3.5
 41
0.0
 71
     5
 72
     1
  1
トラップ用ワン座金
  7
CONVERTER_11
 73
     1
 44
0.54545454545455
  0
MTEXT
  5
EC
330
1F
100
AcDbEntity
  8
1
 62
     7
100
AcDbMText
 10
57.00000000000001
 20
14.25000000000001
 30
0.0
 40
3.5
 41
0.0
 71
     5
 72
     1
  1
H70-57-32
  7
CONVERTER_12
 73
     1
 44
0.7202881152461
  0
MTEXT
  5
ED
330
1F
100
AcDbEntity
  8
1
 62
     7
100
AcDbMText
 10
93.75
 20
17.0
 30
0.0
 40
3.5
 41
0.0
 71
     5
 72
     1
  1
1
  7
CONVERTER_12
 73
     1
 44
0.7202881152461
  0
DIMENSION
  5
F8
330
1F
100
AcDbEntity
  8
1
100
AcDbDimension
  2
*D3
 10
84.00000000000006
 20
88.0452826640384
 30
0.0
 11
111.8731185368852
 21
90.7952826640384
 31
0.0
 70
    32
  1
<>
 71
     5
 42
-1.0
 53
0.00013888888889
  3
ME10_DIM_10
100
AcDbAlignedDimension
 13
141.0000000000001
 23
97.0452826640384
 33
0.0
 14
84.00000000000003
 24
97.0452826640384
 34
0.0
100
AcDbRotatedDimension
  0
DIMENSION
  5
103
330
1F
100
AcDbEntity
  8
0
100
AcDbDimension
  2
*D4
 10
150.0000000000001
 20
97.0452826640384
 30
0.0
 11
147.2500000000001
 21
104.3700004658012
 31
0.0
 70
    32
  1
15
 71
     5
 42
-1.0
 53
90.0
  3
ME10_DIM_11
100
AcDbAlignedDimension
 13
128.0096189432335
 23
112.0452826640384
 33
0.0
 14
141.0000000000001
 24
97.0452826640384
 34
0.0
 50
90.0
100
AcDbRotatedDimension
  0
INSERT
  5
10B
330
1F
100
AcDbEntity
  8
0
100
AcDbBlockReference
  2
*D5
 10
0.0
 20
0.0
 30
0.0
  0
ENDSEC
  0
SECTION
  2
OBJECTS
  0
DICTIONARY
  5
C
330
0
100
AcDbDictionary
281
     1
  3
ACAD_GROUP
350
D
  3
ACAD_LAYOUT
350
1A
  3
ACAD_MATERIAL
350
3B
  3
ACAD_MLEADERSTYLE
350
10E
  3
ACAD_MLINESTYLE
350
17
  3
ACAD_PLOTSETTINGS
350
19
  3
ACAD_PLOTSTYLENAME
350
E
  3
ACAD_VISUALSTYLE
350
2A
  3
AcDbVariableDictionary
350
10C
  0
DICTIONARY
  5
D
102
{ACAD_REACTORS
330
C
102
}
330
C
100
AcDbDictionary
281
     1
  0
DICTIONARY
  5
1A
102
{ACAD_REACTORS
330
C
102
}
330
C
100
AcDbDictionary
281
     1
  3
Layout1
350
1E
  3
Layout2
350
26
  3
Model
350
22
  0
DICTIONARY
  5
3B
102
{ACAD_REACTORS
330
C
102
}
330
C
100
AcDbDictionary
281
     1
  3
ByBlock
350
3D
  3
ByLayer
350
3C
  3
Global
350
3E
  0
DICTIONARY
  5
10E
102
{ACAD_REACTORS
330
C
102
}
330
C
100
AcDbDictionary
281
     1
  0
DICTIONARY
  5
17
102
{ACAD_REACTORS
330
C
102
}
330
C
100
AcDbDictionary
281
     1
  3
Standard
350
18
  0
DICTIONARY
  5
19
102
{ACAD_REACTORS
330
C
102
}
330
C
100
AcDbDictionary
281
     1
  0
ACDBDICTIONARYWDFLT
  5
E
102
{ACAD_REACTORS
330
C
102
}
330
C
100
AcDbDictionary
281
     1
  3
Normal
350
F
100
AcDbDictionaryWithDefault
340
F
  0
DICTIONARY
  5
2A
102
{ACAD_REACTORS
330
C
102
}
330
C
100
AcDbDictionary
281
     1
  3
2dWireframe
350
2F
  3
3D Hidden
350
31
  3
3dWireframe
350
30
  3
Basic
350
32
  3
Brighten
350
36
  3
ColorChange
350
3A
  3
Conceptual
350
34
  3
Dim
350
35
  3
Facepattern
350
39
  3
Flat
350
2B
  3
FlatWithEdges
350
2C
  3
Gouraud
350
2D
  3
GouraudWithEdges
350
2E
  3
Linepattern
350
38
  3
Realistic
350
33
  3
Thicken
350
37
  0
DICTIONARY
  5
10C
102
{ACAD_REACTORS
330
C
102
}
330
C
100
AcDbDictionary
281
     1
  3
DIMASSOC
350
10F
  3
HIDETEXT
350
110
  0
LAYOUT
  5
1E
102
{ACAD_REACTORS
330
1A
102
}
330
1A
100
AcDbPlotSettings
  1

  2
none_device
  4

  6

 40
0.0
 41
0.0
 42
0.0
 43
0.0
 44
0.0
 45
0.0
 46
0.0
 47
0.0
 48
0.0
 49
0.0
140
0.0
141
0.0
142
1.0
143
1.0
 70
   688
 72
     0
 73
     0
 74
     5
  7

 75
    16
147
1.0
148
0.0
149
0.0
100
AcDbLayout
  1
Layout1
 70
     1
 71
     1
 10
0.0
 20
0.0
 11
12.0
 21
9.0
 12
0.0
 22
0.0
 32
0.0
 14
1.00000000000000E+20
 24
1.00000000000000E+20
 34
1.00000000000000E+20
 15
-1.00000000000000E+20
 25
-1.00000000000000E+20
 35
-1.00000000000000E+20
146
0.0
 13
0.0
 23
0.0
 33
0.0
 16
1.0
 26
0.0
 36
0.0
 17
0.0
 27
1.0
 37
0.0
 76
     0
330
1B
  0
LAYOUT
  5
26
102
{ACAD_REACTORS
330
1A
102
}
330
1A
100
AcDbPlotSettings
  1

  2
none_device
  4

  6

 40
0.0
 41
0.0
 42
0.0
 43
0.0
 44
0.0
 45
0.0
 46
0.0
 47
0.0
 48
0.0
 49
0.0
140
0.0
141
0.0
142
1.0
143
1.0
 70
   688
 72
     0
 73
     0
 74
     5
  7

 75
    16
147
1.0
148
0.0
149
0.0
100
AcDbLayout
  1
Layout2
 70
     1
 71
     2
 10
0.0
 20
0.0
 11
0.0
 21
0.0
 12
0.0
 22
0.0
 32
0.0
 14
0.0
 24
0.0
 34
0.0
 15
0.0
 25
0.0
 35
0.0
146
0.0
 13
0.0
 23
0.0
 33
0.0
 16
1.0
 26
0.0
 36
0.0
 17
0.0
 27
1.0
 37
0.0
 76
     0
330
23
  0
LAYOUT
  5
22
102
{ACAD_REACTORS
330
1A
102
}
330
1A
100
AcDbPlotSettings
  1

  2
none_device
  4

  6

 40
0.0
 41
0.0
 42
0.0
 43
0.0
 44
0.0
 45
0.0
 46
0.0
 47
0.0
 48
0.0
 49
0.0
140
0.0
141
0.0
142
1.0
143
1.0
 70
  1712
 72
     0
 73
     0
 74
     0
  7

 75
     0
147
1.0
148
0.0
149
0.0
100
AcDbLayout
  1
Model
 70
     1
 71
     0
 10
0.0
 20
0.0
 11
12.0
 21
9.0
 12
0.0
 22
0.0
 32
0.0
 14
0.0
 24
0.00000000000001
 34
0.0
 15
210.0
 25
297.0
 35
0.0
146
0.0
 13
0.0
 23
0.0
 33
0.0
 16
1.0
 26
0.0
 36
0.0
 17
0.0
 27
1.0
 37
0.0
 76
     0
330
1F
331
29
  0
MATERIAL
  5
3D
102
{ACAD_REACTORS
330
3B
102
}
102
{ACAD_XDICTIONARY
360
133
102
}
330
3B
100
AcDbMaterial
  1
ByBlock
  0
MATERIAL
  5
3C
102
{ACAD_REACTORS
330
3B
102
}
102
{ACAD_XDICTIONARY
360
131
102
}
330
3B
100
AcDbMaterial
  1
ByLayer
  0
MATERIAL
  5
3E
102
{ACAD_REACTORS
330
3B
102
}
102
{ACAD_XDICTIONARY
360
135
102
}
330
3B
100
AcDbMaterial
  1
Global
  0
MLINESTYLE
  5
18
102
{ACAD_REACTORS
330
17
102
}
330
17
100
AcDbMlineStyle
  2
Standard
 70
     0
  3

 62
   256
 51
90.0
 52
90.0
 71
     2
 49
0.5
 62
   256
  6
BYLAYER
 49
-0.5
 62
   256
  6
BYLAYER
  0
ACDBPLACEHOLDER
  5
F
102
{ACAD_REACTORS
330
E
102
}
330
E
  0
VISUALSTYLE
  5
2F
102
{ACAD_REACTORS
330
2A
102
}
102
{ACAD_XDICTIONARY
360
119
102
}
330
2A
100
AcDbVisualStyle
  2
2dWireframe
 70
     4
 71
     0
 72
     2
 73
     0
 90
        0
 40
-0.6
 41
-30.0
 62
     5
 63
     7
 74
     1
 91
        4
 64
     7
 65
   257
 75
     1
175
     1
 42
1.0
 92
        0
 66
   257
 43
1.0
 76
     1
 77
     6
 78
     2
 67
     7
 79
     5
170
     0
171
     0
290
     0
174
     0
 93
        1
 44
0.0
173
     0
291
     0
 45
0.0
1001
ACAD
1000
AcDbSavedByObjectVersion
1070
     0
  0
VISUALSTYLE
  5
31
102
{ACAD_REACTORS
330
2A
102
}
102
{ACAD_XDICTIONARY
360
11D
102
}
330
2A
100
AcDbVisualStyle
  2
3D Hidden
 70
     6
 71
     1
 72
     2
 73
     2
 90
        0
 40
-0.6
 41
-30.0
 62
     5
 63
     7
 74
     2
 91
        2
 64
     7
 65
   257
 75
     2
175
     1
 42
40.0
 92
        0
 66
   257
 43
1.0
 76
     1
 77
     6
 78
     2
 67
     7
 79
     3
170
     0
171
     0
290
     0
174
     0
 93
        1
 44
0.0
173
     0
291
     0
 45
0.0
1001
ACAD
1000
AcDbSavedByObjectVersion
1070
     0
  0
VISUALSTYLE
  5
30
102
{ACAD_REACTORS
330
2A
102
}
102
{ACAD_XDICTIONARY
360
11B
102
}
330
2A
100
AcDbVisualStyle
  2
3dWireframe
 70
     5
 71
     0
 72
     2
 73
     0
 90
        0
 40
-0.6
 41
-30.0
 62
     5
 63
     7
 74
     1
 91
        4
 64
     7
 65
   257
 75
     1
175
     1
 42
1.0
 92
        0
 66
   257
 43
1.0
 76
     1
 77
     6
 78
     2
 67
     7
 79
     5
170
     0
171
     0
290
     0
174
     0
 93
        1
 44
0.0
173
     0
291
     0
 45
0.0
1001
ACAD
1000
AcDbSavedByObjectVersion
1070
     0
  0
VISUALSTYLE
  5
32
102
{ACAD_REACTORS
330
2A
102
}
102
{ACAD_XDICTIONARY
360
11F
102
}
330
2A
100
AcDbVisualStyle
  2
Basic
 70
     7
 71
     1
 72
     0
 73
     1
 90
        0
 40
-0.6
 41
-30.0
 62
     5
 63
     7
 74
     0
 91
        4
 64
     7
 65
   257
 75
     1
175
     1
 42
1.0
 92
        8
 66
     7
 43
1.0
 76
     1
 77
     6
 78
     2
 67
     7
 79
     5
170
     0
171
     0
290
     0
174
     0
 93
        1
 44
0.0
173
     0
291
     1
 45
0.0
1001
ACAD
1000
AcDbSavedByObjectVersion
1070
     0
  0
VISUALSTYLE
  5
36
102
{ACAD_REACTORS
330
2A
102
}
102
{ACAD_XDICTIONARY
360
127
102
}
330
2A
100
AcDbVisualStyle
  2
Brighten
 70
    12
 71
     2
 72
     2
 73
     0
 90
        0
 40
-0.6
 41
-30.0
 62
     5
 63
     7
 74
     1
 91
        4
 64
     7
 65
   257
 75
     1
175
     1
 42
1.0
 92
        8
 66
     7
 43
1.0
 76
     1
 77
     6
 78
     2
 67
     7
 79
     5
170
     0
171
     0
290
     0
174
     0
 93
        1
 44
50.0
173
     0
291
     1
 45
0.0
1001
ACAD
1000
AcDbSavedByObjectVersion
1070
     0
  0
VISUALSTYLE
  5
3A
102
{ACAD_REACTORS
330
2A
102
}
102
{ACAD_XDICTIONARY
360
12F
102
}
330
2A
100
AcDbVisualStyle
  2
ColorChange
 70
    16
 71
     2
 72
     2
 73
     3
 90
        0
 40
-0.6
 41
-30.0
 62
     5
 63
     8
 74
     1
 91
        4
 64
     7
 65
   257
 75
     1
175
     1
 42
1.0
 92
        8
 66
     8
 43
1.0
 76
     1
 77
     6
 78
     2
 67
     7
 79
     5
170
     0
171
     0
290
     0
174
     0
 93
        1
 44
0.0
173
     0
291
     1
 45
0.0
1001
ACAD
1000
AcDbSavedByObjectVersion
1070
     0
  0
VISUALSTYLE
  5
34
102
{ACAD_REACTORS
330
2A
102
}
102
{ACAD_XDICTIONARY
360
123
102
}
330
2A
100
AcDbVisualStyle
  2
Conceptual
 70
     9
 71
     3
 72
     2
 73
     0
 90
        0
 40
-0.6
 41
-30.0
 62
     5
 63
     7
 74
     2
 91
        2
 64
     7
 65
   257
 75
     1
175
     1
 42
40.0
 92
        8
 66
     7
 43
1.0
 76
     1
 77
     6
 78
     2
 67
     7
 79
     3
170
     0
171
     0
290
     0
174
     0
 93
        1
 44
0.0
173
     0
291
     0
 45
0.0
1001
ACAD
1000
AcDbSavedByObjectVersion
1070
     0
  0
VISUALSTYLE
  5
35
102
{ACAD_REACTORS
330
2A
102
}
102
{ACAD_XDICTIONARY
360
125
102
}
330
2A
100
AcDbVisualStyle
  2
Dim
 70
    11
 71
     2
 72
     2
 73
     0
 90
        0
 40
-0.6
 41
-30.0
 62
     5
 63
     7
 74
     1
 91
        4
 64
     7
 65
   257
 75
     1
175
     1
 42
1.0
 92
        8
 66
     7
 43
1.0
 76
     1
 77
     6
 78
     2
 67
     7
 79
     5
170
     0
171
     0
290
     0
174
     0
 93
        1
 44
-50.0
173
     0
291
     1
 45
0.0
1001
ACAD
1000
AcDbSavedByObjectVersion
1070
     0
  0
VISUALSTYLE
  5
39
102
{ACAD_REACTORS
330
2A
102
}
102
{ACAD_XDICTIONARY
360
12D
102
}
330
2A
100
AcDbVisualStyle
  2
Facepattern
 70
    15
 71
     2
 72
     2
 73
     0
 90
        0
 40
-0.6
 41
-30.0
 62
     5
 63
     7
 74
     1
 91
        4
 64
     7
 65
   257
 75
     1
175
     1
 42
1.0
 92
        8
 66
     7
 43
1.0
 76
     1
 77
     6
 78
     2
 67
     7
 79
     5
170
     0
171
     0
290
     0
174
     0
 93
        1
 44
0.0
173
     0
291
     1
 45
0.0
1001
ACAD
1000
AcDbSavedByObjectVersion
1070
     0
  0
VISUALSTYLE
  5
2B
102
{ACAD_REACTORS
330
2A
102
}
102
{ACAD_XDICTIONARY
360
111
102
}
330
2A
100
AcDbVisualStyle
  2
Flat
 70
     0
 71
     2
 72
     1
 73
     1
 90
        2
 40
-0.6
 41
30.0
 62
     5
 63
     7
 74
     0
 91
        4
 64
     7
 65
   257
 75
     1
175
     1
 42
1.0
 92
        8
 66
     7
 43
1.0
 76
     1
 77
     6
 78
     2
 67
     7
 79
     5
170
     0
171
     0
290
     0
174
     0
 93
       13
 44
0.0
173
     0
291
     1
 45
0.0
1001
ACAD
1000
AcDbSavedByObjectVersion
1070
     0
  0
VISUALSTYLE
  5
2C
102
{ACAD_REACTORS
330
2A
102
}
102
{ACAD_XDICTIONARY
360
113
102
}
330
2A
100
AcDbVisualStyle
  2
FlatWithEdges
 70
     1
 71
     2
 72
     1
 73
     1
 90
        2
 40
-0.6
 41
30.0
 62
     5
 63
     7
 74
     1
 91
        4
 64
     7
 65
   257
 75
     1
175
     1
 42
1.0
 92
        0
 66
   257
 43
1.0
 76
     1
 77
     6
 78
     2
 67
     7
 79
     5
170
     0
171
     0
290
     0
174
     0
 93
       13
 44
0.0
173
     0
291
     1
 45
0.0
1001
ACAD
1000
AcDbSavedByObjectVersion
1070
     0
  0
VISUALSTYLE
  5
2D
102
{ACAD_REACTORS
330
2A
102
}
102
{ACAD_XDICTIONARY
360
115
102
}
330
2A
100
AcDbVisualStyle
  2
Gouraud
 70
     2
 71
     2
 72
     2
 73
     1
 90
        2
 40
-0.6
 41
30.0
 62
     5
 63
     7
 74
     0
 91
        4
 64
     7
 65
   257
 75
     1
175
     1
 42
1.0
 92
        0
 66
     7
 43
1.0
 76
     1
 77
     6
 78
     2
 67
     7
 79
     5
170
     0
171
     0
290
     0
174
     0
 93
       13
 44
0.0
173
     0
291
     1
 45
0.0
1001
ACAD
1000
AcDbSavedByObjectVersion
1070
     0
  0
VISUALSTYLE
  5
2E
102
{ACAD_REACTORS
330
2A
102
}
102
{ACAD_XDICTIONARY
360
117
102
}
330
2A
100
AcDbVisualStyle
  2
GouraudWithEdges
 70
     3
 71
     2
 72
     2
 73
     1
 90
        2
 40
-0.6
 41
30.0
 62
     5
 63
     7
 74
     1
 91
        4
 64
     7
 65
   257
 75
     1
175
     1
 42
1.0
 92
        0
 66
   257
 43
1.0
 76
     1
 77
     6
 78
     2
 67
     7
 79
     5
170
     0
171
     0
290
     0
174
     0
 93
       13
 44
0.0
173
     0
291
     1
 45
0.0
1001
ACAD
1000
AcDbSavedByObjectVersion
1070
     0
  0
VISUALSTYLE
  5
38
102
{ACAD_REACTORS
330
2A
102
}
102
{ACAD_XDICTIONARY
360
12B
102
}
330
2A
100
AcDbVisualStyle
  2
Linepattern
 70
    14
 71
     2
 72
     2
 73
     0
 90
        0
 40
-0.6
 41
-30.0
 62
     5
 63
     7
 74
     1
 91
        4
 64
     7
 65
   257
 75
     7
175
     7
 42
1.0
 92
        8
 66
     7
 43
1.0
 76
     1
 77
     6
 78
     2
 67
     7
 79
     5
170
     0
171
     0
290
     0
174
     0
 93
        1
 44
0.0
173
     0
291
     1
 45
0.0
1001
ACAD
1000
AcDbSavedByObjectVersion
1070
     0
  0
VISUALSTYLE
  5
33
102
{ACAD_REACTORS
330
2A
102
}
102
{ACAD_XDICTIONARY
360
121
102
}
330
2A
100
AcDbVisualStyle
  2
Realistic
 70
     8
 71
     2
 72
     2
 73
     0
 90
        0
 40
-0.6
 41
-30.0
 62
     5
 63
     7
 74
     1
 91
        0
 64
     7
 65
   257
 75
     1
175
     1
 42
1.0
 92
        8
 66
     8
 43
1.0
 76
     1
 77
     6
 78
     2
 67
     7
 79
     5
170
     0
171
     0
290
     0
174
     0
 93
       13
 44
0.0
173
     0
291
     0
 45
0.0
1001
ACAD
1000
AcDbSavedByObjectVersion
1070
     0
  0
VISUALSTYLE
  5
37
102
{ACAD_REACTORS
330
2A
102
}
102
{ACAD_XDICTIONARY
360
129
102
}
330
2A
100
AcDbVisualStyle
  2
Thicken
 70
    13
 71
     2
 72
     2
 73
     0
 90
        0
 40
-0.6
 41
-30.0
 62
     5
 63
     7
 74
     1
 91
        4
 64
     7
 65
   257
 75
     1
175
     1
 42
1.0
 92
       12
 66
     7
 43
1.0
 76
     1
 77
     6
 78
     2
 67
     7
 79
     5
170
     0
171
     0
290
     0
174
     0
 93
        1
 44
0.0
173
     0
291
     1
 45
0.0
1001
ACAD
1000
AcDbSavedByObjectVersion
1070
     0
  0
DICTIONARYVAR
  5
10F
102
{ACAD_REACTORS
330
10C
102
}
330
10C
100
DictionaryVariables
280
     0
  1
2
  0
DICTIONARYVAR
  5
110
102
{ACAD_REACTORS
330
10C
102
}
330
10C
100
DictionaryVariables
280
     0
  1
1
  0
DICTIONARY
  5
133
330
3D
100
AcDbDictionary
280
     1
281
     1
  3
ACAD_XREC_ROUNDTRIP
360
134
  0
DICTIONARY
  5
131
330
3C
100
AcDbDictionary
280
     1
281
     1
  3
ACAD_XREC_ROUNDTRIP
360
132
  0
DICTIONARY
  5
135
330
3E
100
AcDbDictionary
280
     1
281
     1
  3
ACAD_XREC_ROUNDTRIP
360
136
  0
DICTIONARY
  5
119
330
2F
100
AcDbDictionary
280
     1
281
     1
  3
ACAD_XREC_ROUNDTRIP
360
11A
  0
DICTIONARY
  5
11D
330
31
100
AcDbDictionary
280
     1
281
     1
  3
ACAD_XREC_ROUNDTRIP
360
11E
  0
DICTIONARY
  5
11B
330
30
100
AcDbDictionary
280
     1
281
     1
  3
ACAD_XREC_ROUNDTRIP
360
11C
  0
DICTIONARY
  5
11F
330
32
100
AcDbDictionary
280
     1
281
     1
  3
ACAD_XREC_ROUNDTRIP
360
120
  0
DICTIONARY
  5
127
330
36
100
AcDbDictionary
280
     1
281
     1
  3
ACAD_XREC_ROUNDTRIP
360
128
  0
DICTIONARY
  5
12F
330
3A
100
AcDbDictionary
280
     1
281
     1
  3
ACAD_XREC_ROUNDTRIP
360
130
  0
DICTIONARY
  5
123
330
34
100
AcDbDictionary
280
     1
281
     1
  3
ACAD_XREC_ROUNDTRIP
360
124
  0
DICTIONARY
  5
125
330
35
100
AcDbDictionary
280
     1
281
     1
  3
ACAD_XREC_ROUNDTRIP
360
126
  0
DICTIONARY
  5
12D
330
39
100
AcDbDictionary
280
     1
281
     1
  3
ACAD_XREC_ROUNDTRIP
360
12E
  0
DICTIONARY
  5
111
330
2B
100
AcDbDictionary
280
     1
281
     1
  3
ACAD_XREC_ROUNDTRIP
360
112
  0
DICTIONARY
  5
113
330
2C
100
AcDbDictionary
280
     1
281
     1
  3
ACAD_XREC_ROUNDTRIP
360
114
  0
DICTIONARY
  5
115
330
2D
100
AcDbDictionary
280
     1
281
     1
  3
ACAD_XREC_ROUNDTRIP
360
116
  0
DICTIONARY
  5
117
330
2E
100
AcDbDictionary
280
     1
281
     1
  3
ACAD_XREC_ROUNDTRIP
360
118
  0
DICTIONARY
  5
12B
330
38
100
AcDbDictionary
280
     1
281
     1
  3
ACAD_XREC_ROUNDTRIP
360
12C
  0
DICTIONARY
  5
121
330
33
100
AcDbDictionary
280
     1
281
     1
  3
ACAD_XREC_ROUNDTRIP
360
122
  0
DICTIONARY
  5
129
330
37
100
AcDbDictionary
280
     1
281
     1
  3
ACAD_XREC_ROUNDTRIP
360
12A
  0
XRECORD
  5
134
102
{ACAD_REACTORS
330
133
102
}
330
133
100
AcDbXrecord
280
     1
102
MATERIAL
148
0.0
149
0.0
149
0.0
 93
        0
 94
      127
282
     0
 72
     1
 77
     1
171
     1
175
     1
179
     1
273
     0
  0
XRECORD
  5
132
102
{ACAD_REACTORS
330
131
102
}
330
131
100
AcDbXrecord
280
     1
102
MATERIAL
148
0.0
149
0.0
149
0.0
 93
        0
 94
      127
282
     0
 72
     1
 77
     1
171
     1
175
     1
179
     1
273
     0
  0
XRECORD
  5
136
102
{ACAD_REACTORS
330
135
102
}
330
135
100
AcDbXrecord
280
     1
102
MATERIAL
148
0.0
149
0.0
149
0.0
 93
        0
 94
      127
282
     0
 72
     1
 77
     1
171
     1
175
     1
179
     1
273
     0
  0
XRECORD
  5
11A
102
{ACAD_REACTORS
330
119
102
}
330
119
100
AcDbXrecord
280
     1
102
RTVSPropertyOp0
 70
     1
102
RTVSPropertyOp1
 70
     1
102
RTVSPropertyOp2
 70
     1
102
RTVSPropertyOp3
 70
     1
102
RTVSPropertyOp4
 70
     1
102
RTVSPropertyOp5
 70
     1
102
RTVSPropertyOp6
 70
     1
102
RTVSPropertyOp7
 70
     1
102
RTVSPropertyOp8
 70
     1
102
RTVSPropertyOp9
 70
     1
102
RTVSPropertyOp10
 70
     1
102
RTVSPropertyOp11
 70
     1
102
RTVSPropertyOp12
 70
     1
102
RTVSPropertyOp13
 70
     1
102
RTVSPropertyOp14
 70
     1
102
RTVSPropertyOp15
 70
     1
102
RTVSPropertyOp16
 70
     1
102
RTVSPropertyOp17
 70
     1
102
RTVSPropertyOp18
 70
     1
102
RTVSPropertyOp19
 70
     1
102
RTVSPropertyOp20
 70
     1
102
RTVSPropertyOp21
 70
     1
102
RTVSPropertyOp22
 70
     1
102
RTVSPropertyOp23
 70
     1
102
RTVSPropertyOp24
 70
     1
102
RTVSPropertyOp25
 70
     1
102
RTVSPropertyOp26
 70
     1
102
RTVSPropertyOp27
 70
     1
102
RTVSPropertyOp28
 70
     1
102
RTVSPropertyOp29
 70
     1
102
RTVSPropertyOp30
 70
     1
102
RTVSPropertyOp31
 70
     1
102
RTVSPropertyOp32
 70
     1
  0
XRECORD
  5
11E
102
{ACAD_REACTORS
330
11D
102
}
330
11D
100
AcDbXrecord
280
     1
102
RTVSPropertyOp0
 70
     1
102
RTVSPropertyOp1
 70
     1
102
RTVSPropertyOp2
 70
     1
102
RTVSPropertyOp3
 70
     1
102
RTVSPropertyOp4
 70
     1
102
RTVSPropertyOp5
 70
     1
102
RTVSPropertyOp6
 70
     1
102
RTVSPropertyOp7
 70
     1
102
RTVSPropertyOp8
 70
     1
102
RTVSPropertyOp9
 70
     1
102
RTVSPropertyOp10
 70
     1
102
RTVSPropertyOp11
 70
     1
102
RTVSPropertyOp12
 70
     1
102
RTVSPropertyOp13
 70
     1
102
RTVSPropertyOp14
 70
     1
102
RTVSPropertyOp15
 70
     1
102
RTVSPropertyOp16
 70
     1
102
RTVSPropertyOp17
 70
     1
102
RTVSPropertyOp18
 70
     1
102
RTVSPropertyOp19
 70
     1
102
RTVSPropertyOp20
 70
     1
102
RTVSPropertyOp21
 70
     1
102
RTVSPropertyOp22
 70
     1
102
RTVSPropertyOp23
 70
     1
102
RTVSPropertyOp24
 70
     1
102
RTVSPropertyOp25
 70
     1
102
RTVSPropertyOp26
 70
     1
102
RTVSPropertyOp27
 70
     1
102
RTVSPropertyOp28
 70
     1
102
RTVSPropertyOp29
 70
     1
102
RTVSPropertyOp30
 70
     1
102
RTVSPropertyOp31
 70
     1
102
RTVSPropertyOp32
 70
     1
  0
XRECORD
  5
11C
102
{ACAD_REACTORS
330
11B
102
}
330
11B
100
AcDbXrecord
280
     1
102
RTVSPropertyOp0
 70
     1
102
RTVSPropertyOp1
 70
     1
102
RTVSPropertyOp2
 70
     1
102
RTVSPropertyOp3
 70
     1
102
RTVSPropertyOp4
 70
     1
102
RTVSPropertyOp5
 70
     1
102
RTVSPropertyOp6
 70
     1
102
RTVSPropertyOp7
 70
     1
102
RTVSPropertyOp8
 70
     1
102
RTVSPropertyOp9
 70
     1
102
RTVSPropertyOp10
 70
     1
102
RTVSPropertyOp11
 70
     1
102
RTVSPropertyOp12
 70
     1
102
RTVSPropertyOp13
 70
     1
102
RTVSPropertyOp14
 70
     1
102
RTVSPropertyOp15
 70
     1
102
RTVSPropertyOp16
 70
     1
102
RTVSPropertyOp17
 70
     1
102
RTVSPropertyOp18
 70
     1
102
RTVSPropertyOp19
 70
     1
102
RTVSPropertyOp20
 70
     1
102
RTVSPropertyOp21
 70
     1
102
RTVSPropertyOp22
 70
     1
102
RTVSPropertyOp23
 70
     1
102
RTVSPropertyOp24
 70
     1
102
RTVSPropertyOp25
 70
     1
102
RTVSPropertyOp26
 70
     1
102
RTVSPropertyOp27
 70
     1
102
RTVSPropertyOp28
 70
     1
102
RTVSPropertyOp29
 70
     1
102
RTVSPropertyOp30
 70
     1
102
RTVSPropertyOp31
 70
     1
102
RTVSPropertyOp32
 70
     1
  0
XRECORD
  5
120
102
{ACAD_REACTORS
330
11F
102
}
330
11F
100
AcDbXrecord
280
     1
102
RTVSPropertyOp0
 70
     1
102
RTVSPropertyOp1
 70
     1
102
RTVSPropertyOp2
 70
     1
102
RTVSPropertyOp3
 70
     1
102
RTVSPropertyOp4
 70
     1
102
RTVSPropertyOp5
 70
     1
102
RTVSPropertyOp6
 70
     1
102
RTVSPropertyOp7
 70
     1
102
RTVSPropertyOp8
 70
     1
102
RTVSPropertyOp9
 70
     1
102
RTVSPropertyOp10
 70
     1
102
RTVSPropertyOp11
 70
     1
102
RTVSPropertyOp12
 70
     1
102
RTVSPropertyOp13
 70
     1
102
RTVSPropertyOp14
 70
     1
102
RTVSPropertyOp15
 70
     1
102
RTVSPropertyOp16
 70
     1
102
RTVSPropertyOp17
 70
     1
102
RTVSPropertyOp18
 70
     1
102
RTVSPropertyOp19
 70
     1
102
RTVSPropertyOp20
 70
     1
102
RTVSPropertyOp21
 70
     1
102
RTVSPropertyOp22
 70
     1
102
RTVSPropertyOp23
 70
     1
102
RTVSPropertyOp24
 70
     1
102
RTVSPropertyOp25
 70
     1
102
RTVSPropertyOp26
 70
     1
102
RTVSPropertyOp27
 70
     1
102
RTVSPropertyOp28
 70
     1
102
RTVSPropertyOp29
 70
     1
102
RTVSPropertyOp30
 70
     1
102
RTVSPropertyOp31
 70
     1
102
RTVSPropertyOp32
 70
     1
  0
XRECORD
  5
128
102
{ACAD_REACTORS
330
127
102
}
330
127
100
AcDbXrecord
280
     1
102
RTVSPropertyOp0
 70
     1
102
RTVSPropertyOp1
 70
     1
102
RTVSPropertyOp2
 70
     1
102
RTVSPropertyOp3
 70
     1
102
RTVSPropertyOp4
 70
     1
102
RTVSPropertyOp5
 70
     1
102
RTVSPropertyOp6
 70
     1
102
RTVSPropertyOp7
 70
     1
102
RTVSPropertyOp8
 70
     1
102
RTVSPropertyOp9
 70
     1
102
RTVSPropertyOp10
 70
     1
102
RTVSPropertyOp11
 70
     1
102
RTVSPropertyOp12
 70
     1
102
RTVSPropertyOp13
 70
     1
102
RTVSPropertyOp14
 70
     1
102
RTVSPropertyOp15
 70
     1
102
RTVSPropertyOp16
 70
     1
102
RTVSPropertyOp17
 70
     1
102
RTVSPropertyOp18
 70
     1
102
RTVSPropertyOp19
 70
     1
102
RTVSPropertyOp20
 70
     1
102
RTVSPropertyOp21
 70
     1
102
RTVSPropertyOp22
 70
     1
102
RTVSPropertyOp23
 70
     1
102
RTVSPropertyOp24
 70
     1
102
RTVSPropertyOp25
 70
     1
102
RTVSPropertyOp26
 70
     1
102
RTVSPropertyOp27
 70
     1
102
RTVSPropertyOp28
 70
     1
102
RTVSPropertyOp29
 70
     1
102
RTVSPropertyOp30
 70
     1
102
RTVSPropertyOp31
 70
     1
102
RTVSPropertyOp32
 70
     1
  0
XRECORD
  5
130
102
{ACAD_REACTORS
330
12F
102
}
330
12F
100
AcDbXrecord
280
     1
102
RTVSPropertyOp0
 70
     1
102
RTVSPropertyOp1
 70
     1
102
RTVSPropertyOp2
 70
     1
102
RTVSPropertyOp3
 70
     1
102
RTVSPropertyOp4
 70
     1
102
RTVSPropertyOp5
 70
     1
102
RTVSPropertyOp6
 70
     1
102
RTVSPropertyOp7
 70
     1
102
RTVSPropertyOp8
 70
     1
102
RTVSPropertyOp9
 70
     1
102
RTVSPropertyOp10
 70
     1
102
RTVSPropertyOp11
 70
     1
102
RTVSPropertyOp12
 70
     1
102
RTVSPropertyOp13
 70
     1
102
RTVSPropertyOp14
 70
     1
102
RTVSPropertyOp15
 70
     1
102
RTVSPropertyOp16
 70
     1
102
RTVSPropertyOp17
 70
     1
102
RTVSPropertyOp18
 70
     1
102
RTVSPropertyOp19
 70
     1
102
RTVSPropertyOp20
 70
     1
102
RTVSPropertyOp21
 70
     1
102
RTVSPropertyOp22
 70
     1
102
RTVSPropertyOp23
 70
     1
102
RTVSPropertyOp24
 70
     1
102
RTVSPropertyOp25
 70
     1
102
RTVSPropertyOp26
 70
     1
102
RTVSPropertyOp27
 70
     1
102
RTVSPropertyOp28
 70
     1
102
RTVSPropertyOp29
 70
     1
102
RTVSPropertyOp30
 70
     1
102
RTVSPropertyOp31
 70
     1
102
RTVSPropertyOp32
 70
     1
  0
XRECORD
  5
124
102
{ACAD_REACTORS
330
123
102
}
330
123
100
AcDbXrecord
280
     1
102
RTVSPropertyOp0
 70
     1
102
RTVSPropertyOp1
 70
     1
102
RTVSPropertyOp2
 70
     1
102
RTVSPropertyOp3
 70
     1
102
RTVSPropertyOp4
 70
     1
102
RTVSPropertyOp5
 70
     1
102
RTVSPropertyOp6
 70
     1
102
RTVSPropertyOp7
 70
     1
102
RTVSPropertyOp8
 70
     1
102
RTVSPropertyOp9
 70
     1
102
RTVSPropertyOp10
 70
     1
102
RTVSPropertyOp11
 70
     1
102
RTVSPropertyOp12
 70
     1
102
RTVSPropertyOp13
 70
     1
102
RTVSPropertyOp14
 70
     1
102
RTVSPropertyOp15
 70
     1
102
RTVSPropertyOp16
 70
     1
102
RTVSPropertyOp17
 70
     1
102
RTVSPropertyOp18
 70
     1
102
RTVSPropertyOp19
 70
     1
102
RTVSPropertyOp20
 70
     1
102
RTVSPropertyOp21
 70
     1
102
RTVSPropertyOp22
 70
     1
102
RTVSPropertyOp23
 70
     1
102
RTVSPropertyOp24
 70
     1
102
RTVSPropertyOp25
 70
     1
102
RTVSPropertyOp26
 70
     1
102
RTVSPropertyOp27
 70
     1
102
RTVSPropertyOp28
 70
     1
102
RTVSPropertyOp29
 70
     1
102
RTVSPropertyOp30
 70
     1
102
RTVSPropertyOp31
 70
     1
102
RTVSPropertyOp32
 70
     1
  0
XRECORD
  5
126
102
{ACAD_REACTORS
330
125
102
}
330
125
100
AcDbXrecord
280
     1
102
RTVSPropertyOp0
 70
     1
102
RTVSPropertyOp1
 70
     1
102
RTVSPropertyOp2
 70
     1
102
RTVSPropertyOp3
 70
     1
102
RTVSPropertyOp4
 70
     1
102
RTVSPropertyOp5
 70
     1
102
RTVSPropertyOp6
 70
     1
102
RTVSPropertyOp7
 70
     1
102
RTVSPropertyOp8
 70
     1
102
RTVSPropertyOp9
 70
     1
102
RTVSPropertyOp10
 70
     1
102
RTVSPropertyOp11
 70
     1
102
RTVSPropertyOp12
 70
     1
102
RTVSPropertyOp13
 70
     1
102
RTVSPropertyOp14
 70
     1
102
RTVSPropertyOp15
 70
     1
102
RTVSPropertyOp16
 70
     1
102
RTVSPropertyOp17
 70
     1
102
RTVSPropertyOp18
 70
     1
102
RTVSPropertyOp19
 70
     1
102
RTVSPropertyOp20
 70
     1
102
RTVSPropertyOp21
 70
     1
102
RTVSPropertyOp22
 70
     1
102
RTVSPropertyOp23
 70
     1
102
RTVSPropertyOp24
 70
     1
102
RTVSPropertyOp25
 70
     1
102
RTVSPropertyOp26
 70
     1
102
RTVSPropertyOp27
 70
     1
102
RTVSPropertyOp28
 70
     1
102
RTVSPropertyOp29
 70
     1
102
RTVSPropertyOp30
 70
     1
102
RTVSPropertyOp31
 70
     1
102
RTVSPropertyOp32
 70
     1
  0
XRECORD
  5
12E
102
{ACAD_REACTORS
330
12D
102
}
330
12D
100
AcDbXrecord
280
     1
102
RTVSPropertyOp0
 70
     1
102
RTVSPropertyOp1
 70
     1
102
RTVSPropertyOp2
 70
     1
102
RTVSPropertyOp3
 70
     1
102
RTVSPropertyOp4
 70
     1
102
RTVSPropertyOp5
 70
     1
102
RTVSPropertyOp6
 70
     1
102
RTVSPropertyOp7
 70
     1
102
RTVSPropertyOp8
 70
     1
102
RTVSPropertyOp9
 70
     1
102
RTVSPropertyOp10
 70
     1
102
RTVSPropertyOp11
 70
     1
102
RTVSPropertyOp12
 70
     1
102
RTVSPropertyOp13
 70
     1
102
RTVSPropertyOp14
 70
     1
102
RTVSPropertyOp15
 70
     1
102
RTVSPropertyOp16
 70
     1
102
RTVSPropertyOp17
 70
     1
102
RTVSPropertyOp18
 70
     1
102
RTVSPropertyOp19
 70
     1
102
RTVSPropertyOp20
 70
     1
102
RTVSPropertyOp21
 70
     1
102
RTVSPropertyOp22
 70
     1
102
RTVSPropertyOp23
 70
     1
102
RTVSPropertyOp24
 70
     1
102
RTVSPropertyOp25
 70
     1
102
RTVSPropertyOp26
 70
     1
102
RTVSPropertyOp27
 70
     1
102
RTVSPropertyOp28
 70
     1
102
RTVSPropertyOp29
 70
     1
102
RTVSPropertyOp30
 70
     1
102
RTVSPropertyOp31
 70
     1
102
RTVSPropertyOp32
 70
     1
  0
XRECORD
  5
112
102
{ACAD_REACTORS
330
111
102
}
330
111
100
AcDbXrecord
280
     1
102
RTVSPropertyOp0
 70
     1
102
RTVSPropertyOp1
 70
     1
102
RTVSPropertyOp2
 70
     1
102
RTVSPropertyOp3
 70
     1
102
RTVSPropertyOp4
 70
     1
102
RTVSPropertyOp5
 70
     1
102
RTVSPropertyOp6
 70
     1
102
RTVSPropertyOp7
 70
     1
102
RTVSPropertyOp8
 70
     1
102
RTVSPropertyOp9
 70
     1
102
RTVSPropertyOp10
 70
     1
102
RTVSPropertyOp11
 70
     1
102
RTVSPropertyOp12
 70
     1
102
RTVSPropertyOp13
 70
     1
102
RTVSPropertyOp14
 70
     1
102
RTVSPropertyOp15
 70
     1
102
RTVSPropertyOp16
 70
     1
102
RTVSPropertyOp17
 70
     1
102
RTVSPropertyOp18
 70
     1
102
RTVSPropertyOp19
 70
     1
102
RTVSPropertyOp20
 70
     1
102
RTVSPropertyOp21
 70
     1
102
RTVSPropertyOp22
 70
     1
102
RTVSPropertyOp23
 70
     1
102
RTVSPropertyOp24
 70
     1
102
RTVSPropertyOp25
 70
     1
102
RTVSPropertyOp26
 70
     1
102
RTVSPropertyOp27
 70
     1
102
RTVSPropertyOp28
 70
     1
102
RTVSPropertyOp29
 70
     1
102
RTVSPropertyOp30
 70
     1
102
RTVSPropertyOp31
 70
     1
102
RTVSPropertyOp32
 70
     1
  0
XRECORD
  5
114
102
{ACAD_REACTORS
330
113
102
}
330
113
100
AcDbXrecord
280
     1
102
RTVSPropertyOp0
 70
     1
102
RTVSPropertyOp1
 70
     1
102
RTVSPropertyOp2
 70
     1
102
RTVSPropertyOp3
 70
     1
102
RTVSPropertyOp4
 70
     1
102
RTVSPropertyOp5
 70
     1
102
RTVSPropertyOp6
 70
     1
102
RTVSPropertyOp7
 70
     1
102
RTVSPropertyOp8
 70
     1
102
RTVSPropertyOp9
 70
     1
102
RTVSPropertyOp10
 70
     1
102
RTVSPropertyOp11
 70
     1
102
RTVSPropertyOp12
 70
     1
102
RTVSPropertyOp13
 70
     1
102
RTVSPropertyOp14
 70
     1
102
RTVSPropertyOp15
 70
     1
102
RTVSPropertyOp16
 70
     1
102
RTVSPropertyOp17
 70
     1
102
RTVSPropertyOp18
 70
     1
102
RTVSPropertyOp19
 70
     1
102
RTVSPropertyOp20
 70
     1
102
RTVSPropertyOp21
 70
     1
102
RTVSPropertyOp22
 70
     1
102
RTVSPropertyOp23
 70
     1
102
RTVSPropertyOp24
 70
     1
102
RTVSPropertyOp25
 70
     1
102
RTVSPropertyOp26
 70
     1
102
RTVSPropertyOp27
 70
     1
102
RTVSPropertyOp28
 70
     1
102
RTVSPropertyOp29
 70
     1
102
RTVSPropertyOp30
 70
     1
102
RTVSPropertyOp31
 70
     1
102
RTVSPropertyOp32
 70
     1
  0
XRECORD
  5
116
102
{ACAD_REACTORS
330
115
102
}
330
115
100
AcDbXrecord
280
     1
102
RTVSPropertyOp0
 70
     1
102
RTVSPropertyOp1
 70
     1
102
RTVSPropertyOp2
 70
     1
102
RTVSPropertyOp3
 70
     1
102
RTVSPropertyOp4
 70
     1
102
RTVSPropertyOp5
 70
     1
102
RTVSPropertyOp6
 70
     1
102
RTVSPropertyOp7
 70
     1
102
RTVSPropertyOp8
 70
     1
102
RTVSPropertyOp9
 70
     1
102
RTVSPropertyOp10
 70
     1
102
RTVSPropertyOp11
 70
     1
102
RTVSPropertyOp12
 70
     1
102
RTVSPropertyOp13
 70
     1
102
RTVSPropertyOp14
 70
     1
102
RTVSPropertyOp15
 70
     1
102
RTVSPropertyOp16
 70
     1
102
RTVSPropertyOp17
 70
     1
102
RTVSPropertyOp18
 70
     1
102
RTVSPropertyOp19
 70
     1
102
RTVSPropertyOp20
 70
     1
102
RTVSPropertyOp21
 70
     1
102
RTVSPropertyOp22
 70
     1
102
RTVSPropertyOp23
 70
     1
102
RTVSPropertyOp24
 70
     1
102
RTVSPropertyOp25
 70
     1
102
RTVSPropertyOp26
 70
     1
102
RTVSPropertyOp27
 70
     1
102
RTVSPropertyOp28
 70
     1
102
RTVSPropertyOp29
 70
     1
102
RTVSPropertyOp30
 70
     1
102
RTVSPropertyOp31
 70
     1
102
RTVSPropertyOp32
 70
     1
  0
XRECORD
  5
118
102
{ACAD_REACTORS
330
117
102
}
330
117
100
AcDbXrecord
280
     1
102
RTVSPropertyOp0
 70
     1
102
RTVSPropertyOp1
 70
     1
102
RTVSPropertyOp2
 70
     1
102
RTVSPropertyOp3
 70
     1
102
RTVSPropertyOp4
 70
     1
102
RTVSPropertyOp5
 70
     1
102
RTVSPropertyOp6
 70
     1
102
RTVSPropertyOp7
 70
     1
102
RTVSPropertyOp8
 70
     1
102
RTVSPropertyOp9
 70
     1
102
RTVSPropertyOp10
 70
     1
102
RTVSPropertyOp11
 70
     1
102
RTVSPropertyOp12
 70
     1
102
RTVSPropertyOp13
 70
     1
102
RTVSPropertyOp14
 70
     1
102
RTVSPropertyOp15
 70
     1
102
RTVSPropertyOp16
 70
     1
102
RTVSPropertyOp17
 70
     1
102
RTVSPropertyOp18
 70
     1
102
RTVSPropertyOp19
 70
     1
102
RTVSPropertyOp20
 70
     1
102
RTVSPropertyOp21
 70
     1
102
RTVSPropertyOp22
 70
     1
102
RTVSPropertyOp23
 70
     1
102
RTVSPropertyOp24
 70
     1
102
RTVSPropertyOp25
 70
     1
102
RTVSPropertyOp26
 70
     1
102
RTVSPropertyOp27
 70
     1
102
RTVSPropertyOp28
 70
     1
102
RTVSPropertyOp29
 70
     1
102
RTVSPropertyOp30
 70
     1
102
RTVSPropertyOp31
 70
     1
102
RTVSPropertyOp32
 70
     1
  0
XRECORD
  5
12C
102
{ACAD_REACTORS
330
12B
102
}
330
12B
100
AcDbXrecord
280
     1
102
RTVSPropertyOp0
 70
     1
102
RTVSPropertyOp1
 70
     1
102
RTVSPropertyOp2
 70
     1
102
RTVSPropertyOp3
 70
     1
102
RTVSPropertyOp4
 70
     1
102
RTVSPropertyOp5
 70
     1
102
RTVSPropertyOp6
 70
     1
102
RTVSPropertyOp7
 70
     1
102
RTVSPropertyOp8
 70
     1
102
RTVSPropertyOp9
 70
     1
102
RTVSPropertyOp10
 70
     1
102
RTVSPropertyOp11
 70
     1
102
RTVSPropertyOp12
 70
     1
102
RTVSPropertyOp13
 70
     1
102
RTVSPropertyOp14
 70
     1
102
RTVSPropertyOp15
 70
     1
102
RTVSPropertyOp16
 70
     1
102
RTVSPropertyOp17
 70
     1
102
RTVSPropertyOp18
 70
     1
102
RTVSPropertyOp19
 70
     1
102
RTVSPropertyOp20
 70
     1
102
RTVSPropertyOp21
 70
     1
102
RTVSPropertyOp22
 70
     1
102
RTVSPropertyOp23
 70
     1
102
RTVSPropertyOp24
 70
     1
102
RTVSPropertyOp25
 70
     1
102
RTVSPropertyOp26
 70
     1
102
RTVSPropertyOp27
 70
     1
102
RTVSPropertyOp28
 70
     1
102
RTVSPropertyOp29
 70
     1
102
RTVSPropertyOp30
 70
     1
102
RTVSPropertyOp31
 70
     1
102
RTVSPropertyOp32
 70
     1
  0
XRECORD
  5
122
102
{ACAD_REACTORS
330
121
102
}
330
121
100
AcDbXrecord
280
     1
102
RTVSPropertyOp0
 70
     1
102
RTVSPropertyOp1
 70
     1
102
RTVSPropertyOp2
 70
     1
102
RTVSPropertyOp3
 70
     1
102
RTVSPropertyOp4
 70
     1
102
RTVSPropertyOp5
 70
     1
102
RTVSPropertyOp6
 70
     1
102
RTVSPropertyOp7
 70
     1
102
RTVSPropertyOp8
 70
     1
102
RTVSPropertyOp9
 70
     1
102
RTVSPropertyOp10
 70
     1
102
RTVSPropertyOp11
 70
     1
102
RTVSPropertyOp12
 70
     1
102
RTVSPropertyOp13
 70
     1
102
RTVSPropertyOp14
 70
     1
102
RTVSPropertyOp15
 70
     1
102
RTVSPropertyOp16
 70
     1
102
RTVSPropertyOp17
 70
     1
102
RTVSPropertyOp18
 70
     1
102
RTVSPropertyOp19
 70
     1
102
RTVSPropertyOp20
 70
     1
102
RTVSPropertyOp21
 70
     1
102
RTVSPropertyOp22
 70
     1
102
RTVSPropertyOp23
 70
     1
102
RTVSPropertyOp24
 70
     1
102
RTVSPropertyOp25
 70
     1
102
RTVSPropertyOp26
 70
     1
102
RTVSPropertyOp27
 70
     1
102
RTVSPropertyOp28
 70
     1
102
RTVSPropertyOp29
 70
     1
102
RTVSPropertyOp30
 70
     1
102
RTVSPropertyOp31
 70
     1
102
RTVSPropertyOp32
 70
     1
  0
XRECORD
  5
12A
102
{ACAD_REACTORS
330
129
102
}
330
129
100
AcDbXrecord
280
     1
102
RTVSPropertyOp0
 70
     1
102
RTVSPropertyOp1
 70
     1
102
RTVSPropertyOp2
 70
     1
102
RTVSPropertyOp3
 70
     1
102
RTVSPropertyOp4
 70
     1
102
RTVSPropertyOp5
 70
     1
102
RTVSPropertyOp6
 70
     1
102
RTVSPropertyOp7
 70
     1
102
RTVSPropertyOp8
 70
     1
102
RTVSPropertyOp9
 70
     1
102
RTVSPropertyOp10
 70
     1
102
RTVSPropertyOp11
 70
     1
102
RTVSPropertyOp12
 70
     1
102
RTVSPropertyOp13
 70
     1
102
RTVSPropertyOp14
 70
     1
102
RTVSPropertyOp15
 70
     1
102
RTVSPropertyOp16
 70
     1
102
RTVSPropertyOp17
 70
     1
102
RTVSPropertyOp18
 70
     1
102
RTVSPropertyOp19
 70
     1
102
RTVSPropertyOp20
 70
     1
102
RTVSPropertyOp21
 70
     1
102
RTVSPropertyOp22
 70
     1
102
RTVSPropertyOp23
 70
     1
102
RTVSPropertyOp24
 70
     1
102
RTVSPropertyOp25
 70
     1
102
RTVSPropertyOp26
 70
     1
102
RTVSPropertyOp27
 70
     1
102
RTVSPropertyOp28
 70
     1
102
RTVSPropertyOp29
 70
     1
102
RTVSPropertyOp30
 70
     1
102
RTVSPropertyOp31
 70
     1
102
RTVSPropertyOp32
 70
     1
  0
ENDSEC
  0
EOF
