  0
SECTION
  2
HEADER
  9
$ACADVER
  1
AC1015
  9
$ACADMAINTVER
 70
     6
  9
$DWGCODEPAGE
  3
ANSI_932
  9
$INSBASE
 10
0.0
 20
0.0
 30
0.0
  9
$EXTMIN
 10
0.00000000000017
 20
0.0
 30
0.0
  9
$EXTMAX
 10
630.0000000000003
 20
891.0
 30
0.0
  9
$LIMMIN
 10
0.0
 20
0.0
  9
$LIMMAX
 10
12.0
 20
9.0
  9
$ORTHOMODE
 70
     0
  9
$REGENMODE
 70
     1
  9
$FILLMODE
 70
     1
  9
$QTEXTMODE
 70
     0
  9
$MIRRTEXT
 70
     1
  9
$LTSCALE
 40
1.0
  9
$ATTMODE
 70
     1
  9
$TEXTSIZE
 40
0.2
  9
$TRACEWID
 40
0.05
  9
$TEXTSTYLE
  7
Standard
  9
$CLAYER
  8
0
  9
$CELTYPE
  6
ByLayer
  9
$CECOLOR
 62
   256
  9
$CELTSCALE
 40
1.0
  9
$DISPSILH
 70
     0
  9
$DIMSCALE
 40
1.0
  9
$DIMASZ
 40
0.18
  9
$DIMEXO
 40
0.0625
  9
$DIMDLI
 40
0.38
  9
$DIMRND
 40
0.0
  9
$DIMDLE
 40
0.0
  9
$DIMEXE
 40
0.18
  9
$DIMTP
 40
0.0
  9
$DIMTM
 40
0.0
  9
$DIMTXT
 40
0.18
  9
$DIMCEN
 40
0.09
  9
$DIMTSZ
 40
0.0
  9
$DIMTOL
 70
     0
  9
$DIMLIM
 70
     0
  9
$DIMTIH
 70
     1
  9
$DIMTOH
 70
     1
  9
$DIMSE1
 70
     0
  9
$DIMSE2
 70
     0
  9
$DIMTAD
 70
     0
  9
$DIMZIN
 70
     0
  9
$DIMBLK
  1

  9
$DIMASO
 70
     1
  9
$DIMSHO
 70
     1
  9
$DIMPOST
  1

  9
$DIMAPOST
  1

  9
$DIMALT
 70
     0
  9
$DIMALTD
 70
     2
  9
$DIMALTF
 40
25.4
  9
$DIMLFAC
 40
1.0
  9
$DIMTOFL
 70
     0
  9
$DIMTVP
 40
0.0
  9
$DIMTIX
 70
     0
  9
$DIMSOXD
 70
     0
  9
$DIMSAH
 70
     0
  9
$DIMBLK1
  1

  9
$DIMBLK2
  1

  9
$DIMSTYLE
  2
Standard
  9
$DIMCLRD
 70
     0
  9
$DIMCLRE
 70
     0
  9
$DIMCLRT
 70
     0
  9
$DIMTFAC
 40
1.0
  9
$DIMGAP
 40
0.09
  9
$DIMJUST
 70
     0
  9
$DIMSD1
 70
     0
  9
$DIMSD2
 70
     0
  9
$DIMTOLJ
 70
     1
  9
$DIMTZIN
 70
     0
  9
$DIMALTZ
 70
     0
  9
$DIMALTTZ
 70
     0
  9
$DIMUPT
 70
     0
  9
$DIMDEC
 70
     4
  9
$DIMTDEC
 70
     4
  9
$DIMALTU
 70
     2
  9
$DIMALTTD
 70
     2
  9
$DIMTXSTY
  7
Standard
  9
$DIMAUNIT
 70
     0
  9
$DIMADEC
 70
     0
  9
$DIMALTRND
 40
0.0
  9
$DIMAZIN
 70
     0
  9
$DIMDSEP
 70
    46
  9
$DIMATFIT
 70
     3
  9
$DIMFRAC
 70
     0
  9
$DIMLDRBLK
  1

  9
$DIMLUNIT
 70
     2
  9
$DIMLWD
 70
    -2
  9
$DIMLWE
 70
    -2
  9
$DIMTMOVE
 70
     0
  9
$LUNITS
 70
     2
  9
$LUPREC
 70
     4
  9
$SKETCHINC
 40
0.1
  9
$FILLETRAD
 40
0.5
  9
$AUNITS
 70
     0
  9
$AUPREC
 70
     0
  9
$MENU
  1
.
  9
$ELEVATION
 40
0.0
  9
$PELEVATION
 40
0.0
  9
$THICKNESS
 40
0.0
  9
$LIMCHECK
 70
     0
  9
$CHAMFERA
 40
0.5
  9
$CHAMFERB
 40
0.5
  9
$CHAMFERC
 40
1.0
  9
$CHAMFERD
 40
0.0
  9
$SKPOLY
 70
     0
  9
$TDCREATE
 40
2459766.589834908
  9
$TDUCREATE
 40
2459766.214834908
  9
$TDUPDATE
 40
2459766.589836169
  9
$TDUUPDATE
 40
2459766.214836169
  9
$TDINDWG
 40
0.0000000116
  9
$TDUSRTIMER
 40
0.0000000116
  9
$USRTIMER
 70
     1
  9
$ANGBASE
 50
0.0
  9
$ANGDIR
 70
     0
  9
$PDMODE
 70
     0
  9
$PDSIZE
 40
0.0
  9
$PLINEWID
 40
0.0
  9
$SPLFRAME
 70
     0
  9
$SPLINETYPE
 70
     6
  9
$SPLINESEGS
 70
     8
  9
$HANDSEED
  5
161
  9
$SURFTAB1
 70
     6
  9
$SURFTAB2
 70
     6
  9
$SURFTYPE
 70
     6
  9
$SURFU
 70
     6
  9
$SURFV
 70
     6
  9
$UCSBASE
  2

  9
$UCSNAME
  2

  9
$UCSORG
 10
0.0
 20
0.0
 30
0.0
  9
$UCSXDIR
 10
1.0
 20
0.0
 30
0.0
  9
$UCSYDIR
 10
0.0
 20
1.0
 30
0.0
  9
$UCSORTHOREF
  2

  9
$UCSORTHOVIEW
 70
     0
  9
$UCSORGTOP
 10
0.0
 20
0.0
 30
0.0
  9
$UCSORGBOTTOM
 10
0.0
 20
0.0
 30
0.0
  9
$UCSORGLEFT
 10
0.0
 20
0.0
 30
0.0
  9
$UCSORGRIGHT
 10
0.0
 20
0.0
 30
0.0
  9
$UCSORGFRONT
 10
0.0
 20
0.0
 30
0.0
  9
$UCSORGBACK
 10
0.0
 20
0.0
 30
0.0
  9
$PUCSBASE
  2

  9
$PUCSNAME
  2

  9
$PUCSORG
 10
0.0
 20
0.0
 30
0.0
  9
$PUCSXDIR
 10
1.0
 20
0.0
 30
0.0
  9
$PUCSYDIR
 10
0.0
 20
1.0
 30
0.0
  9
$PUCSORTHOREF
  2

  9
$PUCSORTHOVIEW
 70
     0
  9
$PUCSORGTOP
 10
0.0
 20
0.0
 30
0.0
  9
$PUCSORGBOTTOM
 10
0.0
 20
0.0
 30
0.0
  9
$PUCSORGLEFT
 10
0.0
 20
0.0
 30
0.0
  9
$PUCSORGRIGHT
 10
0.0
 20
0.0
 30
0.0
  9
$PUCSORGFRONT
 10
0.0
 20
0.0
 30
0.0
  9
$PUCSORGBACK
 10
0.0
 20
0.0
 30
0.0
  9
$USERI1
 70
     0
  9
$USERI2
 70
     0
  9
$USERI3
 70
     0
  9
$USERI4
 70
     0
  9
$USERI5
 70
     0
  9
$USERR1
 40
18.1
  9
$USERR2
 40
0.0
  9
$USERR3
 40
0.0
  9
$USERR4
 40
0.0
  9
$USERR5
 40
0.0
  9
$WORLDVIEW
 70
     1
  9
$SHADEDGE
 70
     3
  9
$SHADEDIF
 70
    70
  9
$TILEMODE
 70
     1
  9
$MAXACTVP
 70
    64
  9
$PINSBASE
 10
0.0
 20
0.0
 30
0.0
  9
$PLIMCHECK
 70
     0
  9
$PEXTMIN
 10
1.00000000000000E+20
 20
1.00000000000000E+20
 30
1.00000000000000E+20
  9
$PEXTMAX
 10
-1.00000000000000E+20
 20
-1.00000000000000E+20
 30
-1.00000000000000E+20
  9
$PLIMMIN
 10
0.0
 20
0.0
  9
$PLIMMAX
 10
12.0
 20
9.0
  9
$UNITMODE
 70
     0
  9
$VISRETAIN
 70
     1
  9
$PLINEGEN
 70
     0
  9
$PSLTSCALE
 70
     1
  9
$TREEDEPTH
 70
  3020
  9
$CMLSTYLE
  2
Standard
  9
$CMLJUST
 70
     0
  9
$CMLSCALE
 40
1.0
  9
$PROXYGRAPHICS
 70
     1
  9
$MEASUREMENT
 70
     1
  9
$CELWEIGHT
370
    -1
  9
$ENDCAPS
280
     0
  9
$JOINSTYLE
280
     0
  9
$LWDISPLAY
290
     0
  9
$INSUNITS
 70
     4
  9
$HYPERLINKBASE
  1

  9
$STYLESHEET
  1

  9
$XEDIT
290
     1
  9
$CEPSNTYPE
380
     0
  9
$PSTYLEMODE
290
     1
  9
$FINGERPRINTGUID
  2
{5C833C71-03F7-497A-97EE-1EBDD1FCFEF1}
  9
$VERSIONGUID
  2
{FAEB1C32-E019-11D5-929B-00C0DF256EC4}
  9
$EXTNAMES
290
     1
  9
$PSVPSCALE
 40
0.0
  9
$OLESTARTUP
290
     0
  0
ENDSEC
  0
SECTION
  2
CLASSES
  0
CLASS
  1
ACDBDICTIONARYWDFLT
  2
AcDbDictionaryWithDefault
  3
ObjectDBX Classes
 90
        0
280
     0
281
     0
  0
CLASS
  1
VISUALSTYLE
  2
AcDbVisualStyle
  3
ObjectDBX Classes
 90
     4095
280
     0
281
     0
  0
CLASS
  1
MATERIAL
  2
AcDbMaterial
  3
ObjectDBX Classes
 90
     1153
280
     0
281
     0
  0
CLASS
  1
DICTIONARYVAR
  2
AcDbDictionaryVar
  3
ObjectDBX Classes
 90
        0
280
     0
281
     0
  0
CLASS
  1
ACDBPLACEHOLDER
  2
AcDbPlaceHolder
  3
ObjectDBX Classes
 90
        0
280
     0
281
     0
  0
CLASS
  1
LAYOUT
  2
AcDbLayout
  3
ObjectDBX Classes
 90
        0
280
     0
281
     0
  0
ENDSEC
  0
SECTION
  2
TABLES
  0
TABLE
  2
VPORT
  5
8
330
0
100
AcDbSymbolTable
 70
     1
  0
VPORT
  5
29
330
8
100
AcDbSymbolTableRecord
100
AcDbViewportTableRecord
  2
*Active
 70
     0
 10
0.0
 20
0.0
 11
1.0
 21
1.0
 12
315.0000000000002
 22
445.5
 13
0.0
 23
0.0
 14
0.5
 24
0.5
 15
0.5
 25
0.5
 16
0.0
 26
0.0
 36
1.0
 17
0.0
 27
0.0
 37
0.0
 40
980.1
 41
1.60267857142857
 42
50.0
 43
0.0
 44
0.0
 50
0.0
 51
0.0
 71
     0
 72
   100
 73
     1
 74
     3
 75
     0
 76
     0
 77
     0
 78
     0
281
     0
 65
     1
110
0.0
120
0.0
130
0.0
111
1.0
121
0.0
131
0.0
112
0.0
122
1.0
132
0.0
 79
     0
146
0.0
  0
ENDTAB
  0
TABLE
  2
LTYPE
  5
5
330
0
100
AcDbSymbolTable
 70
     8
  0
LTYPE
  5
14
330
5
100
AcDbSymbolTableRecord
100
AcDbLinetypeTableRecord
  2
ByBlock
 70
     0
  3

 72
    65
 73
     0
 40
0.0
  0
LTYPE
  5
15
330
5
100
AcDbSymbolTableRecord
100
AcDbLinetypeTableRecord
  2
ByLayer
 70
     0
  3

 72
    65
 73
     0
 40
0.0
  0
LTYPE
  5
16
330
5
100
AcDbSymbolTableRecord
100
AcDbLinetypeTableRecord
  2
Continuous
 70
     0
  3
Solid line
 72
    65
 73
     0
 40
0.0
  0
LTYPE
  5
3F
330
5
100
AcDbSymbolTableRecord
100
AcDbLinetypeTableRecord
  2
DASHED
 70
     0
  3
Dashed
 72
    65
 73
     2
 40
15.0
 49
7.0
 74
     0
 49
-8.0
 74
     0
  0
LTYPE
  5
40
330
5
100
AcDbSymbolTableRecord
100
AcDbLinetypeTableRecord
  2
DOTTED
 70
     0
  3
Dotted
 72
    65
 73
     2
 40
1.0
 49
0.0
 74
     0
 49
-1.0
 74
     0
  0
LTYPE
  5
41
330
5
100
AcDbSymbolTableRecord
100
AcDbLinetypeTableRecord
  2
DOT_CENTER
 70
     0
  3
Dot_Center
 72
    65
 73
     4
 40
14.0
 49
12.0
 74
     0
 49
-1.0
 74
     0
 49
0.0
 74
     0
 49
-1.0
 74
     0
  0
LTYPE
  5
42
330
5
100
AcDbSymbolTableRecord
100
AcDbLinetypeTableRecord
  2
LONG_DASHED
 70
     0
  3
Long_Dashed
 72
    65
 73
     2
 40
15.0
 49
10.0
 74
     0
 49
-5.0
 74
     0
  0
LTYPE
  5
43
330
5
100
AcDbSymbolTableRecord
100
AcDbLinetypeTableRecord
  2
DASH_CENTER
 70
     0
  3
Dash_Center
 72
    65
 73
     4
 40
14.0
 49
11.0
 74
     0
 49
-1.0
 74
     0
 49
1.0
 74
     0
 49
-1.0
 74
     0
  0
LTYPE
  5
44
330
5
100
AcDbSymbolTableRecord
100
AcDbLinetypeTableRecord
  2
PHANTOM
 70
     0
  3
Phantom
 72
    65
 73
     6
 40
13.0
 49
10.0
 74
     0
 49
-1.0
 74
     0
 49
0.0
 74
     0
 49
-1.0
 74
     0
 49
0.0
 74
     0
 49
-1.0
 74
     0
  0
LTYPE
  5
45
330
5
100
AcDbSymbolTableRecord
100
AcDbLinetypeTableRecord
  2
CENTER_DASH_DASH
 70
     0
  3
Center_Dash_Dash
 72
    65
 73
     6
 40
14.0
 49
9.0
 74
     0
 49
-1.0
 74
     0
 49
1.0
 74
     0
 49
-1.0
 74
     0
 49
1.0
 74
     0
 49
-1.0
 74
     0
  0
ENDTAB
  0
TABLE
  2
LAYER
  5
2
330
0
100
AcDbSymbolTable
 70
     4
  0
LAYER
  5
10
330
2
100
AcDbSymbolTableRecord
100
AcDbLayerTableRecord
  2
0
 70
     0
 62
     7
  6
Continuous
370
    -3
390
F
  0
LAYER
  5
46
330
2
100
AcDbSymbolTableRecord
100
AcDbLayerTableRecord
  2
1
 70
     0
 62
     7
  6
Continuous
370
    -3
390
F
  0
LAYER
  5
47
330
2
100
AcDbSymbolTableRecord
100
AcDbLayerTableRecord
  2
A0
 70
     0
 62
     7
  6
Continuous
370
    -3
390
F
  0
LAYER
  5
48
330
2
100
AcDbSymbolTableRecord
100
AcDbLayerTableRecord
  2
_U_30EC_U_30A4_U_30E4_U_30FC_1
 70
     0
 62
     7
  6
Continuous
370
    -3
390
F
  0
ENDTAB
  0
TABLE
  2
STYLE
  5
3
330
0
100
AcDbSymbolTable
 70
     3
  0
STYLE
  5
11
330
3
100
AcDbSymbolTableRecord
100
AcDbTextStyleTableRecord
  2
Standard
 70
     0
 40
0.0
 41
1.0
 50
0.0
 71
     0
 42
0.2
  3
txt
  4

  0
STYLE
  5
B3
330
3
100
AcDbSymbolTableRecord
100
AcDbTextStyleTableRecord
  2
CONVERTER_11
 70
     0
 40
0.0
 41
0.89
 50
0.0
 71
     0
 42
0.2
  3
MS Mincho.ttf
  4

1001
ACAD
1000
MS Mincho
1071
    32785
  0
STYLE
  5
E0
330
3
100
AcDbSymbolTableRecord
100
AcDbTextStyleTableRecord
  2
CONVERTER_12
 70
     0
 40
0.0
 41
0.9
 50
0.0
 71
     0
 42
0.2
  3
txt.shx
  4

  0
ENDTAB
  0
TABLE
  2
VIEW
  5
6
330
0
100
AcDbSymbolTable
 70
     0
  0
ENDTAB
  0
TABLE
  2
UCS
  5
7
330
0
100
AcDbSymbolTable
 70
     0
  0
ENDTAB
  0
TABLE
  2
APPID
  5
9
330
0
100
AcDbSymbolTable
 70
     1
  0
APPID
  5
12
330
9
100
AcDbSymbolTableRecord
100
AcDbRegAppTableRecord
  2
ACAD
 70
     0
  0
ENDTAB
  0
TABLE
  2
DIMSTYLE
  5
A
330
0
100
AcDbSymbolTable
 70
     7
100
AcDbDimStyleTable
  0
DIMSTYLE
105
27
330
A
100
AcDbSymbolTableRecord
100
AcDbDimStyleTableRecord
  2
Standard
 70
     0
178
     0
340
11
  0
DIMSTYLE
105
FB
102
{ACAD_REACTORS
330
FC
102
}
330
A
100
AcDbSymbolTableRecord
100
AcDbDimStyleTableRecord
  2
ME10_DIM_10
 70
     0
 41
10.5
 42
0.0
 44
3.0
 73
     0
 74
     0
 77
     1
 78
     8
140
10.5
147
3.0
172
     1
173
     1
174
     1
175
     1
176
     2
177
     2
271
     2
178
     7
271
     2
340
E0
  0
DIMSTYLE
105
106
102
{ACAD_REACTORS
330
107
102
}
330
A
100
AcDbSymbolTableRecord
100
AcDbDimStyleTableRecord
  2
ME10_DIM_11
 70
     0
 41
10.5
 42
0.0
 44
3.0
 73
     0
 74
     0
 77
     1
 78
     8
140
10.5
147
3.0
172
     1
173
     1
174
     1
175
     1
176
     2
177
     2
271
     2
178
     7
271
     2
340
E0
  0
DIMSTYLE
105
111
102
{ACAD_REACTORS
330
112
102
}
330
A
100
AcDbSymbolTableRecord
100
AcDbDimStyleTableRecord
  2
ME10_DIM_12
 70
     0
 41
10.5
 42
0.0
 44
3.0
 73
     0
 74
     0
 77
     1
 78
     8
140
10.5
147
3.0
172
     1
173
     1
174
     1
175
     1
176
     2
177
     2
271
     2
178
     7
271
     2
340
E0
  0
DIMSTYLE
105
11C
102
{ACAD_REACTORS
330
11D
102
}
330
A
100
AcDbSymbolTableRecord
100
AcDbDimStyleTableRecord
  2
ME10_DIM_13
 70
     0
 41
10.5
 42
0.0
 44
3.0
 73
     0
 74
     0
 77
     1
 78
     8
140
10.5
147
3.0
172
     1
173
     1
174
     1
175
     1
176
     2
177
     2
271
     2
178
     7
271
     2
340
B3
  0
DIMSTYLE
105
128
102
{ACAD_REACTORS
330
129
102
}
330
A
100
AcDbSymbolTableRecord
100
AcDbDimStyleTableRecord
  2
ME10_DIM_14
 70
     0
  3
{\Fgdt;n}<>
 41
10.5
 42
0.0
 44
3.0
 73
     0
 74
     0
 77
     1
 78
     8
140
10.5
147
3.0
172
     1
173
     1
174
     1
175
     1
176
     2
177
     2
271
     2
178
     7
271
     2
340
E0
  0
DIMSTYLE
105
134
102
{ACAD_REACTORS
330
135
102
}
330
A
100
AcDbSymbolTableRecord
100
AcDbDimStyleTableRecord
  2
ME10_DIM_15
 70
     0
 41
10.5
 42
0.0
 44
3.0
 73
     0
 74
     0
 77
     1
 78
     8
140
10.5
147
3.0
172
     1
173
     1
174
     1
175
     1
176
     2
177
     2
271
     2
178
     7
271
     2
340
B3
  0
ENDTAB
  0
TABLE
  2
BLOCK_RECORD
  5
1
330
0
100
AcDbSymbolTable
 70
     9
  0
BLOCK_RECORD
  5
1F
330
1
100
AcDbSymbolTableRecord
100
AcDbBlockTableRecord
  2
*Model_Space
340
22
  0
BLOCK_RECORD
  5
1B
330
1
100
AcDbSymbolTableRecord
100
AcDbBlockTableRecord
  2
*Paper_Space
340
1E
  0
BLOCK_RECORD
  5
23
330
1
100
AcDbSymbolTableRecord
100
AcDbBlockTableRecord
  2
*Paper_Space0
340
26
  0
BLOCK_RECORD
  5
49
330
1
100
AcDbSymbolTableRecord
100
AcDbBlockTableRecord
  2
開示A4
340
0
102
{BLKREFS
331
4D
102
}
  0
BLOCK_RECORD
  5
4C
330
1
100
AcDbSymbolTableRecord
100
AcDbBlockTableRecord
  2
開示A4枠
340
0
102
{BLKREFS
331
50
102
}
  0
BLOCK_RECORD
  5
F2
330
1
100
AcDbSymbolTableRecord
100
AcDbBlockTableRecord
  2
*D3
340
0
  0
BLOCK_RECORD
  5
FD
330
1
100
AcDbSymbolTableRecord
100
AcDbBlockTableRecord
  2
*D4
340
0
  0
BLOCK_RECORD
  5
108
330
1
100
AcDbSymbolTableRecord
100
AcDbBlockTableRecord
  2
*D5
340
0
  0
BLOCK_RECORD
  5
113
330
1
100
AcDbSymbolTableRecord
100
AcDbBlockTableRecord
  2
*D6
340
0
  0
BLOCK_RECORD
  5
11E
330
1
100
AcDbSymbolTableRecord
100
AcDbBlockTableRecord
  2
*D7
340
0
  0
BLOCK_RECORD
  5
12A
330
1
100
AcDbSymbolTableRecord
100
AcDbBlockTableRecord
  2
*D8
340
0
  0
ENDTAB
  0
ENDSEC
  0
SECTION
  2
BLOCKS
  0
BLOCK
  5
20
330
1F
100
AcDbEntity
  8
0
100
AcDbBlockBegin
  2
*Model_Space
 70
     0
 10
0.0
 20
0.0
 30
0.0
  3
*Model_Space
  1

  0
ENDBLK
  5
21
330
1F
100
AcDbEntity
  8
0
100
AcDbBlockEnd
  0
BLOCK
  5
1C
330
1B
100
AcDbEntity
 67
     1
  8
0
100
AcDbBlockBegin
  2
*Paper_Space
 70
     0
 10
0.0
 20
0.0
 30
0.0
  3
*Paper_Space
  1

  0
ENDBLK
  5
1D
330
1B
100
AcDbEntity
 67
     1
  8
0
100
AcDbBlockEnd
  0
BLOCK
  5
24
330
23
100
AcDbEntity
  8
0
100
AcDbBlockBegin
  2
*Paper_Space0
 70
     0
 10
0.0
 20
0.0
 30
0.0
  3
*Paper_Space0
  1

  0
ENDBLK
  5
25
330
23
100
AcDbEntity
  8
0
100
AcDbBlockEnd
  0
BLOCK
  5
4A
330
49
100
AcDbEntity
  8
0
100
AcDbBlockBegin
  2
開示A4
 70
     0
 10
0.00000000000006
 20
0.0
 30
0.0
  3
開示A4
  1

  0
POINT
  5
51
330
49
100
AcDbEntity
  8
1
 62
     4
100
AcDbPoint
 10
183.0000000000001
 20
15.00000000000001
 30
0.0
  0
POINT
  5
52
330
49
100
AcDbEntity
  8
1
 62
     4
100
AcDbPoint
 10
93.75000000000006
 20
17.0
 30
0.0
  0
POINT
  5
53
330
49
100
AcDbEntity
  8
1
 62
     4
100
AcDbPoint
 10
85.25000000000006
 20
17.0
 30
0.0
  0
POINT
  5
54
330
49
100
AcDbEntity
  8
1
 62
     4
100
AcDbPoint
 10
106.5000000000001
 20
19.00000000000001
 30
0.0
  0
POINT
  5
55
330
49
100
AcDbEntity
  8
1
 62
     4
100
AcDbPoint
 10
106.5000000000001
 20
12.5
 30
0.0
  0
POINT
  5
56
330
49
100
AcDbEntity
  8
1
 62
     4
100
AcDbPoint
 10
112.2500000000001
 20
12.5
 30
0.0
  0
POINT
  5
57
330
49
100
AcDbEntity
  8
1
 62
     4
100
AcDbPoint
 10
100.7500000000001
 20
12.5
 30
0.0
  0
POINT
  5
58
330
49
100
AcDbEntity
  8
1
 62
     4
100
AcDbPoint
 10
123.5000000000001
 20
19.00000000000001
 30
0.0
  0
POINT
  5
59
330
49
100
AcDbEntity
  8
1
 62
     4
100
AcDbPoint
 10
123.5000000000001
 20
12.5
 30
0.0
  0
POINT
  5
5A
330
49
100
AcDbEntity
  8
1
 62
     4
100
AcDbPoint
 10
129.2500000000001
 20
12.5
 30
0.0
  0
POINT
  5
5B
330
49
100
AcDbEntity
  8
1
 62
     4
100
AcDbPoint
 10
117.7500000000001
 20
12.5
 30
0.0
  0
POINT
  5
5C
330
49
100
AcDbEntity
  8
1
 62
     4
100
AcDbPoint
 10
140.5000000000001
 20
19.00000000000001
 30
0.0
  0
POINT
  5
5D
330
49
100
AcDbEntity
  8
1
 62
     4
100
AcDbPoint
 10
140.5000000000001
 20
12.5
 30
0.0
  0
POINT
  5
5E
330
49
100
AcDbEntity
  8
1
 62
     4
100
AcDbPoint
 10
146.2500000000001
 20
12.5
 30
0.0
  0
POINT
  5
5F
330
49
100
AcDbEntity
  8
1
 62
     4
100
AcDbPoint
 10
134.7500000000001
 20
12.5
 30
0.0
  0
POINT
  5
60
330
49
100
AcDbEntity
  8
1
 62
     4
100
AcDbPoint
 10
151.7500000000001
 20
12.5
 30
0.0
  0
POINT
  5
61
330
49
100
AcDbEntity
  8
1
 62
     4
100
AcDbPoint
 10
163.2500000000001
 20
12.5
 30
0.0
  0
POINT
  5
62
330
49
100
AcDbEntity
  8
1
 62
     4
100
AcDbPoint
 10
157.5000000000001
 20
12.5
 30
0.0
  0
POINT
  5
63
330
49
100
AcDbEntity
  8
1
 62
     4
100
AcDbPoint
 10
57.00000000000006
 20
14.25
 30
0.0
  0
POINT
  5
64
330
49
100
AcDbEntity
  8
1
 62
     4
100
AcDbPoint
 10
57.00000000000006
 20
22.75000000000001
 30
0.0
  0
POINT
  5
65
330
49
100
AcDbEntity
  8
1
 62
     4
100
AcDbPoint
 10
47.50000000000006
 20
282.0000000000003
 30
0.0
  0
POINT
  5
66
330
49
100
AcDbEntity
  8
1
 62
     4
100
AcDbPoint
 10
157.5000000000001
 20
19.00000000000001
 30
0.0
  0
POINT
  5
67
330
49
100
AcDbEntity
  8
1
 62
     4
100
AcDbPoint
 10
57.00000000000006
 20
16.25
 30
0.0
  0
POINT
  5
68
330
49
100
AcDbEntity
  8
1
 62
     4
100
AcDbPoint
 10
57.00000000000006
 20
24.75000000000001
 30
0.0
  0
POINT
  5
69
330
49
100
AcDbEntity
  8
1
 62
     4
100
AcDbPoint
 10
57.00000000000006
 20
20.75000000000001
 30
0.0
  0
POINT
  5
6A
330
49
100
AcDbEntity
  8
1
 62
     4
100
AcDbPoint
 10
57.00000000000006
 20
12.25
 30
0.0
  0
POINT
  5
6B
330
49
100
AcDbEntity
  8
1
 62
     4
100
AcDbPoint
 10
34.00000000000006
 20
34.0
 30
0.0
  0
LINE
  5
70
330
49
100
AcDbEntity
  8
1
  6
Continuous
 62
     7
100
AcDbLine
 10
105.0000000000001
 20
10.0
 30
0.0
 11
200.0000000000001
 21
10.0
 31
0.0
  0
LINE
  5
71
330
49
100
AcDbEntity
  8
1
  6
Continuous
 62
     2
100
AcDbLine
 10
105.0000000000001
 20
10.0
 30
0.0
 11
105.0000000000001
 21
5.0
 31
0.0
  0
LINE
  5
72
330
49
100
AcDbEntity
  8
1
  6
Continuous
 62
     7
100
AcDbLine
 10
200.0000000000001
 20
148.5
 30
0.0
 11
200.0000000000001
 21
287.0000000000003
 31
0.0
  0
LINE
  5
73
330
49
100
AcDbEntity
  8
1
  6
Continuous
 62
     2
100
AcDbLine
 10
200.0000000000001
 20
148.5
 30
0.0
 11
205.0000000000001
 21
148.5
 31
0.0
  0
LINE
  5
74
330
49
100
AcDbEntity
  8
1
  6
Continuous
 62
     7
100
AcDbLine
 10
25.00000000000006
 20
148.5
 30
0.0
 11
25.00000000000006
 21
287.0000000000003
 31
0.0
  0
LINE
  5
75
330
49
100
AcDbEntity
  8
1
  6
Continuous
 62
     2
100
AcDbLine
 10
25.00000000000006
 20
148.5
 30
0.0
 11
20.00000000000006
 21
148.5
 31
0.0
  0
LINE
  5
76
330
49
100
AcDbEntity
  8
1
  6
Continuous
 62
     7
100
AcDbLine
 10
105.0000000000001
 20
287.0000000000003
 30
0.0
 11
25.00000000000006
 21
287.0000000000003
 31
0.0
  0
LINE
  5
77
330
49
100
AcDbEntity
  8
1
  6
Continuous
 62
     2
100
AcDbLine
 10
105.0000000000001
 20
287.0000000000003
 30
0.0
 11
105.0000000000001
 21
292.0000000000003
 31
0.0
  0
LINE
  5
78
330
49
100
AcDbEntity
  8
1
  6
Continuous
 62
     2
100
AcDbLine
 10
166.0000000000001
 20
20.00000000000001
 30
0.0
 11
200.0000000000001
 21
20.00000000000001
 31
0.0
  0
LINE
  5
79
330
49
100
AcDbEntity
  8
1
  6
Continuous
 62
     2
100
AcDbLine
 10
98.00000000000006
 20
27.00000000000001
 30
0.0
 11
98.00000000000006
 21
10.0
 31
0.0
  0
LINE
  5
7A
330
49
100
AcDbEntity
  8
1
  6
Continuous
 62
     2
100
AcDbLine
 10
115.0000000000001
 20
27.00000000000001
 30
0.0
 11
115.0000000000001
 21
9.99999999999999
 31
0.0
  0
LINE
  5
7B
330
49
100
AcDbEntity
  8
1
  6
Continuous
 62
     2
100
AcDbLine
 10
149.0000000000001
 20
27.00000000000001
 30
0.0
 11
149.0000000000001
 21
10.0
 31
0.0
  0
LINE
  5
7C
330
49
100
AcDbEntity
  8
1
  6
Continuous
 62
     2
100
AcDbLine
 10
132.0000000000001
 20
27.00000000000001
 30
0.0
 11
132.0000000000001
 21
9.99999999999999
 31
0.0
  0
LINE
  5
7D
330
49
100
AcDbEntity
  8
1
  6
Continuous
 62
     2
100
AcDbLine
 10
166.0000000000001
 20
27.00000000000001
 30
0.0
 11
166.0000000000001
 21
10.0
 31
0.0
  0
LINE
  5
7E
330
49
100
AcDbEntity
  8
1
  6
Continuous
 62
     2
100
AcDbLine
 10
55.00000000000006
 20
277.0000000000003
 30
0.0
 11
25.00000000000006
 21
277.0000000000003
 31
0.0
  0
LINE
  5
7F
330
49
100
AcDbEntity
  8
1
  6
Continuous
 62
     7
100
AcDbLine
 10
25.00000000000006
 20
10.0
 30
0.0
 11
25.00000000000006
 21
148.5
 31
0.0
  0
LINE
  5
80
330
49
100
AcDbEntity
  8
1
  6
Continuous
 62
     2
100
AcDbLine
 10
40.00000000000006
 20
287.0000000000003
 30
0.0
 11
40.00000000000006
 21
277.0000000000003
 31
0.0
  0
LINE
  5
81
330
49
100
AcDbEntity
  8
1
  6
Continuous
 62
     2
100
AcDbLine
 10
55.00000000000006
 20
287.0000000000003
 30
0.0
 11
55.00000000000006
 21
277.0000000000003
 31
0.0
  0
LINE
  5
82
330
49
100
AcDbEntity
  8
1
  6
Continuous
 62
     2
100
AcDbLine
 10
33.00000000000006
 20
41.0
 30
0.0
 11
33.00000000000006
 21
27.0
 31
0.0
  0
LINE
  5
83
330
49
100
AcDbEntity
  8
1
  6
Continuous
 62
     7
100
AcDbLine
 10
200.0000000000001
 20
27.00000000000001
 30
0.0
 11
25.00000000000006
 21
27.00000000000001
 31
0.0
  0
LINE
  5
84
330
49
100
AcDbEntity
  8
1
  6
Continuous
 62
     7
100
AcDbLine
 10
25.00000000000006
 20
41.0
 30
0.0
 11
200.0000000000001
 21
41.0
 31
0.0
  0
LINE
  5
85
330
49
100
AcDbEntity
  8
1
  6
PHANTOM
 62
     4
100
AcDbLine
 10
0.00000000000006
 20
0.0
 30
0.0
 11
210.0000000000001
 21
0.0
 31
0.0
  0
LINE
  5
86
330
49
100
AcDbEntity
  8
1
  6
PHANTOM
 62
     4
100
AcDbLine
 10
210.0000000000001
 20
0.0
 30
0.0
 11
210.0000000000001
 21
297.0
 31
0.0
  0
LINE
  5
87
330
49
100
AcDbEntity
  8
1
  6
PHANTOM
 62
     4
100
AcDbLine
 10
210.0000000000001
 20
297.0
 30
0.0
 11
0.00000000000006
 21
297.0
 31
0.0
  0
LINE
  5
88
330
49
100
AcDbEntity
  8
1
  6
PHANTOM
 62
     4
100
AcDbLine
 10
0.00000000000006
 20
297.0
 30
0.0
 11
0.00000000000006
 21
0.0
 31
0.0
  0
LINE
  5
89
330
49
100
AcDbEntity
  8
1
  6
Continuous
 62
     7
100
AcDbLine
 10
25.00000000000006
 20
10.0
 30
0.0
 11
105.0000000000001
 21
10.0
 31
0.0
  0
LINE
  5
8A
330
49
100
AcDbEntity
  8
1
  6
Continuous
 62
     7
100
AcDbLine
 10
200.0000000000001
 20
10.0
 30
0.0
 11
200.0000000000001
 21
148.5
 31
0.0
  0
LINE
  5
8B
330
49
100
AcDbEntity
  8
1
  6
Continuous
 62
     7
100
AcDbLine
 10
200.0000000000001
 20
287.0000000000003
 30
0.0
 11
105.0000000000001
 21
287.0000000000003
 31
0.0
  0
LINE
  5
8C
330
49
100
AcDbEntity
  8
1
  6
Continuous
 62
     2
100
AcDbLine
 10
25.00000000000006
 20
18.50000000000001
 30
0.0
 11
81.00000000000006
 21
18.50000000000001
 31
0.0
  0
LINE
  5
8D
330
49
100
AcDbEntity
  8
1
  6
Continuous
 62
     2
100
AcDbLine
 10
33.00000000000006
 20
27.0
 30
0.0
 11
33.00000000000006
 21
10.0
 31
0.0
  0
LINE
  5
8E
330
49
100
AcDbEntity
  8
1
  6
Continuous
 62
     7
100
AcDbLine
 10
191.0000000000001
 20
24.70000000000002
 30
0.0
 11
191.0000000000001
 21
22.30000000000001
 31
0.0
  0
LINE
  5
8F
330
49
100
AcDbEntity
  8
1
  6
Continuous
 62
     7
100
AcDbLine
 10
191.0000000000001
 20
24.70000000000002
 30
0.0
 11
196.0000000000001
 21
25.50000000000001
 31
0.0
  0
LINE
  5
90
330
49
100
AcDbEntity
  8
1
  6
Continuous
 62
     7
100
AcDbLine
 10
196.0000000000001
 20
25.50000000000001
 30
0.0
 11
196.0000000000001
 21
21.50000000000001
 31
0.0
  0
LINE
  5
91
330
49
100
AcDbEntity
  8
1
  6
Continuous
 62
     7
100
AcDbLine
 10
196.0000000000001
 20
21.50000000000001
 30
0.0
 11
191.0000000000001
 21
22.30000000000001
 31
0.0
  0
LINE
  5
92
330
49
100
AcDbEntity
  8
1
  6
DOT_CENTER
 62
     2
100
AcDbLine
 10
184.0000000000001
 20
23.50000000000001
 30
0.0
 11
197.0000000000001
 21
23.50000000000001
 31
0.0
  0
LINE
  5
93
330
49
100
AcDbEntity
  8
1
  6
DOT_CENTER
 62
     2
100
AcDbLine
 10
187.0000000000001
 20
26.50000000000001
 30
0.0
 11
187.0000000000001
 21
20.50000000000001
 31
0.0
  0
LINE
  5
94
330
49
100
AcDbEntity
  8
1
  6
Continuous
 62
     2
100
AcDbLine
 10
81.00000000000006
 20
27.00000000000001
 30
0.0
 11
81.00000000000006
 21
10.0
 31
0.0
  0
CIRCLE
  5
95
330
49
100
AcDbEntity
  8
1
  6
Continuous
 62
     7
100
AcDbCircle
 10
103.5000000000001
 20
12.5
 30
0.0
 40
0.2999999999999972
  0
CIRCLE
  5
96
330
49
100
AcDbEntity
  8
1
  6
Continuous
 62
     7
100
AcDbCircle
 10
109.5000000000001
 20
12.5
 30
0.0
 40
0.2999999999999972
  0
CIRCLE
  5
97
330
49
100
AcDbEntity
  8
1
  6
Continuous
 62
     7
100
AcDbCircle
 10
120.5000000000001
 20
12.5
 30
0.0
 40
0.2999999999999972
  0
CIRCLE
  5
98
330
49
100
AcDbEntity
  8
1
  6
Continuous
 62
     7
100
AcDbCircle
 10
126.5000000000001
 20
12.5
 30
0.0
 40
0.2999999999999972
  0
CIRCLE
  5
99
330
49
100
AcDbEntity
  8
1
  6
Continuous
 62
     7
100
AcDbCircle
 10
137.5000000000001
 20
12.5
 30
0.0
 40
0.2999999999999829
  0
CIRCLE
  5
9A
330
49
100
AcDbEntity
  8
1
  6
Continuous
 62
     7
100
AcDbCircle
 10
143.5000000000001
 20
12.5
 30
0.0
 40
0.2999999999999829
  0
CIRCLE
  5
9B
330
49
100
AcDbEntity
  8
1
  6
Continuous
 62
     7
100
AcDbCircle
 10
160.5000000000001
 20
12.5
 30
0.0
 40
0.2999999999999829
  0
CIRCLE
  5
9C
330
49
100
AcDbEntity
  8
1
  6
Continuous
 62
     7
100
AcDbCircle
 10
154.5000000000001
 20
12.5
 30
0.0
 40
0.2999999999999829
  0
CIRCLE
  5
9D
330
49
100
AcDbEntity
  8
1
  6
Continuous
 62
     7
100
AcDbCircle
 10
187.0000000000001
 20
23.50000000000001
 30
0.0
 40
1.200000000000074
  0
CIRCLE
  5
9E
330
49
100
AcDbEntity
  8
1
  6
Continuous
 62
     7
100
AcDbCircle
 10
187.0000000000001
 20
23.50000000000001
 30
0.0
 40
2.0
  0
CIRCLE
  5
9F
330
49
100
AcDbEntity
  8
1
  6
DOT_CENTER
 62
     7
100
AcDbCircle
 10
89.50000000000006
 20
16.0
 30
0.0
 40
0.1000000000000227
  0
CIRCLE
  5
A0
330
49
100
AcDbEntity
  8
1
  6
DOT_CENTER
 62
     7
100
AcDbCircle
 10
89.50000000000006
 20
18.0
 30
0.0
 40
0.1000000000000227
  0
SPLINE
  5
A1
102
{ACAD_REACTORS
330
C0
102
}
330
49
100
AcDbEntity
  8
_U_30EC_U_30A4_U_30E4_U_30FC_1
  6
Continuous
 62
     2
100
AcDbSpline
210
0.0
220
0.0
230
1.0
 70
     8
 71
     3
 72
    24
 73
    20
 74
    18
 42
0.000000001
 43
0.0000000001
 44
0.00000001
 40
0.0
 40
0.0
 40
0.0
 40
0.0
 40
0.2211075008753839
 40
0.4273218586245459
 40
0.5080174679239221
 40
0.5914835907870658
 40
0.8143265690192971
 40
1.054651302686597
 40
1.295452694023194
 40
1.518109231328853
 40
1.540864321905469
 40
1.59512646062273
 40
1.659890947896043
 40
1.714153085187429
 40
1.736908174961701
 40
1.764951100735406
 40
1.801562291220968
 40
1.953914424543652
 40
2.126104167379723
 40
2.126104167379723
 40
2.126104167379723
 40
2.126104167379723
 10
185.937536955689
 20
15.58989295113017
 30
0.0
 10
185.9112579081812
 20
15.53097628234374
 30
0.0
 10
185.8604698894428
 20
15.41711139679257
 30
0.0
 10
185.8131784839113
 20
15.14441958233115
 30
0.0
 10
185.7043482802619
 20
15.24445482575457
 30
0.0
 10
185.5514800279638
 20
15.27118593367328
 30
0.0
 10
185.76861551812
 20
15.48518135017633
 30
0.0
 10
185.7838483674381
 20
15.70332117782488
 30
0.0
 10
185.8906889492
 20
15.88451579066425
 30
0.0
 10
185.8305380947079
 20
16.16913226311404
 30
0.0
 10
185.9334317395402
 20
16.1411408922245
 30
0.0
 10
185.9779933468151
 20
16.13243251602299
 30
0.0
 10
186.0380842395397
 20
16.12139654183354
 30
0.0
 10
186.0756619587439
 20
16.10767523055561
 30
0.0
 10
186.1252466928606
 20
16.1075607616022
 30
0.0
 10
186.0930158919325
 20
16.07306592398625
 30
0.0
 10
186.0171802221882
 20
16.0840410453796
 30
0.0
 10
186.0429447159693
 20
15.89858969582452
 30
0.0
 10
186.005589676385
 20
15.8070231354959
 30
0.0
 10
185.985770496161
 20
15.75844135397705
 30
0.0
 11
185.937536955689
 21
15.58989295113017
 31
0.0
 11
185.8616471328553
 21
15.3822170831856
 31
0.0
 11
185.7717402238434
 21
15.19663392356192
 31
0.0
 11
185.7011493923111
 21
15.23573272563551
 31
0.0
 11
185.6245525192652
 21
15.2688916318772
 31
0.0
 11
185.7214026947456
 21
15.46958801203538
 31
0.0
 11
185.7994641467471
 21
15.69688163177024
 31
0.0
 11
185.8589716929721
 21
15.93021436608691
 31
0.0
 11
185.9001601511227
 21
16.14902808999054
 31
0.0
 11
185.9224183822215
 21
16.14429889221395
 31
0.0
 11
185.9754957025341
 21
16.13302157443899
 31
0.0
 11
186.0388460525845
 21
16.11956154999792
 31
0.0
 11
186.0919233728971
 21
16.10828423222296
 31
0.0
 11
186.1141816039959
 21
16.10355503444637
 31
0.0
 11
186.0964097157461
 21
16.0818625084101
 31
0.0
 11
186.0606122998072
 21
16.07418628445367
 31
0.0
 11
186.028195330148
 21
15.92532288171314
 31
0.0
 11
185.985770496161
 21
15.75844135397705
 31
0.0
  0
SPLINE
  5
A2
102
{ACAD_REACTORS
330
C0
102
}
330
49
100
AcDbEntity
  8
_U_30EC_U_30A4_U_30E4_U_30FC_1
  6
Continuous
 62
     2
100
AcDbSpline
210
0.0
220
0.0
230
1.0
 70
     8
 71
     3
 72
    70
 73
    66
 74
    64
 42
0.000000001
 43
0.0000000001
 44
0.00000001
 40
0.0
 40
0.0
 40
0.0
 40
0.0
 40
0.0241731073021472
 40
0.0846058988987297
 40
0.1631685280353284
 40
0.2417311571789756
 40
0.3021639488292751
 40
0.3263370654895825
 40
0.3533118254249165
 40
0.4228783438922395
 40
0.5179999095313687
 40
0.6216398239466386
 40
0.716761389149999
 40
0.7863279069650148
 40
0.813302679176212
 40
0.8372943998771958
 40
0.894505426137287
 40
0.962789554196264
 40
1.020000580349074
 40
1.043992300975172
 40
1.071934345522902
 40
1.113121768772915
 40
1.14522519933224
 40
1.225483775412775
 40
1.329819923771483
 40
1.434156071994373
 40
1.514414647795794
 40
1.546518078208402
 40
1.578974764260204
 40
1.662678849314142
 40
1.777131373668391
 40
1.901833377474782
 40
2.016285900500572
 40
2.099989982527939
 40
2.132446666570297
 40
2.15878235448602
 40
2.21672086790781
 40
2.274659381334233
 40
2.300995069256167
 40
2.333451754066139
 40
2.41715583654382
 40
2.53160835898526
 40
2.656310362283755
 40
2.770762886388887
 40
2.854466971340052
 40
2.886923657363859
 40
2.913597976833293
 40
2.982389642875095
 40
3.076451716946957
 40
3.17893726045857
 40
3.272999334739971
 40
3.341791001059191
 40
3.368465320663503
 40
3.396976080738725
 40
3.472140811845932
 40
3.578408190308622
 40
3.70022689245603
 40
3.822045594634247
 40
3.928312973256325
 40
4.003477705314722
 40
4.031988456866788
 40
4.058324144797588
 40
4.116262658236757
 40
4.174201171400563
 40
4.200536849608499
 40
4.200536849608499
 40
4.200536849608499
 40
4.200536849608499
 10
185.985770496161
 20
15.75844135397705
 30
0.0
 10
185.993825954468
 20
15.75844359811686
 30
0.0
 10
186.0220200663242
 20
15.75845146032798
 30
0.0
 10
186.0765534803674
 20
15.75830754828372
 30
0.0
 10
186.1482891808604
 20
15.75909120499898
 30
0.0
 10
186.2236240137063
 20
15.75627570463811
 30
0.0
 10
186.2713052366439
 20
15.76298403400957
 30
0.0
 10
186.3195071245617
 20
15.75197563692432
 30
0.0
 10
186.3062571799875
 20
15.80546402997033
 30
0.0
 10
186.3151093964538
 20
15.86049583543092
 30
0.0
 10
186.3108698036287
 20
15.95419908726109
 30
0.0
 10
186.313348348128
 20
16.04959482218532
 30
0.0
 10
186.3090938706062
 20
16.14356821983387
 30
0.0
 10
186.3179818665847
 20
16.19795062438012
 30
0.0
 10
186.3046977409946
 20
16.25233997691461
 30
0.0
 10
186.351411927711
 20
16.23842216335358
 30
0.0
 10
186.3943254545738
 20
16.24103877374043
 30
0.0
 10
186.4605443456685
 20
16.23648422450754
 30
0.0
 10
186.50133422718
 20
16.22778162134162
 30
0.0
 10
186.5525145690819
 20
16.23531799890194
 30
0.0
 10
186.5253720487201
 20
16.19349970223285
 30
0.0
 10
186.4803096055708
 20
16.20284992072596
 30
0.0
 10
186.4942065045051
 20
16.13841207371837
 30
0.0
 10
186.4858414431655
 20
16.07378219627399
 30
0.0
 10
186.4903632178399
 20
15.97529141193887
 30
0.0
 10
186.4854741311168
 20
15.8759593284257
 30
0.0
 10
186.4950258992082
 20
15.81293115552968
 30
0.0
 10
186.4799761455201
 20
15.74964011499788
 30
0.0
 10
186.5449159457209
 20
15.76515072944268
 30
0.0
 10
186.6116246399498
 20
15.75499387697813
 30
0.0
 10
186.7241435470827
 20
15.75988800099367
 30
0.0
 10
186.8390235448954
 20
15.75691204732784
 30
0.0
 10
186.9519871999748
 20
15.76221664184991
 30
0.0
 10
187.0176267597678
 20
15.75107306472089
 30
0.0
 10
187.0816276691054
 20
15.76744532319857
 30
0.0
 10
187.070314288919
 20
15.71761689905274
 30
0.0
 10
187.0775339871511
 20
15.67416715212123
 30
0.0
 10
187.070314261127
 20
15.63071745587445
 30
0.0
 10
187.0816277175995
 20
15.58088895196876
 30
0.0
 10
187.0176263598972
 20
15.59726166091362
 30
0.0
 10
186.9519921240461
 20
15.58611271661588
 30
0.0
 10
186.8389974317331
 20
15.59144857206854
 30
0.0
 10
186.7242456548644
 20
15.58834345663822
 30
0.0
 10
186.6113183686861
 20
15.59364894682588
 30
0.0
 10
186.5455220903585
 20
15.58257300019594
 30
0.0
 10
186.4816097975358
 20
15.59887597847617
 30
0.0
 10
186.4936015165127
 20
15.54423524395742
 30
0.0
 10
186.4862104613007
 20
15.48854295047842
 30
0.0
 10
186.4892684841983
 20
15.3964968914057
 30
0.0
 10
186.4893422785684
 20
15.30179109873102
 30
0.0
 10
186.4860313578361
 20
15.20952782902266
 30
0.0
 10
186.4939505989903
 20
15.1543576873614
 30
0.0
 10
186.4815076611618
 20
15.10058169100137
 30
0.0
 10
186.5389116551633
 20
15.11453768862782
 30
0.0
 10
186.5994708140383
 20
15.10511457884228
 30
0.0
 10
186.7048680855081
 20
15.10942885928705
 30
0.0
 10
186.8204294070623
 20
15.10835504612032
 30
0.0
 10
186.9359688877797
 20
15.10725965900996
 30
0.0
 10
187.0414181130841
 20
15.11162525770633
 30
0.0
 10
187.1018680471804
 20
15.10209426030672
 30
0.0
 10
187.159283773911
 20
15.1161728960638
 30
0.0
 10
187.1477773876709
 20
15.06707153265683
 30
0.0
 10
187.1537566781749
 20
15.02564658018649
 30
0.0
 10
187.1520311050801
 20
14.97651677966695
 30
0.0
 10
187.1521500122971
 20
14.94854428447607
 30
0.0
 10
187.1521871691833
 20
14.93980288195949
 30
0.0
 11
185.985770496161
 21
15.75844135397705
 31
0.0
 11
186.0099436128282
 21
15.75844135397705
 31
0.0
 11
186.0703764044964
 21
15.75844135397705
 31
0.0
 11
186.1489390336649
 21
15.75844135397705
 31
0.0
 11
186.2275016628334
 21
15.75844135397705
 31
0.0
 11
186.2879344545015
 21
15.75844135397705
 31
0.0
 11
186.3121075711688
 21
15.75844135397705
 31
0.0
 11
186.3121075711688
 21
15.78541612620063
 31
0.0
 11
186.3121075711688
 21
15.85498264404039
 31
0.0
 11
186.3121075711688
 21
15.95010420924985
 31
0.0
 11
186.3121075711688
 21
16.05374412358256
 31
0.0
 11
186.3121075711688
 21
16.14886568879202
 31
0.0
 11
186.3121075711688
 21
16.21843220663178
 31
0.0
 11
186.3121075711688
 21
16.24540697885536
 31
0.0
 11
186.3360407604893
 21
16.243732131078
 31
0.0
 11
186.3931122119459
 21
16.23973826330121
 31
0.0
 11
186.4612297507811
 21
16.23497138885795
 31
0.0
 11
186.5183012022377
 21
16.23097752108117
 31
0.0
 11
186.5422343915582
 21
16.22930267330381
 31
0.0
 11
186.527497273123
 21
16.2055629337264
 31
0.0
 11
186.4886640249977
 21
16.19183767331312
 31
0.0
 11
186.4886640249977
 21
16.15973424225119
 31
0.0
 11
186.4886640249977
 21
16.07947566459636
 31
0.0
 11
186.4886640249977
 21
15.97513951364509
 31
0.0
 11
186.4886640249977
 21
15.87080336269381
 31
0.0
 11
186.4886640249977
 21
15.79054478503898
 31
0.0
 11
186.4886640249977
 21
15.75844135397705
 31
0.0
 11
186.5211207110825
 21
15.75844135397705
 31
0.0
 11
186.6048247962486
 21
15.75844135397705
 31
0.0
 11
186.7192773208635
 21
15.75844135397705
 31
0.0
 11
186.8439793252947
 21
15.75844135397705
 31
0.0
 11
186.9584318499095
 21
15.75844135397705
 31
0.0
 11
187.0421359350757
 21
15.75844135397705
 31
0.0
 11
187.0745926211605
 21
15.75844135397705
 31
0.0
 11
187.0745926211605
 21
15.73210566604961
 31
0.0
 11
187.0745926211605
 21
15.67416715260924
 31
0.0
 11
187.0745926211605
 21
15.61622863916888
 31
0.0
 11
187.0745926211605
 21
15.58989295124144
 31
0.0
 11
187.0421359350757
 21
15.58989295124144
 31
0.0
 11
186.9584318499095
 21
15.58989295124144
 31
0.0
 11
186.8439793252947
 21
15.58989295124144
 31
0.0
 11
186.7192773208635
 21
15.58989295124144
 31
0.0
 11
186.6048247962486
 21
15.58989295124144
 31
0.0
 11
186.5211207110825
 21
15.58989295124144
 31
0.0
 11
186.4886640249977
 21
15.58989295124144
 31
0.0
 11
186.4886640249977
 21
15.56321863152022
 31
0.0
 11
186.4886640249977
 21
15.49442696487075
 31
0.0
 11
186.4886640249977
 21
15.40036489006434
 31
0.0
 11
186.4886640249977
 21
15.29787934587228
 31
0.0
 11
186.4886640249977
 21
15.20381727106587
 31
0.0
 11
186.4886640249977
 21
15.1350256044164
 31
0.0
 11
186.4886640249977
 21
15.10835128469518
 31
0.0
 11
186.5171747850994
 21
15.10835128469518
 31
0.0
 11
186.5923395162767
 21
15.10835128469518
 31
0.0
 11
186.6986068948377
 21
15.10835128469518
 31
0.0
 11
186.8204255970905
 21
15.10835128469518
 31
0.0
 11
186.9422442993433
 21
15.10835128469518
 31
0.0
 11
187.0485116779043
 21
15.10835128469518
 31
0.0
 11
187.1236764090816
 21
15.10835128469518
 31
0.0
 11
187.1521871691833
 21
15.10835128469518
 31
0.0
 11
187.1521871691833
 21
15.08201559676773
 31
0.0
 11
187.1521871691833
 21
15.02407708332734
 31
0.0
 11
187.1521871691833
 21
14.96613856988694
 31
0.0
 11
187.1521871691833
 21
14.93980288195949
 31
0.0
  0
SPLINE
  5
A3
102
{ACAD_REACTORS
330
C0
102
}
330
49
100
AcDbEntity
  8
_U_30EC_U_30A4_U_30E4_U_30FC_1
  6
Continuous
 62
     2
100
AcDbSpline
210
0.0
220
0.0
230
1.0
 70
     8
 71
     3
 72
    62
 73
    58
 74
    56
 42
0.000000001
 43
0.0000000001
 44
0.00000001
 40
0.0
 40
0.0
 40
0.0
 40
0.0
 40
0.0598250028308485
 40
0.2024846486897047
 40
0.3727558389220178
 40
0.5154154847934933
 40
0.5752404975784202
 40
0.9332326775486064
 40
1.290451762839337
 40
1.602077253145737
 40
1.699931634111994
 40
1.799359756424963
 40
2.270120149656963
 40
2.804661928461401
 40
2.882342287383111
 40
3.076543185718961
 40
3.329004354835421
 40
3.581465524568246
 40
3.775666424543527
 40
3.853346784558147
 40
3.899120679594921
 40
3.984129341791862
 40
4.02990323681721
 40
4.105797496059367
 40
4.295533144152326
 40
4.542189486611568
 40
4.788845828875514
 40
4.9785814764099
 40
5.054475735244143
 40
5.621734664339177
 40
6.130867242037187
 40
6.225249780948416
 40
6.318913039727114
 40
6.663579954558709
 40
7.047498900224538
 40
7.435230791575435
 40
7.498943906667847
 40
7.650875181209784
 40
7.832212509001266
 40
7.984143783696652
 40
8.04785689890278
 40
8.09155463273229
 40
8.172707566963956
 40
8.216405300767684
 40
8.28902178216057
 40
8.462184160756914
 40
8.66886183800508
 40
8.842024215263644
 40
8.914640695474839
 40
8.989881580861045
 40
9.155411528826948
 40
9.320941477743728
 40
9.396182352486978
 40
9.454709011143468
 40
9.583467660170488
 40
9.71222630901271
 40
9.770752957989192
 40
9.770752957989192
 40
9.770752957989192
 40
9.770752957989192
 10
187.1521871691833
 20
14.93980288195949
 30
0.0
 10
187.1322348171623
 20
14.93980875568671
 30
0.0
 10
187.0647037716465
 20
14.93982863806156
 30
0.0
 10
186.9410612161788
 20
14.93949362520324
 30
0.0
 10
186.7863180150057
 20
14.94107673750511
 30
0.0
 10
186.669734948248
 20
14.93686078860494
 30
0.0
 10
186.4550942634242
 20
14.95215205331625
 30
0.0
 10
186.8518948407229
 20
14.59198721286193
 30
0.0
 10
186.8945656069268
 20
14.37510503397165
 30
0.0
 10
187.3189162146612
 20
14.19325062511447
 30
0.0
 10
187.1439821496075
 20
14.0898519656807
 30
0.0
 10
187.0194523925083
 20
13.87831523212732
 30
0.0
 10
186.7666277235944
 20
14.34806081001559
 30
0.0
 10
186.4797602893625
 20
14.99511516984519
 30
0.0
 10
186.4906335926662
 20
14.68782672154694
 30
0.0
 10
186.488289277796
 20
14.52288616971777
 30
0.0
 10
186.4861096126412
 20
14.28879670711693
 30
0.0
 10
186.4980774396348
 20
14.04498072421783
 30
0.0
 10
186.4687984740632
 20
13.89855796860984
 30
0.0
 10
186.511452262547
 20
13.75113490174537
 30
0.0
 10
186.423981400564
 20
13.7668579730622
 30
0.0
 10
186.3768527606745
 20
13.76694303543455
 30
0.0
 10
186.2898973207714
 20
13.75109425482909
 30
0.0
 10
186.3313474021725
 20
13.89527771422763
 30
0.0
 10
186.3029875004285
 20
14.03855052698455
 30
0.0
 10
186.31459737753
 20
14.27674947365265
 30
0.0
 10
186.3124175648273
 20
14.50517235240346
 30
0.0
 10
186.3103111127995
 20
14.66705729375994
 30
0.0
 10
186.3208035438324
 20
14.98153709333752
 30
0.0
 10
186.0128963252894
 20
14.29229470872438
 30
0.0
 10
185.7055258267455
 20
13.8147675024305
 30
0.0
 10
185.5851367066276
 20
14.03741112637428
 30
0.0
 10
185.4074607910722
 20
14.15011034955566
 30
0.0
 10
185.8853326362895
 20
14.32548143465461
 30
0.0
 10
185.9353959057208
 20
14.5609192925203
 30
0.0
 10
186.3583799621718
 20
14.95322989344606
 30
0.0
 10
186.127675427354
 20
14.93655307029065
 30
0.0
 10
186.0049685859341
 20
14.94269518948769
 30
0.0
 10
185.8325483095662
 20
14.93312822699574
 30
0.0
 10
185.721322469445
 20
14.95448818489665
 30
0.0
 10
185.6025779627449
 20
14.92136265357419
 30
0.0
 10
185.6183169706686
 20
15.00203900606883
 30
0.0
 10
185.6178550933764
 20
15.04645414290854
 30
0.0
 10
185.6027881889931
 20
15.12967081778534
 30
0.0
 10
185.7372380935444
 20
15.09062651983884
 30
0.0
 10
185.8619755545747
 20
15.11739729328423
 30
0.0
 10
186.0628755237281
 20
15.10063949044053
 30
0.0
 10
186.1921540949354
 20
15.12204225913005
 30
0.0
 10
186.3328419928296
 20
15.08868778853422
 30
0.0
 10
186.2980927452616
 20
15.22651875785068
 30
0.0
 10
186.3222185666713
 20
15.34963257349482
 30
0.0
 10
186.2967086182394
 20
15.47024055670335
 30
0.0
 10
186.3333251146686
 20
15.60539865141493
 30
0.0
 10
186.221141702777
 20
15.58094545781891
 30
0.0
 10
186.1280356457138
 20
15.59307749842022
 30
0.0
 10
186.0191547579821
 20
15.58957630069994
 30
0.0
 10
185.9569697640965
 20
15.58981755951602
 30
0.0
 10
185.9375369557247
 20
15.58989295124144
 30
0.0
 11
187.1521871691833
 21
14.93980288195949
 31
0.0
 11
187.0923621563982
 21
14.93980288195949
 31
0.0
 11
186.949702510526
 21
14.93980288195949
 31
0.0
 11
186.7794313202914
 21
14.93980288195949
 31
0.0
 11
186.6367716744192
 21
14.93980288195949
 31
0.0
 11
186.5769466616341
 21
14.93980288195949
 31
0.0
 11
186.7679960754843
 21
14.6370512796689
 31
0.0
 11
186.994127278563
 21
14.36051890576684
 31
0.0
 11
187.2244526173372
 21
14.15061253493457
 31
0.0
 11
187.1521596330705
 21
14.08466403668716
 31
0.0
 11
187.0879364402643
 21
14.0087605905256
 31
0.0
 11
186.7732818215559
 21
14.35891458349363
 31
0.0
 11
186.4886640249977
 21
14.811382951436
 31
0.0
 11
186.4886640249977
 21
14.73370259137312
 31
0.0
 11
186.4886640249977
 21
14.53950169121592
 31
0.0
 11
186.4886640249977
 21
14.28704052101156
 31
0.0
 11
186.4886640249977
 21
14.0345793508072
 31
0.0
 11
186.4886640249977
 21
13.84037845065
 31
0.0
 11
186.4886640249977
 21
13.76269809058712
 31
0.0
 11
186.4428901295606
 21
13.76269809058712
 31
0.0
 11
186.3578814666059
 21
13.76269809058712
 31
0.0
 11
186.3121075711688
 21
13.76269809058712
 31
0.0
 11
186.3121075711688
 21
13.8385923498274
 31
0.0
 11
186.3121075711688
 21
14.02832799792811
 31
0.0
 11
186.3121075711688
 21
14.27498434045904
 31
0.0
 11
186.3121075711688
 21
14.52164068298996
 31
0.0
 11
186.3121075711688
 21
14.71137633109067
 31
0.0
 11
186.3121075711688
 21
14.78727059033095
 31
0.0
 11
185.9987626399267
 21
14.31440946197693
 31
0.0
 11
185.6352328662149
 21
13.95795177109382
 31
0.0
 11
185.5773927461628
 21
14.03253450545022
 31
0.0
 11
185.5094852305342
 21
14.09704322939243
 31
0.0
 11
185.775072189832
 21
14.3167221979589
 31
0.0
 11
186.0233764972062
 21
14.60953395971697
 31
0.0
 11
186.226498280526
 21
14.93980288195949
 31
0.0
 11
186.1627851652721
 21
14.93980288195949
 31
0.0
 11
186.0108538904359
 21
14.93980288195949
 31
0.0
 11
185.8295165624056
 21
14.93980288195949
 31
0.0
 11
185.6775852875694
 21
14.93980288195949
 31
0.0
 11
185.6138721723155
 21
14.93980288195949
 31
0.0
 11
185.6138721723155
 21
14.98350061600208
 31
0.0
 11
185.6138721723155
 21
15.06465355065259
 31
0.0
 11
185.6138721723155
 21
15.10835128469518
 31
0.0
 11
185.6864886537962
 21
15.10835128469518
 31
0.0
 11
185.8596510327119
 21
15.10835128469518
 31
0.0
 11
186.0663287107725
 21
15.10835128469518
 31
0.0
 11
186.2394910896881
 21
15.10835128469518
 31
0.0
 11
186.3121075711688
 21
15.10835128469518
 31
0.0
 11
186.3121075711688
 21
15.18359217009304
 31
0.0
 11
186.3121075711688
 21
15.34912211796831
 31
0.0
 11
186.3121075711688
 21
15.51465206584359
 31
0.0
 11
186.3121075711688
 21
15.58989295124144
 31
0.0
 11
186.2535809125057
 21
15.58989295124144
 31
0.0
 11
186.1248222634468
 21
15.58989295124144
 31
0.0
 11
185.9960636143879
 21
15.58989295124144
 31
0.0
 11
185.9375369557247
 21
15.58989295124144
 31
0.0
  0
SPLINE
  5
A4
102
{ACAD_REACTORS
330
C1
102
}
330
49
100
AcDbEntity
  8
_U_30EC_U_30A4_U_30E4_U_30FC_1
  6
Continuous
 62
     2
100
AcDbSpline
210
0.0
220
0.0
230
1.0
 70
    11
 71
     3
 72
   124
 73
   120
 74
   118
 42
0.000000001
 43
0.0000000001
 44
0.00000001
 40
0.0
 40
0.0
 40
0.0
 40
0.0
 40
0.0278187229624226
 40
0.1011590162383985
 40
0.2048470170590239
 40
0.3237088716558961
 40
0.4425707262522
 40
0.5462587270699263
 40
0.6195990203312082
 40
0.647417752257866
 40
0.6750060736115224
 40
0.7357003855242759
 40
0.7963946998054492
 40
0.8239830245571784
 40
0.8540933811103162
 40
0.9373396629409274
 40
1.063094687343237
 40
1.220731268638075
 40
1.399622220914749
 40
1.589140358637762
 40
1.778658496423843
 40
1.957549448940539
 40
2.115186030873132
 40
2.240941056914465
 40
2.324187341760534
 40
2.354297700109384
 40
2.38188602467189
 40
2.442580338710479
 40
2.503274652750503
 40
2.53086297731461
 40
2.560983949278563
 40
2.640393784452908
 40
2.752662861759132
 40
2.88136156011812
 40
3.010060258455167
 40
3.122329335705371
 40
3.201739170817928
 40
3.231860142753317
 40
3.264298024030373
 40
3.352343701778245
 40
3.482095226868769
 40
3.639650650173031
 40
3.811108022565485
 40
3.982565394927994
 40
4.140120818152575
 40
4.269872343141286
 40
4.357918020802349
 40
4.390355902043978
 40
4.423256253992547
 40
4.50810453007304
 40
4.624121560636808
 40
4.750528176031536
 40
4.866545206602011
 40
4.951393482691969
 40
4.98429383464537
 40
5.011450833242283
 40
5.071196230152066
 40
5.13094162705714
 40
5.158098625648804
 40
5.190998977601466
 40
5.275847253689292
 40
5.391864284256754
 40
5.518270899648271
 40
5.634287930209282
 40
5.719136206287955
 40
5.752036558235871
 40
5.782130946282897
 40
5.862783906229072
 40
5.979550131774938
 40
6.117984316640345
 40
6.26364115458789
 40
6.402075339414096
 40
6.51884156490789
 40
6.599494524815472
 40
6.62958891284871
 40
6.654403028226286
 40
6.713575149488053
 40
6.784199939329398
 40
6.8433720604935
 40
6.868186175802718
 40
6.896246243201813
 40
6.939586233758183
 40
6.967846564564811
 40
7.043584251089749
 40
7.153234334451607
 40
7.283231855734357
 40
7.420011856035391
 40
7.550009376579743
 40
7.659659458835142
 40
7.735397144417135
 40
7.763657474851307
 40
7.796409728010964
 40
7.880876065096238
 40
7.996370852465624
 40
8.122208446418519
 40
8.237703224799112
 40
8.322169562010835
 40
8.35492181520582
 40
8.3820788133076
 40
8.441824209206903
 40
8.50156960524005
 40
8.528726603485627
 40
8.561478856695647
 40
8.645945193877697
 40
8.761439980865237
 40
8.88727758076438
 40
9.0027723620009
 40
9.087238696661093
 40
9.119990949235575
 40
9.152428830613275
 40
9.24047450863849
 40
9.370226034149441
 40
9.527781457984327
 40
9.699238830981315
 40
9.870696203978508
 40
10.02825162781393
 40
10.15800315332555
 40
10.2460488313511
 40
10.27848670378512
 40
10.27848670378512
 40
10.27848670378512
 40
10.27848670378512
 10
195.3821827564384
 20
14.01410517385757
 30
0.0
 10
195.3914554737524
 20
14.01410498511274
 30
0.0
 10
195.4251744536861
 20
14.01410430876714
 30
0.0
 10
195.4934706812466
 20
14.01411807243305
 30
0.0
 10
195.592014171158
 20
14.01403224219544
 30
0.0
 10
195.7062066464812
 20
14.0144175561225
 30
0.0
 10
195.8185894417072
 20
14.01300835897545
 30
0.0
 10
195.9214376600118
 20
14.01719117422243
 30
0.0
 10
195.980683987485
 20
14.00823089251983
 30
0.0
 10
196.0371265937034
 20
14.0216443452606
 30
0.0
 10
196.0246255586956
 20
13.97087198613361
 30
0.0
 10
196.0329549635704
 20
13.92589320939067
 30
0.0
 10
196.0248170841121
 20
13.88056752990488
 30
0.0
 10
196.0370529214458
 20
13.82931932408465
 30
0.0
 10
195.9747773490334
 20
13.84447955365276
 30
0.0
 10
195.9060513026869
 20
13.83359750710742
 30
0.0
 10
195.7782756749592
 20
13.83911304747972
 30
0.0
 10
195.6262984511644
 20
13.83700851253698
 30
0.0
 10
195.4502695972523
 20
13.83771002588473
 30
0.0
 10
195.2644431934288
 20
13.83745237531292
 30
0.0
 10
195.0786167437176
 20
13.83771005144602
 30
0.0
 10
194.9025880142169
 20
13.83700841847731
 30
0.0
 10
194.7506104154195
 20
13.83911332229988
 30
0.0
 10
194.6228357664555
 20
13.8335968076764
 30
0.0
 10
194.5541077836581
 20
13.84448077125942
 30
0.0
 10
194.4918349042884
 20
13.82931786684209
 30
0.0
 10
194.5040616290018
 20
13.88057510805171
 30
0.0
 10
194.4960004462598
 20
13.92582473272425
 30
0.0
 10
194.5040675809893
 20
13.97106357955323
 30
0.0
 10
194.4918238487084
 20
14.02234176909958
 30
0.0
 10
194.5525017120699
 20
14.00749577363134
 30
0.0
 10
194.6162810745737
 20
14.01756448170735
 30
0.0
 10
194.7277314353503
 20
14.01294644211999
 30
0.0
 10
194.8497533443824
 20
14.01413328905469
 30
0.0
 10
194.9719538137824
 20
14.01515863900635
 30
0.0
 10
195.0829794287392
 20
14.01092475623402
 30
0.0
 10
195.1476517413959
 20
14.02018584521739
 30
0.0
 10
195.2091162810502
 20
14.00604423049682
 30
0.0
 10
195.1930065601337
 20
14.07235527884516
 30
0.0
 10
195.2042980327359
 20
14.14447790121977
 30
0.0
 10
195.1987400822561
 20
14.27513760888285
 30
0.0
 10
195.2008035061691
 20
14.42607323708242
 30
0.0
 10
195.2000167127295
 20
14.59335873107886
 30
0.0
 10
195.2007845215628
 20
14.76061110332303
 30
0.0
 10
195.1988038785629
 20
14.91163289269914
 30
0.0
 10
195.2041306156621
 20
15.04206069552996
 30
0.0
 10
195.1933101388426
 20
15.114654426059
 30
0.0
 10
195.2090326429876
 20
15.18150469436799
 30
0.0
 10
195.1432708132492
 20
15.16580512490826
 30
0.0
 10
195.0756367830764
 20
15.17609243083996
 30
0.0
 10
194.9615885293811
 20
15.17113786847123
 30
0.0
 10
194.8451242674903
 20
15.17414128030476
 30
0.0
 10
194.7306554121478
 20
15.1688030314339
 30
0.0
 10
194.6640324657813
 20
15.18001268074825
 30
0.0
 10
194.5990769715186
 20
15.16349132665012
 30
0.0
 10
194.610798975871
 20
15.21473720477059
 30
0.0
 10
194.6032830189121
 20
15.25950333784091
 30
0.0
 10
194.6107989878837
 20
15.30426944897961
 30
0.0
 10
194.5990769505347
 20
15.3555153612974
 30
0.0
 10
194.6640326339201
 20
15.33899381766816
 30
0.0
 10
194.7306533339821
 20
15.35020571373943
 30
0.0
 10
194.8451352858065
 20
15.34485436710665
 30
0.0
 10
194.9615454436963
 20
15.34791188771117
 30
0.0
 10
195.0757660174641
 20
15.34278499010708
 30
0.0
 10
195.1430150439228
 20
15.35345733355599
 30
0.0
 10
195.2083325941439
 20
15.33742082669076
 30
0.0
 10
195.1941391448553
 20
15.39949685750054
 30
0.0
 10
195.2036059462996
 20
15.46586761628762
 30
0.0
 10
195.1990269004085
 20
15.58239972741966
 30
0.0
 10
195.2007696555949
 20
15.71426685022376
 30
0.0
 10
195.1997551495392
 20
15.85615960150273
 30
0.0
 10
195.2017191344372
 20
15.9876905070258
 30
0.0
 10
195.1964668553852
 20
16.10524577283002
 30
0.0
 10
195.2073408763474
 20
16.16947789001584
 30
0.0
 10
195.1919536641855
 20
16.23108802545047
 30
0.0
 10
195.2407591537801
 20
16.21702407382111
 30
0.0
 10
195.2853995564727
 20
16.21954742075314
 30
0.0
 10
195.3538643946743
 20
16.21512797401709
 30
0.0
 10
195.3959106169104
 20
16.20613025544036
 30
0.0
 10
195.4487544758776
 20
16.21411714866509
 30
0.0
 10
195.4207035002015
 20
16.17113917611675
 30
0.0
 10
195.3749142248595
 20
16.18259552043836
 30
0.0
 10
195.3869539073265
 20
16.12173520005136
 30
0.0
 10
195.3796086070643
 20
16.05769299468773
 30
0.0
 10
195.3831195826162
 20
15.94909368863911
 30
0.0
 10
195.3819806760175
 20
15.82494319144753
 30
0.0
 10
195.3819174780263
 20
15.69189719829878
 30
0.0
 10
195.3832872966868
 20
15.56797381249555
 30
0.0
 10
195.3791638801314
 20
15.45868337849339
 30
0.0
 10
195.3877763103565
 20
15.3960858009417
 30
0.0
 10
195.3746757454402
 20
15.33740133296365
 30
0.0
 10
195.4393884328199
 20
15.35362113810902
 30
0.0
 10
195.5060405953157
 20
15.34270260383311
 30
0.0
 10
195.6198779541103
 20
15.34793740173756
 30
0.0
 10
195.7357259122097
 20
15.34485547516913
 30
0.0
 10
195.8496924263281
 20
15.35018259812513
 30
0.0
 10
195.9160341018099
 20
15.33904208166542
 30
0.0
 10
195.9807188525481
 20
15.35546979593177
 30
0.0
 10
195.9689820772722
 20
15.3042592521005
 30
0.0
 10
195.9765168063042
 20
15.25950334121001
 30
0.0
 10
195.9689820992259
 20
15.21474739010028
 30
0.0
 10
195.9807188140737
 20
15.16353690871042
 30
0.0
 10
195.9160344075253
 20
15.1799642779422
 30
0.0
 10
195.8496886430826
 20
15.16882784447271
 30
0.0
 10
195.7357459487013
 20
15.17413115893121
 30
0.0
 10
195.6197995623055
 20
15.17114764593545
 30
0.0
 10
195.5062756882124
 20
15.17606892268394
 30
0.0
 10
195.4389231318805
 20
15.16585087513521
 30
0.0
 10
195.3734285122496
 20
15.18145996138817
 30
0.0
 10
195.3891713619218
 20
15.11463851827412
 30
0.0
 10
195.3783275998215
 20
15.04207057815879
 30
0.0
 10
195.3836581629793
 20
14.91162247614417
 30
0.0
 10
195.3817136151856
 20
14.76064558185226
 30
0.0
 10
195.3823133683214
 20
14.59322243934158
 30
0.0
 10
195.3821506559606
 20
14.42656176118372
 30
0.0
 10
195.3821895488136
 20
14.27360142921636
 30
0.0
 10
195.38218164131
 20
14.14849178985705
 30
0.0
 10
195.3821828382745
 20
14.0650789099142
 30
0.0
 10
195.3821827716209
 20
14.02491778281976
 30
0.0
 10
195.3821827564384
 20
14.01410517385757
 30
0.0
 11
195.3821827564384
 21
14.01410517385757
 31
0.0
 11
195.4100014883675
 21
14.01410517385757
 31
0.0
 11
195.4833417816353
 21
14.01410517385757
 31
0.0
 11
195.5870297824623
 21
14.01410517385757
 31
0.0
 11
195.7058916370687
 21
14.01410517385757
 31
0.0
 11
195.8247534916752
 21
14.01410517385757
 31
0.0
 11
195.9284414925021
 21
14.01410517385757
 31
0.0
 11
196.0017817857699
 21
14.01410517385757
 31
0.0
 11
196.0296005176991
 21
14.01410517385757
 31
0.0
 11
196.0296005176991
 21
13.9865168492117
 31
0.0
 11
196.0296005176991
 21
13.92582253499077
 31
0.0
 11
196.0296005176991
 21
13.86512822076984
 31
0.0
 11
196.0296005176991
 21
13.83753989612397
 31
0.0
 11
195.9994901593494
 21
13.83753989612397
 31
0.0
 11
195.9162438745005
 21
13.83753989612397
 31
0.0
 11
195.7904888484522
 21
13.83753989612397
 31
0.0
 11
195.6328522665042
 21
13.83753989612397
 31
0.0
 11
195.4539613139565
 21
13.83753989612397
 31
0.0
 11
195.2644431761089
 21
13.83753989612397
 31
0.0
 11
195.0749250382614
 21
13.83753989612397
 31
0.0
 11
194.8960340857137
 21
13.83753989612397
 31
0.0
 11
194.7383975037657
 21
13.83753989612397
 31
0.0
 11
194.6126424777173
 21
13.83753989612397
 31
0.0
 11
194.5293961928684
 21
13.83753989612397
 31
0.0
 11
194.4992858345188
 21
13.83753989612397
 31
0.0
 11
194.4992858345188
 21
13.86512822076984
 31
0.0
 11
194.4992858345188
 21
13.92582253499077
 31
0.0
 11
194.4992858345188
 21
13.9865168492117
 31
0.0
 11
194.4992858345188
 21
14.01410517385757
 31
0.0
 11
194.5294068064948
 21
14.01410517385757
 31
0.0
 11
194.6088166417041
 21
14.01410517385757
 31
0.0
 11
194.7210857190691
 21
14.01410517385757
 31
0.0
 11
194.8497844175118
 21
14.01410517385757
 31
0.0
 11
194.9784831159546
 21
14.01410517385757
 31
0.0
 11
195.0907521933196
 21
14.01410517385757
 31
0.0
 11
195.1701620285289
 21
14.01410517385757
 31
0.0
 11
195.2002830005049
 21
14.01410517385757
 31
0.0
 11
195.2002830005049
 21
14.04654305523835
 31
0.0
 11
195.2002830005049
 21
14.1345887332719
 31
0.0
 11
195.2002830005049
 21
14.26434025879503
 31
0.0
 11
195.2002830005049
 21
14.42189568264454
 31
0.0
 11
195.2002830005049
 21
14.59335305565724
 31
0.0
 11
195.2002830005049
 21
14.76481042866994
 31
0.0
 11
195.2002830005049
 21
14.92236585251945
 31
0.0
 11
195.2002830005049
 21
15.05211737804258
 31
0.0
 11
195.2002830005049
 21
15.14016305607613
 31
0.0
 11
195.2002830005049
 21
15.17260093745691
 31
0.0
 11
195.1673826485529
 21
15.17260093745691
 31
0.0
 11
195.0825343724663
 21
15.17260093745691
 31
0.0
 11
194.9665173418989
 21
15.17260093745691
 31
0.0
 11
194.8401107265045
 21
15.17260093745691
 31
0.0
 11
194.7240936959371
 21
15.17260093745691
 31
0.0
 11
194.6392454198505
 21
15.17260093745691
 31
0.0
 11
194.6063450678985
 21
15.17260093745691
 31
0.0
 11
194.6063450678985
 21
15.19975793614803
 31
0.0
 11
194.6063450678985
 21
15.2595033332685
 31
0.0
 11
194.6063450678985
 21
15.31924873038898
 31
0.0
 11
194.6063450678985
 21
15.3464057290801
 31
0.0
 11
194.6392454198505
 21
15.3464057290801
 31
0.0
 11
194.7240936959371
 21
15.3464057290801
 31
0.0
 11
194.8401107265045
 21
15.3464057290801
 31
0.0
 11
194.9665173418989
 21
15.3464057290801
 31
0.0
 11
195.0825343724663
 21
15.3464057290801
 31
0.0
 11
195.1673826485529
 21
15.3464057290801
 31
0.0
 11
195.2002830005049
 21
15.3464057290801
 31
0.0
 11
195.2002830005049
 21
15.3765001173137
 31
0.0
 11
195.2002830005049
 21
15.45715307777974
 31
0.0
 11
195.2002830005049
 21
15.57391930412609
 31
0.0
 11
195.2002830005049
 21
15.71235349000063
 31
0.0
 11
195.2002830005049
 21
15.85801032905124
 31
0.0
 11
195.2002830005049
 21
15.99644451492578
 31
0.0
 11
195.2002830005049
 21
16.11321074127214
 31
0.0
 11
195.2002830005049
 21
16.19386370173817
 31
0.0
 11
195.2002830005049
 21
16.22395808997177
 31
0.0
 11
195.2250405288619
 21
16.22228324219442
 31
0.0
 11
195.284077711867
 21
16.21828937441765
 31
0.0
 11
195.3545414464215
 21
16.21352249997441
 31
0.0
 11
195.4135786294266
 21
16.20952863219765
 31
0.0
 11
195.4383361577836
 21
16.20785378442029
 31
0.0
 11
195.4233067224031
 21
16.1841581420651
 31
0.0
 11
195.3821827564384
 21
16.17047697887404
 31
0.0
 11
195.3821827564384
 21
16.14221664794832
 31
0.0
 11
195.3821827564384
 21
16.0664789610674
 31
0.0
 11
195.3821827564384
 21
15.95682887707561
 31
0.0
 11
195.3821827564384
 21
15.82683135481731
 31
0.0
 11
195.3821827564384
 21
15.69005135313683
 31
0.0
 11
195.3821827564384
 21
15.56005383087853
 31
0.0
 11
195.3821827564384
 21
15.45040374688674
 31
0.0
 11
195.3821827564384
 21
15.37466606000582
 31
0.0
 11
195.3821827564384
 21
15.3464057290801
 31
0.0
 11
195.4149350096116
 21
15.3464057290801
 31
0.0
 11
195.4994013467423
 21
15.3464057290801
 31
0.0
 11
195.6148961342477
 21
15.3464057290801
 31
0.0
 11
195.7407337385446
 21
15.3464057290801
 31
0.0
 11
195.8562285260499
 21
15.3464057290801
 31
0.0
 11
195.9406948631807
 21
15.3464057290801
 31
0.0
 11
195.9734471163539
 21
15.3464057290801
 31
0.0
 11
195.9734471163539
 21
15.31924873038898
 31
0.0
 11
195.9734471163539
 21
15.2595033332685
 31
0.0
 11
195.9734471163539
 21
15.19975793614803
 31
0.0
 11
195.9734471163539
 21
15.17260093745691
 31
0.0
 11
195.9406948631807
 21
15.17260093745691
 31
0.0
 11
195.85622852605
 21
15.17260093745691
 31
0.0
 11
195.7407337385446
 21
15.17260093745691
 31
0.0
 11
195.6148961342477
 21
15.17260093745691
 31
0.0
 11
195.4994013467423
 21
15.17260093745691
 31
0.0
 11
195.4149350096116
 21
15.17260093745691
 31
0.0
 11
195.3821827564384
 21
15.17260093745691
 31
0.0
 11
195.3821827564384
 21
15.14016305607613
 31
0.0
 11
195.3821827564384
 21
15.05211737804258
 31
0.0
 11
195.3821827564384
 21
14.92236585251945
 31
0.0
 11
195.3821827564384
 21
14.76481042866994
 31
0.0
 11
195.3821827564384
 21
14.59335305565724
 31
0.0
 11
195.3821827564384
 21
14.42189568264454
 31
0.0
 11
195.3821827564384
 21
14.26434025879503
 31
0.0
 11
195.3821827564384
 21
14.1345887332719
 31
0.0
 11
195.3821827564384
 21
14.04654305523835
 31
0.0
 11
195.3821827564384
 21
14.01410517385757
 31
0.0
  0
SPLINE
  5
A5
102
{ACAD_REACTORS
330
C2
102
}
330
49
100
AcDbEntity
  8
_U_30EC_U_30A4_U_30E4_U_30FC_1
  6
Continuous
 62
     2
100
AcDbSpline
210
0.0
220
0.0
230
1.0
 70
    11
 71
     3
 72
   131
 73
   127
 74
   125
 42
0.000000001
 43
0.0000000001
 44
0.00000001
 40
0.0
 40
0.0
 40
0.0
 40
0.0
 40
0.0195577029826009
 40
0.0426490537460554
 40
0.2863607575855492
 40
0.5344948436188649
 40
0.7842238845572378
 40
0.8737315789466329
 40
0.9803832810311826
 40
1.092842274516928
 40
1.199761146656687
 40
1.289788768186415
 40
1.351573580786109
 40
1.370727117561354
 40
1.416400936017764
 40
1.470914848355892
 40
1.516588666791681
 40
1.535742203552762
 40
1.634216592293113
 40
1.76028334117495
 40
1.897966686682077
 40
2.031216387368922
 40
2.049689751137915
 40
2.101115601646852
 40
2.179502577739969
 40
2.278859318314083
 40
2.393194462258741
 40
2.516516648383854
 40
2.642834515405983
 40
2.766156701983485
 40
2.8804918467546
 40
2.979848588358642
 40
3.05823556544382
 40
3.109661416668974
 40
3.12813478070415
 40
3.146783742386466
 40
3.191254343315299
 40
3.244332157315901
 40
3.288802758225776
 40
3.307451719895047
 40
3.327717853844661
 40
3.383747753580019
 40
3.46838866592441
 40
3.574487837698719
 40
3.694892515728823
 40
3.822449946851961
 40
3.95000737792035
 40
4.070412055800443
 40
4.176511227367998
 40
4.261152139501444
 40
4.317182039076638
 40
4.337448172964557
 40
4.620011002696151
 40
4.885096638397416
 40
4.945373043518218
 40
5.014107710488565
 40
5.070481727651947
 40
5.319246955636425
 40
5.584812164505917
 40
5.859000912056788
 40
6.133746937541954
 40
6.401732212968756
 40
6.420736683995376
 40
6.472845717450969
 40
6.550702743893954
 40
6.646951193874163
 40
6.754234497930486
 40
6.865196086587293
 40
6.972479390357751
 40
7.068727839771942
 40
7.146584865450951
 40
7.19869389818918
 40
7.217698368905321
 40
7.234950401630798
 40
7.27608986426984
 40
7.325191803515947
 40
7.366331266090331
 40
7.383583298769681
 40
7.402779163492086
 40
7.453386443254489
 40
7.524934666445519
 40
7.606953361405859
 40
7.688972056429039
 40
7.76052027978429
 40
7.81112755973456
 40
7.830323424546181
 40
7.847844055299811
 40
7.894799345666852
 40
7.96277939274454
 40
8.043374293560587
 40
8.128174145149494
 40
8.208769044817299
 40
8.276749090376999
 40
8.323704379669557
 40
8.341225010056291
 40
8.358497614800468
 40
8.401679126686673
 40
8.457815092185703
 40
8.513951057728164
 40
8.557132569708092
 40
8.574405174505134
 40
8.60234066861651
 40
8.643455660540132
 40
8.6632252719668
 40
8.715345156564448
 40
8.789031889628783
 40
8.873502045520512
 40
8.957972194324135
 40
9.031658925568026
 40
9.083778811234717
 40
9.10354842300318
 40
9.119550083123716
 40
9.160817522380018
 40
9.217244429110384
 40
9.27872449164487
 40
9.335151398295654
 40
9.37641883735795
 40
9.392420497300737
 40
9.401196302734956
 40
9.417494229384431
 40
9.426270027749704
 40
9.440875075477736
 40
9.475702496998915
 40
9.517270709866077
 40
9.552098131994244
 40
9.566703169884452
 40
9.566703169884452
 40
9.566703169884452
 40
9.566703169884452
 10
194.6170254148479
 20
15.67015871511028
 30
0.0
 10
194.6134345093371
 20
15.66453690702159
 30
0.0
 10
194.6056039123625
 20
15.65227754419114
 30
0.0
 10
194.5129968974547
 20
15.61601916040957
 30
0.0
 10
194.4887622233249
 20
15.40148444212715
 30
0.0
 10
194.3858709845939
 20
15.2219728450971
 30
0.0
 10
194.1220492364307
 20
15.03615573798147
 30
0.0
 10
194.2845471569181
 20
14.9595933656608
 30
0.0
 10
194.3607225760839
 20
14.89856693195442
 30
0.0
 10
194.4492171072759
 20
14.83515804544759
 30
0.0
 10
194.5389930233111
 20
14.7752563421956
 30
0.0
 10
194.5883817636048
 20
14.72102154849209
 30
0.0
 10
194.6745708157383
 20
14.69286240541833
 30
0.0
 10
194.641126067423
 20
14.65713309652812
 30
0.0
 10
194.6214671166311
 20
14.62550387991907
 30
0.0
 10
194.5919888217883
 20
14.58475872796069
 30
0.0
 10
194.5688989446032
 20
14.55504663489643
 30
0.0
 10
194.5380205968358
 20
14.50211422668495
 30
0.0
 10
194.4729193365741
 20
14.62740334938901
 30
0.0
 10
194.3796000122416
 20
14.68213900233937
 30
0.0
 10
194.2950636285139
 20
14.7391642393934
 30
0.0
 10
194.1722498125741
 20
14.89675287427523
 30
0.0
 10
194.1764450847301
 20
14.82035806766837
 30
0.0
 10
194.1751478652677
 20
14.77361280161296
 30
0.0
 10
194.1758126448076
 20
14.695847858126
 30
0.0
 10
194.1755549986957
 20
14.59902068324423
 30
0.0
 10
194.1756431239921
 20
14.48650279078809
 30
0.0
 10
194.1756077302282
 20
14.365240859457
 30
0.0
 10
194.1756511758278
 20
14.24086897858961
 30
0.0
 10
194.1755199942406
 20
14.11967683631337
 30
0.0
 10
194.1759477562046
 20
14.00691148919743
 30
0.0
 10
194.174667820231
 20
13.91082913768744
 30
0.0
 10
194.1779759851044
 20
13.831138264687
 30
0.0
 10
194.1715197740086
 20
13.78815175788784
 30
0.0
 10
194.1806208705556
 20
13.74955432372043
 30
0.0
 10
194.1447910339935
 20
13.7581088772407
 30
0.0
 10
194.1115223815253
 20
13.75342519985447
 30
0.0
 10
194.0604562576041
 20
13.75351298759784
 30
0.0
 10
194.0269723972813
 20
13.75794430283821
 30
0.0
 10
193.9907585408754
 20
13.74960793842508
 30
0.0
 10
194.0009782568666
 20
13.79145277179284
 30
0.0
 10
193.9936487887773
 20
13.83778560820173
 30
0.0
 10
193.9973633136103
 20
13.92374831106014
 30
0.0
 10
193.9959480554897
 20
14.02605142704849
 30
0.0
 10
193.9964105554639
 20
14.14453223931512
 30
0.0
 10
193.9962773686231
 20
14.26957683153356
 30
0.0
 10
193.9963015910045
 20
14.3947582810705
 30
0.0
 10
193.9963354925552
 20
14.51286645379058
 30
0.0
 10
193.9962060293133
 20
14.61628748709516
 30
0.0
 10
193.9965507549082
 20
14.69932036153667
 30
0.0
 10
193.9958698278691
 20
14.75143368521243
 30
0.0
 10
193.9994586600623
 20
14.8791290782136
 30
0.0
 10
193.7826171386438
 20
14.5804871681962
 30
0.0
 10
193.6021354921952
 20
14.35263981511513
 30
0.0
 10
193.5490322295612
 20
14.49373443289816
 30
0.0
 10
193.520042913315
 20
14.54325767560941
 30
0.0
 10
193.4196648062822
 20
14.6464177979011
 30
0.0
 10
193.7405127723262
 20
14.72695035023781
 30
0.0
 10
193.868989700543
 20
14.91066283036436
 30
0.0
 10
194.090645432536
 20
15.11931995771761
 30
0.0
 10
194.1770224894069
 20
15.29339211228346
 30
0.0
 10
194.4549394229075
 20
15.56967051342513
 30
0.0
 10
194.3346247839285
 20
15.56534559551115
 30
0.0
 10
194.2863197351349
 20
15.56614856202554
 30
0.0
 10
194.2102377454906
 20
15.56574582146585
 30
0.0
 10
194.116701000975
 20
15.5659027561161
 30
0.0
 10
194.0117594788557
 20
15.56582502576225
 30
0.0
 10
193.9033887738718
 20
15.56595464378556
 30
0.0
 10
193.7981454235897
 20
15.56554393490692
 30
0.0
 10
193.7056237819413
 20
15.56682073671592
 30
0.0
 10
193.6268130800707
 20
15.5634076653485
 30
0.0
 10
193.5839674565378
 20
15.57023350036321
 30
0.0
 10
193.5449499586516
 20
15.56065064201124
 30
0.0
 10
193.5526365271863
 20
15.59420779565543
 30
0.0
 10
193.5485464404312
 20
15.62523550322234
 30
0.0
 10
193.5485531368814
 20
15.672365292709
 30
0.0
 10
193.5526239724911
 20
15.70340941646779
 30
0.0
 10
193.5449495574583
 20
15.73701861635902
 30
0.0
 10
193.5834819405495
 20
15.72748410420872
 30
0.0
 10
193.624122801448
 20
15.73397435498071
 30
0.0
 10
193.6951471850463
 20
15.73100150650254
 30
0.0
 10
193.7729318149634
 20
15.73174761399158
 30
0.0
 10
193.8507292246474
 20
15.73247814044525
 30
0.0
 10
193.9217232089908
 20
15.7295423551416
 30
0.0
 10
193.9624279791821
 20
15.73595468772952
 30
0.0
 10
194.000985348991
 20
15.72650524176004
 30
0.0
 10
193.9927342754929
 20
15.76264692158784
 30
0.0
 10
193.9982346669358
 20
15.80129837613227
 30
0.0
 10
193.9955754206164
 20
15.86913528561839
 30
0.0
 10
193.9965815471535
 20
15.9459164153874
 30
0.0
 10
193.996017801832
 20
16.02849393582757
 30
0.0
 10
193.9970714526593
 20
16.10517329229878
 30
0.0
 10
193.9942675863131
 20
16.17331990776699
 30
0.0
 10
194.0000702721305
 20
16.21132399809347
 30
0.0
 10
193.9915654551159
 20
16.24758448077646
 30
0.0
 10
194.0255610233125
 20
16.23755723771852
 30
0.0
 10
194.05945756831
 20
16.24073266813706
 30
0.0
 10
194.1126669060347
 20
16.23508965640609
 30
0.0
 10
194.1660768574484
 20
16.23434774436425
 30
0.0
 10
194.1995914649491
 20
16.22819223482981
 30
0.0
 10
194.238808618304
 20
16.23346029773592
 30
0.0
 10
194.2120263698492
 20
16.19253380793487
 30
0.0
 10
194.1708111001724
 20
16.20371204538113
 30
0.0
 10
194.1782641540873
 20
16.15867056192124
 30
0.0
 10
194.1742227952185
 20
16.11412278028144
 30
0.0
 10
194.176171404964
 20
16.04223572621703
 30
0.0
 10
194.1752364849758
 20
15.96168630588771
 30
0.0
 10
194.176510719003
 20
15.88173995404994
 30
0.0
 10
194.1732043793863
 20
15.80841837083183
 30
0.0
 10
194.1802106179961
 20
15.76688643002568
 30
0.0
 10
194.1701440380126
 20
15.72752418568113
 30
0.0
 10
194.2029814803921
 20
15.73468063430981
 30
0.0
 10
194.236457729648
 20
15.73027243137945
 30
0.0
 10
194.2915053476019
 20
15.73217943347897
 30
0.0
 10
194.3489502595314
 20
15.73185366407288
 30
0.0
 10
194.4023026248309
 20
15.73106308733081
 30
0.0
 10
194.4398540896638
 20
15.73313959118074
 30
0.0
 10
194.4623172523237
 20
15.73022338167109
 30
0.0
 10
194.4751678073731
 20
15.73572552644056
 30
0.0
 10
194.4858255685888
 20
15.7380111819779
 30
0.0
 10
194.4986635650143
 20
15.74494972588052
 30
0.0
 10
194.5145991033071
 20
15.72853046313672
 30
0.0
 10
194.5410623920891
 20
15.71709122319449
 30
0.0
 10
194.5726805253757
 20
15.6964468783519
 30
0.0
 10
194.5987255892151
 20
15.68116869628295
 30
0.0
 10
194.6128517723973
 20
15.67266976323184
 30
0.0
 10
194.6170254148479
 20
15.67015871511028
 30
0.0
 11
194.6170254148479
 21
15.67015871511028
 31
0.0
 11
194.6049990002244
 21
15.65473571164188
 31
0.0
 11
194.5848961795566
 21
15.64337406233918
 31
0.0
 11
194.4778986355815
 21
15.42440620231159
 31
0.0
 11
194.3477039934325
 21
15.21317201512161
 31
0.0
 11
194.1996540366072
 21
15.01206059027479
 31
0.0
 11
194.2734958253736
 21
14.96147384935379
 31
0.0
 11
194.3605664311801
 21
14.89988411653739
 31
0.0
 11
194.4518003750405
 21
14.83413160594426
 31
0.0
 11
194.5381321779688
 21
14.77105653169304
 31
0.0
 11
194.6104963609788
 21
14.71749910790242
 31
0.0
 11
194.6598274450844
 21
14.68029954869104
 31
0.0
 11
194.6486940702214
 21
14.66471410869494
 31
0.0
 11
194.6221452532404
 21
14.62754882870424
 31
0.0
 11
194.5904579555534
 21
14.58319026871533
 31
0.0
 11
194.5639091385724
 21
14.54602498872462
 31
0.0
 11
194.5527757637094
 21
14.53043954872852
 31
0.0
 11
194.4807013362948
 21
14.59754008690618
 31
0.0
 11
194.3852856985382
 21
14.67993354174669
 31
0.0
 11
194.279326415217
 21
14.76785017366916
 31
0.0
 11
194.175621051109
 21
14.85152024309267
 31
0.0
 11
194.175621051109
 21
14.83304687900863
 31
0.0
 11
194.175621051109
 21
14.78162102763955
 31
0.0
 11
194.175621051109
 21
14.70323405030999
 31
0.0
 11
194.175621051109
 21
14.60387730834449
 31
0.0
 11
194.175621051109
 21
14.4895421630676
 31
0.0
 11
194.175621051109
 21
14.36621997580389
 31
0.0
 11
194.175621051109
 21
14.2399021078779
 31
0.0
 11
194.175621051109
 21
14.11657992061419
 31
0.0
 11
194.175621051109
 21
14.0022447753373
 31
0.0
 11
194.175621051109
 21
13.9028880333718
 31
0.0
 11
194.175621051109
 21
13.82450105604223
 31
0.0
 11
194.175621051109
 21
13.77307520467316
 31
0.0
 11
194.175621051109
 21
13.75460184058912
 31
0.0
 11
194.1569720893626
 21
13.75460184058912
 31
0.0
 11
194.112501488275
 21
13.75460184058912
 31
0.0
 11
194.0594236740737
 21
13.75460184058912
 31
0.0
 11
194.014953072986
 21
13.75460184058912
 31
0.0
 11
193.9963041112396
 21
13.75460184058912
 31
0.0
 11
193.9963041112396
 21
13.77486797460219
 31
0.0
 11
193.9963041112396
 21
13.83089787452066
 31
0.0
 11
193.9963041112396
 21
13.91553878716347
 31
0.0
 11
193.9963041112396
 21
14.02163795934953
 31
0.0
 11
193.9963041112396
 21
14.14204263789775
 31
0.0
 11
193.9963041112396
 21
14.26960006962705
 31
0.0
 11
193.9963041112396
 21
14.39715750135636
 31
0.0
 11
193.9963041112396
 21
14.51756217990458
 31
0.0
 11
193.9963041112396
 21
14.62366135209064
 31
0.0
 11
193.9963041112396
 21
14.70830226473344
 31
0.0
 11
193.9963041112396
 21
14.76433216465193
 31
0.0
 11
193.9963041112396
 21
14.78459829866499
 31
0.0
 11
193.7883272849482
 21
14.59331998274056
 31
0.0
 11
193.5763486358426
 21
14.43414885430811
 31
0.0
 11
193.5495629014484
 21
14.48814671952095
 31
0.0
 11
193.5138765415025
 21
14.54689140572026
 31
0.0
 11
193.4799697494125
 21
14.59192871537977
 31
0.0
 11
193.6830287742319
 21
14.73563387201055
 31
0.0
 11
193.8818531958261
 21
14.91168423529989
 31
0.0
 11
194.0677041444179
 21
15.11327514524951
 31
0.0
 11
194.2318427502304
 21
15.3336019418611
 31
0.0
 11
194.3655301434865
 21
15.56585996513636
 31
0.0
 11
194.3465256724482
 21
15.56585996513636
 31
0.0
 11
194.2944166389563
 21
15.56585996513636
 31
0.0
 11
194.2165596124448
 21
15.56585996513636
 31
0.0
 11
194.1203111623479
 21
15.56585996513636
 31
0.0
 11
194.0130278580997
 21
15.56585996513636
 31
0.0
 11
193.9020662691345
 21
15.56585996513636
 31
0.0
 11
193.7947829648864
 21
15.56585996513636
 31
0.0
 11
193.6985345147895
 21
15.56585996513636
 31
0.0
 11
193.620677488278
 21
15.56585996513636
 31
0.0
 11
193.568568454786
 21
15.56585996513636
 31
0.0
 11
193.5495639837478
 21
15.56585996513636
 31
0.0
 11
193.5495639837478
 21
15.58311199790982
 31
0.0
 11
193.5495639837478
 21
15.62425146067732
 31
0.0
 11
193.5495639837478
 21
15.67335340010949
 31
0.0
 11
193.5495639837478
 21
15.71449286287699
 31
0.0
 11
193.5495639837478
 21
15.73174489565045
 31
0.0
 11
193.568759848601
 21
15.73174489565045
 31
0.0
 11
193.6193671286684
 21
15.73174489565045
 31
0.0
 11
193.690915352212
 21
15.73174489565045
 31
0.0
 11
193.7729340474937
 21
15.73174489565045
 31
0.0
 11
193.8549527427754
 21
15.73174489565045
 31
0.0
 11
193.926500966319
 21
15.73174489565045
 31
0.0
 11
193.9771082463865
 21
15.73174489565045
 31
0.0
 11
193.9963041112396
 21
15.73174489565045
 31
0.0
 11
193.9963041112396
 21
15.74926552655218
 31
0.0
 11
193.9963041112396
 21
15.79622081736882
 31
0.0
 11
193.9963041112396
 21
15.86420086526753
 31
0.0
 11
193.9963041112396
 21
15.94479576741549
 31
0.0
 11
193.9963041112396
 21
16.02959562097986
 31
0.0
 11
193.9963041112396
 21
16.11019052312782
 31
0.0
 11
193.9963041112396
 21
16.17817057102653
 31
0.0
 11
193.9963041112396
 21
16.22512586184317
 31
0.0
 11
193.9963041112396
 21
16.2426464927449
 31
0.0
 11
194.0135484112112
 21
16.24165806167519
 31
0.0
 11
194.0566591611402
 21
16.23918698400091
 31
0.0
 11
194.1127031360478
 21
16.23597458302435
 31
0.0
 11
194.1687471109555
 21
16.2327621820478
 31
0.0
 11
194.2118578608844
 21
16.23029110437352
 31
0.0
 11
194.229102160856
 21
16.22930267330381
 31
0.0
 11
194.2143774674852
 21
16.2055629337264
 31
0.0
 11
194.175621051109
 21
16.19183767331312
 31
0.0
 11
194.175621051109
 21
16.17206806177293
 31
0.0
 11
194.175621051109
 21
16.11994817680333
 31
0.0
 11
194.175621051109
 21
16.04626144288079
 31
0.0
 11
194.175621051109
 21
15.96179128448179
 31
0.0
 11
194.175621051109
 21
15.87732112608278
 31
0.0
 11
194.175621051109
 21
15.80363439216024
 31
0.0
 11
194.175621051109
 21
15.75151450719064
 31
0.0
 11
194.175621051109
 21
15.73174489565045
 31
0.0
 11
194.1916227112935
 21
15.73174489565045
 31
0.0
 11
194.232890150717
 21
15.73174489565045
 31
0.0
 11
194.2893170576837
 21
15.73174489565045
 31
0.0
 11
194.3507971204981
 21
15.73174489565045
 31
0.0
 11
194.4072240274648
 21
15.73174489565045
 31
0.0
 11
194.4484914668882
 21
15.73174489565045
 31
0.0
 11
194.4644931270728
 21
15.73174489565045
 31
0.0
 11
194.4728206422924
 21
15.73451387455921
 31
0.0
 11
194.4882860277004
 21
15.73965626396118
 31
0.0
 11
194.49661354292
 21
15.74242524286994
 31
0.0
 11
194.5091363776005
 21
15.73490952398294
 31
0.0
 11
194.5389985218386
 21
15.71698742509854
 31
0.0
 11
194.5746404359293
 21
15.69559653288168
 31
0.0
 11
194.6045025801674
 21
15.67767443399729
 31
0.0
 11
194.6170254148479
 21
15.67015871511028
 31
0.0
  0
SPLINE
  5
A6
102
{ACAD_REACTORS
330
C3
102
}
330
49
100
AcDbEntity
  8
_U_30EC_U_30A4_U_30E4_U_30FC_1
  6
Continuous
 62
     2
100
AcDbSpline
210
0.0
220
0.0
230
1.0
 70
    11
 71
     3
 72
    91
 73
    87
 74
    85
 42
0.000000001
 43
0.0000000001
 44
0.00000001
 40
0.0
 40
0.0
 40
0.0
 40
0.0
 40
0.0267532254356701
 40
0.0856103386464102
 40
0.1444674521996621
 40
0.1712206856618514
 40
0.2039416005642536
 40
0.2955601971652484
 40
0.4362601844616918
 40
0.616225284450725
 40
0.8256392189704982
 40
1.054685709844411
 40
1.293548478893531
 40
1.532411247938275
 40
1.76145773879954
 40
1.970871673298508
 40
2.150836773256704
 40
2.291536760495565
 40
2.383155356836643
 40
2.415876284101292
 40
2.442629517487936
 40
2.501486630949066
 40
2.560343744424213
 40
2.587096977826486
 40
2.617068194440914
 40
2.699247336756055
 40
2.822032643466339
 40
2.973822353257868
 40
3.143014704823311
 40
3.318007936879861
 40
3.487200288186723
 40
3.638989997548204
 40
3.761775303794702
 40
3.843954445753037
 40
3.873925662229733
 40
3.890812773500441
 40
3.907699884771592
 40
3.937960767857219
 40
3.980983618142223
 40
4.199085915228381
 40
4.439444339237159
 40
4.677588241260803
 40
5.050698317837689
 40
5.448212454763047
 40
5.8552912180446
 40
6.138575438885283
 40
6.417434507584102
 40
6.444551104393761
 40
6.504207617363037
 40
6.563864130314362
 40
6.590980727103931
 40
6.848609460381335
 40
7.109611990668292
 40
7.352910904445976
 40
7.557830220705364
 40
7.587518925913257
 40
7.652834077375675
 40
7.718149228845634
 40
7.747837934061913
 40
7.854880190300892
 40
7.97651125740342
 40
8.36948789659222
 40
8.757514959223542
 40
9.126072419331004
 40
9.460639380392067
 40
9.746695593035751
 40
9.777569943118543
 40
9.80705032093172
 40
9.830377336128853
 40
9.886003295435929
 40
9.952395569429845
 40
10.0080215287062
 40
10.03134854388212
 40
10.21356951009588
 40
10.42203479292865
 40
10.6615455673106
 40
10.91693789564302
 40
11.15832906556563
 40
11.18982674596618
 40
11.27286608520405
 40
11.3902665303335
 40
11.52484752840883
 40
11.6594285264844
 40
11.77682897161481
 40
11.85986831085678
 40
11.89136598230423
 40
11.89136598230423
 40
11.89136598230423
 40
11.89136598230423
 10
190.7027885008197
 20
14.70699600701772
 30
0.0
 10
190.7028237765289
 20
14.71587847311985
 30
0.0
 10
190.7029366710797
 20
14.74430237047346
 30
0.0
 10
190.7012984568489
 20
14.79409639169803
 30
0.0
 10
190.7069750292912
 20
14.83657564478154
 30
0.0
 10
190.6956928731707
 20
14.88730154856847
 30
0.0
 10
190.7632296979033
 20
14.87012900740109
 30
0.0
 10
190.8388029210701
 20
14.88290227165996
 30
0.0
 10
190.9828357056002
 20
14.87629729457382
 30
0.0
 10
191.1569419185427
 20
14.87888462206466
 30
0.0
 10
191.3639599611005
 20
14.87800591955553
 30
0.0
 10
191.5894688172378
 20
14.87828207920027
 30
0.0
 10
191.8251162293406
 20
14.87818339658662
 30
0.0
 10
192.0607640531349
 20
14.87828184412767
 30
0.0
 10
192.2862717580627
 20
14.87800678190789
 30
0.0
 10
192.4932934632806
 20
14.87888186270735
 30
0.0
 10
192.6673888915289
 20
14.87630522678446
 30
0.0
 10
192.8114492071986
 20
14.88288290449214
 30
0.0
 10
192.8869691915293
 20
14.87016243405604
 30
0.0
 10
192.9545776037031
 20
14.88726400191688
 30
0.0
 10
192.9430840140677
 20
14.8367478580294
 30
0.0
 10
192.9505104581733
 20
14.79253252226501
 30
0.0
 10
192.9428838927986
 20
14.7486796650361
 30
0.0
 10
192.9546489459426
 20
14.69878374479327
 30
0.0
 10
192.8930788491984
 20
14.71393227712512
 30
0.0
 10
192.8256791738672
 20
14.70310665350673
 30
0.0
 10
192.7013004056223
 20
14.70852031626236
 30
0.0
 10
192.5554428236572
 20
14.70649205390785
 30
0.0
 10
192.3893576440086
 20
14.70715777578387
 30
0.0
 10
192.2188412621725
 20
14.70689643521242
 30
0.0
 10
192.051979085539
 20
14.70721553391094
 30
0.0
 10
191.9087346827106
 20
14.70635302590762
 30
0.0
 10
191.7773313869835
 20
14.70863300482988
 30
0.0
 10
191.7239859134658
 20
14.70407704374202
 30
0.0
 10
191.6485188456913
 20
14.70999914992877
 30
0.0
 10
191.6769075779233
 20
14.70094169343353
 30
0.0
 10
191.7033652409543
 20
14.69725912268928
 30
0.0
 10
191.6633522907702
 20
14.66654271968276
 30
0.0
 10
191.571366369187
 20
14.67667591174631
 30
0.0
 10
191.5439396207069
 20
14.43032502247787
 30
0.0
 10
191.4478793967235
 20
14.27499558764374
 30
0.0
 10
191.1917277964474
 20
13.94525417931569
 30
0.0
 10
191.7627537732764
 20
14.08430022210452
 30
0.0
 10
192.0173656320516
 20
14.08291779973362
 30
0.0
 10
192.6279647048618
 20
13.99790569242085
 30
0.0
 10
192.3340698578083
 20
14.29685417558202
 30
0.0
 10
192.013330428652
 20
14.44330856901776
 30
0.0
 10
192.1313543360434
 20
14.50025540818286
 30
0.0
 10
192.1724716466261
 20
14.52420099873349
 30
0.0
 10
192.2156812394411
 20
14.54599758811229
 30
0.0
 10
192.317457409445
 20
14.60928721253907
 30
0.0
 10
192.4328867625248
 20
14.35147151408779
 30
0.0
 10
192.6329591642277
 20
14.21616041113683
 30
0.0
 10
192.7269077387229
 20
14.03792795138881
 30
0.0
 10
192.9558829746392
 20
13.87997821027052
 30
0.0
 10
192.859603184671
 20
13.82915972576299
 30
0.0
 10
192.816795976378
 20
13.79881292523054
 30
0.0
 10
192.771824352878
 20
13.77466130281461
 30
0.0
 10
192.7121720925214
 20
13.72552146747567
 30
0.0
 10
192.6789731061326
 20
13.85997475673607
 30
0.0
 10
192.5582013350797
 20
14.01594265286583
 30
0.0
 10
192.1970976005979
 20
13.88569928059555
 30
0.0
 10
191.8385061955541
 20
13.90224694409483
 30
0.0
 10
191.4570920450081
 20
13.89331229351864
 30
0.0
 10
191.1703455282891
 20
13.82882671672409
 30
0.0
 10
190.8592055599718
 20
13.94230668192822
 30
0.0
 10
190.8268737818788
 20
13.83122259927765
 30
0.0
 10
190.7896178253318
 20
13.81196313850011
 30
0.0
 10
190.7865737632753
 20
13.85874784087295
 30
0.0
 10
190.7679892860607
 20
13.89806853919135
 30
0.0
 10
190.7512436616778
 20
13.95765983478232
 30
0.0
 10
190.7383730915753
 20
14.00201969871284
 30
0.0
 10
190.7042327806428
 20
14.09106331120203
 30
0.0
 10
190.9482714457754
 20
14.02181042943771
 30
0.0
 10
191.1441394486671
 20
14.00030369057746
 30
0.0
 10
191.2395426381277
 20
14.28226484478462
 30
0.0
 10
191.2945135769598
 20
14.44363045421122
 30
0.0
 10
191.5159619357155
 20
14.71391177589735
 30
0.0
 10
191.3849239381218
 20
14.70548446853735
 30
0.0
 10
191.3110026555855
 20
14.70779008496969
 30
0.0
 10
191.1977459876244
 20
14.70671378321658
 30
0.0
 10
191.0694251807485
 20
14.7070763907651
 30
0.0
 10
190.9404252030416
 20
14.70697724466085
 30
0.0
 10
190.8287840946292
 20
14.70699932712572
 30
0.0
 10
190.7514663970028
 20
14.7069957918967
 30
0.0
 10
190.7132876532011
 20
14.70699595845081
 30
0.0
 10
190.7027885008197
 20
14.70699600701772
 30
0.0
 11
190.7027885008197
 21
14.70699600701772
 31
0.0
 11
190.7027885008197
 21
14.73374924051797
 31
0.0
 11
190.7027885008197
 21
14.79260635421853
 31
0.0
 11
190.7027885008197
 21
14.85146346791909
 31
0.0
 11
190.7027885008197
 21
14.87821670141935
 31
0.0
 11
190.735509428099
 21
14.87821670141935
 31
0.0
 11
190.827128024481
 21
14.87821670141935
 31
0.0
 11
190.967828011782
 21
14.87821670141935
 31
0.0
 11
191.1477931118181
 21
14.87821670141935
 31
0.0
 11
191.3572070464055
 21
14.87821670141935
 31
0.0
 11
191.5862535373605
 21
14.87821670141935
 31
0.0
 11
191.8251163064994
 21
14.87821670141935
 31
0.0
 11
192.0639790756382
 21
14.87821670141935
 31
0.0
 11
192.2930255665932
 21
14.87821670141935
 31
0.0
 11
192.5024395011806
 21
14.87821670141935
 31
0.0
 11
192.6824046012168
 21
14.87821670141935
 31
0.0
 11
192.8231045885177
 21
14.87821670141935
 31
0.0
 11
192.9147231848997
 21
14.87821670141935
 31
0.0
 11
192.947444112179
 21
14.87821670141935
 31
0.0
 11
192.947444112179
 21
14.85146346791909
 31
0.0
 11
192.947444112179
 21
14.79260635421853
 31
0.0
 11
192.947444112179
 21
14.73374924051797
 31
0.0
 11
192.947444112179
 21
14.70699600701772
 31
0.0
 11
192.9174728954758
 21
14.70699600701772
 31
0.0
 11
192.8352937529027
 21
14.70699600701772
 31
0.0
 11
192.7125084457641
 21
14.70699600701772
 31
0.0
 11
192.5607187353643
 21
14.70699600701772
 31
0.0
 11
192.3915263830079
 21
14.70699600701772
 31
0.0
 11
192.2165331499992
 21
14.70699600701772
 31
0.0
 11
192.0473407976427
 21
14.70699600701772
 31
0.0
 11
191.8955510872429
 21
14.70699600701772
 31
0.0
 11
191.7727657801043
 21
14.70699600701772
 31
0.0
 11
191.6905866375311
 21
14.70699600701772
 31
0.0
 11
191.660615420828
 21
14.70699600701772
 31
0.0
 11
191.6766359412526
 21
14.70165583340794
 31
0.0
 11
191.6926564616772
 21
14.69631565979815
 31
0.0
 11
191.6706155681421
 21
14.67558114591443
 31
0.0
 11
191.6284861855364
 21
14.6668587153611
 31
0.0
 11
191.5365235541378
 21
14.46909247312657
 31
0.0
 11
191.4279078521764
 21
14.25467511978509
 31
0.0
 11
191.3127500824808
 21
14.0462255905162
 31
0.0
 11
191.6857366675021
 21
14.05582441253029
 31
0.0
 11
192.0830700036151
 21
14.06781232404995
 31
0.0
 11
192.4899342191146
 21
14.08102711828532
 31
0.0
 11
192.2983119496979
 21
14.2896676130248
 31
0.0
 11
192.0966752013699
 21
14.48229420151831
 31
0.0
 11
192.120494779475
 21
14.49525327269564
 31
0.0
 11
192.1728978513062
 21
14.52376322928576
 31
0.0
 11
192.2253009231374
 21
14.55227318587587
 31
0.0
 11
192.2491205012425
 21
14.5652322570532
 31
0.0
 11
192.4387101558627
 21
14.39079508370268
 31
0.0
 11
192.6200310940436
 21
14.20305846374091
 31
0.0
 11
192.7777729231148
 21
14.01782380992436
 31
0.0
 11
192.8966252504059
 21
13.85089253500949
 31
0.0
 11
192.8715408217924
 21
13.83501202286069
 31
0.0
 11
192.8163550788427
 21
13.80007489613332
 31
0.0
 11
192.7611693358929
 21
13.76513776940596
 31
0.0
 11
192.7360849072794
 21
13.74925725725716
 31
0.0
 11
192.6775518151613
 21
13.83887824681809
 31
0.0
 11
192.6050015078458
 21
13.93650288221032
 31
0.0
 11
192.2125412924096
 21
13.91636286943759
 31
0.0
 11
191.8249474069561
 21
13.89803302999773
 31
0.0
 11
191.4567378976213
 21
13.88202178722395
 31
0.0
 11
191.1224308105413
 21
13.86883756444947
 31
0.0
 11
190.8365441918519
 21
13.8589887850075
 31
0.0
 11
190.8211862321741
 21
13.83220523466695
 31
0.0
 11
190.7937434290546
 21
13.82143559057245
 31
0.0
 11
190.7867927192319
 21
13.84370299445577
 31
0.0
 11
190.7702179496548
 21
13.89680218833139
 31
0.0
 11
190.7504351601596
 21
13.96017864553777
 31
0.0
 11
190.7338603905825
 21
14.01327783941338
 31
0.0
 11
190.7269096807598
 21
14.0355452432967
 31
0.0
 11
190.9091199859153
 21
14.03751638912953
 31
0.0
 11
191.1174975848588
 21
14.04356211829472
 31
0.0
 11
191.2303203127216
 21
14.25483550301553
 31
0.0
 11
191.3407936722036
 21
14.48509813155879
 31
0.0
 11
191.4358254265628
 21
14.70699600701772
 31
0.0
 11
191.4043277461598
 21
14.70699600701772
 31
0.0
 11
191.3212884069154
 21
14.70699600701772
 31
0.0
 11
191.2038879617769
 21
14.70699600701772
 31
0.0
 11
191.0693069636912
 21
14.70699600701772
 31
0.0
 11
190.9347259656056
 21
14.70699600701772
 31
0.0
 11
190.8173255204671
 21
14.70699600701772
 31
0.0
 11
190.7342861812227
 21
14.70699600701772
 31
0.0
 11
190.7027885008197
 21
14.70699600701772
 31
0.0
  0
SPLINE
  5
A7
102
{ACAD_REACTORS
330
C4
102
}
330
49
100
AcDbEntity
  8
_U_30EC_U_30A4_U_30E4_U_30FC_1
  6
Continuous
 62
     2
100
AcDbSpline
210
0.0
220
0.0
230
1.0
 70
    11
 71
     3
 72
    35
 73
    31
 74
    29
 42
0.000000001
 43
0.0000000001
 44
0.00000001
 40
0.0
 40
0.0
 40
0.0
 40
0.0
 40
0.0335231036620645
 40
0.0713218571712051
 40
0.4278866681486656
 40
0.811686584196369
 40
1.198190238000006
 40
1.561379546812689
 40
1.65998317462205
 40
1.75931557380723
 40
2.132719617231064
 40
2.525233363588794
 40
2.910815397779685
 40
3.265244364303308
 40
3.592606723581993
 40
3.964386154603943
 40
4.359942131737764
 40
4.758154118639269
 40
4.843846538699862
 40
4.936650065543203
 40
5.256616602537306
 40
5.58170740441604
 40
5.899719158308135
 40
6.198363494280722
 40
6.466301046615768
 40
6.49389531153709
 40
6.559697020196882
 40
6.638234543442457
 40
6.704036252154238
 40
6.731630508423016
 40
6.731630508423016
 40
6.731630508423016
 40
6.731630508423016
 10
191.973601056867
 20
16.23463843719134
 30
0.0
 10
191.967600609779
 20
16.22480690542323
 30
0.0
 10
191.9548344099158
 20
16.20388988579798
 30
0.0
 10
191.7949362006554
 20
16.17127126532688
 30
0.0
 10
192.2322025842338
 20
15.88206680336701
 30
0.0
 10
192.4345394828262
 20
15.6804113835844
 30
0.0
 10
192.6819564267973
 20
15.43749387603273
 30
0.0
 10
193.1831513624607
 20
15.36047662757777
 30
0.0
 10
193.012556219897
 20
15.21876939174653
 30
0.0
 10
192.9383299463202
 20
15.01710366209115
 30
0.0
 10
192.6131432248188
 20
15.36956287174723
 30
0.0
 10
192.3277741670664
 20
15.53175212559563
 30
0.0
 10
192.0337604077658
 20
15.73687130053048
 30
0.0
 10
191.8084452691134
 20
16.21827488595455
 30
0.0
 10
191.5993085055522
 20
15.7534304660922
 30
0.0
 10
191.3207873674835
 20
15.54350952252912
 30
0.0
 10
191.037138317721
 20
15.37424456359986
 30
0.0
 10
190.7078639527832
 20
15.00142360907935
 30
0.0
 10
190.6277012318225
 20
15.19708014459004
 30
0.0
 10
190.4759724909744
 20
15.32491104190594
 30
0.0
 10
190.9083395826795
 20
15.40454031765935
 30
0.0
 10
191.0962565329767
 20
15.60026634915473
 30
0.0
 10
191.3468477420503
 20
15.81632996916754
 30
0.0
 10
191.5714350470162
 20
15.98190992300061
 30
0.0
 10
191.6259775409713
 20
16.26133964636827
 30
0.0
 10
191.7494661029013
 20
16.24737950408078
 30
0.0
 10
191.8060273344521
 20
16.24521268867647
 30
0.0
 10
191.8761870984945
 20
16.2404685988136
 30
0.0
 10
191.9333414022107
 20
16.23709429350542
 30
0.0
 10
191.964419032084
 20
16.23519854711119
 30
0.0
 10
191.973601056867
 20
16.23463843719134
 30
0.0
 11
191.973601056867
 21
16.23463843719134
 31
0.0
 11
191.9525319069885
 21
16.20856374969785
 31
0.0
 11
191.9174464559426
 21
16.19450114553469
 31
0.0
 11
192.1512374769095
 21
15.92527961131382
 31
0.0
 11
192.4414585957567
 21
15.6741340796926
 31
0.0
 11
192.7612797483684
 21
15.45710987618784
 31
0.0
 11
193.083870870629
 21
15.29025232631636
 31
0.0
 11
193.0213299868077
 21
15.21402035584928
 31
0.0
 11
192.9688035818975
 21
15.12971197913424
 31
0.0
 11
192.6436279095814
 21
15.3132640483158
 31
0.0
 11
192.3237227768437
 21
15.54070139743428
 31
0.0
 11
192.0354200158608
 21
15.7967385512331
 31
0.0
 11
191.8050514588095
 21
16.06609003445566
 31
0.0
 11
191.5995531719517
 21
15.81126348721036
 31
0.0
 11
191.3288301341536
 21
15.55645182277756
 31
0.0
 11
191.0119538423247
 21
15.31969466354856
 31
0.0
 11
190.6679957933742
 21
15.11903163191467
 31
0.0
 11
190.6218855341339
 21
15.19126067703553
 31
0.0
 11
190.5636970460349
 21
15.26355586798967
 31
0.0
 11
190.8433040489016
 21
15.41911456961745
 31
0.0
 11
191.1093004621155
 21
15.60601009790405
 31
0.0
 11
191.3499997459747
 21
15.81384496285209
 31
0.0
 11
191.5537153607775
 21
16.03222167446416
 31
0.0
 11
191.7087607668219
 21
16.25074274274287
 31
0.0
 11
191.7363041569866
 21
16.24906789496551
 31
0.0
 11
191.8019845489178
 21
16.24507402718873
 31
0.0
 11
191.8803772747711
 21
16.24030715274548
 31
0.0
 11
191.9460576667023
 21
16.2363132849687
 31
0.0
 11
191.973601056867
 21
16.23463843719134
 31
0.0
  0
SPLINE
  5
A8
102
{ACAD_REACTORS
330
C5
102
}
330
49
100
AcDbEntity
  8
_U_30EC_U_30A4_U_30E4_U_30FC_1
  6
Continuous
 62
     2
100
AcDbSpline
210
0.0
220
0.0
230
1.0
 70
    11
 71
     3
 72
    15
 73
    11
 74
     9
 42
0.000000001
 43
0.0000000001
 44
0.00000001
 40
0.0
 40
0.0
 40
0.0
 40
0.0
 40
0.2785535985096802
 40
0.5215624748198895
 40
0.6076917376040945
 40
0.6938210001741886
 40
0.9405019146455296
 40
1.221691403489209
 40
1.300471877081147
 40
1.379252341684956
 40
1.379252341684956
 40
1.379252341684956
 40
1.379252341684956
 10
189.5681493631
 20
16.22930267330381
 30
0.0
 10
189.6296017794178
 20
16.17691646592716
 30
0.0
 10
189.7446649974114
 20
16.07882876798225
 30
0.0
 10
190.0397348497245
 20
15.92889785897218
 30
0.0
 10
189.9025147631857
 20
15.84343227515015
 30
0.0
 10
189.8041227843778
 20
15.71085785201556
 30
0.0
 10
189.713003359065
 20
16.01616985781424
 30
0.0
 10
189.3636839480656
 20
16.07967869465375
 30
0.0
 10
189.511925837657
 20
16.17896509880879
 30
0.0
 10
189.5494081874237
 20
16.21252348402383
 30
0.0
 10
189.5681493631
 20
16.22930267330381
 30
0.0
 11
189.5681493631
 21
16.22930267330381
 31
0.0
 11
189.7919222440597
 21
16.06341774278972
 31
0.0
 11
189.9695046306384
 21
15.89753281227564
 31
0.0
 11
189.9066308127979
 21
15.83866743034592
 31
0.0
 11
189.8437569949575
 21
15.7798020484162
 31
0.0
 11
189.6688535117725
 21
15.95375677059491
 31
0.0
 11
189.447825685614
 21
16.12757920110703
 31
0.0
 11
189.507987524357
 21
16.17844093720542
 31
0.0
 11
189.5681493631
 21
16.22930267330381
 31
0.0
  0
SPLINE
  5
A9
102
{ACAD_REACTORS
330
C6
102
}
330
49
100
AcDbEntity
  8
_U_30EC_U_30A4_U_30E4_U_30FC_1
  6
Continuous
 62
     2
100
AcDbSpline
210
0.0
220
0.0
230
1.0
 70
    11
 71
     3
 72
    75
 73
    71
 74
    69
 42
0.000000001
 43
0.0000000001
 44
0.00000001
 40
0.0
 40
0.0
 40
0.0
 40
0.0
 40
0.0342546099129691
 40
0.1245622414432346
 40
0.2522385480897518
 40
0.398599192294068
 40
0.5449598364980821
 40
0.6726361431438816
 40
0.762943774673696
 40
0.7971983935297973
 40
1.101723623449631
 40
1.40859124403658
 40
1.433332471690284
 40
1.487763172450081
 40
1.542193873081914
 40
1.566935100592462
 40
1.923523931821775
 40
2.271755704953603
 40
2.590579755100872
 40
2.858943305581185
 40
2.889120339309189
 40
2.918305855191112
 40
2.941366645531233
 40
2.996357760973134
 40
3.061992318140697
 40
3.11698343362689
 40
3.140044223997568
 40
3.411273122936573
 40
3.732441619741266
 40
3.761068217532964
 40
3.83778749963053
 40
3.948858699126167
 40
4.080541049104545
 40
4.219093782625931
 40
4.350776132722483
 40
4.461847332405817
 40
4.538566614678551
 40
4.567193212544799
 40
4.594907573999057
 40
4.666381453557625
 40
4.764111044011235
 40
4.870592538126038
 40
4.968322128642489
 40
5.039796008287203
 40
5.067510369784634
 40
5.094263603185846
 40
5.153120716668479
 40
5.211977830150921
 40
5.238731063551926
 40
5.272290535139193
 40
5.363380529444997
 40
5.497618415781703
 40
5.660621563453917
 40
5.838007341749618
 40
6.015393119910998
 40
6.178396267038595
 40
6.312634151842575
 40
6.403724143059565
 40
6.43728361267266
 40
6.464036846261276
 40
6.52289396000489
 40
6.581751071484149
 40
6.608504301591095
 40
6.637253941281243
 40
6.711397748903122
 40
6.812778057283706
 40
6.923237199249483
 40
7.024617507624098
 40
7.09876131520778
 40
7.12751094600773
 40
7.12751094600773
 40
7.12751094600773
 40
7.12751094600773
 10
188.4418622390565
 20
14.95849128473265
 30
0.0
 10
188.4418622819707
 20
14.9470731340872
 30
0.0
 10
188.441862448113
 20
14.9055525784263
 30
0.0
 10
188.4418593081787
 20
14.82146922003772
 30
0.0
 10
188.4418788279801
 20
14.70004497322329
 30
0.0
 10
188.4417912187738
 20
14.55980494047449
 30
0.0
 10
188.4421116235231
 20
14.42006556794577
 30
0.0
 10
188.4411605909741
 20
14.2974503889493
 30
0.0
 10
188.4431978595968
 20
14.21587074438043
 30
0.0
 10
188.4349433178747
 20
14.06271267077701
 30
0.0
 10
188.7430797940901
 20
14.22560236054719
 30
0.0
 10
189.0350645173736
 20
14.39482938688001
 30
0.0
 10
189.0408354448707
 20
14.25973235781911
 30
0.0
 10
189.0455471719891
 20
14.21617221160444
 30
0.0
 10
189.0482535411919
 20
14.17211249350546
 30
0.0
 10
189.067254567296
 20
14.02272590363134
 30
0.0
 10
188.6583942247303
 20
14.08681172241261
 30
0.0
 10
188.3793710348833
 20
13.97296341411018
 30
0.0
 10
188.1018081587167
 20
13.87364095811137
 30
0.0
 10
187.80998371844
 20
13.91630687596366
 30
0.0
 10
187.7869144678658
 20
13.81321679744541
 30
0.0
 10
187.7537474383333
 20
13.7869109124447
 30
0.0
 10
187.7480653962739
 20
13.83455309036305
 30
0.0
 10
187.7284214559045
 20
13.87180336115069
 30
0.0
 10
187.7095089485623
 20
13.93007387847562
 30
0.0
 10
187.6942849867706
 20
13.97385201007803
 30
0.0
 10
187.6477246372938
 20
14.08759421046315
 30
0.0
 10
187.9890897312448
 20
14.05576301120045
 30
0.0
 10
188.2679649367388
 20
14.02161435106478
 30
0.0
 10
188.2617753034908
 20
14.16913976479652
 30
0.0
 10
188.2630935452775
 20
14.24013150908833
 30
0.0
 10
188.2624831689949
 20
14.34719767958661
 30
0.0
 10
188.2625871570726
 20
14.47398529785998
 30
0.0
 10
188.2629987964057
 20
14.60849243496051
 30
0.0
 10
188.261390784197
 20
14.73395549951185
 30
0.0
 10
188.2659902567926
 20
14.84505246719118
 30
0.0
 10
188.256418650221
 20
14.90761886800689
 30
0.0
 10
188.2704001783692
 20
14.96595388295002
 30
0.0
 10
188.2147384386706
 20
14.95289710582239
 30
0.0
 10
188.1575655197821
 20
14.96136307749499
 30
0.0
 10
188.0616048925648
 20
14.95729976080637
 30
0.0
 10
187.9633767522822
 20
14.95970889852476
 30
0.0
 10
187.867258245756
 20
14.95551600613388
 30
0.0
 10
187.8104648525812
 20
14.96429346441163
 30
0.0
 10
187.7550356873385
 20
14.95094936850123
 30
0.0
 10
187.7670679427918
 20
15.00036910959257
 30
0.0
 10
187.7592003173938
 20
15.04393988030396
 30
0.0
 10
187.766629556383
 20
15.08830469118526
 30
0.0
 10
187.7551930564144
 20
15.13902297763992
 30
0.0
 10
187.8232102370134
 20
15.12162460757743
 30
0.0
 10
187.8968496879747
 20
15.13417450237189
 30
0.0
 10
188.0325064058211
 20
15.12799677011096
 30
0.0
 10
188.1884909024526
 20
15.13029203093085
 30
0.0
 10
188.3615926358144
 20
15.1294096826253
 30
0.0
 10
188.5346942964182
 20
15.13029207142408
 30
0.0
 10
188.6906789811218
 20
15.1279966295555
 30
0.0
 10
188.8263351889797
 20
15.13417486262431
 30
0.0
 10
188.8999756705654
 20
15.12162394218335
 30
0.0
 10
188.9679914174724
 20
15.13902373012143
 30
0.0
 10
188.9565590885923
 20
15.08830130414555
 30
0.0
 10
188.9639539458297
 20
15.04397060811109
 30
0.0
 10
188.9562039912271
 20
15.00028307550196
 30
0.0
 10
188.9681203741877
 20
14.95063590098478
 30
0.0
 10
188.9108170223617
 20
14.96461411338427
 30
0.0
 10
188.8520145789773
 20
14.95539755673255
 30
0.0
 10
188.75252936332
 20
14.9595226816493
 30
0.0
 10
188.6494280098349
 20
14.95822760025888
 30
0.0
 10
188.5537846354575
 20
14.95854077077642
 30
0.0
 10
188.4857467971616
 20
14.95848776697146
 30
0.0
 10
188.4514462213444
 20
14.95849051871657
 30
0.0
 10
188.4418622390565
 20
14.95849128473265
 30
0.0
 11
188.4418622390565
 21
14.95849128473265
 31
0.0
 11
188.4418622390565
 21
14.92423666587186
 31
0.0
 11
188.4418622390565
 21
14.83392903432976
 31
0.0
 11
188.4418622390565
 21
14.7062527276668
 31
0.0
 11
188.4418622390565
 21
14.5598920834434
 31
0.0
 11
188.4418622390565
 21
14.41353143922001
 31
0.0
 11
188.4418622390565
 21
14.28585513255705
 31
0.0
 11
188.4418622390565
 21
14.19554750101495
 31
0.0
 11
188.4418622390565
 21
14.16129288215416
 31
0.0
 11
188.7391932644568
 21
14.22709475713768
 31
0.0
 11
189.0384623627245
 21
14.29496038212072
 31
0.0
 11
189.0405487124976
 21
14.27030727882828
 31
0.0
 11
189.0451386819987
 21
14.2160704515849
 31
0.0
 11
189.0497286514997
 21
14.16183362434152
 31
0.0
 11
189.0518150012729
 21
14.13718052104908
 31
0.0
 11
188.7056396889241
 21
14.05163370140898
 31
0.0
 11
188.3669653138839
 21
13.97060877629901
 31
0.0
 11
188.0563731516688
 21
13.89862764024929
 31
0.0
 11
187.7944444777955
 21
13.84021218778992
 31
0.0
 11
187.7817515029292
 21
13.81283442738013
 31
0.0
 11
187.7569794787514
 21
13.79740260446735
 31
0.0
 11
187.7491867589502
 21
13.81910683390636
 31
0.0
 11
187.7306041194242
 21
13.87086307333786
 31
0.0
 11
187.70842483999
 21
13.93263664943351
 31
0.0
 11
187.689842200464
 21
13.984392888865
 31
0.0
 11
187.6820494806628
 21
14.00609711830401
 31
0.0
 11
187.9482776335932
 21
14.05794001759665
 31
0.0
 11
188.262633493629
 21
14.1237396877191
 31
0.0
 11
188.262633493629
 21
14.15236628569624
 31
0.0
 11
188.262633493629
 21
14.22908556827499
 31
0.0
 11
188.262633493629
 21
14.34015676842631
 31
0.0
 11
188.262633493629
 21
14.47183911912118
 31
0.0
 11
188.262633493629
 21
14.61039185333057
 31
0.0
 11
188.262633493629
 21
14.74207420402543
 31
0.0
 11
188.262633493629
 21
14.85314540417675
 31
0.0
 11
188.262633493629
 21
14.9298646867555
 31
0.0
 11
188.262633493629
 21
14.95849128473265
 31
0.0
 11
188.2349191321109
 21
14.95849128473265
 31
0.0
 11
188.1634452524064
 21
14.95849128473265
 31
0.0
 11
188.0657156617901
 21
14.95849128473265
 31
0.0
 11
187.9592341675365
 21
14.95849128473265
 31
0.0
 11
187.8615045769201
 21
14.95849128473265
 31
0.0
 11
187.7900306972156
 21
14.95849128473265
 31
0.0
 11
187.7623163356976
 21
14.95849128473265
 31
0.0
 11
187.7623163356976
 21
14.9852445182329
 31
0.0
 11
187.7623163356976
 21
15.04410163193345
 31
0.0
 11
187.7623163356976
 21
15.10295874563399
 31
0.0
 11
187.7623163356976
 21
15.12971197913424
 31
0.0
 11
187.7958758072876
 21
15.12971197913424
 31
0.0
 11
187.8869658016031
 21
15.12971197913424
 31
0.0
 11
188.021203687963
 21
15.12971197913424
 31
0.0
 11
188.1842068356856
 21
15.12971197913424
 31
0.0
 11
188.3615926140897
 21
15.12971197913424
 31
0.0
 11
188.5389783924938
 21
15.12971197913424
 31
0.0
 11
188.7019815402165
 21
15.12971197913424
 31
0.0
 11
188.8362194265763
 21
15.12971197913424
 31
0.0
 11
188.9273094208919
 21
15.12971197913424
 31
0.0
 11
188.9608688924819
 21
15.12971197913424
 31
0.0
 11
188.9608688924819
 21
15.10295874563399
 31
0.0
 11
188.9608688924819
 21
15.04410163193344
 31
0.0
 11
188.9608688924819
 21
14.9852445182329
 31
0.0
 11
188.9608688924819
 21
14.95849128473265
 31
0.0
 11
188.9321192527878
 21
14.95849128473265
 31
0.0
 11
188.8579754451555
 21
14.95849128473265
 31
0.0
 11
188.7565951367605
 21
14.95849128473265
 31
0.0
 11
188.6461359947778
 21
14.95849128473265
 31
0.0
 11
188.5447556863828
 21
14.95849128473265
 31
0.0
 11
188.4706118787506
 21
14.95849128473265
 31
0.0
 11
188.4418622390565
 21
14.95849128473265
 31
0.0
  0
SPLINE
  5
AA
102
{ACAD_REACTORS
330
C7
102
}
330
49
100
AcDbEntity
  8
_U_30EC_U_30A4_U_30E4_U_30FC_1
  6
Continuous
 62
     2
100
AcDbSpline
210
0.0
220
0.0
230
1.0
 70
    11
 71
     3
 72
    91
 73
    87
 74
    85
 42
0.000000001
 43
0.0000000001
 44
0.00000001
 40
0.0
 40
0.0
 40
0.0
 40
0.0
 40
0.0345987051695434
 40
0.1258134969461085
 40
0.2547723404888703
 40
0.4026032099153841
 40
0.5504340793416704
 40
0.679392922883608
 40
0.770607714657132
 40
0.8052064287780925
 40
1.124852390615276
 40
1.427402236308871
 40
1.706356627453509
 40
1.955541417875177
 40
2.169485938566322
 40
2.344350786664776
 40
2.480568411561904
 40
2.5904405574289
 40
2.649189927151102
 40
2.749320643306317
 40
2.912632739880018
 40
3.147745656000211
 40
3.244827496385152
 40
3.338490056946791
 40
3.583815413207215
 40
3.761423943238575
 40
3.886956104362751
 40
3.985855451886934
 40
4.091766255337791
 40
4.250186473811984
 40
4.42273431508465
 40
4.628285684838727
 40
4.872093227758571
 40
5.152549652145688
 40
5.464967135837658
 40
5.803201477852578
 40
6.160362988814049
 40
6.193449448276133
 40
6.284170385501787
 40
6.419718138764629
 40
6.587285046385907
 40
6.774063446723793
 40
6.967245678113776
 40
7.15402407881779
 40
7.321590987026148
 40
7.457138740890506
 40
7.547859678556242
 40
7.580946138182802
 40
7.608533084714856
 40
7.669224367077839
 40
7.729915649430064
 40
7.757502595950117
 40
7.790278062553599
 40
7.880146277431069
 40
8.014419963180504
 40
8.180411842398033
 40
8.365434637679503
 40
8.556801071622775
 40
8.741823866830888
 40
8.907815745916455
 40
9.04208943150758
 40
9.131957646249706
 40
9.164733112797283
 40
9.415425063140203
 40
9.667986180958668
 40
9.694169807462806
 40
9.756607686047738
 40
9.831130315322545
 40
9.893568193899952
 40
9.91975182039877
 40
9.950967964690577
 40
9.996421631210742
 40
10.22087981037463
 40
10.4434186619755
 40
10.47847970788863
 40
10.57091337438763
 40
10.70159545461244
 40
10.85140174170372
 40
11.00120802880494
 40
11.131890109074
 40
11.22432377583025
 40
11.25938480938974
 40
11.28697175596163
 40
11.34766303835937
 40
11.40835432042088
 40
11.43594125892123
 40
11.43594125892123
 40
11.43594125892123
 40
11.43594125892123
 10
190.081811433329
 20
15.55242795125076
 30
0.0
 10
190.0702785844942
 20
15.55242790287915
 30
0.0
 10
190.0283409444999
 20
15.55242773704162
 30
0.0
 10
189.9434129719027
 20
15.55243125800908
 30
0.0
 10
189.8207688553129
 20
15.55240926435877
 30
0.0
 10
189.6791206916994
 20
15.55250801177053
 30
0.0
 10
189.537975369849
 20
15.55214686232419
 30
0.0
 10
189.4141351317905
 20
15.55321883609088
 30
0.0
 10
189.3317217825382
 20
15.55092249091267
 30
0.0
 10
189.1727791229693
 20
15.56048569373419
 30
0.0
 10
189.3503402353377
 20
15.19785394311369
 30
0.0
 10
189.3379739205454
 20
14.95243127723114
 30
0.0
 10
189.4064519473866
 20
14.66862501324836
 30
0.0
 10
189.469302432097
 20
14.43250999939034
 30
0.0
 10
189.5452253431729
 20
14.23326740396129
 30
0.0
 10
189.6303189577016
 20
14.07745347451375
 30
0.0
 10
189.7244607592936
 20
13.97657857781392
 30
0.0
 10
189.8282648207727
 20
13.92465852638966
 30
0.0
 10
189.9125872030775
 20
13.97606484379615
 30
0.0
 10
189.9351322179452
 20
14.09144544037517
 30
0.0
 10
189.9745730975372
 20
14.21885149702381
 30
0.0
 10
189.9202919734942
 20
14.53622328086755
 30
0.0
 10
190.0451218072474
 20
14.38982180140904
 30
0.0
 10
190.2019291513604
 20
14.35795300331175
 30
0.0
 10
190.0947720007059
 20
14.12421357767628
 30
0.0
 10
190.0808711209868
 20
13.95972776583655
 30
0.0
 10
190.0234709467227
 20
13.83130869122483
 30
0.0
 10
189.9335020145009
 20
13.76018802352827
 30
0.0
 10
189.8095274657879
 20
13.74432324142254
 30
0.0
 10
189.6634273196861
 20
13.77993797554172
 30
0.0
 10
189.5243894320285
 20
13.90000570500275
 30
0.0
 10
189.4102003962145
 20
14.07435682550321
 30
0.0
 10
189.3146141301486
 20
14.29946603111239
 30
0.0
 10
189.2318652572627
 20
14.56388246006441
 30
0.0
 10
189.1807179256412
 20
14.88187933098543
 30
0.0
 10
189.0770189207338
 20
15.15543728488911
 30
0.0
 10
189.2042841208521
 20
15.56005818612867
 30
0.0
 10
189.0357890623019
 20
15.55112367849677
 30
0.0
 10
188.9511995787077
 20
15.55315961418362
 30
0.0
 10
188.8189876387628
 20
15.55213937388405
 30
0.0
 10
188.6560505094104
 20
15.55253230318428
 30
0.0
 10
188.4733759170534
 20
15.55235696313368
 30
0.0
 10
188.2847057373383
 20
15.55260105307467
 30
0.0
 10
188.101446902019
 20
15.55185657906235
 30
0.0
 10
187.9404746832719
 20
15.55416360522425
 30
0.0
 10
187.8029808335276
 20
15.54799804883661
 30
0.0
 10
187.7289590372312
 20
15.5603283845821
 30
0.0
 10
187.6613215186857
 20
15.54329323723555
 30
0.0
 10
187.6732373719271
 20
15.59524438447527
 30
0.0
 10
187.6655677285694
 20
15.64071424966528
 30
0.0
 10
187.6732592225117
 20
15.68614453703706
 30
0.0
 10
187.6613141797762
 20
15.73802395984571
 30
0.0
 10
187.7283588305868
 20
15.72119143490264
 30
0.0
 10
187.8017375665677
 20
15.7333540909267
 30
0.0
 10
187.9379128305272
 20
15.72727231074959
 30
0.0
 10
188.0973811801514
 20
15.72954834315058
 30
0.0
 10
188.2789173085836
 20
15.72881233998961
 30
0.0
 10
188.465803486218
 20
15.72905954196134
 30
0.0
 10
188.6468012316836
 20
15.72886400799254
 30
0.0
 10
188.8080802578879
 20
15.72932234714839
 30
0.0
 10
188.9393882124887
 20
15.72812673751205
 30
0.0
 10
189.0225051322597
 20
15.73051347319743
 30
0.0
 10
189.1556236547815
 20
15.72230605725464
 30
0.0
 10
189.0645893502659
 20
15.97752868952654
 30
0.0
 10
188.9789633074421
 20
16.24164358328247
 30
0.0
 10
189.0990589003455
 20
16.22904442969165
 30
0.0
 10
189.1514264948544
 20
16.22694235763075
 30
0.0
 10
189.2214497569715
 20
16.22535399889657
 30
0.0
 10
189.2671922337818
 20
16.21602567538113
 30
0.0
 10
189.3220812646933
 20
16.22545966915427
 30
0.0
 10
189.2963574785682
 20
16.17733028655169
 30
0.0
 10
189.1825397571452
 20
16.18266829744175
 30
0.0
 10
189.3159346621136
 20
15.95449174576773
 30
0.0
 10
189.1943658735472
 20
15.72156856595923
 30
0.0
 10
189.3223188769412
 20
15.73087258884438
 30
0.0
 10
189.4049048406461
 20
15.7280100175468
 30
0.0
 10
189.5307214850824
 20
15.72923437412302
 30
0.0
 10
189.6741469838059
 20
15.72932431888964
 30
0.0
 10
189.8157420951728
 20
15.72746163183853
 30
0.0
 10
189.9459127249968
 20
15.73333075937162
 30
0.0
 10
190.0193452286192
 20
15.72070340823204
 30
0.0
 10
190.0891112922097
 20
15.73877563110413
 30
0.0
 10
190.0775772605397
 20
15.68612850546326
 30
0.0
 10
190.0833184346683
 20
15.64221317686546
 30
0.0
 10
190.0816615770912
 20
15.59089982676548
 30
0.0
 10
190.081775756167
 20
15.56158792021633
 30
0.0
 10
190.081811433329
 20
15.55242795125076
 30
0.0
 11
190.081811433329
 21
15.55242795125076
 31
0.0
 11
190.0472127192052
 21
15.55242795125076
 31
0.0
 11
189.9559979274242
 21
15.55242795125076
 31
0.0
 11
189.8270390838718
 21
15.55242795125076
 31
0.0
 11
189.6792082144337
 21
15.55242795125076
 31
0.0
 11
189.5313773449955
 21
15.55242795125076
 31
0.0
 11
189.4024185014431
 21
15.55242795125076
 31
0.0
 11
189.3112037096621
 21
15.55242795125076
 31
0.0
 11
189.2766049955383
 21
15.55242795125076
 31
0.0
 11
189.3083140497694
 21
15.2343586493012
 31
0.0
 11
189.3527866656866
 21
14.9350952278808
 31
0.0
 11
189.4092389118321
 21
14.66191269512576
 31
0.0
 11
189.4768868567479
 21
14.42208605917227
 31
0.0
 11
189.5549465689762
 21
14.22289032815654
 31
0.0
 11
189.6426341170592
 21
14.07160051021477
 31
0.0
 11
189.7391655695389
 21
13.97549161348317
 31
0.0
 11
189.8437569949575
 21
13.94183864609792
 31
0.0
 11
189.8943077302786
 21
13.97177376978835
 31
0.0
 11
189.9310588991552
 21
14.06491619815047
 31
0.0
 11
189.9562640977528
 21
14.22627151712055
 31
0.0
 11
189.9721769222368
 21
14.46084531263482
 31
0.0
 11
190.0494082682584
 21
14.40202182306617
 31
0.0
 11
190.1327184184386
 21
14.3592188543269
 31
0.0
 11
190.1066365811218
 21
14.1152838866101
 31
0.0
 11
190.0673317805106
 21
13.94207902887562
 31
0.0
 11
190.0105702596766
 21
13.83011272445917
 31
0.0
 11
189.9321182616911
 21
13.76989341669645
 31
0.0
 11
189.8277420296257
 21
13.75192954892317
 31
0.0
 11
189.6738595065098
 21
13.78957440012361
 31
0.0
 11
189.5388902376748
 21
13.89707348877403
 31
0.0
 11
189.4221739916164
 21
14.06627361744808
 31
0.0
 11
189.32305053683
 21
14.28902158871943
 31
0.0
 11
189.2408596418114
 21
14.55716420516172
 31
0.0
 11
189.174941075056
 21
14.86254826934859
 31
0.0
 11
189.1246346050594
 21
15.19702058385372
 31
0.0
 11
189.0892800003172
 21
15.55242795125076
 31
0.0
 11
189.0561935405844
 21
15.55242795125076
 31
0.0
 11
188.9654726026075
 21
15.55242795125076
 31
0.0
 11
188.8299248482186
 21
15.55242795125076
 31
0.0
 11
188.6623579392495
 21
15.55242795125076
 31
0.0
 11
188.4755795375324
 21
15.55242795125076
 31
0.0
 11
188.2823973048993
 21
15.55242795125076
 31
0.0
 11
188.0956189031822
 21
15.55242795125076
 31
0.0
 11
187.9280519942132
 21
15.55242795125076
 31
0.0
 11
187.7925042398242
 21
15.55242795125076
 31
0.0
 11
187.7017833018473
 21
15.55242795125076
 31
0.0
 11
187.6686968421146
 21
15.55242795125076
 31
0.0
 11
187.6686968421146
 21
15.58001489785845
 31
0.0
 11
187.6686968421146
 21
15.64070618039537
 31
0.0
 11
187.6686968421146
 21
15.70139746293229
 31
0.0
 11
187.6686968421146
 21
15.72898440953998
 31
0.0
 11
187.7014723087632
 21
15.72898440953998
 31
0.0
 11
187.7913405237674
 21
15.72898440953998
 31
0.0
 11
187.9256142097149
 21
15.72898440953998
 31
0.0
 11
188.0916060891933
 21
15.72898440953998
 31
0.0
 11
188.2766288847902
 21
15.72898440953998
 31
0.0
 11
188.4679953190933
 21
15.72898440953998
 31
0.0
 11
188.6530181146902
 21
15.72898440953998
 31
0.0
 11
188.8190099941686
 21
15.72898440953998
 31
0.0
 11
188.9532836801161
 21
15.72898440953998
 31
0.0
 11
189.0431518951203
 21
15.72898440953998
 31
0.0
 11
189.0759273617689
 21
15.72898440953998
 31
0.0
 11
189.0659183950104
 21
15.97947647544958
 31
0.0
 11
189.0599112510664
 21
16.23196614552531
 31
0.0
 11
189.086057587066
 21
16.23056921608122
 31
0.0
 11
189.148406542142
 21
16.22723807663761
 31
0.0
 11
189.22282303691
 21
16.22326220052749
 31
0.0
 11
189.2851719919859
 21
16.21993106108388
 31
0.0
 11
189.3113183279855
 21
16.21853413163979
 31
0.0
 11
189.298293111304
 21
16.1901652861608
 31
0.0
 11
189.2551649266405
 21
16.17581274276164
 31
0.0
 11
189.2574991961821
 21
15.95136670115108
 31
0.0
 11
189.2658452735903
 21
15.72898440953998
 31
0.0
 11
189.3009063195165
 21
15.72898440953998
 31
0.0
 11
189.3933399860495
 21
15.72898440953998
 31
0.0
 11
189.5240220663201
 21
15.72898440953998
 31
0.0
 11
189.6738283534596
 21
15.72898440953998
 31
0.0
 11
189.8236346405992
 21
15.72898440953998
 31
0.0
 11
189.9543167208698
 21
15.72898440953998
 31
0.0
 11
190.0467503874027
 21
15.72898440953998
 31
0.0
 11
190.081811433329
 21
15.72898440953998
 31
0.0
 11
190.081811433329
 21
15.70139746293229
 31
0.0
 11
190.081811433329
 21
15.64070618039537
 31
0.0
 11
190.081811433329
 21
15.58001489785845
 31
0.0
 11
190.081811433329
 21
15.55242795125076
 31
0.0
  0
SPLINE
  5
AB
102
{ACAD_REACTORS
330
C8
102
}
330
49
100
AcDbEntity
  8
_U_30EC_U_30A4_U_30E4_U_30FC_1
  6
Continuous
 62
     2
100
AcDbSpline
210
0.0
220
0.0
230
1.0
 70
    11
 71
     3
 72
   118
 73
   114
 74
   112
 42
0.000000001
 43
0.0000000001
 44
0.00000001
 40
0.0
 40
0.0
 40
0.0
 40
0.0
 40
0.1054708162973424
 40
0.2466098270052106
 40
0.3965912874591623
 40
0.5285525069754542
 40
0.6156245055642768
 40
0.6431434105797926
 40
0.7036850037986645
 40
0.7642265984505071
 40
0.7917455052355389
 40
0.9287404319990539
 40
1.106572819088121
 40
1.287544879681152
 40
1.317578308030669
 40
1.399928030857308
 40
1.522968204800082
 40
1.675072986590703
 40
1.84461653318078
 40
2.019973001638845
 40
2.189516548880158
 40
2.341621331585496
 40
2.464661506320632
 40
2.547011229647196
 40
2.57704465816816
 40
2.603797890893202
 40
2.662655002908889
 40
2.721512114949673
 40
2.748265347702824
 40
2.774215307344901
 40
2.845959313407231
 40
2.954338556588429
 40
3.090194227585607
 40
3.24436751710057
 40
3.40769961584433
 40
3.571031714539481
 40
3.725205003920157
 40
3.861060674729656
 40
3.96943991771635
 40
4.041183923629021
 40
4.067133883213015
 40
4.311886746012192
 40
4.547897258335558
 40
4.764747083044027
 40
4.952749679951819
 40
5.045772974195935
 40
5.13786201964504
 40
5.330543169793074
 40
5.553448265244067
 40
5.795083855888222
 40
6.043293412177301
 40
6.285761695541235
 40
6.313902908752747
 40
6.384255941793337
 40
6.475714884766925
 40
6.56717382775896
 40
6.637526860839738
 40
6.665668074074101
 40
6.692018920328075
 40
6.749990782071149
 40
6.807962643790522
 40
6.834313490017997
 40
6.856393084245275
 40
6.913335195649927
 40
6.991194817302563
 40
7.076026942283796
 40
7.153886563725343
 40
7.210828674844897
 40
7.232908268931232
 40
7.258199334923753
 40
7.324875781592403
 40
7.41914248192506
 40
7.527204308841999
 40
7.635266135230578
 40
7.729532834168563
 40
7.796209279292886
 40
7.821500344594832
 40
7.844652988850931
 40
7.899863140541681
 40
7.965759128053848
 40
8.02096927977116
 40
8.044121924046626
 40
8.069356610160746
 40
8.10913439544157
 40
8.132238100191282
 40
8.193147867786648
 40
8.27926167887682
 40
8.377977512674034
 40
8.476693347146817
 40
8.562807160411872
 40
8.623716930826658
 40
8.64682063685361
 40
8.671988793774423
 40
8.734909185828363
 40
8.816705695189077
 40
8.898502204815676
 40
8.961422597378165
 40
8.986590754551278
 40
9.012941600733436
 40
9.070913462380524
 40
9.12888532408202
 40
9.155236170325344
 40
9.180404327929386
 40
9.243324721948488
 40
9.325121234212281
 40
9.406917746637964
 40
9.469838141978448
 40
9.495006288271222
 40
9.517811184379362
 40
9.572192090487357
 40
9.637098333281582
 40
9.691479239515777
 40
9.714284125643813
 40
9.714284125643813
 40
9.714284125643813
 40
9.714284125643813
 10
185.2874469028653
 20
15.2688916318772
 30
0.0
 10
185.3090990569037
 20
15.24111869242812
 30
0.0
 10
185.3597257109474
 20
15.17618054561236
 30
0.0
 10
185.4349383202591
 20
15.06891060312898
 30
0.0
 10
185.5248482274347
 20
14.95377438266625
 30
0.0
 10
185.5709169676675
 20
14.85357045748319
 30
0.0
 10
185.6655825294655
 20
14.78434006814945
 30
0.0
 10
185.6204439320414
 20
14.73771639678272
 30
0.0
 10
185.5947047785791
 20
14.69660308866039
 30
0.0
 10
185.5645196708013
 20
14.66065971727939
 30
0.0
 10
185.5193684730563
 20
14.58579782596091
 30
0.0
 10
185.4710504458563
 20
14.80782524253605
 30
0.0
 10
185.3968539713073
 20
14.84510677337711
 30
0.0
 10
185.2836047324607
 20
15.11610202130601
 30
0.0
 10
185.2885133578169
 20
15.00095328446229
 30
0.0
 10
185.2868486556306
 20
14.92836675781627
 30
0.0
 10
185.2876830076714
 20
14.80625588483986
 30
0.0
 10
185.2873609540264
 20
14.6591380081046
 30
0.0
 10
185.2875076912455
 20
14.49307063956557
 30
0.0
 10
185.2872950092723
 20
14.32187554608602
 30
0.0
 10
185.2879497252034
 20
14.15552828635498
 30
0.0
 10
185.2859192461139
 20
14.00935173055693
 30
0.0
 10
185.291346039993
 20
13.8847104747461
 30
0.0
 10
185.2804930868708
 20
13.81718656540627
 30
0.0
 10
185.2956739155555
 20
13.75549061417023
 30
0.0
 10
185.2457895108134
 20
13.76727503897002
 30
0.0
 10
185.2017150342523
 20
13.7594382277997
 30
0.0
 10
185.1582371630201
 20
13.76760441372702
 30
0.0
 10
185.1092346786489
 20
13.75538056738469
 30
0.0
 10
185.1218731234825
 20
13.80960667249313
 30
0.0
 10
185.113018296845
 20
13.86936918907558
 30
0.0
 10
185.1175058770315
 20
13.97922029044371
 30
0.0
 10
185.1157960135993
 20
14.11029975405679
 30
0.0
 10
185.1163550915986
 20
14.26198011444328
 30
0.0
 10
185.1161928768695
 20
14.42211074929953
 30
0.0
 10
185.1162269924675
 20
14.58236865674566
 30
0.0
 10
185.1162514960128
 20
14.73370247520439
 30
0.0
 10
185.1161453543226
 20
14.86582156338601
 30
0.0
 10
185.1164299141932
 20
14.97294802533193
 30
0.0
 10
185.1158675547568
 20
15.03808619579474
 30
0.0
 10
185.1180765083691
 20
15.16618957858675
 30
0.0
 10
185.0319435998603
 20
14.79097610391575
 30
0.0
 10
184.9555140818501
 20
14.63918193123393
 30
0.0
 10
184.8660040767834
 20
14.47766206446309
 30
0.0
 10
184.7640413217326
 20
14.20471848820169
 30
0.0
 10
184.718797649104
 20
14.36717346596512
 30
0.0
 10
184.6102355941671
 20
14.45605432058117
 30
0.0
 10
184.7995791751752
 20
14.6054979496141
 30
0.0
 10
184.8565340545701
 20
14.79749136974925
 30
0.0
 10
184.9717520993352
 20
15.02899622906757
 30
0.0
 10
184.9940151630134
 20
15.21797259759061
 30
0.0
 10
185.1771905152141
 20
15.4945408932593
 30
0.0
 10
185.0538033597552
 20
15.48698978832092
 30
0.0
 10
184.9925684166834
 20
15.48856772366117
 30
0.0
 10
184.9081999617065
 20
15.48882592573672
 30
0.0
 10
184.8204235085967
 20
15.48544845751204
 30
0.0
 10
184.7656768696123
 20
15.49394814982019
 30
0.0
 10
184.7104703026025
 20
15.48048561049787
 30
0.0
 10
184.7222823035536
 20
15.52931442126762
 30
0.0
 10
184.7142496151794
 20
15.57269004896708
 30
0.0
 10
184.7228186104679
 20
15.61509438309572
 30
0.0
 10
184.7102943409157
 20
15.66267796552118
 30
0.0
 10
184.7555101538736
 20
15.65267212995109
 30
0.0
 10
184.8014815562725
 20
15.65894105174061
 30
0.0
 10
184.877722204771
 20
15.65593561405872
 30
0.0
 10
184.9561296131995
 20
15.65770448278541
 30
0.0
 10
185.0323992648934
 20
15.65464793981659
 30
0.0
 10
185.0783009459475
 20
15.66103971376176
 30
0.0
 10
185.12317339654
 20
15.65093822978896
 30
0.0
 10
185.1105552275635
 20
15.70157201581898
 30
0.0
 10
185.1191936582707
 20
15.7550126188207
 30
0.0
 10
185.1152361595445
 20
15.8486325513168
 30
0.0
 10
185.1162325068335
 20
15.95112606688924
 30
0.0
 10
185.1171927413074
 20
16.05353270248163
 30
0.0
 10
185.1133211458006
 20
16.14735929609321
 30
0.0
 10
185.1217789814365
 20
16.20036542840353
 30
0.0
 10
185.1093075932836
 20
16.25211435651189
 30
0.0
 10
185.1542106389851
 20
16.23850747226757
 30
0.0
 10
185.1955083836773
 20
16.24100480320586
 30
0.0
 10
185.2595344281051
 20
16.23648060574487
 30
0.0
 10
185.2986111148787
 20
16.22781003043309
 30
0.0
 10
185.3476543498743
 20
16.23515102070686
 30
0.0
 10
185.3225080030591
 20
16.19602896051758
 30
0.0
 10
185.2815901333723
 20
16.2056384245581
 30
0.0
 10
185.2910109616604
 20
16.15540148169778
 30
0.0
 10
185.2855647318746
 20
16.1038594563949
 30
0.0
 10
185.2881699601804
 20
16.0195970758452
 30
0.0
 10
185.2870102202153
 20
15.92559135583408
 30
0.0
 10
185.2883591064231
 20
15.83196865395526
 30
0.0
 10
185.2849970101508
 20
15.74679517552222
 30
0.0
 10
185.2920959917769
 20
15.69716856072044
 30
0.0
 10
185.2812569154545
 20
15.64993694969989
 30
0.0
 10
185.3304010225246
 20
15.66201674936852
 30
0.0
 10
185.3794877630147
 20
15.65447393363011
 30
0.0
 10
185.4573714280642
 20
15.65686070361433
 30
0.0
 10
185.5350365172896
 20
15.65899381905415
 30
0.0
 10
185.5845393931356
 20
15.65193391922455
 30
0.0
 10
185.634459475064
 20
15.66360151936214
 30
0.0
 10
185.6223198516882
 20
15.61540235371392
 30
0.0
 10
185.6305838229144
 20
15.57249219801235
 30
0.0
 10
185.6223198650785
 20
15.52958201851384
 30
0.0
 10
185.6344594549855
 20
15.48138288754864
 30
0.0
 10
185.5845395158747
 20
15.4930503447151
 30
0.0
 10
185.5350350651204
 20
15.48599202435044
 30
0.0
 10
185.4573784382972
 20
15.48811665228602
 30
0.0
 10
185.3794643865761
 20
15.49053389365759
 30
0.0
 10
185.3304500352716
 20
15.48291848194484
 30
0.0
 10
185.2813246108943
 20
15.49507952557592
 30
0.0
 10
185.2915559988571
 20
15.45073013424157
 30
0.0
 10
185.2856677678053
 20
15.40925436202911
 30
0.0
 10
185.2878788305569
 20
15.34915394315302
 30
0.0
 10
185.2874109346146
 20
15.30225782762889
 30
0.0
 10
185.2874386992913
 20
15.27650146418197
 30
0.0
 10
185.2874469028653
 20
15.2688916318772
 30
0.0
 11
185.2874469028653
 21
15.2688916318772
 31
0.0
 11
185.3516977534484
 21
15.18524999634257
 31
0.0
 11
185.4348258835499
 21
15.07118889748221
 31
0.0
 11
185.5216831568896
 21
14.94891767195723
 31
0.0
 11
185.5971214371873
 21
14.84064565642876
 31
0.0
 11
185.6459925881627
 21
14.7685821875579
 31
0.0
 11
185.6296821285094
 21
14.74641782124399
 31
0.0
 11
185.5937991172721
 21
14.69765621535339
 31
0.0
 11
185.5579161060347
 21
14.64889460946279
 31
0.0
 11
185.5416056463814
 21
14.62673024314888
 31
0.0
 11
185.4763067109447
 21
14.74716139023813
 31
0.0
 11
185.3848434243235
 21
14.89966983670207
 31
0.0
 11
185.2874469028653
 21
15.05219788193142
 31
0.0
 11
185.2874469028653
 21
15.02216445328253
 31
0.0
 11
185.2874469028653
 21
14.93981472956783
 31
0.0
 11
185.2874469028653
 21
14.81677455413528
 31
0.0
 11
185.2874469028653
 21
14.66466977033283
 31
0.0
 11
185.2874469028653
 21
14.49512622150845
 31
0.0
 11
185.2874469028653
 21
14.31976975101009
 31
0.0
 11
185.2874469028653
 21
14.15022620218571
 31
0.0
 11
185.2874469028653
 21
13.99812141838326
 31
0.0
 11
185.2874469028653
 21
13.87508124295071
 31
0.0
 11
185.2874469028653
 21
13.79273151923601
 31
0.0
 11
185.2874469028653
 21
13.76269809058712
 31
0.0
 11
185.2606936700409
 21
13.76269809058712
 31
0.0
 11
185.2018365578272
 21
13.76269809058712
 31
0.0
 11
185.1429794456135
 21
13.76269809058712
 31
0.0
 11
185.1162262127891
 21
13.76269809058712
 31
0.0
 11
185.1162262127891
 21
13.7886480503125
 31
0.0
 11
185.1162262127891
 21
13.86039205661208
 31
0.0
 11
185.1162262127891
 21
13.96877130017102
 31
0.0
 11
185.1162262127891
 21
14.10462697167447
 31
0.0
 11
185.1162262127891
 21
14.25880026180761
 31
0.0
 11
185.1162262127891
 21
14.42213236125558
 31
0.0
 11
185.1162262127891
 21
14.58546446070356
 31
0.0
 11
185.1162262127891
 21
14.7396377508367
 31
0.0
 11
185.1162262127891
 21
14.87549342234015
 31
0.0
 11
185.1162262127891
 21
14.98387266589909
 31
0.0
 11
185.1162262127891
 21
15.05561667219867
 31
0.0
 11
185.1162262127891
 21
15.08156663192405
 31
0.0
 11
185.0379865861723
 21
14.84965603302372
 31
0.0
 11
184.9497110789304
 21
14.63077616328678
 31
0.0
 11
184.8544106930046
 21
14.43598991333546
 31
0.0
 11
184.7550964303357
 21
14.27636017379201
 31
0.0
 11
184.7109198342407
 21
14.35822446196598
 31
0.0
 11
184.6588057383481
 21
14.43414885430811
 31
0.0
 11
184.76273025903
 21
14.59640087926757
 31
0.0
 11
184.8629319864735
 21
14.79551465421781
 31
0.0
 11
184.9550446607902
 21
15.01890447916196
 31
0.0
 11
185.0347020220913
 21
15.25398465410319
 31
0.0
 11
185.0975378104881
 21
15.48816947904464
 31
0.0
 11
185.0693965972143
 21
15.48816947904464
 31
0.0
 11
184.9990435640298
 21
15.48816947904464
 31
0.0
 11
184.9075846208899
 21
15.48816947904464
 31
0.0
 11
184.81612567775
 21
15.48816947904464
 31
0.0
 11
184.7457726445655
 21
15.48816947904464
 31
0.0
 11
184.7176314312917
 21
15.48816947904464
 31
0.0
 11
184.7176314312917
 21
15.51452032539221
 31
0.0
 11
184.7176314312917
 21
15.57249218735688
 31
0.0
 11
184.7176314312917
 21
15.63046404932155
 31
0.0
 11
184.7176314312917
 21
15.65681489566912
 31
0.0
 11
184.739711025602
 21
15.65681489566912
 31
0.0
 11
184.7966531372445
 21
15.65681489566912
 31
0.0
 11
184.8745127592863
 21
15.65681489566912
 31
0.0
 11
184.9593448847945
 21
15.65681489566912
 31
0.0
 11
185.0372045068362
 21
15.65681489566912
 31
0.0
 11
185.0941466184787
 21
15.65681489566912
 31
0.0
 11
185.1162262127891
 21
15.65681489566912
 31
0.0
 11
185.1162262127891
 21
15.68210596174353
 31
0.0
 11
185.1162262127891
 21
15.74878240866697
 31
0.0
 11
185.1162262127891
 21
15.84304910948977
 31
0.0
 11
185.1162262127891
 21
15.95111093726224
 31
0.0
 11
185.1162262127891
 21
16.05917276503471
 31
0.0
 11
185.1162262127891
 21
16.15343946585751
 31
0.0
 11
185.1162262127891
 21
16.22011591278095
 31
0.0
 11
185.1162262127891
 21
16.24540697885536
 31
0.0
 11
185.1393181988666
 21
16.243732131078
 31
0.0
 11
185.1943837041285
 21
16.23973826330122
 31
0.0
 11
185.2601070491185
 21
16.23497138885796
 31
0.0
 11
185.3151725543804
 21
16.23097752108117
 31
0.0
 11
185.3382645404579
 21
16.22930267330381
 31
0.0
 11
185.3249012644362
 21
16.20789677921191
 31
0.0
 11
185.2874469028653
 21
16.19450114553469
 31
0.0
 11
185.2874469028653
 21
16.17139743948578
 31
0.0
 11
185.2874469028653
 21
16.11048766899319
 31
0.0
 11
185.2874469028653
 21
16.02437385553816
 31
0.0
 11
185.2874469028653
 21
15.9256580206019
 31
0.0
 11
185.2874469028653
 21
15.82694218566565
 31
0.0
 11
185.2874469028653
 21
15.74082837221061
 31
0.0
 11
185.2874469028653
 21
15.67991860171803
 31
0.0
 11
185.2874469028653
 21
15.65681489566912
 31
0.0
 11
185.3126150604809
 21
15.65681489566912
 31
0.0
 11
185.3755354545199
 21
15.65681489566912
 31
0.0
 11
185.4573319667706
 21
15.65681489566912
 31
0.0
 11
185.5391284790213
 21
15.65681489566912
 31
0.0
 11
185.6020488730603
 21
15.65681489566912
 31
0.0
 11
185.6272170306759
 21
15.65681489566912
 31
0.0
 11
185.6272170306759
 21
15.63046404932154
 31
0.0
 11
185.6272170306759
 21
15.57249218735688
 31
0.0
 11
185.6272170306759
 21
15.51452032539222
 31
0.0
 11
185.6272170306759
 21
15.48816947904464
 31
0.0
 11
185.6020488730603
 21
15.48816947904464
 31
0.0
 11
185.5391284790213
 21
15.48816947904464
 31
0.0
 11
185.4573319667706
 21
15.48816947904464
 31
0.0
 11
185.3755354545199
 21
15.48816947904464
 31
0.0
 11
185.3126150604809
 21
15.48816947904464
 31
0.0
 11
185.2874469028653
 21
15.48816947904464
 31
0.0
 11
185.2874469028653
 21
15.46536458293923
 31
0.0
 11
185.2874469028653
 21
15.4109836768417
 31
0.0
 11
185.2874469028653
 21
15.34607743408014
 31
0.0
 11
185.2874469028653
 21
15.29169652798261
 31
0.0
 11
185.2874469028653
 21
15.2688916318772
 31
0.0
  0
SPLINE
  5
AC
102
{ACAD_REACTORS
330
C9
102
}
330
49
100
AcDbEntity
  8
_U_30EC_U_30A4_U_30E4_U_30FC_1
  6
Continuous
 62
     2
100
AcDbSpline
210
0.0
220
0.0
230
1.0
 70
    11
 71
     3
 72
    47
 73
    43
 74
    41
 42
0.000000001
 43
0.0000000001
 44
0.00000001
 40
0.0
 40
0.0
 40
0.0
 40
0.0
 40
0.2207912809957201
 40
0.4459404186303043
 40
0.4902387190458977
 40
0.5327473892721926
 40
0.5742260451224971
 40
0.6155432630559696
 40
0.6568164066315183
 40
0.6982511618780394
 40
0.7407663929316335
 40
0.7851366743175239
 40
1.010288833836324
 40
1.231080507002173
 40
1.451765243652402
 40
1.676638205891686
 40
1.720461045359656
 40
1.830018144043521
 40
1.972442372353152
 40
2.114866600677521
 40
2.224423699395146
 40
2.268246538883387
 40
2.493628801207215
 40
2.715602830286618
 40
2.934211330706375
 40
3.149502369855374
 40
3.23138778485102
 40
3.318231873854169
 40
3.405143198198129
 40
3.486970301720481
 40
3.702258172493928
 40
3.920866283534163
 40
4.142839325931955
 40
4.368221903865415
 40
4.412044743359894
 40
4.52160184209591
 40
4.66402607045239
 40
4.806450298809098
 40
4.916007397546791
 40
4.959830237043114
 40
5.184703515847145
 40
5.405387250767521
 40
5.405387250767521
 40
5.405387250767521
 40
5.405387250767521
 10
182.6507427258646
 20
15.73406440953872
 30
0.0
 10
182.6568139420003
 20
15.7975848250121
 30
0.0
 10
182.6690762107243
 20
15.92587938689626
 30
0.0
 10
182.5604706879413
 20
16.20166220174077
 30
0.0
 10
182.6761985896605
 20
16.17188133432053
 30
0.0
 10
182.7171842509016
 20
16.16765556262821
 30
0.0
 10
182.7591205797518
 20
16.16310446389607
 30
0.0
 10
182.8004196625711
 20
16.16201982929485
 30
0.0
 10
182.8417032115556
 20
16.16310338195227
 30
0.0
 10
182.8836148270647
 20
16.16766112711343
 30
0.0
 10
182.924598354902
 20
16.1718743020973
 30
0.0
 10
183.0404922843489
 20
16.20177611317533
 30
0.0
 10
182.9295652727458
 20
15.92339806609892
 30
0.0
 10
182.9574856365267
 20
15.74283140824952
 30
0.0
 10
182.9404267346971
 20
15.50961042346471
 30
0.0
 10
182.9414637282104
 20
15.34906622543146
 30
0.0
 10
182.9414099399405
 20
15.22284817558722
 30
0.0
 10
182.9414277372482
 20
15.12428963336241
 30
0.0
 10
182.9414188581081
 20
14.99280702442963
 30
0.0
 10
182.9414263928035
 20
14.8613284496865
 30
0.0
 10
182.9414129405129
 20
14.7627622269409
 30
0.0
 10
182.9414531717494
 20
14.63639735624152
 30
0.0
 10
182.9406746403818
 20
14.4748206882287
 30
0.0
 10
182.9565958319268
 20
14.24361821892914
 30
0.0
 10
182.9333468885408
 20
14.05874351972001
 30
0.0
 10
183.0360183444367
 20
13.78935602770053
 30
0.0
 10
182.8820238362836
 20
13.82660112685818
 30
0.0
 10
182.8004129802833
 20
13.82137994680535
 30
0.0
 10
182.7188192292583
 20
13.82660620378351
 30
0.0
 10
182.5648513666844
 20
13.78937069885386
 30
0.0
 10
182.6674183421918
 20
14.05875129862881
 30
0.0
 10
182.6442045316089
 20
14.24361585325414
 30
0.0
 10
182.6600444655139
 20
14.47482218565638
 30
0.0
 10
182.6593296313428
 20
14.63639712308503
 30
0.0
 10
182.6593664569907
 20
14.76276231210521
 30
0.0
 10
182.6593549000271
 20
14.86132756635981
 30
0.0
 10
182.6593575019214
 20
14.9928112741722
 30
0.0
 10
182.659364853178
 20
15.124275480312
 30
0.0
 10
182.6593442541352
 20
15.22287786275325
 30
0.0
 10
182.6594082192029
 20
15.34896149354427
 30
0.0
 10
182.6581733947591
 20
15.51210091383772
 30
0.0
 10
182.6532040396746
 20
15.66054183777549
 30
0.0
 10
182.6507427258646
 20
15.73406440953872
 30
0.0
 11
182.6507427258646
 21
15.73406440953872
 31
0.0
 11
182.641732820038
 21
15.95467178795577
 31
0.0
 11
182.6318769706147
 21
16.17960510387179
 31
0.0
 11
182.6756985840802
 21
16.17312391463728
 31
0.0
 11
182.7178400934216
 21
16.16754892331925
 31
0.0
 11
182.7591371409791
 21
16.16367167505631
 31
0.0
 11
182.8004341885365
 21
16.16238072887607
 31
0.0
 11
182.8416871388731
 21
16.16367167505631
 31
0.0
 11
182.8829400892098
 21
16.16754892331925
 31
0.0
 11
182.9250882131343
 21
16.17312391463728
 31
0.0
 11
182.9689825870146
 21
16.17960510387179
 31
0.0
 11
182.9590577693892
 21
15.95467178795577
 31
0.0
 11
182.9500384208311
 21
15.73406440953872
 31
0.0
 11
182.9435638463436
 21
15.51347467001054
 31
0.0
 11
182.9414218238287
 21
15.28861190965007
 31
0.0
 11
182.9414218238287
 21
15.24478907015486
 31
0.0
 11
182.9414218238287
 21
15.13523197141682
 31
0.0
 11
182.9414218238287
 21
14.99280774305737
 31
0.0
 11
182.9414218238287
 21
14.85038351469792
 31
0.0
 11
182.9414218238287
 21
14.74082641595989
 31
0.0
 11
182.9414218238287
 21
14.69700357646467
 31
0.0
 11
182.9435638463436
 21
14.47163149318767
 31
0.0
 11
182.9500384208311
 21
14.2497519099098
 31
0.0
 11
182.9590577693892
 21
14.03132954885329
 31
0.0
 11
182.9689825870146
 21
13.81626739612926
 31
0.0
 11
182.8872616168771
 21
13.82145433189186
 31
0.0
 11
182.8004341885365
 21
13.82315538223863
 31
0.0
 11
182.7135395119339
 21
13.82145433189186
 31
0.0
 11
182.6318769706147
 21
13.81626739612926
 31
0.0
 11
182.641732820038
 21
14.03132954885329
 31
0.0
 11
182.6507427258646
 21
14.2497519099098
 31
0.0
 11
182.6571833838799
 21
14.47163149318766
 31
0.0
 11
182.6593583588024
 21
14.69700357646467
 31
0.0
 11
182.6593583588024
 21
14.74082641595988
 31
0.0
 11
182.6593583588024
 21
14.85038351469792
 31
0.0
 11
182.6593583588024
 21
14.99280774305737
 31
0.0
 11
182.6593583588024
 21
15.13523197141682
 31
0.0
 11
182.6593583588024
 21
15.24478907015486
 31
0.0
 11
182.6593583588024
 21
15.28861190965007
 31
0.0
 11
182.6571833838799
 21
15.51347467001054
 31
0.0
 11
182.6507427258646
 21
15.73406440953872
 31
0.0
  0
SPLINE
  5
AD
102
{ACAD_REACTORS
330
CA
102
}
330
49
100
AcDbEntity
  8
_U_30EC_U_30A4_U_30E4_U_30FC_1
  6
Continuous
 62
     2
100
AcDbSpline
210
0.0
220
0.0
230
1.0
 70
    11
 71
     3
 72
   110
 73
   106
 74
   104
 42
0.000000001
 43
0.0000000001
 44
0.00000001
 40
0.0
 40
0.0
 40
0.0
 40
0.0
 40
0.2203406257277714
 40
0.4407808782838055
 40
0.5952494494614465
 40
0.7488431659393037
 40
0.9023581831308738
 40
1.056801968670401
 40
1.210736449099873
 40
1.36304138653978
 40
1.515315729683094
 40
1.669377239147988
 40
1.721611652756458
 40
1.773199502942843
 40
1.824933793209889
 40
1.877110426487852
 40
1.982682281206587
 40
2.078781667087424
 40
2.172809640822088
 40
2.271937807378714
 40
2.378349933379192
 40
2.494131557736267
 40
2.626681683943458
 40
2.783145050795857
 40
2.89070123294071
 40
2.993130312454608
 40
3.099869730691597
 40
3.22023781669109
 40
3.352695482737379
 40
3.481732806389631
 40
3.593499473690161
 40
3.674323013331675
 40
3.817951711952653
 40
3.946167120793735
 40
4.061405053453393
 40
4.166480796003062
 40
4.262478775059128
 40
4.350736673551055
 40
4.433071991253884
 40
4.511216293814543
 40
4.564262454117874
 40
4.618474415571488
 40
4.670128488754094
 40
4.722296879126301
 40
4.819540945314227
 40
4.931194984128027
 40
5.049996040257697
 40
5.168643755415328
 40
5.28397081176254
 40
5.392260784910365
 40
5.486512254876383
 40
5.559178233949839
 40
5.591425852853496
 40
5.626215969637868
 40
5.667155838674415
 40
5.717449290214224
 40
5.738402360944838
 40
5.784499116553808
 40
5.830595872164781
 40
5.851548942897639
 40
5.873019280661754
 40
5.924217778408296
 40
5.985325662817675
 40
6.036524160567692
 40
6.05799449833422
 40
6.236847789607469
 40
6.381409928945645
 40
6.493190424178675
 40
6.574067534230484
 40
6.69101808620555
 40
6.814881554220496
 40
6.944307823240363
 40
7.071266716066101
 40
7.19348860446186
 40
7.309042773128144
 40
7.414007203170741
 40
7.505140441886526
 40
7.531150360599684
 40
7.559221645322267
 40
7.587202218920925
 40
7.612569159499137
 40
7.662550809481009
 40
7.702878875764151
 40
7.857328205230965
 40
8.010799568088583
 40
8.165256399657562
 40
8.322232698713986
 40
8.479564855016616
 40
8.635216230290876
 40
8.790882550925737
 40
8.948305154947274
 40
9.168271839032965
 40
9.387358980987232
 40
9.608047961033481
 40
9.832914234792685
 40
9.85833869496302
 40
9.925366817230028
 40
10.02013071422761
 40
10.12876249859
 40
10.2373942829525
 40
10.33215817995192
 40
10.39918630222395
 40
10.42461076239784
 40
10.64992019336944
 40
10.87188524531189
 40
10.87188524531189
 40
10.87188524531189
 40
10.87188524531189
 10
179.9057788376618
 20
15.7392326039819
 30
0.0
 10
179.9092864933542
 20
15.80616462073804
 30
0.0
 10
179.9163033987663
 20
15.94005891915858
 30
0.0
 10
179.8198027599074
 20
16.22548554971468
 30
0.0
 10
180.0510134726109
 20
16.16284386190283
 30
0.0
 10
180.1919290057157
 20
16.17001554055992
 30
0.0
 10
180.3490417757588
 20
16.16235883078243
 30
0.0
 10
180.5025913427288
 20
16.1625275228304
 30
0.0
 10
180.6545104935082
 20
16.16182040535432
 30
0.0
 10
180.8142214813232
 20
16.1721015835164
 30
0.0
 10
180.9408972601119
 20
16.1549651108075
 30
0.0
 10
181.1370821122079
 20
16.22727260107146
 30
0.0
 10
181.1034395279079
 20
16.12640699080116
 30
0.0
 10
181.1052011317184
 20
16.0761925394767
 30
0.0
 10
181.1027342073459
 20
16.02712335586467
 30
0.0
 10
181.134707696601
 20
15.94063490847
 30
0.0
 10
181.0010399903257
 20
15.98997438608338
 30
0.0
 10
180.9172208688056
 20
15.98430634314167
 30
0.0
 10
180.8173861139324
 20
15.99465516706298
 30
0.0
 10
180.7186576720146
 20
16.00086450411087
 30
0.0
 10
180.6121532771111
 20
16.00697763816776
 30
0.0
 10
180.491051169806
 20
16.01588883484585
 30
0.0
 10
180.3703381502454
 20
16.00521605912382
 30
0.0
 10
180.1812553843438
 20
16.06468503080366
 30
0.0
 10
180.2129028505312
 20
15.9055832007754
 30
0.0
 10
180.1995563316833
 20
15.80839128339905
 30
0.0
 10
180.1974958426451
 20
15.69634065110102
 30
0.0
 10
180.195818804467
 20
15.5769968562935
 30
0.0
 10
180.1973336794234
 20
15.4503259215511
 30
0.0
 10
180.1956582478671
 20
15.32301588016117
 30
0.0
 10
180.2058844271658
 20
15.22451566404464
 30
0.0
 10
180.1779006596582
 20
15.08388702625629
 30
0.0
 10
180.3508029999306
 20
15.13989551134096
 30
0.0
 10
180.4645020202772
 20
15.12719951478496
 30
0.0
 10
180.584015167224
 20
15.13448377051255
 30
0.0
 10
180.6888491425073
 20
15.13878017056755
 30
0.0
 10
180.7843084898612
 20
15.14330568258977
 30
0.0
 10
180.8763823507033
 20
15.151492011462
 30
0.0
 10
180.947655178244
 20
15.14643850638112
 30
0.0
 10
181.0544931705686
 20
15.18536425031675
 30
0.0
 10
181.0226603598037
 20
15.1051712200588
 30
0.0
 10
181.0266164503929
 20
15.05562936846033
 30
0.0
 10
181.0234502392014
 20
15.00557478039819
 30
0.0
 10
181.0550791490586
 20
14.92128847612021
 30
0.0
 10
180.9210133677692
 20
14.97425365495156
 30
0.0
 10
180.8292322793201
 20
14.96540080890442
 30
0.0
 10
180.7079729189603
 20
14.97570049965155
 30
0.0
 10
180.5914113119771
 20
14.97748911767502
 30
0.0
 10
180.4783375745879
 20
14.97787017109696
 30
0.0
 10
180.3679246308471
 20
14.98415449472177
 30
0.0
 10
180.2898124067841
 20
14.97189133255365
 30
0.0
 10
180.1913625833644
 20
15.00453887616127
 30
0.0
 10
180.2012355173561
 20
14.94769748054206
 30
0.0
 10
180.1973923244404
 20
14.91392130557984
 30
0.0
 10
180.1966789884268
 20
14.87119604709412
 30
0.0
 10
180.1963369642975
 20
14.83401607262153
 30
0.0
 10
180.1963834255345
 20
14.79487237370771
 30
0.0
 10
180.1963649429927
 20
14.75716849497686
 30
0.0
 10
180.1963703431806
 20
14.71944955232402
 30
0.0
 10
180.1963697214201
 20
14.6899432474515
 30
0.0
 10
180.1963698151545
 20
14.65873577699301
 30
0.0
 10
180.1963704287921
 20
14.61414424908085
 30
0.0
 10
180.1963671499336
 20
14.5596395650885
 30
0.0
 10
180.1963759623481
 20
14.51505540201448
 30
0.0
 10
180.1963359653417
 20
14.4311780858574
 30
0.0
 10
180.1976024270255
 20
14.31737520677678
 30
0.0
 10
180.1950274117844
 20
14.16830395933709
 30
0.0
 10
180.206500938172
 20
14.06597203813905
 30
0.0
 10
180.1823506222264
 20
13.93338903885834
 30
0.0
 10
180.3332993946477
 20
13.97895732272021
 30
0.0
 10
180.4428436671556
 20
13.9642701216235
 30
0.0
 10
180.5733970473921
 20
13.96920435125062
 30
0.0
 10
180.6990312209514
 20
13.97257705323362
 30
0.0
 10
180.8188730625602
 20
13.97711497498773
 30
0.0
 10
180.9391362611427
 20
13.99048536182004
 30
0.0
 10
181.0222761663515
 20
13.98068712782596
 30
0.0
 10
181.1456080421077
 20
14.04126214623321
 30
0.0
 10
181.1244269203956
 20
13.98532460134021
 30
0.0
 10
181.1235950270118
 20
13.95939249372346
 30
0.0
 10
181.121896370756
 20
13.93197256190939
 30
0.0
 10
181.121797488883
 20
13.89738195206385
 30
0.0
 10
181.120365930133
 20
13.86050408220768
 30
0.0
 10
181.1532804192191
 20
13.76846841021805
 30
0.0
 10
180.9551306988108
 20
13.84132015974832
 30
0.0
 10
180.8300548294892
 20
13.81825726508607
 30
0.0
 10
180.6673071295156
 20
13.82454021985787
 30
0.0
 10
180.5129366450002
 20
13.82260943909927
 30
0.0
 10
180.3566670436944
 20
13.82393762599269
 30
0.0
 10
180.1970544465282
 20
13.82059872487863
 30
0.0
 10
180.0540326342237
 20
13.83265795728241
 30
0.0
 10
179.8197144881629
 20
13.76952001976917
 30
0.0
 10
179.9173810751197
 20
14.05620527466317
 30
0.0
 10
179.9006868780058
 20
14.2498830814266
 30
0.0
 10
179.9146296709685
 20
14.47848242880294
 30
0.0
 10
179.9142987846633
 20
14.63384593955049
 30
0.0
 10
179.9143078119264
 20
14.73966336444125
 30
0.0
 10
179.9143055876316
 20
14.80205784124214
 30
0.0
 10
179.914306555189
 20
14.89220425248327
 30
0.0
 10
179.9143065473262
 20
14.99621167157438
 30
0.0
 10
179.9143053861104
 20
15.10022131375296
 30
0.0
 10
179.9143090971502
 20
15.19036243688768
 30
0.0
 10
179.9143011051052
 20
15.25276803097215
 30
0.0
 10
179.9143334275019
 20
15.35868835961119
 30
0.0
 10
179.913144078832
 20
15.5162671654474
 30
0.0
 10
179.9082216489257
 20
15.66528219822066
 30
0.0
 10
179.9057788376618
 20
15.7392326039819
 30
0.0
 11
179.9057788376618
 21
15.7392326039819
 31
0.0
 11
179.8966918223741
 21
15.95938578101018
 31
0.0
 11
179.8868249573134
 21
16.17960510387179
 31
0.0
 11
180.04115751414
 21
16.17312391463728
 31
0.0
 11
180.1946500189047
 21
16.16754892331925
 31
0.0
 11
180.3481160653367
 21
16.16367167505631
 31
0.0
 11
180.502554455494
 21
16.16238072887607
 31
0.0
 11
180.6564835227474
 21
16.16367167505631
 31
0.0
 11
180.8087391004601
 21
16.16754892331925
 31
0.0
 11
180.9609113551074
 21
16.17312391463728
 31
0.0
 11
181.1148364762483
 21
16.17960510387179
 31
0.0
 11
181.1070811703125
 21
16.12794961777358
 31
0.0
 11
181.1044991623592
 21
16.07642642334204
 31
0.0
 11
181.1070811703124
 21
16.0247566056466
 31
0.0
 11
181.1148364762483
 21
15.97315954836785
 31
0.0
 11
181.0094874054411
 21
15.98001446156058
 31
0.0
 11
180.913637570006
 21
15.98693552058657
 31
0.0
 11
180.8198593171904
 21
15.99378381919598
 31
0.0
 11
180.7209679915882
 21
16.0006321178054
 31
0.0
 11
180.6147532199924
 21
16.00710999974824
 31
0.0
 11
180.4991060528039
 21
16.01268829835794
 31
0.0
 11
180.3666126447258
 21
16.01656554662088
 31
0.0
 11
180.2101546018424
 21
16.01785649280112
 31
0.0
 11
180.2062663293722
 21
15.91037061609187
 31
0.0
 11
180.20153800484
 21
15.80805072896465
 31
0.0
 11
180.197660756675
 21
15.70138175329687
 31
0.0
 11
180.1963698105272
 21
15.5810205901325
 31
0.0
 11
180.1967799146836
 21
15.44856355891565
 31
0.0
 11
180.1980896021503
 21
15.31953288186455
 31
0.0
 11
180.199407457705
 21
15.20777398432308
 31
0.0
 11
180.199819115366
 21
15.12695149302384
 31
0.0
 11
180.3434452935875
 21
15.1278025694125
 31
0.0
 11
180.4716343930759
 21
15.13039989580076
 31
0.0
 11
180.5868078221796
 21
15.13425509545254
 31
0.0
 11
180.6917756312221
 21
15.13901649302076
 31
0.0
 11
180.7876346289422
 21
15.14418027774175
 31
0.0
 11
180.8757413374194
 21
15.14934406246267
 31
0.0
 11
180.9578881438497
 21
15.15491243919739
 31
0.0
 11
181.0357692335572
 21
15.16132086801524
 31
0.0
 11
181.0280180445186
 21
15.10884407115336
 31
0.0
 11
181.0254328449317
 21
15.05469378470858
 31
0.0
 11
181.0280180445186
 21
15.00310444444367
 31
0.0
 11
181.0357692335572
 21
14.95151510417882
 31
0.0
 11
180.9389813454015
 21
14.96092324653757
 31
0.0
 11
180.8275950722016
 21
14.96865128473012
 31
0.0
 11
180.7089261429373
 21
14.97425273438145
 31
0.0
 11
180.5903167449213
 21
14.97726788195011
 31
0.0
 11
180.4750025117521
 21
14.97898767361638
 31
0.0
 11
180.36672619507
 21
14.98070746528256
 31
0.0
 11
180.2724839317709
 21
14.98202486979616
 31
0.0
 11
180.199819115366
 21
14.98243607639328
 31
0.0
 11
180.199407457705
 21
14.95019108508191
 31
0.0
 11
180.1980896021503
 21
14.91542593752118
 31
0.0
 11
180.1967799146836
 21
14.87450702260085
 31
0.0
 11
180.1963698105272
 21
14.82421524309952
 31
0.0
 11
180.1963698105272
 21
14.80326217235822
 31
0.0
 11
180.1963698105272
 21
14.75716541672736
 31
0.0
 11
180.1963698105272
 21
14.71106866109651
 31
0.0
 11
180.1963698105272
 21
14.69011559035521
 31
0.0
 11
180.1963698105272
 21
14.6686452525828
 31
0.0
 11
180.1963698105272
 21
14.61744675481784
 31
0.0
 11
180.1963698105272
 21
14.55633887038868
 31
0.0
 11
180.1963698105272
 21
14.50514037262371
 31
0.0
 11
180.1963698105272
 21
14.4836700348513
 31
0.0
 11
180.1967799146836
 21
14.30481721371548
 31
0.0
 11
180.1980896021503
 21
14.16026100715442
 31
0.0
 11
180.2002868589709
 21
14.04850210961289
 31
0.0
 11
180.2032586986986
 21
13.96767961831365
 31
0.0
 11
180.3202092517448
 21
13.96767961831365
 31
0.0
 11
180.4440727208747
 21
13.96767961831365
 31
0.0
 11
180.5734925526422
 21
13.96897056449389
 31
0.0
 11
180.7003922282245
 21
13.97284781275683
 31
0.0
 11
180.8224658067974
 21
13.97886708358865
 31
0.0
 11
180.9377587499464
 21
13.98663260442002
 31
0.0
 11
181.0421754573519
 21
13.99734161483402
 31
0.0
 11
181.1320599255449
 21
14.01237656274692
 31
0.0
 11
181.1264254031192
 21
13.98698427976715
 31
0.0
 11
181.1234433285424
 21
13.95907184053802
 31
0.0
 11
181.1221339881201
 21
13.93112191867002
 31
0.0
 11
181.1217235369196
 21
13.90575829888472
 31
0.0
 11
181.1243087365065
 21
13.85584355063326
 31
0.0
 11
181.1320599255449
 21
13.81626739612926
 31
0.0
 11
180.9776977178345
 21
13.82145433189186
 31
0.0
 11
180.8242357818766
 21
13.82315538223863
 31
0.0
 11
180.6697789496484
 21
13.82315538223863
 31
0.0
 11
180.5128026496768
 21
13.82315538223863
 31
0.0
 11
180.3554704921537
 21
13.82315538223863
 31
0.0
 11
180.199819115366
 21
13.82315538223863
 31
0.0
 11
180.0441620874242
 21
13.82145433189186
 31
0.0
 11
179.8868249573134
 21
13.81626739612926
 31
0.0
 11
179.8966918223741
 21
14.03601267385209
 31
0.0
 11
179.9057788376618
 21
14.2549112849085
 31
0.0
 11
179.9121721518401
 21
14.47550763902002
 31
0.0
 11
179.914306345501
 21
14.70036378479715
 31
0.0
 11
179.914306345501
 21
14.72578824496874
 31
0.0
 11
179.914306345501
 21
14.79281636723931
 31
0.0
 11
179.914306345501
 21
14.88758026424253
 31
0.0
 11
179.914306345501
 21
14.99621204861207
 31
0.0
 11
179.914306345501
 21
15.10484383298162
 31
0.0
 11
179.914306345501
 21
15.19960772998484
 31
0.0
 11
179.914306345501
 21
15.2666358522554
 31
0.0
 11
179.914306345501
 21
15.292060312427
 31
0.0
 11
179.9121721518401
 21
15.51735963528735
 31
0.0
 11
179.9057788376618
 21
15.7392326039819
 31
0.0
  0
SPLINE
  5
AE
102
{ACAD_REACTORS
330
CB
102
}
330
49
100
AcDbEntity
  8
_U_30EC_U_30A4_U_30E4_U_30FC_1
  6
Continuous
 62
     2
100
AcDbSpline
210
0.0
220
0.0
230
1.0
 70
    11
 71
     3
 72
    95
 73
    91
 74
    89
 42
0.000000001
 43
0.0000000001
 44
0.00000001
 40
0.0
 40
0.0
 40
0.0
 40
0.0
 40
0.6550406656911676
 40
1.308087289032009
 40
1.420803739835879
 40
1.566130759770867
 40
1.757067341888541
 40
2.006513545026547
 40
2.087328263121635
 40
2.185328872295707
 40
2.294612454748443
 40
2.408936380534894
 40
2.52680276779864
 40
2.646360524615686
 40
2.762535723971657
 40
2.870057342870228
 40
2.966883448431725
 40
3.050803243518379
 40
3.115818222436685
 40
3.156030057150335
 40
3.213914225080238
 40
3.276689026450639
 40
3.342960320981416
 40
3.404230667150667
 40
3.453822809493492
 40
3.532499827188532
 40
3.63477518850728
 40
3.754909333008278
 40
3.889736761660777
 40
4.035769602175337
 40
4.187256681197725
 40
4.338733685676069
 40
4.488478734676236
 40
4.634708317831701
 40
4.771493189921388
 40
4.892686571561327
 40
5.199775528944563
 40
5.460353566929752
 40
5.667603142345628
 40
5.814722905404607
 40
5.828990806219934
 40
5.855488336304602
 40
5.869756237118934
 40
6.189796507762939
 40
6.531890469873133
 40
6.8830536370171
 40
7.23051202491161
 40
7.566966656764716
 40
7.885203559707543
 40
8.172887439719366
 40
8.418011594062879
 40
8.4439267211908
 40
8.510760470613288
 40
8.602145393795798
 40
8.70171404164724
 40
8.793098965075469
 40
8.859932715058042
 40
8.885847842603692
 40
9.24230125661291
 40
9.58927545501686
 40
9.921808543164268
 40
10.23479624298477
 40
10.29968150889202
 40
10.35323493887788
 40
10.40154625355169
 40
10.46482922477845
 40
10.55973900668426
 40
10.69239545985637
 40
10.84920353475692
 40
11.01626328594799
 40
11.18672024367463
 40
11.35372582577231
 40
11.50257442292447
 40
11.61866495023311
 40
11.71329869152895
 40
11.82511050573928
 40
11.94464880845736
 40
12.06929242642526
 40
12.19707290435196
 40
12.32562632860549
 40
12.450345653313
 40
12.56646595170348
 40
12.67099007414655
 40
12.76077625936803
 40
12.82703233506714
 40
12.87429132786013
 40
12.89831990323352
 40
12.92234847860041
 40
13.53984767410341
 40
14.18294284359384
 40
14.18294284359384
 40
14.18294284359384
 40
14.18294284359384
 10
177.3067935648022
 20
14.70898038201725
 30
0.0
 10
177.1752019758552
 20
14.82265058603233
 30
0.0
 10
176.9124193802729
 20
15.04964496316159
 30
0.0
 10
176.3997393441019
 20
15.89214462956289
 30
0.0
 10
176.4106654595363
 20
15.5342337757702
 30
0.0
 10
176.4041226527992
 20
15.39267392272133
 30
0.0
 10
176.4028026631773
 20
15.19421305299281
 30
0.0
 10
176.4018117602538
 20
15.02150296045982
 30
0.0
 10
176.4024101751976
 20
14.87865373257579
 30
0.0
 10
176.4038994301881
 20
14.78265005413357
 30
0.0
 10
176.4055683588473
 20
14.67545503263142
 30
0.0
 10
176.4071934954619
 20
14.56164211517582
 30
0.0
 10
176.4092429501686
 20
14.44441572604589
 30
0.0
 10
176.4123165501926
 20
14.3265641123297
 30
0.0
 10
176.4156339697043
 20
14.21228087320621
 30
0.0
 10
176.4193605340281
 20
14.10521401867277
 30
0.0
 10
176.4217338161424
 20
14.01007408766921
 30
0.0
 10
176.427871888836
 20
13.92558557205696
 30
0.0
 10
176.4239784495947
 20
13.86923087298141
 30
0.0
 10
176.4455230443078
 20
13.79825022472354
 30
0.0
 10
176.3680940058619
 20
13.82902677604484
 30
0.0
 10
176.3116353240192
 20
13.82011242517614
 30
0.0
 10
176.2540495896808
 20
13.82896218398276
 30
0.0
 10
176.1690163478473
 20
13.79738225225943
 30
0.0
 10
176.2009714146384
 20
13.88095155992189
 30
0.0
 10
176.199070528254
 20
13.9488260896831
 30
0.0
 10
176.2107960047301
 20
14.05233256764418
 30
0.0
 10
176.2164241053001
 20
14.17002125616695
 30
0.0
 10
176.2237902178942
 20
14.30388609164423
 30
0.0
 10
176.232075970161
 20
14.44764152872633
 30
0.0
 10
176.2398851897428
 20
14.59714022843443
 30
0.0
 10
176.2457571222657
 20
14.74792549402079
 30
0.0
 10
176.2503667817969
 20
14.89699943878438
 30
0.0
 10
176.2542632117543
 20
15.04122913163022
 30
0.0
 10
176.2570715126565
 20
15.17583905213017
 30
0.0
 10
176.2576698755023
 20
15.36469614347354
 30
0.0
 10
176.2616023867151
 20
15.58975494313154
 30
0.0
 10
176.2442175378499
 20
15.86367091125707
 30
0.0
 10
176.2850417342585
 20
16.02787112098598
 30
0.0
 10
176.1995153256
 20
16.22749661465094
 30
0.0
 10
176.2660558907689
 20
16.22385458403979
 30
0.0
 10
176.2838724273231
 20
16.22413447160853
 30
0.0
 10
176.4056801797508
 20
16.22632927398618
 30
0.0
 10
176.5080770335461
 20
15.94675118721511
 30
0.0
 10
176.7580021509357
 20
15.74563008536003
 30
0.0
 10
176.987003533111
 20
15.47792614987913
 30
0.0
 10
177.224515121311
 20
15.22646413862378
 30
0.0
 10
177.4486090740773
 20
14.98969974061358
 30
0.0
 10
177.675071628301
 20
14.73218692583078
 30
0.0
 10
177.8325687886515
 20
14.61649335056924
 30
0.0
 10
178.0472129612676
 20
14.27997152538796
 30
0.0
 10
178.0422645974619
 20
14.40464754091603
 30
0.0
 10
178.0433931602548
 20
14.46327691935737
 30
0.0
 10
178.0428877841516
 20
14.55043662371977
 30
0.0
 10
178.0430475158114
 20
14.64416143182872
 30
0.0
 10
178.043005489132
 20
14.73018971297035
 30
0.0
 10
178.0430202040374
 20
14.79153891945496
 30
0.0
 10
178.0429706255983
 20
14.94135231520991
 30
0.0
 10
178.0458811522811
 20
15.17989612510105
 30
0.0
 10
178.0259521041162
 20
15.54486509868699
 30
0.0
 10
178.0750433936248
 20
15.80799631993417
 30
0.0
 10
177.917795150918
 20
16.21928904947751
 30
0.0
 10
178.0762112872422
 20
16.16398282551749
 30
0.0
 10
178.131168047863
 20
16.16199686500175
 30
0.0
 10
178.1827887766741
 20
16.16264778248252
 30
0.0
 10
178.2713198965367
 20
16.20369527738245
 30
0.0
 10
178.2204898303168
 20
16.05696326622987
 30
0.0
 10
178.2313389930285
 20
15.95019971954433
 30
0.0
 10
178.2166036994847
 20
15.79085705414114
 30
0.0
 10
178.2099976446205
 20
15.62853061652873
 30
0.0
 10
178.2014961399917
 20
15.45992521892396
 30
0.0
 10
178.1943227202199
 20
15.29814814703541
 30
0.0
 10
178.1889063215389
 20
15.15422331457932
 30
0.0
 10
178.1871713967649
 20
15.03437493466925
 30
0.0
 10
178.187544067232
 20
14.92686101590515
 30
0.0
 10
178.1873656126263
 20
14.81820024645586
 30
0.0
 10
178.187701086314
 20
14.6995357016553
 30
0.0
 10
178.1890040622183
 20
14.57555163512741
 30
0.0
 10
178.1908887351575
 20
14.44858294171105
 30
0.0
 10
178.1925004454851
 20
14.32153861551031
 30
0.0
 10
178.1941403137432
 20
14.19854884492178
 30
0.0
 10
178.196257074575
 20
14.08300931383758
 30
0.0
 10
178.1963848422365
 20
13.98090903955837
 30
0.0
 10
178.2006514396555
 20
13.89009848838156
 30
0.0
 10
178.190844008529
 20
13.83213621208786
 30
0.0
 10
178.211847477169
 20
13.76517130132029
 30
0.0
 10
178.1725639739897
 20
13.77291153966688
 30
0.0
 10
177.9595307117747
 20
13.75755254145192
 30
0.0
 10
177.7636297943187
 20
14.31403058094469
 30
0.0
 10
177.4611197631545
 20
14.57556035348511
 30
0.0
 10
177.3067935648022
 20
14.70898038201725
 30
0.0
 11
177.3067935648022
 21
14.70898038201725
 31
0.0
 11
176.8595529338511
 21
15.18757635411977
 31
0.0
 11
176.4124049070643
 21
15.6635264928897
 31
0.0
 11
176.4089664262494
 21
15.55086249986232
 31
0.0
 11
176.4055610183501
 21
15.40557538184311
 31
0.0
 11
176.4029636920275
 21
15.21465645827968
 31
0.0
 11
176.4021126156604
 21
14.96521170139756
 31
0.0
 11
176.402523923029
 21
14.88439802954279
 31
0.0
 11
176.4038420329817
 21
14.78640628477561
 31
0.0
 11
176.4055192267718
 21
14.67713557299739
 31
0.0
 11
176.4072367127519
 21
14.56282454872039
 31
0.0
 11
176.4094007838773
 21
14.44497802965266
 31
0.0
 11
176.4124049070643
 21
14.32545802100199
 31
0.0
 11
176.4158359733139
 21
14.20933349846156
 31
0.0
 11
176.4192928929999
 21
14.1018674655023
 31
0.0
 11
176.4227085253088
 21
14.00510162351264
 31
0.0
 11
176.4261896983794
 21
13.92125406276972
 31
0.0
 11
176.4296006184313
 21
13.8563286200776
 31
0.0
 11
176.4330776843149
 21
13.81626739612926
 31
0.0
 11
176.3754263821572
 21
13.82145433189186
 31
0.0
 11
176.312674631831
 21
13.82315538223863
 31
0.0
 11
176.2464251717157
 21
13.82145433189186
 31
0.0
 11
176.1853747739676
 21
13.81626739612926
 31
0.0
 11
176.1926772737814
 21
13.8653189412559
 31
0.0
 11
176.2008793569055
 21
13.94356725720854
 31
0.0
 11
176.2090098822349
 21
14.04551893253029
 31
0.0
 11
176.2163406441398
 21
14.16542920159752
 31
0.0
 11
176.2236358280422
 21
14.3000591234389
 31
0.0
 11
176.2318444255596
 21
14.44586107652745
 31
0.0
 11
176.2395504149466
 21
14.59715203135073
 31
0.0
 11
176.2455763002093
 21
14.74850913200734
 31
0.0
 11
176.2503046247416
 21
14.89817951391436
 31
0.0
 11
176.2541928972121
 21
15.04435739582222
 31
0.0
 11
176.2567527408966
 21
15.18111831592696
 31
0.0
 11
176.2576324804575
 21
15.3023085068689
 31
0.0
 11
176.2571926106771
 21
15.60939715262544
 31
0.0
 11
176.2559126888348
 21
15.86997204839365
 31
0.0
 11
176.2528658717893
 21
16.07719922716125
 31
0.0
 11
176.2473049112764
 21
16.22421385386062
 31
0.0
 11
176.261572812147
 21
16.22421385386062
 31
0.0
 11
176.2880703423353
 21
16.22421385386062
 31
0.0
 11
176.3023382432059
 21
16.22421385386062
 31
0.0
 11
176.5194743650278
 21
15.98910179662773
 31
0.0
 11
176.751274412308
 21
15.73751281231561
 31
0.0
 11
176.989481601884
 21
15.4794955554357
 31
0.0
 11
177.2260074557522
 21
15.22497079855489
 31
0.0
 11
177.4555698717706
 21
14.97899759549137
 31
0.0
 11
177.6731797360104
 21
14.74678934034107
 31
0.0
 11
177.8713724913708
 21
14.53826680567099
 31
0.0
 11
178.0430143099087
 21
14.36326697932589
 31
0.0
 11
178.0430143099087
 21
14.38918210687043
 31
0.0
 11
178.0430143099087
 21
14.45601585685371
 31
0.0
 11
178.0430143099087
 21
14.54740078030025
 31
0.0
 11
178.0430143099087
 21
14.64696942823453
 31
0.0
 11
178.0430143099087
 21
14.73835435168106
 31
0.0
 11
178.0430143099087
 21
14.80518810166435
 31
0.0
 11
178.0430143099087
 21
14.83110322920889
 31
0.0
 11
178.041723363761
 21
15.18755430550867
 31
0.0
 11
178.0378461155959
 21
15.53450684014415
 31
0.0
 11
178.0296197790003
 21
15.86693815950552
 31
0.0
 11
178.0154535467228
 21
16.17960510387179
 31
0.0
 11
178.079035124962
 21
16.16666367158334
 31
0.0
 11
178.1324170159612
 21
16.16238072887607
 31
0.0
 11
178.1805381084834
 21
16.16666367158334
 31
0.0
 11
178.2424836798198
 21
16.17960510387179
 31
0.0
 11
178.2351216487575
 21
16.084981284451
 31
0.0
 11
178.2269790968819
 21
15.95257496503965
 31
0.0
 11
178.2183705364005
 21
15.79600336785656
 31
0.0
 11
178.2097547223216
 21
15.62916593734271
 31
0.0
 11
178.201618785029
 21
15.4589032550936
 31
0.0
 11
178.1942501393836
 21
15.292060312427
 31
0.0
 11
178.1891406931522
 21
15.1432994357281
 31
0.0
 11
178.1874503478905
 21
15.02722121527101
 31
0.0
 11
178.1874503478905
 21
14.93258747397518
 31
0.0
 11
178.1874503478905
 21
14.82077565976707
 31
0.0
 11
178.1878461204497
 21
14.70123801222749
 31
0.0
 11
178.1890819450708
 21
14.5766005209392
 31
0.0
 11
178.1908392193318
 21
14.44883212687391
 31
0.0
 11
178.1925303477609
 21
14.32028982655879
 31
0.0
 11
178.1942876220216
 21
14.19558288214555
 31
0.0
 11
178.1959787504505
 21
14.07947489606349
 31
0.0
 11
178.1972884379173
 21
13.97495896727017
 31
0.0
 11
178.1976985420736
 21
13.88517371555652
 31
0.0
 11
178.1976985420736
 21
13.81891763918416
 31
0.0
 11
178.1976985420736
 21
13.77165864614041
 31
0.0
 11
178.1736699662977
 21
13.77165864614041
 31
0.0
 11
178.1496413905218
 21
13.77165864614041
 31
0.0
 11
177.7410729200424
 21
14.2346673526219
 31
0.0
 11
177.3067935648022
 21
14.70898038201725
 31
0.0
  0
SPLINE
  5
AF
102
{ACAD_REACTORS
330
CC
102
}
330
49
100
AcDbEntity
  8
_U_30EC_U_30A4_U_30E4_U_30FC_1
  6
Continuous
 62
     2
100
AcDbSpline
210
0.0
220
0.0
230
1.0
 70
    11
 71
     3
 72
    25
 73
    21
 74
    19
 42
0.000000001
 43
0.0000000001
 44
0.00000001
 40
0.0
 40
0.0
 40
0.0
 40
0.0
 40
0.0911479969064537
 40
0.1858117896204953
 40
0.280412839973506
 40
0.3715889190714795
 40
0.467908049421814
 40
0.5642683809229231
 40
0.6605683222644991
 40
0.7569653015810256
 40
0.8561348172522739
 40
1.092615965104304
 40
1.374867658141898
 40
1.61134881201159
 40
1.710518328425249
 40
1.809403163726556
 40
2.045205463294081
 40
2.32664691762213
 40
2.562449217190603
 40
2.661334043833911
 40
2.661334043833911
 40
2.661334043833911
 40
2.661334043833911
 10
173.26837005672
 20
14.88614538197292
 30
0.0
 10
173.2987525917923
 20
14.88598079714554
 30
0.0
 10
173.3606895889112
 20
14.88564528689923
 30
0.0
 10
173.4541356960332
 20
14.88269055451999
 30
0.0
 10
173.5475095236358
 20
14.87977752877151
 30
0.0
 10
173.6417760753477
 20
14.87894201643416
 30
0.0
 10
173.7354964790967
 20
14.87996644658046
 30
0.0
 10
173.8352040303205
 20
14.87916977470972
 30
0.0
 10
173.9188949546313
 20
14.8892141023522
 30
0.0
 10
174.0637996315046
 20
14.86234617674165
 30
0.0
 10
173.9396132444802
 20
15.03665530280049
 30
0.0
 10
173.8965867286282
 20
15.19651711006091
 30
0.0
 10
173.7808922142209
 20
15.45518458550212
 30
0.0
 10
173.7017565431258
 20
15.5923105286186
 30
0.0
 10
173.6431576621817
 20
15.80937033134077
 30
0.0
 10
173.5864803939439
 20
15.59266134213426
 30
0.0
 10
173.5052809900477
 20
15.45327012438239
 30
0.0
 10
173.4063701281489
 20
15.20406969370192
 30
0.0
 10
173.3253625094259
 20
15.01925830226075
 30
0.0
 10
173.2813683325839
 20
14.91650446856117
 30
0.0
 10
173.26837005672
 20
14.88614538197292
 30
0.0
 11
173.26837005672
 21
14.88614538197292
 31
0.0
 11
173.3595137737821
 21
14.8852612326676
 31
0.0
 11
173.4541428297582
 21
14.88269697919598
 31
0.0
 11
173.5487082179707
 21
14.88009965280777
 31
0.0
 11
173.6398803250197
 21
14.8792485764191
 31
0.0
 11
173.7361985777706
 21
14.87965978301621
 31
0.0
 11
173.8325499034377
 21
14.88097718752971
 31
0.0
 11
173.9288262638287
 21
14.88310818579312
 31
0.0
 11
174.0251753846344
 21
14.88614538197292
 31
0.0
 11
173.9854633323142
 21
14.9770164219502
 31
0.0
 11
173.8907653613969
 21
15.19370890189602
 31
0.0
 11
173.7777387509471
 21
15.45234186183135
 31
0.0
 11
173.6830407800298
 21
15.66903434177717
 31
0.0
 11
173.6433287277096
 21
15.75990538175445
 31
0.0
 11
173.6043330259267
 21
15.66903434177717
 31
0.0
 11
173.5113432755213
 21
15.45234186183135
 31
0.0
 11
173.4003555089083
 21
15.19370890189602
 31
0.0
 11
173.3073657585029
 21
14.9770164219502
 31
0.0
 11
173.26837005672
 21
14.88614538197292
 31
0.0
  0
SPLINE
  5
B0
102
{ACAD_REACTORS
330
CC
102
}
330
49
100
AcDbEntity
  8
_U_30EC_U_30A4_U_30E4_U_30FC_1
  6
Continuous
 62
     2
100
AcDbSpline
210
0.0
220
0.0
230
1.0
 70
    11
 71
     3
 72
    57
 73
    53
 74
    51
 42
0.000000001
 43
0.0000000001
 44
0.00000001
 40
0.0
 40
0.0
 40
0.0
 40
0.0
 40
0.0471632082809533
 40
0.0914861054631885
 40
0.135776251970212
 40
0.1826527001610699
 40
0.2295203288572608
 40
0.273775197222163
 40
0.3181310461543089
 40
0.3652607198398548
 40
0.4571007286314813
 40
0.5671851029165687
 40
0.6894623283868673
 40
0.8181758272546049
 40
0.9510087229274113
 40
1.085852229674064
 40
1.218126164475311
 40
1.343545131142392
 40
1.454537202956779
 40
1.567187607530817
 40
1.680710966642436
 40
1.794226869736885
 40
1.900009184247628
 40
2.004085860447964
 40
2.108162674451823
 40
2.214000150155311
 40
2.496038577352179
 40
2.762350745479288
 40
2.997275353279412
 40
3.185110082137743
 40
3.246407890063971
 40
3.312607550212702
 40
3.378877742711633
 40
3.44014039965146
 40
4.100501696006468
 40
4.754913085563488
 40
5.411331693423924
 40
6.07789043256873
 40
6.110575292671009
 40
6.143260152775789
 40
6.36798936339516
 40
6.610525374951568
 40
6.86338913646733
 40
7.119380025547616
 40
7.376036605091096
 40
7.63116477096631
 40
7.876722425456443
 40
8.104953735855933
 40
8.31291668592432
 40
8.49773029494132
 40
8.651018984313868
 40
8.764738853624614
 40
8.764738853624614
 40
8.764738853624614
 40
8.764738853624614
 10
174.7922649500514
 20
13.81626739612926
 30
0.0
 10
174.7766616726931
 20
13.81826231079077
 30
0.0
 10
174.7463947960303
 20
13.82213201360299
 30
0.0
 10
174.7010994202253
 20
13.82341984967269
 30
0.0
 10
174.655955312935
 20
13.82308683554051
 30
0.0
 10
174.60990171234
 20
13.82314658674225
 30
0.0
 10
174.5640496172097
 20
13.82325813650002
 30
0.0
 10
174.5183711648165
 20
13.82277833456591
 30
0.0
 10
174.4750811541609
 20
13.82461109618721
 30
0.0
 10
174.4039947951514
 20
13.80049556814654
 30
0.0
 10
174.4057477261441
 20
13.92184693977251
 30
0.0
 10
174.358619637057
 20
14.00726239751233
 30
0.0
 10
174.3191478251762
 20
14.12486929345135
 30
0.0
 10
174.2706635532646
 20
14.24232752540441
 30
0.0
 10
174.2201017402522
 20
14.36405935761508
 30
0.0
 10
174.1718634610478
 20
14.49075967862465
 30
0.0
 10
174.1135232947595
 20
14.59933687784953
 30
0.0
 10
174.0980892667262
 20
14.75620657134409
 30
0.0
 10
173.9566586330637
 20
14.72373446548322
 30
0.0
 10
173.8508397414905
 20
14.7351288868218
 30
0.0
 10
173.7358569725222
 20
14.73392591514615
 30
0.0
 10
173.6253142252141
 20
14.73506945347408
 30
0.0
 10
173.5176583522783
 20
14.73418350037526
 30
0.0
 10
173.4121322529243
 20
14.73416602390519
 30
0.0
 10
173.3109192682013
 20
14.72714032472415
 30
0.0
 10
173.1266804827754
 20
14.75135859859865
 30
0.0
 10
173.1157393685411
 20
14.44741691121889
 30
0.0
 10
173.0087691634752
 20
14.22353177253395
 30
0.0
 10
172.9098148604347
 20
14.03895314292498
 30
0.0
 10
172.9225090524009
 20
13.79530204804203
 30
0.0
 10
172.8050091716397
 20
13.82508046753198
 30
0.0
 10
172.7422055868311
 20
13.82258089509604
 30
0.0
 10
172.67858720934
 20
13.82344075102806
 30
0.0
 10
172.3946014194077
 20
13.78098039941939
 30
0.0
 10
173.0251638499381
 20
14.50081952444788
 30
0.0
 10
173.1087645289071
 20
15.0127653943573
 30
0.0
 10
173.4929252789338
 20
15.53353743550043
 30
0.0
 10
173.4777208288569
 20
16.23519626253213
 30
0.0
 10
173.7239265722698
 20
16.22345633081257
 30
0.0
 10
173.8256346157563
 20
16.23225004452772
 30
0.0
 10
173.8249752035818
 20
15.98059650730345
 30
0.0
 10
173.9428317155829
 20
15.79818020733959
 30
0.0
 10
174.0315515260485
 20
15.55563740662865
 30
0.0
 10
174.1322292485261
 20
15.3234003053013
 30
0.0
 10
174.2311142712243
 20
15.0867464456691
 30
0.0
 10
174.329967699067
 20
14.85461739170095
 30
0.0
 10
174.4256166390927
 20
14.63122222788792
 30
0.0
 10
174.515990457327
 20
14.42272549049311
 30
0.0
 10
174.598994456819
 20
14.23308448529323
 30
0.0
 10
174.6726088582799
 20
14.06663106068099
 30
0.0
 10
174.7342815895547
 20
13.92917699626097
 30
0.0
 10
174.7749458885604
 20
13.84999239430033
 30
0.0
 10
174.7922649500514
 20
13.81626739612926
 30
0.0
 11
174.7922649500514
 21
13.81626739612926
 31
0.0
 11
174.7453878317448
 21
13.82145433189186
 31
0.0
 11
174.7010975896126
 21
13.82315538223863
 31
0.0
 11
174.656807443173
 21
13.82315538223863
 31
0.0
 11
174.609930994716
 21
13.82315538223863
 31
0.0
 11
174.5630633657034
 21
13.82315538223863
 31
0.0
 11
174.5188084970408
 21
13.82315538223863
 31
0.0
 11
174.4744852776855
 21
13.82145433189186
 31
0.0
 11
174.4276419021444
 21
13.81626739612926
 31
0.0
 11
174.3992532136325
 21
13.90360966173245
 31
0.0
 11
174.3622721815898
 21
14.0072965627482
 31
0.0
 11
174.3188386236701
 21
14.12159987001127
 31
0.0
 11
174.2711055866937
 21
14.24113531268969
 31
0.0
 11
174.2208160133237
 21
14.36408057307564
 31
0.0
 11
174.1696467003933
 21
14.48883822929446
 31
0.0
 11
174.1197531801327
 21
14.61134141502772
 31
0.0
 11
174.0733119111842
 21
14.72784517367917
 31
0.0
 11
173.962361190759
 21
14.73087465284506
 31
0.0
 11
173.849730922509
 21
14.7330045486779
 31
0.0
 11
173.736215206945
 21
14.7343219531914
 31
0.0
 11
173.62270004768
 21
14.73473315978852
 31
0.0
 11
173.5169185312816
 21
14.7343219531914
 31
0.0
 11
173.4128501919225
 21
14.7330045486779
 31
0.0
 11
173.3087951724045
 21
14.73087465284506
 31
0.0
 11
173.2030010615597
 21
14.72784517367917
 31
0.0
 11
173.0980914750139
 21
14.4660443751335
 31
0.0
 11
173.0034868690332
 21
14.2171023265846
 31
0.0
 11
172.9252231210299
 21
13.99559756969557
 31
0.0
 11
172.8693431224556
 21
13.81626739612926
 31
0.0
 11
172.8082651639443
 21
13.82145433189186
 31
0.0
 11
172.7420873618131
 21
13.82315538223863
 31
0.0
 11
172.6758390041283
 21
13.82145433189186
 31
0.0
 11
172.6147963233939
 21
13.81626739612926
 31
0.0
 11
172.8899684951931
 21
14.41656508695142
 31
0.0
 11
173.158294573417
 21
15.01343642360774
 31
0.0
 11
173.4240277350405
 21
15.61366245644381
 31
0.0
 11
173.6914740737034
 21
16.22421385386062
 31
0.0
 11
173.7241589339807
 21
16.22421385386062
 31
0.0
 11
173.756843794258
 21
16.22421385386062
 31
0.0
 11
173.8428300681058
 21
16.01658539037084
 31
0.0
 11
173.935728581361
 21
15.79254614563517
 31
0.0
 11
174.0328714521464
 21
15.55908663180468
 31
0.0
 11
174.1317936458032
 21
15.32298128464146
 31
0.0
 11
174.2315341249927
 21
15.08649780379784
 31
0.0
 11
174.3313071129354
 21
14.85168781253711
 31
0.0
 11
174.428060825745
 21
14.6259949219685
 31
0.0
 11
174.5188084970408
 21
14.4165805209792
 31
0.0
 11
174.6022150834547
 21
14.22607611130461
 31
0.0
 11
174.6770293263378
 21
14.05708232662467
 31
0.0
 11
174.7410729186604
 21
13.91781337700668
 31
0.0
 11
174.7922649500514
 21
13.81626739612926
 31
0.0
  0
SPLINE
  5
B1
102
{ACAD_REACTORS
330
CD
102
}
330
49
100
AcDbEntity
  8
_U_30EC_U_30A4_U_30E4_U_30FC_1
  6
Continuous
 62
     2
100
AcDbSpline
210
0.0
220
0.0
230
1.0
 70
    11
 71
     3
 72
    99
 73
    95
 74
    93
 42
0.000000001
 43
0.0000000001
 44
0.00000001
 40
0.0
 40
0.0
 40
0.0
 40
0.0
 40
0.0796417172273046
 40
0.162176854235658
 40
0.2486489160958234
 40
0.3404969668525192
 40
0.4381912511165489
 40
0.5434463660245508
 40
0.6518115192847544
 40
0.7530190937887389
 40
0.8492196919725428
 40
0.9419290312998616
 40
1.034249663570069
 40
1.129078600620241
 40
1.226697027573278
 40
1.327220425421743
 40
1.470572134938061
 40
1.595489863371281
 40
1.719934125348405
 40
1.8505766201275
 40
1.989059629987337
 40
2.134139054226901
 40
2.280698007207216
 40
2.424529739039483
 40
2.565929576985848
 40
2.708239260773545
 40
2.861717887443663
 40
3.045168540347366
 40
3.183798301138616
 40
3.314813961455472
 40
3.442083470447308
 40
3.569912708372907
 40
3.702177512509355
 40
3.842307559659545
 40
3.992872223245921
 40
4.156750662218367
 40
4.310981861107589
 40
4.445859909322606
 40
4.572393936131599
 40
4.701656719781998
 40
4.768279086008485
 40
4.83596069789842
 40
4.912788918729361
 40
5.006285208481548
 40
5.026909478751681
 40
5.047533749021302
 40
5.10180803147134
 40
5.162325165538659
 40
5.226919745995979
 40
5.294231806596777
 40
5.364544852554946
 40
5.438319055467992
 40
5.517877651324354
 40
5.607647714861609
 40
5.700449642544456
 40
5.788251142364296
 40
5.872714706039852
 40
5.955167292575344
 40
6.037192395190471
 40
6.120669181469189
 40
6.206848616686429
 40
6.296680855416851
 40
6.442558392872671
 40
6.568190371608319
 40
6.692904567360486
 40
6.824220446557238
 40
6.963121850329499
 40
7.107843738851288
 40
7.253431663907372
 40
7.395187468036795
 40
7.533140753237851
 40
7.670550457175339
 40
7.816236511769343
 40
7.987691657359301
 40
8.142277421969327
 40
8.293662615415078
 40
8.442962460879347
 40
8.591598316185374
 40
8.74367899236183
 40
8.90372532369924
 40
9.076307008890586
 40
9.265578604680641
 40
9.459203795360759
 40
9.617619810273572
 40
9.753609671361982
 40
9.87487330000413
 40
9.954520184977826
 40
10.0241641371925
 40
10.09769764405451
 40
10.18909955924978
 40
10.20974586420139
 40
10.23039218263382
 40
10.30057101881268
 40
10.37632012987543
 40
10.37632012987543
 40
10.37632012987543
 40
10.37632012987543
 10
170.1465954835851
 20
14.13795663215994
 30
0.0
 10
170.1632217851219
 20
14.11720608845313
 30
0.0
 10
170.1970784206578
 20
14.07495111711903
 30
0.0
 10
170.2599822541037
 20
14.02029811392072
 30
0.0
 10
170.3332500940394
 20
13.97299025121051
 30
0.0
 10
170.4175969238637
 20
13.93527231437934
 30
0.0
 10
170.513224061546
 20
13.91040619731952
 30
0.0
 10
170.6171853775347
 20
13.90309559345937
 30
0.0
 10
170.7224020220406
 20
13.91142322794054
 30
0.0
 10
170.8206626371334
 20
13.94149179651527
 30
0.0
 10
170.9058986427548
 20
13.98848822971878
 30
0.0
 10
170.9779220206104
 20
14.04952991250854
 30
0.0
 10
171.0350917709096
 20
14.12412969578584
 30
0.0
 10
171.0767868747441
 20
14.21002464660172
 30
0.0
 10
171.1026952846292
 20
14.30485850432212
 30
0.0
 10
171.1118037332654
 20
14.41854979038366
 30
0.0
 10
171.0986864796487
 20
14.5433258777078
 30
0.0
 10
171.0325330334414
 20
14.66014719171887
 30
0.0
 10
170.9369370919569
 20
14.74512539577378
 30
0.0
 10
170.8249681022369
 20
14.81416684459158
 30
0.0
 10
170.699365958327
 20
14.87204142045891
 30
0.0
 10
170.5656691620857
 20
14.92373723284342
 30
0.0
 10
170.4313122818832
 20
14.97899092397181
 30
0.0
 10
170.3051983986878
 20
15.04939770641649
 30
0.0
 10
170.1926579987536
 20
15.13785540731249
 30
0.0
 10
170.0969963064458
 20
15.24981067868472
 30
0.0
 10
170.0334157151827
 20
15.39949910101383
 30
0.0
 10
170.0200706505016
 20
15.55932794385141
 30
0.0
 10
170.0320510987449
 20
15.71048405306845
 30
0.0
 10
170.0712298928841
 20
15.83809244591537
 30
0.0
 10
170.1354987750911
 20
15.95080874030842
 30
0.0
 10
170.223820499974
 20
16.0464860926869
 30
0.0
 10
170.3338091207628
 20
16.12354214985753
 30
0.0
 10
170.4632284401265
 20
16.18151396936276
 30
0.0
 10
170.6111838967794
 20
16.21739177588823
 30
0.0
 10
170.7682069455487
 20
16.22746719050564
 30
0.0
 10
170.9174940466431
 20
16.21863637762591
 30
0.0
 10
171.0596253614171
 20
16.19074899340352
 30
0.0
 10
171.1595922609626
 20
16.13413314701138
 30
0.0
 10
171.3125074736186
 20
16.08674602105507
 30
0.0
 10
171.2455131717169
 20
16.00197553001184
 30
0.0
 10
171.229647912027
 20
15.93438901873484
 30
0.0
 10
171.1978750531297
 20
15.86926092793191
 30
0.0
 10
171.2150202209572
 20
15.76723453256952
 30
0.0
 10
171.1666427208232
 20
15.77493211681903
 30
0.0
 10
171.1315789440766
 20
15.76806771724807
 30
0.0
 10
171.1296697985719
 20
15.83263831158199
 30
0.0
 10
171.0985692931989
 20
15.87825639621393
 30
0.0
 10
171.0664551628456
 20
15.9356103662845
 30
0.0
 10
171.0208038475169
 20
15.98540462692564
 30
0.0
 10
170.9658508218388
 20
16.02994813718993
 30
0.0
 10
170.9010841173008
 20
16.06763988836551
 30
0.0
 10
170.8232377310598
 20
16.09283375791351
 30
0.0
 10
170.7355160553353
 20
16.09931230998111
 30
0.0
 10
170.6452903277807
 20
16.09235709285604
 30
0.0
 10
170.5594594694065
 20
16.06909190460925
 30
0.0
 10
170.4828343638596
 20
16.03131644107543
 30
0.0
 10
170.4165265636202
 20
15.98051641089571
 30
0.0
 10
170.3622560536964
 20
15.91731143407213
 30
0.0
 10
170.322492534546
 20
15.84276455710366
 30
0.0
 10
170.2976775510588
 20
15.75917313997763
 30
0.0
 10
170.289212426287
 20
15.65192948382284
 30
0.0
 10
170.3019697987104
 20
15.52965457267562
 30
0.0
 10
170.3681548409273
 20
15.41149724291204
 30
0.0
 10
170.4640977399833
 20
15.32606325709532
 30
0.0
 10
170.5757914963183
 20
15.25583362306719
 30
0.0
 10
170.7010863668703
 20
15.19659162305305
 30
0.0
 10
170.8349823941448
 20
15.14616708086132
 30
0.0
 10
170.9689930333151
 20
15.09322516984382
 30
0.0
 10
171.0950885316916
 20
15.02750170625175
 30
0.0
 10
171.2076216638418
 20
14.94480352537322
 30
0.0
 10
171.3031370284233
 20
14.83996006310074
 30
0.0
 10
171.3672706486963
 20
14.6993711725157
 30
0.0
 10
171.3811103725279
 20
14.54065409451592
 30
0.0
 10
171.3673954712229
 20
14.38153155217877
 30
0.0
 10
171.3244739153986
 20
14.23483828819208
 30
0.0
 10
171.2545906329066
 20
14.10119796587144
 30
0.0
 10
171.157459221383
 20
13.98532387699292
 30
0.0
 10
171.0347806023658
 20
13.89089981770086
 30
0.0
 10
170.8874408413168
 20
13.82179270651982
 30
0.0
 10
170.7177132497125
 20
13.77953210858853
 30
0.0
 10
170.5317404979598
 20
13.76781736230407
 30
0.0
 10
170.3528955926184
 20
13.77809486683437
 30
0.0
 10
170.1881733753744
 20
13.81966573769155
 30
0.0
 10
170.0834410841057
 20
13.88797642883938
 30
0.0
 10
169.9350960790367
 20
13.93675219032107
 30
0.0
 10
169.9980378194729
 20
14.02976591290842
 30
0.0
 10
170.0072274430061
 20
14.1029653624828
 30
0.0
 10
170.0303711301232
 20
14.16936294501346
 30
0.0
 10
170.0034588335318
 20
14.2697480952758
 30
0.0
 10
170.052133895634
 20
14.26234033517378
 30
0.0
 10
170.0916530580697
 20
14.26894063620894
 30
0.0
 10
170.0996204944703
 20
14.19078703218934
 30
0.0
 10
170.1305436967923
 20
14.15600927375857
 30
0.0
 10
170.1465954835851
 20
14.13795663215994
 30
0.0
 11
170.1465954835851
 21
14.13795663215994
 31
0.0
 11
170.1982038075865
 21
14.07729869814736
 31
0.0
 11
170.2601105501336
 21
14.0227129516332
 31
0.0
 11
170.3327764009803
 21
13.97583980928383
 31
0.0
 11
170.4166468655844
 21
13.93839906276537
 31
0.0
 11
170.5112210732411
 21
13.91390636311877
 31
0.0
 11
170.6161603327166
 21
13.90575829888472
 31
0.0
 11
170.7240739497552
 21
13.91564048638223
 31
0.0
 11
170.8208419941617
 21
13.94528704887482
 31
0.0
 11
170.9050776083319
 21
13.99175118948819
 31
0.0
 11
170.9756144207687
 21
14.05191413218149
 31
0.0
 11
171.031944210998
 21
14.12505819466319
 31
0.0
 11
171.0736690016004
 21
14.21021434047522
 31
0.0
 11
171.0994680808033
 21
14.30436190989612
 31
0.0
 11
171.1080824729447
 21
14.4045155209822
 31
0.0
 11
171.0878517703357
 21
14.54643250879397
 31
0.0
 11
171.0272522666731
 21
14.65566684036386
 31
0.0
 11
170.9364971286286
 21
14.74081306430094
 31
0.0
 11
170.826010188474
 21
14.81052746532517
 31
0.0
 11
170.7008523531255
 21
14.86979854169923
 31
0.0
 11
170.5662951950999
 21
14.9240425347412
 31
0.0
 11
170.4316884277008
 21
14.98201274306004
 31
0.0
 11
170.3065802017259
 21
15.05297399304232
 31
0.0
 11
170.1960276098281
 21
15.14113315968694
 31
0.0
 11
170.1053381235266
 21
15.25080295132617
 31
0.0
 11
170.0447055469485
 21
15.39179720476315
 31
0.0
 11
170.0245079172554
 21
15.57413260402313
 31
0.0
 11
170.0374030471348
 21
15.71216131926642
 31
0.0
 11
170.0761016659392
 21
15.83733128451289
 31
0.0
 11
170.1393141731507
 21
15.94779262129084
 31
0.0
 11
170.2257499954545
 21
16.04196885390621
 31
0.0
 11
170.3336492808963
 21
16.11846540770651
 31
0.0
 11
170.4613526283329
 21
16.17615670109487
 31
0.0
 11
170.6075393259923
 21
16.21220066809973
 31
0.0
 11
170.7709768565451
 21
16.22421385386062
 31
0.0
 11
170.924891843129
 21
16.21434269066864
 31
0.0
 11
171.0564887242608
 21
16.18477329831497
 31
0.0
 11
171.1725636344941
 21
16.13439993895252
 31
0.0
 11
171.2800792741123
 21
16.06264163167877
 31
0.0
 11
171.2516994050445
 21
16.00236624106886
 31
0.0
 11
171.2284855254284
 21
15.93879017337648
 31
0.0
 11
171.2078381040801
 21
15.86478841992269
 31
0.0
 11
171.1871840681488
 21
15.77360197897328
 31
0.0
 11
171.1665597978416
 21
15.77360197897328
 31
0.0
 11
171.1459355275343
 21
15.77360197897328
 31
0.0
 11
171.1256706495791
 21
15.82395108486347
 31
0.0
 11
171.0994658759421
 21
15.87850045116929
 31
0.0
 11
171.0650468924451
 21
15.93316116296115
 31
0.0
 11
171.0203554612938
 21
15.98349593725411
 31
0.0
 11
170.9657333359511
 21
16.02777175321529
 31
0.0
 11
170.9016722004327
 21
16.06436142334501
 31
0.0
 11
170.8259682961141
 21
16.08882545979727
 31
0.0
 11
170.736572204645
 21
16.09701100667022
 31
0.0
 11
170.6440937174208
 21
16.08926973931101
 31
0.0
 11
170.5594072091645
 21
16.06609003445566
 31
0.0
 11
170.4837024488841
 21
16.02863495634008
 31
0.0
 11
170.4183754766517
 21
15.97832774281102
 31
0.0
 11
170.3650487887665
 21
15.9160029337988
 31
0.0
 11
170.3254809233902
 21
15.84249947895607
 31
0.0
 11
170.3009523754712
 21
15.75988443557391
 31
0.0
 11
170.2927954104109
 21
15.67042329844352
 31
0.0
 11
170.3130095765618
 21
15.52595308146574
 31
0.0
 11
170.373625616682
 21
15.41591177072937
 31
0.0
 11
170.4643479320759
 21
15.33033670130631
 31
0.0
 11
170.5748676948814
 21
15.25941954854625
 31
0.0
 11
170.700008993772
 21
15.19914305550579
 31
0.0
 11
170.8345826882554
 21
15.14590447913021
 31
0.0
 11
170.9691729191968
 21
15.09039489581074
 31
0.0
 11
171.0942976816298
 21
15.0237728124941
 31
0.0
 11
171.2048009079771
 21
14.94118863716749
 31
0.0
 11
171.2955397598289
 21
14.83800003476272
 31
0.0
 11
171.3561557999489
 21
14.70552315979584
 31
0.0
 11
171.3763699660998
 21
14.53526378483839
 31
0.0
 11
171.3621839747998
 21
14.38133030397413
 31
0.0
 11
171.3196087009194
 21
14.23605531269097
 31
0.0
 11
171.2499752884266
 21
14.10398854189068
 31
0.0
 11
171.1544992078714
 21
13.99007218775248
 31
0.0
 11
171.0341060772625
 21
13.89715272597017
 31
0.0
 11
170.8896160201847
 21
13.8283235766818
 31
0.0
 11
170.7223519532714
 21
13.78581275203967
 31
0.0
 11
170.5336103348227
 21
13.77165864614041
 31
0.0
 11
170.3405031726389
 21
13.78581275203967
 31
0.0
 11
170.1878975900912
 21
13.8283235766818
 31
0.0
 11
170.0661897942203
 21
13.88899033013889
 31
0.0
 11
169.9660261826364
 21
13.95734322942737
 31
0.0
 11
169.992232058704
 21
14.03255545163076
 31
0.0
 11
170.0090121537619
 21
14.10014767383612
 31
0.0
 11
170.0206196447853
 21
14.17275926235962
 31
0.0
 11
170.031360625414
 21
14.26352788212859
 31
0.0
 11
170.0520069443317
 21
14.26352788212859
 31
0.0
 11
170.0726532632493
 21
14.26352788212859
 31
0.0
 11
170.104891639163
 21
14.20119204881083
 31
0.0
 11
170.1465954835851
 21
14.13795663215994
 31
0.0
  0
LWPOLYLINE
  5
B2
102
{ACAD_REACTORS
330
BF
102
}
330
49
100
AcDbEntity
  8
_U_30EC_U_30A4_U_30E4_U_30FC_1
  6
Continuous
 62
     2
100
AcDbPolyline
 90
        5
 70
     1
 43
0.0
 10
192.4578138032672
 20
15.39722336795626
 10
192.4578138032672
 20
15.22875434022058
 10
191.1602971697032
 20
15.22875434022058
 10
191.1602971697032
 20
15.39722336795626
 10
192.4578138032672
 20
15.39722336795626
  0
MTEXT
  5
B4
330
49
100
AcDbEntity
  8
1
 62
     2
100
AcDbMText
 10
32.50000000000006
 20
282.0000000000003
 30
0.0
 40
5.0
 41
0.0
 71
     5
 72
     1
  1
図番
  7
CONVERTER_11
 73
     1
 44
0.45454545454545
  0
MTEXT
  5
B5
330
49
100
AcDbEntity
  8
1
 62
     2
100
AcDbMText
 10
29.00000000000006
 20
34.0
 30
0.0
 40
3.5
 41
0.0
 71
     5
 72
     1
  1
備考
  7
CONVERTER_11
 73
     1
 44
0.45454545454545
  0
MTEXT
  5
B6
330
49
100
AcDbEntity
  8
1
 62
     2
100
AcDbMText
 10
29.00000000000006
 20
22.75
 30
0.0
 40
3.5
 41
0.0
 71
     5
 72
     1
  1
品名
  7
CONVERTER_11
 73
     1
 44
0.72727272727273
  0
MTEXT
  5
B7
330
49
100
AcDbEntity
  8
1
 62
     2
100
AcDbMText
 10
29.00000000000006
 20
14.25
 30
0.0
 40
3.5
 41
0.0
 71
     5
 72
     1
  1
品番
  7
CONVERTER_11
 73
     1
 44
0.72727272727273
  0
MTEXT
  5
B8
330
49
100
AcDbEntity
  8
1
 62
     2
100
AcDbMText
 10
101.5000000000001
 20
25.00000000000001
 30
0.0
 40
3.0
 41
0.0
 71
     5
 72
     1
  1
承認
  7
CONVERTER_11
 73
     1
 44
0.59090909090909
  0
MTEXT
  5
B9
330
49
100
AcDbEntity
  8
1
 62
     2
100
AcDbMText
 10
175.0000000000001
 20
23.50000000000001
 30
0.0
 40
3.5
 41
0.0
 71
     5
 72
     1
  1
第三角法
  7
CONVERTER_11
 73
     1
 44
0.54545454545455
  0
MTEXT
  5
BA
330
49
100
AcDbEntity
  8
1
 62
     2
100
AcDbMText
 10
118.5000000000001
 20
25.00000000000001
 30
0.0
 40
3.0
 41
0.0
 71
     5
 72
     1
  1
検図
  7
CONVERTER_11
 73
     1
 44
0.59090909090909
  0
MTEXT
  5
BB
330
49
100
AcDbEntity
  8
1
 62
     2
100
AcDbMText
 10
152.5000000000001
 20
25.00000000000001
 30
0.0
 40
3.0
 41
0.0
 71
     5
 72
     1
  1
担当
  7
CONVERTER_11
 73
     1
 44
0.59090909090909
  0
MTEXT
  5
BC
330
49
100
AcDbEntity
  8
1
 62
     2
100
AcDbMText
 10
135.5000000000001
 20
25.00000000000001
 30
0.0
 40
3.0
 41
0.0
 71
     5
 72
     1
  1
製図
  7
CONVERTER_11
 73
     1
 44
0.59090909090909
  0
MTEXT
  5
BD
330
49
100
AcDbEntity
  8
1
 62
     2
100
AcDbMText
 10
89.50000000000006
 20
24.00000000000001
 30
0.0
 40
3.5
 41
0.0
 71
     5
 72
     1
  1
尺度
  7
CONVERTER_11
 73
     1
 44
0.54545454545455
  0
MTEXT
  5
BE
330
49
100
AcDbEntity
  8
1
 62
   250
100
AcDbMText
 10
25.00000000000006
 20
5.0
 30
0.0
 40
3.5
 41
0.0
 71
     4
 72
     1
  1
備考欄の文字列 原点位置=4
  7
CONVERTER_11
 73
     1
 44
0.54545454545455
  0
HATCH
  5
BF
330
49
100
AcDbEntity
  8
1
  6
Continuous
 62
     2
100
AcDbHatch
 10
0.0
 20
0.0
 30
0.0
210
0.0
220
0.0
230
1.0
  2
CUSTOM0
 70
     0
 71
     1
 91
        1
 92
        1
 93
        4
 72
     1
 10
192.4578138032672
 20
15.39722336795626
 11
192.4578138032672
 21
15.22875434022058
 72
     1
 10
192.4578138032672
 20
15.22875434022058
 11
191.1602971697032
 21
15.22875434022058
 72
     1
 10
191.1602971697032
 20
15.22875434022058
 11
191.1602971697032
 21
15.39722336795626
 72
     1
 10
191.1602971697032
 20
15.39722336795626
 11
192.4578138032672
 21
15.39722336795626
 97
        1
330
B2
 75
     1
 76
     2
 52
45.0
 41
0.1
 77
     0
 78
     1
 53
45.0
 43
0.0
 44
0.0
 45
-0.282842712474619
 46
0.0
 79
     0
 98
        1
 10
0.0
 20
0.0
  0
HATCH
  5
C0
330
49
100
AcDbEntity
  8
1
  6
Continuous
 62
     2
100
AcDbHatch
 10
0.0
 20
0.0
 30
0.0
210
0.0
220
0.0
230
1.0
  2
CUSTOM1
 70
     0
 71
     1
 91
        1
 92
        1
 93
        3
 72
     4
 94
        3
 73
     0
 74
     0
 95
       24
 96
       20
 40
0.0
 40
0.0
 40
0.0
 40
0.0
 40
0.2211075008753839
 40
0.4273218586245459
 40
0.5080174679239221
 40
0.5914835907870658
 40
0.8143265690192971
 40
1.054651302686597
 40
1.295452694023194
 40
1.518109231328853
 40
1.540864321905469
 40
1.59512646062273
 40
1.659890947896043
 40
1.714153085187429
 40
1.736908174961701
 40
1.764951100735406
 40
1.801562291220968
 40
1.953914424543652
 40
2.126104167379723
 40
2.126104167379723
 40
2.126104167379723
 40
2.126104167379723
 10
185.937536955689
 20
15.58989295113017
 10
185.9112579081812
 20
15.53097628234374
 10
185.8604698894428
 20
15.41711139679257
 10
185.8131784839113
 20
15.14441958233115
 10
185.7043482802619
 20
15.24445482575457
 10
185.5514800279638
 20
15.27118593367328
 10
185.76861551812
 20
15.48518135017633
 10
185.7838483674381
 20
15.70332117782488
 10
185.8906889492
 20
15.88451579066425
 10
185.8305380947079
 20
16.16913226311404
 10
185.9334317395402
 20
16.1411408922245
 10
185.9779933468151
 20
16.13243251602299
 10
186.0380842395397
 20
16.12139654183354
 10
186.0756619587439
 20
16.10767523055561
 10
186.1252466928606
 20
16.1075607616022
 10
186.0930158919325
 20
16.07306592398625
 10
186.0171802221882
 20
16.0840410453796
 10
186.0429447159693
 20
15.89858969582452
 10
186.005589676385
 20
15.8070231354959
 10
185.985770496161
 20
15.75844135397705
 72
     4
 94
        3
 73
     0
 74
     0
 95
       70
 96
       66
 40
0.0
 40
0.0
 40
0.0
 40
0.0
 40
0.0241731073021472
 40
0.0846058988987297
 40
0.1631685280353284
 40
0.2417311571789756
 40
0.3021639488292751
 40
0.3263370654895825
 40
0.3533118254249165
 40
0.4228783438922395
 40
0.5179999095313687
 40
0.6216398239466386
 40
0.716761389149999
 40
0.7863279069650148
 40
0.813302679176212
 40
0.8372943998771958
 40
0.894505426137287
 40
0.962789554196264
 40
1.020000580349074
 40
1.043992300975172
 40
1.071934345522902
 40
1.113121768772915
 40
1.14522519933224
 40
1.225483775412775
 40
1.329819923771483
 40
1.434156071994373
 40
1.514414647795794
 40
1.546518078208402
 40
1.578974764260204
 40
1.662678849314142
 40
1.777131373668391
 40
1.901833377474782
 40
2.016285900500572
 40
2.099989982527939
 40
2.132446666570297
 40
2.15878235448602
 40
2.21672086790781
 40
2.274659381334233
 40
2.300995069256167
 40
2.333451754066139
 40
2.41715583654382
 40
2.53160835898526
 40
2.656310362283755
 40
2.770762886388887
 40
2.854466971340052
 40
2.886923657363859
 40
2.913597976833293
 40
2.982389642875095
 40
3.076451716946957
 40
3.17893726045857
 40
3.272999334739971
 40
3.341791001059191
 40
3.368465320663503
 40
3.396976080738725
 40
3.472140811845932
 40
3.578408190308622
 40
3.70022689245603
 40
3.822045594634247
 40
3.928312973256325
 40
4.003477705314722
 40
4.031988456866788
 40
4.058324144797588
 40
4.116262658236757
 40
4.174201171400563
 40
4.200536849608499
 40
4.200536849608499
 40
4.200536849608499
 40
4.200536849608499
 10
185.985770496161
 20
15.75844135397705
 10
185.993825954468
 20
15.75844359811686
 10
186.0220200663242
 20
15.75845146032798
 10
186.0765534803674
 20
15.75830754828372
 10
186.1482891808604
 20
15.75909120499898
 10
186.2236240137063
 20
15.75627570463811
 10
186.2713052366439
 20
15.76298403400957
 10
186.3195071245617
 20
15.75197563692432
 10
186.3062571799875
 20
15.80546402997033
 10
186.3151093964538
 20
15.86049583543092
 10
186.3108698036287
 20
15.95419908726109
 10
186.313348348128
 20
16.04959482218532
 10
186.3090938706062
 20
16.14356821983387
 10
186.3179818665847
 20
16.19795062438012
 10
186.3046977409946
 20
16.25233997691461
 10
186.351411927711
 20
16.23842216335358
 10
186.3943254545738
 20
16.24103877374043
 10
186.4605443456685
 20
16.23648422450754
 10
186.50133422718
 20
16.22778162134162
 10
186.5525145690819
 20
16.23531799890194
 10
186.5253720487201
 20
16.19349970223285
 10
186.4803096055708
 20
16.20284992072596
 10
186.4942065045051
 20
16.13841207371837
 10
186.4858414431655
 20
16.07378219627399
 10
186.4903632178399
 20
15.97529141193887
 10
186.4854741311168
 20
15.8759593284257
 10
186.4950258992082
 20
15.81293115552968
 10
186.4799761455201
 20
15.74964011499788
 10
186.5449159457209
 20
15.76515072944268
 10
186.6116246399498
 20
15.75499387697813
 10
186.7241435470827
 20
15.75988800099367
 10
186.8390235448954
 20
15.75691204732784
 10
186.9519871999748
 20
15.76221664184991
 10
187.0176267597678
 20
15.75107306472089
 10
187.0816276691054
 20
15.76744532319857
 10
187.070314288919
 20
15.71761689905274
 10
187.0775339871511
 20
15.67416715212123
 10
187.070314261127
 20
15.63071745587445
 10
187.0816277175995
 20
15.58088895196876
 10
187.0176263598972
 20
15.59726166091362
 10
186.9519921240461
 20
15.58611271661588
 10
186.8389974317331
 20
15.59144857206854
 10
186.7242456548644
 20
15.58834345663822
 10
186.6113183686861
 20
15.59364894682588
 10
186.5455220903585
 20
15.58257300019594
 10
186.4816097975358
 20
15.59887597847617
 10
186.4936015165127
 20
15.54423524395742
 10
186.4862104613007
 20
15.48854295047842
 10
186.4892684841983
 20
15.3964968914057
 10
186.4893422785684
 20
15.30179109873102
 10
186.4860313578361
 20
15.20952782902266
 10
186.4939505989903
 20
15.1543576873614
 10
186.4815076611618
 20
15.10058169100137
 10
186.5389116551633
 20
15.11453768862782
 10
186.5994708140383
 20
15.10511457884228
 10
186.7048680855081
 20
15.10942885928705
 10
186.8204294070623
 20
15.10835504612032
 10
186.9359688877797
 20
15.10725965900996
 10
187.0414181130841
 20
15.11162525770633
 10
187.1018680471804
 20
15.10209426030672
 10
187.159283773911
 20
15.1161728960638
 10
187.1477773876709
 20
15.06707153265683
 10
187.1537566781749
 20
15.02564658018649
 10
187.1520311050801
 20
14.97651677966695
 10
187.1521500122971
 20
14.94854428447607
 10
187.1521871691833
 20
14.93980288195949
 72
     4
 94
        3
 73
     0
 74
     0
 95
       62
 96
       58
 40
0.0
 40
0.0
 40
0.0
 40
0.0
 40
0.0598250028308485
 40
0.2024846486897047
 40
0.3727558389220178
 40
0.5154154847934933
 40
0.5752404975784202
 40
0.9332326775486064
 40
1.290451762839337
 40
1.602077253145737
 40
1.699931634111994
 40
1.799359756424963
 40
2.270120149656963
 40
2.804661928461401
 40
2.882342287383111
 40
3.076543185718961
 40
3.329004354835421
 40
3.581465524568246
 40
3.775666424543527
 40
3.853346784558147
 40
3.899120679594921
 40
3.984129341791862
 40
4.02990323681721
 40
4.105797496059367
 40
4.295533144152326
 40
4.542189486611568
 40
4.788845828875514
 40
4.9785814764099
 40
5.054475735244143
 40
5.621734664339177
 40
6.130867242037187
 40
6.225249780948416
 40
6.318913039727114
 40
6.663579954558709
 40
7.047498900224538
 40
7.435230791575435
 40
7.498943906667847
 40
7.650875181209784
 40
7.832212509001266
 40
7.984143783696652
 40
8.04785689890278
 40
8.09155463273229
 40
8.172707566963956
 40
8.216405300767684
 40
8.28902178216057
 40
8.462184160756914
 40
8.66886183800508
 40
8.842024215263644
 40
8.914640695474839
 40
8.989881580861045
 40
9.155411528826948
 40
9.320941477743728
 40
9.396182352486978
 40
9.454709011143468
 40
9.583467660170488
 40
9.71222630901271
 40
9.770752957989192
 40
9.770752957989192
 40
9.770752957989192
 40
9.770752957989192
 10
187.1521871691833
 20
14.93980288195949
 10
187.1322348171623
 20
14.93980875568671
 10
187.0647037716465
 20
14.93982863806156
 10
186.9410612161788
 20
14.93949362520324
 10
186.7863180150057
 20
14.94107673750511
 10
186.669734948248
 20
14.93686078860494
 10
186.4550942634242
 20
14.95215205331625
 10
186.8518948407229
 20
14.59198721286193
 10
186.8945656069268
 20
14.37510503397165
 10
187.3189162146612
 20
14.19325062511447
 10
187.1439821496075
 20
14.0898519656807
 10
187.0194523925083
 20
13.87831523212732
 10
186.7666277235944
 20
14.34806081001559
 10
186.4797602893625
 20
14.99511516984519
 10
186.4906335926662
 20
14.68782672154694
 10
186.488289277796
 20
14.52288616971777
 10
186.4861096126412
 20
14.28879670711693
 10
186.4980774396348
 20
14.04498072421783
 10
186.4687984740632
 20
13.89855796860984
 10
186.511452262547
 20
13.75113490174537
 10
186.423981400564
 20
13.7668579730622
 10
186.3768527606745
 20
13.76694303543455
 10
186.2898973207714
 20
13.75109425482909
 10
186.3313474021725
 20
13.89527771422763
 10
186.3029875004285
 20
14.03855052698455
 10
186.31459737753
 20
14.27674947365265
 10
186.3124175648273
 20
14.50517235240346
 10
186.3103111127995
 20
14.66705729375994
 10
186.3208035438324
 20
14.98153709333752
 10
186.0128963252894
 20
14.29229470872438
 10
185.7055258267455
 20
13.8147675024305
 10
185.5851367066276
 20
14.03741112637428
 10
185.4074607910722
 20
14.15011034955566
 10
185.8853326362895
 20
14.32548143465461
 10
185.9353959057208
 20
14.5609192925203
 10
186.3583799621718
 20
14.95322989344606
 10
186.127675427354
 20
14.93655307029065
 10
186.0049685859341
 20
14.94269518948769
 10
185.8325483095662
 20
14.93312822699574
 10
185.721322469445
 20
14.95448818489665
 10
185.6025779627449
 20
14.92136265357419
 10
185.6183169706686
 20
15.00203900606883
 10
185.6178550933764
 20
15.04645414290854
 10
185.6027881889931
 20
15.12967081778534
 10
185.7372380935444
 20
15.09062651983884
 10
185.8619755545747
 20
15.11739729328423
 10
186.0628755237281
 20
15.10063949044053
 10
186.1921540949354
 20
15.12204225913005
 10
186.3328419928296
 20
15.08868778853422
 10
186.2980927452616
 20
15.22651875785068
 10
186.3222185666713
 20
15.34963257349482
 10
186.2967086182394
 20
15.47024055670335
 10
186.3333251146686
 20
15.60539865141493
 10
186.221141702777
 20
15.58094545781891
 10
186.1280356457138
 20
15.59307749842022
 10
186.0191547579821
 20
15.58957630069994
 10
185.9569697640965
 20
15.58981755951602
 10
185.9375369557247
 20
15.58989295124144
 97
        3
330
A3
330
A1
330
A2
 75
     1
 76
     2
 52
45.0
 41
0.1
 77
     0
 78
     1
 53
45.0
 43
0.0
 44
0.0
 45
-0.282842712474619
 46
0.0
 79
     0
 98
        1
 10
0.0
 20
0.0
  0
HATCH
  5
C1
330
49
100
AcDbEntity
  8
1
  6
Continuous
 62
     2
100
AcDbHatch
 10
0.0
 20
0.0
 30
0.0
210
0.0
220
0.0
230
1.0
  2
CUSTOM2
 70
     0
 71
     1
 91
        1
 92
        1
 93
        1
 72
     4
 94
        3
 73
     0
 74
     0
 95
      124
 96
      120
 40
0.0
 40
0.0
 40
0.0
 40
0.0
 40
0.0278187229624226
 40
0.1011590162383985
 40
0.2048470170590239
 40
0.3237088716558961
 40
0.4425707262522
 40
0.5462587270699263
 40
0.6195990203312082
 40
0.647417752257866
 40
0.6750060736115224
 40
0.7357003855242759
 40
0.7963946998054492
 40
0.8239830245571784
 40
0.8540933811103162
 40
0.9373396629409274
 40
1.063094687343237
 40
1.220731268638075
 40
1.399622220914749
 40
1.589140358637762
 40
1.778658496423843
 40
1.957549448940539
 40
2.115186030873132
 40
2.240941056914465
 40
2.324187341760534
 40
2.354297700109384
 40
2.38188602467189
 40
2.442580338710479
 40
2.503274652750503
 40
2.53086297731461
 40
2.560983949278563
 40
2.640393784452908
 40
2.752662861759132
 40
2.88136156011812
 40
3.010060258455167
 40
3.122329335705371
 40
3.201739170817928
 40
3.231860142753317
 40
3.264298024030373
 40
3.352343701778245
 40
3.482095226868769
 40
3.639650650173031
 40
3.811108022565485
 40
3.982565394927994
 40
4.140120818152575
 40
4.269872343141286
 40
4.357918020802349
 40
4.390355902043978
 40
4.423256253992547
 40
4.50810453007304
 40
4.624121560636808
 40
4.750528176031536
 40
4.866545206602011
 40
4.951393482691969
 40
4.98429383464537
 40
5.011450833242283
 40
5.071196230152066
 40
5.13094162705714
 40
5.158098625648804
 40
5.190998977601466
 40
5.275847253689292
 40
5.391864284256754
 40
5.518270899648271
 40
5.634287930209282
 40
5.719136206287955
 40
5.752036558235871
 40
5.782130946282897
 40
5.862783906229072
 40
5.979550131774938
 40
6.117984316640345
 40
6.26364115458789
 40
6.402075339414096
 40
6.51884156490789
 40
6.599494524815472
 40
6.62958891284871
 40
6.654403028226286
 40
6.713575149488053
 40
6.784199939329398
 40
6.8433720604935
 40
6.868186175802718
 40
6.896246243201813
 40
6.939586233758183
 40
6.967846564564811
 40
7.043584251089749
 40
7.153234334451607
 40
7.283231855734357
 40
7.420011856035391
 40
7.550009376579743
 40
7.659659458835142
 40
7.735397144417135
 40
7.763657474851307
 40
7.796409728010964
 40
7.880876065096238
 40
7.996370852465624
 40
8.122208446418519
 40
8.237703224799112
 40
8.322169562010835
 40
8.35492181520582
 40
8.3820788133076
 40
8.441824209206903
 40
8.50156960524005
 40
8.528726603485627
 40
8.561478856695647
 40
8.645945193877697
 40
8.761439980865237
 40
8.88727758076438
 40
9.0027723620009
 40
9.087238696661093
 40
9.119990949235575
 40
9.152428830613275
 40
9.24047450863849
 40
9.370226034149441
 40
9.527781457984327
 40
9.699238830981315
 40
9.870696203978508
 40
10.02825162781393
 40
10.15800315332555
 40
10.2460488313511
 40
10.27848670378512
 40
10.27848670378512
 40
10.27848670378512
 40
10.27848670378512
 10
195.3821827564384
 20
14.01410517385757
 10
195.3914554737524
 20
14.01410498511274
 10
195.4251744536861
 20
14.01410430876714
 10
195.4934706812466
 20
14.01411807243305
 10
195.592014171158
 20
14.01403224219544
 10
195.7062066464812
 20
14.0144175561225
 10
195.8185894417072
 20
14.01300835897545
 10
195.9214376600118
 20
14.01719117422243
 10
195.980683987485
 20
14.00823089251983
 10
196.0371265937034
 20
14.0216443452606
 10
196.0246255586956
 20
13.97087198613361
 10
196.0329549635704
 20
13.92589320939067
 10
196.0248170841121
 20
13.88056752990488
 10
196.0370529214458
 20
13.82931932408465
 10
195.9747773490334
 20
13.84447955365276
 10
195.9060513026869
 20
13.83359750710742
 10
195.7782756749592
 20
13.83911304747972
 10
195.6262984511644
 20
13.83700851253698
 10
195.4502695972523
 20
13.83771002588473
 10
195.2644431934288
 20
13.83745237531292
 10
195.0786167437176
 20
13.83771005144602
 10
194.9025880142169
 20
13.83700841847731
 10
194.7506104154195
 20
13.83911332229988
 10
194.6228357664555
 20
13.8335968076764
 10
194.5541077836581
 20
13.84448077125942
 10
194.4918349042884
 20
13.82931786684209
 10
194.5040616290018
 20
13.88057510805171
 10
194.4960004462598
 20
13.92582473272425
 10
194.5040675809893
 20
13.97106357955323
 10
194.4918238487084
 20
14.02234176909958
 10
194.5525017120699
 20
14.00749577363134
 10
194.6162810745737
 20
14.01756448170735
 10
194.7277314353503
 20
14.01294644211999
 10
194.8497533443824
 20
14.01413328905469
 10
194.9719538137824
 20
14.01515863900635
 10
195.0829794287392
 20
14.01092475623402
 10
195.1476517413959
 20
14.02018584521739
 10
195.2091162810502
 20
14.00604423049682
 10
195.1930065601337
 20
14.07235527884516
 10
195.2042980327359
 20
14.14447790121977
 10
195.1987400822561
 20
14.27513760888285
 10
195.2008035061691
 20
14.42607323708242
 10
195.2000167127295
 20
14.59335873107886
 10
195.2007845215628
 20
14.76061110332303
 10
195.1988038785629
 20
14.91163289269914
 10
195.2041306156621
 20
15.04206069552996
 10
195.1933101388426
 20
15.114654426059
 10
195.2090326429876
 20
15.18150469436799
 10
195.1432708132492
 20
15.16580512490826
 10
195.0756367830764
 20
15.17609243083996
 10
194.9615885293811
 20
15.17113786847123
 10
194.8451242674903
 20
15.17414128030476
 10
194.7306554121478
 20
15.1688030314339
 10
194.6640324657813
 20
15.18001268074825
 10
194.5990769715186
 20
15.16349132665012
 10
194.610798975871
 20
15.21473720477059
 10
194.6032830189121
 20
15.25950333784091
 10
194.6107989878837
 20
15.30426944897961
 10
194.5990769505347
 20
15.3555153612974
 10
194.6640326339201
 20
15.33899381766816
 10
194.7306533339821
 20
15.35020571373943
 10
194.8451352858065
 20
15.34485436710665
 10
194.9615454436963
 20
15.34791188771117
 10
195.0757660174641
 20
15.34278499010708
 10
195.1430150439228
 20
15.35345733355599
 10
195.2083325941439
 20
15.33742082669076
 10
195.1941391448553
 20
15.39949685750054
 10
195.2036059462996
 20
15.46586761628762
 10
195.1990269004085
 20
15.58239972741966
 10
195.2007696555949
 20
15.71426685022376
 10
195.1997551495392
 20
15.85615960150273
 10
195.2017191344372
 20
15.9876905070258
 10
195.1964668553852
 20
16.10524577283002
 10
195.2073408763474
 20
16.16947789001584
 10
195.1919536641855
 20
16.23108802545047
 10
195.2407591537801
 20
16.21702407382111
 10
195.2853995564727
 20
16.21954742075314
 10
195.3538643946743
 20
16.21512797401709
 10
195.3959106169104
 20
16.20613025544036
 10
195.4487544758776
 20
16.21411714866509
 10
195.4207035002015
 20
16.17113917611675
 10
195.3749142248595
 20
16.18259552043836
 10
195.3869539073265
 20
16.12173520005136
 10
195.3796086070643
 20
16.05769299468773
 10
195.3831195826162
 20
15.94909368863911
 10
195.3819806760175
 20
15.82494319144753
 10
195.3819174780263
 20
15.69189719829878
 10
195.3832872966868
 20
15.56797381249555
 10
195.3791638801314
 20
15.45868337849339
 10
195.3877763103565
 20
15.3960858009417
 10
195.3746757454402
 20
15.33740133296365
 10
195.4393884328199
 20
15.35362113810902
 10
195.5060405953157
 20
15.34270260383311
 10
195.6198779541103
 20
15.34793740173756
 10
195.7357259122097
 20
15.34485547516913
 10
195.8496924263281
 20
15.35018259812513
 10
195.9160341018099
 20
15.33904208166542
 10
195.9807188525481
 20
15.35546979593177
 10
195.9689820772722
 20
15.3042592521005
 10
195.9765168063042
 20
15.25950334121001
 10
195.9689820992259
 20
15.21474739010028
 10
195.9807188140737
 20
15.16353690871042
 10
195.9160344075253
 20
15.1799642779422
 10
195.8496886430826
 20
15.16882784447271
 10
195.7357459487013
 20
15.17413115893121
 10
195.6197995623055
 20
15.17114764593545
 10
195.5062756882124
 20
15.17606892268394
 10
195.4389231318805
 20
15.16585087513521
 10
195.3734285122496
 20
15.18145996138817
 10
195.3891713619218
 20
15.11463851827412
 10
195.3783275998215
 20
15.04207057815879
 10
195.3836581629793
 20
14.91162247614417
 10
195.3817136151856
 20
14.76064558185226
 10
195.3823133683214
 20
14.59322243934158
 10
195.3821506559606
 20
14.42656176118372
 10
195.3821895488136
 20
14.27360142921636
 10
195.38218164131
 20
14.14849178985705
 10
195.3821828382745
 20
14.0650789099142
 10
195.3821827716209
 20
14.02491778281976
 10
195.3821827564384
 20
14.01410517385757
 97
        1
330
A4
 75
     1
 76
     2
 52
45.0
 41
0.1
 77
     0
 78
     1
 53
45.0
 43
0.0
 44
0.0
 45
-0.282842712474619
 46
0.0
 79
     0
 98
        1
 10
0.0
 20
0.0
  0
HATCH
  5
C2
330
49
100
AcDbEntity
  8
1
  6
Continuous
 62
     2
100
AcDbHatch
 10
0.0
 20
0.0
 30
0.0
210
0.0
220
0.0
230
1.0
  2
CUSTOM3
 70
     0
 71
     1
 91
        1
 92
        1
 93
        1
 72
     4
 94
        3
 73
     0
 74
     0
 95
      131
 96
      127
 40
0.0
 40
0.0
 40
0.0
 40
0.0
 40
0.0195577029826009
 40
0.0426490537460554
 40
0.2863607575855492
 40
0.5344948436188649
 40
0.7842238845572378
 40
0.8737315789466329
 40
0.9803832810311826
 40
1.092842274516928
 40
1.199761146656687
 40
1.289788768186415
 40
1.351573580786109
 40
1.370727117561354
 40
1.416400936017764
 40
1.470914848355892
 40
1.516588666791681
 40
1.535742203552762
 40
1.634216592293113
 40
1.76028334117495
 40
1.897966686682077
 40
2.031216387368922
 40
2.049689751137915
 40
2.101115601646852
 40
2.179502577739969
 40
2.278859318314083
 40
2.393194462258741
 40
2.516516648383854
 40
2.642834515405983
 40
2.766156701983485
 40
2.8804918467546
 40
2.979848588358642
 40
3.05823556544382
 40
3.109661416668974
 40
3.12813478070415
 40
3.146783742386466
 40
3.191254343315299
 40
3.244332157315901
 40
3.288802758225776
 40
3.307451719895047
 40
3.327717853844661
 40
3.383747753580019
 40
3.46838866592441
 40
3.574487837698719
 40
3.694892515728823
 40
3.822449946851961
 40
3.95000737792035
 40
4.070412055800443
 40
4.176511227367998
 40
4.261152139501444
 40
4.317182039076638
 40
4.337448172964557
 40
4.620011002696151
 40
4.885096638397416
 40
4.945373043518218
 40
5.014107710488565
 40
5.070481727651947
 40
5.319246955636425
 40
5.584812164505917
 40
5.859000912056788
 40
6.133746937541954
 40
6.401732212968756
 40
6.420736683995376
 40
6.472845717450969
 40
6.550702743893954
 40
6.646951193874163
 40
6.754234497930486
 40
6.865196086587293
 40
6.972479390357751
 40
7.068727839771942
 40
7.146584865450951
 40
7.19869389818918
 40
7.217698368905321
 40
7.234950401630798
 40
7.27608986426984
 40
7.325191803515947
 40
7.366331266090331
 40
7.383583298769681
 40
7.402779163492086
 40
7.453386443254489
 40
7.524934666445519
 40
7.606953361405859
 40
7.688972056429039
 40
7.76052027978429
 40
7.81112755973456
 40
7.830323424546181
 40
7.847844055299811
 40
7.894799345666852
 40
7.96277939274454
 40
8.043374293560587
 40
8.128174145149494
 40
8.208769044817299
 40
8.276749090376999
 40
8.323704379669557
 40
8.341225010056291
 40
8.358497614800468
 40
8.401679126686673
 40
8.457815092185703
 40
8.513951057728164
 40
8.557132569708092
 40
8.574405174505134
 40
8.60234066861651
 40
8.643455660540132
 40
8.6632252719668
 40
8.715345156564448
 40
8.789031889628783
 40
8.873502045520512
 40
8.957972194324135
 40
9.031658925568026
 40
9.083778811234717
 40
9.10354842300318
 40
9.119550083123716
 40
9.160817522380018
 40
9.217244429110384
 40
9.27872449164487
 40
9.335151398295654
 40
9.37641883735795
 40
9.392420497300737
 40
9.401196302734956
 40
9.417494229384431
 40
9.426270027749704
 40
9.440875075477736
 40
9.475702496998915
 40
9.517270709866077
 40
9.552098131994244
 40
9.566703169884452
 40
9.566703169884452
 40
9.566703169884452
 40
9.566703169884452
 10
194.6170254148479
 20
15.67015871511028
 10
194.6134345093371
 20
15.66453690702159
 10
194.6056039123625
 20
15.65227754419114
 10
194.5129968974547
 20
15.61601916040957
 10
194.4887622233249
 20
15.40148444212715
 10
194.3858709845939
 20
15.2219728450971
 10
194.1220492364307
 20
15.03615573798147
 10
194.2845471569181
 20
14.9595933656608
 10
194.3607225760839
 20
14.89856693195442
 10
194.4492171072759
 20
14.83515804544759
 10
194.5389930233111
 20
14.7752563421956
 10
194.5883817636048
 20
14.72102154849209
 10
194.6745708157383
 20
14.69286240541833
 10
194.641126067423
 20
14.65713309652812
 10
194.6214671166311
 20
14.62550387991907
 10
194.5919888217883
 20
14.58475872796069
 10
194.5688989446032
 20
14.55504663489643
 10
194.5380205968358
 20
14.50211422668495
 10
194.4729193365741
 20
14.62740334938901
 10
194.3796000122416
 20
14.68213900233937
 10
194.2950636285139
 20
14.7391642393934
 10
194.1722498125741
 20
14.89675287427523
 10
194.1764450847301
 20
14.82035806766837
 10
194.1751478652677
 20
14.77361280161296
 10
194.1758126448076
 20
14.695847858126
 10
194.1755549986957
 20
14.59902068324423
 10
194.1756431239921
 20
14.48650279078809
 10
194.1756077302282
 20
14.365240859457
 10
194.1756511758278
 20
14.24086897858961
 10
194.1755199942406
 20
14.11967683631337
 10
194.1759477562046
 20
14.00691148919743
 10
194.174667820231
 20
13.91082913768744
 10
194.1779759851044
 20
13.831138264687
 10
194.1715197740086
 20
13.78815175788784
 10
194.1806208705556
 20
13.74955432372043
 10
194.1447910339935
 20
13.7581088772407
 10
194.1115223815253
 20
13.75342519985447
 10
194.0604562576041
 20
13.75351298759784
 10
194.0269723972813
 20
13.75794430283821
 10
193.9907585408754
 20
13.74960793842508
 10
194.0009782568666
 20
13.79145277179284
 10
193.9936487887773
 20
13.83778560820173
 10
193.9973633136103
 20
13.92374831106014
 10
193.9959480554897
 20
14.02605142704849
 10
193.9964105554639
 20
14.14453223931512
 10
193.9962773686231
 20
14.26957683153356
 10
193.9963015910045
 20
14.3947582810705
 10
193.9963354925552
 20
14.51286645379058
 10
193.9962060293133
 20
14.61628748709516
 10
193.9965507549082
 20
14.69932036153667
 10
193.9958698278691
 20
14.75143368521243
 10
193.9994586600623
 20
14.8791290782136
 10
193.7826171386438
 20
14.5804871681962
 10
193.6021354921952
 20
14.35263981511513
 10
193.5490322295612
 20
14.49373443289816
 10
193.520042913315
 20
14.54325767560941
 10
193.4196648062822
 20
14.6464177979011
 10
193.7405127723262
 20
14.72695035023781
 10
193.868989700543
 20
14.91066283036436
 10
194.090645432536
 20
15.11931995771761
 10
194.1770224894069
 20
15.29339211228346
 10
194.4549394229075
 20
15.56967051342513
 10
194.3346247839285
 20
15.56534559551115
 10
194.2863197351349
 20
15.56614856202554
 10
194.2102377454906
 20
15.56574582146585
 10
194.116701000975
 20
15.5659027561161
 10
194.0117594788557
 20
15.56582502576225
 10
193.9033887738718
 20
15.56595464378556
 10
193.7981454235897
 20
15.56554393490692
 10
193.7056237819413
 20
15.56682073671592
 10
193.6268130800707
 20
15.5634076653485
 10
193.5839674565378
 20
15.57023350036321
 10
193.5449499586516
 20
15.56065064201124
 10
193.5526365271863
 20
15.59420779565543
 10
193.5485464404312
 20
15.62523550322234
 10
193.5485531368814
 20
15.672365292709
 10
193.5526239724911
 20
15.70340941646779
 10
193.5449495574583
 20
15.73701861635902
 10
193.5834819405495
 20
15.72748410420872
 10
193.624122801448
 20
15.73397435498071
 10
193.6951471850463
 20
15.73100150650254
 10
193.7729318149634
 20
15.73174761399158
 10
193.8507292246474
 20
15.73247814044525
 10
193.9217232089908
 20
15.7295423551416
 10
193.9624279791821
 20
15.73595468772952
 10
194.000985348991
 20
15.72650524176004
 10
193.9927342754929
 20
15.76264692158784
 10
193.9982346669358
 20
15.80129837613227
 10
193.9955754206164
 20
15.86913528561839
 10
193.9965815471535
 20
15.9459164153874
 10
193.996017801832
 20
16.02849393582757
 10
193.9970714526593
 20
16.10517329229878
 10
193.9942675863131
 20
16.17331990776699
 10
194.0000702721305
 20
16.21132399809347
 10
193.9915654551159
 20
16.24758448077646
 10
194.0255610233125
 20
16.23755723771852
 10
194.05945756831
 20
16.24073266813706
 10
194.1126669060347
 20
16.23508965640609
 10
194.1660768574484
 20
16.23434774436425
 10
194.1995914649491
 20
16.22819223482981
 10
194.238808618304
 20
16.23346029773592
 10
194.2120263698492
 20
16.19253380793487
 10
194.1708111001724
 20
16.20371204538113
 10
194.1782641540873
 20
16.15867056192124
 10
194.1742227952185
 20
16.11412278028144
 10
194.176171404964
 20
16.04223572621703
 10
194.1752364849758
 20
15.96168630588771
 10
194.176510719003
 20
15.88173995404994
 10
194.1732043793863
 20
15.80841837083183
 10
194.1802106179961
 20
15.76688643002568
 10
194.1701440380126
 20
15.72752418568113
 10
194.2029814803921
 20
15.73468063430981
 10
194.236457729648
 20
15.73027243137945
 10
194.2915053476019
 20
15.73217943347897
 10
194.3489502595314
 20
15.73185366407288
 10
194.4023026248309
 20
15.73106308733081
 10
194.4398540896638
 20
15.73313959118074
 10
194.4623172523237
 20
15.73022338167109
 10
194.4751678073731
 20
15.73572552644056
 10
194.4858255685888
 20
15.7380111819779
 10
194.4986635650143
 20
15.74494972588052
 10
194.5145991033071
 20
15.72853046313672
 10
194.5410623920891
 20
15.71709122319449
 10
194.5726805253757
 20
15.6964468783519
 10
194.5987255892151
 20
15.68116869628295
 10
194.6128517723973
 20
15.67266976323184
 10
194.6170254148479
 20
15.67015871511028
 97
        1
330
A5
 75
     1
 76
     2
 52
45.0
 41
0.1
 77
     0
 78
     1
 53
45.0
 43
0.0
 44
0.0
 45
-0.282842712474619
 46
0.0
 79
     0
 98
        1
 10
0.0
 20
0.0
  0
HATCH
  5
C3
330
49
100
AcDbEntity
  8
1
  6
Continuous
 62
     2
100
AcDbHatch
 10
0.0
 20
0.0
 30
0.0
210
0.0
220
0.0
230
1.0
  2
CUSTOM4
 70
     0
 71
     1
 91
        1
 92
        1
 93
        1
 72
     4
 94
        3
 73
     0
 74
     0
 95
       91
 96
       87
 40
0.0
 40
0.0
 40
0.0
 40
0.0
 40
0.0267532254356701
 40
0.0856103386464102
 40
0.1444674521996621
 40
0.1712206856618514
 40
0.2039416005642536
 40
0.2955601971652484
 40
0.4362601844616918
 40
0.616225284450725
 40
0.8256392189704982
 40
1.054685709844411
 40
1.293548478893531
 40
1.532411247938275
 40
1.76145773879954
 40
1.970871673298508
 40
2.150836773256704
 40
2.291536760495565
 40
2.383155356836643
 40
2.415876284101292
 40
2.442629517487936
 40
2.501486630949066
 40
2.560343744424213
 40
2.587096977826486
 40
2.617068194440914
 40
2.699247336756055
 40
2.822032643466339
 40
2.973822353257868
 40
3.143014704823311
 40
3.318007936879861
 40
3.487200288186723
 40
3.638989997548204
 40
3.761775303794702
 40
3.843954445753037
 40
3.873925662229733
 40
3.890812773500441
 40
3.907699884771592
 40
3.937960767857219
 40
3.980983618142223
 40
4.199085915228381
 40
4.439444339237159
 40
4.677588241260803
 40
5.050698317837689
 40
5.448212454763047
 40
5.8552912180446
 40
6.138575438885283
 40
6.417434507584102
 40
6.444551104393761
 40
6.504207617363037
 40
6.563864130314362
 40
6.590980727103931
 40
6.848609460381335
 40
7.109611990668292
 40
7.352910904445976
 40
7.557830220705364
 40
7.587518925913257
 40
7.652834077375675
 40
7.718149228845634
 40
7.747837934061913
 40
7.854880190300892
 40
7.97651125740342
 40
8.36948789659222
 40
8.757514959223542
 40
9.126072419331004
 40
9.460639380392067
 40
9.746695593035751
 40
9.777569943118543
 40
9.80705032093172
 40
9.830377336128853
 40
9.886003295435929
 40
9.952395569429845
 40
10.0080215287062
 40
10.03134854388212
 40
10.21356951009588
 40
10.42203479292865
 40
10.6615455673106
 40
10.91693789564302
 40
11.15832906556563
 40
11.18982674596618
 40
11.27286608520405
 40
11.3902665303335
 40
11.52484752840883
 40
11.6594285264844
 40
11.77682897161481
 40
11.85986831085678
 40
11.89136598230423
 40
11.89136598230423
 40
11.89136598230423
 40
11.89136598230423
 10
190.7027885008197
 20
14.70699600701772
 10
190.7028237765289
 20
14.71587847311985
 10
190.7029366710797
 20
14.74430237047346
 10
190.7012984568489
 20
14.79409639169803
 10
190.7069750292912
 20
14.83657564478154
 10
190.6956928731707
 20
14.88730154856847
 10
190.7632296979033
 20
14.87012900740109
 10
190.8388029210701
 20
14.88290227165996
 10
190.9828357056002
 20
14.87629729457382
 10
191.1569419185427
 20
14.87888462206466
 10
191.3639599611005
 20
14.87800591955553
 10
191.5894688172378
 20
14.87828207920027
 10
191.8251162293406
 20
14.87818339658662
 10
192.0607640531349
 20
14.87828184412767
 10
192.2862717580627
 20
14.87800678190789
 10
192.4932934632806
 20
14.87888186270735
 10
192.6673888915289
 20
14.87630522678446
 10
192.8114492071986
 20
14.88288290449214
 10
192.8869691915293
 20
14.87016243405604
 10
192.9545776037031
 20
14.88726400191688
 10
192.9430840140677
 20
14.8367478580294
 10
192.9505104581733
 20
14.79253252226501
 10
192.9428838927986
 20
14.7486796650361
 10
192.9546489459426
 20
14.69878374479327
 10
192.8930788491984
 20
14.71393227712512
 10
192.8256791738672
 20
14.70310665350673
 10
192.7013004056223
 20
14.70852031626236
 10
192.5554428236572
 20
14.70649205390785
 10
192.3893576440086
 20
14.70715777578387
 10
192.2188412621725
 20
14.70689643521242
 10
192.051979085539
 20
14.70721553391094
 10
191.9087346827106
 20
14.70635302590762
 10
191.7773313869835
 20
14.70863300482988
 10
191.7239859134658
 20
14.70407704374202
 10
191.6485188456913
 20
14.70999914992877
 10
191.6769075779233
 20
14.70094169343353
 10
191.7033652409543
 20
14.69725912268928
 10
191.6633522907702
 20
14.66654271968276
 10
191.571366369187
 20
14.67667591174631
 10
191.5439396207069
 20
14.43032502247787
 10
191.4478793967235
 20
14.27499558764374
 10
191.1917277964474
 20
13.94525417931569
 10
191.7627537732764
 20
14.08430022210452
 10
192.0173656320516
 20
14.08291779973362
 10
192.6279647048618
 20
13.99790569242085
 10
192.3340698578083
 20
14.29685417558202
 10
192.013330428652
 20
14.44330856901776
 10
192.1313543360434
 20
14.50025540818286
 10
192.1724716466261
 20
14.52420099873349
 10
192.2156812394411
 20
14.54599758811229
 10
192.317457409445
 20
14.60928721253907
 10
192.4328867625248
 20
14.35147151408779
 10
192.6329591642277
 20
14.21616041113683
 10
192.7269077387229
 20
14.03792795138881
 10
192.9558829746392
 20
13.87997821027052
 10
192.859603184671
 20
13.82915972576299
 10
192.816795976378
 20
13.79881292523054
 10
192.771824352878
 20
13.77466130281461
 10
192.7121720925214
 20
13.72552146747567
 10
192.6789731061326
 20
13.85997475673607
 10
192.5582013350797
 20
14.01594265286583
 10
192.1970976005979
 20
13.88569928059555
 10
191.8385061955541
 20
13.90224694409483
 10
191.4570920450081
 20
13.89331229351864
 10
191.1703455282891
 20
13.82882671672409
 10
190.8592055599718
 20
13.94230668192822
 10
190.8268737818788
 20
13.83122259927765
 10
190.7896178253318
 20
13.81196313850011
 10
190.7865737632753
 20
13.85874784087295
 10
190.7679892860607
 20
13.89806853919135
 10
190.7512436616778
 20
13.95765983478232
 10
190.7383730915753
 20
14.00201969871284
 10
190.7042327806428
 20
14.09106331120203
 10
190.9482714457754
 20
14.02181042943771
 10
191.1441394486671
 20
14.00030369057746
 10
191.2395426381277
 20
14.28226484478462
 10
191.2945135769598
 20
14.44363045421122
 10
191.5159619357155
 20
14.71391177589735
 10
191.3849239381218
 20
14.70548446853735
 10
191.3110026555855
 20
14.70779008496969
 10
191.1977459876244
 20
14.70671378321658
 10
191.0694251807485
 20
14.7070763907651
 10
190.9404252030416
 20
14.70697724466085
 10
190.8287840946292
 20
14.70699932712572
 10
190.7514663970028
 20
14.7069957918967
 10
190.7132876532011
 20
14.70699595845081
 10
190.7027885008197
 20
14.70699600701772
 97
        1
330
A6
 75
     1
 76
     2
 52
45.0
 41
0.1
 77
     0
 78
     1
 53
45.0
 43
0.0
 44
0.0
 45
-0.282842712474619
 46
0.0
 79
     0
 98
        1
 10
0.0
 20
0.0
  0
HATCH
  5
C4
330
49
100
AcDbEntity
  8
1
  6
Continuous
 62
     2
100
AcDbHatch
 10
0.0
 20
0.0
 30
0.0
210
0.0
220
0.0
230
1.0
  2
CUSTOM5
 70
     0
 71
     1
 91
        1
 92
        1
 93
        1
 72
     4
 94
        3
 73
     0
 74
     0
 95
       35
 96
       31
 40
0.0
 40
0.0
 40
0.0
 40
0.0
 40
0.0335231036620645
 40
0.0713218571712051
 40
0.4278866681486656
 40
0.811686584196369
 40
1.198190238000006
 40
1.561379546812689
 40
1.65998317462205
 40
1.75931557380723
 40
2.132719617231064
 40
2.525233363588794
 40
2.910815397779685
 40
3.265244364303308
 40
3.592606723581993
 40
3.964386154603943
 40
4.359942131737764
 40
4.758154118639269
 40
4.843846538699862
 40
4.936650065543203
 40
5.256616602537306
 40
5.58170740441604
 40
5.899719158308135
 40
6.198363494280722
 40
6.466301046615768
 40
6.49389531153709
 40
6.559697020196882
 40
6.638234543442457
 40
6.704036252154238
 40
6.731630508423016
 40
6.731630508423016
 40
6.731630508423016
 40
6.731630508423016
 10
191.973601056867
 20
16.23463843719134
 10
191.967600609779
 20
16.22480690542323
 10
191.9548344099158
 20
16.20388988579798
 10
191.7949362006554
 20
16.17127126532688
 10
192.2322025842338
 20
15.88206680336701
 10
192.4345394828262
 20
15.6804113835844
 10
192.6819564267973
 20
15.43749387603273
 10
193.1831513624607
 20
15.36047662757777
 10
193.012556219897
 20
15.21876939174653
 10
192.9383299463202
 20
15.01710366209115
 10
192.6131432248188
 20
15.36956287174723
 10
192.3277741670664
 20
15.53175212559563
 10
192.0337604077658
 20
15.73687130053048
 10
191.8084452691134
 20
16.21827488595455
 10
191.5993085055522
 20
15.7534304660922
 10
191.3207873674835
 20
15.54350952252912
 10
191.037138317721
 20
15.37424456359986
 10
190.7078639527832
 20
15.00142360907935
 10
190.6277012318225
 20
15.19708014459004
 10
190.4759724909744
 20
15.32491104190594
 10
190.9083395826795
 20
15.40454031765935
 10
191.0962565329767
 20
15.60026634915473
 10
191.3468477420503
 20
15.81632996916754
 10
191.5714350470162
 20
15.98190992300061
 10
191.6259775409713
 20
16.26133964636827
 10
191.7494661029013
 20
16.24737950408078
 10
191.8060273344521
 20
16.24521268867647
 10
191.8761870984945
 20
16.2404685988136
 10
191.9333414022107
 20
16.23709429350542
 10
191.964419032084
 20
16.23519854711119
 10
191.973601056867
 20
16.23463843719134
 97
        1
330
A7
 75
     1
 76
     2
 52
45.0
 41
0.1
 77
     0
 78
     1
 53
45.0
 43
0.0
 44
0.0
 45
-0.282842712474619
 46
0.0
 79
     0
 98
        1
 10
0.0
 20
0.0
  0
HATCH
  5
C5
330
49
100
AcDbEntity
  8
1
  6
Continuous
 62
     2
100
AcDbHatch
 10
0.0
 20
0.0
 30
0.0
210
0.0
220
0.0
230
1.0
  2
CUSTOM6
 70
     0
 71
     1
 91
        1
 92
        1
 93
        1
 72
     4
 94
        3
 73
     0
 74
     0
 95
       15
 96
       11
 40
0.0
 40
0.0
 40
0.0
 40
0.0
 40
0.2785535985096802
 40
0.5215624748198895
 40
0.6076917376040945
 40
0.6938210001741886
 40
0.9405019146455296
 40
1.221691403489209
 40
1.300471877081147
 40
1.379252341684956
 40
1.379252341684956
 40
1.379252341684956
 40
1.379252341684956
 10
189.5681493631
 20
16.22930267330381
 10
189.6296017794178
 20
16.17691646592716
 10
189.7446649974114
 20
16.07882876798225
 10
190.0397348497245
 20
15.92889785897218
 10
189.9025147631857
 20
15.84343227515015
 10
189.8041227843778
 20
15.71085785201556
 10
189.713003359065
 20
16.01616985781424
 10
189.3636839480656
 20
16.07967869465375
 10
189.511925837657
 20
16.17896509880879
 10
189.5494081874237
 20
16.21252348402383
 10
189.5681493631
 20
16.22930267330381
 97
        1
330
A8
 75
     1
 76
     2
 52
45.0
 41
0.1
 77
     0
 78
     1
 53
45.0
 43
0.0
 44
0.0
 45
-0.282842712474619
 46
0.0
 79
     0
 98
        1
 10
0.0
 20
0.0
  0
HATCH
  5
C6
330
49
100
AcDbEntity
  8
1
  6
Continuous
 62
     2
100
AcDbHatch
 10
0.0
 20
0.0
 30
0.0
210
0.0
220
0.0
230
1.0
  2
CUSTOM7
 70
     0
 71
     1
 91
        1
 92
        1
 93
        1
 72
     4
 94
        3
 73
     0
 74
     0
 95
       75
 96
       71
 40
0.0
 40
0.0
 40
0.0
 40
0.0
 40
0.0342546099129691
 40
0.1245622414432346
 40
0.2522385480897518
 40
0.398599192294068
 40
0.5449598364980821
 40
0.6726361431438816
 40
0.762943774673696
 40
0.7971983935297973
 40
1.101723623449631
 40
1.40859124403658
 40
1.433332471690284
 40
1.487763172450081
 40
1.542193873081914
 40
1.566935100592462
 40
1.923523931821775
 40
2.271755704953603
 40
2.590579755100872
 40
2.858943305581185
 40
2.889120339309189
 40
2.918305855191112
 40
2.941366645531233
 40
2.996357760973134
 40
3.061992318140697
 40
3.11698343362689
 40
3.140044223997568
 40
3.411273122936573
 40
3.732441619741266
 40
3.761068217532964
 40
3.83778749963053
 40
3.948858699126167
 40
4.080541049104545
 40
4.219093782625931
 40
4.350776132722483
 40
4.461847332405817
 40
4.538566614678551
 40
4.567193212544799
 40
4.594907573999057
 40
4.666381453557625
 40
4.764111044011235
 40
4.870592538126038
 40
4.968322128642489
 40
5.039796008287203
 40
5.067510369784634
 40
5.094263603185846
 40
5.153120716668479
 40
5.211977830150921
 40
5.238731063551926
 40
5.272290535139193
 40
5.363380529444997
 40
5.497618415781703
 40
5.660621563453917
 40
5.838007341749618
 40
6.015393119910998
 40
6.178396267038595
 40
6.312634151842575
 40
6.403724143059565
 40
6.43728361267266
 40
6.464036846261276
 40
6.52289396000489
 40
6.581751071484149
 40
6.608504301591095
 40
6.637253941281243
 40
6.711397748903122
 40
6.812778057283706
 40
6.923237199249483
 40
7.024617507624098
 40
7.09876131520778
 40
7.12751094600773
 40
7.12751094600773
 40
7.12751094600773
 40
7.12751094600773
 10
188.4418622390565
 20
14.95849128473265
 10
188.4418622819707
 20
14.9470731340872
 10
188.441862448113
 20
14.9055525784263
 10
188.4418593081787
 20
14.82146922003772
 10
188.4418788279801
 20
14.70004497322329
 10
188.4417912187738
 20
14.55980494047449
 10
188.4421116235231
 20
14.42006556794577
 10
188.4411605909741
 20
14.2974503889493
 10
188.4431978595968
 20
14.21587074438043
 10
188.4349433178747
 20
14.06271267077701
 10
188.7430797940901
 20
14.22560236054719
 10
189.0350645173736
 20
14.39482938688001
 10
189.0408354448707
 20
14.25973235781911
 10
189.0455471719891
 20
14.21617221160444
 10
189.0482535411919
 20
14.17211249350546
 10
189.067254567296
 20
14.02272590363134
 10
188.6583942247303
 20
14.08681172241261
 10
188.3793710348833
 20
13.97296341411018
 10
188.1018081587167
 20
13.87364095811137
 10
187.80998371844
 20
13.91630687596366
 10
187.7869144678658
 20
13.81321679744541
 10
187.7537474383333
 20
13.7869109124447
 10
187.7480653962739
 20
13.83455309036305
 10
187.7284214559045
 20
13.87180336115069
 10
187.7095089485623
 20
13.93007387847562
 10
187.6942849867706
 20
13.97385201007803
 10
187.6477246372938
 20
14.08759421046315
 10
187.9890897312448
 20
14.05576301120045
 10
188.2679649367388
 20
14.02161435106478
 10
188.2617753034908
 20
14.16913976479652
 10
188.2630935452775
 20
14.24013150908833
 10
188.2624831689949
 20
14.34719767958661
 10
188.2625871570726
 20
14.47398529785998
 10
188.2629987964057
 20
14.60849243496051
 10
188.261390784197
 20
14.73395549951185
 10
188.2659902567926
 20
14.84505246719118
 10
188.256418650221
 20
14.90761886800689
 10
188.2704001783692
 20
14.96595388295002
 10
188.2147384386706
 20
14.95289710582239
 10
188.1575655197821
 20
14.96136307749499
 10
188.0616048925648
 20
14.95729976080637
 10
187.9633767522822
 20
14.95970889852476
 10
187.867258245756
 20
14.95551600613388
 10
187.8104648525812
 20
14.96429346441163
 10
187.7550356873385
 20
14.95094936850123
 10
187.7670679427918
 20
15.00036910959257
 10
187.7592003173938
 20
15.04393988030396
 10
187.766629556383
 20
15.08830469118526
 10
187.7551930564144
 20
15.13902297763992
 10
187.8232102370134
 20
15.12162460757743
 10
187.8968496879747
 20
15.13417450237189
 10
188.0325064058211
 20
15.12799677011096
 10
188.1884909024526
 20
15.13029203093085
 10
188.3615926358144
 20
15.1294096826253
 10
188.5346942964182
 20
15.13029207142408
 10
188.6906789811218
 20
15.1279966295555
 10
188.8263351889797
 20
15.13417486262431
 10
188.8999756705654
 20
15.12162394218335
 10
188.9679914174724
 20
15.13902373012143
 10
188.9565590885923
 20
15.08830130414555
 10
188.9639539458297
 20
15.04397060811109
 10
188.9562039912271
 20
15.00028307550196
 10
188.9681203741877
 20
14.95063590098478
 10
188.9108170223617
 20
14.96461411338427
 10
188.8520145789773
 20
14.95539755673255
 10
188.75252936332
 20
14.9595226816493
 10
188.6494280098349
 20
14.95822760025888
 10
188.5537846354575
 20
14.95854077077642
 10
188.4857467971616
 20
14.95848776697146
 10
188.4514462213444
 20
14.95849051871657
 10
188.4418622390565
 20
14.95849128473265
 97
        1
330
A9
 75
     1
 76
     2
 52
45.0
 41
0.1
 77
     0
 78
     1
 53
45.0
 43
0.0
 44
0.0
 45
-0.282842712474619
 46
0.0
 79
     0
 98
        1
 10
0.0
 20
0.0
  0
HATCH
  5
C7
330
49
100
AcDbEntity
  8
1
  6
Continuous
 62
     2
100
AcDbHatch
 10
0.0
 20
0.0
 30
0.0
210
0.0
220
0.0
230
1.0
  2
CUSTOM8
 70
     0
 71
     1
 91
        1
 92
        1
 93
        1
 72
     4
 94
        3
 73
     0
 74
     0
 95
       91
 96
       87
 40
0.0
 40
0.0
 40
0.0
 40
0.0
 40
0.0345987051695434
 40
0.1258134969461085
 40
0.2547723404888703
 40
0.4026032099153841
 40
0.5504340793416704
 40
0.679392922883608
 40
0.770607714657132
 40
0.8052064287780925
 40
1.124852390615276
 40
1.427402236308871
 40
1.706356627453509
 40
1.955541417875177
 40
2.169485938566322
 40
2.344350786664776
 40
2.480568411561904
 40
2.5904405574289
 40
2.649189927151102
 40
2.749320643306317
 40
2.912632739880018
 40
3.147745656000211
 40
3.244827496385152
 40
3.338490056946791
 40
3.583815413207215
 40
3.761423943238575
 40
3.886956104362751
 40
3.985855451886934
 40
4.091766255337791
 40
4.250186473811984
 40
4.42273431508465
 40
4.628285684838727
 40
4.872093227758571
 40
5.152549652145688
 40
5.464967135837658
 40
5.803201477852578
 40
6.160362988814049
 40
6.193449448276133
 40
6.284170385501787
 40
6.419718138764629
 40
6.587285046385907
 40
6.774063446723793
 40
6.967245678113776
 40
7.15402407881779
 40
7.321590987026148
 40
7.457138740890506
 40
7.547859678556242
 40
7.580946138182802
 40
7.608533084714856
 40
7.669224367077839
 40
7.729915649430064
 40
7.757502595950117
 40
7.790278062553599
 40
7.880146277431069
 40
8.014419963180504
 40
8.180411842398033
 40
8.365434637679503
 40
8.556801071622775
 40
8.741823866830888
 40
8.907815745916455
 40
9.04208943150758
 40
9.131957646249706
 40
9.164733112797283
 40
9.415425063140203
 40
9.667986180958668
 40
9.694169807462806
 40
9.756607686047738
 40
9.831130315322545
 40
9.893568193899952
 40
9.91975182039877
 40
9.950967964690577
 40
9.996421631210742
 40
10.22087981037463
 40
10.4434186619755
 40
10.47847970788863
 40
10.57091337438763
 40
10.70159545461244
 40
10.85140174170372
 40
11.00120802880494
 40
11.131890109074
 40
11.22432377583025
 40
11.25938480938974
 40
11.28697175596163
 40
11.34766303835937
 40
11.40835432042088
 40
11.43594125892123
 40
11.43594125892123
 40
11.43594125892123
 40
11.43594125892123
 10
190.081811433329
 20
15.55242795125076
 10
190.0702785844942
 20
15.55242790287915
 10
190.0283409444999
 20
15.55242773704162
 10
189.9434129719027
 20
15.55243125800908
 10
189.8207688553129
 20
15.55240926435877
 10
189.6791206916994
 20
15.55250801177053
 10
189.537975369849
 20
15.55214686232419
 10
189.4141351317905
 20
15.55321883609088
 10
189.3317217825382
 20
15.55092249091267
 10
189.1727791229693
 20
15.56048569373419
 10
189.3503402353377
 20
15.19785394311369
 10
189.3379739205454
 20
14.95243127723114
 10
189.4064519473866
 20
14.66862501324836
 10
189.469302432097
 20
14.43250999939034
 10
189.5452253431729
 20
14.23326740396129
 10
189.6303189577016
 20
14.07745347451375
 10
189.7244607592936
 20
13.97657857781392
 10
189.8282648207727
 20
13.92465852638966
 10
189.9125872030775
 20
13.97606484379615
 10
189.9351322179452
 20
14.09144544037517
 10
189.9745730975372
 20
14.21885149702381
 10
189.9202919734942
 20
14.53622328086755
 10
190.0451218072474
 20
14.38982180140904
 10
190.2019291513604
 20
14.35795300331175
 10
190.0947720007059
 20
14.12421357767628
 10
190.0808711209868
 20
13.95972776583655
 10
190.0234709467227
 20
13.83130869122483
 10
189.9335020145009
 20
13.76018802352827
 10
189.8095274657879
 20
13.74432324142254
 10
189.6634273196861
 20
13.77993797554172
 10
189.5243894320285
 20
13.90000570500275
 10
189.4102003962145
 20
14.07435682550321
 10
189.3146141301486
 20
14.29946603111239
 10
189.2318652572627
 20
14.56388246006441
 10
189.1807179256412
 20
14.88187933098543
 10
189.0770189207338
 20
15.15543728488911
 10
189.2042841208521
 20
15.56005818612867
 10
189.0357890623019
 20
15.55112367849677
 10
188.9511995787077
 20
15.55315961418362
 10
188.8189876387628
 20
15.55213937388405
 10
188.6560505094104
 20
15.55253230318428
 10
188.4733759170534
 20
15.55235696313368
 10
188.2847057373383
 20
15.55260105307467
 10
188.101446902019
 20
15.55185657906235
 10
187.9404746832719
 20
15.55416360522425
 10
187.8029808335276
 20
15.54799804883661
 10
187.7289590372312
 20
15.5603283845821
 10
187.6613215186857
 20
15.54329323723555
 10
187.6732373719271
 20
15.59524438447527
 10
187.6655677285694
 20
15.64071424966528
 10
187.6732592225117
 20
15.68614453703706
 10
187.6613141797762
 20
15.73802395984571
 10
187.7283588305868
 20
15.72119143490264
 10
187.8017375665677
 20
15.7333540909267
 10
187.9379128305272
 20
15.72727231074959
 10
188.0973811801514
 20
15.72954834315058
 10
188.2789173085836
 20
15.72881233998961
 10
188.465803486218
 20
15.72905954196134
 10
188.6468012316836
 20
15.72886400799254
 10
188.8080802578879
 20
15.72932234714839
 10
188.9393882124887
 20
15.72812673751205
 10
189.0225051322597
 20
15.73051347319743
 10
189.1556236547815
 20
15.72230605725464
 10
189.0645893502659
 20
15.97752868952654
 10
188.9789633074421
 20
16.24164358328247
 10
189.0990589003455
 20
16.22904442969165
 10
189.1514264948544
 20
16.22694235763075
 10
189.2214497569715
 20
16.22535399889657
 10
189.2671922337818
 20
16.21602567538113
 10
189.3220812646933
 20
16.22545966915427
 10
189.2963574785682
 20
16.17733028655169
 10
189.1825397571452
 20
16.18266829744175
 10
189.3159346621136
 20
15.95449174576773
 10
189.1943658735472
 20
15.72156856595923
 10
189.3223188769412
 20
15.73087258884438
 10
189.4049048406461
 20
15.7280100175468
 10
189.5307214850824
 20
15.72923437412302
 10
189.6741469838059
 20
15.72932431888964
 10
189.8157420951728
 20
15.72746163183853
 10
189.9459127249968
 20
15.73333075937162
 10
190.0193452286192
 20
15.72070340823204
 10
190.0891112922097
 20
15.73877563110413
 10
190.0775772605397
 20
15.68612850546326
 10
190.0833184346683
 20
15.64221317686546
 10
190.0816615770912
 20
15.59089982676548
 10
190.081775756167
 20
15.56158792021633
 10
190.081811433329
 20
15.55242795125076
 97
        1
330
AA
 75
     1
 76
     2
 52
45.0
 41
0.1
 77
     0
 78
     1
 53
45.0
 43
0.0
 44
0.0
 45
-0.282842712474619
 46
0.0
 79
     0
 98
        1
 10
0.0
 20
0.0
  0
HATCH
  5
C8
330
49
100
AcDbEntity
  8
1
  6
Continuous
 62
     2
100
AcDbHatch
 10
0.0
 20
0.0
 30
0.0
210
0.0
220
0.0
230
1.0
  2
CUSTOM9
 70
     0
 71
     1
 91
        1
 92
        1
 93
        1
 72
     4
 94
        3
 73
     0
 74
     0
 95
      118
 96
      114
 40
0.0
 40
0.0
 40
0.0
 40
0.0
 40
0.1054708162973424
 40
0.2466098270052106
 40
0.3965912874591623
 40
0.5285525069754542
 40
0.6156245055642768
 40
0.6431434105797926
 40
0.7036850037986645
 40
0.7642265984505071
 40
0.7917455052355389
 40
0.9287404319990539
 40
1.106572819088121
 40
1.287544879681152
 40
1.317578308030669
 40
1.399928030857308
 40
1.522968204800082
 40
1.675072986590703
 40
1.84461653318078
 40
2.019973001638845
 40
2.189516548880158
 40
2.341621331585496
 40
2.464661506320632
 40
2.547011229647196
 40
2.57704465816816
 40
2.603797890893202
 40
2.662655002908889
 40
2.721512114949673
 40
2.748265347702824
 40
2.774215307344901
 40
2.845959313407231
 40
2.954338556588429
 40
3.090194227585607
 40
3.24436751710057
 40
3.40769961584433
 40
3.571031714539481
 40
3.725205003920157
 40
3.861060674729656
 40
3.96943991771635
 40
4.041183923629021
 40
4.067133883213015
 40
4.311886746012192
 40
4.547897258335558
 40
4.764747083044027
 40
4.952749679951819
 40
5.045772974195935
 40
5.13786201964504
 40
5.330543169793074
 40
5.553448265244067
 40
5.795083855888222
 40
6.043293412177301
 40
6.285761695541235
 40
6.313902908752747
 40
6.384255941793337
 40
6.475714884766925
 40
6.56717382775896
 40
6.637526860839738
 40
6.665668074074101
 40
6.692018920328075
 40
6.749990782071149
 40
6.807962643790522
 40
6.834313490017997
 40
6.856393084245275
 40
6.913335195649927
 40
6.991194817302563
 40
7.076026942283796
 40
7.153886563725343
 40
7.210828674844897
 40
7.232908268931232
 40
7.258199334923753
 40
7.324875781592403
 40
7.41914248192506
 40
7.527204308841999
 40
7.635266135230578
 40
7.729532834168563
 40
7.796209279292886
 40
7.821500344594832
 40
7.844652988850931
 40
7.899863140541681
 40
7.965759128053848
 40
8.02096927977116
 40
8.044121924046626
 40
8.069356610160746
 40
8.10913439544157
 40
8.132238100191282
 40
8.193147867786648
 40
8.27926167887682
 40
8.377977512674034
 40
8.476693347146817
 40
8.562807160411872
 40
8.623716930826658
 40
8.64682063685361
 40
8.671988793774423
 40
8.734909185828363
 40
8.816705695189077
 40
8.898502204815676
 40
8.961422597378165
 40
8.986590754551278
 40
9.012941600733436
 40
9.070913462380524
 40
9.12888532408202
 40
9.155236170325344
 40
9.180404327929386
 40
9.243324721948488
 40
9.325121234212281
 40
9.406917746637964
 40
9.469838141978448
 40
9.495006288271222
 40
9.517811184379362
 40
9.572192090487357
 40
9.637098333281582
 40
9.691479239515777
 40
9.714284125643813
 40
9.714284125643813
 40
9.714284125643813
 40
9.714284125643813
 10
185.2874469028653
 20
15.2688916318772
 10
185.3090990569037
 20
15.24111869242812
 10
185.3597257109474
 20
15.17618054561236
 10
185.4349383202591
 20
15.06891060312898
 10
185.5248482274347
 20
14.95377438266625
 10
185.5709169676675
 20
14.85357045748319
 10
185.6655825294655
 20
14.78434006814945
 10
185.6204439320414
 20
14.73771639678272
 10
185.5947047785791
 20
14.69660308866039
 10
185.5645196708013
 20
14.66065971727939
 10
185.5193684730563
 20
14.58579782596091
 10
185.4710504458563
 20
14.80782524253605
 10
185.3968539713073
 20
14.84510677337711
 10
185.2836047324607
 20
15.11610202130601
 10
185.2885133578169
 20
15.00095328446229
 10
185.2868486556306
 20
14.92836675781627
 10
185.2876830076714
 20
14.80625588483986
 10
185.2873609540264
 20
14.6591380081046
 10
185.2875076912455
 20
14.49307063956557
 10
185.2872950092723
 20
14.32187554608602
 10
185.2879497252034
 20
14.15552828635498
 10
185.2859192461139
 20
14.00935173055693
 10
185.291346039993
 20
13.8847104747461
 10
185.2804930868708
 20
13.81718656540627
 10
185.2956739155555
 20
13.75549061417023
 10
185.2457895108134
 20
13.76727503897002
 10
185.2017150342523
 20
13.7594382277997
 10
185.1582371630201
 20
13.76760441372702
 10
185.1092346786489
 20
13.75538056738469
 10
185.1218731234825
 20
13.80960667249313
 10
185.113018296845
 20
13.86936918907558
 10
185.1175058770315
 20
13.97922029044371
 10
185.1157960135993
 20
14.11029975405679
 10
185.1163550915986
 20
14.26198011444328
 10
185.1161928768695
 20
14.42211074929953
 10
185.1162269924675
 20
14.58236865674566
 10
185.1162514960128
 20
14.73370247520439
 10
185.1161453543226
 20
14.86582156338601
 10
185.1164299141932
 20
14.97294802533193
 10
185.1158675547568
 20
15.03808619579474
 10
185.1180765083691
 20
15.16618957858675
 10
185.0319435998603
 20
14.79097610391575
 10
184.9555140818501
 20
14.63918193123393
 10
184.8660040767834
 20
14.47766206446309
 10
184.7640413217326
 20
14.20471848820169
 10
184.718797649104
 20
14.36717346596512
 10
184.6102355941671
 20
14.45605432058117
 10
184.7995791751752
 20
14.6054979496141
 10
184.8565340545701
 20
14.79749136974925
 10
184.9717520993352
 20
15.02899622906757
 10
184.9940151630134
 20
15.21797259759061
 10
185.1771905152141
 20
15.4945408932593
 10
185.0538033597552
 20
15.48698978832092
 10
184.9925684166834
 20
15.48856772366117
 10
184.9081999617065
 20
15.48882592573672
 10
184.8204235085967
 20
15.48544845751204
 10
184.7656768696123
 20
15.49394814982019
 10
184.7104703026025
 20
15.48048561049787
 10
184.7222823035536
 20
15.52931442126762
 10
184.7142496151794
 20
15.57269004896708
 10
184.7228186104679
 20
15.61509438309572
 10
184.7102943409157
 20
15.66267796552118
 10
184.7555101538736
 20
15.65267212995109
 10
184.8014815562725
 20
15.65894105174061
 10
184.877722204771
 20
15.65593561405872
 10
184.9561296131995
 20
15.65770448278541
 10
185.0323992648934
 20
15.65464793981659
 10
185.0783009459475
 20
15.66103971376176
 10
185.12317339654
 20
15.65093822978896
 10
185.1105552275635
 20
15.70157201581898
 10
185.1191936582707
 20
15.7550126188207
 10
185.1152361595445
 20
15.8486325513168
 10
185.1162325068335
 20
15.95112606688924
 10
185.1171927413074
 20
16.05353270248163
 10
185.1133211458006
 20
16.14735929609321
 10
185.1217789814365
 20
16.20036542840353
 10
185.1093075932836
 20
16.25211435651189
 10
185.1542106389851
 20
16.23850747226757
 10
185.1955083836773
 20
16.24100480320586
 10
185.2595344281051
 20
16.23648060574487
 10
185.2986111148787
 20
16.22781003043309
 10
185.3476543498743
 20
16.23515102070686
 10
185.3225080030591
 20
16.19602896051758
 10
185.2815901333723
 20
16.2056384245581
 10
185.2910109616604
 20
16.15540148169778
 10
185.2855647318746
 20
16.1038594563949
 10
185.2881699601804
 20
16.0195970758452
 10
185.2870102202153
 20
15.92559135583408
 10
185.2883591064231
 20
15.83196865395526
 10
185.2849970101508
 20
15.74679517552222
 10
185.2920959917769
 20
15.69716856072044
 10
185.2812569154545
 20
15.64993694969989
 10
185.3304010225246
 20
15.66201674936852
 10
185.3794877630147
 20
15.65447393363011
 10
185.4573714280642
 20
15.65686070361433
 10
185.5350365172896
 20
15.65899381905415
 10
185.5845393931356
 20
15.65193391922455
 10
185.634459475064
 20
15.66360151936214
 10
185.6223198516882
 20
15.61540235371392
 10
185.6305838229144
 20
15.57249219801235
 10
185.6223198650785
 20
15.52958201851384
 10
185.6344594549855
 20
15.48138288754864
 10
185.5845395158747
 20
15.4930503447151
 10
185.5350350651204
 20
15.48599202435044
 10
185.4573784382972
 20
15.48811665228602
 10
185.3794643865761
 20
15.49053389365759
 10
185.3304500352716
 20
15.48291848194484
 10
185.2813246108943
 20
15.49507952557592
 10
185.2915559988571
 20
15.45073013424157
 10
185.2856677678053
 20
15.40925436202911
 10
185.2878788305569
 20
15.34915394315302
 10
185.2874109346146
 20
15.30225782762889
 10
185.2874386992913
 20
15.27650146418197
 10
185.2874469028653
 20
15.2688916318772
 97
        1
330
AB
 75
     1
 76
     2
 52
45.0
 41
0.1
 77
     0
 78
     1
 53
45.0
 43
0.0
 44
0.0
 45
-0.282842712474619
 46
0.0
 79
     0
 98
        1
 10
0.0
 20
0.0
  0
HATCH
  5
C9
330
49
100
AcDbEntity
  8
1
  6
Continuous
 62
     2
100
AcDbHatch
 10
0.0
 20
0.0
 30
0.0
210
0.0
220
0.0
230
1.0
  2
CUSTOM10
 70
     0
 71
     1
 91
        1
 92
        1
 93
        1
 72
     4
 94
        3
 73
     0
 74
     0
 95
       47
 96
       43
 40
0.0
 40
0.0
 40
0.0
 40
0.0
 40
0.2207912809957201
 40
0.4459404186303043
 40
0.4902387190458977
 40
0.5327473892721926
 40
0.5742260451224971
 40
0.6155432630559696
 40
0.6568164066315183
 40
0.6982511618780394
 40
0.7407663929316335
 40
0.7851366743175239
 40
1.010288833836324
 40
1.231080507002173
 40
1.451765243652402
 40
1.676638205891686
 40
1.720461045359656
 40
1.830018144043521
 40
1.972442372353152
 40
2.114866600677521
 40
2.224423699395146
 40
2.268246538883387
 40
2.493628801207215
 40
2.715602830286618
 40
2.934211330706375
 40
3.149502369855374
 40
3.23138778485102
 40
3.318231873854169
 40
3.405143198198129
 40
3.486970301720481
 40
3.702258172493928
 40
3.920866283534163
 40
4.142839325931955
 40
4.368221903865415
 40
4.412044743359894
 40
4.52160184209591
 40
4.66402607045239
 40
4.806450298809098
 40
4.916007397546791
 40
4.959830237043114
 40
5.184703515847145
 40
5.405387250767521
 40
5.405387250767521
 40
5.405387250767521
 40
5.405387250767521
 10
182.6507427258646
 20
15.73406440953872
 10
182.6568139420003
 20
15.7975848250121
 10
182.6690762107243
 20
15.92587938689626
 10
182.5604706879413
 20
16.20166220174077
 10
182.6761985896605
 20
16.17188133432053
 10
182.7171842509016
 20
16.16765556262821
 10
182.7591205797518
 20
16.16310446389607
 10
182.8004196625711
 20
16.16201982929485
 10
182.8417032115556
 20
16.16310338195227
 10
182.8836148270647
 20
16.16766112711343
 10
182.924598354902
 20
16.1718743020973
 10
183.0404922843489
 20
16.20177611317533
 10
182.9295652727458
 20
15.92339806609892
 10
182.9574856365267
 20
15.74283140824952
 10
182.9404267346971
 20
15.50961042346471
 10
182.9414637282104
 20
15.34906622543146
 10
182.9414099399405
 20
15.22284817558722
 10
182.9414277372482
 20
15.12428963336241
 10
182.9414188581081
 20
14.99280702442963
 10
182.9414263928035
 20
14.8613284496865
 10
182.9414129405129
 20
14.7627622269409
 10
182.9414531717494
 20
14.63639735624152
 10
182.9406746403818
 20
14.4748206882287
 10
182.9565958319268
 20
14.24361821892914
 10
182.9333468885408
 20
14.05874351972001
 10
183.0360183444367
 20
13.78935602770053
 10
182.8820238362836
 20
13.82660112685818
 10
182.8004129802833
 20
13.82137994680535
 10
182.7188192292583
 20
13.82660620378351
 10
182.5648513666844
 20
13.78937069885386
 10
182.6674183421918
 20
14.05875129862881
 10
182.6442045316089
 20
14.24361585325414
 10
182.6600444655139
 20
14.47482218565638
 10
182.6593296313428
 20
14.63639712308503
 10
182.6593664569907
 20
14.76276231210521
 10
182.6593549000271
 20
14.86132756635981
 10
182.6593575019214
 20
14.9928112741722
 10
182.659364853178
 20
15.124275480312
 10
182.6593442541352
 20
15.22287786275325
 10
182.6594082192029
 20
15.34896149354427
 10
182.6581733947591
 20
15.51210091383772
 10
182.6532040396746
 20
15.66054183777549
 10
182.6507427258646
 20
15.73406440953872
 97
        1
330
AC
 75
     1
 76
     2
 52
45.0
 41
0.1
 77
     0
 78
     1
 53
45.0
 43
0.0
 44
0.0
 45
-0.282842712474619
 46
0.0
 79
     0
 98
        1
 10
0.0
 20
0.0
  0
HATCH
  5
CA
330
49
100
AcDbEntity
  8
1
  6
Continuous
 62
     2
100
AcDbHatch
 10
0.0
 20
0.0
 30
0.0
210
0.0
220
0.0
230
1.0
  2
CUSTOM11
 70
     0
 71
     1
 91
        1
 92
        1
 93
        1
 72
     4
 94
        3
 73
     0
 74
     0
 95
      110
 96
      106
 40
0.0
 40
0.0
 40
0.0
 40
0.0
 40
0.2203406257277714
 40
0.4407808782838055
 40
0.5952494494614465
 40
0.7488431659393037
 40
0.9023581831308738
 40
1.056801968670401
 40
1.210736449099873
 40
1.36304138653978
 40
1.515315729683094
 40
1.669377239147988
 40
1.721611652756458
 40
1.773199502942843
 40
1.824933793209889
 40
1.877110426487852
 40
1.982682281206587
 40
2.078781667087424
 40
2.172809640822088
 40
2.271937807378714
 40
2.378349933379192
 40
2.494131557736267
 40
2.626681683943458
 40
2.783145050795857
 40
2.89070123294071
 40
2.993130312454608
 40
3.099869730691597
 40
3.22023781669109
 40
3.352695482737379
 40
3.481732806389631
 40
3.593499473690161
 40
3.674323013331675
 40
3.817951711952653
 40
3.946167120793735
 40
4.061405053453393
 40
4.166480796003062
 40
4.262478775059128
 40
4.350736673551055
 40
4.433071991253884
 40
4.511216293814543
 40
4.564262454117874
 40
4.618474415571488
 40
4.670128488754094
 40
4.722296879126301
 40
4.819540945314227
 40
4.931194984128027
 40
5.049996040257697
 40
5.168643755415328
 40
5.28397081176254
 40
5.392260784910365
 40
5.486512254876383
 40
5.559178233949839
 40
5.591425852853496
 40
5.626215969637868
 40
5.667155838674415
 40
5.717449290214224
 40
5.738402360944838
 40
5.784499116553808
 40
5.830595872164781
 40
5.851548942897639
 40
5.873019280661754
 40
5.924217778408296
 40
5.985325662817675
 40
6.036524160567692
 40
6.05799449833422
 40
6.236847789607469
 40
6.381409928945645
 40
6.493190424178675
 40
6.574067534230484
 40
6.69101808620555
 40
6.814881554220496
 40
6.944307823240363
 40
7.071266716066101
 40
7.19348860446186
 40
7.309042773128144
 40
7.414007203170741
 40
7.505140441886526
 40
7.531150360599684
 40
7.559221645322267
 40
7.587202218920925
 40
7.612569159499137
 40
7.662550809481009
 40
7.702878875764151
 40
7.857328205230965
 40
8.010799568088583
 40
8.165256399657562
 40
8.322232698713986
 40
8.479564855016616
 40
8.635216230290876
 40
8.790882550925737
 40
8.948305154947274
 40
9.168271839032965
 40
9.387358980987232
 40
9.608047961033481
 40
9.832914234792685
 40
9.85833869496302
 40
9.925366817230028
 40
10.02013071422761
 40
10.12876249859
 40
10.2373942829525
 40
10.33215817995192
 40
10.39918630222395
 40
10.42461076239784
 40
10.64992019336944
 40
10.87188524531189
 40
10.87188524531189
 40
10.87188524531189
 40
10.87188524531189
 10
179.9057788376618
 20
15.7392326039819
 10
179.9092864933542
 20
15.80616462073804
 10
179.9163033987663
 20
15.94005891915858
 10
179.8198027599074
 20
16.22548554971468
 10
180.0510134726109
 20
16.16284386190283
 10
180.1919290057157
 20
16.17001554055992
 10
180.3490417757588
 20
16.16235883078243
 10
180.5025913427288
 20
16.1625275228304
 10
180.6545104935082
 20
16.16182040535432
 10
180.8142214813232
 20
16.1721015835164
 10
180.9408972601119
 20
16.1549651108075
 10
181.1370821122079
 20
16.22727260107146
 10
181.1034395279079
 20
16.12640699080116
 10
181.1052011317184
 20
16.0761925394767
 10
181.1027342073459
 20
16.02712335586467
 10
181.134707696601
 20
15.94063490847
 10
181.0010399903257
 20
15.98997438608338
 10
180.9172208688056
 20
15.98430634314167
 10
180.8173861139324
 20
15.99465516706298
 10
180.7186576720146
 20
16.00086450411087
 10
180.6121532771111
 20
16.00697763816776
 10
180.491051169806
 20
16.01588883484585
 10
180.3703381502454
 20
16.00521605912382
 10
180.1812553843438
 20
16.06468503080366
 10
180.2129028505312
 20
15.9055832007754
 10
180.1995563316833
 20
15.80839128339905
 10
180.1974958426451
 20
15.69634065110102
 10
180.195818804467
 20
15.5769968562935
 10
180.1973336794234
 20
15.4503259215511
 10
180.1956582478671
 20
15.32301588016117
 10
180.2058844271658
 20
15.22451566404464
 10
180.1779006596582
 20
15.08388702625629
 10
180.3508029999306
 20
15.13989551134096
 10
180.4645020202772
 20
15.12719951478496
 10
180.584015167224
 20
15.13448377051255
 10
180.6888491425073
 20
15.13878017056755
 10
180.7843084898612
 20
15.14330568258977
 10
180.8763823507033
 20
15.151492011462
 10
180.947655178244
 20
15.14643850638112
 10
181.0544931705686
 20
15.18536425031675
 10
181.0226603598037
 20
15.1051712200588
 10
181.0266164503929
 20
15.05562936846033
 10
181.0234502392014
 20
15.00557478039819
 10
181.0550791490586
 20
14.92128847612021
 10
180.9210133677692
 20
14.97425365495156
 10
180.8292322793201
 20
14.96540080890442
 10
180.7079729189603
 20
14.97570049965155
 10
180.5914113119771
 20
14.97748911767502
 10
180.4783375745879
 20
14.97787017109696
 10
180.3679246308471
 20
14.98415449472177
 10
180.2898124067841
 20
14.97189133255365
 10
180.1913625833644
 20
15.00453887616127
 10
180.2012355173561
 20
14.94769748054206
 10
180.1973923244404
 20
14.91392130557984
 10
180.1966789884268
 20
14.87119604709412
 10
180.1963369642975
 20
14.83401607262153
 10
180.1963834255345
 20
14.79487237370771
 10
180.1963649429927
 20
14.75716849497686
 10
180.1963703431806
 20
14.71944955232402
 10
180.1963697214201
 20
14.6899432474515
 10
180.1963698151545
 20
14.65873577699301
 10
180.1963704287921
 20
14.61414424908085
 10
180.1963671499336
 20
14.5596395650885
 10
180.1963759623481
 20
14.51505540201448
 10
180.1963359653417
 20
14.4311780858574
 10
180.1976024270255
 20
14.31737520677678
 10
180.1950274117844
 20
14.16830395933709
 10
180.206500938172
 20
14.06597203813905
 10
180.1823506222264
 20
13.93338903885834
 10
180.3332993946477
 20
13.97895732272021
 10
180.4428436671556
 20
13.9642701216235
 10
180.5733970473921
 20
13.96920435125062
 10
180.6990312209514
 20
13.97257705323362
 10
180.8188730625602
 20
13.97711497498773
 10
180.9391362611427
 20
13.99048536182004
 10
181.0222761663515
 20
13.98068712782596
 10
181.1456080421077
 20
14.04126214623321
 10
181.1244269203956
 20
13.98532460134021
 10
181.1235950270118
 20
13.95939249372346
 10
181.121896370756
 20
13.93197256190939
 10
181.121797488883
 20
13.89738195206385
 10
181.120365930133
 20
13.86050408220768
 10
181.1532804192191
 20
13.76846841021805
 10
180.9551306988108
 20
13.84132015974832
 10
180.8300548294892
 20
13.81825726508607
 10
180.6673071295156
 20
13.82454021985787
 10
180.5129366450002
 20
13.82260943909927
 10
180.3566670436944
 20
13.82393762599269
 10
180.1970544465282
 20
13.82059872487863
 10
180.0540326342237
 20
13.83265795728241
 10
179.8197144881629
 20
13.76952001976917
 10
179.9173810751197
 20
14.05620527466317
 10
179.9006868780058
 20
14.2498830814266
 10
179.9146296709685
 20
14.47848242880294
 10
179.9142987846633
 20
14.63384593955049
 10
179.9143078119264
 20
14.73966336444125
 10
179.9143055876316
 20
14.80205784124214
 10
179.914306555189
 20
14.89220425248327
 10
179.9143065473262
 20
14.99621167157438
 10
179.9143053861104
 20
15.10022131375296
 10
179.9143090971502
 20
15.19036243688768
 10
179.9143011051052
 20
15.25276803097215
 10
179.9143334275019
 20
15.35868835961119
 10
179.913144078832
 20
15.5162671654474
 10
179.9082216489257
 20
15.66528219822066
 10
179.9057788376618
 20
15.7392326039819
 97
        1
330
AD
 75
     1
 76
     2
 52
45.0
 41
0.1
 77
     0
 78
     1
 53
45.0
 43
0.0
 44
0.0
 45
-0.282842712474619
 46
0.0
 79
     0
 98
        1
 10
0.0
 20
0.0
  0
HATCH
  5
CB
330
49
100
AcDbEntity
  8
1
  6
Continuous
 62
     2
100
AcDbHatch
 10
0.0
 20
0.0
 30
0.0
210
0.0
220
0.0
230
1.0
  2
CUSTOM12
 70
     0
 71
     1
 91
        1
 92
        1
 93
        1
 72
     4
 94
        3
 73
     0
 74
     0
 95
       95
 96
       91
 40
0.0
 40
0.0
 40
0.0
 40
0.0
 40
0.6550406656911676
 40
1.308087289032009
 40
1.420803739835879
 40
1.566130759770867
 40
1.757067341888541
 40
2.006513545026547
 40
2.087328263121635
 40
2.185328872295707
 40
2.294612454748443
 40
2.408936380534894
 40
2.52680276779864
 40
2.646360524615686
 40
2.762535723971657
 40
2.870057342870228
 40
2.966883448431725
 40
3.050803243518379
 40
3.115818222436685
 40
3.156030057150335
 40
3.213914225080238
 40
3.276689026450639
 40
3.342960320981416
 40
3.404230667150667
 40
3.453822809493492
 40
3.532499827188532
 40
3.63477518850728
 40
3.754909333008278
 40
3.889736761660777
 40
4.035769602175337
 40
4.187256681197725
 40
4.338733685676069
 40
4.488478734676236
 40
4.634708317831701
 40
4.771493189921388
 40
4.892686571561327
 40
5.199775528944563
 40
5.460353566929752
 40
5.667603142345628
 40
5.814722905404607
 40
5.828990806219934
 40
5.855488336304602
 40
5.869756237118934
 40
6.189796507762939
 40
6.531890469873133
 40
6.8830536370171
 40
7.23051202491161
 40
7.566966656764716
 40
7.885203559707543
 40
8.172887439719366
 40
8.418011594062879
 40
8.4439267211908
 40
8.510760470613288
 40
8.602145393795798
 40
8.70171404164724
 40
8.793098965075469
 40
8.859932715058042
 40
8.885847842603692
 40
9.24230125661291
 40
9.58927545501686
 40
9.921808543164268
 40
10.23479624298477
 40
10.29968150889202
 40
10.35323493887788
 40
10.40154625355169
 40
10.46482922477845
 40
10.55973900668426
 40
10.69239545985637
 40
10.84920353475692
 40
11.01626328594799
 40
11.18672024367463
 40
11.35372582577231
 40
11.50257442292447
 40
11.61866495023311
 40
11.71329869152895
 40
11.82511050573928
 40
11.94464880845736
 40
12.06929242642526
 40
12.19707290435196
 40
12.32562632860549
 40
12.450345653313
 40
12.56646595170348
 40
12.67099007414655
 40
12.76077625936803
 40
12.82703233506714
 40
12.87429132786013
 40
12.89831990323352
 40
12.92234847860041
 40
13.53984767410341
 40
14.18294284359384
 40
14.18294284359384
 40
14.18294284359384
 40
14.18294284359384
 10
177.3067935648022
 20
14.70898038201725
 10
177.1752019758552
 20
14.82265058603233
 10
176.9124193802729
 20
15.04964496316159
 10
176.3997393441019
 20
15.89214462956289
 10
176.4106654595363
 20
15.5342337757702
 10
176.4041226527992
 20
15.39267392272133
 10
176.4028026631773
 20
15.19421305299281
 10
176.4018117602538
 20
15.02150296045982
 10
176.4024101751976
 20
14.87865373257579
 10
176.4038994301881
 20
14.78265005413357
 10
176.4055683588473
 20
14.67545503263142
 10
176.4071934954619
 20
14.56164211517582
 10
176.4092429501686
 20
14.44441572604589
 10
176.4123165501926
 20
14.3265641123297
 10
176.4156339697043
 20
14.21228087320621
 10
176.4193605340281
 20
14.10521401867277
 10
176.4217338161424
 20
14.01007408766921
 10
176.427871888836
 20
13.92558557205696
 10
176.4239784495947
 20
13.86923087298141
 10
176.4455230443078
 20
13.79825022472354
 10
176.3680940058619
 20
13.82902677604484
 10
176.3116353240192
 20
13.82011242517614
 10
176.2540495896808
 20
13.82896218398276
 10
176.1690163478473
 20
13.79738225225943
 10
176.2009714146384
 20
13.88095155992189
 10
176.199070528254
 20
13.9488260896831
 10
176.2107960047301
 20
14.05233256764418
 10
176.2164241053001
 20
14.17002125616695
 10
176.2237902178942
 20
14.30388609164423
 10
176.232075970161
 20
14.44764152872633
 10
176.2398851897428
 20
14.59714022843443
 10
176.2457571222657
 20
14.74792549402079
 10
176.2503667817969
 20
14.89699943878438
 10
176.2542632117543
 20
15.04122913163022
 10
176.2570715126565
 20
15.17583905213017
 10
176.2576698755023
 20
15.36469614347354
 10
176.2616023867151
 20
15.58975494313154
 10
176.2442175378499
 20
15.86367091125707
 10
176.2850417342585
 20
16.02787112098598
 10
176.1995153256
 20
16.22749661465094
 10
176.2660558907689
 20
16.22385458403979
 10
176.2838724273231
 20
16.22413447160853
 10
176.4056801797508
 20
16.22632927398618
 10
176.5080770335461
 20
15.94675118721511
 10
176.7580021509357
 20
15.74563008536003
 10
176.987003533111
 20
15.47792614987913
 10
177.224515121311
 20
15.22646413862378
 10
177.4486090740773
 20
14.98969974061358
 10
177.675071628301
 20
14.73218692583078
 10
177.8325687886515
 20
14.61649335056924
 10
178.0472129612676
 20
14.27997152538796
 10
178.0422645974619
 20
14.40464754091603
 10
178.0433931602548
 20
14.46327691935737
 10
178.0428877841516
 20
14.55043662371977
 10
178.0430475158114
 20
14.64416143182872
 10
178.043005489132
 20
14.73018971297035
 10
178.0430202040374
 20
14.79153891945496
 10
178.0429706255983
 20
14.94135231520991
 10
178.0458811522811
 20
15.17989612510105
 10
178.0259521041162
 20
15.54486509868699
 10
178.0750433936248
 20
15.80799631993417
 10
177.917795150918
 20
16.21928904947751
 10
178.0762112872422
 20
16.16398282551749
 10
178.131168047863
 20
16.16199686500175
 10
178.1827887766741
 20
16.16264778248252
 10
178.2713198965367
 20
16.20369527738245
 10
178.2204898303168
 20
16.05696326622987
 10
178.2313389930285
 20
15.95019971954433
 10
178.2166036994847
 20
15.79085705414114
 10
178.2099976446205
 20
15.62853061652873
 10
178.2014961399917
 20
15.45992521892396
 10
178.1943227202199
 20
15.29814814703541
 10
178.1889063215389
 20
15.15422331457932
 10
178.1871713967649
 20
15.03437493466925
 10
178.187544067232
 20
14.92686101590515
 10
178.1873656126263
 20
14.81820024645586
 10
178.187701086314
 20
14.6995357016553
 10
178.1890040622183
 20
14.57555163512741
 10
178.1908887351575
 20
14.44858294171105
 10
178.1925004454851
 20
14.32153861551031
 10
178.1941403137432
 20
14.19854884492178
 10
178.196257074575
 20
14.08300931383758
 10
178.1963848422365
 20
13.98090903955837
 10
178.2006514396555
 20
13.89009848838156
 10
178.190844008529
 20
13.83213621208786
 10
178.211847477169
 20
13.76517130132029
 10
178.1725639739897
 20
13.77291153966688
 10
177.9595307117747
 20
13.75755254145192
 10
177.7636297943187
 20
14.31403058094469
 10
177.4611197631545
 20
14.57556035348511
 10
177.3067935648022
 20
14.70898038201725
 97
        1
330
AE
 75
     1
 76
     2
 52
45.0
 41
0.1
 77
     0
 78
     1
 53
45.0
 43
0.0
 44
0.0
 45
-0.282842712474619
 46
0.0
 79
     0
 98
        1
 10
0.0
 20
0.0
  0
HATCH
  5
CC
330
49
100
AcDbEntity
  8
1
  6
Continuous
 62
     2
100
AcDbHatch
 10
0.0
 20
0.0
 30
0.0
210
0.0
220
0.0
230
1.0
  2
CUSTOM13
 70
     0
 71
     1
 91
        2
 92
        1
 93
        1
 72
     4
 94
        3
 73
     0
 74
     0
 95
       57
 96
       53
 40
0.0
 40
0.0
 40
0.0
 40
0.0
 40
0.0471632082809533
 40
0.0914861054631885
 40
0.135776251970212
 40
0.1826527001610699
 40
0.2295203288572608
 40
0.273775197222163
 40
0.3181310461543089
 40
0.3652607198398548
 40
0.4571007286314813
 40
0.5671851029165687
 40
0.6894623283868673
 40
0.8181758272546049
 40
0.9510087229274113
 40
1.085852229674064
 40
1.218126164475311
 40
1.343545131142392
 40
1.454537202956779
 40
1.567187607530817
 40
1.680710966642436
 40
1.794226869736885
 40
1.900009184247628
 40
2.004085860447964
 40
2.108162674451823
 40
2.214000150155311
 40
2.496038577352179
 40
2.762350745479288
 40
2.997275353279412
 40
3.185110082137743
 40
3.246407890063971
 40
3.312607550212702
 40
3.378877742711633
 40
3.44014039965146
 40
4.100501696006468
 40
4.754913085563488
 40
5.411331693423924
 40
6.07789043256873
 40
6.110575292671009
 40
6.143260152775789
 40
6.36798936339516
 40
6.610525374951568
 40
6.86338913646733
 40
7.119380025547616
 40
7.376036605091096
 40
7.63116477096631
 40
7.876722425456443
 40
8.104953735855933
 40
8.31291668592432
 40
8.49773029494132
 40
8.651018984313868
 40
8.764738853624614
 40
8.764738853624614
 40
8.764738853624614
 40
8.764738853624614
 10
174.7922649500514
 20
13.81626739612926
 10
174.7766616726931
 20
13.81826231079077
 10
174.7463947960303
 20
13.82213201360299
 10
174.7010994202253
 20
13.82341984967269
 10
174.655955312935
 20
13.82308683554051
 10
174.60990171234
 20
13.82314658674225
 10
174.5640496172097
 20
13.82325813650002
 10
174.5183711648165
 20
13.82277833456591
 10
174.4750811541609
 20
13.82461109618721
 10
174.4039947951514
 20
13.80049556814654
 10
174.4057477261441
 20
13.92184693977251
 10
174.358619637057
 20
14.00726239751233
 10
174.3191478251762
 20
14.12486929345135
 10
174.2706635532646
 20
14.24232752540441
 10
174.2201017402522
 20
14.36405935761508
 10
174.1718634610478
 20
14.49075967862465
 10
174.1135232947595
 20
14.59933687784953
 10
174.0980892667262
 20
14.75620657134409
 10
173.9566586330637
 20
14.72373446548322
 10
173.8508397414905
 20
14.7351288868218
 10
173.7358569725222
 20
14.73392591514615
 10
173.6253142252141
 20
14.73506945347408
 10
173.5176583522783
 20
14.73418350037526
 10
173.4121322529243
 20
14.73416602390519
 10
173.3109192682013
 20
14.72714032472415
 10
173.1266804827754
 20
14.75135859859865
 10
173.1157393685411
 20
14.44741691121889
 10
173.0087691634752
 20
14.22353177253395
 10
172.9098148604347
 20
14.03895314292498
 10
172.9225090524009
 20
13.79530204804203
 10
172.8050091716397
 20
13.82508046753198
 10
172.7422055868311
 20
13.82258089509604
 10
172.67858720934
 20
13.82344075102806
 10
172.3946014194077
 20
13.78098039941939
 10
173.0251638499381
 20
14.50081952444788
 10
173.1087645289071
 20
15.0127653943573
 10
173.4929252789338
 20
15.53353743550043
 10
173.4777208288569
 20
16.23519626253213
 10
173.7239265722698
 20
16.22345633081257
 10
173.8256346157563
 20
16.23225004452772
 10
173.8249752035818
 20
15.98059650730345
 10
173.9428317155829
 20
15.79818020733959
 10
174.0315515260485
 20
15.55563740662865
 10
174.1322292485261
 20
15.3234003053013
 10
174.2311142712243
 20
15.0867464456691
 10
174.329967699067
 20
14.85461739170095
 10
174.4256166390927
 20
14.63122222788792
 10
174.515990457327
 20
14.42272549049311
 10
174.598994456819
 20
14.23308448529323
 10
174.6726088582799
 20
14.06663106068099
 10
174.7342815895547
 20
13.92917699626097
 10
174.7749458885604
 20
13.84999239430033
 10
174.7922649500514
 20
13.81626739612926
 97
        1
330
B0
 92
       16
 93
        1
 72
     4
 94
        3
 73
     0
 74
     0
 95
       25
 96
       21
 40
0.0
 40
0.0
 40
0.0
 40
0.0
 40
0.0911479969064537
 40
0.1858117896204953
 40
0.280412839973506
 40
0.3715889190714795
 40
0.467908049421814
 40
0.5642683809229231
 40
0.6605683222644991
 40
0.7569653015810256
 40
0.8561348172522739
 40
1.092615965104304
 40
1.374867658141898
 40
1.61134881201159
 40
1.710518328425249
 40
1.809403163726556
 40
2.045205463294081
 40
2.32664691762213
 40
2.562449217190603
 40
2.661334043833911
 40
2.661334043833911
 40
2.661334043833911
 40
2.661334043833911
 10
173.26837005672
 20
14.88614538197292
 10
173.2987525917923
 20
14.88598079714554
 10
173.3606895889112
 20
14.88564528689923
 10
173.4541356960332
 20
14.88269055451999
 10
173.5475095236358
 20
14.87977752877151
 10
173.6417760753477
 20
14.87894201643416
 10
173.7354964790967
 20
14.87996644658046
 10
173.8352040303205
 20
14.87916977470972
 10
173.9188949546313
 20
14.8892141023522
 10
174.0637996315046
 20
14.86234617674165
 10
173.9396132444802
 20
15.03665530280049
 10
173.8965867286282
 20
15.19651711006091
 10
173.7808922142209
 20
15.45518458550212
 10
173.7017565431258
 20
15.5923105286186
 10
173.6431576621817
 20
15.80937033134077
 10
173.5864803939439
 20
15.59266134213426
 10
173.5052809900477
 20
15.45327012438239
 10
173.4063701281489
 20
15.20406969370192
 10
173.3253625094259
 20
15.01925830226075
 10
173.2813683325839
 20
14.91650446856117
 10
173.26837005672
 20
14.88614538197292
 97
        1
330
AF
 75
     1
 76
     2
 52
45.0
 41
0.1
 77
     0
 78
     1
 53
45.0
 43
0.0
 44
0.0
 45
-0.282842712474619
 46
0.0
 79
     0
 98
        1
 10
0.0
 20
0.0
  0
HATCH
  5
CD
330
49
100
AcDbEntity
  8
1
  6
Continuous
 62
     2
100
AcDbHatch
 10
0.0
 20
0.0
 30
0.0
210
0.0
220
0.0
230
1.0
  2
CUSTOM14
 70
     0
 71
     1
 91
        1
 92
        1
 93
        1
 72
     4
 94
        3
 73
     0
 74
     0
 95
       99
 96
       95
 40
0.0
 40
0.0
 40
0.0
 40
0.0
 40
0.0796417172273046
 40
0.162176854235658
 40
0.2486489160958234
 40
0.3404969668525192
 40
0.4381912511165489
 40
0.5434463660245508
 40
0.6518115192847544
 40
0.7530190937887389
 40
0.8492196919725428
 40
0.9419290312998616
 40
1.034249663570069
 40
1.129078600620241
 40
1.226697027573278
 40
1.327220425421743
 40
1.470572134938061
 40
1.595489863371281
 40
1.719934125348405
 40
1.8505766201275
 40
1.989059629987337
 40
2.134139054226901
 40
2.280698007207216
 40
2.424529739039483
 40
2.565929576985848
 40
2.708239260773545
 40
2.861717887443663
 40
3.045168540347366
 40
3.183798301138616
 40
3.314813961455472
 40
3.442083470447308
 40
3.569912708372907
 40
3.702177512509355
 40
3.842307559659545
 40
3.992872223245921
 40
4.156750662218367
 40
4.310981861107589
 40
4.445859909322606
 40
4.572393936131599
 40
4.701656719781998
 40
4.768279086008485
 40
4.83596069789842
 40
4.912788918729361
 40
5.006285208481548
 40
5.026909478751681
 40
5.047533749021302
 40
5.10180803147134
 40
5.162325165538659
 40
5.226919745995979
 40
5.294231806596777
 40
5.364544852554946
 40
5.438319055467992
 40
5.517877651324354
 40
5.607647714861609
 40
5.700449642544456
 40
5.788251142364296
 40
5.872714706039852
 40
5.955167292575344
 40
6.037192395190471
 40
6.120669181469189
 40
6.206848616686429
 40
6.296680855416851
 40
6.442558392872671
 40
6.568190371608319
 40
6.692904567360486
 40
6.824220446557238
 40
6.963121850329499
 40
7.107843738851288
 40
7.253431663907372
 40
7.395187468036795
 40
7.533140753237851
 40
7.670550457175339
 40
7.816236511769343
 40
7.987691657359301
 40
8.142277421969327
 40
8.293662615415078
 40
8.442962460879347
 40
8.591598316185374
 40
8.74367899236183
 40
8.90372532369924
 40
9.076307008890586
 40
9.265578604680641
 40
9.459203795360759
 40
9.617619810273572
 40
9.753609671361982
 40
9.87487330000413
 40
9.954520184977826
 40
10.0241641371925
 40
10.09769764405451
 40
10.18909955924978
 40
10.20974586420139
 40
10.23039218263382
 40
10.30057101881268
 40
10.37632012987543
 40
10.37632012987543
 40
10.37632012987543
 40
10.37632012987543
 10
170.1465954835851
 20
14.13795663215994
 10
170.1632217851219
 20
14.11720608845313
 10
170.1970784206578
 20
14.07495111711903
 10
170.2599822541037
 20
14.02029811392072
 10
170.3332500940394
 20
13.97299025121051
 10
170.4175969238637
 20
13.93527231437934
 10
170.513224061546
 20
13.91040619731952
 10
170.6171853775347
 20
13.90309559345937
 10
170.7224020220406
 20
13.91142322794054
 10
170.8206626371334
 20
13.94149179651527
 10
170.9058986427548
 20
13.98848822971878
 10
170.9779220206104
 20
14.04952991250854
 10
171.0350917709096
 20
14.12412969578584
 10
171.0767868747441
 20
14.21002464660172
 10
171.1026952846292
 20
14.30485850432212
 10
171.1118037332654
 20
14.41854979038366
 10
171.0986864796487
 20
14.5433258777078
 10
171.0325330334414
 20
14.66014719171887
 10
170.9369370919569
 20
14.74512539577378
 10
170.8249681022369
 20
14.81416684459158
 10
170.699365958327
 20
14.87204142045891
 10
170.5656691620857
 20
14.92373723284342
 10
170.4313122818832
 20
14.97899092397181
 10
170.3051983986878
 20
15.04939770641649
 10
170.1926579987536
 20
15.13785540731249
 10
170.0969963064458
 20
15.24981067868472
 10
170.0334157151827
 20
15.39949910101383
 10
170.0200706505016
 20
15.55932794385141
 10
170.0320510987449
 20
15.71048405306845
 10
170.0712298928841
 20
15.83809244591537
 10
170.1354987750911
 20
15.95080874030842
 10
170.223820499974
 20
16.0464860926869
 10
170.3338091207628
 20
16.12354214985753
 10
170.4632284401265
 20
16.18151396936276
 10
170.6111838967794
 20
16.21739177588823
 10
170.7682069455487
 20
16.22746719050564
 10
170.9174940466431
 20
16.21863637762591
 10
171.0596253614171
 20
16.19074899340352
 10
171.1595922609626
 20
16.13413314701138
 10
171.3125074736186
 20
16.08674602105507
 10
171.2455131717169
 20
16.00197553001184
 10
171.229647912027
 20
15.93438901873484
 10
171.1978750531297
 20
15.86926092793191
 10
171.2150202209572
 20
15.76723453256952
 10
171.1666427208232
 20
15.77493211681903
 10
171.1315789440766
 20
15.76806771724807
 10
171.1296697985719
 20
15.83263831158199
 10
171.0985692931989
 20
15.87825639621393
 10
171.0664551628456
 20
15.9356103662845
 10
171.0208038475169
 20
15.98540462692564
 10
170.9658508218388
 20
16.02994813718993
 10
170.9010841173008
 20
16.06763988836551
 10
170.8232377310598
 20
16.09283375791351
 10
170.7355160553353
 20
16.09931230998111
 10
170.6452903277807
 20
16.09235709285604
 10
170.5594594694065
 20
16.06909190460925
 10
170.4828343638596
 20
16.03131644107543
 10
170.4165265636202
 20
15.98051641089571
 10
170.3622560536964
 20
15.91731143407213
 10
170.322492534546
 20
15.84276455710366
 10
170.2976775510588
 20
15.75917313997763
 10
170.289212426287
 20
15.65192948382284
 10
170.3019697987104
 20
15.52965457267562
 10
170.3681548409273
 20
15.41149724291204
 10
170.4640977399833
 20
15.32606325709532
 10
170.5757914963183
 20
15.25583362306719
 10
170.7010863668703
 20
15.19659162305305
 10
170.8349823941448
 20
15.14616708086132
 10
170.9689930333151
 20
15.09322516984382
 10
171.0950885316916
 20
15.02750170625175
 10
171.2076216638418
 20
14.94480352537322
 10
171.3031370284233
 20
14.83996006310074
 10
171.3672706486963
 20
14.6993711725157
 10
171.3811103725279
 20
14.54065409451592
 10
171.3673954712229
 20
14.38153155217877
 10
171.3244739153986
 20
14.23483828819208
 10
171.2545906329066
 20
14.10119796587144
 10
171.157459221383
 20
13.98532387699292
 10
171.0347806023658
 20
13.89089981770086
 10
170.8874408413168
 20
13.82179270651982
 10
170.7177132497125
 20
13.77953210858853
 10
170.5317404979598
 20
13.76781736230407
 10
170.3528955926184
 20
13.77809486683437
 10
170.1881733753744
 20
13.81966573769155
 10
170.0834410841057
 20
13.88797642883938
 10
169.9350960790367
 20
13.93675219032107
 10
169.9980378194729
 20
14.02976591290842
 10
170.0072274430061
 20
14.1029653624828
 10
170.0303711301232
 20
14.16936294501346
 10
170.0034588335318
 20
14.2697480952758
 10
170.052133895634
 20
14.26234033517378
 10
170.0916530580697
 20
14.26894063620894
 10
170.0996204944703
 20
14.19078703218934
 10
170.1305436967923
 20
14.15600927375857
 10
170.1465954835851
 20
14.13795663215994
 97
        1
330
B1
 75
     1
 76
     2
 52
45.0
 41
0.1
 77
     0
 78
     1
 53
45.0
 43
0.0
 44
0.0
 45
-0.282842712474619
 46
0.0
 79
     0
 98
        1
 10
0.0
 20
0.0
  0
ENDBLK
  5
4B
330
49
100
AcDbEntity
  8
0
100
AcDbBlockEnd
  0
BLOCK
  5
4E
330
4C
100
AcDbEntity
  8
0
100
AcDbBlockBegin
  2
開示A4枠
 70
     0
 10
0.00000000000011
 20
0.0
 30
0.0
  3
開示A4枠
  1

  0
INSERT
  5
4D
330
4C
100
AcDbEntity
  8
1
100
AcDbBlockReference
  2
開示A4
 10
0.00000000000017
 20
0.0
 30
0.0
 41
3.0
 42
3.0
 43
3.0
  0
ENDBLK
  5
4F
330
4C
100
AcDbEntity
  8
0
100
AcDbBlockEnd
  0
BLOCK
  5
F9
330
F2
100
AcDbEntity
  8
0
100
AcDbBlockBegin
  2
*D3
 70
     1
 10
0.0
 20
0.0
 30
0.0
  3
*D3
  1

  0
LINE
  5
F3
330
F2
100
AcDbEntity
  8
1
  6
Continuous
 62
     2
100
AcDbLine
 10
300.1622005806852
 20
606.235217659608
 30
0.0
 11
366.1622005806852
 21
606.235217659608
 31
0.0
  0
LINE
  5
F4
330
F2
100
AcDbEntity
  8
1
  6
Continuous
 62
     2
100
AcDbLine
 10
300.1622005806852
 20
624.235217659608
 30
0.0
 11
300.1622005806852
 21
603.235217659608
 31
0.0
  0
LINE
  5
F5
330
F2
100
AcDbEntity
  8
1
  6
Continuous
 62
     2
100
AcDbLine
 10
366.1622005806852
 20
691.2352176596601
 30
0.0
 11
366.1622005806852
 21
603.235217659608
 31
0.0
  0
SOLID
  5
F6
330
F2
100
AcDbEntity
  8
1
 62
     2
100
AcDbTrace
 10
310.6622005806852
 20
607.6175688842757
 30
0.0
 11
310.6622005806852
 21
604.8528664349403
 31
0.0
 12
300.1622005806852
 22
606.235217659608
 32
0.0
 13
300.1622005806852
 23
606.235217659608
 33
0.0
  0
SOLID
  5
F7
330
F2
100
AcDbEntity
  8
1
 62
     2
100
AcDbTrace
 10
355.6622005806852
 20
604.8528664349403
 30
0.0
 11
355.6622005806852
 21
607.6175688842757
 31
0.0
 12
366.1622005806852
 22
606.235217659608
 32
0.0
 13
366.1622005806852
 23
606.235217659608
 33
0.0
  0
MTEXT
  5
F8
330
F2
100
AcDbEntity
  8
1
 62
     7
100
AcDbMText
 10
317.4122005806851
 20
609.235217659608
 30
0.0
 40
10.5
 41
0.0
 71
     7
 72
     1
  1
66
  7
CONVERTER_12
 11
0.9999999999970619
 21
2.424068405545306E-6
 31
0.0
 73
     1
 44
0.60024009603842
  0
ENDBLK
  5
FA
330
F2
100
AcDbEntity
  8
0
100
AcDbBlockEnd
  0
BLOCK
  5
104
330
FD
100
AcDbEntity
  8
0
100
AcDbBlockBegin
  2
*D4
 70
     1
 10
0.0
 20
0.0
 30
0.0
  3
*D4
  1

  0
LINE
  5
FE
330
FD
100
AcDbEntity
  8
1
  6
Continuous
 62
     2
100
AcDbLine
 10
230.4122005806851
 20
739.9852176596601
 30
0.0
 11
230.4122005806851
 21
636.235217659608
 31
0.0
  0
LINE
  5
FF
330
FD
100
AcDbEntity
  8
1
  6
Continuous
 62
     2
100
AcDbLine
 10
284.4122005806851
 20
636.235217659608
 30
0.0
 11
227.4122005806851
 21
636.235217659608
 31
0.0
  0
LINE
  5
100
330
FD
100
AcDbEntity
  8
1
  6
Continuous
 62
     2
100
AcDbLine
 10
333.1622005806851
 20
739.9852176596601
 30
0.0
 11
227.4122005806851
 21
739.9852176596601
 31
0.0
  0
SOLID
  5
101
330
FD
100
AcDbEntity
  8
1
 62
     2
100
AcDbTrace
 10
231.7945518053527
 20
729.4852176596601
 30
0.0
 11
229.0298493560175
 21
729.4852176596601
 31
0.0
 12
230.4122005806851
 22
739.9852176596601
 32
0.0
 13
230.4122005806851
 23
739.9852176596601
 33
0.0
  0
SOLID
  5
102
330
FD
100
AcDbEntity
  8
1
 62
     2
100
AcDbTrace
 10
229.0298493560175
 20
646.735217659608
 30
0.0
 11
231.7945518053527
 21
646.735217659608
 31
0.0
 12
230.4122005806851
 22
636.235217659608
 32
0.0
 13
230.4122005806851
 23
636.235217659608
 33
0.0
  0
MTEXT
  5
103
330
FD
100
AcDbEntity
  8
1
 62
     7
100
AcDbMText
 10
227.4122005806851
 20
677.085217659634
 30
0.0
 40
10.5
 41
0.0
 71
     7
 72
     1
  1
104
  7
CONVERTER_12
 11
0.0
 21
1.0
 31
0.0
 73
     1
 44
0.60024009603842
  0
ENDBLK
  5
105
330
FD
100
AcDbEntity
  8
0
100
AcDbBlockEnd
  0
BLOCK
  5
10F
330
108
100
AcDbEntity
  8
0
100
AcDbBlockBegin
  2
*D5
 70
     1
 10
0.0
 20
0.0
 30
0.0
  3
*D5
  1

  0
LINE
  5
109
330
108
100
AcDbEntity
  8
1
  6
Continuous
 62
     2
100
AcDbLine
 10
435.9122005806851
 20
739.98521765966
 30
0.0
 11
435.9122005806851
 21
231.2352176596601
 31
0.0
  0
LINE
  5
10A
330
108
100
AcDbEntity
  8
1
  6
Continuous
 62
     2
100
AcDbLine
 10
381.9122005806851
 20
231.2352176596601
 30
0.0
 11
438.9122005806851
 21
231.2352176596601
 31
0.0
  0
LINE
  5
10B
330
108
100
AcDbEntity
  8
1
  6
Continuous
 62
     2
100
AcDbLine
 10
333.1622005806852
 20
739.98521765966
 30
0.0
 11
438.9122005806851
 21
739.98521765966
 31
0.0
  0
SOLID
  5
10C
330
108
100
AcDbEntity
  8
1
 62
     2
100
AcDbTrace
 10
437.2945518053528
 20
729.48521765966
 30
0.0
 11
434.5298493560175
 21
729.48521765966
 31
0.0
 12
435.9122005806851
 22
739.98521765966
 32
0.0
 13
435.9122005806851
 23
739.98521765966
 33
0.0
  0
SOLID
  5
10D
330
108
100
AcDbEntity
  8
1
 62
     2
100
AcDbTrace
 10
434.5298493560175
 20
241.7352176596601
 30
0.0
 11
437.2945518053528
 21
241.7352176596601
 31
0.0
 12
435.9122005806851
 22
231.2352176596601
 32
0.0
 13
435.9122005806851
 23
231.2352176596601
 33
0.0
  0
MTEXT
  5
10E
330
108
100
AcDbEntity
  8
1
 62
     7
100
AcDbMText
 10
432.9122005806851
 20
473.0102176596588
 30
0.0
 40
10.5
 41
0.0
 71
     7
 72
     1
  1
509
  7
CONVERTER_12
 11
0.0
 21
1.0
 31
0.0
 73
     1
 44
0.60024009603842
  0
ENDBLK
  5
110
330
108
100
AcDbEntity
  8
0
100
AcDbBlockEnd
  0
BLOCK
  5
11A
330
113
100
AcDbEntity
  8
0
100
AcDbBlockBegin
  2
*D6
 70
     1
 10
0.0
 20
0.0
 30
0.0
  3
*D6
  1

  0
LINE
  5
114
330
113
100
AcDbEntity
  8
1
  6
Continuous
 62
     2
100
AcDbLine
 10
411.9122005806851
 20
691.23521765966
 30
0.0
 11
411.9122005806851
 21
231.2352176596601
 31
0.0
  0
LINE
  5
115
330
113
100
AcDbEntity
  8
1
  6
Continuous
 62
     2
100
AcDbLine
 10
381.9122005806851
 20
231.2352176596601
 30
0.0
 11
414.9122005806851
 21
231.2352176596601
 31
0.0
  0
LINE
  5
116
330
113
100
AcDbEntity
  8
1
  6
Continuous
 62
     2
100
AcDbLine
 10
381.9122005806851
 20
691.23521765966
 30
0.0
 11
414.9122005806851
 21
691.23521765966
 31
0.0
  0
SOLID
  5
117
330
113
100
AcDbEntity
  8
1
 62
     2
100
AcDbTrace
 10
413.2945518053528
 20
680.73521765966
 30
0.0
 11
410.5298493560175
 21
680.73521765966
 31
0.0
 12
411.9122005806851
 22
691.23521765966
 32
0.0
 13
411.9122005806851
 23
691.23521765966
 33
0.0
  0
SOLID
  5
118
330
113
100
AcDbEntity
  8
1
 62
     2
100
AcDbTrace
 10
410.5298493560175
 20
241.7352176596601
 30
0.0
 11
413.2945518053528
 21
241.7352176596601
 31
0.0
 12
411.9122005806851
 22
231.2352176596601
 32
0.0
 13
411.9122005806851
 23
231.2352176596601
 33
0.0
  0
MTEXT
  5
119
330
113
100
AcDbEntity
  8
1
 62
     7
100
AcDbMText
 10
408.9122005806851
 20
412.4102176596589
 30
0.0
 40
10.5
 41
0.0
 71
     7
 72
     1
  1
460(ストレート部)
  7
CONVERTER_11
 11
0.0
 21
1.0
 31
0.0
 73
     1
 44
0.45454545454545
  0
ENDBLK
  5
11B
330
113
100
AcDbEntity
  8
0
100
AcDbBlockEnd
  0
BLOCK
  5
126
330
11E
100
AcDbEntity
  8
0
100
AcDbBlockBegin
  2
*D7
 70
     1
 10
0.0
 20
0.0
 30
0.0
  3
*D7
  1

  0
LINE
  5
11F
330
11E
100
AcDbEntity
  8
1
  6
Continuous
 62
     2
100
AcDbLine
 10
350.4122005806851
 20
201.2352176596632
 30
0.0
 11
381.912200580685
 21
201.2352176596632
 31
0.0
  0
LINE
  5
120
330
11E
100
AcDbEntity
  8
1
  6
Continuous
 62
     2
100
AcDbLine
 10
381.912200580685
 20
201.2352176596632
 30
0.0
 11
422.4874190816099
 21
201.2352176596632
 31
0.0
  0
LINE
  5
121
330
11E
100
AcDbEntity
  8
1
  6
Continuous
 62
     2
100
AcDbLine
 10
381.912200580685
 20
231.2352176596601
 30
0.0
 11
381.912200580685
 21
198.2352176596632
 31
0.0
  0
LINE
  5
122
330
11E
100
AcDbEntity
  8
1
  6
Continuous
 62
     2
100
AcDbLine
 10
350.4122005806851
 20
231.2352176596556
 30
0.0
 11
350.4122005806851
 21
198.2352176596632
 31
0.0
  0
SOLID
  5
123
330
11E
100
AcDbEntity
  8
1
 62
     2
100
AcDbTrace
 10
360.9122005806851
 20
202.6175688843308
 30
0.0
 11
360.9122005806851
 21
199.8528664349955
 31
0.0
 12
350.4122005806851
 22
201.2352176596632
 32
0.0
 13
350.4122005806851
 23
201.2352176596632
 33
0.0
  0
SOLID
  5
124
330
11E
100
AcDbEntity
  8
1
 62
     2
100
AcDbTrace
 10
371.412200580685
 20
199.8528664349955
 30
0.0
 11
371.412200580685
 21
202.6175688843308
 31
0.0
 12
381.912200580685
 22
201.2352176596632
 32
0.0
 13
381.912200580685
 23
201.2352176596632
 33
0.0
  0
MTEXT
  5
125
330
11E
100
AcDbEntity
  8
1
 62
     7
100
AcDbMText
 10
388.1524190816352
 20
205.2851967884342
 30
0.0
 40
10.5
 41
0.0
 71
     7
 72
     1
  1
\C7;{\Fgdt;n}\C7;31,5
  7
CONVERTER_12
 11
0.9999999999970619
 21
2.424068405545306E-6
 31
0.0
 73
     1
 44
0.60024009603842
  0
ENDBLK
  5
127
330
11E
100
AcDbEntity
  8
0
100
AcDbBlockEnd
  0
BLOCK
  5
132
330
12A
100
AcDbEntity
  8
0
100
AcDbBlockBegin
  2
*D8
 70
     1
 10
0.0
 20
0.0
 30
0.0
  3
*D8
  1

  0
LINE
  5
12B
330
12A
100
AcDbEntity
  8
1
  6
Continuous
 62
     2
100
AcDbLine
 10
254.4122005806851
 20
636.235217659608
 30
0.0
 11
254.4122005806851
 21
691.2352176596601
 31
0.0
  0
LINE
  5
12C
330
12A
100
AcDbEntity
  8
1
  6
Continuous
 62
     2
100
AcDbLine
 10
254.4122005806851
 20
691.2352176596601
 30
0.0
 11
254.4122005806851
 21
835.910158126139
 31
0.0
  0
LINE
  5
12D
330
12A
100
AcDbEntity
  8
1
  6
Continuous
 62
     2
100
AcDbLine
 10
284.4122005806851
 20
691.2352176596601
 30
0.0
 11
251.4122005806851
 21
691.2352176596601
 31
0.0
  0
LINE
  5
12E
330
12A
100
AcDbEntity
  8
1
  6
Continuous
 62
     2
100
AcDbLine
 10
284.4122005806851
 20
636.235217659608
 30
0.0
 11
251.4122005806851
 21
636.235217659608
 31
0.0
  0
SOLID
  5
12F
330
12A
100
AcDbEntity
  8
1
 62
     2
100
AcDbTrace
 10
253.0298493560175
 20
646.735217659608
 30
0.0
 11
255.7945518053527
 21
646.735217659608
 31
0.0
 12
254.4122005806851
 22
636.235217659608
 32
0.0
 13
254.4122005806851
 23
636.235217659608
 33
0.0
  0
SOLID
  5
130
330
12A
100
AcDbEntity
  8
1
 62
     2
100
AcDbTrace
 10
255.7945518053527
 20
680.7352176596601
 30
0.0
 11
253.0298493560175
 21
680.7352176596601
 31
0.0
 12
254.4122005806851
 22
691.2352176596601
 32
0.0
 13
254.4122005806851
 23
691.2352176596601
 33
0.0
  0
MTEXT
  5
131
330
12A
100
AcDbEntity
  8
1
 62
     7
100
AcDbMText
 10
251.4122005806851
 20
747.7101581261389
 30
0.0
 40
10.5
 41
0.0
 71
     7
 72
     1
  1
55(ストレート部)
  7
CONVERTER_11
 11
0.0
 21
1.0
 31
0.0
 73
     1
 44
0.45454545454545
  0
ENDBLK
  5
133
330
12A
100
AcDbEntity
  8
0
100
AcDbBlockEnd
  0
ENDSEC
  0
SECTION
  2
ENTITIES
  0
INSERT
  5
50
330
1F
100
AcDbEntity
  8
0
100
AcDbBlockReference
  2
開示A4枠
 10
0.00000000000011
 20
0.0
 30
0.0
  0
POINT
  5
CE
330
1F
100
AcDbEntity
  8
A0
 62
     2
100
AcDbPoint
 10
366.1622005806851
 20
691.2352176596601
 30
0.0
  0
POINT
  5
CF
330
1F
100
AcDbEntity
  8
A0
 62
     7
100
AcDbPoint
 10
333.1622005806851
 20
739.9852176596601
 30
0.0
  0
POINT
  5
D0
330
1F
100
AcDbEntity
  8
A0
 62
     7
100
AcDbPoint
 10
333.1622005806851
 20
739.9852176596601
 30
0.0
  0
POINT
  5
D1
330
1F
100
AcDbEntity
  8
A0
 62
     7
100
AcDbPoint
 10
284.4122005806851
 20
636.235217659608
 30
0.0
  0
POINT
  5
D2
330
1F
100
AcDbEntity
  8
A0
 62
     7
100
AcDbPoint
 10
350.4122005806851
 20
231.2352176596556
 30
0.0
  0
POINT
  5
D3
330
1F
100
AcDbEntity
  8
A0
 62
     7
100
AcDbPoint
 10
381.9122005806851
 20
691.2352176596601
 30
0.0
  0
LINE
  5
D4
330
1F
100
AcDbEntity
  8
A0
  6
DASH_CENTER
 62
     2
100
AcDbLine
 10
300.1622005806851
 20
691.2352176596601
 30
0.0
 11
300.1622005806851
 21
624.235217659608
 31
0.0
  0
LINE
  5
D5
330
1F
100
AcDbEntity
  8
A0
  6
Continuous
 62
     7
100
AcDbLine
 10
350.4122005806851
 20
691.2352176596601
 30
0.0
 11
350.4122005806851
 21
231.2352176596556
 31
0.0
  0
LINE
  5
D6
330
1F
100
AcDbEntity
  8
A0
  6
Continuous
 62
     7
100
AcDbLine
 10
381.9122005806851
 20
691.2352176596601
 30
0.0
 11
381.9122005806851
 21
231.2352176596601
 31
0.0
  0
LINE
  5
D7
330
1F
100
AcDbEntity
  8
A0
  6
DASH_CENTER
 62
     2
100
AcDbLine
 10
366.1622005806851
 20
691.2352176596601
 30
0.0
 11
366.1622005806851
 21
219.2352176596579
 31
0.0
  0
LINE
  5
D8
330
1F
100
AcDbEntity
  8
A0
  6
Continuous
 62
     7
100
AcDbLine
 10
350.4122005806851
 20
231.2352176596556
 30
0.0
 11
381.9122005806851
 21
231.2352176596601
 31
0.0
  0
LINE
  5
D9
330
1F
100
AcDbEntity
  8
A0
  6
Continuous
 62
     7
100
AcDbLine
 10
284.4122005806851
 20
636.235217659608
 30
0.0
 11
315.9122005806851
 21
636.235217659608
 31
0.0
  0
LINE
  5
DA
330
1F
100
AcDbEntity
  8
A0
  6
Continuous
 62
     7
100
AcDbLine
 10
315.9122005806851
 20
691.2352176596601
 30
0.0
 11
315.9122005806851
 21
636.235217659608
 31
0.0
  0
LINE
  5
DB
330
1F
100
AcDbEntity
  8
A0
  6
Continuous
 62
     7
100
AcDbLine
 10
284.4122005806851
 20
691.2352176596601
 30
0.0
 11
284.4122005806851
 21
636.235217659608
 31
0.0
  0
ARC
  5
DC
330
1F
100
AcDbEntity
  8
A0
  6
Continuous
 62
     7
100
AcDbCircle
 10
333.1622005806851
 20
691.2352176596601
 30
0.0
 40
48.75
100
AcDbArc
 50
0.0
 51
90.0
  0
ARC
  5
DD
330
1F
100
AcDbEntity
  8
A0
  6
Continuous
 62
     7
100
AcDbCircle
 10
333.1622005806851
 20
691.2352176596601
 30
0.0
 40
17.25
100
AcDbArc
 50
0.0
 51
180.0
  0
ARC
  5
DE
330
1F
100
AcDbEntity
  8
A0
  6
Continuous
 62
     7
100
AcDbCircle
 10
333.1622005806851
 20
691.2352176596601
 30
0.0
 40
48.75
100
AcDbArc
 50
90.0
 51
180.0
  0
ARC
  5
DF
330
1F
100
AcDbEntity
  8
A0
  6
DASH_CENTER
 62
     2
100
AcDbCircle
 10
333.1622005806851
 20
691.2352176596601
 30
0.0
 40
33.0
100
AcDbArc
 50
0.0
 51
180.0
  0
MTEXT
  5
E1
330
1F
100
AcDbEntity
  8
1
 62
     7
100
AcDbMText
 10
319.5000000000001
 20
37.5
 30
0.0
 40
7.5
 41
0.0
 71
     5
 72
     1
  1
3
  7
CONVERTER_12
 73
     1
 44
0.7202881152461
  0
MTEXT
  5
E2
330
1F
100
AcDbEntity
  8
1
 62
     7
100
AcDbMText
 10
336.75
 20
37.5
 30
0.0
 40
7.5
 41
0.0
 71
     5
 72
     1
  1
17
  7
CONVERTER_12
 73
     1
 44
0.7202881152461
  0
MTEXT
  5
E3
330
1F
100
AcDbEntity
  8
1
 62
     7
100
AcDbMText
 10
302.25
 20
37.5
 30
0.0
 40
7.5
 41
0.0
 71
     5
 72
     1
  1
10
  7
CONVERTER_12
 73
     1
 44
0.7202881152461
  0
MTEXT
  5
E4
330
1F
100
AcDbEntity
  8
1
 62
     7
100
AcDbMText
 10
353.25
 20
37.5
 30
0.0
 40
7.5
 41
0.0
 71
     5
 72
     1
  1
10
  7
CONVERTER_12
 73
     1
 44
0.7202881152461
  0
MTEXT
  5
E5
330
1F
100
AcDbEntity
  8
1
 62
     7
100
AcDbMText
 10
387.75
 20
37.5
 30
0.0
 40
7.5
 41
0.0
 71
     5
 72
     1
  1
17
  7
CONVERTER_12
 73
     1
 44
0.7202881152461
  0
MTEXT
  5
E6
330
1F
100
AcDbEntity
  8
1
 62
     7
100
AcDbMText
 10
370.5000000000001
 20
37.5
 30
0.0
 40
7.5
 41
0.0
 71
     5
 72
     1
  1
3
  7
CONVERTER_12
 73
     1
 44
0.7202881152461
  0
MTEXT
  5
E7
330
1F
100
AcDbEntity
  8
1
 62
     7
100
AcDbMText
 10
281.25
 20
51.00000000000001
 30
0.0
 40
10.5
 41
0.0
 71
     5
 72
     1
  1
3
  7
CONVERTER_12
 73
     1
 44
0.7202881152461
  0
MTEXT
  5
E8
330
1F
100
AcDbEntity
  8
1
 62
     7
100
AcDbMText
 10
255.75
 20
51.00000000000001
 30
0.0
 40
10.5
 41
0.0
 71
     5
 72
     1
  1
1
  7
CONVERTER_12
 73
     1
 44
0.7202881152461
  0
MTEXT
  5
E9
330
1F
100
AcDbEntity
  8
1
 62
     7
100
AcDbMText
 10
421.5000000000001
 20
37.5
 30
0.0
 40
7.5
 41
0.0
 71
     5
 72
     1
  1
3
  7
CONVERTER_12
 73
     1
 44
0.7202881152461
  0
MTEXT
  5
EA
330
1F
100
AcDbEntity
  8
1
 62
     7
100
AcDbMText
 10
438.75
 20
37.5
 30
0.0
 40
7.5
 41
0.0
 71
     5
 72
     1
  1
17
  7
CONVERTER_12
 73
     1
 44
0.7202881152461
  0
MTEXT
  5
EB
330
1F
100
AcDbEntity
  8
1
 62
     7
100
AcDbMText
 10
404.25
 20
37.5
 30
0.0
 40
7.5
 41
0.0
 71
     5
 72
     1
  1
10
  7
CONVERTER_12
 73
     1
 44
0.7202881152461
  0
MTEXT
  5
EC
330
1F
100
AcDbEntity
  8
1
 62
     7
100
AcDbMText
 10
171.0
 20
68.25000000000003
 30
0.0
 40
10.5
 41
0.0
 71
     5
 72
     1
  1
Sパイプ
  7
CONVERTER_11
 73
     1
 44
0.54545454545455
  0
MTEXT
  5
ED
330
1F
100
AcDbEntity
  8
1
 62
     7
100
AcDbMText
 10
171.0
 20
42.75
 30
0.0
 40
10.5
 41
0.0
 71
     5
 72
     1
  1
H770-66-32
  7
CONVERTER_12
 73
     1
 44
0.7202881152461
  0
MTEXT
  5
EE
330
1F
100
AcDbEntity
  8
1
 62
     7
100
AcDbMText
 10
455.2500000000001
 20
37.5
 30
0.0
 40
7.5
 41
0.0
 71
     5
 72
     1
  1
10
  7
CONVERTER_12
 73
     1
 44
0.7202881152461
  0
MTEXT
  5
EF
330
1F
100
AcDbEntity
  8
1
 62
     7
100
AcDbMText
 10
489.7500000000001
 20
37.5
 30
0.0
 40
7.5
 41
0.0
 71
     5
 72
     1
  1
17
  7
CONVERTER_12
 73
     1
 44
0.7202881152461
  0
MTEXT
  5
F0
330
1F
100
AcDbEntity
  8
1
 62
     7
100
AcDbMText
 10
472.5
 20
37.5
 30
0.0
 40
7.5
 41
0.0
 71
     5
 72
     1
  1
3
  7
CONVERTER_12
 73
     1
 44
0.7202881152461
  0
MTEXT
  5
F1
330
1F
100
AcDbEntity
  8
1
 62
     7
100
AcDbMText
 10
102.0000000000002
 20
102.0
 30
0.0
 40
10.5
 41
0.0
 71
     4
 72
     1
  1
内径寸法{\Fgdt;n}28,5
  7
CONVERTER_11
 73
     1
 44
0.54545454545455
  0
DIMENSION
  5
FC
330
1F
100
AcDbEntity
  8
1
100
AcDbDimension
  2
*D3
 10
300.1622005806852
 20
606.235217659608
 30
0.0
 11
325.2872005806851
 21
614.485217659608
 31
0.0
 70
    32
  1
<>
 71
     5
 42
-1.0
 53
0.00013888888889
  3
ME10_DIM_10
100
AcDbAlignedDimension
 13
366.1622005806851
 23
691.2352176596601
 33
0.0
 14
300.1622005806851
 24
624.235217659608
 34
0.0
100
AcDbRotatedDimension
  0
DIMENSION
  5
107
330
1F
100
AcDbEntity
  8
1
100
AcDbDimension
  2
*D4
 10
230.4122005806851
 20
739.9852176596601
 30
0.0
 11
222.1622005806851
 21
688.110217659634
 31
0.0
 70
    32
  1
104
 71
     5
 42
-1.0
 53
90.0
  3
ME10_DIM_11
100
AcDbAlignedDimension
 13
284.4122005806851
 23
636.235217659608
 33
0.0
 14
333.1622005806851
 24
739.9852176596601
 34
0.0
 50
90.0
100
AcDbRotatedDimension
  0
DIMENSION
  5
112
330
1F
100
AcDbEntity
  8
1
100
AcDbDimension
  2
*D5
 10
435.9122005806851
 20
739.98521765966
 30
0.0
 11
427.6622005806851
 21
485.6102176596589
 31
0.0
 70
    32
  1
509
 71
     5
 42
-1.0
 53
90.0
  3
ME10_DIM_12
100
AcDbAlignedDimension
 13
381.9122005806851
 23
231.2352176596601
 33
0.0
 14
333.1622005806851
 24
739.9852176596601
 34
0.0
 50
90.0
100
AcDbRotatedDimension
  0
DIMENSION
  5
11D
330
1F
100
AcDbEntity
  8
1
100
AcDbDimension
  2
*D6
 10
411.9122005806851
 20
691.23521765966
 30
0.0
 11
403.6622005806851
 21
461.2352176596589
 31
0.0
 70
    32
  1
460(ストレート部)
 71
     5
 42
-1.0
 53
90.0
  3
ME10_DIM_13
100
AcDbAlignedDimension
 13
381.9122005806851
 23
231.2352176596601
 33
0.0
 14
381.9122005806851
 24
691.2352176596601
 34
0.0
 50
90.0
100
AcDbRotatedDimension
  0
DIMENSION
  5
129
330
1F
100
AcDbEntity
  8
1
100
AcDbDimension
  2
*D7
 10
350.4122005806851
 20
201.2352176596632
 30
0.0
 11
403.3249190816099
 21
210.0102176596632
 31
0.0
 70
    32
  1
<>
 71
     5
 42
-1.0
 53
0.00013888888889
  3
ME10_DIM_14
100
AcDbAlignedDimension
 13
381.9122005806851
 23
231.2352176596601
 33
0.0
 14
350.4122005806851
 24
231.2352176596556
 34
0.0
100
AcDbRotatedDimension
  0
DIMENSION
  5
135
330
1F
100
AcDbEntity
  8
1
100
AcDbDimension
  2
*D8
 10
254.4122005806851
 20
636.235217659608
 30
0.0
 11
246.1622005806851
 21
791.810158126139
 31
0.0
 70
    32
  1
55(ストレート部)
 71
     5
 42
-1.0
 53
90.0
  3
ME10_DIM_15
100
AcDbAlignedDimension
 13
284.4122005806851
 23
691.2352176596601
 33
0.0
 14
284.4122005806851
 24
636.235217659608
 34
0.0
 50
90.0
100
AcDbRotatedDimension
  0
ENDSEC
  0
SECTION
  2
OBJECTS
  0
DICTIONARY
  5
C
330
0
100
AcDbDictionary
281
     1
  3
ACAD_GROUP
350
D
  3
ACAD_LAYOUT
350
1A
  3
ACAD_MATERIAL
350
3B
  3
ACAD_MLEADERSTYLE
350
138
  3
ACAD_MLINESTYLE
350
17
  3
ACAD_PLOTSETTINGS
350
19
  3
ACAD_PLOTSTYLENAME
350
E
  3
ACAD_VISUALSTYLE
350
2A
  3
AcDbVariableDictionary
350
136
  0
DICTIONARY
  5
D
102
{ACAD_REACTORS
330
C
102
}
330
C
100
AcDbDictionary
281
     1
  0
DICTIONARY
  5
1A
102
{ACAD_REACTORS
330
C
102
}
330
C
100
AcDbDictionary
281
     1
  3
Layout1
350
1E
  3
Layout2
350
26
  3
Model
350
22
  0
DICTIONARY
  5
3B
102
{ACAD_REACTORS
330
C
102
}
330
C
100
AcDbDictionary
281
     1
  3
ByBlock
350
3D
  3
ByLayer
350
3C
  3
Global
350
3E
  0
DICTIONARY
  5
138
102
{ACAD_REACTORS
330
C
102
}
330
C
100
AcDbDictionary
281
     1
  0
DICTIONARY
  5
17
102
{ACAD_REACTORS
330
C
102
}
330
C
100
AcDbDictionary
281
     1
  3
Standard
350
18
  0
DICTIONARY
  5
19
102
{ACAD_REACTORS
330
C
102
}
330
C
100
AcDbDictionary
281
     1
  0
ACDBDICTIONARYWDFLT
  5
E
102
{ACAD_REACTORS
330
C
102
}
330
C
100
AcDbDictionary
281
     1
  3
Normal
350
F
100
AcDbDictionaryWithDefault
340
F
  0
DICTIONARY
  5
2A
102
{ACAD_REACTORS
330
C
102
}
330
C
100
AcDbDictionary
281
     1
  3
2dWireframe
350
2F
  3
3D Hidden
350
31
  3
3dWireframe
350
30
  3
Basic
350
32
  3
Brighten
350
36
  3
ColorChange
350
3A
  3
Conceptual
350
34
  3
Dim
350
35
  3
Facepattern
350
39
  3
Flat
350
2B
  3
FlatWithEdges
350
2C
  3
Gouraud
350
2D
  3
GouraudWithEdges
350
2E
  3
Linepattern
350
38
  3
Realistic
350
33
  3
Thicken
350
37
  0
DICTIONARY
  5
136
102
{ACAD_REACTORS
330
C
102
}
330
C
100
AcDbDictionary
281
     1
  3
DIMASSOC
350
139
  3
HIDETEXT
350
13A
  0
LAYOUT
  5
1E
102
{ACAD_REACTORS
330
1A
102
}
330
1A
100
AcDbPlotSettings
  1

  2
none_device
  4

  6

 40
0.0
 41
0.0
 42
0.0
 43
0.0
 44
0.0
 45
0.0
 46
0.0
 47
0.0
 48
0.0
 49
0.0
140
0.0
141
0.0
142
1.0
143
1.0
 70
   688
 72
     0
 73
     0
 74
     5
  7

 75
    16
147
1.0
148
0.0
149
0.0
100
AcDbLayout
  1
Layout1
 70
     1
 71
     1
 10
0.0
 20
0.0
 11
12.0
 21
9.0
 12
0.0
 22
0.0
 32
0.0
 14
1.00000000000000E+20
 24
1.00000000000000E+20
 34
1.00000000000000E+20
 15
-1.00000000000000E+20
 25
-1.00000000000000E+20
 35
-1.00000000000000E+20
146
0.0
 13
0.0
 23
0.0
 33
0.0
 16
1.0
 26
0.0
 36
0.0
 17
0.0
 27
1.0
 37
0.0
 76
     0
330
1B
  0
LAYOUT
  5
26
102
{ACAD_REACTORS
330
1A
102
}
330
1A
100
AcDbPlotSettings
  1

  2
none_device
  4

  6

 40
0.0
 41
0.0
 42
0.0
 43
0.0
 44
0.0
 45
0.0
 46
0.0
 47
0.0
 48
0.0
 49
0.0
140
0.0
141
0.0
142
1.0
143
1.0
 70
   688
 72
     0
 73
     0
 74
     5
  7

 75
    16
147
1.0
148
0.0
149
0.0
100
AcDbLayout
  1
Layout2
 70
     1
 71
     2
 10
0.0
 20
0.0
 11
0.0
 21
0.0
 12
0.0
 22
0.0
 32
0.0
 14
0.0
 24
0.0
 34
0.0
 15
0.0
 25
0.0
 35
0.0
146
0.0
 13
0.0
 23
0.0
 33
0.0
 16
1.0
 26
0.0
 36
0.0
 17
0.0
 27
1.0
 37
0.0
 76
     0
330
23
  0
LAYOUT
  5
22
102
{ACAD_REACTORS
330
1A
102
}
330
1A
100
AcDbPlotSettings
  1

  2
none_device
  4

  6

 40
0.0
 41
0.0
 42
0.0
 43
0.0
 44
0.0
 45
0.0
 46
0.0
 47
0.0
 48
0.0
 49
0.0
140
0.0
141
0.0
142
1.0
143
1.0
 70
  1712
 72
     0
 73
     0
 74
     0
  7

 75
     0
147
1.0
148
0.0
149
0.0
100
AcDbLayout
  1
Model
 70
     1
 71
     0
 10
0.0
 20
0.0
 11
12.0
 21
9.0
 12
0.0
 22
0.0
 32
0.0
 14
0.00000000000017
 24
0.0
 34
0.0
 15
630.0000000000003
 25
891.0
 35
0.0
146
0.0
 13
0.0
 23
0.0
 33
0.0
 16
1.0
 26
0.0
 36
0.0
 17
0.0
 27
1.0
 37
0.0
 76
     0
330
1F
331
29
  0
MATERIAL
  5
3D
102
{ACAD_REACTORS
330
3B
102
}
102
{ACAD_XDICTIONARY
360
15D
102
}
330
3B
100
AcDbMaterial
  1
ByBlock
  0
MATERIAL
  5
3C
102
{ACAD_REACTORS
330
3B
102
}
102
{ACAD_XDICTIONARY
360
15B
102
}
330
3B
100
AcDbMaterial
  1
ByLayer
  0
MATERIAL
  5
3E
102
{ACAD_REACTORS
330
3B
102
}
102
{ACAD_XDICTIONARY
360
15F
102
}
330
3B
100
AcDbMaterial
  1
Global
  0
MLINESTYLE
  5
18
102
{ACAD_REACTORS
330
17
102
}
330
17
100
AcDbMlineStyle
  2
Standard
 70
     0
  3

 62
   256
 51
90.0
 52
90.0
 71
     2
 49
0.5
 62
   256
  6
BYLAYER
 49
-0.5
 62
   256
  6
BYLAYER
  0
ACDBPLACEHOLDER
  5
F
102
{ACAD_REACTORS
330
E
102
}
330
E
  0
VISUALSTYLE
  5
2F
102
{ACAD_REACTORS
330
2A
102
}
102
{ACAD_XDICTIONARY
360
143
102
}
330
2A
100
AcDbVisualStyle
  2
2dWireframe
 70
     4
 71
     0
 72
     2
 73
     0
 90
        0
 40
-0.6
 41
-30.0
 62
     5
 63
     7
 74
     1
 91
        4
 64
     7
 65
   257
 75
     1
175
     1
 42
1.0
 92
        0
 66
   257
 43
1.0
 76
     1
 77
     6
 78
     2
 67
     7
 79
     5
170
     0
171
     0
290
     0
174
     0
 93
        1
 44
0.0
173
     0
291
     0
 45
0.0
1001
ACAD
1000
AcDbSavedByObjectVersion
1070
     0
  0
VISUALSTYLE
  5
31
102
{ACAD_REACTORS
330
2A
102
}
102
{ACAD_XDICTIONARY
360
147
102
}
330
2A
100
AcDbVisualStyle
  2
3D Hidden
 70
     6
 71
     1
 72
     2
 73
     2
 90
        0
 40
-0.6
 41
-30.0
 62
     5
 63
     7
 74
     2
 91
        2
 64
     7
 65
   257
 75
     2
175
     1
 42
40.0
 92
        0
 66
   257
 43
1.0
 76
     1
 77
     6
 78
     2
 67
     7
 79
     3
170
     0
171
     0
290
     0
174
     0
 93
        1
 44
0.0
173
     0
291
     0
 45
0.0
1001
ACAD
1000
AcDbSavedByObjectVersion
1070
     0
  0
VISUALSTYLE
  5
30
102
{ACAD_REACTORS
330
2A
102
}
102
{ACAD_XDICTIONARY
360
145
102
}
330
2A
100
AcDbVisualStyle
  2
3dWireframe
 70
     5
 71
     0
 72
     2
 73
     0
 90
        0
 40
-0.6
 41
-30.0
 62
     5
 63
     7
 74
     1
 91
        4
 64
     7
 65
   257
 75
     1
175
     1
 42
1.0
 92
        0
 66
   257
 43
1.0
 76
     1
 77
     6
 78
     2
 67
     7
 79
     5
170
     0
171
     0
290
     0
174
     0
 93
        1
 44
0.0
173
     0
291
     0
 45
0.0
1001
ACAD
1000
AcDbSavedByObjectVersion
1070
     0
  0
VISUALSTYLE
  5
32
102
{ACAD_REACTORS
330
2A
102
}
102
{ACAD_XDICTIONARY
360
149
102
}
330
2A
100
AcDbVisualStyle
  2
Basic
 70
     7
 71
     1
 72
     0
 73
     1
 90
        0
 40
-0.6
 41
-30.0
 62
     5
 63
     7
 74
     0
 91
        4
 64
     7
 65
   257
 75
     1
175
     1
 42
1.0
 92
        8
 66
     7
 43
1.0
 76
     1
 77
     6
 78
     2
 67
     7
 79
     5
170
     0
171
     0
290
     0
174
     0
 93
        1
 44
0.0
173
     0
291
     1
 45
0.0
1001
ACAD
1000
AcDbSavedByObjectVersion
1070
     0
  0
VISUALSTYLE
  5
36
102
{ACAD_REACTORS
330
2A
102
}
102
{ACAD_XDICTIONARY
360
151
102
}
330
2A
100
AcDbVisualStyle
  2
Brighten
 70
    12
 71
     2
 72
     2
 73
     0
 90
        0
 40
-0.6
 41
-30.0
 62
     5
 63
     7
 74
     1
 91
        4
 64
     7
 65
   257
 75
     1
175
     1
 42
1.0
 92
        8
 66
     7
 43
1.0
 76
     1
 77
     6
 78
     2
 67
     7
 79
     5
170
     0
171
     0
290
     0
174
     0
 93
        1
 44
50.0
173
     0
291
     1
 45
0.0
1001
ACAD
1000
AcDbSavedByObjectVersion
1070
     0
  0
VISUALSTYLE
  5
3A
102
{ACAD_REACTORS
330
2A
102
}
102
{ACAD_XDICTIONARY
360
159
102
}
330
2A
100
AcDbVisualStyle
  2
ColorChange
 70
    16
 71
     2
 72
     2
 73
     3
 90
        0
 40
-0.6
 41
-30.0
 62
     5
 63
     8
 74
     1
 91
        4
 64
     7
 65
   257
 75
     1
175
     1
 42
1.0
 92
        8
 66
     8
 43
1.0
 76
     1
 77
     6
 78
     2
 67
     7
 79
     5
170
     0
171
     0
290
     0
174
     0
 93
        1
 44
0.0
173
     0
291
     1
 45
0.0
1001
ACAD
1000
AcDbSavedByObjectVersion
1070
     0
  0
VISUALSTYLE
  5
34
102
{ACAD_REACTORS
330
2A
102
}
102
{ACAD_XDICTIONARY
360
14D
102
}
330
2A
100
AcDbVisualStyle
  2
Conceptual
 70
     9
 71
     3
 72
     2
 73
     0
 90
        0
 40
-0.6
 41
-30.0
 62
     5
 63
     7
 74
     2
 91
        2
 64
     7
 65
   257
 75
     1
175
     1
 42
40.0
 92
        8
 66
     7
 43
1.0
 76
     1
 77
     6
 78
     2
 67
     7
 79
     3
170
     0
171
     0
290
     0
174
     0
 93
        1
 44
0.0
173
     0
291
     0
 45
0.0
1001
ACAD
1000
AcDbSavedByObjectVersion
1070
     0
  0
VISUALSTYLE
  5
35
102
{ACAD_REACTORS
330
2A
102
}
102
{ACAD_XDICTIONARY
360
14F
102
}
330
2A
100
AcDbVisualStyle
  2
Dim
 70
    11
 71
     2
 72
     2
 73
     0
 90
        0
 40
-0.6
 41
-30.0
 62
     5
 63
     7
 74
     1
 91
        4
 64
     7
 65
   257
 75
     1
175
     1
 42
1.0
 92
        8
 66
     7
 43
1.0
 76
     1
 77
     6
 78
     2
 67
     7
 79
     5
170
     0
171
     0
290
     0
174
     0
 93
        1
 44
-50.0
173
     0
291
     1
 45
0.0
1001
ACAD
1000
AcDbSavedByObjectVersion
1070
     0
  0
VISUALSTYLE
  5
39
102
{ACAD_REACTORS
330
2A
102
}
102
{ACAD_XDICTIONARY
360
157
102
}
330
2A
100
AcDbVisualStyle
  2
Facepattern
 70
    15
 71
     2
 72
     2
 73
     0
 90
        0
 40
-0.6
 41
-30.0
 62
     5
 63
     7
 74
     1
 91
        4
 64
     7
 65
   257
 75
     1
175
     1
 42
1.0
 92
        8
 66
     7
 43
1.0
 76
     1
 77
     6
 78
     2
 67
     7
 79
     5
170
     0
171
     0
290
     0
174
     0
 93
        1
 44
0.0
173
     0
291
     1
 45
0.0
1001
ACAD
1000
AcDbSavedByObjectVersion
1070
     0
  0
VISUALSTYLE
  5
2B
102
{ACAD_REACTORS
330
2A
102
}
102
{ACAD_XDICTIONARY
360
13B
102
}
330
2A
100
AcDbVisualStyle
  2
Flat
 70
     0
 71
     2
 72
     1
 73
     1
 90
        2
 40
-0.6
 41
30.0
 62
     5
 63
     7
 74
     0
 91
        4
 64
     7
 65
   257
 75
     1
175
     1
 42
1.0
 92
        8
 66
     7
 43
1.0
 76
     1
 77
     6
 78
     2
 67
     7
 79
     5
170
     0
171
     0
290
     0
174
     0
 93
       13
 44
0.0
173
     0
291
     1
 45
0.0
1001
ACAD
1000
AcDbSavedByObjectVersion
1070
     0
  0
VISUALSTYLE
  5
2C
102
{ACAD_REACTORS
330
2A
102
}
102
{ACAD_XDICTIONARY
360
13D
102
}
330
2A
100
AcDbVisualStyle
  2
FlatWithEdges
 70
     1
 71
     2
 72
     1
 73
     1
 90
        2
 40
-0.6
 41
30.0
 62
     5
 63
     7
 74
     1
 91
        4
 64
     7
 65
   257
 75
     1
175
     1
 42
1.0
 92
        0
 66
   257
 43
1.0
 76
     1
 77
     6
 78
     2
 67
     7
 79
     5
170
     0
171
     0
290
     0
174
     0
 93
       13
 44
0.0
173
     0
291
     1
 45
0.0
1001
ACAD
1000
AcDbSavedByObjectVersion
1070
     0
  0
VISUALSTYLE
  5
2D
102
{ACAD_REACTORS
330
2A
102
}
102
{ACAD_XDICTIONARY
360
13F
102
}
330
2A
100
AcDbVisualStyle
  2
Gouraud
 70
     2
 71
     2
 72
     2
 73
     1
 90
        2
 40
-0.6
 41
30.0
 62
     5
 63
     7
 74
     0
 91
        4
 64
     7
 65
   257
 75
     1
175
     1
 42
1.0
 92
        0
 66
     7
 43
1.0
 76
     1
 77
     6
 78
     2
 67
     7
 79
     5
170
     0
171
     0
290
     0
174
     0
 93
       13
 44
0.0
173
     0
291
     1
 45
0.0
1001
ACAD
1000
AcDbSavedByObjectVersion
1070
     0
  0
VISUALSTYLE
  5
2E
102
{ACAD_REACTORS
330
2A
102
}
102
{ACAD_XDICTIONARY
360
141
102
}
330
2A
100
AcDbVisualStyle
  2
GouraudWithEdges
 70
     3
 71
     2
 72
     2
 73
     1
 90
        2
 40
-0.6
 41
30.0
 62
     5
 63
     7
 74
     1
 91
        4
 64
     7
 65
   257
 75
     1
175
     1
 42
1.0
 92
        0
 66
   257
 43
1.0
 76
     1
 77
     6
 78
     2
 67
     7
 79
     5
170
     0
171
     0
290
     0
174
     0
 93
       13
 44
0.0
173
     0
291
     1
 45
0.0
1001
ACAD
1000
AcDbSavedByObjectVersion
1070
     0
  0
VISUALSTYLE
  5
38
102
{ACAD_REACTORS
330
2A
102
}
102
{ACAD_XDICTIONARY
360
155
102
}
330
2A
100
AcDbVisualStyle
  2
Linepattern
 70
    14
 71
     2
 72
     2
 73
     0
 90
        0
 40
-0.6
 41
-30.0
 62
     5
 63
     7
 74
     1
 91
        4
 64
     7
 65
   257
 75
     7
175
     7
 42
1.0
 92
        8
 66
     7
 43
1.0
 76
     1
 77
     6
 78
     2
 67
     7
 79
     5
170
     0
171
     0
290
     0
174
     0
 93
        1
 44
0.0
173
     0
291
     1
 45
0.0
1001
ACAD
1000
AcDbSavedByObjectVersion
1070
     0
  0
VISUALSTYLE
  5
33
102
{ACAD_REACTORS
330
2A
102
}
102
{ACAD_XDICTIONARY
360
14B
102
}
330
2A
100
AcDbVisualStyle
  2
Realistic
 70
     8
 71
     2
 72
     2
 73
     0
 90
        0
 40
-0.6
 41
-30.0
 62
     5
 63
     7
 74
     1
 91
        0
 64
     7
 65
   257
 75
     1
175
     1
 42
1.0
 92
        8
 66
     8
 43
1.0
 76
     1
 77
     6
 78
     2
 67
     7
 79
     5
170
     0
171
     0
290
     0
174
     0
 93
       13
 44
0.0
173
     0
291
     0
 45
0.0
1001
ACAD
1000
AcDbSavedByObjectVersion
1070
     0
  0
VISUALSTYLE
  5
37
102
{ACAD_REACTORS
330
2A
102
}
102
{ACAD_XDICTIONARY
360
153
102
}
330
2A
100
AcDbVisualStyle
  2
Thicken
 70
    13
 71
     2
 72
     2
 73
     0
 90
        0
 40
-0.6
 41
-30.0
 62
     5
 63
     7
 74
     1
 91
        4
 64
     7
 65
   257
 75
     1
175
     1
 42
1.0
 92
       12
 66
     7
 43
1.0
 76
     1
 77
     6
 78
     2
 67
     7
 79
     5
170
     0
171
     0
290
     0
174
     0
 93
        1
 44
0.0
173
     0
291
     1
 45
0.0
1001
ACAD
1000
AcDbSavedByObjectVersion
1070
     0
  0
DICTIONARYVAR
  5
139
102
{ACAD_REACTORS
330
136
102
}
330
136
100
DictionaryVariables
280
     0
  1
2
  0
DICTIONARYVAR
  5
13A
102
{ACAD_REACTORS
330
136
102
}
330
136
100
DictionaryVariables
280
     0
  1
1
  0
DICTIONARY
  5
15D
330
3D
100
AcDbDictionary
280
     1
281
     1
  3
ACAD_XREC_ROUNDTRIP
360
15E
  0
DICTIONARY
  5
15B
330
3C
100
AcDbDictionary
280
     1
281
     1
  3
ACAD_XREC_ROUNDTRIP
360
15C
  0
DICTIONARY
  5
15F
330
3E
100
AcDbDictionary
280
     1
281
     1
  3
ACAD_XREC_ROUNDTRIP
360
160
  0
DICTIONARY
  5
143
330
2F
100
AcDbDictionary
280
     1
281
     1
  3
ACAD_XREC_ROUNDTRIP
360
144
  0
DICTIONARY
  5
147
330
31
100
AcDbDictionary
280
     1
281
     1
  3
ACAD_XREC_ROUNDTRIP
360
148
  0
DICTIONARY
  5
145
330
30
100
AcDbDictionary
280
     1
281
     1
  3
ACAD_XREC_ROUNDTRIP
360
146
  0
DICTIONARY
  5
149
330
32
100
AcDbDictionary
280
     1
281
     1
  3
ACAD_XREC_ROUNDTRIP
360
14A
  0
DICTIONARY
  5
151
330
36
100
AcDbDictionary
280
     1
281
     1
  3
ACAD_XREC_ROUNDTRIP
360
152
  0
DICTIONARY
  5
159
330
3A
100
AcDbDictionary
280
     1
281
     1
  3
ACAD_XREC_ROUNDTRIP
360
15A
  0
DICTIONARY
  5
14D
330
34
100
AcDbDictionary
280
     1
281
     1
  3
ACAD_XREC_ROUNDTRIP
360
14E
  0
DICTIONARY
  5
14F
330
35
100
AcDbDictionary
280
     1
281
     1
  3
ACAD_XREC_ROUNDTRIP
360
150
  0
DICTIONARY
  5
157
330
39
100
AcDbDictionary
280
     1
281
     1
  3
ACAD_XREC_ROUNDTRIP
360
158
  0
DICTIONARY
  5
13B
330
2B
100
AcDbDictionary
280
     1
281
     1
  3
ACAD_XREC_ROUNDTRIP
360
13C
  0
DICTIONARY
  5
13D
330
2C
100
AcDbDictionary
280
     1
281
     1
  3
ACAD_XREC_ROUNDTRIP
360
13E
  0
DICTIONARY
  5
13F
330
2D
100
AcDbDictionary
280
     1
281
     1
  3
ACAD_XREC_ROUNDTRIP
360
140
  0
DICTIONARY
  5
141
330
2E
100
AcDbDictionary
280
     1
281
     1
  3
ACAD_XREC_ROUNDTRIP
360
142
  0
DICTIONARY
  5
155
330
38
100
AcDbDictionary
280
     1
281
     1
  3
ACAD_XREC_ROUNDTRIP
360
156
  0
DICTIONARY
  5
14B
330
33
100
AcDbDictionary
280
     1
281
     1
  3
ACAD_XREC_ROUNDTRIP
360
14C
  0
DICTIONARY
  5
153
330
37
100
AcDbDictionary
280
     1
281
     1
  3
ACAD_XREC_ROUNDTRIP
360
154
  0
XRECORD
  5
15E
102
{ACAD_REACTORS
330
15D
102
}
330
15D
100
AcDbXrecord
280
     1
102
MATERIAL
148
0.0
149
0.0
149
0.0
 93
        0
 94
      127
282
     0
 72
     1
 77
     1
171
     1
175
     1
179
     1
273
     0
  0
XRECORD
  5
15C
102
{ACAD_REACTORS
330
15B
102
}
330
15B
100
AcDbXrecord
280
     1
102
MATERIAL
148
0.0
149
0.0
149
0.0
 93
        0
 94
      127
282
     0
 72
     1
 77
     1
171
     1
175
     1
179
     1
273
     0
  0
XRECORD
  5
160
102
{ACAD_REACTORS
330
15F
102
}
330
15F
100
AcDbXrecord
280
     1
102
MATERIAL
148
0.0
149
0.0
149
0.0
 93
        0
 94
      127
282
     0
 72
     1
 77
     1
171
     1
175
     1
179
     1
273
     0
  0
XRECORD
  5
144
102
{ACAD_REACTORS
330
143
102
}
330
143
100
AcDbXrecord
280
     1
102
RTVSPropertyOp0
 70
     1
102
RTVSPropertyOp1
 70
     1
102
RTVSPropertyOp2
 70
     1
102
RTVSPropertyOp3
 70
     1
102
RTVSPropertyOp4
 70
     1
102
RTVSPropertyOp5
 70
     1
102
RTVSPropertyOp6
 70
     1
102
RTVSPropertyOp7
 70
     1
102
RTVSPropertyOp8
 70
     1
102
RTVSPropertyOp9
 70
     1
102
RTVSPropertyOp10
 70
     1
102
RTVSPropertyOp11
 70
     1
102
RTVSPropertyOp12
 70
     1
102
RTVSPropertyOp13
 70
     1
102
RTVSPropertyOp14
 70
     1
102
RTVSPropertyOp15
 70
     1
102
RTVSPropertyOp16
 70
     1
102
RTVSPropertyOp17
 70
     1
102
RTVSPropertyOp18
 70
     1
102
RTVSPropertyOp19
 70
     1
102
RTVSPropertyOp20
 70
     1
102
RTVSPropertyOp21
 70
     1
102
RTVSPropertyOp22
 70
     1
102
RTVSPropertyOp23
 70
     1
102
RTVSPropertyOp24
 70
     1
102
RTVSPropertyOp25
 70
     1
102
RTVSPropertyOp26
 70
     1
102
RTVSPropertyOp27
 70
     1
102
RTVSPropertyOp28
 70
     1
102
RTVSPropertyOp29
 70
     1
102
RTVSPropertyOp30
 70
     1
102
RTVSPropertyOp31
 70
     1
102
RTVSPropertyOp32
 70
     1
  0
XRECORD
  5
148
102
{ACAD_REACTORS
330
147
102
}
330
147
100
AcDbXrecord
280
     1
102
RTVSPropertyOp0
 70
     1
102
RTVSPropertyOp1
 70
     1
102
RTVSPropertyOp2
 70
     1
102
RTVSPropertyOp3
 70
     1
102
RTVSPropertyOp4
 70
     1
102
RTVSPropertyOp5
 70
     1
102
RTVSPropertyOp6
 70
     1
102
RTVSPropertyOp7
 70
     1
102
RTVSPropertyOp8
 70
     1
102
RTVSPropertyOp9
 70
     1
102
RTVSPropertyOp10
 70
     1
102
RTVSPropertyOp11
 70
     1
102
RTVSPropertyOp12
 70
     1
102
RTVSPropertyOp13
 70
     1
102
RTVSPropertyOp14
 70
     1
102
RTVSPropertyOp15
 70
     1
102
RTVSPropertyOp16
 70
     1
102
RTVSPropertyOp17
 70
     1
102
RTVSPropertyOp18
 70
     1
102
RTVSPropertyOp19
 70
     1
102
RTVSPropertyOp20
 70
     1
102
RTVSPropertyOp21
 70
     1
102
RTVSPropertyOp22
 70
     1
102
RTVSPropertyOp23
 70
     1
102
RTVSPropertyOp24
 70
     1
102
RTVSPropertyOp25
 70
     1
102
RTVSPropertyOp26
 70
     1
102
RTVSPropertyOp27
 70
     1
102
RTVSPropertyOp28
 70
     1
102
RTVSPropertyOp29
 70
     1
102
RTVSPropertyOp30
 70
     1
102
RTVSPropertyOp31
 70
     1
102
RTVSPropertyOp32
 70
     1
  0
XRECORD
  5
146
102
{ACAD_REACTORS
330
145
102
}
330
145
100
AcDbXrecord
280
     1
102
RTVSPropertyOp0
 70
     1
102
RTVSPropertyOp1
 70
     1
102
RTVSPropertyOp2
 70
     1
102
RTVSPropertyOp3
 70
     1
102
RTVSPropertyOp4
 70
     1
102
RTVSPropertyOp5
 70
     1
102
RTVSPropertyOp6
 70
     1
102
RTVSPropertyOp7
 70
     1
102
RTVSPropertyOp8
 70
     1
102
RTVSPropertyOp9
 70
     1
102
RTVSPropertyOp10
 70
     1
102
RTVSPropertyOp11
 70
     1
102
RTVSPropertyOp12
 70
     1
102
RTVSPropertyOp13
 70
     1
102
RTVSPropertyOp14
 70
     1
102
RTVSPropertyOp15
 70
     1
102
RTVSPropertyOp16
 70
     1
102
RTVSPropertyOp17
 70
     1
102
RTVSPropertyOp18
 70
     1
102
RTVSPropertyOp19
 70
     1
102
RTVSPropertyOp20
 70
     1
102
RTVSPropertyOp21
 70
     1
102
RTVSPropertyOp22
 70
     1
102
RTVSPropertyOp23
 70
     1
102
RTVSPropertyOp24
 70
     1
102
RTVSPropertyOp25
 70
     1
102
RTVSPropertyOp26
 70
     1
102
RTVSPropertyOp27
 70
     1
102
RTVSPropertyOp28
 70
     1
102
RTVSPropertyOp29
 70
     1
102
RTVSPropertyOp30
 70
     1
102
RTVSPropertyOp31
 70
     1
102
RTVSPropertyOp32
 70
     1
  0
XRECORD
  5
14A
102
{ACAD_REACTORS
330
149
102
}
330
149
100
AcDbXrecord
280
     1
102
RTVSPropertyOp0
 70
     1
102
RTVSPropertyOp1
 70
     1
102
RTVSPropertyOp2
 70
     1
102
RTVSPropertyOp3
 70
     1
102
RTVSPropertyOp4
 70
     1
102
RTVSPropertyOp5
 70
     1
102
RTVSPropertyOp6
 70
     1
102
RTVSPropertyOp7
 70
     1
102
RTVSPropertyOp8
 70
     1
102
RTVSPropertyOp9
 70
     1
102
RTVSPropertyOp10
 70
     1
102
RTVSPropertyOp11
 70
     1
102
RTVSPropertyOp12
 70
     1
102
RTVSPropertyOp13
 70
     1
102
RTVSPropertyOp14
 70
     1
102
RTVSPropertyOp15
 70
     1
102
RTVSPropertyOp16
 70
     1
102
RTVSPropertyOp17
 70
     1
102
RTVSPropertyOp18
 70
     1
102
RTVSPropertyOp19
 70
     1
102
RTVSPropertyOp20
 70
     1
102
RTVSPropertyOp21
 70
     1
102
RTVSPropertyOp22
 70
     1
102
RTVSPropertyOp23
 70
     1
102
RTVSPropertyOp24
 70
     1
102
RTVSPropertyOp25
 70
     1
102
RTVSPropertyOp26
 70
     1
102
RTVSPropertyOp27
 70
     1
102
RTVSPropertyOp28
 70
     1
102
RTVSPropertyOp29
 70
     1
102
RTVSPropertyOp30
 70
     1
102
RTVSPropertyOp31
 70
     1
102
RTVSPropertyOp32
 70
     1
  0
XRECORD
  5
152
102
{ACAD_REACTORS
330
151
102
}
330
151
100
AcDbXrecord
280
     1
102
RTVSPropertyOp0
 70
     1
102
RTVSPropertyOp1
 70
     1
102
RTVSPropertyOp2
 70
     1
102
RTVSPropertyOp3
 70
     1
102
RTVSPropertyOp4
 70
     1
102
RTVSPropertyOp5
 70
     1
102
RTVSPropertyOp6
 70
     1
102
RTVSPropertyOp7
 70
     1
102
RTVSPropertyOp8
 70
     1
102
RTVSPropertyOp9
 70
     1
102
RTVSPropertyOp10
 70
     1
102
RTVSPropertyOp11
 70
     1
102
RTVSPropertyOp12
 70
     1
102
RTVSPropertyOp13
 70
     1
102
RTVSPropertyOp14
 70
     1
102
RTVSPropertyOp15
 70
     1
102
RTVSPropertyOp16
 70
     1
102
RTVSPropertyOp17
 70
     1
102
RTVSPropertyOp18
 70
     1
102
RTVSPropertyOp19
 70
     1
102
RTVSPropertyOp20
 70
     1
102
RTVSPropertyOp21
 70
     1
102
RTVSPropertyOp22
 70
     1
102
RTVSPropertyOp23
 70
     1
102
RTVSPropertyOp24
 70
     1
102
RTVSPropertyOp25
 70
     1
102
RTVSPropertyOp26
 70
     1
102
RTVSPropertyOp27
 70
     1
102
RTVSPropertyOp28
 70
     1
102
RTVSPropertyOp29
 70
     1
102
RTVSPropertyOp30
 70
     1
102
RTVSPropertyOp31
 70
     1
102
RTVSPropertyOp32
 70
     1
  0
XRECORD
  5
15A
102
{ACAD_REACTORS
330
159
102
}
330
159
100
AcDbXrecord
280
     1
102
RTVSPropertyOp0
 70
     1
102
RTVSPropertyOp1
 70
     1
102
RTVSPropertyOp2
 70
     1
102
RTVSPropertyOp3
 70
     1
102
RTVSPropertyOp4
 70
     1
102
RTVSPropertyOp5
 70
     1
102
RTVSPropertyOp6
 70
     1
102
RTVSPropertyOp7
 70
     1
102
RTVSPropertyOp8
 70
     1
102
RTVSPropertyOp9
 70
     1
102
RTVSPropertyOp10
 70
     1
102
RTVSPropertyOp11
 70
     1
102
RTVSPropertyOp12
 70
     1
102
RTVSPropertyOp13
 70
     1
102
RTVSPropertyOp14
 70
     1
102
RTVSPropertyOp15
 70
     1
102
RTVSPropertyOp16
 70
     1
102
RTVSPropertyOp17
 70
     1
102
RTVSPropertyOp18
 70
     1
102
RTVSPropertyOp19
 70
     1
102
RTVSPropertyOp20
 70
     1
102
RTVSPropertyOp21
 70
     1
102
RTVSPropertyOp22
 70
     1
102
RTVSPropertyOp23
 70
     1
102
RTVSPropertyOp24
 70
     1
102
RTVSPropertyOp25
 70
     1
102
RTVSPropertyOp26
 70
     1
102
RTVSPropertyOp27
 70
     1
102
RTVSPropertyOp28
 70
     1
102
RTVSPropertyOp29
 70
     1
102
RTVSPropertyOp30
 70
     1
102
RTVSPropertyOp31
 70
     1
102
RTVSPropertyOp32
 70
     1
  0
XRECORD
  5
14E
102
{ACAD_REACTORS
330
14D
102
}
330
14D
100
AcDbXrecord
280
     1
102
RTVSPropertyOp0
 70
     1
102
RTVSPropertyOp1
 70
     1
102
RTVSPropertyOp2
 70
     1
102
RTVSPropertyOp3
 70
     1
102
RTVSPropertyOp4
 70
     1
102
RTVSPropertyOp5
 70
     1
102
RTVSPropertyOp6
 70
     1
102
RTVSPropertyOp7
 70
     1
102
RTVSPropertyOp8
 70
     1
102
RTVSPropertyOp9
 70
     1
102
RTVSPropertyOp10
 70
     1
102
RTVSPropertyOp11
 70
     1
102
RTVSPropertyOp12
 70
     1
102
RTVSPropertyOp13
 70
     1
102
RTVSPropertyOp14
 70
     1
102
RTVSPropertyOp15
 70
     1
102
RTVSPropertyOp16
 70
     1
102
RTVSPropertyOp17
 70
     1
102
RTVSPropertyOp18
 70
     1
102
RTVSPropertyOp19
 70
     1
102
RTVSPropertyOp20
 70
     1
102
RTVSPropertyOp21
 70
     1
102
RTVSPropertyOp22
 70
     1
102
RTVSPropertyOp23
 70
     1
102
RTVSPropertyOp24
 70
     1
102
RTVSPropertyOp25
 70
     1
102
RTVSPropertyOp26
 70
     1
102
RTVSPropertyOp27
 70
     1
102
RTVSPropertyOp28
 70
     1
102
RTVSPropertyOp29
 70
     1
102
RTVSPropertyOp30
 70
     1
102
RTVSPropertyOp31
 70
     1
102
RTVSPropertyOp32
 70
     1
  0
XRECORD
  5
150
102
{ACAD_REACTORS
330
14F
102
}
330
14F
100
AcDbXrecord
280
     1
102
RTVSPropertyOp0
 70
     1
102
RTVSPropertyOp1
 70
     1
102
RTVSPropertyOp2
 70
     1
102
RTVSPropertyOp3
 70
     1
102
RTVSPropertyOp4
 70
     1
102
RTVSPropertyOp5
 70
     1
102
RTVSPropertyOp6
 70
     1
102
RTVSPropertyOp7
 70
     1
102
RTVSPropertyOp8
 70
     1
102
RTVSPropertyOp9
 70
     1
102
RTVSPropertyOp10
 70
     1
102
RTVSPropertyOp11
 70
     1
102
RTVSPropertyOp12
 70
     1
102
RTVSPropertyOp13
 70
     1
102
RTVSPropertyOp14
 70
     1
102
RTVSPropertyOp15
 70
     1
102
RTVSPropertyOp16
 70
     1
102
RTVSPropertyOp17
 70
     1
102
RTVSPropertyOp18
 70
     1
102
RTVSPropertyOp19
 70
     1
102
RTVSPropertyOp20
 70
     1
102
RTVSPropertyOp21
 70
     1
102
RTVSPropertyOp22
 70
     1
102
RTVSPropertyOp23
 70
     1
102
RTVSPropertyOp24
 70
     1
102
RTVSPropertyOp25
 70
     1
102
RTVSPropertyOp26
 70
     1
102
RTVSPropertyOp27
 70
     1
102
RTVSPropertyOp28
 70
     1
102
RTVSPropertyOp29
 70
     1
102
RTVSPropertyOp30
 70
     1
102
RTVSPropertyOp31
 70
     1
102
RTVSPropertyOp32
 70
     1
  0
XRECORD
  5
158
102
{ACAD_REACTORS
330
157
102
}
330
157
100
AcDbXrecord
280
     1
102
RTVSPropertyOp0
 70
     1
102
RTVSPropertyOp1
 70
     1
102
RTVSPropertyOp2
 70
     1
102
RTVSPropertyOp3
 70
     1
102
RTVSPropertyOp4
 70
     1
102
RTVSPropertyOp5
 70
     1
102
RTVSPropertyOp6
 70
     1
102
RTVSPropertyOp7
 70
     1
102
RTVSPropertyOp8
 70
     1
102
RTVSPropertyOp9
 70
     1
102
RTVSPropertyOp10
 70
     1
102
RTVSPropertyOp11
 70
     1
102
RTVSPropertyOp12
 70
     1
102
RTVSPropertyOp13
 70
     1
102
RTVSPropertyOp14
 70
     1
102
RTVSPropertyOp15
 70
     1
102
RTVSPropertyOp16
 70
     1
102
RTVSPropertyOp17
 70
     1
102
RTVSPropertyOp18
 70
     1
102
RTVSPropertyOp19
 70
     1
102
RTVSPropertyOp20
 70
     1
102
RTVSPropertyOp21
 70
     1
102
RTVSPropertyOp22
 70
     1
102
RTVSPropertyOp23
 70
     1
102
RTVSPropertyOp24
 70
     1
102
RTVSPropertyOp25
 70
     1
102
RTVSPropertyOp26
 70
     1
102
RTVSPropertyOp27
 70
     1
102
RTVSPropertyOp28
 70
     1
102
RTVSPropertyOp29
 70
     1
102
RTVSPropertyOp30
 70
     1
102
RTVSPropertyOp31
 70
     1
102
RTVSPropertyOp32
 70
     1
  0
XRECORD
  5
13C
102
{ACAD_REACTORS
330
13B
102
}
330
13B
100
AcDbXrecord
280
     1
102
RTVSPropertyOp0
 70
     1
102
RTVSPropertyOp1
 70
     1
102
RTVSPropertyOp2
 70
     1
102
RTVSPropertyOp3
 70
     1
102
RTVSPropertyOp4
 70
     1
102
RTVSPropertyOp5
 70
     1
102
RTVSPropertyOp6
 70
     1
102
RTVSPropertyOp7
 70
     1
102
RTVSPropertyOp8
 70
     1
102
RTVSPropertyOp9
 70
     1
102
RTVSPropertyOp10
 70
     1
102
RTVSPropertyOp11
 70
     1
102
RTVSPropertyOp12
 70
     1
102
RTVSPropertyOp13
 70
     1
102
RTVSPropertyOp14
 70
     1
102
RTVSPropertyOp15
 70
     1
102
RTVSPropertyOp16
 70
     1
102
RTVSPropertyOp17
 70
     1
102
RTVSPropertyOp18
 70
     1
102
RTVSPropertyOp19
 70
     1
102
RTVSPropertyOp20
 70
     1
102
RTVSPropertyOp21
 70
     1
102
RTVSPropertyOp22
 70
     1
102
RTVSPropertyOp23
 70
     1
102
RTVSPropertyOp24
 70
     1
102
RTVSPropertyOp25
 70
     1
102
RTVSPropertyOp26
 70
     1
102
RTVSPropertyOp27
 70
     1
102
RTVSPropertyOp28
 70
     1
102
RTVSPropertyOp29
 70
     1
102
RTVSPropertyOp30
 70
     1
102
RTVSPropertyOp31
 70
     1
102
RTVSPropertyOp32
 70
     1
  0
XRECORD
  5
13E
102
{ACAD_REACTORS
330
13D
102
}
330
13D
100
AcDbXrecord
280
     1
102
RTVSPropertyOp0
 70
     1
102
RTVSPropertyOp1
 70
     1
102
RTVSPropertyOp2
 70
     1
102
RTVSPropertyOp3
 70
     1
102
RTVSPropertyOp4
 70
     1
102
RTVSPropertyOp5
 70
     1
102
RTVSPropertyOp6
 70
     1
102
RTVSPropertyOp7
 70
     1
102
RTVSPropertyOp8
 70
     1
102
RTVSPropertyOp9
 70
     1
102
RTVSPropertyOp10
 70
     1
102
RTVSPropertyOp11
 70
     1
102
RTVSPropertyOp12
 70
     1
102
RTVSPropertyOp13
 70
     1
102
RTVSPropertyOp14
 70
     1
102
RTVSPropertyOp15
 70
     1
102
RTVSPropertyOp16
 70
     1
102
RTVSPropertyOp17
 70
     1
102
RTVSPropertyOp18
 70
     1
102
RTVSPropertyOp19
 70
     1
102
RTVSPropertyOp20
 70
     1
102
RTVSPropertyOp21
 70
     1
102
RTVSPropertyOp22
 70
     1
102
RTVSPropertyOp23
 70
     1
102
RTVSPropertyOp24
 70
     1
102
RTVSPropertyOp25
 70
     1
102
RTVSPropertyOp26
 70
     1
102
RTVSPropertyOp27
 70
     1
102
RTVSPropertyOp28
 70
     1
102
RTVSPropertyOp29
 70
     1
102
RTVSPropertyOp30
 70
     1
102
RTVSPropertyOp31
 70
     1
102
RTVSPropertyOp32
 70
     1
  0
XRECORD
  5
140
102
{ACAD_REACTORS
330
13F
102
}
330
13F
100
AcDbXrecord
280
     1
102
RTVSPropertyOp0
 70
     1
102
RTVSPropertyOp1
 70
     1
102
RTVSPropertyOp2
 70
     1
102
RTVSPropertyOp3
 70
     1
102
RTVSPropertyOp4
 70
     1
102
RTVSPropertyOp5
 70
     1
102
RTVSPropertyOp6
 70
     1
102
RTVSPropertyOp7
 70
     1
102
RTVSPropertyOp8
 70
     1
102
RTVSPropertyOp9
 70
     1
102
RTVSPropertyOp10
 70
     1
102
RTVSPropertyOp11
 70
     1
102
RTVSPropertyOp12
 70
     1
102
RTVSPropertyOp13
 70
     1
102
RTVSPropertyOp14
 70
     1
102
RTVSPropertyOp15
 70
     1
102
RTVSPropertyOp16
 70
     1
102
RTVSPropertyOp17
 70
     1
102
RTVSPropertyOp18
 70
     1
102
RTVSPropertyOp19
 70
     1
102
RTVSPropertyOp20
 70
     1
102
RTVSPropertyOp21
 70
     1
102
RTVSPropertyOp22
 70
     1
102
RTVSPropertyOp23
 70
     1
102
RTVSPropertyOp24
 70
     1
102
RTVSPropertyOp25
 70
     1
102
RTVSPropertyOp26
 70
     1
102
RTVSPropertyOp27
 70
     1
102
RTVSPropertyOp28
 70
     1
102
RTVSPropertyOp29
 70
     1
102
RTVSPropertyOp30
 70
     1
102
RTVSPropertyOp31
 70
     1
102
RTVSPropertyOp32
 70
     1
  0
XRECORD
  5
142
102
{ACAD_REACTORS
330
141
102
}
330
141
100
AcDbXrecord
280
     1
102
RTVSPropertyOp0
 70
     1
102
RTVSPropertyOp1
 70
     1
102
RTVSPropertyOp2
 70
     1
102
RTVSPropertyOp3
 70
     1
102
RTVSPropertyOp4
 70
     1
102
RTVSPropertyOp5
 70
     1
102
RTVSPropertyOp6
 70
     1
102
RTVSPropertyOp7
 70
     1
102
RTVSPropertyOp8
 70
     1
102
RTVSPropertyOp9
 70
     1
102
RTVSPropertyOp10
 70
     1
102
RTVSPropertyOp11
 70
     1
102
RTVSPropertyOp12
 70
     1
102
RTVSPropertyOp13
 70
     1
102
RTVSPropertyOp14
 70
     1
102
RTVSPropertyOp15
 70
     1
102
RTVSPropertyOp16
 70
     1
102
RTVSPropertyOp17
 70
     1
102
RTVSPropertyOp18
 70
     1
102
RTVSPropertyOp19
 70
     1
102
RTVSPropertyOp20
 70
     1
102
RTVSPropertyOp21
 70
     1
102
RTVSPropertyOp22
 70
     1
102
RTVSPropertyOp23
 70
     1
102
RTVSPropertyOp24
 70
     1
102
RTVSPropertyOp25
 70
     1
102
RTVSPropertyOp26
 70
     1
102
RTVSPropertyOp27
 70
     1
102
RTVSPropertyOp28
 70
     1
102
RTVSPropertyOp29
 70
     1
102
RTVSPropertyOp30
 70
     1
102
RTVSPropertyOp31
 70
     1
102
RTVSPropertyOp32
 70
     1
  0
XRECORD
  5
156
102
{ACAD_REACTORS
330
155
102
}
330
155
100
AcDbXrecord
280
     1
102
RTVSPropertyOp0
 70
     1
102
RTVSPropertyOp1
 70
     1
102
RTVSPropertyOp2
 70
     1
102
RTVSPropertyOp3
 70
     1
102
RTVSPropertyOp4
 70
     1
102
RTVSPropertyOp5
 70
     1
102
RTVSPropertyOp6
 70
     1
102
RTVSPropertyOp7
 70
     1
102
RTVSPropertyOp8
 70
     1
102
RTVSPropertyOp9
 70
     1
102
RTVSPropertyOp10
 70
     1
102
RTVSPropertyOp11
 70
     1
102
RTVSPropertyOp12
 70
     1
102
RTVSPropertyOp13
 70
     1
102
RTVSPropertyOp14
 70
     1
102
RTVSPropertyOp15
 70
     1
102
RTVSPropertyOp16
 70
     1
102
RTVSPropertyOp17
 70
     1
102
RTVSPropertyOp18
 70
     1
102
RTVSPropertyOp19
 70
     1
102
RTVSPropertyOp20
 70
     1
102
RTVSPropertyOp21
 70
     1
102
RTVSPropertyOp22
 70
     1
102
RTVSPropertyOp23
 70
     1
102
RTVSPropertyOp24
 70
     1
102
RTVSPropertyOp25
 70
     1
102
RTVSPropertyOp26
 70
     1
102
RTVSPropertyOp27
 70
     1
102
RTVSPropertyOp28
 70
     1
102
RTVSPropertyOp29
 70
     1
102
RTVSPropertyOp30
 70
     1
102
RTVSPropertyOp31
 70
     1
102
RTVSPropertyOp32
 70
     1
  0
XRECORD
  5
14C
102
{ACAD_REACTORS
330
14B
102
}
330
14B
100
AcDbXrecord
280
     1
102
RTVSPropertyOp0
 70
     1
102
RTVSPropertyOp1
 70
     1
102
RTVSPropertyOp2
 70
     1
102
RTVSPropertyOp3
 70
     1
102
RTVSPropertyOp4
 70
     1
102
RTVSPropertyOp5
 70
     1
102
RTVSPropertyOp6
 70
     1
102
RTVSPropertyOp7
 70
     1
102
RTVSPropertyOp8
 70
     1
102
RTVSPropertyOp9
 70
     1
102
RTVSPropertyOp10
 70
     1
102
RTVSPropertyOp11
 70
     1
102
RTVSPropertyOp12
 70
     1
102
RTVSPropertyOp13
 70
     1
102
RTVSPropertyOp14
 70
     1
102
RTVSPropertyOp15
 70
     1
102
RTVSPropertyOp16
 70
     1
102
RTVSPropertyOp17
 70
     1
102
RTVSPropertyOp18
 70
     1
102
RTVSPropertyOp19
 70
     1
102
RTVSPropertyOp20
 70
     1
102
RTVSPropertyOp21
 70
     1
102
RTVSPropertyOp22
 70
     1
102
RTVSPropertyOp23
 70
     1
102
RTVSPropertyOp24
 70
     1
102
RTVSPropertyOp25
 70
     1
102
RTVSPropertyOp26
 70
     1
102
RTVSPropertyOp27
 70
     1
102
RTVSPropertyOp28
 70
     1
102
RTVSPropertyOp29
 70
     1
102
RTVSPropertyOp30
 70
     1
102
RTVSPropertyOp31
 70
     1
102
RTVSPropertyOp32
 70
     1
  0
XRECORD
  5
154
102
{ACAD_REACTORS
330
153
102
}
330
153
100
AcDbXrecord
280
     1
102
RTVSPropertyOp0
 70
     1
102
RTVSPropertyOp1
 70
     1
102
RTVSPropertyOp2
 70
     1
102
RTVSPropertyOp3
 70
     1
102
RTVSPropertyOp4
 70
     1
102
RTVSPropertyOp5
 70
     1
102
RTVSPropertyOp6
 70
     1
102
RTVSPropertyOp7
 70
     1
102
RTVSPropertyOp8
 70
     1
102
RTVSPropertyOp9
 70
     1
102
RTVSPropertyOp10
 70
     1
102
RTVSPropertyOp11
 70
     1
102
RTVSPropertyOp12
 70
     1
102
RTVSPropertyOp13
 70
     1
102
RTVSPropertyOp14
 70
     1
102
RTVSPropertyOp15
 70
     1
102
RTVSPropertyOp16
 70
     1
102
RTVSPropertyOp17
 70
     1
102
RTVSPropertyOp18
 70
     1
102
RTVSPropertyOp19
 70
     1
102
RTVSPropertyOp20
 70
     1
102
RTVSPropertyOp21
 70
     1
102
RTVSPropertyOp22
 70
     1
102
RTVSPropertyOp23
 70
     1
102
RTVSPropertyOp24
 70
     1
102
RTVSPropertyOp25
 70
     1
102
RTVSPropertyOp26
 70
     1
102
RTVSPropertyOp27
 70
     1
102
RTVSPropertyOp28
 70
     1
102
RTVSPropertyOp29
 70
     1
102
RTVSPropertyOp30
 70
     1
102
RTVSPropertyOp31
 70
     1
102
RTVSPropertyOp32
 70
     1
  0
ENDSEC
  0
EOF
