  0
SECTION
  2
HEADER
  9
$ACADVER
  1
AC1015
  9
$ACADMAINTVER
 70
     6
  9
$DWGCODEPAGE
  3
ANSI_932
  9
$INSBASE
 10
0.0
 20
0.0
 30
0.0
  9
$EXTMIN
 10
0.0
 20
0.0
 30
0.0
  9
$EXTMAX
 10
210.0
 20
297.0
 30
0.0
  9
$LIMMIN
 10
0.0
 20
0.0
  9
$LIMMAX
 10
12.0
 20
9.0
  9
$ORTHOMODE
 70
     0
  9
$REGENMODE
 70
     1
  9
$FILLMODE
 70
     1
  9
$QTEXTMODE
 70
     0
  9
$MIRRTEXT
 70
     1
  9
$LTSCALE
 40
1.0
  9
$ATTMODE
 70
     1
  9
$TEXTSIZE
 40
0.2
  9
$TRACEWID
 40
0.05
  9
$TEXTSTYLE
  7
Standard
  9
$CLAYER
  8
0
  9
$CELTYPE
  6
ByLayer
  9
$CECOLOR
 62
   256
  9
$CELTSCALE
 40
1.0
  9
$DISPSILH
 70
     0
  9
$DIMSCALE
 40
1.0
  9
$DIMASZ
 40
0.18
  9
$DIMEXO
 40
0.0625
  9
$DIMDLI
 40
0.38
  9
$DIMRND
 40
0.0
  9
$DIMDLE
 40
0.0
  9
$DIMEXE
 40
0.18
  9
$DIMTP
 40
0.0
  9
$DIMTM
 40
0.0
  9
$DIMTXT
 40
0.18
  9
$DIMCEN
 40
0.09
  9
$DIMTSZ
 40
0.0
  9
$DIMTOL
 70
     0
  9
$DIMLIM
 70
     0
  9
$DIMTIH
 70
     1
  9
$DIMTOH
 70
     1
  9
$DIMSE1
 70
     0
  9
$DIMSE2
 70
     0
  9
$DIMTAD
 70
     0
  9
$DIMZIN
 70
     0
  9
$DIMBLK
  1

  9
$DIMASO
 70
     1
  9
$DIMSHO
 70
     1
  9
$DIMPOST
  1

  9
$DIMAPOST
  1

  9
$DIMALT
 70
     0
  9
$DIMALTD
 70
     2
  9
$DIMALTF
 40
25.4
  9
$DIMLFAC
 40
1.0
  9
$DIMTOFL
 70
     0
  9
$DIMTVP
 40
0.0
  9
$DIMTIX
 70
     0
  9
$DIMSOXD
 70
     0
  9
$DIMSAH
 70
     0
  9
$DIMBLK1
  1

  9
$DIMBLK2
  1

  9
$DIMSTYLE
  2
Standard
  9
$DIMCLRD
 70
     0
  9
$DIMCLRE
 70
     0
  9
$DIMCLRT
 70
     0
  9
$DIMTFAC
 40
1.0
  9
$DIMGAP
 40
0.09
  9
$DIMJUST
 70
     0
  9
$DIMSD1
 70
     0
  9
$DIMSD2
 70
     0
  9
$DIMTOLJ
 70
     1
  9
$DIMTZIN
 70
     0
  9
$DIMALTZ
 70
     0
  9
$DIMALTTZ
 70
     0
  9
$DIMUPT
 70
     0
  9
$DIMDEC
 70
     4
  9
$DIMTDEC
 70
     4
  9
$DIMALTU
 70
     2
  9
$DIMALTTD
 70
     2
  9
$DIMTXSTY
  7
Standard
  9
$DIMAUNIT
 70
     0
  9
$DIMADEC
 70
     0
  9
$DIMALTRND
 40
0.0
  9
$DIMAZIN
 70
     0
  9
$DIMDSEP
 70
    46
  9
$DIMATFIT
 70
     3
  9
$DIMFRAC
 70
     0
  9
$DIMLDRBLK
  1

  9
$DIMLUNIT
 70
     2
  9
$DIMLWD
 70
    -2
  9
$DIMLWE
 70
    -2
  9
$DIMTMOVE
 70
     0
  9
$LUNITS
 70
     2
  9
$LUPREC
 70
     4
  9
$SKETCHINC
 40
0.1
  9
$FILLETRAD
 40
0.5
  9
$AUNITS
 70
     0
  9
$AUPREC
 70
     0
  9
$MENU
  1
.
  9
$ELEVATION
 40
0.0
  9
$PELEVATION
 40
0.0
  9
$THICKNESS
 40
0.0
  9
$LIMCHECK
 70
     0
  9
$CHAMFERA
 40
0.5
  9
$CHAMFERB
 40
0.5
  9
$CHAMFERC
 40
1.0
  9
$CHAMFERD
 40
0.0
  9
$SKPOLY
 70
     0
  9
$TDCREATE
 40
2459773.617301991
  9
$TDUCREATE
 40
2459773.242301991
  9
$TDUPDATE
 40
2459773.617303438
  9
$TDUUPDATE
 40
2459773.242303438
  9
$TDINDWG
 40
0.0000000116
  9
$TDUSRTIMER
 40
0.0000000116
  9
$USRTIMER
 70
     1
  9
$ANGBASE
 50
0.0
  9
$ANGDIR
 70
     0
  9
$PDMODE
 70
     0
  9
$PDSIZE
 40
0.0
  9
$PLINEWID
 40
0.0
  9
$SPLFRAME
 70
     0
  9
$SPLINETYPE
 70
     6
  9
$SPLINESEGS
 70
     8
  9
$HANDSEED
  5
155
  9
$SURFTAB1
 70
     6
  9
$SURFTAB2
 70
     6
  9
$SURFTYPE
 70
     6
  9
$SURFU
 70
     6
  9
$SURFV
 70
     6
  9
$UCSBASE
  2

  9
$UCSNAME
  2

  9
$UCSORG
 10
0.0
 20
0.0
 30
0.0
  9
$UCSXDIR
 10
1.0
 20
0.0
 30
0.0
  9
$UCSYDIR
 10
0.0
 20
1.0
 30
0.0
  9
$UCSORTHOREF
  2

  9
$UCSORTHOVIEW
 70
     0
  9
$UCSORGTOP
 10
0.0
 20
0.0
 30
0.0
  9
$UCSORGBOTTOM
 10
0.0
 20
0.0
 30
0.0
  9
$UCSORGLEFT
 10
0.0
 20
0.0
 30
0.0
  9
$UCSORGRIGHT
 10
0.0
 20
0.0
 30
0.0
  9
$UCSORGFRONT
 10
0.0
 20
0.0
 30
0.0
  9
$UCSORGBACK
 10
0.0
 20
0.0
 30
0.0
  9
$PUCSBASE
  2

  9
$PUCSNAME
  2

  9
$PUCSORG
 10
0.0
 20
0.0
 30
0.0
  9
$PUCSXDIR
 10
1.0
 20
0.0
 30
0.0
  9
$PUCSYDIR
 10
0.0
 20
1.0
 30
0.0
  9
$PUCSORTHOREF
  2

  9
$PUCSORTHOVIEW
 70
     0
  9
$PUCSORGTOP
 10
0.0
 20
0.0
 30
0.0
  9
$PUCSORGBOTTOM
 10
0.0
 20
0.0
 30
0.0
  9
$PUCSORGLEFT
 10
0.0
 20
0.0
 30
0.0
  9
$PUCSORGRIGHT
 10
0.0
 20
0.0
 30
0.0
  9
$PUCSORGFRONT
 10
0.0
 20
0.0
 30
0.0
  9
$PUCSORGBACK
 10
0.0
 20
0.0
 30
0.0
  9
$USERI1
 70
     0
  9
$USERI2
 70
     0
  9
$USERI3
 70
     0
  9
$USERI4
 70
     0
  9
$USERI5
 70
     0
  9
$USERR1
 40
18.1
  9
$USERR2
 40
0.0
  9
$USERR3
 40
0.0
  9
$USERR4
 40
0.0
  9
$USERR5
 40
0.0
  9
$WORLDVIEW
 70
     1
  9
$SHADEDGE
 70
     3
  9
$SHADEDIF
 70
    70
  9
$TILEMODE
 70
     1
  9
$MAXACTVP
 70
    64
  9
$PINSBASE
 10
0.0
 20
0.0
 30
0.0
  9
$PLIMCHECK
 70
     0
  9
$PEXTMIN
 10
1.00000000000000E+20
 20
1.00000000000000E+20
 30
1.00000000000000E+20
  9
$PEXTMAX
 10
-1.00000000000000E+20
 20
-1.00000000000000E+20
 30
-1.00000000000000E+20
  9
$PLIMMIN
 10
0.0
 20
0.0
  9
$PLIMMAX
 10
12.0
 20
9.0
  9
$UNITMODE
 70
     0
  9
$VISRETAIN
 70
     1
  9
$PLINEGEN
 70
     0
  9
$PSLTSCALE
 70
     1
  9
$TREEDEPTH
 70
  3020
  9
$CMLSTYLE
  2
Standard
  9
$CMLJUST
 70
     0
  9
$CMLSCALE
 40
1.0
  9
$PROXYGRAPHICS
 70
     1
  9
$MEASUREMENT
 70
     1
  9
$CELWEIGHT
370
    -1
  9
$ENDCAPS
280
     0
  9
$JOINSTYLE
280
     0
  9
$LWDISPLAY
290
     0
  9
$INSUNITS
 70
     4
  9
$HYPERLINKBASE
  1

  9
$STYLESHEET
  1

  9
$XEDIT
290
     1
  9
$CEPSNTYPE
380
     0
  9
$PSTYLEMODE
290
     1
  9
$FINGERPRINTGUID
  2
{59E7CF5E-369F-4AD4-AE33-C49C3C1C860B}
  9
$VERSIONGUID
  2
{FAEB1C32-E019-11D5-929B-00C0DF256EC4}
  9
$EXTNAMES
290
     1
  9
$PSVPSCALE
 40
0.0
  9
$OLESTARTUP
290
     0
  0
ENDSEC
  0
SECTION
  2
CLASSES
  0
CLASS
  1
ACDBDICTIONARYWDFLT
  2
AcDbDictionaryWithDefault
  3
ObjectDBX Classes
 90
        0
280
     0
281
     0
  0
CLASS
  1
VISUALSTYLE
  2
AcDbVisualStyle
  3
ObjectDBX Classes
 90
     4095
280
     0
281
     0
  0
CLASS
  1
MATERIAL
  2
AcDbMaterial
  3
ObjectDBX Classes
 90
     1153
280
     0
281
     0
  0
CLASS
  1
DICTIONARYVAR
  2
AcDbDictionaryVar
  3
ObjectDBX Classes
 90
        0
280
     0
281
     0
  0
CLASS
  1
ACDBPLACEHOLDER
  2
AcDbPlaceHolder
  3
ObjectDBX Classes
 90
        0
280
     0
281
     0
  0
CLASS
  1
LAYOUT
  2
AcDbLayout
  3
ObjectDBX Classes
 90
        0
280
     0
281
     0
  0
ENDSEC
  0
SECTION
  2
TABLES
  0
TABLE
  2
VPORT
  5
8
330
0
100
AcDbSymbolTable
 70
     1
  0
VPORT
  5
29
330
8
100
AcDbSymbolTableRecord
100
AcDbViewportTableRecord
  2
*Active
 70
     0
 10
0.0
 20
0.0
 11
1.0
 21
1.0
 12
105.0
 22
148.5
 13
0.0
 23
0.0
 14
0.5
 24
0.5
 15
0.5
 25
0.5
 16
0.0
 26
0.0
 36
1.0
 17
0.0
 27
0.0
 37
0.0
 40
326.7
 41
1.60267857142857
 42
50.0
 43
0.0
 44
0.0
 50
0.0
 51
0.0
 71
     0
 72
   100
 73
     1
 74
     3
 75
     0
 76
     0
 77
     0
 78
     0
281
     0
 65
     1
110
0.0
120
0.0
130
0.0
111
1.0
121
0.0
131
0.0
112
0.0
122
1.0
132
0.0
 79
     0
146
0.0
  0
ENDTAB
  0
TABLE
  2
LTYPE
  5
5
330
0
100
AcDbSymbolTable
 70
     8
  0
LTYPE
  5
14
330
5
100
AcDbSymbolTableRecord
100
AcDbLinetypeTableRecord
  2
ByBlock
 70
     0
  3

 72
    65
 73
     0
 40
0.0
  0
LTYPE
  5
15
330
5
100
AcDbSymbolTableRecord
100
AcDbLinetypeTableRecord
  2
ByLayer
 70
     0
  3

 72
    65
 73
     0
 40
0.0
  0
LTYPE
  5
16
330
5
100
AcDbSymbolTableRecord
100
AcDbLinetypeTableRecord
  2
Continuous
 70
     0
  3
Solid line
 72
    65
 73
     0
 40
0.0
  0
LTYPE
  5
3F
330
5
100
AcDbSymbolTableRecord
100
AcDbLinetypeTableRecord
  2
DASHED
 70
     0
  3
Dashed
 72
    65
 73
     2
 40
15.0
 49
7.0
 74
     0
 49
-8.0
 74
     0
  0
LTYPE
  5
40
330
5
100
AcDbSymbolTableRecord
100
AcDbLinetypeTableRecord
  2
DOTTED
 70
     0
  3
Dotted
 72
    65
 73
     2
 40
1.0
 49
0.0
 74
     0
 49
-1.0
 74
     0
  0
LTYPE
  5
41
330
5
100
AcDbSymbolTableRecord
100
AcDbLinetypeTableRecord
  2
DOT_CENTER
 70
     0
  3
Dot_Center
 72
    65
 73
     4
 40
14.0
 49
12.0
 74
     0
 49
-1.0
 74
     0
 49
0.0
 74
     0
 49
-1.0
 74
     0
  0
LTYPE
  5
42
330
5
100
AcDbSymbolTableRecord
100
AcDbLinetypeTableRecord
  2
LONG_DASHED
 70
     0
  3
Long_Dashed
 72
    65
 73
     2
 40
15.0
 49
10.0
 74
     0
 49
-5.0
 74
     0
  0
LTYPE
  5
43
330
5
100
AcDbSymbolTableRecord
100
AcDbLinetypeTableRecord
  2
DASH_CENTER
 70
     0
  3
Dash_Center
 72
    65
 73
     4
 40
14.0
 49
11.0
 74
     0
 49
-1.0
 74
     0
 49
1.0
 74
     0
 49
-1.0
 74
     0
  0
LTYPE
  5
44
330
5
100
AcDbSymbolTableRecord
100
AcDbLinetypeTableRecord
  2
PHANTOM
 70
     0
  3
Phantom
 72
    65
 73
     6
 40
13.0
 49
10.0
 74
     0
 49
-1.0
 74
     0
 49
0.0
 74
     0
 49
-1.0
 74
     0
 49
0.0
 74
     0
 49
-1.0
 74
     0
  0
LTYPE
  5
45
330
5
100
AcDbSymbolTableRecord
100
AcDbLinetypeTableRecord
  2
CENTER_DASH_DASH
 70
     0
  3
Center_Dash_Dash
 72
    65
 73
     6
 40
14.0
 49
9.0
 74
     0
 49
-1.0
 74
     0
 49
1.0
 74
     0
 49
-1.0
 74
     0
 49
1.0
 74
     0
 49
-1.0
 74
     0
  0
ENDTAB
  0
TABLE
  2
LAYER
  5
2
330
0
100
AcDbSymbolTable
 70
     3
  0
LAYER
  5
10
330
2
100
AcDbSymbolTableRecord
100
AcDbLayerTableRecord
  2
0
 70
     0
 62
     7
  6
Continuous
370
    -3
390
F
  0
LAYER
  5
46
330
2
100
AcDbSymbolTableRecord
100
AcDbLayerTableRecord
  2
1
 70
     0
 62
     7
  6
Continuous
370
    -3
390
F
  0
LAYER
  5
47
330
2
100
AcDbSymbolTableRecord
100
AcDbLayerTableRecord
  2
_U_30EC_U_30A4_U_30E4_U_30FC_1
 70
     0
 62
     7
  6
Continuous
370
    -3
390
F
  0
ENDTAB
  0
TABLE
  2
STYLE
  5
3
330
0
100
AcDbSymbolTable
 70
     3
  0
STYLE
  5
11
330
3
100
AcDbSymbolTableRecord
100
AcDbTextStyleTableRecord
  2
Standard
 70
     0
 40
0.0
 41
1.0
 50
0.0
 71
     0
 42
0.2
  3
txt
  4

  0
STYLE
  5
BE
330
3
100
AcDbSymbolTableRecord
100
AcDbTextStyleTableRecord
  2
CONVERTER_11
 70
     0
 40
0.0
 41
0.89
 50
0.0
 71
     0
 42
0.2
  3
MS Mincho.ttf
  4

1001
ACAD
1000
MS Mincho
1071
    32785
  0
STYLE
  5
106
330
3
100
AcDbSymbolTableRecord
100
AcDbTextStyleTableRecord
  2
CONVERTER_12
 70
     0
 40
0.0
 41
0.9
 50
0.0
 71
     0
 42
0.2
  3
txt.shx
  4

  0
ENDTAB
  0
TABLE
  2
VIEW
  5
6
330
0
100
AcDbSymbolTable
 70
     0
  0
ENDTAB
  0
TABLE
  2
UCS
  5
7
330
0
100
AcDbSymbolTable
 70
     0
  0
ENDTAB
  0
TABLE
  2
APPID
  5
9
330
0
100
AcDbSymbolTable
 70
     1
  0
APPID
  5
12
330
9
100
AcDbSymbolTableRecord
100
AcDbRegAppTableRecord
  2
ACAD
 70
     0
  0
ENDTAB
  0
TABLE
  2
DIMSTYLE
  5
A
330
0
100
AcDbSymbolTable
 70
     3
100
AcDbDimStyleTable
  0
DIMSTYLE
105
27
330
A
100
AcDbSymbolTableRecord
100
AcDbDimStyleTableRecord
  2
Standard
 70
     0
178
     0
340
11
  0
DIMSTYLE
105
11D
102
{ACAD_REACTORS
330
11E
102
}
330
A
100
AcDbSymbolTableRecord
100
AcDbDimStyleTableRecord
  2
ME10_DIM_10
 70
     0
 41
3.5
 42
0.0
 44
1.0
 73
     0
 74
     0
 77
     1
 78
     8
140
3.5
147
1.0
172
     1
173
     1
174
     1
175
     1
176
     2
177
     2
271
     2
178
     7
271
     2
340
106
  0
DIMSTYLE
105
128
102
{ACAD_REACTORS
330
129
102
}
330
A
100
AcDbSymbolTableRecord
100
AcDbDimStyleTableRecord
  2
ME10_DIM_11
 70
     0
  3
{\Fgdt;n}<>
 41
3.5
 42
0.0
 44
1.0
 73
     0
 74
     0
 77
     1
 78
     8
140
3.5
147
1.0
172
     1
173
     1
174
     1
175
     1
176
     2
177
     2
271
     2
178
     7
271
     2
340
106
  0
ENDTAB
  0
TABLE
  2
BLOCK_RECORD
  5
1
330
0
100
AcDbSymbolTable
 70
     8
  0
BLOCK_RECORD
  5
1F
330
1
100
AcDbSymbolTableRecord
100
AcDbBlockTableRecord
  2
*Model_Space
340
22
  0
BLOCK_RECORD
  5
1B
330
1
100
AcDbSymbolTableRecord
100
AcDbBlockTableRecord
  2
*Paper_Space
340
1E
  0
BLOCK_RECORD
  5
23
330
1
100
AcDbSymbolTableRecord
100
AcDbBlockTableRecord
  2
*Paper_Space0
340
26
  0
BLOCK_RECORD
  5
48
330
1
100
AcDbSymbolTableRecord
100
AcDbBlockTableRecord
  2
開示A4
340
0
102
{BLKREFS
331
4C
102
}
  0
BLOCK_RECORD
  5
4B
330
1
100
AcDbSymbolTableRecord
100
AcDbBlockTableRecord
  2
開示A4枠
340
0
102
{BLKREFS
331
58
102
}
  0
BLOCK_RECORD
  5
4F
330
1
100
AcDbSymbolTableRecord
100
AcDbBlockTableRecord
  2
30-1-13
340
0
102
{BLKREFS
331
59
102
}
  0
BLOCK_RECORD
  5
52
330
1
100
AcDbSymbolTableRecord
100
AcDbBlockTableRecord
  2
77-15-13
340
0
102
{BLKREFS
331
5A
102
}
  0
BLOCK_RECORD
  5
55
330
1
100
AcDbSymbolTableRecord
100
AcDbBlockTableRecord
  2
92-21
340
0
102
{BLKREFS
331
5B
102
}
  0
BLOCK_RECORD
  5
114
330
1
100
AcDbSymbolTableRecord
100
AcDbBlockTableRecord
  2
*D6
340
0
  0
BLOCK_RECORD
  5
11F
330
1
100
AcDbSymbolTableRecord
100
AcDbBlockTableRecord
  2
*D7
340
0
  0
ENDTAB
  0
ENDSEC
  0
SECTION
  2
BLOCKS
  0
BLOCK
  5
20
330
1F
100
AcDbEntity
  8
0
100
AcDbBlockBegin
  2
*Model_Space
 70
     0
 10
0.0
 20
0.0
 30
0.0
  3
*Model_Space
  1

  0
ENDBLK
  5
21
330
1F
100
AcDbEntity
  8
0
100
AcDbBlockEnd
  0
BLOCK
  5
1C
330
1B
100
AcDbEntity
 67
     1
  8
0
100
AcDbBlockBegin
  2
*Paper_Space
 70
     0
 10
0.0
 20
0.0
 30
0.0
  3
*Paper_Space
  1

  0
ENDBLK
  5
1D
330
1B
100
AcDbEntity
 67
     1
  8
0
100
AcDbBlockEnd
  0
BLOCK
  5
24
330
23
100
AcDbEntity
  8
0
100
AcDbBlockBegin
  2
*Paper_Space0
 70
     0
 10
0.0
 20
0.0
 30
0.0
  3
*Paper_Space0
  1

  0
ENDBLK
  5
25
330
23
100
AcDbEntity
  8
0
100
AcDbBlockEnd
  0
BLOCK
  5
49
330
48
100
AcDbEntity
  8
0
100
AcDbBlockBegin
  2
開示A4
 70
     0
 10
0.0
 20
0.0
 30
0.0
  3
開示A4
  1

  0
POINT
  5
5C
330
48
100
AcDbEntity
  8
1
 62
     4
100
AcDbPoint
 10
34.00000000000003
 20
34.0
 30
0.0
  0
POINT
  5
5D
330
48
100
AcDbEntity
  8
1
 62
     4
100
AcDbPoint
 10
57.00000000000003
 20
12.25
 30
0.0
  0
POINT
  5
5E
330
48
100
AcDbEntity
  8
1
 62
     4
100
AcDbPoint
 10
57.00000000000003
 20
20.75
 30
0.0
  0
POINT
  5
5F
330
48
100
AcDbEntity
  8
1
 62
     4
100
AcDbPoint
 10
57.00000000000003
 20
24.75
 30
0.0
  0
POINT
  5
60
330
48
100
AcDbEntity
  8
1
 62
     4
100
AcDbPoint
 10
57.00000000000003
 20
16.25
 30
0.0
  0
POINT
  5
61
330
48
100
AcDbEntity
  8
1
 62
     4
100
AcDbPoint
 10
157.5
 20
19.0
 30
0.0
  0
POINT
  5
62
330
48
100
AcDbEntity
  8
1
 62
     4
100
AcDbPoint
 10
47.50000000000003
 20
282.0000000000003
 30
0.0
  0
POINT
  5
63
330
48
100
AcDbEntity
  8
1
 62
     4
100
AcDbPoint
 10
57.00000000000003
 20
22.75
 30
0.0
  0
POINT
  5
64
330
48
100
AcDbEntity
  8
1
 62
     4
100
AcDbPoint
 10
57.00000000000003
 20
14.25
 30
0.0
  0
POINT
  5
65
330
48
100
AcDbEntity
  8
1
 62
     4
100
AcDbPoint
 10
157.5
 20
12.5
 30
0.0
  0
POINT
  5
66
330
48
100
AcDbEntity
  8
1
 62
     4
100
AcDbPoint
 10
163.25
 20
12.5
 30
0.0
  0
POINT
  5
67
330
48
100
AcDbEntity
  8
1
 62
     4
100
AcDbPoint
 10
151.75
 20
12.5
 30
0.0
  0
POINT
  5
68
330
48
100
AcDbEntity
  8
1
 62
     4
100
AcDbPoint
 10
134.75
 20
12.5
 30
0.0
  0
POINT
  5
69
330
48
100
AcDbEntity
  8
1
 62
     4
100
AcDbPoint
 10
146.25
 20
12.5
 30
0.0
  0
POINT
  5
6A
330
48
100
AcDbEntity
  8
1
 62
     4
100
AcDbPoint
 10
140.5
 20
12.5
 30
0.0
  0
POINT
  5
6B
330
48
100
AcDbEntity
  8
1
 62
     4
100
AcDbPoint
 10
140.5
 20
19.0
 30
0.0
  0
POINT
  5
6C
330
48
100
AcDbEntity
  8
1
 62
     4
100
AcDbPoint
 10
117.75
 20
12.5
 30
0.0
  0
POINT
  5
6D
330
48
100
AcDbEntity
  8
1
 62
     4
100
AcDbPoint
 10
129.25
 20
12.5
 30
0.0
  0
POINT
  5
6E
330
48
100
AcDbEntity
  8
1
 62
     4
100
AcDbPoint
 10
123.5
 20
12.5
 30
0.0
  0
POINT
  5
6F
330
48
100
AcDbEntity
  8
1
 62
     4
100
AcDbPoint
 10
123.5
 20
19.0
 30
0.0
  0
POINT
  5
70
330
48
100
AcDbEntity
  8
1
 62
     4
100
AcDbPoint
 10
100.75
 20
12.5
 30
0.0
  0
POINT
  5
71
330
48
100
AcDbEntity
  8
1
 62
     4
100
AcDbPoint
 10
112.25
 20
12.5
 30
0.0
  0
POINT
  5
72
330
48
100
AcDbEntity
  8
1
 62
     4
100
AcDbPoint
 10
106.5
 20
12.5
 30
0.0
  0
POINT
  5
73
330
48
100
AcDbEntity
  8
1
 62
     4
100
AcDbPoint
 10
106.5
 20
19.0
 30
0.0
  0
POINT
  5
74
330
48
100
AcDbEntity
  8
1
 62
     4
100
AcDbPoint
 10
85.25000000000003
 20
17.0
 30
0.0
  0
POINT
  5
75
330
48
100
AcDbEntity
  8
1
 62
     4
100
AcDbPoint
 10
93.75000000000003
 20
17.0
 30
0.0
  0
POINT
  5
76
330
48
100
AcDbEntity
  8
1
 62
     4
100
AcDbPoint
 10
183.0
 20
15.0
 30
0.0
  0
LINE
  5
77
330
48
100
AcDbEntity
  8
1
  6
Continuous
 62
     2
100
AcDbLine
 10
81.00000000000003
 20
27.0
 30
0.0
 11
81.00000000000003
 21
10.0
 31
0.0
  0
LINE
  5
78
330
48
100
AcDbEntity
  8
1
  6
DOT_CENTER
 62
     2
100
AcDbLine
 10
187.0
 20
26.5
 30
0.0
 11
187.0
 21
20.5
 31
0.0
  0
LINE
  5
79
330
48
100
AcDbEntity
  8
1
  6
DOT_CENTER
 62
     2
100
AcDbLine
 10
184.0
 20
23.5
 30
0.0
 11
197.0
 21
23.5
 31
0.0
  0
LINE
  5
7A
330
48
100
AcDbEntity
  8
1
  6
Continuous
 62
     7
100
AcDbLine
 10
196.0
 20
21.5
 30
0.0
 11
191.0
 21
22.30000000000001
 31
0.0
  0
LINE
  5
7B
330
48
100
AcDbEntity
  8
1
  6
Continuous
 62
     7
100
AcDbLine
 10
196.0
 20
25.5
 30
0.0
 11
196.0
 21
21.5
 31
0.0
  0
LINE
  5
7C
330
48
100
AcDbEntity
  8
1
  6
Continuous
 62
     7
100
AcDbLine
 10
191.0
 20
24.70000000000002
 30
0.0
 11
196.0
 21
25.5
 31
0.0
  0
LINE
  5
7D
330
48
100
AcDbEntity
  8
1
  6
Continuous
 62
     7
100
AcDbLine
 10
191.0
 20
24.70000000000002
 30
0.0
 11
191.0
 21
22.30000000000001
 31
0.0
  0
LINE
  5
7E
330
48
100
AcDbEntity
  8
1
  6
Continuous
 62
     2
100
AcDbLine
 10
33.00000000000003
 20
27.0
 30
0.0
 11
33.00000000000003
 21
10.0
 31
0.0
  0
LINE
  5
7F
330
48
100
AcDbEntity
  8
1
  6
Continuous
 62
     2
100
AcDbLine
 10
25.00000000000003
 20
18.5
 30
0.0
 11
81.00000000000003
 21
18.5
 31
0.0
  0
LINE
  5
80
330
48
100
AcDbEntity
  8
1
  6
Continuous
 62
     7
100
AcDbLine
 10
200.0
 20
287.0000000000003
 30
0.0
 11
105.0
 21
287.0000000000003
 31
0.0
  0
LINE
  5
81
330
48
100
AcDbEntity
  8
1
  6
Continuous
 62
     7
100
AcDbLine
 10
200.0
 20
10.0
 30
0.0
 11
200.0
 21
148.5
 31
0.0
  0
LINE
  5
82
330
48
100
AcDbEntity
  8
1
  6
Continuous
 62
     7
100
AcDbLine
 10
25.00000000000003
 20
10.0
 30
0.0
 11
105.0
 21
10.0
 31
0.0
  0
LINE
  5
83
330
48
100
AcDbEntity
  8
1
  6
PHANTOM
 62
     4
100
AcDbLine
 10
0.0
 20
297.0
 30
0.0
 11
0.0
 21
0.0
 31
0.0
  0
LINE
  5
84
330
48
100
AcDbEntity
  8
1
  6
PHANTOM
 62
     4
100
AcDbLine
 10
210.0
 20
297.0
 30
0.0
 11
0.0
 21
297.0
 31
0.0
  0
LINE
  5
85
330
48
100
AcDbEntity
  8
1
  6
PHANTOM
 62
     4
100
AcDbLine
 10
210.0
 20
0.0
 30
0.0
 11
210.0
 21
297.0
 31
0.0
  0
LINE
  5
86
330
48
100
AcDbEntity
  8
1
  6
PHANTOM
 62
     4
100
AcDbLine
 10
0.0
 20
0.0
 30
0.0
 11
210.0
 21
0.0
 31
0.0
  0
LINE
  5
87
330
48
100
AcDbEntity
  8
1
  6
Continuous
 62
     7
100
AcDbLine
 10
25.00000000000003
 20
41.0
 30
0.0
 11
200.0
 21
41.0
 31
0.0
  0
LINE
  5
88
330
48
100
AcDbEntity
  8
1
  6
Continuous
 62
     7
100
AcDbLine
 10
200.0
 20
27.0
 30
0.0
 11
25.00000000000003
 21
27.0
 31
0.0
  0
LINE
  5
89
330
48
100
AcDbEntity
  8
1
  6
Continuous
 62
     2
100
AcDbLine
 10
33.00000000000003
 20
41.0
 30
0.0
 11
33.00000000000003
 21
27.0
 31
0.0
  0
LINE
  5
8A
330
48
100
AcDbEntity
  8
1
  6
Continuous
 62
     2
100
AcDbLine
 10
55.00000000000003
 20
287.0000000000003
 30
0.0
 11
55.00000000000003
 21
277.0000000000003
 31
0.0
  0
LINE
  5
8B
330
48
100
AcDbEntity
  8
1
  6
Continuous
 62
     2
100
AcDbLine
 10
40.00000000000003
 20
287.0000000000003
 30
0.0
 11
40.00000000000003
 21
277.0000000000003
 31
0.0
  0
LINE
  5
8C
330
48
100
AcDbEntity
  8
1
  6
Continuous
 62
     7
100
AcDbLine
 10
25.00000000000003
 20
10.0
 30
0.0
 11
25.00000000000003
 21
148.5
 31
0.0
  0
LINE
  5
8D
330
48
100
AcDbEntity
  8
1
  6
Continuous
 62
     2
100
AcDbLine
 10
55.00000000000003
 20
277.0000000000003
 30
0.0
 11
25.00000000000003
 21
277.0000000000003
 31
0.0
  0
LINE
  5
8E
330
48
100
AcDbEntity
  8
1
  6
Continuous
 62
     2
100
AcDbLine
 10
166.0
 20
27.0
 30
0.0
 11
166.0
 21
10.0
 31
0.0
  0
LINE
  5
8F
330
48
100
AcDbEntity
  8
1
  6
Continuous
 62
     2
100
AcDbLine
 10
132.0
 20
27.0
 30
0.0
 11
132.0
 21
10.0
 31
0.0
  0
LINE
  5
90
330
48
100
AcDbEntity
  8
1
  6
Continuous
 62
     2
100
AcDbLine
 10
149.0
 20
27.0
 30
0.0
 11
149.0
 21
10.0
 31
0.0
  0
LINE
  5
91
330
48
100
AcDbEntity
  8
1
  6
Continuous
 62
     2
100
AcDbLine
 10
115.0
 20
27.0
 30
0.0
 11
115.0
 21
10.0
 31
0.0
  0
LINE
  5
92
330
48
100
AcDbEntity
  8
1
  6
Continuous
 62
     2
100
AcDbLine
 10
98.00000000000003
 20
27.0
 30
0.0
 11
98.00000000000003
 21
10.0
 31
0.0
  0
LINE
  5
93
330
48
100
AcDbEntity
  8
1
  6
Continuous
 62
     2
100
AcDbLine
 10
166.0
 20
20.0
 30
0.0
 11
200.0
 21
20.0
 31
0.0
  0
LINE
  5
94
330
48
100
AcDbEntity
  8
1
  6
Continuous
 62
     2
100
AcDbLine
 10
105.0
 20
287.0000000000003
 30
0.0
 11
105.0
 21
292.0000000000003
 31
0.0
  0
LINE
  5
95
330
48
100
AcDbEntity
  8
1
  6
Continuous
 62
     7
100
AcDbLine
 10
105.0
 20
287.0000000000003
 30
0.0
 11
25.00000000000003
 21
287.0000000000003
 31
0.0
  0
LINE
  5
96
330
48
100
AcDbEntity
  8
1
  6
Continuous
 62
     2
100
AcDbLine
 10
25.00000000000003
 20
148.5
 30
0.0
 11
20.00000000000003
 21
148.5
 31
0.0
  0
LINE
  5
97
330
48
100
AcDbEntity
  8
1
  6
Continuous
 62
     7
100
AcDbLine
 10
25.00000000000003
 20
148.5
 30
0.0
 11
25.00000000000003
 21
287.0000000000003
 31
0.0
  0
LINE
  5
98
330
48
100
AcDbEntity
  8
1
  6
Continuous
 62
     2
100
AcDbLine
 10
200.0
 20
148.5
 30
0.0
 11
205.0
 21
148.5
 31
0.0
  0
LINE
  5
99
330
48
100
AcDbEntity
  8
1
  6
Continuous
 62
     7
100
AcDbLine
 10
200.0
 20
148.5
 30
0.0
 11
200.0
 21
287.0000000000003
 31
0.0
  0
LINE
  5
9A
330
48
100
AcDbEntity
  8
1
  6
Continuous
 62
     2
100
AcDbLine
 10
105.0
 20
10.0
 30
0.0
 11
105.0
 21
5.0
 31
0.0
  0
LINE
  5
9B
330
48
100
AcDbEntity
  8
1
  6
Continuous
 62
     7
100
AcDbLine
 10
105.0
 20
10.0
 30
0.0
 11
200.0
 21
10.0
 31
0.0
  0
CIRCLE
  5
A0
330
48
100
AcDbEntity
  8
1
  6
DOT_CENTER
 62
     7
100
AcDbCircle
 10
89.50000000000003
 20
18.0
 30
0.0
 40
0.1000000000000227
  0
CIRCLE
  5
A1
330
48
100
AcDbEntity
  8
1
  6
DOT_CENTER
 62
     7
100
AcDbCircle
 10
89.50000000000003
 20
16.0
 30
0.0
 40
0.1000000000000227
  0
CIRCLE
  5
A2
330
48
100
AcDbEntity
  8
1
  6
Continuous
 62
     7
100
AcDbCircle
 10
187.0
 20
23.5
 30
0.0
 40
2.0
  0
CIRCLE
  5
A3
330
48
100
AcDbEntity
  8
1
  6
Continuous
 62
     7
100
AcDbCircle
 10
187.0
 20
23.5
 30
0.0
 40
1.200000000000102
  0
CIRCLE
  5
A4
330
48
100
AcDbEntity
  8
1
  6
Continuous
 62
     7
100
AcDbCircle
 10
154.5
 20
12.5
 30
0.0
 40
0.3000000000000114
  0
CIRCLE
  5
A5
330
48
100
AcDbEntity
  8
1
  6
Continuous
 62
     7
100
AcDbCircle
 10
160.5
 20
12.5
 30
0.0
 40
0.3000000000000114
  0
CIRCLE
  5
A6
330
48
100
AcDbEntity
  8
1
  6
Continuous
 62
     7
100
AcDbCircle
 10
143.5
 20
12.5
 30
0.0
 40
0.3000000000000114
  0
CIRCLE
  5
A7
330
48
100
AcDbEntity
  8
1
  6
Continuous
 62
     7
100
AcDbCircle
 10
137.5
 20
12.5
 30
0.0
 40
0.3000000000000114
  0
CIRCLE
  5
A8
330
48
100
AcDbEntity
  8
1
  6
Continuous
 62
     7
100
AcDbCircle
 10
126.5
 20
12.5
 30
0.0
 40
0.2999999999999972
  0
CIRCLE
  5
A9
330
48
100
AcDbEntity
  8
1
  6
Continuous
 62
     7
100
AcDbCircle
 10
120.5
 20
12.5
 30
0.0
 40
0.2999999999999972
  0
CIRCLE
  5
AA
330
48
100
AcDbEntity
  8
1
  6
Continuous
 62
     7
100
AcDbCircle
 10
109.5
 20
12.5
 30
0.0
 40
0.2999999999999972
  0
CIRCLE
  5
AB
330
48
100
AcDbEntity
  8
1
  6
Continuous
 62
     7
100
AcDbCircle
 10
103.5
 20
12.5
 30
0.0
 40
0.2999999999999972
  0
SPLINE
  5
AC
102
{ACAD_REACTORS
330
CA
102
}
330
48
100
AcDbEntity
  8
_U_30EC_U_30A4_U_30E4_U_30FC_1
  6
Continuous
 62
     2
100
AcDbSpline
210
0.0
220
0.0
230
1.0
 70
    11
 71
     3
 72
    99
 73
    95
 74
    93
 42
0.000000001
 43
0.0000000001
 44
0.00000001
 40
0.0
 40
0.0
 40
0.0
 40
0.0
 40
0.0796417172272737
 40
0.162176854235653
 40
0.2486489160957972
 40
0.3404969668524966
 40
0.4381912511164873
 40
0.5434463660245157
 40
0.6518115192847452
 40
0.7530190937887108
 40
0.8492196919724992
 40
0.9419290312997977
 40
1.03424966357004
 40
1.129078600620144
 40
1.226697027573227
 40
1.327220425421691
 40
1.470572134937977
 40
1.595489863371228
 40
1.719934125348402
 40
1.850576620127423
 40
1.989059629987301
 40
2.134139054226912
 40
2.280698007207212
 40
2.424529739039466
 40
2.565929576985855
 40
2.70823926077356
 40
2.861717887443695
 40
3.045168540347419
 40
3.183798301138614
 40
3.314813961455448
 40
3.442083470447297
 40
3.569912708372941
 40
3.702177512509363
 40
3.842307559659524
 40
3.992872223245921
 40
4.15675066221831
 40
4.310981861107531
 40
4.445859909322569
 40
4.572393936131567
 40
4.701656719781954
 40
4.768279086008429
 40
4.835960697898405
 40
4.91278891872934
 40
5.006285208481517
 40
5.026909478751594
 40
5.047533749021158
 40
5.101808031471188
 40
5.162325165538501
 40
5.226919745995824
 40
5.294231806596755
 40
5.364544852554856
 40
5.438319055467888
 40
5.517877651324243
 40
5.607647714861556
 40
5.700449642544404
 40
5.78825114236414
 40
5.872714706039784
 40
5.955167292575307
 40
6.037192395190394
 40
6.120669181469093
 40
6.206848616686336
 40
6.296680855416813
 40
6.442558392872607
 40
6.568190371608285
 40
6.69290456736035
 40
6.824220446557119
 40
6.963121850329366
 40
7.107843738851171
 40
7.253431663907262
 40
7.395187468036696
 40
7.533140753237744
 40
7.670550457175189
 40
7.816236511769277
 40
7.987691657359234
 40
8.142277421969213
 40
8.293662615415013
 40
8.442962460879258
 40
8.591598316185328
 40
8.74367899236179
 40
8.90372532369919
 40
9.076307008890538
 40
9.265578604680593
 40
9.45920379536077
 40
9.617619810273556
 40
9.753609671361929
 40
9.8748733000041
 40
9.954520184977795
 40
10.02416413719251
 40
10.09769764405447
 40
10.18909955924972
 40
10.20974586420134
 40
10.23039218263379
 40
10.30057101881262
 40
10.37632012987541
 40
10.37632012987541
 40
10.37632012987541
 40
10.37632012987541
 10
170.1465954835851
 20
14.13795663216001
 30
0.0
 10
170.1632217851219
 20
14.11720608845319
 30
0.0
 10
170.1970784206576
 20
14.07495111711905
 30
0.0
 10
170.2599822541036
 20
14.02029811392071
 30
0.0
 10
170.3332500940393
 20
13.97299025121056
 30
0.0
 10
170.4175969238636
 20
13.93527231437936
 30
0.0
 10
170.513224061546
 20
13.91040619731959
 30
0.0
 10
170.6171853775346
 20
13.90309559345949
 30
0.0
 10
170.7224020220404
 20
13.91142322794057
 30
0.0
 10
170.8206626371334
 20
13.94149179651541
 30
0.0
 10
170.9058986427548
 20
13.98848822971877
 30
0.0
 10
170.9779220206103
 20
14.04952991250859
 30
0.0
 10
171.0350917709096
 20
14.12412969578585
 30
0.0
 10
171.0767868747439
 20
14.21002464660174
 30
0.0
 10
171.1026952846292
 20
14.30485850432212
 30
0.0
 10
171.1118037332653
 20
14.41854979038368
 30
0.0
 10
171.0986864796487
 20
14.5433258777078
 30
0.0
 10
171.0325330334414
 20
14.66014719171897
 30
0.0
 10
170.9369370919568
 20
14.74512539577377
 30
0.0
 10
170.8249681022369
 20
14.81416684459167
 30
0.0
 10
170.6993659583269
 20
14.87204142045892
 30
0.0
 10
170.5656691620856
 20
14.92373723284339
 30
0.0
 10
170.4313122818831
 20
14.97899092397186
 30
0.0
 10
170.3051983986877
 20
15.04939770641648
 30
0.0
 10
170.1926579987535
 20
15.13785540731253
 30
0.0
 10
170.0969963064458
 20
15.24981067868477
 30
0.0
 10
170.0334157151826
 20
15.3994991010139
 30
0.0
 10
170.0200706505015
 20
15.55932794385147
 30
0.0
 10
170.0320510987449
 20
15.7104840530685
 30
0.0
 10
170.071229892884
 20
15.83809244591541
 30
0.0
 10
170.135498775091
 20
15.95080874030846
 30
0.0
 10
170.223820499974
 20
16.04648609268686
 30
0.0
 10
170.3338091207627
 20
16.12354214985757
 30
0.0
 10
170.4632284401265
 20
16.18151396936281
 30
0.0
 10
170.6111838967793
 20
16.21739177588821
 30
0.0
 10
170.7682069455487
 20
16.22746719050564
 30
0.0
 10
170.917494046643
 20
16.2186363776259
 30
0.0
 10
171.059625361417
 20
16.19074899340358
 30
0.0
 10
171.1595922609625
 20
16.1341331470114
 30
0.0
 10
171.3125074736185
 20
16.08674602105512
 30
0.0
 10
171.2455131717168
 20
16.00197553001189
 30
0.0
 10
171.2296479120269
 20
15.93438901873487
 30
0.0
 10
171.1978750531296
 20
15.86926092793192
 30
0.0
 10
171.2150202209571
 20
15.76723453256957
 30
0.0
 10
171.1666427208231
 20
15.77493211681906
 30
0.0
 10
171.1315789440766
 20
15.76806771724812
 30
0.0
 10
171.1296697985718
 20
15.83263831158197
 30
0.0
 10
171.0985692931989
 20
15.87825639621398
 30
0.0
 10
171.0664551628455
 20
15.93561036628458
 30
0.0
 10
171.0208038475169
 20
15.9854046269257
 30
0.0
 10
170.9658508218386
 20
16.02994813718998
 30
0.0
 10
170.9010841173007
 20
16.06763988836549
 30
0.0
 10
170.8232377310597
 20
16.09283375791361
 30
0.0
 10
170.7355160553352
 20
16.09931230998119
 30
0.0
 10
170.6452903277807
 20
16.09235709285613
 30
0.0
 10
170.5594594694064
 20
16.06909190460925
 30
0.0
 10
170.4828343638596
 20
16.03131644107546
 30
0.0
 10
170.4165265636201
 20
15.98051641089573
 30
0.0
 10
170.3622560536964
 20
15.91731143407211
 30
0.0
 10
170.3224925345459
 20
15.8427645571037
 30
0.0
 10
170.2976775510587
 20
15.75917313997765
 30
0.0
 10
170.289212426287
 20
15.65192948382286
 30
0.0
 10
170.3019697987103
 20
15.52965457267559
 30
0.0
 10
170.3681548409273
 20
15.41149724291213
 30
0.0
 10
170.4640977399832
 20
15.32606325709532
 30
0.0
 10
170.5757914963182
 20
15.25583362306728
 30
0.0
 10
170.7010863668703
 20
15.19659162305309
 30
0.0
 10
170.8349823941447
 20
15.14616708086128
 30
0.0
 10
170.968993033315
 20
15.09322516984389
 30
0.0
 10
171.0950885316915
 20
15.02750170625176
 30
0.0
 10
171.2076216638416
 20
14.94480352537325
 30
0.0
 10
171.3031370284233
 20
14.83996006310081
 30
0.0
 10
171.3672706486963
 20
14.69937117251573
 30
0.0
 10
171.3811103725279
 20
14.54065409451596
 30
0.0
 10
171.3673954712229
 20
14.3815315521788
 30
0.0
 10
171.3244739153984
 20
14.23483828819215
 30
0.0
 10
171.2545906329065
 20
14.10119796587147
 30
0.0
 10
171.157459221383
 20
13.98532387699294
 30
0.0
 10
171.0347806023657
 20
13.89089981770093
 30
0.0
 10
170.8874408413167
 20
13.82179270651981
 30
0.0
 10
170.7177132497125
 20
13.77953210858854
 30
0.0
 10
170.5317404979596
 20
13.76781736230405
 30
0.0
 10
170.3528955926184
 20
13.77809486683438
 30
0.0
 10
170.1881733753742
 20
13.81966573769153
 30
0.0
 10
170.0834410841057
 20
13.88797642883945
 30
0.0
 10
169.9350960790365
 20
13.9367521903211
 30
0.0
 10
169.9980378194729
 20
14.02976591290846
 30
0.0
 10
170.0072274430059
 20
14.10296536248286
 30
0.0
 10
170.0303711301231
 20
14.1693629450135
 30
0.0
 10
170.0034588335317
 20
14.26974809527583
 30
0.0
 10
170.0521338956339
 20
14.2623403351738
 30
0.0
 10
170.0916530580697
 20
14.26894063620897
 30
0.0
 10
170.0996204944702
 20
14.19078703218937
 30
0.0
 10
170.1305436967922
 20
14.15600927375862
 30
0.0
 10
170.1465954835851
 20
14.13795663216001
 30
0.0
 11
170.1465954835851
 21
14.13795663216001
 31
0.0
 11
170.1982038075864
 21
14.0772986981474
 31
0.0
 11
170.2601105501335
 21
14.0227129516332
 31
0.0
 11
170.3327764009802
 21
13.97583980928387
 31
0.0
 11
170.4166468655843
 21
13.9383990627654
 31
0.0
 11
170.511221073241
 21
13.91390636311885
 31
0.0
 11
170.6161603327165
 21
13.90575829888482
 31
0.0
 11
170.7240739497552
 21
13.9156404863823
 31
0.0
 11
170.8208419941616
 21
13.94528704887492
 31
0.0
 11
170.9050776083319
 21
13.99175118948821
 31
0.0
 11
170.9756144207686
 21
14.05191413218151
 31
0.0
 11
171.031944210998
 21
14.12505819466323
 31
0.0
 11
171.0736690016003
 21
14.2102143404752
 31
0.0
 11
171.0994680808032
 21
14.30436190989614
 31
0.0
 11
171.1080824729446
 21
14.40451552098222
 31
0.0
 11
171.0878517703357
 21
14.54643250879397
 31
0.0
 11
171.0272522666731
 21
14.65566684036392
 31
0.0
 11
170.9364971286285
 21
14.74081306430098
 31
0.0
 11
170.826010188474
 21
14.81052746532521
 31
0.0
 11
170.7008523531254
 21
14.86979854169924
 31
0.0
 11
170.5662951950998
 21
14.9240425347412
 31
0.0
 11
170.4316884277007
 21
14.98201274306007
 31
0.0
 11
170.3065802017258
 21
15.05297399304232
 31
0.0
 11
170.196027609828
 21
15.14113315968698
 31
0.0
 11
170.1053381235265
 21
15.25080295132622
 31
0.0
 11
170.0447055469484
 21
15.39179720476322
 31
0.0
 11
170.0245079172553
 21
15.57413260402322
 31
0.0
 11
170.0374030471347
 21
15.71216131926645
 31
0.0
 11
170.0761016659391
 21
15.83733128451291
 31
0.0
 11
170.1393141731506
 21
15.94779262129085
 31
0.0
 11
170.2257499954545
 21
16.04196885390621
 31
0.0
 11
170.3336492808962
 21
16.11846540770654
 31
0.0
 11
170.4613526283328
 21
16.1761567010949
 31
0.0
 11
170.6075393259923
 21
16.21220066809973
 31
0.0
 11
170.770976856545
 21
16.22421385386062
 31
0.0
 11
170.9248918431289
 21
16.21434269066865
 31
0.0
 11
171.0564887242607
 21
16.18477329831501
 31
0.0
 11
171.172563634494
 21
16.13439993895255
 31
0.0
 11
171.2800792741122
 21
16.06264163167882
 31
0.0
 11
171.2516994050444
 21
16.00236624106892
 31
0.0
 11
171.2284855254283
 21
15.9387901733765
 31
0.0
 11
171.2078381040801
 21
15.86478841992271
 31
0.0
 11
171.1871840681487
 21
15.77360197897332
 31
0.0
 11
171.1665597978415
 21
15.77360197897332
 31
0.0
 11
171.1459355275343
 21
15.77360197897332
 31
0.0
 11
171.1256706495791
 21
15.82395108486347
 31
0.0
 11
171.0994658759421
 21
15.87850045116932
 31
0.0
 11
171.0650468924451
 21
15.93316116296118
 31
0.0
 11
171.0203554612937
 21
15.98349593725422
 31
0.0
 11
170.9657333359511
 21
16.02777175321533
 31
0.0
 11
170.9016722004326
 21
16.06436142334502
 31
0.0
 11
170.825968296114
 21
16.08882545979734
 31
0.0
 11
170.7365722046449
 21
16.0970110066703
 31
0.0
 11
170.6440937174207
 21
16.08926973931107
 31
0.0
 11
170.5594072091645
 21
16.0660900344557
 31
0.0
 11
170.483702448884
 21
16.0286349563401
 31
0.0
 11
170.4183754766516
 21
15.97832774281102
 31
0.0
 11
170.3650487887664
 21
15.9160029337988
 31
0.0
 11
170.3254809233901
 21
15.84249947895611
 31
0.0
 11
170.3009523754711
 21
15.75988443557395
 31
0.0
 11
170.2927954104108
 21
15.6704232984435
 31
0.0
 11
170.3130095765617
 21
15.52595308146574
 31
0.0
 11
170.373625616682
 21
15.41591177072939
 31
0.0
 11
170.4643479320758
 21
15.33033670130636
 31
0.0
 11
170.5748676948813
 21
15.25941954854631
 31
0.0
 11
170.7000089937719
 21
15.19914305550583
 31
0.0
 11
170.8345826882553
 21
15.1459044791302
 31
0.0
 11
170.9691729191968
 21
15.09039489581078
 31
0.0
 11
171.0942976816297
 21
15.02377281249412
 31
0.0
 11
171.204800907977
 21
14.94118863716753
 31
0.0
 11
171.2955397598288
 21
14.83800003476281
 31
0.0
 11
171.3561557999489
 21
14.70552315979586
 31
0.0
 11
171.3763699660998
 21
14.53526378483841
 31
0.0
 11
171.3621839747998
 21
14.3813303039742
 31
0.0
 11
171.3196087009193
 21
14.23605531269101
 31
0.0
 11
171.2499752884265
 21
14.10398854189073
 31
0.0
 11
171.1544992078713
 21
13.9900721877525
 31
0.0
 11
171.0341060772624
 21
13.89715272597022
 31
0.0
 11
170.8896160201846
 21
13.82832357668181
 31
0.0
 11
170.7223519532713
 21
13.78581275203967
 31
0.0
 11
170.5336103348226
 21
13.7716586461404
 31
0.0
 11
170.3405031726387
 21
13.78581275203967
 31
0.0
 11
170.1878975900911
 21
13.82832357668181
 31
0.0
 11
170.0661897942203
 21
13.88899033013893
 31
0.0
 11
169.9660261826363
 21
13.95734322942741
 31
0.0
 11
169.9922320587039
 21
14.0325554516308
 31
0.0
 11
170.0090121537618
 21
14.1001476738362
 31
0.0
 11
170.0206196447852
 21
14.17275926235966
 31
0.0
 11
170.0313606254139
 21
14.26352788212861
 31
0.0
 11
170.0520069443315
 21
14.26352788212861
 31
0.0
 11
170.0726532632492
 21
14.26352788212861
 31
0.0
 11
170.1048916391629
 21
14.20119204881088
 31
0.0
 11
170.1465954835851
 21
14.13795663216001
 31
0.0
  0
SPLINE
  5
AD
102
{ACAD_REACTORS
330
CB
102
}
330
48
100
AcDbEntity
  8
_U_30EC_U_30A4_U_30E4_U_30FC_1
  6
Continuous
 62
     2
100
AcDbSpline
210
0.0
220
0.0
230
1.0
 70
    11
 71
     3
 72
    57
 73
    53
 74
    51
 42
0.000000001
 43
0.0000000001
 44
0.00000001
 40
0.0
 40
0.0
 40
0.0
 40
0.0
 40
0.0471632082809203
 40
0.091486105463211
 40
0.1357762519702345
 40
0.182652700161064
 40
0.2295203288572549
 40
0.2737751972220719
 40
0.3181310461543016
 40
0.3652607198398428
 40
0.4571007286314467
 40
0.5671851029164743
 40
0.6894623283867912
 40
0.8181758272545697
 40
0.9510087229273474
 40
1.085852229674057
 40
1.218126164475315
 40
1.343545131142367
 40
1.454537202956782
 40
1.567187607530791
 40
1.680710966642409
 40
1.794226869736774
 40
1.900009184247573
 40
2.004085860447852
 40
2.10816267445174
 40
2.214000150155283
 40
2.496038577352139
 40
2.762350745479287
 40
2.997275353279381
 40
3.185110082137705
 40
3.24640789006393
 40
3.31260755021266
 40
3.378877742711561
 40
3.440140399651413
 40
4.100501696006438
 40
4.754913085563489
 40
5.411331693423881
 40
6.07789043256863
 40
6.110575292670909
 40
6.143260152775689
 40
6.367989363395061
 40
6.61052537495144
 40
6.863389136467193
 40
7.119380025547467
 40
7.376036605090965
 40
7.631164770966208
 40
7.876722425456333
 40
8.104953735855867
 40
8.312916685924158
 40
8.49773029494119
 40
8.651018984313737
 40
8.764738853624468
 40
8.764738853624468
 40
8.764738853624468
 40
8.764738853624468
 10
174.7922649500513
 20
13.81626739612932
 30
0.0
 10
174.7766616726931
 20
13.81826231079082
 30
0.0
 10
174.7463947960302
 20
13.82213201360302
 30
0.0
 10
174.7010994202252
 20
13.82341984967266
 30
0.0
 10
174.6559553129349
 20
13.8230868355405
 30
0.0
 10
174.60990171234
 20
13.82314658674223
 30
0.0
 10
174.5640496172096
 20
13.8232581365
 30
0.0
 10
174.5183711648165
 20
13.82277833456588
 30
0.0
 10
174.4750811541608
 20
13.82461109618724
 30
0.0
 10
174.4039947951514
 20
13.80049556814663
 30
0.0
 10
174.4057477261441
 20
13.92184693977255
 30
0.0
 10
174.3586196370569
 20
14.00726239751235
 30
0.0
 10
174.3191478251762
 20
14.12486929345137
 30
0.0
 10
174.2706635532645
 20
14.2423275254044
 30
0.0
 10
174.2201017402521
 20
14.36405935761512
 30
0.0
 10
174.1718634610477
 20
14.4907596786247
 30
0.0
 10
174.1135232947595
 20
14.59933687784957
 30
0.0
 10
174.0980892667261
 20
14.75620657134416
 30
0.0
 10
173.9566586330635
 20
14.72373446548319
 30
0.0
 10
173.8508397414904
 20
14.73512888682182
 30
0.0
 10
173.7358569725222
 20
14.73392591514614
 30
0.0
 10
173.625314225214
 20
14.73506945347407
 30
0.0
 10
173.5176583522783
 20
14.73418350037525
 30
0.0
 10
173.4121322529242
 20
14.73416602390521
 30
0.0
 10
173.3109192682012
 20
14.72714032472413
 30
0.0
 10
173.1266804827753
 20
14.75135859859876
 30
0.0
 10
173.1157393685411
 20
14.44741691121885
 30
0.0
 10
173.008769163475
 20
14.223531772534
 30
0.0
 10
172.9098148604346
 20
14.03895314292499
 30
0.0
 10
172.9225090524007
 20
13.79530204804213
 30
0.0
 10
172.8050091716397
 20
13.825080467532
 30
0.0
 10
172.742205586831
 20
13.822580895096
 30
0.0
 10
172.6785872093399
 20
13.82344075102807
 30
0.0
 10
172.3946014194076
 20
13.78098039941959
 30
0.0
 10
173.025163849938
 20
14.50081952444788
 30
0.0
 10
173.1087645289071
 20
15.01276539435734
 30
0.0
 10
173.4929252789339
 20
15.53353743550046
 30
0.0
 10
173.4777208288565
 20
16.23519626253214
 30
0.0
 10
173.7239265722696
 20
16.22345633081256
 30
0.0
 10
173.8256346157562
 20
16.23225004452773
 30
0.0
 10
173.8249752035817
 20
15.98059650730348
 30
0.0
 10
173.9428317155828
 20
15.79818020733961
 30
0.0
 10
174.0315515260485
 20
15.55563740662871
 30
0.0
 10
174.1322292485259
 20
15.32340030530133
 30
0.0
 10
174.2311142712243
 20
15.08674644566917
 30
0.0
 10
174.3299676990669
 20
14.85461739170096
 30
0.0
 10
174.4256166390925
 20
14.63122222788789
 30
0.0
 10
174.5159904573271
 20
14.42272549049319
 30
0.0
 10
174.5989944568189
 20
14.23308448529325
 30
0.0
 10
174.6726088582798
 20
14.06663106068104
 30
0.0
 10
174.7342815895546
 20
13.92917699626101
 30
0.0
 10
174.7749458885603
 20
13.84999239430038
 30
0.0
 10
174.7922649500513
 20
13.81626739612932
 30
0.0
 11
174.7922649500513
 21
13.81626739612932
 31
0.0
 11
174.7453878317448
 21
13.82145433189187
 31
0.0
 11
174.7010975896125
 21
13.82315538223861
 31
0.0
 11
174.6568074431729
 21
13.82315538223861
 31
0.0
 11
174.6099309947159
 21
13.82315538223861
 31
0.0
 11
174.5630633657033
 21
13.82315538223861
 31
0.0
 11
174.5188084970408
 21
13.82315538223861
 31
0.0
 11
174.4744852776854
 21
13.82145433189187
 31
0.0
 11
174.4276419021443
 21
13.81626739612932
 31
0.0
 11
174.3992532136325
 21
13.9036096617325
 31
0.0
 11
174.3622721815898
 21
14.0072965627482
 31
0.0
 11
174.3188386236701
 21
14.12159987001128
 31
0.0
 11
174.2711055866936
 21
14.24113531268972
 31
0.0
 11
174.2208160133237
 21
14.36408057307565
 31
0.0
 11
174.1696467003932
 21
14.48883822929452
 31
0.0
 11
174.1197531801326
 21
14.61134141502778
 31
0.0
 11
174.0733119111841
 21
14.72784517367921
 31
0.0
 11
173.9623611907589
 21
14.73087465284506
 31
0.0
 11
173.8497309225089
 21
14.73300454867791
 31
0.0
 11
173.7362152069449
 21
14.73432195319139
 31
0.0
 11
173.62270004768
 21
14.73473315978851
 31
0.0
 11
173.5169185312816
 21
14.73432195319139
 31
0.0
 11
173.4128501919225
 21
14.73300454867791
 31
0.0
 11
173.3087951724045
 21
14.73087465284506
 31
0.0
 11
173.2030010615596
 21
14.72784517367921
 31
0.0
 11
173.0980914750139
 21
14.46604437513352
 31
0.0
 11
173.0034868690331
 21
14.21710232658461
 31
0.0
 11
172.9252231210298
 21
13.99559756969562
 31
0.0
 11
172.8693431224555
 21
13.81626739612932
 31
0.0
 11
172.8082651639442
 21
13.82145433189187
 31
0.0
 11
172.742087361813
 21
13.82315538223861
 31
0.0
 11
172.6758390041282
 21
13.82145433189187
 31
0.0
 11
172.6147963233938
 21
13.81626739612932
 31
0.0
 11
172.889968495193
 21
14.41656508695148
 31
0.0
 11
173.158294573417
 21
15.0134364236078
 31
0.0
 11
173.4240277350405
 21
15.61366245644385
 31
0.0
 11
173.6914740737033
 21
16.22421385386062
 31
0.0
 11
173.7241589339806
 21
16.22421385386062
 31
0.0
 11
173.7568437942579
 21
16.22421385386062
 31
0.0
 11
173.8428300681057
 21
16.01658539037086
 31
0.0
 11
173.9357285813609
 21
15.79254614563521
 31
0.0
 11
174.0328714521463
 21
15.55908663180473
 31
0.0
 11
174.1317936458031
 21
15.32298128464151
 31
0.0
 11
174.2315341249927
 21
15.08649780379789
 31
0.0
 11
174.3313071129353
 21
14.85168781253711
 31
0.0
 11
174.4280608257448
 21
14.62599492196851
 31
0.0
 11
174.5188084970408
 21
14.41658052097921
 31
0.0
 11
174.6022150834546
 21
14.22607611130468
 31
0.0
 11
174.6770293263377
 21
14.05708232662471
 31
0.0
 11
174.7410729186603
 21
13.91781337700672
 31
0.0
 11
174.7922649500513
 21
13.81626739612932
 31
0.0
  0
SPLINE
  5
AE
102
{ACAD_REACTORS
330
CB
102
}
330
48
100
AcDbEntity
  8
_U_30EC_U_30A4_U_30E4_U_30FC_1
  6
Continuous
 62
     2
100
AcDbSpline
210
0.0
220
0.0
230
1.0
 70
    11
 71
     3
 72
    25
 73
    21
 74
    19
 42
0.000000001
 43
0.0000000001
 44
0.00000001
 40
0.0
 40
0.0
 40
0.0
 40
0.0
 40
0.0911479969064824
 40
0.185811789620468
 40
0.2804128399734501
 40
0.371588919071452
 40
0.4679080494218718
 40
0.564268380922924
 40
0.6605683222645002
 40
0.756965301581029
 40
0.8561348172522758
 40
1.092615965104293
 40
1.374867658141875
 40
1.611348812011595
 40
1.710518328425243
 40
1.809403163726558
 40
2.045205463294061
 40
2.326646917622119
 40
2.562449217190577
 40
2.661334043833895
 40
2.661334043833895
 40
2.661334043833895
 40
2.661334043833895
 10
173.2683700567199
 20
14.886145381973
 30
0.0
 10
173.2987525917922
 20
14.88598079714561
 30
0.0
 10
173.3606895889111
 20
14.88564528689927
 30
0.0
 10
173.454135696033
 20
14.88269055451999
 30
0.0
 10
173.5475095236357
 20
14.87977752877154
 30
0.0
 10
173.6417760753476
 20
14.87894201643418
 30
0.0
 10
173.7354964790967
 20
14.87996644658048
 30
0.0
 10
173.8352040303205
 20
14.87916977470972
 30
0.0
 10
173.9188949546312
 20
14.88921410235218
 30
0.0
 10
174.0637996315045
 20
14.86234617674175
 30
0.0
 10
173.9396132444801
 20
15.03665530280055
 30
0.0
 10
173.8965867286282
 20
15.196517110061
 30
0.0
 10
173.780892214221
 20
15.45518458550223
 30
0.0
 10
173.7017565431256
 20
15.59231052861865
 30
0.0
 10
173.6431576621816
 20
15.80937033134084
 30
0.0
 10
173.5864803939438
 20
15.59266134213435
 30
0.0
 10
173.5052809900477
 20
15.45327012438243
 30
0.0
 10
173.4063701281488
 20
15.20406969370202
 30
0.0
 10
173.3253625094259
 20
15.01925830226081
 30
0.0
 10
173.2813683325838
 20
14.91650446856125
 30
0.0
 10
173.2683700567199
 20
14.886145381973
 30
0.0
 11
173.2683700567199
 21
14.886145381973
 31
0.0
 11
173.359513773782
 21
14.88526123266765
 31
0.0
 11
173.4541428297581
 21
14.882696979196
 31
0.0
 11
173.5487082179706
 21
14.8800996528078
 31
0.0
 11
173.6398803250196
 21
14.87924857641912
 31
0.0
 11
173.7361985777706
 21
14.87965978301622
 31
0.0
 11
173.8325499034376
 21
14.88097718752971
 31
0.0
 11
173.9288262638286
 21
14.88310818579313
 31
0.0
 11
174.0251753846343
 21
14.886145381973
 31
0.0
 11
173.9854633323141
 21
14.97701642195028
 31
0.0
 11
173.8907653613968
 21
15.1937089018961
 31
0.0
 11
173.7777387509471
 21
15.45234186183143
 31
0.0
 11
173.6830407800297
 21
15.66903434177724
 31
0.0
 11
173.6433287277095
 21
15.75990538175452
 31
0.0
 11
173.6043330259266
 21
15.66903434177724
 31
0.0
 11
173.5113432755212
 21
15.45234186183142
 31
0.0
 11
173.4003555089082
 21
15.19370890189609
 31
0.0
 11
173.3073657585028
 21
14.97701642195028
 31
0.0
 11
173.2683700567199
 21
14.886145381973
 31
0.0
  0
SPLINE
  5
AF
102
{ACAD_REACTORS
330
CC
102
}
330
48
100
AcDbEntity
  8
_U_30EC_U_30A4_U_30E4_U_30FC_1
  6
Continuous
 62
     2
100
AcDbSpline
210
0.0
220
0.0
230
1.0
 70
    11
 71
     3
 72
    95
 73
    91
 74
    89
 42
0.000000001
 43
0.0000000001
 44
0.00000001
 40
0.0
 40
0.0
 40
0.0
 40
0.0
 40
0.6550406656911871
 40
1.308087289031954
 40
1.420803739835792
 40
1.566130759770814
 40
1.757067341888469
 40
2.006513545026445
 40
2.087328263121528
 40
2.185328872295575
 40
2.294612454748312
 40
2.408936380534819
 40
2.526802767798565
 40
2.646360524615605
 40
2.7625357239716
 40
2.870057342870175
 40
2.966883448431661
 40
3.050803243518324
 40
3.115818222436626
 40
3.156030057150222
 40
3.213914225080122
 40
3.276689026450522
 40
3.342960320981298
 40
3.404230667150544
 40
3.453822809493321
 40
3.532499827188409
 40
3.634775188507125
 40
3.754909333008195
 40
3.889736761660624
 40
4.03576960217522
 40
4.187256681197576
 40
4.338733685675861
 40
4.488478734676057
 40
4.634708317831501
 40
4.771493189921211
 40
4.892686571561154
 40
5.199775528944426
 40
5.460353566929641
 40
5.667603142345492
 40
5.814722905404426
 40
5.828990806219724
 40
5.855488336304421
 40
5.869756237118753
 40
6.189796507762728
 40
6.531890469872878
 40
6.883053637016901
 40
7.230512024911388
 40
7.566966656764499
 40
7.885203559707316
 40
8.172887439719126
 40
8.418011594062685
 40
8.443926721190607
 40
8.510760470613095
 40
8.602145393795604
 40
8.701714041647042
 40
8.793098965075275
 40
8.859932715057848
 40
8.885847842603496
 40
9.24230125661274
 40
9.589275455016715
 40
9.921808543164069
 40
10.23479624298458
 40
10.29968150889168
 40
10.35323493887756
 40
10.40154625355141
 40
10.46482922477816
 40
10.55973900668396
 40
10.69239545985613
 40
10.84920353475664
 40
11.01626328594772
 40
11.18672024367434
 40
11.35372582577204
 40
11.50257442292415
 40
11.61866495023275
 40
11.71329869152861
 40
11.82511050573899
 40
11.94464880845709
 40
12.069292426425
 40
12.19707290435168
 40
12.32562632860519
 40
12.45034565331271
 40
12.56646595170318
 40
12.67099007414625
 40
12.76077625936777
 40
12.82703233506687
 40
12.87429132785988
 40
12.89831990323327
 40
12.92234847860015
 40
13.53984767410317
 40
14.18294284359359
 40
14.18294284359359
 40
14.18294284359359
 40
14.18294284359359
 10
177.3067935648021
 20
14.70898038201722
 30
0.0
 10
177.1752019758551
 20
14.82265058603231
 30
0.0
 10
176.9124193802728
 20
15.04964496316158
 30
0.0
 10
176.399739344102
 20
15.89214462956286
 30
0.0
 10
176.4106654595363
 20
15.53423377577021
 30
0.0
 10
176.4041226527991
 20
15.39267392272135
 30
0.0
 10
176.4028026631772
 20
15.19421305299283
 30
0.0
 10
176.4018117602539
 20
15.02150296045987
 30
0.0
 10
176.4024101751974
 20
14.87865373257585
 30
0.0
 10
176.4038994301883
 20
14.78265005413365
 30
0.0
 10
176.4055683588471
 20
14.67545503263147
 30
0.0
 10
176.4071934954619
 20
14.56164211517586
 30
0.0
 10
176.4092429501685
 20
14.44441572604591
 30
0.0
 10
176.4123165501927
 20
14.32656411232972
 30
0.0
 10
176.4156339697043
 20
14.21228087320622
 30
0.0
 10
176.419360534028
 20
14.10521401867277
 30
0.0
 10
176.4217338161424
 20
14.01007408766922
 30
0.0
 10
176.4278718888357
 20
13.92558557205696
 30
0.0
 10
176.4239784495947
 20
13.86923087298143
 30
0.0
 10
176.4455230443077
 20
13.79825022472361
 30
0.0
 10
176.3680940058618
 20
13.82902677604486
 30
0.0
 10
176.3116353240191
 20
13.82011242517611
 30
0.0
 10
176.2540495896807
 20
13.82896218398278
 30
0.0
 10
176.1690163478472
 20
13.7973822522595
 30
0.0
 10
176.2009714146382
 20
13.88095155992194
 30
0.0
 10
176.1990705282539
 20
13.94882608968312
 30
0.0
 10
176.21079600473
 20
14.05233256764424
 30
0.0
 10
176.2164241053
 20
14.170021256167
 30
0.0
 10
176.2237902178941
 20
14.30388609164429
 30
0.0
 10
176.232075970161
 20
14.44764152872636
 30
0.0
 10
176.2398851897427
 20
14.59714022843447
 30
0.0
 10
176.2457571222657
 20
14.74792549402078
 30
0.0
 10
176.2503667817968
 20
14.89699943878436
 30
0.0
 10
176.2542632117542
 20
15.04122913163022
 30
0.0
 10
176.2570715126564
 20
15.17583905213017
 30
0.0
 10
176.2576698755022
 20
15.36469614347356
 30
0.0
 10
176.261602386715
 20
15.58975494313158
 30
0.0
 10
176.2442175378498
 20
15.86367091125712
 30
0.0
 10
176.2850417342583
 20
16.02787112098601
 30
0.0
 10
176.1995153256002
 20
16.22749661465095
 30
0.0
 10
176.2660558907687
 20
16.22385458403978
 30
0.0
 10
176.283872427323
 20
16.22413447160854
 30
0.0
 10
176.40568017975
 20
16.22632927398611
 30
0.0
 10
176.5080770335463
 20
15.9467511872152
 30
0.0
 10
176.7580021509356
 20
15.7456300853601
 30
0.0
 10
176.987003533111
 20
15.47792614987922
 30
0.0
 10
177.2245151213109
 20
15.22646413862379
 30
0.0
 10
177.4486090740772
 20
14.98969974061361
 30
0.0
 10
177.6750716283009
 20
14.73218692583083
 30
0.0
 10
177.8325687886514
 20
14.61649335056924
 30
0.0
 10
178.0472129612675
 20
14.27997152538797
 30
0.0
 10
178.0422645974618
 20
14.40464754091605
 30
0.0
 10
178.0433931602546
 20
14.46327691935739
 30
0.0
 10
178.0428877841517
 20
14.55043662371979
 30
0.0
 10
178.0430475158114
 20
14.64416143182874
 30
0.0
 10
178.0430054891318
 20
14.73018971297037
 30
0.0
 10
178.0430202040372
 20
14.79153891945497
 30
0.0
 10
178.0429706255985
 20
14.94135231520997
 30
0.0
 10
178.045881152281
 20
15.17989612510109
 30
0.0
 10
178.0259521041161
 20
15.54486509868705
 30
0.0
 10
178.0750433936247
 20
15.80799631993418
 30
0.0
 10
177.917795150918
 20
16.2192890494775
 30
0.0
 10
178.0762112872421
 20
16.16398282551752
 30
0.0
 10
178.1311680478629
 20
16.1619968650018
 30
0.0
 10
178.1827887766739
 20
16.16264778248256
 30
0.0
 10
178.2713198965366
 20
16.20369527738246
 30
0.0
 10
178.2204898303169
 20
16.05696326622988
 30
0.0
 10
178.2313389930283
 20
15.95019971954433
 30
0.0
 10
178.2166036994847
 20
15.79085705414112
 30
0.0
 10
178.2099976446204
 20
15.62853061652876
 30
0.0
 10
178.2014961399915
 20
15.45992521892396
 30
0.0
 10
178.1943227202198
 20
15.29814814703543
 30
0.0
 10
178.1889063215389
 20
15.15422331457937
 30
0.0
 10
178.1871713967648
 20
15.03437493466932
 30
0.0
 10
178.1875440672319
 20
14.92686101590521
 30
0.0
 10
178.1873656126262
 20
14.81820024645589
 30
0.0
 10
178.187701086314
 20
14.69953570165531
 30
0.0
 10
178.1890040622184
 20
14.57555163512742
 30
0.0
 10
178.1908887351574
 20
14.44858294171106
 30
0.0
 10
178.192500445485
 20
14.32153861551034
 30
0.0
 10
178.194140313743
 20
14.1985488449218
 30
0.0
 10
178.1962570745751
 20
14.08300931383762
 30
0.0
 10
178.1963848422364
 20
13.98090903955839
 30
0.0
 10
178.2006514396554
 20
13.89009848838158
 30
0.0
 10
178.1908440085289
 20
13.83213621208785
 30
0.0
 10
178.211847477169
 20
13.76517130132028
 30
0.0
 10
178.1725639739896
 20
13.77291153966686
 30
0.0
 10
177.9595307117748
 20
13.75755254145195
 30
0.0
 10
177.7636297943186
 20
14.31403058094469
 30
0.0
 10
177.4611197631544
 20
14.57556035348509
 30
0.0
 10
177.3067935648021
 20
14.70898038201722
 30
0.0
 11
177.3067935648021
 21
14.70898038201722
 31
0.0
 11
176.8595529338511
 21
15.18757635411979
 31
0.0
 11
176.4124049070643
 21
15.6635264928897
 31
0.0
 11
176.4089664262494
 21
15.55086249986235
 31
0.0
 11
176.40556101835
 21
15.40557538184311
 31
0.0
 11
176.4029636920274
 21
15.2146564582797
 31
0.0
 11
176.4021126156603
 21
14.96521170139761
 31
0.0
 11
176.4025239230289
 21
14.88439802954285
 31
0.0
 11
176.4038420329817
 21
14.78640628477569
 31
0.0
 11
176.4055192267718
 21
14.67713557299747
 31
0.0
 11
176.4072367127518
 21
14.56282454872041
 31
0.0
 11
176.4094007838772
 21
14.44497802965268
 31
0.0
 11
176.4124049070643
 21
14.32545802100202
 31
0.0
 11
176.4158359733138
 21
14.20933349846157
 31
0.0
 11
176.4192928929998
 21
14.1018674655023
 31
0.0
 11
176.4227085253088
 21
14.00510162351266
 31
0.0
 11
176.4261896983793
 21
13.92125406276972
 31
0.0
 11
176.4296006184313
 21
13.8563286200776
 31
0.0
 11
176.4330776843148
 21
13.81626739612932
 31
0.0
 11
176.3754263821571
 21
13.82145433189187
 31
0.0
 11
176.3126746318309
 21
13.82315538223861
 31
0.0
 11
176.2464251717157
 21
13.82145433189187
 31
0.0
 11
176.1853747739675
 21
13.81626739612932
 31
0.0
 11
176.1926772737812
 21
13.86531894125591
 31
0.0
 11
176.2008793569054
 21
13.9435672572086
 31
0.0
 11
176.2090098822348
 21
14.04551893253031
 31
0.0
 11
176.2163406441397
 21
14.16542920159762
 31
0.0
 11
176.2236358280421
 21
14.30005912343892
 31
0.0
 11
176.2318444255596
 21
14.44586107652751
 31
0.0
 11
176.2395504149465
 21
14.59715203135076
 31
0.0
 11
176.2455763002093
 21
14.74850913200731
 31
0.0
 11
176.2503046247416
 21
14.89817951391436
 31
0.0
 11
176.254192897212
 21
15.0443573958222
 31
0.0
 11
176.2567527408965
 21
15.18111831592696
 31
0.0
 11
176.2576324804574
 21
15.30230850686891
 31
0.0
 11
176.257192610677
 21
15.60939715262548
 31
0.0
 11
176.2559126888347
 21
15.86997204839372
 31
0.0
 11
176.2528658717893
 21
16.0771992271613
 31
0.0
 11
176.2473049112763
 21
16.22421385386062
 31
0.0
 11
176.2615728121469
 21
16.22421385386062
 31
0.0
 11
176.2880703423352
 21
16.22421385386062
 31
0.0
 11
176.3023382432058
 21
16.22421385386062
 31
0.0
 11
176.5194743650277
 21
15.98910179662777
 31
0.0
 11
176.7512744123079
 21
15.73751281231571
 31
0.0
 11
176.9894816018839
 21
15.47949555543575
 31
0.0
 11
177.2260074557521
 21
15.22497079855492
 31
0.0
 11
177.4555698717705
 21
14.9789975954914
 31
0.0
 11
177.6731797360103
 21
14.74678934034111
 31
0.0
 11
177.8713724913707
 21
14.53826680567103
 31
0.0
 11
178.0430143099086
 21
14.36326697932591
 31
0.0
 11
178.0430143099086
 21
14.38918210687045
 31
0.0
 11
178.0430143099086
 21
14.45601585685373
 31
0.0
 11
178.0430143099086
 21
14.54740078030027
 31
0.0
 11
178.0430143099086
 21
14.64696942823455
 31
0.0
 11
178.0430143099086
 21
14.73835435168109
 31
0.0
 11
178.0430143099086
 21
14.80518810166437
 31
0.0
 11
178.0430143099086
 21
14.83110322920891
 31
0.0
 11
178.0417233637609
 21
15.18755430550872
 31
0.0
 11
178.0378461155958
 21
15.53450684014422
 31
0.0
 11
178.0296197790002
 21
15.86693815950553
 31
0.0
 11
178.0154535467228
 21
16.17960510387181
 31
0.0
 11
178.0790351249618
 21
16.16666367158338
 31
0.0
 11
178.1324170159611
 21
16.16238072887612
 31
0.0
 11
178.1805381084833
 21
16.16666367158338
 31
0.0
 11
178.2424836798197
 21
16.17960510387181
 31
0.0
 11
178.2351216487575
 21
16.08498128445103
 31
0.0
 11
178.2269790968818
 21
15.95257496503962
 31
0.0
 11
178.2183705364004
 21
15.79600336785656
 31
0.0
 11
178.2097547223215
 21
15.62916593734272
 31
0.0
 11
178.2016187850288
 21
15.45890325509363
 31
0.0
 11
178.1942501393835
 21
15.292060312427
 31
0.0
 11
178.1891406931522
 21
15.14329943572814
 31
0.0
 11
178.1874503478904
 21
15.02722121527111
 31
0.0
 11
178.1874503478904
 21
14.93258747397526
 31
0.0
 11
178.1874503478904
 21
14.82077565976709
 31
0.0
 11
178.1878461204497
 21
14.70123801222749
 31
0.0
 11
178.1890819450708
 21
14.5766005209392
 31
0.0
 11
178.1908392193317
 21
14.44883212687393
 31
0.0
 11
178.1925303477608
 21
14.32028982655882
 31
0.0
 11
178.1942876220214
 21
14.19558288214557
 31
0.0
 11
178.1959787504505
 21
14.07947489606352
 31
0.0
 11
178.1972884379172
 21
13.97495896727021
 31
0.0
 11
178.1976985420735
 21
13.88517371555651
 31
0.0
 11
178.1976985420735
 21
13.81891763918417
 31
0.0
 11
178.1976985420735
 21
13.7716586461404
 31
0.0
 11
178.1736699662976
 21
13.7716586461404
 31
0.0
 11
178.1496413905217
 21
13.7716586461404
 31
0.0
 11
177.7410729200423
 21
14.23466735262192
 31
0.0
 11
177.3067935648021
 21
14.70898038201722
 31
0.0
  0
SPLINE
  5
B0
102
{ACAD_REACTORS
330
CD
102
}
330
48
100
AcDbEntity
  8
_U_30EC_U_30A4_U_30E4_U_30FC_1
  6
Continuous
 62
     2
100
AcDbSpline
210
0.0
220
0.0
230
1.0
 70
    11
 71
     3
 72
   110
 73
   106
 74
   104
 42
0.000000001
 43
0.0000000001
 44
0.00000001
 40
0.0
 40
0.0
 40
0.0
 40
0.0
 40
0.2203406257277808
 40
0.4407808782838109
 40
0.5952494494615073
 40
0.7488431659393069
 40
0.9023581831309062
 40
1.056801968670405
 40
1.210736449099905
 40
1.363041386539784
 40
1.515315729683126
 40
1.669377239148075
 40
1.721611652756566
 40
1.773199502942996
 40
1.824933793209999
 40
1.87711042648794
 40
1.982682281206702
 40
2.07878166708751
 40
2.17280964082223
 40
2.271937807378883
 40
2.378349933379279
 40
2.494131557736468
 40
2.6266816839436
 40
2.783145050796028
 40
2.890701232940863
 40
2.993130312454725
 40
3.099869730691753
 40
3.220237816691246
 40
3.352695482737509
 40
3.481732806389747
 40
3.593499473690312
 40
3.674323013331772
 40
3.817951711952722
 40
3.946167120793719
 40
4.061405053453405
 40
4.166480796003046
 40
4.26247877505908
 40
4.350736673551038
 40
4.433071991253923
 40
4.511216293814528
 40
4.564262454117866
 40
4.61847441557151
 40
4.670128488754084
 40
4.722296879126253
 40
4.819540945314119
 40
4.931194984127978
 40
5.049996040257618
 40
5.168643755415165
 40
5.283970811762375
 40
5.392260784910201
 40
5.486512254876275
 40
5.559178233949674
 40
5.591425852853313
 40
5.626215969637698
 40
5.667155838674255
 40
5.717449290214101
 40
5.73840236094471
 40
5.784499116553669
 40
5.830595872164635
 40
5.851548942897488
 40
5.873019280661601
 40
5.924217778408143
 40
5.985325662817519
 40
6.036524160567532
 40
6.057994498334058
 40
6.236847789607324
 40
6.381409928945503
 40
6.493190424178514
 40
6.574067534230293
 40
6.691018086205387
 40
6.814881554220305
 40
6.944307823240258
 40
7.071266716065879
 40
7.193488604461726
 40
7.309042773127956
 40
7.414007203170577
 40
7.505140441886326
 40
7.531150360599434
 40
7.55922164532208
 40
7.587202218920671
 40
7.612569159498832
 40
7.662550809480737
 40
7.702878875763888
 40
7.857328205230702
 40
8.010799568088347
 40
8.165256399657297
 40
8.322232698713636
 40
8.479564855016323
 40
8.635216230290526
 40
8.790882550925444
 40
8.94830515494701
 40
9.168271839032695
 40
9.387358980987031
 40
9.608047961033213
 40
9.832914234792435
 40
9.858338694962766
 40
9.925366817229767
 40
10.02013071422734
 40
10.12876249858971
 40
10.2373942829522
 40
10.33215817995161
 40
10.39918630222363
 40
10.42461076239752
 40
10.64992019336911
 40
10.87188524531159
 40
10.87188524531159
 40
10.87188524531159
 40
10.87188524531159
 10
179.9057788376618
 20
15.73923260398192
 30
0.0
 10
179.9092864933541
 20
15.80616462073806
 30
0.0
 10
179.9163033987663
 20
15.94005891915861
 30
0.0
 10
179.8198027599072
 20
16.2254855497147
 30
0.0
 10
180.0510134726108
 20
16.16284386190289
 30
0.0
 10
180.1919290057156
 20
16.17001554056
 30
0.0
 10
180.3490417757588
 20
16.16235883078246
 30
0.0
 10
180.5025913427287
 20
16.16252752283046
 30
0.0
 10
180.6545104935081
 20
16.16182040535434
 30
0.0
 10
180.8142214813231
 20
16.17210158351649
 30
0.0
 10
180.9408972601117
 20
16.15496511080756
 30
0.0
 10
181.1370821122081
 20
16.22727260107148
 30
0.0
 10
181.1034395279078
 20
16.12640699080117
 30
0.0
 10
181.1052011317184
 20
16.0761925394767
 30
0.0
 10
181.1027342073458
 20
16.02712335586467
 30
0.0
 10
181.1347076966011
 20
15.94063490847005
 30
0.0
 10
181.0010399903256
 20
15.9899743860834
 30
0.0
 10
180.9172208688057
 20
15.98430634314171
 30
0.0
 10
180.8173861139324
 20
15.99465516706301
 30
0.0
 10
180.7186576720146
 20
16.00086450411085
 30
0.0
 10
180.612153277111
 20
16.00697763816784
 30
0.0
 10
180.491051169806
 20
16.01588883484592
 30
0.0
 10
180.3703381502453
 20
16.00521605912385
 30
0.0
 10
180.1812553843437
 20
16.06468503080367
 30
0.0
 10
180.2129028505311
 20
15.90558320077543
 30
0.0
 10
180.1995563316834
 20
15.80839128339907
 30
0.0
 10
180.197495842645
 20
15.69634065110106
 30
0.0
 10
180.195818804467
 20
15.57699685629352
 30
0.0
 10
180.1973336794233
 20
15.45032592155113
 30
0.0
 10
180.195658247867
 20
15.3230158801612
 30
0.0
 10
180.2058844271657
 20
15.22451566404468
 30
0.0
 10
180.1779006596582
 20
15.08388702625637
 30
0.0
 10
180.3508029999305
 20
15.139895511341
 30
0.0
 10
180.4645020202772
 20
15.12719951478504
 30
0.0
 10
180.5840151672239
 20
15.13448377051258
 30
0.0
 10
180.6888491425071
 20
15.13878017056764
 30
0.0
 10
180.7843084898612
 20
15.14330568258974
 30
0.0
 10
180.8763823507032
 20
15.15149201146208
 30
0.0
 10
180.9476551782439
 20
15.14643850638113
 30
0.0
 10
181.0544931705685
 20
15.18536425031682
 30
0.0
 10
181.0226603598035
 20
15.10517122005883
 30
0.0
 10
181.0266164503929
 20
15.05562936846037
 30
0.0
 10
181.0234502392013
 20
15.00557478039824
 30
0.0
 10
181.0550791490584
 20
14.9212884761203
 30
0.0
 10
180.9210133677691
 20
14.9742536549516
 30
0.0
 10
180.82923227932
 20
14.96540080890454
 30
0.0
 10
180.7079729189602
 20
14.97570049965155
 30
0.0
 10
180.5914113119771
 20
14.97748911767517
 30
0.0
 10
180.4783375745879
 20
14.97787017109693
 30
0.0
 10
180.3679246308471
 20
14.98415449472187
 30
0.0
 10
180.289812406784
 20
14.97189133255364
 30
0.0
 10
180.1913625833644
 20
15.00453887616127
 30
0.0
 10
180.2012355173561
 20
14.94769748054209
 30
0.0
 10
180.1973923244402
 20
14.91392130557987
 30
0.0
 10
180.1966789884269
 20
14.87119604709413
 30
0.0
 10
180.1963369642975
 20
14.83401607262153
 30
0.0
 10
180.1963834255345
 20
14.79487237370769
 30
0.0
 10
180.1963649429927
 20
14.75716849497686
 30
0.0
 10
180.1963703431806
 20
14.71944955232403
 30
0.0
 10
180.19636972142
 20
14.6899432474515
 30
0.0
 10
180.1963698151545
 20
14.65873577699302
 30
0.0
 10
180.196370428792
 20
14.61414424908086
 30
0.0
 10
180.1963671499337
 20
14.55963956508853
 30
0.0
 10
180.196375962348
 20
14.51505540201449
 30
0.0
 10
180.1963359653417
 20
14.43117808585742
 30
0.0
 10
180.1976024270255
 20
14.31737520677679
 30
0.0
 10
180.1950274117842
 20
14.1683039593371
 30
0.0
 10
180.2065009381719
 20
14.06597203813908
 30
0.0
 10
180.1823506222264
 20
13.93338903885839
 30
0.0
 10
180.3332993946476
 20
13.97895732272026
 30
0.0
 10
180.4428436671556
 20
13.96427012162354
 30
0.0
 10
180.573397047392
 20
13.96920435125072
 30
0.0
 10
180.6990312209514
 20
13.97257705323356
 30
0.0
 10
180.8188730625601
 20
13.97711497498778
 30
0.0
 10
180.9391362611426
 20
13.99048536182015
 30
0.0
 10
181.0222761663515
 20
13.98068712782599
 30
0.0
 10
181.1456080421075
 20
14.04126214623317
 30
0.0
 10
181.1244269203956
 20
13.98532460134021
 30
0.0
 10
181.1235950270117
 20
13.95939249372348
 30
0.0
 10
181.1218963707558
 20
13.93197256190943
 30
0.0
 10
181.1217974888829
 20
13.89738195206392
 30
0.0
 10
181.120365930133
 20
13.86050408220775
 30
0.0
 10
181.1532804192189
 20
13.76846841021811
 30
0.0
 10
180.9551306988108
 20
13.84132015974834
 30
0.0
 10
180.830054829489
 20
13.81825726508604
 30
0.0
 10
180.6673071295156
 20
13.82454021985784
 30
0.0
 10
180.5129366450001
 20
13.82260943909925
 30
0.0
 10
180.3566670436943
 20
13.82393762599266
 30
0.0
 10
180.1970544465282
 20
13.8205987248786
 30
0.0
 10
180.0540326342237
 20
13.83265795728243
 30
0.0
 10
179.8197144881628
 20
13.76952001976924
 30
0.0
 10
179.9173810751198
 20
14.05620527466325
 30
0.0
 10
179.9006868780058
 20
14.24988308142667
 30
0.0
 10
179.9146296709684
 20
14.47848242880303
 30
0.0
 10
179.9142987846632
 20
14.63384593955054
 30
0.0
 10
179.9143078119263
 20
14.73966336444132
 30
0.0
 10
179.9143055876316
 20
14.8020578412422
 30
0.0
 10
179.9143065551888
 20
14.89220425248332
 30
0.0
 10
179.9143065473261
 20
14.99621167157441
 30
0.0
 10
179.9143053861102
 20
15.10022131375298
 30
0.0
 10
179.9143090971502
 20
15.19036243688769
 30
0.0
 10
179.9143011051051
 20
15.25276803097215
 30
0.0
 10
179.9143334275018
 20
15.35868835961119
 30
0.0
 10
179.9131440788319
 20
15.5162671654474
 30
0.0
 10
179.9082216489256
 20
15.66528219822066
 30
0.0
 10
179.9057788376618
 20
15.73923260398192
 30
0.0
 11
179.9057788376618
 21
15.73923260398192
 31
0.0
 11
179.896691822374
 21
15.9593857810102
 31
0.0
 11
179.8868249573133
 21
16.17960510387181
 31
0.0
 11
180.04115751414
 21
16.17312391463734
 31
0.0
 11
180.1946500189046
 21
16.16754892331932
 31
0.0
 11
180.3481160653366
 21
16.16367167505635
 31
0.0
 11
180.5025544554939
 21
16.16238072887612
 31
0.0
 11
180.6564835227473
 21
16.16367167505635
 31
0.0
 11
180.80873910046
 21
16.16754892331932
 31
0.0
 11
180.9609113551074
 21
16.17312391463734
 31
0.0
 11
181.1148364762483
 21
16.17960510387181
 31
0.0
 11
181.1070811703123
 21
16.1279496177736
 31
0.0
 11
181.1044991623591
 21
16.07642642334201
 31
0.0
 11
181.1070811703123
 21
16.02475660564662
 31
0.0
 11
181.1148364762483
 21
15.9731595483679
 31
0.0
 11
181.0094874054411
 21
15.98001446156061
 31
0.0
 11
180.913637570006
 21
15.9869355205866
 31
0.0
 11
180.8198593171903
 21
15.99378381919601
 31
0.0
 11
180.7209679915881
 21
16.0006321178054
 31
0.0
 11
180.6147532199924
 21
16.00710999974829
 31
0.0
 11
180.4991060528038
 21
16.012688298358
 31
0.0
 11
180.3666126447258
 21
16.0165655466209
 31
0.0
 11
180.2101546018423
 21
16.01785649280112
 31
0.0
 11
180.2062663293721
 21
15.91037061609189
 31
0.0
 11
180.20153800484
 21
15.8080507289647
 31
0.0
 11
180.1976607566749
 21
15.70138175329688
 31
0.0
 11
180.1963698105272
 21
15.58102059013251
 31
0.0
 11
180.1967799146836
 21
15.44856355891568
 31
0.0
 11
180.1980896021502
 21
15.3195328818646
 31
0.0
 11
180.1994074577049
 21
15.2077739843231
 31
0.0
 11
180.199819115366
 21
15.12695149302391
 31
0.0
 11
180.3434452935874
 21
15.12780256941255
 31
0.0
 11
180.4716343930758
 21
15.13039989580082
 31
0.0
 11
180.5868078221795
 21
15.13425509545258
 31
0.0
 11
180.691775631222
 21
15.13901649302082
 31
0.0
 11
180.7876346289421
 21
15.14418027774176
 31
0.0
 11
180.8757413374193
 21
15.14934406246272
 31
0.0
 11
180.9578881438496
 21
15.15491243919743
 31
0.0
 11
181.0357692335571
 21
15.16132086801531
 31
0.0
 11
181.0280180445186
 21
15.10884407115342
 31
0.0
 11
181.0254328449317
 21
15.0546937847086
 31
0.0
 11
181.0280180445186
 21
15.00310444444372
 31
0.0
 11
181.0357692335571
 21
14.9515151041789
 31
0.0
 11
180.9389813454014
 21
14.96092324653763
 31
0.0
 11
180.8275950722015
 21
14.96865128473021
 31
0.0
 11
180.7089261429373
 21
14.97425273438151
 31
0.0
 11
180.5903167449213
 21
14.97726788195021
 31
0.0
 11
180.4750025117521
 21
14.97898767361641
 31
0.0
 11
180.36672619507
 21
14.98070746528262
 31
0.0
 11
180.2724839317708
 21
14.98202486979618
 31
0.0
 11
180.199819115366
 21
14.9824360763933
 31
0.0
 11
180.199407457705
 21
14.95019108508195
 31
0.0
 11
180.1980896021502
 21
14.91542593752121
 31
0.0
 11
180.1967799146836
 21
14.87450702260087
 31
0.0
 11
180.1963698105272
 21
14.8242152430995
 31
0.0
 11
180.1963698105272
 21
14.80326217235821
 31
0.0
 11
180.1963698105272
 21
14.75716541672736
 31
0.0
 11
180.1963698105272
 21
14.71106866109651
 31
0.0
 11
180.1963698105272
 21
14.69011559035522
 31
0.0
 11
180.1963698105272
 21
14.66864525258281
 31
0.0
 11
180.1963698105272
 21
14.61744675481785
 31
0.0
 11
180.1963698105272
 21
14.55633887038869
 31
0.0
 11
180.1963698105272
 21
14.50514037262372
 31
0.0
 11
180.1963698105272
 21
14.48367003485132
 31
0.0
 11
180.1967799146836
 21
14.30481721371548
 31
0.0
 11
180.1980896021502
 21
14.16026100715442
 31
0.0
 11
180.2002868589709
 21
14.04850210961291
 31
0.0
 11
180.2032586986985
 21
13.9676796183137
 31
0.0
 11
180.3202092517447
 21
13.9676796183137
 31
0.0
 11
180.4440727208746
 21
13.9676796183137
 31
0.0
 11
180.5734925526422
 21
13.96897056449395
 31
0.0
 11
180.7003922282244
 21
13.97284781275681
 31
0.0
 11
180.8224658067973
 21
13.9788670835887
 31
0.0
 11
180.9377587499463
 21
13.9866326044201
 31
0.0
 11
181.0421754573518
 21
13.99734161483405
 31
0.0
 11
181.1320599255448
 21
14.01237656274691
 31
0.0
 11
181.1264254031191
 21
13.98698427976719
 31
0.0
 11
181.1234433285423
 21
13.959071840538
 31
0.0
 11
181.12213398812
 21
13.93112191867007
 31
0.0
 11
181.1217235369195
 21
13.90575829888482
 31
0.0
 11
181.1243087365064
 21
13.85584355063333
 31
0.0
 11
181.1320599255448
 21
13.81626739612932
 31
0.0
 11
180.9776977178344
 21
13.82145433189187
 31
0.0
 11
180.8242357818765
 21
13.82315538223861
 31
0.0
 11
180.6697789496483
 21
13.82315538223861
 31
0.0
 11
180.5128026496768
 21
13.82315538223861
 31
0.0
 11
180.3554704921536
 21
13.82315538223861
 31
0.0
 11
180.199819115366
 21
13.82315538223861
 31
0.0
 11
180.0441620874241
 21
13.82145433189187
 31
0.0
 11
179.8868249573133
 21
13.81626739612932
 31
0.0
 11
179.896691822374
 21
14.03601267385215
 31
0.0
 11
179.9057788376618
 21
14.25491128490862
 31
0.0
 11
179.91217215184
 21
14.47550763902007
 31
0.0
 11
179.9143063455009
 21
14.70036378479722
 31
0.0
 11
179.9143063455009
 21
14.72578824496881
 31
0.0
 11
179.9143063455009
 21
14.79281636723937
 31
0.0
 11
179.9143063455009
 21
14.88758026424258
 31
0.0
 11
179.9143063455009
 21
14.99621204861211
 31
0.0
 11
179.9143063455009
 21
15.10484383298164
 31
0.0
 11
179.9143063455009
 21
15.19960772998485
 31
0.0
 11
179.9143063455009
 21
15.26663585225541
 31
0.0
 11
179.9143063455009
 21
15.292060312427
 31
0.0
 11
179.91217215184
 21
15.51735963528733
 31
0.0
 11
179.9057788376618
 21
15.73923260398192
 31
0.0
  0
SPLINE
  5
B1
102
{ACAD_REACTORS
330
CE
102
}
330
48
100
AcDbEntity
  8
_U_30EC_U_30A4_U_30E4_U_30FC_1
  6
Continuous
 62
     2
100
AcDbSpline
210
0.0
220
0.0
230
1.0
 70
    11
 71
     3
 72
    47
 73
    43
 74
    41
 42
0.000000001
 43
0.0000000001
 44
0.00000001
 40
0.0
 40
0.0
 40
0.0
 40
0.0
 40
0.220791280995645
 40
0.4459404186302456
 40
0.4902387190458624
 40
0.5327473892721549
 40
0.5742260451224908
 40
0.6155432630560197
 40
0.6568164066315112
 40
0.698251161878007
 40
0.740766392931655
 40
0.7851366743174564
 40
1.010288833836273
 40
1.231080507002047
 40
1.4517652436523
 40
1.676638205891591
 40
1.720461045359564
 40
1.830018144043429
 40
1.972442372353062
 40
2.114866600677435
 40
2.224423699395063
 40
2.268246538883303
 40
2.493628801207176
 40
2.715602830286573
 40
2.93421133070632
 40
3.14950236985527
 40
3.231387784850914
 40
3.318231873853949
 40
3.405143198197937
 40
3.486970301720371
 40
3.70225817249377
 40
3.920866283533995
 40
4.142839325931782
 40
4.368221903865286
 40
4.412044743359767
 40
4.521601842095783
 40
4.664026070452265
 40
4.806450298808977
 40
4.916007397546672
 40
4.959830237042996
 40
5.184703515847036
 40
5.405387250767435
 40
5.405387250767435
 40
5.405387250767435
 40
5.405387250767435
 10
182.6507427258645
 20
15.7340644095388
 30
0.0
 10
182.6568139420002
 20
15.79758482501217
 30
0.0
 10
182.6690762107242
 20
15.92587938689633
 30
0.0
 10
182.5604706879411
 20
16.20166220174074
 30
0.0
 10
182.6761985896604
 20
16.17188133432058
 30
0.0
 10
182.7171842509015
 20
16.16765556262829
 30
0.0
 10
182.7591205797518
 20
16.16310446389609
 30
0.0
 10
182.800419662571
 20
16.16201982929491
 30
0.0
 10
182.8417032115555
 20
16.16310338195229
 30
0.0
 10
182.8836148270647
 20
16.16766112711353
 30
0.0
 10
182.9245983549019
 20
16.17187430209733
 30
0.0
 10
183.0404922843489
 20
16.20177611317532
 30
0.0
 10
182.9295652727456
 20
15.92339806609895
 30
0.0
 10
182.9574856365267
 20
15.74283140824957
 30
0.0
 10
182.9404267346969
 20
15.50961042346477
 30
0.0
 10
182.9414637282103
 20
15.34906622543152
 30
0.0
 10
182.9414099399404
 20
15.22284817558726
 30
0.0
 10
182.9414277372481
 20
15.12428963336246
 30
0.0
 10
182.941418858108
 20
14.99280702442967
 30
0.0
 10
182.9414263928034
 20
14.86132844968654
 30
0.0
 10
182.9414129405128
 20
14.76276222694094
 30
0.0
 10
182.9414531717493
 20
14.63639735624155
 30
0.0
 10
182.9406746403817
 20
14.47482068822871
 30
0.0
 10
182.9565958319266
 20
14.24361821892914
 30
0.0
 10
182.9333468885407
 20
14.05874351972003
 30
0.0
 10
183.0360183444366
 20
13.78935602770062
 30
0.0
 10
182.8820238362836
 20
13.82660112685819
 30
0.0
 10
182.8004129802832
 20
13.82137994680532
 30
0.0
 10
182.7188192292582
 20
13.82660620378353
 30
0.0
 10
182.5648513666842
 20
13.78937069885393
 30
0.0
 10
182.6674183421918
 20
14.05875129862881
 30
0.0
 10
182.6442045316088
 20
14.24361585325415
 30
0.0
 10
182.6600444655138
 20
14.47482218565639
 30
0.0
 10
182.6593296313427
 20
14.63639712308506
 30
0.0
 10
182.6593664569907
 20
14.76276231210525
 30
0.0
 10
182.6593549000271
 20
14.86132756635986
 30
0.0
 10
182.6593575019213
 20
14.99281127417224
 30
0.0
 10
182.6593648531779
 20
15.12427548031205
 30
0.0
 10
182.6593442541351
 20
15.2228778627533
 30
0.0
 10
182.6594082192028
 20
15.34896149354432
 30
0.0
 10
182.6581733947591
 20
15.51210091383777
 30
0.0
 10
182.6532040396744
 20
15.66054183777557
 30
0.0
 10
182.6507427258645
 20
15.7340644095388
 30
0.0
 11
182.6507427258645
 21
15.7340644095388
 31
0.0
 11
182.6417328200379
 21
15.95467178795577
 31
0.0
 11
182.6318769706146
 21
16.17960510387181
 31
0.0
 11
182.6756985840801
 21
16.17312391463734
 31
0.0
 11
182.7178400934215
 21
16.16754892331932
 31
0.0
 11
182.759137140979
 21
16.16367167505635
 31
0.0
 11
182.8004341885365
 21
16.16238072887612
 31
0.0
 11
182.841687138873
 21
16.16367167505635
 31
0.0
 11
182.8829400892097
 21
16.16754892331932
 31
0.0
 11
182.9250882131343
 21
16.17312391463734
 31
0.0
 11
182.9689825870145
 21
16.17960510387181
 31
0.0
 11
182.9590577693891
 21
15.95467178795577
 31
0.0
 11
182.950038420831
 21
15.7340644095388
 31
0.0
 11
182.9435638463435
 21
15.5134746700106
 31
0.0
 11
182.9414218238286
 21
15.28861190965012
 31
0.0
 11
182.9414218238286
 21
15.2447890701549
 31
0.0
 11
182.9414218238286
 21
15.13523197141687
 31
0.0
 11
182.9414218238286
 21
14.99280774305742
 31
0.0
 11
182.9414218238286
 21
14.85038351469796
 31
0.0
 11
182.9414218238286
 21
14.74082641595992
 31
0.0
 11
182.9414218238286
 21
14.69700357646471
 31
0.0
 11
182.9435638463435
 21
14.47163149318766
 31
0.0
 11
182.950038420831
 21
14.2497519099098
 31
0.0
 11
182.9590577693891
 21
14.0313295488533
 31
0.0
 11
182.9689825870145
 21
13.81626739612932
 31
0.0
 11
182.887261616877
 21
13.82145433189187
 31
0.0
 11
182.8004341885365
 21
13.82315538223861
 31
0.0
 11
182.7135395119339
 21
13.82145433189187
 31
0.0
 11
182.6318769706146
 21
13.81626739612932
 31
0.0
 11
182.6417328200379
 21
14.0313295488533
 31
0.0
 11
182.6507427258645
 21
14.2497519099098
 31
0.0
 11
182.6571833838798
 21
14.47163149318766
 31
0.0
 11
182.6593583588023
 21
14.69700357646471
 31
0.0
 11
182.6593583588023
 21
14.74082641595992
 31
0.0
 11
182.6593583588023
 21
14.85038351469797
 31
0.0
 11
182.6593583588023
 21
14.99280774305741
 31
0.0
 11
182.6593583588023
 21
15.13523197141686
 31
0.0
 11
182.6593583588023
 21
15.2447890701549
 31
0.0
 11
182.6593583588023
 21
15.28861190965012
 31
0.0
 11
182.6571833838798
 21
15.5134746700106
 31
0.0
 11
182.6507427258645
 21
15.7340644095388
 31
0.0
  0
SPLINE
  5
B2
102
{ACAD_REACTORS
330
CF
102
}
330
48
100
AcDbEntity
  8
_U_30EC_U_30A4_U_30E4_U_30FC_1
  6
Continuous
 62
     2
100
AcDbSpline
210
0.0
220
0.0
230
1.0
 70
    11
 71
     3
 72
   118
 73
   114
 74
   112
 42
0.000000001
 43
0.0000000001
 44
0.00000001
 40
0.0
 40
0.0
 40
0.0
 40
0.0
 40
0.1054708162973325
 40
0.2466098270051825
 40
0.3965912874591192
 40
0.5285525069754007
 40
0.6156245055642277
 40
0.6431434105797589
 40
0.7036850037986293
 40
0.764226598450469
 40
0.7917455052354995
 40
0.9287404319990056
 40
1.106572819088065
 40
1.287544879681038
 40
1.317578308030555
 40
1.399928030857195
 40
1.522968204799973
 40
1.675072986590598
 40
1.844616533180681
 40
2.019973001638746
 40
2.189516548880064
 40
2.341621331585404
 40
2.464661506320544
 40
2.547011229647111
 40
2.577044658168075
 40
2.603797890893146
 40
2.662655002908833
 40
2.721512114949645
 40
2.748265347702825
 40
2.774215307344903
 40
2.845959313407239
 40
2.954338556588446
 40
3.090194227585634
 40
3.24436751710061
 40
3.407699615844383
 40
3.571031714539544
 40
3.72520500392023
 40
3.861060674729742
 40
3.969439917716445
 40
4.041183923629122
 40
4.067133883213117
 40
4.311886746012327
 40
4.547897258335691
 40
4.764747083044142
 40
4.952749679951992
 40
5.045772974196154
 40
5.13786201964523
 40
5.330543169793285
 40
5.553448265244282
 40
5.795083855888448
 40
6.043293412177518
 40
6.285761695541475
 40
6.313902908752959
 40
6.384255941793548
 40
6.475714884767137
 40
6.567173827759199
 40
6.637526860839977
 40
6.665668074074341
 40
6.69201892032832
 40
6.749990782071404
 40
6.807962643790787
 40
6.834313490018267
 40
6.856393084245545
 40
6.913335195650169
 40
6.991194817302833
 40
7.076026942284094
 40
7.153886563725584
 40
7.210828674845167
 40
7.232908268931502
 40
7.258199334924023
 40
7.324875781592666
 40
7.419142481925316
 40
7.52720430884225
 40
7.635266135230821
 40
7.7295328341688
 40
7.796209279293119
 40
7.821500344595061
 40
7.844652988851132
 40
7.89986314054191
 40
7.965759128054074
 40
8.020969279771357
 40
8.044121924046824
 40
8.069356610160998
 40
8.10913439544177
 40
8.132238100191477
 40
8.193147867786832
 40
8.279261678876994
 40
8.377977512674192
 40
8.476693347146963
 40
8.562807160412003
 40
8.623716930826777
 40
8.646820636853729
 40
8.671988793774542
 40
8.734909185828453
 40
8.816705695189167
 40
8.898502204815738
 40
8.9614225973782
 40
8.986590754551312
 40
9.012941600733473
 40
9.070913462380572
 40
9.12888532408208
 40
9.155236170325407
 40
9.18040432792945
 40
9.243324721948524
 40
9.325121234212316
 40
9.406917746637971
 40
9.469838141978427
 40
9.4950062882712
 40
9.517811184379346
 40
9.572192090487354
 40
9.63709833328159
 40
9.691479239515798
 40
9.714284125643841
 40
9.714284125643841
 40
9.714284125643841
 40
9.714284125643841
 10
185.2874469028653
 20
15.26889163187721
 30
0.0
 10
185.3090990569037
 20
15.24111869242813
 30
0.0
 10
185.3597257109473
 20
15.17618054561238
 30
0.0
 10
185.4349383202591
 20
15.06891060312901
 30
0.0
 10
185.5248482274347
 20
14.95377438266627
 30
0.0
 10
185.5709169676672
 20
14.85357045748321
 30
0.0
 10
185.6655825294655
 20
14.78434006814944
 30
0.0
 10
185.6204439320412
 20
14.73771639678275
 30
0.0
 10
185.594704778579
 20
14.6966030886604
 30
0.0
 10
185.5645196708012
 20
14.6606597172794
 30
0.0
 10
185.5193684730561
 20
14.58579782596093
 30
0.0
 10
185.4710504458563
 20
14.80782524253608
 30
0.0
 10
185.3968539713072
 20
14.84510677337712
 30
0.0
 10
185.2836047324607
 20
15.11610202130599
 30
0.0
 10
185.2885133578169
 20
15.00095328446228
 30
0.0
 10
185.2868486556306
 20
14.92836675781627
 30
0.0
 10
185.2876830076714
 20
14.80625588483986
 30
0.0
 10
185.2873609540264
 20
14.65913800810459
 30
0.0
 10
185.2875076912455
 20
14.49307063956556
 30
0.0
 10
185.2872950092722
 20
14.321875546086
 30
0.0
 10
185.2879497252034
 20
14.15552828635496
 30
0.0
 10
185.2859192461139
 20
14.00935173055691
 30
0.0
 10
185.291346039993
 20
13.88471047474608
 30
0.0
 10
185.2804930868707
 20
13.81718656540624
 30
0.0
 10
185.2956739155555
 20
13.75549061417019
 30
0.0
 10
185.2457895108133
 20
13.76727503896998
 30
0.0
 10
185.2017150342522
 20
13.75943822779966
 30
0.0
 10
185.1582371630201
 20
13.767604413727
 30
0.0
 10
185.1092346786488
 20
13.75538056738465
 30
0.0
 10
185.1218731234825
 20
13.8096066724931
 30
0.0
 10
185.1130182968449
 20
13.86936918907556
 30
0.0
 10
185.1175058770313
 20
13.97922029044368
 30
0.0
 10
185.1157960135991
 20
14.11029975405678
 30
0.0
 10
185.1163550915986
 20
14.26198011444328
 30
0.0
 10
185.1161928768694
 20
14.42211074929956
 30
0.0
 10
185.1162269924674
 20
14.58236865674569
 30
0.0
 10
185.1162514960127
 20
14.73370247520444
 30
0.0
 10
185.1161453543226
 20
14.86582156338607
 30
0.0
 10
185.116429914193
 20
14.97294802533199
 30
0.0
 10
185.1158675547568
 20
15.03808619579481
 30
0.0
 10
185.1180765083688
 20
15.16618957858682
 30
0.0
 10
185.0319435998603
 20
14.79097610391581
 30
0.0
 10
184.9555140818499
 20
14.63918193123399
 30
0.0
 10
184.8660040767833
 20
14.47766206446309
 30
0.0
 10
184.7640413217326
 20
14.20471848820166
 30
0.0
 10
184.7187976491039
 20
14.36717346596512
 30
0.0
 10
184.610235594167
 20
14.45605432058121
 30
0.0
 10
184.7995791751753
 20
14.60549794961411
 30
0.0
 10
184.85653405457
 20
14.79749136974927
 30
0.0
 10
184.9717520993352
 20
15.0289962290676
 30
0.0
 10
184.9940151630132
 20
15.21797259759067
 30
0.0
 10
185.1771905152139
 20
15.49454089325934
 30
0.0
 10
185.0538033597552
 20
15.48698978832099
 30
0.0
 10
184.9925684166834
 20
15.48856772366124
 30
0.0
 10
184.9081999617064
 20
15.48882592573677
 30
0.0
 10
184.8204235085966
 20
15.48544845751211
 30
0.0
 10
184.7656768696122
 20
15.49394814982025
 30
0.0
 10
184.7104703026025
 20
15.48048561049793
 30
0.0
 10
184.7222823035536
 20
15.52931442126769
 30
0.0
 10
184.7142496151794
 20
15.57269004896715
 30
0.0
 10
184.7228186104679
 20
15.61509438309581
 30
0.0
 10
184.7102943409157
 20
15.66267796552127
 30
0.0
 10
184.7555101538735
 20
15.65267212995118
 30
0.0
 10
184.8014815562723
 20
15.6589410517407
 30
0.0
 10
184.8777222047709
 20
15.65593561405881
 30
0.0
 10
184.9561296131994
 20
15.6577044827855
 30
0.0
 10
185.0323992648932
 20
15.65464793981669
 30
0.0
 10
185.0783009459475
 20
15.66103971376186
 30
0.0
 10
185.12317339654
 20
15.65093822978905
 30
0.0
 10
185.1105552275633
 20
15.70157201581907
 30
0.0
 10
185.1191936582707
 20
15.75501261882078
 30
0.0
 10
185.1152361595442
 20
15.84863255131688
 30
0.0
 10
185.1162325068335
 20
15.95112606688931
 30
0.0
 10
185.1171927413072
 20
16.05353270248169
 30
0.0
 10
185.1133211458006
 20
16.14735929609327
 30
0.0
 10
185.1217789814363
 20
16.20036542840358
 30
0.0
 10
185.1093075932836
 20
16.25211435651193
 30
0.0
 10
185.1542106389849
 20
16.23850747226763
 30
0.0
 10
185.1955083836772
 20
16.24100480320593
 30
0.0
 10
185.259534428105
 20
16.23648060574496
 30
0.0
 10
185.2986111148787
 20
16.22781003043319
 30
0.0
 10
185.3476543498742
 20
16.23515102070698
 30
0.0
 10
185.3225080030591
 20
16.19602896051758
 30
0.0
 10
185.2815901333723
 20
16.20563842455809
 30
0.0
 10
185.2910109616604
 20
16.1554014816978
 30
0.0
 10
185.2855647318746
 20
16.10385945639492
 30
0.0
 10
185.2881699601804
 20
16.01959707584524
 30
0.0
 10
185.2870102202154
 20
15.92559135583413
 30
0.0
 10
185.2883591064231
 20
15.83196865395532
 30
0.0
 10
185.2849970101509
 20
15.74679517552231
 30
0.0
 10
185.2920959917769
 20
15.69716856072053
 30
0.0
 10
185.2812569154545
 20
15.64993694969998
 30
0.0
 10
185.3304010225245
 20
15.66201674936861
 30
0.0
 10
185.3794877630147
 20
15.6544739336302
 30
0.0
 10
185.4573714280642
 20
15.65686070361442
 30
0.0
 10
185.5350365172896
 20
15.65899381905423
 30
0.0
 10
185.5845393931355
 20
15.65193391922464
 30
0.0
 10
185.6344594750639
 20
15.66360151936223
 30
0.0
 10
185.6223198516881
 20
15.61540235371401
 30
0.0
 10
185.6305838229143
 20
15.57249219801242
 30
0.0
 10
185.6223198650784
 20
15.52958201851391
 30
0.0
 10
185.6344594549853
 20
15.48138288754869
 30
0.0
 10
185.5845395158746
 20
15.49305034471516
 30
0.0
 10
185.5350350651202
 20
15.48599202435051
 30
0.0
 10
185.4573784382973
 20
15.48811665228608
 30
0.0
 10
185.379464386576
 20
15.49053389365765
 30
0.0
 10
185.3304500352716
 20
15.48291848194491
 30
0.0
 10
185.2813246108943
 20
15.49507952557597
 30
0.0
 10
185.2915559988571
 20
15.45073013424162
 30
0.0
 10
185.2856677678053
 20
15.40925436202915
 30
0.0
 10
185.2878788305569
 20
15.34915394315306
 30
0.0
 10
185.2874109346145
 20
15.30225782762891
 30
0.0
 10
185.2874386992913
 20
15.27650146418198
 30
0.0
 10
185.2874469028653
 20
15.26889163187721
 30
0.0
 11
185.2874469028653
 21
15.26889163187721
 31
0.0
 11
185.3516977534484
 21
15.18524999634259
 31
0.0
 11
185.4348258835499
 21
15.07118889748224
 31
0.0
 11
185.5216831568896
 21
14.94891767195726
 31
0.0
 11
185.5971214371872
 21
14.84064565642878
 31
0.0
 11
185.6459925881626
 21
14.76858218755791
 31
0.0
 11
185.6296821285093
 21
14.746417821244
 31
0.0
 11
185.5937991172719
 21
14.6976562153534
 31
0.0
 11
185.5579161060346
 21
14.64889460946281
 31
0.0
 11
185.5416056463813
 21
14.6267302431489
 31
0.0
 11
185.4763067109446
 21
14.74716139023815
 31
0.0
 11
185.3848434243234
 21
14.8996698367021
 31
0.0
 11
185.2874469028653
 21
15.05219788193142
 31
0.0
 11
185.2874469028653
 21
15.02216445328253
 31
0.0
 11
185.2874469028653
 21
14.93981472956783
 31
0.0
 11
185.2874469028653
 21
14.81677455413527
 31
0.0
 11
185.2874469028653
 21
14.66466977033282
 31
0.0
 11
185.2874469028653
 21
14.49512622150844
 31
0.0
 11
185.2874469028653
 21
14.31976975101007
 31
0.0
 11
185.2874469028653
 21
14.15022620218569
 31
0.0
 11
185.2874469028653
 21
13.99812141838324
 31
0.0
 11
185.2874469028653
 21
13.87508124295068
 31
0.0
 11
185.2874469028653
 21
13.79273151923598
 31
0.0
 11
185.2874469028653
 21
13.76269809058709
 31
0.0
 11
185.2606936700409
 21
13.76269809058709
 31
0.0
 11
185.2018365578272
 21
13.76269809058709
 31
0.0
 11
185.1429794456134
 21
13.76269809058709
 31
0.0
 11
185.116226212789
 21
13.76269809058709
 31
0.0
 11
185.116226212789
 21
13.78864805031247
 31
0.0
 11
185.116226212789
 21
13.86039205661205
 31
0.0
 11
185.116226212789
 21
13.968771300171
 31
0.0
 11
185.116226212789
 21
14.10462697167447
 31
0.0
 11
185.116226212789
 21
14.25880026180762
 31
0.0
 11
185.116226212789
 21
14.42213236125561
 31
0.0
 11
185.116226212789
 21
14.58546446070359
 31
0.0
 11
185.116226212789
 21
14.73963775083674
 31
0.0
 11
185.116226212789
 21
14.87549342234021
 31
0.0
 11
185.116226212789
 21
14.98387266589916
 31
0.0
 11
185.116226212789
 21
15.05561667219874
 31
0.0
 11
185.116226212789
 21
15.08156663192412
 31
0.0
 11
185.0379865861721
 21
14.84965603302377
 31
0.0
 11
184.9497110789303
 21
14.63077616328683
 31
0.0
 11
184.8544106930045
 21
14.4359899133355
 31
0.0
 11
184.7550964303356
 21
14.276360173792
 31
0.0
 11
184.7109198342406
 21
14.35822446196601
 31
0.0
 11
184.658805738348
 21
14.43414885430812
 31
0.0
 11
184.7627302590299
 21
14.59640087926759
 31
0.0
 11
184.8629319864735
 21
14.79551465421783
 31
0.0
 11
184.9550446607901
 21
15.01890447916199
 31
0.0
 11
185.0347020220912
 21
15.25398465410323
 31
0.0
 11
185.097537810488
 21
15.4881694790447
 31
0.0
 11
185.0693965972142
 21
15.4881694790447
 31
0.0
 11
184.9990435640297
 21
15.4881694790447
 31
0.0
 11
184.9075846208898
 21
15.4881694790447
 31
0.0
 11
184.8161256777499
 21
15.4881694790447
 31
0.0
 11
184.7457726445654
 21
15.4881694790447
 31
0.0
 11
184.7176314312916
 21
15.4881694790447
 31
0.0
 11
184.7176314312916
 21
15.51452032539228
 31
0.0
 11
184.7176314312916
 21
15.57249218735696
 31
0.0
 11
184.7176314312916
 21
15.63046404932163
 31
0.0
 11
184.7176314312916
 21
15.65681489566921
 31
0.0
 11
184.739711025602
 21
15.65681489566921
 31
0.0
 11
184.7966531372444
 21
15.65681489566921
 31
0.0
 11
184.8745127592862
 21
15.65681489566921
 31
0.0
 11
184.9593448847944
 21
15.65681489566921
 31
0.0
 11
185.0372045068361
 21
15.65681489566921
 31
0.0
 11
185.0941466184786
 21
15.65681489566921
 31
0.0
 11
185.116226212789
 21
15.65681489566921
 31
0.0
 11
185.116226212789
 21
15.68210596174362
 31
0.0
 11
185.116226212789
 21
15.74878240866705
 31
0.0
 11
185.116226212789
 21
15.84304910948984
 31
0.0
 11
185.116226212789
 21
15.95111093726231
 31
0.0
 11
185.116226212789
 21
16.05917276503478
 31
0.0
 11
185.116226212789
 21
16.15343946585757
 31
0.0
 11
185.116226212789
 21
16.220115912781
 31
0.0
 11
185.116226212789
 21
16.24540697885541
 31
0.0
 11
185.1393181988665
 21
16.24373213107806
 31
0.0
 11
185.1943837041284
 21
16.23973826330129
 31
0.0
 11
185.2601070491184
 21
16.23497138885804
 31
0.0
 11
185.3151725543802
 21
16.23097752108128
 31
0.0
 11
185.3382645404578
 21
16.22930267330392
 31
0.0
 11
185.3249012644362
 21
16.20789677921192
 31
0.0
 11
185.2874469028653
 21
16.1945011455347
 31
0.0
 11
185.2874469028653
 21
16.17139743948579
 31
0.0
 11
185.2874469028653
 21
16.11048766899322
 31
0.0
 11
185.2874469028653
 21
16.0243738555382
 31
0.0
 11
185.2874469028653
 21
15.92565802060196
 31
0.0
 11
185.2874469028653
 21
15.82694218566571
 31
0.0
 11
185.2874469028653
 21
15.74082837221069
 31
0.0
 11
185.2874469028653
 21
15.67991860171812
 31
0.0
 11
185.2874469028653
 21
15.65681489566921
 31
0.0
 11
185.3126150604809
 21
15.65681489566921
 31
0.0
 11
185.3755354545199
 21
15.65681489566921
 31
0.0
 11
185.4573319667706
 21
15.65681489566921
 31
0.0
 11
185.5391284790212
 21
15.65681489566921
 31
0.0
 11
185.6020488730602
 21
15.65681489566921
 31
0.0
 11
185.6272170306758
 21
15.65681489566921
 31
0.0
 11
185.6272170306758
 21
15.63046404932163
 31
0.0
 11
185.6272170306758
 21
15.57249218735696
 31
0.0
 11
185.6272170306758
 21
15.51452032539228
 31
0.0
 11
185.6272170306758
 21
15.4881694790447
 31
0.0
 11
185.6020488730602
 21
15.4881694790447
 31
0.0
 11
185.5391284790212
 21
15.4881694790447
 31
0.0
 11
185.4573319667705
 21
15.4881694790447
 31
0.0
 11
185.3755354545199
 21
15.4881694790447
 31
0.0
 11
185.3126150604809
 21
15.4881694790447
 31
0.0
 11
185.2874469028653
 21
15.4881694790447
 31
0.0
 11
185.2874469028653
 21
15.46536458293928
 31
0.0
 11
185.2874469028653
 21
15.41098367684174
 31
0.0
 11
185.2874469028653
 21
15.34607743408017
 31
0.0
 11
185.2874469028653
 21
15.29169652798263
 31
0.0
 11
185.2874469028653
 21
15.26889163187721
 31
0.0
  0
SPLINE
  5
B3
102
{ACAD_REACTORS
330
D0
102
}
330
48
100
AcDbEntity
  8
_U_30EC_U_30A4_U_30E4_U_30FC_1
  6
Continuous
 62
     2
100
AcDbSpline
210
0.0
220
0.0
230
1.0
 70
    11
 71
     3
 72
    91
 73
    87
 74
    85
 42
0.000000001
 43
0.0000000001
 44
0.00000001
 40
0.0
 40
0.0
 40
0.0
 40
0.0
 40
0.0345987051695718
 40
0.1258134969461369
 40
0.2547723404888987
 40
0.4026032099154125
 40
0.5504340793416704
 40
0.679392922883608
 40
0.7706077146571035
 40
0.8052064287780925
 40
1.124852390615287
 40
1.427402236308888
 40
1.706356627453537
 40
1.955541417875229
 40
2.169485938566379
 40
2.34435078666484
 40
2.480568411561991
 40
2.590440557429014
 40
2.649189927151166
 40
2.749320643306374
 40
2.912632739880109
 40
3.147745656000374
 40
3.244827496385309
 40
3.338490056946909
 40
3.583815413207322
 40
3.76142394323867
 40
3.886956104362826
 40
3.985855451886984
 40
4.091766255337868
 40
4.250186473812061
 40
4.422734315084705
 40
4.6282856848388
 40
4.872093227758629
 40
5.152549652145739
 40
5.46496713583772
 40
5.803201477852637
 40
6.160362988814115
 40
6.19344944827617
 40
6.284170385501825
 40
6.419718138764694
 40
6.587285046385944
 40
6.774063446723859
 40
6.967245678113842
 40
7.154024078817828
 40
7.321590987026213
 40
7.457138740890572
 40
7.547859678556308
 40
7.580946138182868
 40
7.608533084714916
 40
7.669224367077885
 40
7.729915649430096
 40
7.757502595950144
 40
7.790278062553598
 40
7.880146277431096
 40
8.014419963180558
 40
8.180411842398058
 40
8.365434637679527
 40
8.556801071622829
 40
8.741823866830941
 40
8.907815745916452
 40
9.042089431507605
 40
9.131957646249731
 40
9.164733112797308
 40
9.415425063140253
 40
9.667986180958682
 40
9.694169807462849
 40
9.756607686047808
 40
9.831130315322614
 40
9.893568193900078
 40
9.919751820398895
 40
9.950967964690703
 40
9.996421631210806
 40
10.22087981037472
 40
10.44341866197562
 40
10.47847970788874
 40
10.57091337438775
 40
10.70159545461249
 40
10.8514017417038
 40
11.00120802880497
 40
11.13189010907403
 40
11.2243237758303
 40
11.25938480938977
 40
11.28697175596165
 40
11.34766303835938
 40
11.40835432042088
 40
11.43594125892122
 40
11.43594125892122
 40
11.43594125892122
 40
11.43594125892122
 10
190.0818114333289
 20
15.55242795125082
 30
0.0
 10
190.0702785844941
 20
15.5524279028792
 30
0.0
 10
190.0283409444998
 20
15.55242773704169
 30
0.0
 10
189.9434129719026
 20
15.55243125800914
 30
0.0
 10
189.8207688553128
 20
15.55240926435883
 30
0.0
 10
189.6791206916993
 20
15.55250801177058
 30
0.0
 10
189.537975369849
 20
15.55214686232426
 30
0.0
 10
189.4141351317904
 20
15.55321883609093
 30
0.0
 10
189.3317217825382
 20
15.55092249091274
 30
0.0
 10
189.1727791229692
 20
15.56048569373423
 30
0.0
 10
189.3503402353376
 20
15.19785394311375
 30
0.0
 10
189.3379739205452
 20
14.95243127723117
 30
0.0
 10
189.4064519473864
 20
14.66862501324837
 30
0.0
 10
189.469302432097
 20
14.43250999939037
 30
0.0
 10
189.5452253431729
 20
14.23326740396131
 30
0.0
 10
189.6303189577015
 20
14.07745347451374
 30
0.0
 10
189.7244607592935
 20
13.97657857781393
 30
0.0
 10
189.8282648207728
 20
13.92465852638965
 30
0.0
 10
189.9125872030774
 20
13.97606484379617
 30
0.0
 10
189.9351322179451
 20
14.09144544037519
 30
0.0
 10
189.9745730975372
 20
14.21885149702383
 30
0.0
 10
189.9202919734942
 20
14.53622328086772
 30
0.0
 10
190.0451218072473
 20
14.38982180140908
 30
0.0
 10
190.2019291513603
 20
14.35795300331172
 30
0.0
 10
190.0947720007057
 20
14.1242135776763
 30
0.0
 10
190.0808711209866
 20
13.9597277658366
 30
0.0
 10
190.0234709467225
 20
13.83130869122487
 30
0.0
 10
189.9335020145008
 20
13.76018802352831
 30
0.0
 10
189.8095274657878
 20
13.74432324142259
 30
0.0
 10
189.663427319686
 20
13.77993797554177
 30
0.0
 10
189.5243894320283
 20
13.90000570500282
 30
0.0
 10
189.4102003962145
 20
14.07435682550325
 30
0.0
 10
189.3146141301485
 20
14.29946603111245
 30
0.0
 10
189.2318652572626
 20
14.56388246006447
 30
0.0
 10
189.1807179256411
 20
14.88187933098548
 30
0.0
 10
189.0770189207338
 20
15.15543728488916
 30
0.0
 10
189.2042841208522
 20
15.56005818612874
 30
0.0
 10
189.0357890623018
 20
15.55112367849683
 30
0.0
 10
188.9511995787077
 20
15.55315961418368
 30
0.0
 10
188.8189876387627
 20
15.55213937388411
 30
0.0
 10
188.6560505094104
 20
15.55253230318434
 30
0.0
 10
188.4733759170532
 20
15.55235696313374
 30
0.0
 10
188.2847057373383
 20
15.55260105307473
 30
0.0
 10
188.1014469020189
 20
15.55185657906241
 30
0.0
 10
187.9404746832718
 20
15.5541636052243
 30
0.0
 10
187.8029808335276
 20
15.54799804883668
 30
0.0
 10
187.728959037231
 20
15.56032838458215
 30
0.0
 10
187.6613215186856
 20
15.54329323723561
 30
0.0
 10
187.673237371927
 20
15.59524438447532
 30
0.0
 10
187.6655677285693
 20
15.64071424966532
 30
0.0
 10
187.6732592225116
 20
15.68614453703708
 30
0.0
 10
187.6613141797762
 20
15.73802395984572
 30
0.0
 10
187.7283588305867
 20
15.72119143490266
 30
0.0
 10
187.8017375665676
 20
15.73335409092673
 30
0.0
 10
187.9379128305272
 20
15.7272723107496
 30
0.0
 10
188.0973811801512
 20
15.7295483431506
 30
0.0
 10
188.2789173085836
 20
15.72881233998964
 30
0.0
 10
188.4658034862179
 20
15.72905954196136
 30
0.0
 10
188.6468012316836
 20
15.72886400799256
 30
0.0
 10
188.8080802578878
 20
15.72932234714841
 30
0.0
 10
188.9393882124887
 20
15.72812673751208
 30
0.0
 10
189.0225051322596
 20
15.73051347319744
 30
0.0
 10
189.1556236547814
 20
15.72230605725466
 30
0.0
 10
189.0645893502657
 20
15.97752868952656
 30
0.0
 10
188.9789633074419
 20
16.24164358328248
 30
0.0
 10
189.0990589003455
 20
16.22904442969166
 30
0.0
 10
189.1514264948544
 20
16.22694235763077
 30
0.0
 10
189.2214497569715
 20
16.22535399889658
 30
0.0
 10
189.2671922337817
 20
16.21602567538114
 30
0.0
 10
189.3220812646933
 20
16.22545966915429
 30
0.0
 10
189.2963574785681
 20
16.17733028655177
 30
0.0
 10
189.1825397571453
 20
16.18266829744179
 30
0.0
 10
189.3159346621136
 20
15.95449174576779
 30
0.0
 10
189.1943658735471
 20
15.72156856595924
 30
0.0
 10
189.3223188769413
 20
15.73087258884441
 30
0.0
 10
189.4049048406461
 20
15.72801001754682
 30
0.0
 10
189.5307214850824
 20
15.72923437412305
 30
0.0
 10
189.6741469838058
 20
15.72932431888966
 30
0.0
 10
189.8157420951728
 20
15.72746163183855
 30
0.0
 10
189.9459127249968
 20
15.73333075937165
 30
0.0
 10
190.019345228619
 20
15.72070340823205
 30
0.0
 10
190.0891112922097
 20
15.73877563110414
 30
0.0
 10
190.0775772605395
 20
15.68612850546329
 30
0.0
 10
190.0833184346682
 20
15.6422131768655
 30
0.0
 10
190.081661577091
 20
15.59089982676554
 30
0.0
 10
190.081775756167
 20
15.56158792021639
 30
0.0
 10
190.0818114333289
 20
15.55242795125082
 30
0.0
 11
190.0818114333289
 21
15.55242795125082
 31
0.0
 11
190.0472127192051
 21
15.55242795125082
 31
0.0
 11
189.9559979274241
 21
15.55242795125082
 31
0.0
 11
189.8270390838717
 21
15.55242795125082
 31
0.0
 11
189.6792082144335
 21
15.55242795125082
 31
0.0
 11
189.5313773449954
 21
15.55242795125082
 31
0.0
 11
189.402418501443
 21
15.55242795125082
 31
0.0
 11
189.311203709662
 21
15.55242795125082
 31
0.0
 11
189.2766049955382
 21
15.55242795125082
 31
0.0
 11
189.3083140497693
 21
15.23435864930125
 31
0.0
 11
189.3527866656865
 21
14.93509522788084
 31
0.0
 11
189.4092389118319
 21
14.66191269512578
 31
0.0
 11
189.4768868567478
 21
14.42208605917229
 31
0.0
 11
189.5549465689761
 21
14.22289032815656
 31
0.0
 11
189.6426341170591
 21
14.07160051021478
 31
0.0
 11
189.7391655695388
 21
13.97549161348317
 31
0.0
 11
189.8437569949575
 21
13.94183864609792
 31
0.0
 11
189.8943077302786
 21
13.97177376978835
 31
0.0
 11
189.9310588991551
 21
14.06491619815047
 31
0.0
 11
189.9562640977528
 21
14.22627151712058
 31
0.0
 11
189.9721769222368
 21
14.46084531263492
 31
0.0
 11
190.0494082682583
 21
14.40202182306621
 31
0.0
 11
190.1327184184385
 21
14.35921885432691
 31
0.0
 11
190.1066365811217
 21
14.11528388661012
 31
0.0
 11
190.0673317805105
 21
13.94207902887566
 31
0.0
 11
190.0105702596765
 21
13.83011272445922
 31
0.0
 11
189.932118261691
 21
13.7698934166965
 31
0.0
 11
189.8277420296256
 21
13.75192954892322
 31
0.0
 11
189.6738595065097
 21
13.78957440012366
 31
0.0
 11
189.5388902376747
 21
13.89707348877408
 31
0.0
 11
189.4221739916163
 21
14.06627361744814
 31
0.0
 11
189.32305053683
 21
14.28902158871948
 31
0.0
 11
189.2408596418113
 21
14.55716420516177
 31
0.0
 11
189.1749410750559
 21
14.86254826934865
 31
0.0
 11
189.1246346050593
 21
15.19702058385378
 31
0.0
 11
189.0892800003171
 21
15.55242795125082
 31
0.0
 11
189.0561935405844
 21
15.55242795125082
 31
0.0
 11
188.9654726026075
 21
15.55242795125082
 31
0.0
 11
188.8299248482185
 21
15.55242795125082
 31
0.0
 11
188.6623579392495
 21
15.55242795125082
 31
0.0
 11
188.4755795375324
 21
15.55242795125082
 31
0.0
 11
188.2823973048992
 21
15.55242795125082
 31
0.0
 11
188.0956189031822
 21
15.55242795125082
 31
0.0
 11
187.9280519942131
 21
15.55242795125082
 31
0.0
 11
187.7925042398241
 21
15.55242795125082
 31
0.0
 11
187.7017833018473
 21
15.55242795125082
 31
0.0
 11
187.6686968421145
 21
15.55242795125082
 31
0.0
 11
187.6686968421145
 21
15.5800148978585
 31
0.0
 11
187.6686968421145
 21
15.64070618039541
 31
0.0
 11
187.6686968421145
 21
15.70139746293232
 31
0.0
 11
187.6686968421145
 21
15.72898440954
 31
0.0
 11
187.7014723087631
 21
15.72898440954
 31
0.0
 11
187.7913405237673
 21
15.72898440954
 31
0.0
 11
187.9256142097148
 21
15.72898440954
 31
0.0
 11
188.0916060891932
 21
15.72898440954
 31
0.0
 11
188.2766288847901
 21
15.72898440954
 31
0.0
 11
188.4679953190932
 21
15.72898440954
 31
0.0
 11
188.6530181146902
 21
15.72898440954
 31
0.0
 11
188.8190099941685
 21
15.72898440954
 31
0.0
 11
188.953283680116
 21
15.72898440954
 31
0.0
 11
189.0431518951202
 21
15.72898440954
 31
0.0
 11
189.0759273617688
 21
15.72898440954
 31
0.0
 11
189.0659183950103
 21
15.97947647544963
 31
0.0
 11
189.0599112510663
 21
16.23196614552532
 31
0.0
 11
189.0860575870659
 21
16.23056921608123
 31
0.0
 11
189.1484065421419
 21
16.22723807663762
 31
0.0
 11
189.2228230369099
 21
16.22326220052751
 31
0.0
 11
189.2851719919859
 21
16.2199310610839
 31
0.0
 11
189.3113183279855
 21
16.21853413163981
 31
0.0
 11
189.298293111304
 21
16.19016528616084
 31
0.0
 11
189.2551649266405
 21
16.17581274276171
 31
0.0
 11
189.2574991961821
 21
15.95136670115112
 31
0.0
 11
189.2658452735903
 21
15.72898440954
 31
0.0
 11
189.3009063195165
 21
15.72898440954
 31
0.0
 11
189.3933399860495
 21
15.72898440954
 31
0.0
 11
189.5240220663201
 21
15.72898440954
 31
0.0
 11
189.6738283534596
 21
15.72898440954
 31
0.0
 11
189.8236346405991
 21
15.72898440954
 31
0.0
 11
189.9543167208697
 21
15.72898440954
 31
0.0
 11
190.0467503874027
 21
15.72898440954
 31
0.0
 11
190.0818114333289
 21
15.72898440954
 31
0.0
 11
190.0818114333289
 21
15.70139746293232
 31
0.0
 11
190.0818114333289
 21
15.64070618039541
 31
0.0
 11
190.0818114333289
 21
15.5800148978585
 31
0.0
 11
190.0818114333289
 21
15.55242795125082
 31
0.0
  0
SPLINE
  5
B4
102
{ACAD_REACTORS
330
D1
102
}
330
48
100
AcDbEntity
  8
_U_30EC_U_30A4_U_30E4_U_30FC_1
  6
Continuous
 62
     2
100
AcDbSpline
210
0.0
220
0.0
230
1.0
 70
    11
 71
     3
 72
    75
 73
    71
 74
    69
 42
0.000000001
 43
0.0000000001
 44
0.00000001
 40
0.0
 40
0.0
 40
0.0
 40
0.0
 40
0.0342546099129709
 40
0.1245622414432364
 40
0.2522385480897518
 40
0.398599192294068
 40
0.5449598364980839
 40
0.6726361431438834
 40
0.7629437746736942
 40
0.7971983935297973
 40
1.101723623449657
 40
1.408591244036674
 40
1.433332471690389
 40
1.487763172450203
 40
1.54219387308205
 40
1.566935100592607
 40
1.923523931821925
 40
2.271755704953724
 40
2.590579755100964
 40
2.858943305581227
 40
2.889120339309219
 40
2.918305855191219
 40
2.941366645531347
 40
2.996357760973251
 40
3.061992318140812
 40
3.116983433627019
 40
3.140044223997703
 40
3.41127312293663
 40
3.732441619741292
 40
3.761068217532991
 40
3.837787499630557
 40
3.948858699126204
 40
4.08054104910459
 40
4.21909378262598
 40
4.350776132722539
 40
4.461847332405878
 40
4.538566614678616
 40
4.567193212544864
 40
4.594907573999122
 40
4.666381453557661
 40
4.764111044011272
 40
4.870592538126075
 40
4.968322128642526
 40
5.039796008287211
 40
5.06751036978467
 40
5.094263603185884
 40
5.15312071666852
 40
5.211977830150967
 40
5.238731063551971
 40
5.27229053513921
 40
5.363380529445071
 40
5.497618415781749
 40
5.660621563453991
 40
5.838007341749692
 40
6.015393119911043
 40
6.178396267038669
 40
6.31263415184262
 40
6.40372414305961
 40
6.437283612672705
 40
6.464036846261323
 40
6.522893960004937
 40
6.581751071484203
 40
6.608504301591149
 40
6.637253941281297
 40
6.711397748903148
 40
6.812778057283761
 40
6.923237199249537
 40
7.024617507624181
 40
7.098761315207834
 40
7.127510946007784
 40
7.127510946007784
 40
7.127510946007784
 40
7.127510946007784
 10
188.4418622390564
 20
14.9584912847327
 30
0.0
 10
188.4418622819707
 20
14.94707313408726
 30
0.0
 10
188.4418624481128
 20
14.90555257842634
 30
0.0
 10
188.4418593081787
 20
14.82146922003778
 30
0.0
 10
188.44187882798
 20
14.70004497322334
 30
0.0
 10
188.4417912187737
 20
14.55980494047454
 30
0.0
 10
188.442111623523
 20
14.42006556794582
 30
0.0
 10
188.4411605909742
 20
14.29745038894935
 30
0.0
 10
188.4431978595967
 20
14.21587074438049
 30
0.0
 10
188.4349433178745
 20
14.06271267077703
 30
0.0
 10
188.7430797940899
 20
14.22560236054721
 30
0.0
 10
189.0350645173741
 20
14.39482938688015
 30
0.0
 10
189.0408354448707
 20
14.25973235781919
 30
0.0
 10
189.0455471719891
 20
14.21617221160452
 30
0.0
 10
189.0482535411918
 20
14.1721124935055
 30
0.0
 10
189.0672545672959
 20
14.02272590363139
 30
0.0
 10
188.6583942247302
 20
14.08681172241263
 30
0.0
 10
188.3793710348832
 20
13.97296341411018
 30
0.0
 10
188.1018081587166
 20
13.87364095811151
 30
0.0
 10
187.8099837184402
 20
13.91630687596347
 30
0.0
 10
187.7869144678657
 20
13.81321679744545
 30
0.0
 10
187.7537474383333
 20
13.7869109124446
 30
0.0
 10
187.7480653962739
 20
13.834553090363
 30
0.0
 10
187.7284214559044
 20
13.87180336115065
 30
0.0
 10
187.7095089485622
 20
13.93007387847561
 30
0.0
 10
187.6942849867708
 20
13.97385201007803
 30
0.0
 10
187.6477246372935
 20
14.08759421046311
 30
0.0
 10
187.989089731245
 20
14.05576301120052
 30
0.0
 10
188.2679649367387
 20
14.02161435106481
 30
0.0
 10
188.2617753034907
 20
14.16913976479653
 30
0.0
 10
188.2630935452773
 20
14.24013150908834
 30
0.0
 10
188.2624831689948
 20
14.34719767958663
 30
0.0
 10
188.2625871570725
 20
14.47398529786001
 30
0.0
 10
188.2629987964055
 20
14.60849243496054
 30
0.0
 10
188.2613907841969
 20
14.73395549951189
 30
0.0
 10
188.2659902567925
 20
14.84505246719123
 30
0.0
 10
188.2564186502211
 20
14.90761886800695
 30
0.0
 10
188.2704001783691
 20
14.96595388295007
 30
0.0
 10
188.2147384386704
 20
14.95289710582244
 30
0.0
 10
188.1575655197821
 20
14.96136307749504
 30
0.0
 10
188.0616048925648
 20
14.95729976080642
 30
0.0
 10
187.963376752282
 20
14.9597088985248
 30
0.0
 10
187.8672582457561
 20
14.95551600613394
 30
0.0
 10
187.8104648525811
 20
14.96429346441168
 30
0.0
 10
187.7550356873384
 20
14.95094936850127
 30
0.0
 10
187.7670679427917
 20
15.00036910959263
 30
0.0
 10
187.7592003173937
 20
15.04393988030401
 30
0.0
 10
187.7666295563828
 20
15.08830469118531
 30
0.0
 10
187.7551930564143
 20
15.13902297763997
 30
0.0
 10
187.8232102370133
 20
15.12162460757749
 30
0.0
 10
187.8968496879747
 20
15.13417450237194
 30
0.0
 10
188.0325064058211
 20
15.12799677011104
 30
0.0
 10
188.1884909024525
 20
15.1302920309309
 30
0.0
 10
188.3615926358143
 20
15.12940968262536
 30
0.0
 10
188.5346942964181
 20
15.13029207142414
 30
0.0
 10
188.6906789811216
 20
15.12799662955556
 30
0.0
 10
188.8263351889797
 20
15.13417486262438
 30
0.0
 10
188.8999756705652
 20
15.1216239421834
 30
0.0
 10
188.9679914174724
 20
15.13902373012148
 30
0.0
 10
188.9565590885922
 20
15.08830130414561
 30
0.0
 10
188.9639539458297
 20
15.04397060811114
 30
0.0
 10
188.9562039912271
 20
15.00028307550202
 30
0.0
 10
188.9681203741877
 20
14.95063590098483
 30
0.0
 10
188.9108170223617
 20
14.96461411338431
 30
0.0
 10
188.8520145789772
 20
14.9553975567326
 30
0.0
 10
188.7525293633199
 20
14.95952268164935
 30
0.0
 10
188.649428009835
 20
14.95822760025894
 30
0.0
 10
188.5537846354573
 20
14.95854077077646
 30
0.0
 10
188.4857467971617
 20
14.95848776697151
 30
0.0
 10
188.4514462213443
 20
14.95849051871662
 30
0.0
 10
188.4418622390564
 20
14.9584912847327
 30
0.0
 11
188.4418622390564
 21
14.9584912847327
 31
0.0
 11
188.4418622390564
 21
14.9242366658719
 31
0.0
 11
188.4418622390564
 21
14.83392903432981
 31
0.0
 11
188.4418622390564
 21
14.70625272766685
 31
0.0
 11
188.4418622390564
 21
14.55989208344345
 31
0.0
 11
188.4418622390564
 21
14.41353143922006
 31
0.0
 11
188.4418622390564
 21
14.2858551325571
 31
0.0
 11
188.4418622390564
 21
14.195547501015
 31
0.0
 11
188.4418622390564
 21
14.16129288215421
 31
0.0
 11
188.7391932644567
 21
14.22709475713772
 31
0.0
 11
189.0384623627245
 21
14.29496038212082
 31
0.0
 11
189.0405487124976
 21
14.27030727882837
 31
0.0
 11
189.0451386819987
 21
14.21607045158497
 31
0.0
 11
189.0497286514996
 21
14.16183362434157
 31
0.0
 11
189.0518150012728
 21
14.13718052104912
 31
0.0
 11
188.705639688924
 21
14.051633701409
 31
0.0
 11
188.3669653138838
 21
13.97060877629904
 31
0.0
 11
188.0563731516688
 21
13.89862764024932
 31
0.0
 11
187.7944444777955
 21
13.84021218778992
 31
0.0
 11
187.7817515029292
 21
13.81283442738017
 31
0.0
 11
187.7569794787513
 21
13.79740260446729
 31
0.0
 11
187.7491867589501
 21
13.81910683390631
 31
0.0
 11
187.7306041194242
 21
13.87086307333782
 31
0.0
 11
187.70842483999
 21
13.93263664943349
 31
0.0
 11
187.689842200464
 21
13.98439288886499
 31
0.0
 11
187.6820494806628
 21
14.00609711830401
 31
0.0
 11
187.9482776335931
 21
14.05794001759669
 31
0.0
 11
188.2626334936289
 21
14.12373968771911
 31
0.0
 11
188.2626334936289
 21
14.15236628569626
 31
0.0
 11
188.2626334936289
 21
14.22908556827501
 31
0.0
 11
188.2626334936289
 21
14.34015676842634
 31
0.0
 11
188.2626334936289
 21
14.47183911912121
 31
0.0
 11
188.2626334936289
 21
14.6103918533306
 31
0.0
 11
188.2626334936289
 21
14.74207420402547
 31
0.0
 11
188.2626334936289
 21
14.8531454041768
 31
0.0
 11
188.2626334936289
 21
14.92986468675555
 31
0.0
 11
188.2626334936289
 21
14.9584912847327
 31
0.0
 11
188.2349191321108
 21
14.9584912847327
 31
0.0
 11
188.1634452524063
 21
14.9584912847327
 31
0.0
 11
188.06571566179
 21
14.9584912847327
 31
0.0
 11
187.9592341675364
 21
14.9584912847327
 31
0.0
 11
187.8615045769201
 21
14.9584912847327
 31
0.0
 11
187.7900306972156
 21
14.9584912847327
 31
0.0
 11
187.7623163356975
 21
14.9584912847327
 31
0.0
 11
187.7623163356975
 21
14.98524451823295
 31
0.0
 11
187.7623163356975
 21
15.0441016319335
 31
0.0
 11
187.7623163356975
 21
15.10295874563405
 31
0.0
 11
187.7623163356975
 21
15.1297119791343
 31
0.0
 11
187.7958758072874
 21
15.1297119791343
 31
0.0
 11
187.8869658016031
 21
15.1297119791343
 31
0.0
 11
188.0212036879629
 21
15.1297119791343
 31
0.0
 11
188.1842068356856
 21
15.1297119791343
 31
0.0
 11
188.3615926140897
 21
15.1297119791343
 31
0.0
 11
188.5389783924938
 21
15.1297119791343
 31
0.0
 11
188.7019815402164
 21
15.1297119791343
 31
0.0
 11
188.8362194265763
 21
15.1297119791343
 31
0.0
 11
188.9273094208918
 21
15.1297119791343
 31
0.0
 11
188.9608688924818
 21
15.1297119791343
 31
0.0
 11
188.9608688924818
 21
15.10295874563405
 31
0.0
 11
188.9608688924818
 21
15.0441016319335
 31
0.0
 11
188.9608688924818
 21
14.98524451823295
 31
0.0
 11
188.9608688924818
 21
14.9584912847327
 31
0.0
 11
188.9321192527877
 21
14.9584912847327
 31
0.0
 11
188.8579754451555
 21
14.9584912847327
 31
0.0
 11
188.7565951367604
 21
14.9584912847327
 31
0.0
 11
188.6461359947778
 21
14.9584912847327
 31
0.0
 11
188.5447556863827
 21
14.9584912847327
 31
0.0
 11
188.4706118787505
 21
14.9584912847327
 31
0.0
 11
188.4418622390564
 21
14.9584912847327
 31
0.0
  0
SPLINE
  5
B5
102
{ACAD_REACTORS
330
D2
102
}
330
48
100
AcDbEntity
  8
_U_30EC_U_30A4_U_30E4_U_30FC_1
  6
Continuous
 62
     2
100
AcDbSpline
210
0.0
220
0.0
230
1.0
 70
    11
 71
     3
 72
    15
 73
    11
 74
     9
 42
0.000000001
 43
0.0000000001
 44
0.00000001
 40
0.0
 40
0.0
 40
0.0
 40
0.0
 40
0.2785535985096891
 40
0.5215624748199179
 40
0.6076917376041009
 40
0.6938210001741949
 40
0.9405019146455824
 40
1.221691403489255
 40
1.300471877081184
 40
1.379252341684962
 40
1.379252341684962
 40
1.379252341684962
 40
1.379252341684962
 10
189.5681493630999
 20
16.22930267330392
 30
0.0
 10
189.6296017794178
 20
16.17691646592724
 30
0.0
 10
189.7446649974113
 20
16.07882876798227
 30
0.0
 10
190.0397348497244
 20
15.92889785897229
 30
0.0
 10
189.9025147631856
 20
15.84343227515017
 30
0.0
 10
189.8041227843779
 20
15.71085785201553
 30
0.0
 10
189.7130033590649
 20
16.01616985781422
 30
0.0
 10
189.3636839480654
 20
16.0796786946538
 30
0.0
 10
189.511925837657
 20
16.17896509880887
 30
0.0
 10
189.5494081874236
 20
16.21252348402393
 30
0.0
 10
189.5681493630999
 20
16.22930267330392
 30
0.0
 11
189.5681493630999
 21
16.22930267330392
 31
0.0
 11
189.7919222440596
 21
16.06341774278978
 31
0.0
 11
189.9695046306383
 21
15.8975328122757
 31
0.0
 11
189.9066308127979
 21
15.83866743034595
 31
0.0
 11
189.8437569949575
 21
15.7798020484162
 31
0.0
 11
189.6688535117725
 21
15.95375677059492
 31
0.0
 11
189.447825685614
 21
16.1275792011071
 31
0.0
 11
189.507987524357
 21
16.17844093720551
 31
0.0
 11
189.5681493630999
 21
16.22930267330392
 31
0.0
  0
SPLINE
  5
B6
102
{ACAD_REACTORS
330
D3
102
}
330
48
100
AcDbEntity
  8
_U_30EC_U_30A4_U_30E4_U_30FC_1
  6
Continuous
 62
     2
100
AcDbSpline
210
0.0
220
0.0
230
1.0
 70
    11
 71
     3
 72
    35
 73
    31
 74
    29
 42
0.000000001
 43
0.0000000001
 44
0.00000001
 40
0.0
 40
0.0
 40
0.0
 40
0.0
 40
0.0335231036621225
 40
0.0713218571712618
 40
0.4278866681487434
 40
0.8116865841964362
 40
1.198190238000092
 40
1.561379546812723
 40
1.659983174622095
 40
1.759315573807219
 40
2.132719617231098
 40
2.525233363588842
 40
2.910815397779706
 40
3.265244364303306
 40
3.592606723582045
 40
3.964386154604
 40
4.359942131737824
 40
4.758154118639323
 40
4.843846538699913
 40
4.936650065543254
 40
5.256616602537338
 40
5.581707404416077
 40
5.899719158308175
 40
6.198363494280774
 40
6.466301046615798
 40
6.493895311537119
 40
6.559697020196912
 40
6.638234543442486
 40
6.704036252154238
 40
6.731630508423044
 40
6.731630508423044
 40
6.731630508423044
 40
6.731630508423044
 10
191.9736010568669
 20
16.23463843719142
 30
0.0
 10
191.9676006097789
 20
16.22480690542328
 30
0.0
 10
191.9548344099156
 20
16.20388988579798
 30
0.0
 10
191.7949362006557
 20
16.17127126532695
 30
0.0
 10
192.2322025842335
 20
15.88206680336703
 30
0.0
 10
192.4345394828262
 20
15.68041138358444
 30
0.0
 10
192.6819564267973
 20
15.43749387603281
 30
0.0
 10
193.1831513624606
 20
15.36047662757781
 30
0.0
 10
193.012556219897
 20
15.21876939174661
 30
0.0
 10
192.9383299463201
 20
15.01710366209115
 30
0.0
 10
192.6131432248188
 20
15.3695628717473
 30
0.0
 10
192.3277741670664
 20
15.53175212559565
 30
0.0
 10
192.0337604077658
 20
15.73687130053051
 30
0.0
 10
191.8084452691134
 20
16.2182748859546
 30
0.0
 10
191.5993085055521
 20
15.75343046609227
 30
0.0
 10
191.3207873674834
 20
15.54350952252915
 30
0.0
 10
191.0371383177209
 20
15.37424456359986
 30
0.0
 10
190.7078639527832
 20
15.00142360907945
 30
0.0
 10
190.6277012318224
 20
15.19708014459004
 30
0.0
 10
190.4759724909744
 20
15.32491104190602
 30
0.0
 10
190.9083395826795
 20
15.4045403176594
 30
0.0
 10
191.0962565329766
 20
15.6002663491548
 30
0.0
 10
191.3468477420502
 20
15.81632996916762
 30
0.0
 10
191.5714350470162
 20
15.98190992300065
 30
0.0
 10
191.6259775409712
 20
16.2613396463683
 30
0.0
 10
191.7494661029012
 20
16.24737950408084
 30
0.0
 10
191.8060273344519
 20
16.24521268867653
 30
0.0
 10
191.8761870984945
 20
16.24046859881367
 30
0.0
 10
191.9333414022105
 20
16.23709429350549
 30
0.0
 10
191.9644190320838
 20
16.23519854711127
 30
0.0
 10
191.9736010568669
 20
16.23463843719142
 30
0.0
 11
191.9736010568669
 21
16.23463843719142
 31
0.0
 11
191.9525319069884
 21
16.20856374969786
 31
0.0
 11
191.9174464559425
 21
16.1945011455347
 31
0.0
 11
192.1512374769094
 21
15.92527961131385
 31
0.0
 11
192.4414585957566
 21
15.67413407969264
 31
0.0
 11
192.7612797483684
 21
15.45710987618789
 31
0.0
 11
193.0838708706289
 21
15.29025232631642
 31
0.0
 11
193.0213299868076
 21
15.21402035584932
 31
0.0
 11
192.9688035818975
 21
15.1297119791343
 31
0.0
 11
192.6436279095814
 21
15.31326404831585
 31
0.0
 11
192.3237227768436
 21
15.54070139743432
 31
0.0
 11
192.0354200158608
 21
15.79673855123313
 31
0.0
 11
191.8050514588095
 21
16.0660900344557
 31
0.0
 11
191.5995531719516
 21
15.8112634872104
 31
0.0
 11
191.3288301341535
 21
15.55645182277759
 31
0.0
 11
191.0119538423246
 21
15.31969466354859
 31
0.0
 11
190.6679957933741
 21
15.11903163191471
 31
0.0
 11
190.6218855341338
 21
15.19126067703555
 31
0.0
 11
190.5636970460348
 21
15.26355586798971
 31
0.0
 11
190.8433040489015
 21
15.4191145696175
 31
0.0
 11
191.1093004621154
 21
15.60601009790411
 31
0.0
 11
191.3499997459746
 21
15.81384496285215
 31
0.0
 11
191.5537153607774
 21
16.03222167446422
 31
0.0
 11
191.7087607668218
 21
16.25074274274292
 31
0.0
 11
191.7363041569865
 21
16.24906789496556
 31
0.0
 11
191.8019845489177
 21
16.24507402718879
 31
0.0
 11
191.880377274771
 21
16.24030715274555
 31
0.0
 11
191.9460576667022
 21
16.23631328496878
 31
0.0
 11
191.9736010568669
 21
16.23463843719142
 31
0.0
  0
SPLINE
  5
B7
102
{ACAD_REACTORS
330
D4
102
}
330
48
100
AcDbEntity
  8
_U_30EC_U_30A4_U_30E4_U_30FC_1
  6
Continuous
 62
     2
100
AcDbSpline
210
0.0
220
0.0
230
1.0
 70
    11
 71
     3
 72
    91
 73
    87
 74
    85
 42
0.000000001
 43
0.0000000001
 44
0.00000001
 40
0.0
 40
0.0
 40
0.0
 40
0.0
 40
0.0267532254356772
 40
0.0856103386464351
 40
0.1444674521997047
 40
0.1712206856619012
 40
0.2039416005643034
 40
0.2955601971652981
 40
0.4362601844617415
 40
0.6162252844507747
 40
0.8256392189705195
 40
1.05468570984446
 40
1.293548478893581
 40
1.532411247938353
 40
1.761457738799618
 40
1.970871673298586
 40
2.150836773256782
 40
2.291536760495643
 40
2.38315535683675
 40
2.41587628410137
 40
2.442629517488021
 40
2.501486630949169
 40
2.560343744424334
 40
2.587096977826614
 40
2.617068194441042
 40
2.699247336756183
 40
2.822032643466495
 40
2.973822353258025
 40
3.143014704823467
 40
3.318007936880046
 40
3.487200288186879
 40
3.63898999754836
 40
3.761775303794859
 40
3.843954445753194
 40
3.873925662229889
 40
3.890812773500586
 40
3.907699884771754
 40
3.93796076785738
 40
3.980983618142417
 40
4.199085915228557
 40
4.439444339237341
 40
4.677588241261013
 40
5.050698317837899
 40
5.448212454763285
 40
5.855291218044809
 40
6.138575438885495
 40
6.417434507584315
 40
6.444551104394
 40
6.504207617363302
 40
6.563864130314628
 40
6.590980727104222
 40
6.848609460381605
 40
7.109611990668562
 40
7.352910904446222
 40
7.557830220705583
 40
7.587518925913498
 40
7.652834077375911
 40
7.718149228845842
 40
7.747837934062144
 40
7.854880190301101
 40
7.976511257403684
 40
8.369487896592487
 40
8.75751495922378
 40
9.126072419331242
 40
9.460639380392305
 40
9.746695593036046
 40
9.777569943118822
 40
9.8070503209319
 40
9.830377336129025
 40
9.886003295436085
 40
9.95239556942998
 40
10.00802152870632
 40
10.03134854388224
 40
10.21356951009594
 40
10.42203479292877
 40
10.66154556731065
 40
10.91693789564304
 40
11.15832906556564
 40
11.18982674596622
 40
11.27286608520406
 40
11.39026653033348
 40
11.52484752840884
 40
11.65942852648446
 40
11.77682897161482
 40
11.85986831085681
 40
11.89136598230427
 40
11.89136598230427
 40
11.89136598230427
 40
11.89136598230427
 10
190.7027885008196
 20
14.70699600701772
 30
0.0
 10
190.7028237765288
 20
14.71587847311985
 30
0.0
 10
190.7029366710796
 20
14.74430237047347
 30
0.0
 10
190.701298456849
 20
14.79409639169806
 30
0.0
 10
190.706975029291
 20
14.83657564478158
 30
0.0
 10
190.6956928731706
 20
14.88730154856852
 30
0.0
 10
190.7632296979031
 20
14.87012900740113
 30
0.0
 10
190.83880292107
 20
14.88290227166001
 30
0.0
 10
190.9828357056
 20
14.87629729457387
 30
0.0
 10
191.1569419185427
 20
14.87888462206471
 30
0.0
 10
191.3639599611003
 20
14.87800591955558
 30
0.0
 10
191.5894688172378
 20
14.87828207920033
 30
0.0
 10
191.8251162293406
 20
14.87818339658667
 30
0.0
 10
192.0607640531348
 20
14.87828184412772
 30
0.0
 10
192.2862717580626
 20
14.87800678190793
 30
0.0
 10
192.4932934632805
 20
14.8788818627074
 30
0.0
 10
192.6673888915288
 20
14.87630522678451
 30
0.0
 10
192.8114492071986
 20
14.88288290449218
 30
0.0
 10
192.8869691915293
 20
14.87016243405609
 30
0.0
 10
192.954577603703
 20
14.88726400191691
 30
0.0
 10
192.9430840140676
 20
14.83674785802944
 30
0.0
 10
192.9505104581733
 20
14.79253252226504
 30
0.0
 10
192.9428838927986
 20
14.74867966503611
 30
0.0
 10
192.9546489459425
 20
14.69878374479328
 30
0.0
 10
192.8930788491983
 20
14.71393227712512
 30
0.0
 10
192.8256791738671
 20
14.70310665350673
 30
0.0
 10
192.7013004056222
 20
14.70852031626236
 30
0.0
 10
192.555442823657
 20
14.70649205390785
 30
0.0
 10
192.3893576440086
 20
14.70715777578387
 30
0.0
 10
192.2188412621724
 20
14.70689643521242
 30
0.0
 10
192.0519790855388
 20
14.70721553391094
 30
0.0
 10
191.9087346827105
 20
14.70635302590762
 30
0.0
 10
191.7773313869834
 20
14.70863300482987
 30
0.0
 10
191.7239859134657
 20
14.70407704374203
 30
0.0
 10
191.6485188456912
 20
14.70999914992876
 30
0.0
 10
191.6769075779232
 20
14.70094169343356
 30
0.0
 10
191.7033652409542
 20
14.69725912268938
 30
0.0
 10
191.6633522907701
 20
14.66654271968277
 30
0.0
 10
191.5713663691868
 20
14.67667591174636
 30
0.0
 10
191.543939620707
 20
14.43032502247788
 30
0.0
 10
191.4478793967234
 20
14.27499558764378
 30
0.0
 10
191.1917277964473
 20
13.94525417931568
 30
0.0
 10
191.7627537732762
 20
14.08430022210452
 30
0.0
 10
192.0173656320517
 20
14.08291779973366
 30
0.0
 10
192.6279647048616
 20
13.99790569242082
 30
0.0
 10
192.3340698578085
 20
14.29685417558207
 30
0.0
 10
192.0133304286516
 20
14.44330856901776
 30
0.0
 10
192.1313543360434
 20
14.50025540818286
 30
0.0
 10
192.172471646626
 20
14.52420099873347
 30
0.0
 10
192.2156812394411
 20
14.5459975881123
 30
0.0
 10
192.317457409445
 20
14.60928721253904
 30
0.0
 10
192.4328867625248
 20
14.3514715140878
 30
0.0
 10
192.6329591642277
 20
14.21616041113683
 30
0.0
 10
192.7269077387228
 20
14.03792795138883
 30
0.0
 10
192.9558829746392
 20
13.87997821027049
 30
0.0
 10
192.8596031846708
 20
13.82915972576302
 30
0.0
 10
192.8167959763779
 20
13.79881292523058
 30
0.0
 10
192.7718243528778
 20
13.77466130281462
 30
0.0
 10
192.7121720925214
 20
13.72552146747573
 30
0.0
 10
192.6789731061324
 20
13.85997475673615
 30
0.0
 10
192.5582013350796
 20
14.01594265286594
 30
0.0
 10
192.1970976005978
 20
13.88569928059559
 30
0.0
 10
191.838506195554
 20
13.90224694409487
 30
0.0
 10
191.4570920450081
 20
13.8933122935187
 30
0.0
 10
191.170345528289
 20
13.82882671672409
 30
0.0
 10
190.8592055599715
 20
13.94230668192834
 30
0.0
 10
190.8268737818788
 20
13.83122259927767
 30
0.0
 10
190.7896178253317
 20
13.81196313850022
 30
0.0
 10
190.7865737632754
 20
13.85874784087301
 30
0.0
 10
190.7679892860607
 20
13.8980685391914
 30
0.0
 10
190.7512436616778
 20
13.95765983478234
 30
0.0
 10
190.7383730915753
 20
14.00201969871285
 30
0.0
 10
190.7042327806429
 20
14.091063311202
 30
0.0
 10
190.9482714457754
 20
14.02181042943768
 30
0.0
 10
191.1441394486671
 20
14.00030369057755
 30
0.0
 10
191.2395426381277
 20
14.28226484478465
 30
0.0
 10
191.2945135769597
 20
14.44363045421125
 30
0.0
 10
191.5159619357154
 20
14.71391177589737
 30
0.0
 10
191.3849239381216
 20
14.70548446853735
 30
0.0
 10
191.3110026555853
 20
14.70779008496969
 30
0.0
 10
191.1977459876244
 20
14.70671378321658
 30
0.0
 10
191.0694251807484
 20
14.7070763907651
 30
0.0
 10
190.9404252030415
 20
14.70697724466086
 30
0.0
 10
190.828784094629
 20
14.70699932712572
 30
0.0
 10
190.7514663970026
 20
14.7069957918967
 30
0.0
 10
190.713287653201
 20
14.70699595845081
 30
0.0
 10
190.7027885008196
 20
14.70699600701772
 30
0.0
 11
190.7027885008196
 21
14.70699600701772
 31
0.0
 11
190.7027885008196
 21
14.73374924051798
 31
0.0
 11
190.7027885008196
 21
14.79260635421856
 31
0.0
 11
190.7027885008196
 21
14.85146346791914
 31
0.0
 11
190.7027885008196
 21
14.8782167014194
 31
0.0
 11
190.7355094280989
 21
14.8782167014194
 31
0.0
 11
190.8271280244809
 21
14.8782167014194
 31
0.0
 11
190.9678280117818
 21
14.8782167014194
 31
0.0
 11
191.1477931118179
 21
14.8782167014194
 31
0.0
 11
191.3572070464054
 21
14.8782167014194
 31
0.0
 11
191.5862535373604
 21
14.8782167014194
 31
0.0
 11
191.8251163064992
 21
14.8782167014194
 31
0.0
 11
192.0639790756381
 21
14.8782167014194
 31
0.0
 11
192.2930255665931
 21
14.8782167014194
 31
0.0
 11
192.5024395011806
 21
14.8782167014194
 31
0.0
 11
192.6824046012167
 21
14.8782167014194
 31
0.0
 11
192.8231045885176
 21
14.8782167014194
 31
0.0
 11
192.9147231848996
 21
14.8782167014194
 31
0.0
 11
192.9474441121789
 21
14.8782167014194
 31
0.0
 11
192.9474441121789
 21
14.85146346791914
 31
0.0
 11
192.9474441121789
 21
14.79260635421856
 31
0.0
 11
192.9474441121789
 21
14.73374924051798
 31
0.0
 11
192.9474441121789
 21
14.70699600701772
 31
0.0
 11
192.9174728954758
 21
14.70699600701772
 31
0.0
 11
192.8352937529027
 21
14.70699600701772
 31
0.0
 11
192.7125084457639
 21
14.70699600701772
 31
0.0
 11
192.5607187353642
 21
14.70699600701772
 31
0.0
 11
192.3915263830077
 21
14.70699600701772
 31
0.0
 11
192.2165331499991
 21
14.70699600701772
 31
0.0
 11
192.0473407976426
 21
14.70699600701772
 31
0.0
 11
191.8955510872428
 21
14.70699600701772
 31
0.0
 11
191.7727657801042
 21
14.70699600701772
 31
0.0
 11
191.690586637531
 21
14.70699600701772
 31
0.0
 11
191.6606154208279
 21
14.70699600701772
 31
0.0
 11
191.6766359412525
 21
14.70165583340797
 31
0.0
 11
191.6926564616771
 21
14.69631565979822
 31
0.0
 11
191.670615568142
 21
14.67558114591447
 31
0.0
 11
191.6284861855363
 21
14.66685871536112
 31
0.0
 11
191.5365235541377
 21
14.46909247312659
 31
0.0
 11
191.4279078521763
 21
14.25467511978512
 31
0.0
 11
191.3127500824807
 21
14.0462255905162
 31
0.0
 11
191.685736667502
 21
14.0558244125303
 31
0.0
 11
192.083070003615
 21
14.06781232404996
 31
0.0
 11
192.4899342191145
 21
14.08102711828531
 31
0.0
 11
192.2983119496978
 21
14.28966761302482
 31
0.0
 11
192.0966752013698
 21
14.4822942015183
 31
0.0
 11
192.1204947794749
 21
14.49525327269563
 31
0.0
 11
192.1728978513061
 21
14.52376322928575
 31
0.0
 11
192.2253009231374
 21
14.55227318587587
 31
0.0
 11
192.2491205012425
 21
14.5652322570532
 31
0.0
 11
192.4387101558627
 21
14.39079508370268
 31
0.0
 11
192.6200310940435
 21
14.20305846374092
 31
0.0
 11
192.7777729231147
 21
14.01782380992437
 31
0.0
 11
192.8966252504058
 21
13.85089253500951
 31
0.0
 11
192.8715408217923
 21
13.83501202286071
 31
0.0
 11
192.8163550788425
 21
13.80007489613336
 31
0.0
 11
192.7611693358928
 21
13.765137769406
 31
0.0
 11
192.7360849072793
 21
13.7492572572572
 31
0.0
 11
192.6775518151612
 21
13.83887824681814
 31
0.0
 11
192.6050015078457
 21
13.93650288221042
 31
0.0
 11
192.2125412924095
 21
13.91636286943764
 31
0.0
 11
191.824947406956
 21
13.89803302999777
 31
0.0
 11
191.4567378976213
 21
13.882021787224
 31
0.0
 11
191.1224308105412
 21
13.86883756444951
 31
0.0
 11
190.8365441918518
 21
13.85898878500751
 31
0.0
 11
190.821186232174
 21
13.83220523466696
 31
0.0
 11
190.7937434290546
 21
13.82143559057252
 31
0.0
 11
190.7867927192319
 21
13.84370299445583
 31
0.0
 11
190.7702179496548
 21
13.89680218833143
 31
0.0
 11
190.7504351601596
 21
13.96017864553779
 31
0.0
 11
190.7338603905825
 21
14.01327783941338
 31
0.0
 11
190.7269096807598
 21
14.0355452432967
 31
0.0
 11
190.9091199859153
 21
14.03751638912953
 31
0.0
 11
191.1174975848588
 21
14.0435621182948
 31
0.0
 11
191.2303203127216
 21
14.25483550301556
 31
0.0
 11
191.3407936722035
 21
14.48509813155881
 31
0.0
 11
191.4358254265627
 21
14.70699600701772
 31
0.0
 11
191.4043277461597
 21
14.70699600701772
 31
0.0
 11
191.3212884069153
 21
14.70699600701772
 31
0.0
 11
191.2038879617768
 21
14.70699600701772
 31
0.0
 11
191.0693069636912
 21
14.70699600701772
 31
0.0
 11
190.9347259656055
 21
14.70699600701772
 31
0.0
 11
190.817325520467
 21
14.70699600701772
 31
0.0
 11
190.7342861812226
 21
14.70699600701772
 31
0.0
 11
190.7027885008196
 21
14.70699600701772
 31
0.0
  0
SPLINE
  5
B8
102
{ACAD_REACTORS
330
D5
102
}
330
48
100
AcDbEntity
  8
_U_30EC_U_30A4_U_30E4_U_30FC_1
  6
Continuous
 62
     2
100
AcDbSpline
210
0.0
220
0.0
230
1.0
 70
    11
 71
     3
 72
   131
 73
   127
 74
   125
 42
0.000000001
 43
0.0000000001
 44
0.00000001
 40
0.0
 40
0.0
 40
0.0
 40
0.0
 40
0.0195577029826562
 40
0.0426490537461665
 40
0.2863607575857061
 40
0.5344948436189786
 40
0.7842238845573569
 40
0.8737315789467665
 40
0.980383281031313
 40
1.092842274517057
 40
1.199761146656815
 40
1.289788768186517
 40
1.351573580786206
 40
1.370727117561439
 40
1.416400936017866
 40
1.470914848356024
 40
1.51658866679183
 40
1.535742203552915
 40
1.634216592293291
 40
1.760283341175136
 40
1.897966686682201
 40
2.031216387369028
 40
2.049689751138021
 40
2.101115601646956
 40
2.17950257774007
 40
2.278859318314182
 40
2.393194462258838
 40
2.516516648383946
 40
2.642834515406072
 40
2.766156701983574
 40
2.880491846754683
 40
2.979848588358722
 40
3.058235565443897
 40
3.109661416669048
 40
3.128134780704225
 40
3.146783742386542
 40
3.191254343315403
 40
3.244332157316062
 40
3.288802758225966
 40
3.307451719895208
 40
3.327717853844818
 40
3.383747753580175
 40
3.46838866592456
 40
3.57448783769886
 40
3.694892515728957
 40
3.822449946852087
 40
3.950007377920467
 40
4.070412055800551
 40
4.176511227368097
 40
4.26115213950154
 40
4.317182039076728
 40
4.337448172964647
 40
4.620011002696248
 40
4.885096638397526
 40
4.94537304351835
 40
5.014107710488665
 40
5.070481727652066
 40
5.319246955636577
 40
5.584812164506047
 40
5.859000912056905
 40
6.133746937542101
 40
6.401732212968929
 40
6.42073668399552
 40
6.47284571745117
 40
6.550702743894098
 40
6.646951193874306
 40
6.75423449793063
 40
6.865196086587408
 40
6.972479390357867
 40
7.068727839772029
 40
7.146584865451038
 40
7.198693898189267
 40
7.217698368905408
 40
7.234950401630888
 40
7.276089864269931
 40
7.32519180351604
 40
7.366331266090425
 40
7.383583298769777
 40
7.402779163492154
 40
7.453386443254585
 40
7.524934666445587
 40
7.606953361405926
 40
7.688972056429078
 40
7.760520279784329
 40
7.811127559734571
 40
7.830323424546192
 40
7.847844055299822
 40
7.894799345666856
 40
7.962779392744537
 40
8.043374293560577
 40
8.128174145149478
 40
8.208769044817268
 40
8.276749090376965
 40
8.323704379669524
 40
8.341225010056254
 40
8.358497614800402
 40
8.401679126686608
 40
8.457815092185664
 40
8.513951057728066
 40
8.55713256970802
 40
8.574405174505063
 40
8.602340668616508
 40
8.643455660540061
 40
8.663225271966729
 40
8.715345156564362
 40
8.789031889628687
 40
8.8735020455204
 40
8.957972194324011
 40
9.031658925567891
 40
9.083778811234568
 40
9.103548423003028
 40
9.119550083123565
 40
9.160817522379867
 40
9.217244429110233
 40
9.278724491644718
 40
9.335151398295503
 40
9.376418837357798
 40
9.392420497300586
 40
9.401196302734807
 40
9.417494229384284
 40
9.426270027749556
 40
9.440875075477589
 40
9.475702496998771
 40
9.517270709865938
 40
9.552098131994109
 40
9.566703169884319
 40
9.566703169884319
 40
9.566703169884319
 40
9.566703169884319
 10
194.6170254148479
 20
15.67015871511032
 30
0.0
 10
194.613434509337
 20
15.66453690702161
 30
0.0
 10
194.6056039123625
 20
15.65227754419112
 30
0.0
 10
194.5129968974545
 20
15.61601916040989
 30
0.0
 10
194.4887622233248
 20
15.40148444212709
 30
0.0
 10
194.3858709845939
 20
15.22197284509711
 30
0.0
 10
194.1220492364304
 20
15.03615573798146
 30
0.0
 10
194.284547156918
 20
14.95959336566085
 30
0.0
 10
194.3607225760838
 20
14.89856693195446
 30
0.0
 10
194.4492171072758
 20
14.83515804544764
 30
0.0
 10
194.538993023311
 20
14.77525634219566
 30
0.0
 10
194.5883817636047
 20
14.72102154849212
 30
0.0
 10
194.674570815738
 20
14.69286240541839
 30
0.0
 10
194.641126067423
 20
14.65713309652816
 30
0.0
 10
194.621467116631
 20
14.62550387991909
 30
0.0
 10
194.5919888217883
 20
14.58475872796071
 30
0.0
 10
194.5688989446031
 20
14.55504663489643
 30
0.0
 10
194.5380205968357
 20
14.50211422668492
 30
0.0
 10
194.472919336574
 20
14.62740334938906
 30
0.0
 10
194.3796000122415
 20
14.68213900233938
 30
0.0
 10
194.2950636285139
 20
14.73916423939348
 30
0.0
 10
194.1722498125741
 20
14.89675287427527
 30
0.0
 10
194.1764450847301
 20
14.82035806766842
 30
0.0
 10
194.1751478652677
 20
14.77361280161301
 30
0.0
 10
194.1758126448076
 20
14.69584785812606
 30
0.0
 10
194.1755549986956
 20
14.59902068324429
 30
0.0
 10
194.1756431239922
 20
14.48650279078815
 30
0.0
 10
194.1756077302281
 20
14.36524085945706
 30
0.0
 10
194.1756511758278
 20
14.24086897858967
 30
0.0
 10
194.1755199942405
 20
14.11967683631343
 30
0.0
 10
194.1759477562047
 20
14.0069114891975
 30
0.0
 10
194.174667820231
 20
13.91082913768752
 30
0.0
 10
194.1779759851043
 20
13.83113826468708
 30
0.0
 10
194.1715197740086
 20
13.78815175788792
 30
0.0
 10
194.1806208705556
 20
13.7495543237205
 30
0.0
 10
194.1447910339935
 20
13.75810887724078
 30
0.0
 10
194.1115223815252
 20
13.75342519985455
 30
0.0
 10
194.060456257604
 20
13.75351298759792
 30
0.0
 10
194.0269723972814
 20
13.75794430283829
 30
0.0
 10
193.9907585408753
 20
13.74960793842518
 30
0.0
 10
194.0009782568665
 20
13.79145277179292
 30
0.0
 10
193.9936487887773
 20
13.83778560820181
 30
0.0
 10
193.9973633136102
 20
13.9237483110602
 30
0.0
 10
193.9959480554896
 20
14.02605142704855
 30
0.0
 10
193.9964105554639
 20
14.14453223931517
 30
0.0
 10
193.996277368623
 20
14.2695768315336
 30
0.0
 10
193.9963015910045
 20
14.39475828107053
 30
0.0
 10
193.9963354925551
 20
14.5128664537906
 30
0.0
 10
193.9962060293132
 20
14.61628748709517
 30
0.0
 10
193.9965507549081
 20
14.69932036153668
 30
0.0
 10
193.9958698278689
 20
14.75143368521244
 30
0.0
 10
193.9994586600625
 20
14.87912907821363
 30
0.0
 10
193.7826171386436
 20
14.58048716819622
 30
0.0
 10
193.6021354921951
 20
14.35263981511516
 30
0.0
 10
193.5490322295611
 20
14.49373443289815
 30
0.0
 10
193.5200429133149
 20
14.54325767560946
 30
0.0
 10
193.419664806282
 20
14.64641779790108
 30
0.0
 10
193.7405127723261
 20
14.72695035023779
 30
0.0
 10
193.8689897005429
 20
14.91066283036436
 30
0.0
 10
194.0906454325359
 20
15.11931995771763
 30
0.0
 10
194.1770224894069
 20
15.29339211228347
 30
0.0
 10
194.4549394229074
 20
15.56967051342518
 30
0.0
 10
194.3346247839284
 20
15.5653455955112
 30
0.0
 10
194.2863197351348
 20
15.56614856202559
 30
0.0
 10
194.2102377454905
 20
15.56574582146591
 30
0.0
 10
194.116701000975
 20
15.56590275611615
 30
0.0
 10
194.0117594788557
 20
15.56582502576229
 30
0.0
 10
193.9033887738717
 20
15.56595464378561
 30
0.0
 10
193.7981454235897
 20
15.56554393490698
 30
0.0
 10
193.7056237819412
 20
15.56682073671596
 30
0.0
 10
193.6268130800707
 20
15.56340766534857
 30
0.0
 10
193.5839674565379
 20
15.57023350036325
 30
0.0
 10
193.5449499586515
 20
15.56065064201129
 30
0.0
 10
193.5526365271863
 20
15.59420779565548
 30
0.0
 10
193.5485464404312
 20
15.62523550322239
 30
0.0
 10
193.5485531368814
 20
15.67236529270906
 30
0.0
 10
193.5526239724911
 20
15.70340941646784
 30
0.0
 10
193.5449495574583
 20
15.73701861635907
 30
0.0
 10
193.5834819405494
 20
15.72748410420877
 30
0.0
 10
193.624122801448
 20
15.73397435498077
 30
0.0
 10
193.6951471850463
 20
15.7310015065026
 30
0.0
 10
193.7729318149633
 20
15.73174761399163
 30
0.0
 10
193.8507292246474
 20
15.73247814044531
 30
0.0
 10
193.9217232089907
 20
15.72954235514166
 30
0.0
 10
193.962427979182
 20
15.73595468772958
 30
0.0
 10
194.0009853489909
 20
15.7265052417601
 30
0.0
 10
193.9927342754928
 20
15.7626469215879
 30
0.0
 10
193.9982346669358
 20
15.80129837613232
 30
0.0
 10
193.9955754206163
 20
15.86913528561843
 30
0.0
 10
193.9965815471533
 20
15.94591641538744
 30
0.0
 10
193.9960178018319
 20
16.02849393582759
 30
0.0
 10
193.9970714526592
 20
16.1051732922988
 30
0.0
 10
193.994267586313
 20
16.17331990776701
 30
0.0
 10
194.0000702721303
 20
16.21132399809348
 30
0.0
 10
193.9915654551159
 20
16.24758448077647
 30
0.0
 10
194.0255610233125
 20
16.23755723771854
 30
0.0
 10
194.0594575683099
 20
16.2407326681371
 30
0.0
 10
194.1126669060347
 20
16.23508965640616
 30
0.0
 10
194.1660768574483
 20
16.23434774436433
 30
0.0
 10
194.199591464949
 20
16.2281922348299
 30
0.0
 10
194.2388086183039
 20
16.23346029773604
 30
0.0
 10
194.2120263698492
 20
16.1925338079349
 30
0.0
 10
194.1708111001724
 20
16.20371204538109
 30
0.0
 10
194.1782641540873
 20
16.15867056192122
 30
0.0
 10
194.1742227952185
 20
16.11412278028144
 30
0.0
 10
194.176171404964
 20
16.04223572621703
 30
0.0
 10
194.1752364849758
 20
15.96168630588772
 30
0.0
 10
194.176510719003
 20
15.88173995404998
 30
0.0
 10
194.1732043793863
 20
15.80841837083187
 30
0.0
 10
194.1802106179962
 20
15.76688643002574
 30
0.0
 10
194.1701440380125
 20
15.72752418568118
 30
0.0
 10
194.2029814803922
 20
15.73468063430987
 30
0.0
 10
194.236457729648
 20
15.7302724313795
 30
0.0
 10
194.2915053476019
 20
15.73217943347903
 30
0.0
 10
194.3489502595314
 20
15.73185366407294
 30
0.0
 10
194.4023026248309
 20
15.73106308733087
 30
0.0
 10
194.4398540896639
 20
15.7331395911808
 30
0.0
 10
194.4623172523237
 20
15.73022338167114
 30
0.0
 10
194.4751678073731
 20
15.73572552644062
 30
0.0
 10
194.4858255685888
 20
15.73801118197796
 30
0.0
 10
194.4986635650143
 20
15.7449497258806
 30
0.0
 10
194.5145991033071
 20
15.72853046313679
 30
0.0
 10
194.5410623920891
 20
15.71709122319454
 30
0.0
 10
194.5726805253758
 20
15.69644687835196
 30
0.0
 10
194.5987255892151
 20
15.681168696283
 30
0.0
 10
194.6128517723974
 20
15.67266976323188
 30
0.0
 10
194.6170254148479
 20
15.67015871511032
 30
0.0
 11
194.6170254148479
 21
15.67015871511032
 31
0.0
 11
194.6049990002243
 21
15.65473571164187
 31
0.0
 11
194.5848961795565
 21
15.64337406233921
 31
0.0
 11
194.4778986355813
 21
15.4244062023116
 31
0.0
 11
194.3477039934324
 21
15.21317201512161
 31
0.0
 11
194.1996540366071
 21
15.01206059027481
 31
0.0
 11
194.2734958253735
 21
14.96147384935382
 31
0.0
 11
194.36056643118
 21
14.89988411653743
 31
0.0
 11
194.4518003750404
 21
14.8341316059443
 31
0.0
 11
194.5381321779687
 21
14.77105653169309
 31
0.0
 11
194.6104963609787
 21
14.71749910790247
 31
0.0
 11
194.6598274450843
 21
14.6802995486911
 31
0.0
 11
194.6486940702213
 21
14.66471410869499
 31
0.0
 11
194.6221452532403
 21
14.62754882870427
 31
0.0
 11
194.5904579555533
 21
14.58319026871534
 31
0.0
 11
194.5639091385723
 21
14.54602498872462
 31
0.0
 11
194.5527757637093
 21
14.53043954872851
 31
0.0
 11
194.4807013362947
 21
14.5975400869062
 31
0.0
 11
194.385285698538
 21
14.67993354174673
 31
0.0
 11
194.279326415217
 21
14.76785017366921
 31
0.0
 11
194.175621051109
 21
14.85152024309272
 31
0.0
 11
194.175621051109
 21
14.83304687900868
 31
0.0
 11
194.175621051109
 21
14.7816210276396
 31
0.0
 11
194.175621051109
 21
14.70323405031004
 31
0.0
 11
194.175621051109
 21
14.60387730834454
 31
0.0
 11
194.175621051109
 21
14.48954216306766
 31
0.0
 11
194.175621051109
 21
14.36621997580395
 31
0.0
 11
194.175621051109
 21
14.23990210787797
 31
0.0
 11
194.175621051109
 21
14.11657992061426
 31
0.0
 11
194.175621051109
 21
14.00224477533738
 31
0.0
 11
194.175621051109
 21
13.90288803337188
 31
0.0
 11
194.175621051109
 21
13.82450105604231
 31
0.0
 11
194.175621051109
 21
13.77307520467324
 31
0.0
 11
194.175621051109
 21
13.7546018405892
 31
0.0
 11
194.1569720893626
 21
13.7546018405892
 31
0.0
 11
194.1125014882749
 21
13.7546018405892
 31
0.0
 11
194.0594236740736
 21
13.7546018405892
 31
0.0
 11
194.0149530729859
 21
13.7546018405892
 31
0.0
 11
193.9963041112395
 21
13.7546018405892
 31
0.0
 11
193.9963041112395
 21
13.77486797460226
 31
0.0
 11
193.9963041112395
 21
13.83089787452074
 31
0.0
 11
193.9963041112395
 21
13.91553878716354
 31
0.0
 11
193.9963041112395
 21
14.02163795934959
 31
0.0
 11
193.9963041112395
 21
14.14204263789781
 31
0.0
 11
193.9963041112395
 21
14.2696000696271
 31
0.0
 11
193.9963041112395
 21
14.39715750135639
 31
0.0
 11
193.9963041112395
 21
14.51756217990461
 31
0.0
 11
193.9963041112395
 21
14.62366135209065
 31
0.0
 11
193.9963041112395
 21
14.70830226473346
 31
0.0
 11
193.9963041112395
 21
14.76433216465193
 31
0.0
 11
193.9963041112395
 21
14.784598298665
 31
0.0
 11
193.7883272849481
 21
14.59331998274059
 31
0.0
 11
193.5763486358425
 21
14.43414885430812
 31
0.0
 11
193.5495629014482
 21
14.48814671952097
 31
0.0
 11
193.5138765415024
 21
14.54689140572028
 31
0.0
 11
193.4799697494124
 21
14.59192871537979
 31
0.0
 11
193.6830287742319
 21
14.73563387201054
 31
0.0
 11
193.881853195826
 21
14.91168423529989
 31
0.0
 11
194.0677041444178
 21
15.11327514524951
 31
0.0
 11
194.2318427502303
 21
15.33360194186112
 31
0.0
 11
194.3655301434864
 21
15.56585996513641
 31
0.0
 11
194.3465256724482
 21
15.56585996513641
 31
0.0
 11
194.2944166389562
 21
15.56585996513641
 31
0.0
 11
194.2165596124447
 21
15.56585996513641
 31
0.0
 11
194.1203111623478
 21
15.56585996513641
 31
0.0
 11
194.0130278580997
 21
15.56585996513641
 31
0.0
 11
193.9020662691345
 21
15.56585996513641
 31
0.0
 11
193.7947829648864
 21
15.56585996513641
 31
0.0
 11
193.6985345147895
 21
15.56585996513641
 31
0.0
 11
193.620677488278
 21
15.56585996513641
 31
0.0
 11
193.568568454786
 21
15.56585996513641
 31
0.0
 11
193.5495639837478
 21
15.56585996513641
 31
0.0
 11
193.5495639837478
 21
15.58311199790988
 31
0.0
 11
193.5495639837478
 21
15.62425146067737
 31
0.0
 11
193.5495639837478
 21
15.67335340010955
 31
0.0
 11
193.5495639837478
 21
15.71449286287704
 31
0.0
 11
193.5495639837478
 21
15.73174489565051
 31
0.0
 11
193.5687598486009
 21
15.73174489565051
 31
0.0
 11
193.6193671286684
 21
15.73174489565051
 31
0.0
 11
193.690915352212
 21
15.73174489565051
 31
0.0
 11
193.7729340474937
 21
15.73174489565051
 31
0.0
 11
193.8549527427753
 21
15.73174489565051
 31
0.0
 11
193.9265009663189
 21
15.73174489565051
 31
0.0
 11
193.9771082463864
 21
15.73174489565051
 31
0.0
 11
193.9963041112395
 21
15.73174489565051
 31
0.0
 11
193.9963041112395
 21
15.74926552655224
 31
0.0
 11
193.9963041112395
 21
15.79622081736887
 31
0.0
 11
193.9963041112395
 21
15.86420086526758
 31
0.0
 11
193.9963041112395
 21
15.94479576741553
 31
0.0
 11
193.9963041112395
 21
16.02959562097989
 31
0.0
 11
193.9963041112395
 21
16.11019052312784
 31
0.0
 11
193.9963041112395
 21
16.17817057102655
 31
0.0
 11
193.9963041112395
 21
16.22512586184318
 31
0.0
 11
193.9963041112395
 21
16.24264649274491
 31
0.0
 11
194.0135484112111
 21
16.24165806167521
 31
0.0
 11
194.0566591611401
 21
16.23918698400095
 31
0.0
 11
194.1127031360477
 21
16.23597458302442
 31
0.0
 11
194.1687471109553
 21
16.23276218204788
 31
0.0
 11
194.2118578608843
 21
16.23029110437362
 31
0.0
 11
194.2291021608559
 21
16.22930267330392
 31
0.0
 11
194.2143774674851
 21
16.20556293372641
 31
0.0
 11
194.175621051109
 21
16.1918376733131
 31
0.0
 11
194.175621051109
 21
16.17206806177291
 31
0.0
 11
194.175621051109
 21
16.11994817680332
 31
0.0
 11
194.175621051109
 21
16.04626144288079
 31
0.0
 11
194.175621051109
 21
15.96179128448181
 31
0.0
 11
194.175621051109
 21
15.87732112608281
 31
0.0
 11
194.175621051109
 21
15.80363439216029
 31
0.0
 11
194.175621051109
 21
15.7515145071907
 31
0.0
 11
194.175621051109
 21
15.73174489565051
 31
0.0
 11
194.1916227112935
 21
15.73174489565051
 31
0.0
 11
194.232890150717
 21
15.73174489565051
 31
0.0
 11
194.2893170576837
 21
15.73174489565051
 31
0.0
 11
194.3507971204981
 21
15.73174489565051
 31
0.0
 11
194.4072240274648
 21
15.73174489565051
 31
0.0
 11
194.4484914668882
 21
15.73174489565051
 31
0.0
 11
194.4644931270728
 21
15.73174489565051
 31
0.0
 11
194.4728206422924
 21
15.73451387455927
 31
0.0
 11
194.4882860277004
 21
15.73965626396125
 31
0.0
 11
194.49661354292
 21
15.74242524287001
 31
0.0
 11
194.5091363776005
 21
15.734909523983
 31
0.0
 11
194.5389985218386
 21
15.7169874250986
 31
0.0
 11
194.5746404359293
 21
15.69559653288173
 31
0.0
 11
194.6045025801674
 21
15.67767443399733
 31
0.0
 11
194.6170254148479
 21
15.67015871511032
 31
0.0
  0
SPLINE
  5
B9
102
{ACAD_REACTORS
330
D6
102
}
330
48
100
AcDbEntity
  8
_U_30EC_U_30A4_U_30E4_U_30FC_1
  6
Continuous
 62
     2
100
AcDbSpline
210
0.0
220
0.0
230
1.0
 70
    11
 71
     3
 72
   124
 73
   120
 74
   118
 42
0.000000001
 43
0.0000000001
 44
0.00000001
 40
0.0
 40
0.0
 40
0.0
 40
0.0
 40
0.027818722962451
 40
0.1011590162384269
 40
0.2048470170590239
 40
0.3237088716559245
 40
0.4425707262522
 40
0.5462587270699547
 40
0.6195990203311798
 40
0.647417752257866
 40
0.6750060736115242
 40
0.7357003855242812
 40
0.7963946998054545
 40
0.8239830245571873
 40
0.8540933811102966
 40
0.9373396629409647
 40
1.063094687343246
 40
1.220731268638084
 40
1.399622220914758
 40
1.589140358637743
 40
1.778658496423909
 40
1.957549448940519
 40
2.115186030873169
 40
2.240941056914473
 40
2.324187341760543
 40
2.354297700109393
 40
2.381886024671901
 40
2.442580338710491
 40
2.503274652750521
 40
2.530862977314627
 40
2.56098394927858
 40
2.640393784452926
 40
2.752662861759149
 40
2.881361560118166
 40
3.010060258455213
 40
3.12232933570536
 40
3.201739170817974
 40
3.231860142753335
 40
3.264298024030389
 40
3.352343701778255
 40
3.482095226868775
 40
3.639650650173031
 40
3.811108022565478
 40
3.98256539492798
 40
4.140120818152554
 40
4.269872343141262
 40
4.357918020802319
 40
4.390355902043946
 40
4.423256253992515
 40
4.508104530073036
 40
4.624121560636804
 40
4.750528176031561
 40
4.866545206602008
 40
4.951393482691965
 40
4.984293834645366
 40
5.011450833242285
 40
5.071196230152073
 40
5.130941627057152
 40
5.15809862564882
 40
5.19099897760151
 40
5.275847253689336
 40
5.39186428425677
 40
5.518270899648315
 40
5.634287930209354
 40
5.719136206288028
 40
5.752036558235916
 40
5.782130946282941
 40
5.862783906229114
 40
5.979550131774986
 40
6.117984316640391
 40
6.263641154587938
 40
6.402075339414144
 40
6.51884156490794
 40
6.599494524815525
 40
6.629588912848763
 40
6.65440302822634
 40
6.713575149488107
 40
6.784199939329425
 40
6.843372060493527
 40
6.868186175802773
 40
6.896246243201829
 40
6.939586233758214
 40
6.967846564564845
 40
7.043584251089787
 40
7.153234334451654
 40
7.283231855734415
 40
7.420011856035457
 40
7.550009376579818
 40
7.65965945883523
 40
7.735397144417226
 40
7.7636574748514
 40
7.796409728011057
 40
7.880876065096332
 40
7.996370852465717
 40
8.122208446418613
 40
8.237703224799207
 40
8.3221695620109
 40
8.354921815205914
 40
8.382078813307697
 40
8.441824209207006
 40
8.50156960524016
 40
8.52872660348574
 40
8.56147885669579
 40
8.64594519387784
 40
8.761439980865351
 40
8.887277580764493
 40
9.002772362001014
 40
9.087238696661235
 40
9.119990949235689
 40
9.152428830613387
 40
9.240474508638599
 40
9.370226034149546
 40
9.527781457984423
 40
9.699238830981406
 40
9.87069620397859
 40
10.028251627814
 40
10.15800315332562
 40
10.24604883135116
 40
10.27848670378519
 40
10.27848670378519
 40
10.27848670378519
 40
10.27848670378519
 10
195.3821827564383
 20
14.01410517385762
 30
0.0
 10
195.3914554737523
 20
14.01410498511279
 30
0.0
 10
195.4251744536861
 20
14.01410430876719
 30
0.0
 10
195.4934706812465
 20
14.01411807243309
 30
0.0
 10
195.592014171158
 20
14.0140322421955
 30
0.0
 10
195.7062066464812
 20
14.01441755612255
 30
0.0
 10
195.818589441707
 20
14.0130083589755
 30
0.0
 10
195.9214376600118
 20
14.01719117422248
 30
0.0
 10
195.9806839874849
 20
14.00823089251988
 30
0.0
 10
196.0371265937032
 20
14.02164434526066
 30
0.0
 10
196.0246255586954
 20
13.97087198613366
 30
0.0
 10
196.0329549635703
 20
13.92589320939071
 30
0.0
 10
196.0248170841119
 20
13.88056752990492
 30
0.0
 10
196.0370529214457
 20
13.8293193240847
 30
0.0
 10
195.9747773490334
 20
13.84447955365281
 30
0.0
 10
195.9060513026868
 20
13.83359750710746
 30
0.0
 10
195.7782756749592
 20
13.83911304747977
 30
0.0
 10
195.6262984511643
 20
13.83700851253702
 30
0.0
 10
195.4502695972523
 20
13.83771002588478
 30
0.0
 10
195.2644431934287
 20
13.83745237531296
 30
0.0
 10
195.0786167437175
 20
13.83771005144606
 30
0.0
 10
194.9025880142168
 20
13.83700841847735
 30
0.0
 10
194.7506104154195
 20
13.83911332229993
 30
0.0
 10
194.6228357664554
 20
13.83359680767644
 30
0.0
 10
194.5541077836581
 20
13.84448077125947
 30
0.0
 10
194.4918349042883
 20
13.82931786684213
 30
0.0
 10
194.5040616290017
 20
13.88057510805176
 30
0.0
 10
194.4960004462597
 20
13.9258247327243
 30
0.0
 10
194.5040675809892
 20
13.97106357955328
 30
0.0
 10
194.4918238487083
 20
14.02234176909963
 30
0.0
 10
194.5525017120698
 20
14.0074957736314
 30
0.0
 10
194.6162810745736
 20
14.01756448170739
 30
0.0
 10
194.7277314353502
 20
14.01294644212004
 30
0.0
 10
194.8497533443824
 20
14.01413328905473
 30
0.0
 10
194.9719538137823
 20
14.0151586390064
 30
0.0
 10
195.0829794287392
 20
14.01092475623406
 30
0.0
 10
195.1476517413959
 20
14.02018584521744
 30
0.0
 10
195.2091162810501
 20
14.00604423049687
 30
0.0
 10
195.1930065601337
 20
14.07235527884522
 30
0.0
 10
195.2042980327358
 20
14.1444779012198
 30
0.0
 10
195.1987400822561
 20
14.2751376088829
 30
0.0
 10
195.200803506169
 20
14.42607323708244
 30
0.0
 10
195.2000167127295
 20
14.59335873107889
 30
0.0
 10
195.2007845215627
 20
14.76061110332305
 30
0.0
 10
195.1988038785628
 20
14.91163289269916
 30
0.0
 10
195.204130615662
 20
15.04206069552996
 30
0.0
 10
195.1933101388425
 20
15.114654426059
 30
0.0
 10
195.2090326429875
 20
15.18150469436799
 30
0.0
 10
195.143270813249
 20
15.16580512490825
 30
0.0
 10
195.0756367830763
 20
15.17609243083996
 30
0.0
 10
194.9615885293809
 20
15.17113786847123
 30
0.0
 10
194.8451242674902
 20
15.17414128030475
 30
0.0
 10
194.7306554121477
 20
15.16880303143389
 30
0.0
 10
194.6640324657812
 20
15.18001268074825
 30
0.0
 10
194.5990769715186
 20
15.16349132665012
 30
0.0
 10
194.6107989758707
 20
15.2147372047706
 30
0.0
 10
194.6032830189122
 20
15.25950333784092
 30
0.0
 10
194.6107989878835
 20
15.30426944897963
 30
0.0
 10
194.5990769505347
 20
15.35551536129743
 30
0.0
 10
194.6640326339199
 20
15.33899381766817
 30
0.0
 10
194.7306533339822
 20
15.35020571373946
 30
0.0
 10
194.8451352858063
 20
15.34485436710666
 30
0.0
 10
194.9615454436962
 20
15.3479118877112
 30
0.0
 10
195.0757660174641
 20
15.3427849901071
 30
0.0
 10
195.1430150439227
 20
15.353457333556
 30
0.0
 10
195.2083325941438
 20
15.33742082669079
 30
0.0
 10
195.1941391448553
 20
15.39949685750056
 30
0.0
 10
195.2036059462994
 20
15.46586761628765
 30
0.0
 10
195.1990269004085
 20
15.58239972741968
 30
0.0
 10
195.2007696555948
 20
15.71426685022378
 30
0.0
 10
195.1997551495391
 20
15.85615960150275
 30
0.0
 10
195.2017191344373
 20
15.98769050702582
 30
0.0
 10
195.1964668553851
 20
16.10524577283005
 30
0.0
 10
195.2073408763474
 20
16.16947789001586
 30
0.0
 10
195.1919536641853
 20
16.2310880254505
 30
0.0
 10
195.24075915378
 20
16.21702407382113
 30
0.0
 10
195.2853995564726
 20
16.21954742075317
 30
0.0
 10
195.3538643946742
 20
16.21512797401711
 30
0.0
 10
195.3959106169103
 20
16.20613025544037
 30
0.0
 10
195.4487544758774
 20
16.21411714866512
 30
0.0
 10
195.4207035002014
 20
16.17113917611679
 30
0.0
 10
195.3749142248594
 20
16.18259552043845
 30
0.0
 10
195.3869539073265
 20
16.12173520005145
 30
0.0
 10
195.3796086070641
 20
16.0576929946878
 30
0.0
 10
195.3831195826161
 20
15.94909368863917
 30
0.0
 10
195.3819806760173
 20
15.82494319144759
 30
0.0
 10
195.3819174780263
 20
15.69189719829883
 30
0.0
 10
195.3832872966868
 20
15.56797381249559
 30
0.0
 10
195.3791638801313
 20
15.45868337849341
 30
0.0
 10
195.3877763103564
 20
15.39608580094172
 30
0.0
 10
195.3746757454401
 20
15.33740133296367
 30
0.0
 10
195.4393884328198
 20
15.35362113810904
 30
0.0
 10
195.5060405953155
 20
15.34270260383313
 30
0.0
 10
195.6198779541103
 20
15.34793740173758
 30
0.0
 10
195.7357259122097
 20
15.34485547516915
 30
0.0
 10
195.849692426328
 20
15.35018259812514
 30
0.0
 10
195.9160341018099
 20
15.33904208166545
 30
0.0
 10
195.980718852548
 20
15.3554697959318
 30
0.0
 10
195.9689820772722
 20
15.30425925210052
 30
0.0
 10
195.976516806304
 20
15.25950334121002
 30
0.0
 10
195.9689820992258
 20
15.21474739010028
 30
0.0
 10
195.9807188140736
 20
15.16353690871041
 30
0.0
 10
195.9160344075252
 20
15.1799642779422
 30
0.0
 10
195.8496886430824
 20
15.1688278444727
 30
0.0
 10
195.7357459487012
 20
15.17413115893121
 30
0.0
 10
195.6197995623054
 20
15.17114764593545
 30
0.0
 10
195.5062756882122
 20
15.17606892268394
 30
0.0
 10
195.4389231318804
 20
15.1658508751352
 30
0.0
 10
195.3734285122495
 20
15.18145996138816
 30
0.0
 10
195.3891713619218
 20
15.11463851827412
 30
0.0
 10
195.3783275998213
 20
15.04207057815881
 30
0.0
 10
195.3836581629792
 20
14.91162247614417
 30
0.0
 10
195.3817136151855
 20
14.76064558185228
 30
0.0
 10
195.3823133683214
 20
14.59322243934161
 30
0.0
 10
195.3821506559603
 20
14.42656176118374
 30
0.0
 10
195.3821895488136
 20
14.2736014292164
 30
0.0
 10
195.3821816413099
 20
14.1484917898571
 30
0.0
 10
195.3821828382745
 20
14.06507890991425
 30
0.0
 10
195.3821827716208
 20
14.02491778281981
 30
0.0
 10
195.3821827564383
 20
14.01410517385762
 30
0.0
 11
195.3821827564383
 21
14.01410517385762
 31
0.0
 11
195.4100014883675
 21
14.01410517385762
 31
0.0
 11
195.4833417816353
 21
14.01410517385762
 31
0.0
 11
195.5870297824622
 21
14.01410517385762
 31
0.0
 11
195.7058916370687
 21
14.01410517385762
 31
0.0
 11
195.8247534916751
 21
14.01410517385762
 31
0.0
 11
195.928441492502
 21
14.01410517385762
 31
0.0
 11
196.0017817857698
 21
14.01410517385762
 31
0.0
 11
196.029600517699
 21
14.01410517385762
 31
0.0
 11
196.029600517699
 21
13.98651684921174
 31
0.0
 11
196.029600517699
 21
13.92582253499081
 31
0.0
 11
196.029600517699
 21
13.86512822076989
 31
0.0
 11
196.029600517699
 21
13.83753989612401
 31
0.0
 11
195.9994901593494
 21
13.83753989612401
 31
0.0
 11
195.9162438745004
 21
13.83753989612401
 31
0.0
 11
195.7904888484521
 21
13.83753989612401
 31
0.0
 11
195.6328522665041
 21
13.83753989612401
 31
0.0
 11
195.4539613139564
 21
13.83753989612401
 31
0.0
 11
195.2644431761089
 21
13.83753989612401
 31
0.0
 11
195.0749250382613
 21
13.83753989612401
 31
0.0
 11
194.8960340857136
 21
13.83753989612401
 31
0.0
 11
194.7383975037656
 21
13.83753989612401
 31
0.0
 11
194.6126424777172
 21
13.83753989612401
 31
0.0
 11
194.5293961928683
 21
13.83753989612401
 31
0.0
 11
194.4992858345187
 21
13.83753989612401
 31
0.0
 11
194.4992858345187
 21
13.86512822076989
 31
0.0
 11
194.4992858345187
 21
13.92582253499081
 31
0.0
 11
194.4992858345187
 21
13.98651684921175
 31
0.0
 11
194.4992858345187
 21
14.01410517385762
 31
0.0
 11
194.5294068064947
 21
14.01410517385762
 31
0.0
 11
194.608816641704
 21
14.01410517385762
 31
0.0
 11
194.721085719069
 21
14.01410517385762
 31
0.0
 11
194.8497844175118
 21
14.01410517385762
 31
0.0
 11
194.9784831159545
 21
14.01410517385762
 31
0.0
 11
195.0907521933195
 21
14.01410517385762
 31
0.0
 11
195.1701620285289
 21
14.01410517385762
 31
0.0
 11
195.2002830005048
 21
14.01410517385762
 31
0.0
 11
195.2002830005048
 21
14.0465430552384
 31
0.0
 11
195.2002830005048
 21
14.13458873327195
 31
0.0
 11
195.2002830005048
 21
14.26434025879507
 31
0.0
 11
195.2002830005048
 21
14.42189568264457
 31
0.0
 11
195.2002830005048
 21
14.59335305565726
 31
0.0
 11
195.2002830005048
 21
14.76481042866996
 31
0.0
 11
195.2002830005048
 21
14.92236585251946
 31
0.0
 11
195.2002830005048
 21
15.05211737804258
 31
0.0
 11
195.2002830005048
 21
15.14016305607613
 31
0.0
 11
195.2002830005048
 21
15.17260093745691
 31
0.0
 11
195.1673826485529
 21
15.17260093745691
 31
0.0
 11
195.0825343724662
 21
15.17260093745691
 31
0.0
 11
194.9665173418988
 21
15.17260093745691
 31
0.0
 11
194.8401107265044
 21
15.17260093745691
 31
0.0
 11
194.724093695937
 21
15.17260093745691
 31
0.0
 11
194.6392454198503
 21
15.17260093745691
 31
0.0
 11
194.6063450678984
 21
15.17260093745691
 31
0.0
 11
194.6063450678984
 21
15.19975793614804
 31
0.0
 11
194.6063450678984
 21
15.25950333326852
 31
0.0
 11
194.6063450678984
 21
15.31924873038899
 31
0.0
 11
194.6063450678984
 21
15.34640572908012
 31
0.0
 11
194.6392454198504
 21
15.34640572908012
 31
0.0
 11
194.724093695937
 21
15.34640572908012
 31
0.0
 11
194.8401107265044
 21
15.34640572908012
 31
0.0
 11
194.9665173418988
 21
15.34640572908012
 31
0.0
 11
195.0825343724662
 21
15.34640572908012
 31
0.0
 11
195.1673826485529
 21
15.34640572908012
 31
0.0
 11
195.2002830005048
 21
15.34640572908012
 31
0.0
 11
195.2002830005048
 21
15.37650011731372
 31
0.0
 11
195.2002830005048
 21
15.45715307777975
 31
0.0
 11
195.2002830005048
 21
15.57391930412611
 31
0.0
 11
195.2002830005048
 21
15.71235349000065
 31
0.0
 11
195.2002830005048
 21
15.85801032905126
 31
0.0
 11
195.2002830005048
 21
15.99644451492581
 31
0.0
 11
195.2002830005048
 21
16.11321074127216
 31
0.0
 11
195.2002830005048
 21
16.1938637017382
 31
0.0
 11
195.2002830005048
 21
16.2239580899718
 31
0.0
 11
195.2250405288618
 21
16.22228324219444
 31
0.0
 11
195.2840777118669
 21
16.21828937441768
 31
0.0
 11
195.3545414464214
 21
16.21352249997443
 31
0.0
 11
195.4135786294265
 21
16.20952863219766
 31
0.0
 11
195.4383361577835
 21
16.20785378442031
 31
0.0
 11
195.423306722403
 21
16.18415814206514
 31
0.0
 11
195.3821827564383
 21
16.17047697887412
 31
0.0
 11
195.3821827564383
 21
16.1422166479484
 31
0.0
 11
195.3821827564383
 21
16.06647896106747
 31
0.0
 11
195.3821827564383
 21
15.95682887707568
 31
0.0
 11
195.3821827564383
 21
15.82683135481736
 31
0.0
 11
195.3821827564383
 21
15.69005135313688
 31
0.0
 11
195.3821827564383
 21
15.56005383087857
 31
0.0
 11
195.3821827564383
 21
15.45040374688677
 31
0.0
 11
195.3821827564383
 21
15.37466606000584
 31
0.0
 11
195.3821827564383
 21
15.34640572908012
 31
0.0
 11
195.4149350096115
 21
15.34640572908012
 31
0.0
 11
195.4994013467422
 21
15.34640572908012
 31
0.0
 11
195.6148961342476
 21
15.34640572908012
 31
0.0
 11
195.7407337385445
 21
15.34640572908012
 31
0.0
 11
195.8562285260498
 21
15.34640572908012
 31
0.0
 11
195.9406948631806
 21
15.34640572908012
 31
0.0
 11
195.9734471163538
 21
15.34640572908012
 31
0.0
 11
195.9734471163538
 21
15.31924873038899
 31
0.0
 11
195.9734471163538
 21
15.25950333326852
 31
0.0
 11
195.9734471163538
 21
15.19975793614804
 31
0.0
 11
195.9734471163538
 21
15.17260093745691
 31
0.0
 11
195.9406948631806
 21
15.17260093745691
 31
0.0
 11
195.8562285260498
 21
15.17260093745691
 31
0.0
 11
195.7407337385445
 21
15.17260093745691
 31
0.0
 11
195.6148961342476
 21
15.17260093745691
 31
0.0
 11
195.4994013467422
 21
15.17260093745691
 31
0.0
 11
195.4149350096114
 21
15.17260093745691
 31
0.0
 11
195.3821827564383
 21
15.17260093745691
 31
0.0
 11
195.3821827564383
 21
15.14016305607613
 31
0.0
 11
195.3821827564383
 21
15.05211737804258
 31
0.0
 11
195.3821827564383
 21
14.92236585251946
 31
0.0
 11
195.3821827564383
 21
14.76481042866996
 31
0.0
 11
195.3821827564383
 21
14.59335305565726
 31
0.0
 11
195.3821827564383
 21
14.42189568264457
 31
0.0
 11
195.3821827564383
 21
14.26434025879507
 31
0.0
 11
195.3821827564383
 21
14.13458873327195
 31
0.0
 11
195.3821827564383
 21
14.0465430552384
 31
0.0
 11
195.3821827564383
 21
14.01410517385762
 31
0.0
  0
SPLINE
  5
BA
102
{ACAD_REACTORS
330
D7
102
}
330
48
100
AcDbEntity
  8
_U_30EC_U_30A4_U_30E4_U_30FC_1
  6
Continuous
 62
     2
100
AcDbSpline
210
0.0
220
0.0
230
1.0
 70
     8
 71
     3
 72
    62
 73
    58
 74
    56
 42
0.000000001
 43
0.0000000001
 44
0.00000001
 40
0.0
 40
0.0
 40
0.0
 40
0.0
 40
0.0598250028308485
 40
0.2024846486897331
 40
0.3727558389221031
 40
0.515415484793607
 40
0.5752404975785339
 40
0.9332326775487246
 40
1.290451762839466
 40
1.602077253145862
 40
1.699931634112134
 40
1.799359756425047
 40
2.27012014965711
 40
2.804661928461628
 40
2.882342287383354
 40
3.076543185719229
 40
3.329004354835722
 40
3.581465524568583
 40
3.77566642454389
 40
3.853346784558523
 40
3.899120679595268
 40
3.984129341792266
 40
4.029903236817615
 40
4.105797496059779
 40
4.295533144152756
 40
4.542189486612024
 40
4.788845828875996
 40
4.978581476410399
 40
5.054475735244649
 40
5.621734664339719
 40
6.13086724203775
 40
6.225249780949027
 40
6.318913039727691
 40
6.663579954559346
 40
7.047498900225191
 40
7.435230791576111
 40
7.498943906668523
 40
7.650875181210517
 40
7.832212509002027
 40
7.984143783697413
 40
8.04785689890354
 40
8.09155463273305
 40
8.172707566964718
 40
8.216405300768445
 40
8.28902178216133
 40
8.462184160757703
 40
8.668861838005784
 40
8.842024215264376
 40
8.91464069547557
 40
8.98988158086178
 40
9.155411528827699
 40
9.320941477744494
 40
9.39618235248775
 40
9.454709011144297
 40
9.583467660171232
 40
9.712226309013511
 40
9.770752957989965
 40
9.770752957989965
 40
9.770752957989965
 40
9.770752957989965
 10
187.1521871691833
 20
14.93980288195951
 30
0.0
 10
187.1322348171623
 20
14.93980875568673
 30
0.0
 10
187.0647037716466
 20
14.93982863806158
 30
0.0
 10
186.9410612161788
 20
14.93949362520326
 30
0.0
 10
186.7863180150056
 20
14.94107673750513
 30
0.0
 10
186.669734948248
 20
14.93686078860496
 30
0.0
 10
186.455094263424
 20
14.95215205331627
 30
0.0
 10
186.8518948407228
 20
14.59198721286194
 30
0.0
 10
186.8945656069267
 20
14.37510503397167
 30
0.0
 10
187.3189162146611
 20
14.19325062511451
 30
0.0
 10
187.1439821496074
 20
14.08985196568073
 30
0.0
 10
187.0194523925084
 20
13.87831523212725
 30
0.0
 10
186.7666277235942
 20
14.34806081001567
 30
0.0
 10
186.4797602893627
 20
14.99511516984534
 30
0.0
 10
186.4906335926659
 20
14.68782672154703
 30
0.0
 10
186.488289277796
 20
14.52288616971785
 30
0.0
 10
186.4861096126411
 20
14.28879670711697
 30
0.0
 10
186.4980774396346
 20
14.04498072421784
 30
0.0
 10
186.468798474063
 20
13.89855796860983
 30
0.0
 10
186.511452262547
 20
13.75113490174535
 30
0.0
 10
186.4239814005639
 20
13.76685797306217
 30
0.0
 10
186.3768527606745
 20
13.76694303543451
 30
0.0
 10
186.2898973207713
 20
13.75109425482907
 30
0.0
 10
186.3313474021722
 20
13.89527771422761
 30
0.0
 10
186.3029875004285
 20
14.03855052698455
 30
0.0
 10
186.3145973775299
 20
14.27674947365267
 30
0.0
 10
186.3124175648272
 20
14.5051723524035
 30
0.0
 10
186.3103111127993
 20
14.66705729376
 30
0.0
 10
186.3208035438325
 20
14.98153709333762
 30
0.0
 10
186.0128963252894
 20
14.29229470872439
 30
0.0
 10
185.7055258267454
 20
13.81476750243045
 30
0.0
 10
185.5851367066275
 20
14.03741112637428
 30
0.0
 10
185.4074607910721
 20
14.15011034955561
 30
0.0
 10
185.8853326362894
 20
14.32548143465466
 30
0.0
 10
185.9353959057208
 20
14.56091929252033
 30
0.0
 10
186.3583799621717
 20
14.95322989344607
 30
0.0
 10
186.127675427354
 20
14.93655307029067
 30
0.0
 10
186.004968585934
 20
14.94269518948772
 30
0.0
 10
185.8325483095662
 20
14.93312822699575
 30
0.0
 10
185.7213224694448
 20
14.95448818489666
 30
0.0
 10
185.6025779627448
 20
14.92136265357421
 30
0.0
 10
185.6183169706686
 20
15.00203900606885
 30
0.0
 10
185.6178550933762
 20
15.04645414290856
 30
0.0
 10
185.6027881889931
 20
15.12967081778536
 30
0.0
 10
185.7372380935444
 20
15.09062651983886
 30
0.0
 10
185.8619755545747
 20
15.11739729328425
 30
0.0
 10
186.062875523728
 20
15.10063949044055
 30
0.0
 10
186.1921540949353
 20
15.12204225913007
 30
0.0
 10
186.3328419928294
 20
15.08868778853423
 30
0.0
 10
186.2980927452614
 20
15.22651875785071
 30
0.0
 10
186.3222185666714
 20
15.34963257349485
 30
0.0
 10
186.2967086182392
 20
15.47024055670341
 30
0.0
 10
186.3333251146685
 20
15.60539865141501
 30
0.0
 10
186.2211417027769
 20
15.58094545781896
 30
0.0
 10
186.1280356457136
 20
15.59307749842028
 30
0.0
 10
186.0191547579819
 20
15.5895763007
 30
0.0
 10
185.9569697640964
 20
15.58981755951609
 30
0.0
 10
185.9375369557246
 20
15.5898929512415
 30
0.0
 11
187.1521871691833
 21
14.93980288195951
 31
0.0
 11
187.0923621563982
 21
14.93980288195951
 31
0.0
 11
186.949702510526
 21
14.93980288195951
 31
0.0
 11
186.7794313202913
 21
14.93980288195951
 31
0.0
 11
186.6367716744191
 21
14.93980288195951
 31
0.0
 11
186.576946661634
 21
14.93980288195951
 31
0.0
 11
186.7679960754842
 21
14.63705127966892
 31
0.0
 11
186.994127278563
 21
14.36051890576686
 31
0.0
 11
187.2244526173371
 21
14.1506125349346
 31
0.0
 11
187.1521596330704
 21
14.08466403668717
 31
0.0
 11
187.0879364402643
 21
14.00876059052561
 31
0.0
 11
186.7732818215558
 21
14.35891458349367
 31
0.0
 11
186.4886640249976
 21
14.81138295143612
 31
0.0
 11
186.4886640249976
 21
14.73370259137323
 31
0.0
 11
186.4886640249976
 21
14.539501691216
 31
0.0
 11
186.4886640249976
 21
14.2870405210116
 31
0.0
 11
186.4886640249976
 21
14.03457935080721
 31
0.0
 11
186.4886640249976
 21
13.84037845064998
 31
0.0
 11
186.4886640249976
 21
13.76269809058709
 31
0.0
 11
186.4428901295605
 21
13.76269809058709
 31
0.0
 11
186.3578814666058
 21
13.76269809058709
 31
0.0
 11
186.3121075711687
 21
13.76269809058709
 31
0.0
 11
186.3121075711687
 21
13.83859234982738
 31
0.0
 11
186.3121075711687
 21
14.02832799792811
 31
0.0
 11
186.3121075711687
 21
14.27498434045906
 31
0.0
 11
186.3121075711687
 21
14.52164068299
 31
0.0
 11
186.3121075711687
 21
14.71137633109073
 31
0.0
 11
186.3121075711687
 21
14.78727059033102
 31
0.0
 11
185.9987626399266
 21
14.31440946197694
 31
0.0
 11
185.6352328662148
 21
13.9579517710938
 31
0.0
 11
185.5773927461627
 21
14.03253450545024
 31
0.0
 11
185.5094852305341
 21
14.0970432293924
 31
0.0
 11
185.7750721898319
 21
14.31672219795893
 31
0.0
 11
186.0233764972061
 21
14.609533959717
 31
0.0
 11
186.226498280526
 21
14.93980288195951
 31
0.0
 11
186.1627851652721
 21
14.93980288195951
 31
0.0
 11
186.0108538904359
 21
14.93980288195951
 31
0.0
 11
185.8295165624055
 21
14.93980288195951
 31
0.0
 11
185.6775852875693
 21
14.93980288195951
 31
0.0
 11
185.6138721723154
 21
14.93980288195951
 31
0.0
 11
185.6138721723154
 21
14.9835006160021
 31
0.0
 11
185.6138721723154
 21
15.06465355065261
 31
0.0
 11
185.6138721723154
 21
15.1083512846952
 31
0.0
 11
185.6864886537961
 21
15.1083512846952
 31
0.0
 11
185.8596510327118
 21
15.1083512846952
 31
0.0
 11
186.0663287107723
 21
15.1083512846952
 31
0.0
 11
186.239491089688
 21
15.1083512846952
 31
0.0
 11
186.3121075711687
 21
15.1083512846952
 31
0.0
 11
186.3121075711687
 21
15.18359217009306
 31
0.0
 11
186.3121075711687
 21
15.34912211796835
 31
0.0
 11
186.3121075711687
 21
15.51465206584364
 31
0.0
 11
186.3121075711687
 21
15.5898929512415
 31
0.0
 11
186.2535809125055
 21
15.5898929512415
 31
0.0
 11
186.1248222634467
 21
15.5898929512415
 31
0.0
 11
185.9960636143877
 21
15.5898929512415
 31
0.0
 11
185.9375369557246
 21
15.5898929512415
 31
0.0
  0
SPLINE
  5
BB
102
{ACAD_REACTORS
330
D7
102
}
330
48
100
AcDbEntity
  8
_U_30EC_U_30A4_U_30E4_U_30FC_1
  6
Continuous
 62
     2
100
AcDbSpline
210
0.0
220
0.0
230
1.0
 70
     8
 71
     3
 72
    70
 73
    66
 74
    64
 42
0.000000001
 43
0.0000000001
 44
0.00000001
 40
0.0
 40
0.0
 40
0.0
 40
0.0
 40
0.0241731073021472
 40
0.0846058988987013
 40
0.1631685280353284
 40
0.2417311571789756
 40
0.3021639488292751
 40
0.3263370654895541
 40
0.3533118254248881
 40
0.4228783438922111
 40
0.5179999095313367
 40
0.6216398239466031
 40
0.7167613891499635
 40
0.7863279069649792
 40
0.8133026791761729
 40
0.8372943998771563
 40
0.8945054261372748
 40
0.9627895541962506
 40
1.020000580349059
 40
1.043992300975157
 40
1.071934345522972
 40
1.113121768772996
 40
1.145225199332313
 40
1.225483775412834
 40
1.329819923771524
 40
1.434156071994393
 40
1.514414647795798
 40
1.546518078208401
 40
1.578974764260174
 40
1.662678849314169
 40
1.77713137366839
 40
1.901833377474781
 40
2.01628590050057
 40
2.099989982527938
 40
2.132446666570296
 40
2.15878235448602
 40
2.216720867907811
 40
2.27465938133423
 40
2.300995069256166
 40
2.333451754066138
 40
2.417155836543819
 40
2.531608358985258
 40
2.656310362283753
 40
2.770762886388886
 40
2.854466971340051
 40
2.886923657363857
 40
2.913597976833293
 40
2.982389642875101
 40
3.07645171694697
 40
3.178937260458591
 40
3.272999334740002
 40
3.34179100105923
 40
3.368465320663543
 40
3.396976080738764
 40
3.472140811846
 40
3.57840819030869
 40
3.700226892456126
 40
3.822045594634343
 40
3.92831297325645
 40
4.003477705314848
 40
4.031988456866913
 40
4.058324144797715
 40
4.116262658236882
 40
4.174201171400688
 40
4.200536849608624
 40
4.200536849608624
 40
4.200536849608624
 40
4.200536849608624
 10
185.9857704961609
 20
15.75844135397711
 30
0.0
 10
185.9938259544679
 20
15.75844359811692
 30
0.0
 10
186.0220200663241
 20
15.75845146032804
 30
0.0
 10
186.0765534803672
 20
15.75830754828377
 30
0.0
 10
186.1482891808604
 20
15.75909120499903
 30
0.0
 10
186.2236240137062
 20
15.75627570463817
 30
0.0
 10
186.2713052366438
 20
15.76298403400963
 30
0.0
 10
186.3195071245616
 20
15.75197563692439
 30
0.0
 10
186.3062571799873
 20
15.80546402997039
 30
0.0
 10
186.3151093964538
 20
15.86049583543097
 30
0.0
 10
186.3108698036285
 20
15.95419908726114
 30
0.0
 10
186.3133483481281
 20
16.04959482218539
 30
0.0
 10
186.3090938706059
 20
16.14356821983392
 30
0.0
 10
186.3179818665847
 20
16.19795062438018
 30
0.0
 10
186.3046977409945
 20
16.25233997691465
 30
0.0
 10
186.3514119277109
 20
16.23842216335364
 30
0.0
 10
186.3943254545737
 20
16.24103877374051
 30
0.0
 10
186.4605443456684
 20
16.23648422450763
 30
0.0
 10
186.5013342271799
 20
16.22778162134172
 30
0.0
 10
186.5525145690819
 20
16.23531799890206
 30
0.0
 10
186.5253720487201
 20
16.19349970223285
 30
0.0
 10
186.4803096055707
 20
16.20284992072594
 30
0.0
 10
186.4942065045051
 20
16.13841207371836
 30
0.0
 10
186.4858414431653
 20
16.07378219627399
 30
0.0
 10
186.4903632178398
 20
15.97529141193889
 30
0.0
 10
186.4854741311167
 20
15.87595932842574
 30
0.0
 10
186.4950258992081
 20
15.81293115552973
 30
0.0
 10
186.47997614552
 20
15.74964011499795
 30
0.0
 10
186.5449159457208
 20
15.76515072944275
 30
0.0
 10
186.6116246399497
 20
15.75499387697818
 30
0.0
 10
186.7241435470827
 20
15.75988800099374
 30
0.0
 10
186.8390235448953
 20
15.75691204732789
 30
0.0
 10
186.9519871999747
 20
15.76221664184997
 30
0.0
 10
187.0176267597678
 20
15.75107306472094
 30
0.0
 10
187.0816276691053
 20
15.76744532319863
 30
0.0
 10
187.0703142889189
 20
15.7176168990528
 30
0.0
 10
187.0775339871509
 20
15.67416715212129
 30
0.0
 10
187.0703142611269
 20
15.63071745587451
 30
0.0
 10
187.0816277175994
 20
15.58088895196882
 30
0.0
 10
187.0176263598972
 20
15.59726166091369
 30
0.0
 10
186.9519921240459
 20
15.58611271661594
 30
0.0
 10
186.838997431733
 20
15.5914485720686
 30
0.0
 10
186.7242456548644
 20
15.58834345663828
 30
0.0
 10
186.611318368686
 20
15.59364894682594
 30
0.0
 10
186.5455220903585
 20
15.582573000196
 30
0.0
 10
186.4816097975358
 20
15.59887597847624
 30
0.0
 10
186.4936015165126
 20
15.54423524395748
 30
0.0
 10
186.4862104613005
 20
15.48854295047847
 30
0.0
 10
186.4892684841983
 20
15.39649689140575
 30
0.0
 10
186.4893422785682
 20
15.30179109873105
 30
0.0
 10
186.486031357836
 20
15.20952782902269
 30
0.0
 10
186.4939505989903
 20
15.15435768736143
 30
0.0
 10
186.4815076611617
 20
15.10058169100139
 30
0.0
 10
186.5389116551631
 20
15.11453768862784
 30
0.0
 10
186.5994708140383
 20
15.10511457884229
 30
0.0
 10
186.7048680855081
 20
15.10942885928707
 30
0.0
 10
186.8204294070622
 20
15.10835504612034
 30
0.0
 10
186.9359688877797
 20
15.10725965900997
 30
0.0
 10
187.0414181130841
 20
15.11162525770635
 30
0.0
 10
187.1018680471803
 20
15.10209426030674
 30
0.0
 10
187.1592837739111
 20
15.11617289606382
 30
0.0
 10
187.1477773876708
 20
15.06707153265684
 30
0.0
 10
187.153756678175
 20
15.02564658018651
 30
0.0
 10
187.1520311050801
 20
14.97651677966697
 30
0.0
 10
187.1521500122971
 20
14.94854428447609
 30
0.0
 10
187.1521871691833
 20
14.93980288195951
 30
0.0
 11
185.9857704961609
 21
15.75844135397711
 31
0.0
 11
186.0099436128282
 21
15.75844135397711
 31
0.0
 11
186.0703764044962
 21
15.75844135397711
 31
0.0
 11
186.1489390336648
 21
15.75844135397711
 31
0.0
 11
186.2275016628334
 21
15.75844135397711
 31
0.0
 11
186.2879344545015
 21
15.75844135397711
 31
0.0
 11
186.3121075711687
 21
15.75844135397711
 31
0.0
 11
186.3121075711687
 21
15.78541612620069
 31
0.0
 11
186.3121075711687
 21
15.85498264404045
 31
0.0
 11
186.3121075711687
 21
15.95010420924991
 31
0.0
 11
186.3121075711687
 21
16.05374412358261
 31
0.0
 11
186.3121075711687
 21
16.14886568879207
 31
0.0
 11
186.3121075711687
 21
16.21843220663183
 31
0.0
 11
186.3121075711687
 21
16.24540697885541
 31
0.0
 11
186.3360407604892
 21
16.24373213107806
 31
0.0
 11
186.3931122119458
 21
16.23973826330128
 31
0.0
 11
186.461229750781
 21
16.23497138885804
 31
0.0
 11
186.5183012022376
 21
16.23097752108128
 31
0.0
 11
186.5422343915581
 21
16.22930267330392
 31
0.0
 11
186.5274972731229
 21
16.20556293372641
 31
0.0
 11
186.4886640249976
 21
16.1918376733131
 31
0.0
 11
186.4886640249976
 21
16.15973424225117
 31
0.0
 11
186.4886640249976
 21
16.07947566459636
 31
0.0
 11
186.4886640249976
 21
15.9751395136451
 31
0.0
 11
186.4886640249976
 21
15.87080336269385
 31
0.0
 11
186.4886640249976
 21
15.79054478503904
 31
0.0
 11
186.4886640249976
 21
15.75844135397711
 31
0.0
 11
186.5211207110824
 21
15.75844135397711
 31
0.0
 11
186.6048247962486
 21
15.75844135397711
 31
0.0
 11
186.7192773208634
 21
15.75844135397711
 31
0.0
 11
186.8439793252946
 21
15.75844135397711
 31
0.0
 11
186.9584318499095
 21
15.75844135397711
 31
0.0
 11
187.0421359350756
 21
15.75844135397711
 31
0.0
 11
187.0745926211604
 21
15.75844135397711
 31
0.0
 11
187.0745926211604
 21
15.73210566604967
 31
0.0
 11
187.0745926211604
 21
15.6741671526093
 31
0.0
 11
187.0745926211604
 21
15.61622863916894
 31
0.0
 11
187.0745926211604
 21
15.5898929512415
 31
0.0
 11
187.0421359350756
 21
15.5898929512415
 31
0.0
 11
186.9584318499095
 21
15.5898929512415
 31
0.0
 11
186.8439793252946
 21
15.5898929512415
 31
0.0
 11
186.7192773208634
 21
15.5898929512415
 31
0.0
 11
186.6048247962485
 21
15.5898929512415
 31
0.0
 11
186.5211207110824
 21
15.5898929512415
 31
0.0
 11
186.4886640249976
 21
15.5898929512415
 31
0.0
 11
186.4886640249976
 21
15.56321863152028
 31
0.0
 11
186.4886640249976
 21
15.4944269648708
 31
0.0
 11
186.4886640249976
 21
15.40036489006439
 31
0.0
 11
186.4886640249976
 21
15.29787934587232
 31
0.0
 11
186.4886640249976
 21
15.20381727106589
 31
0.0
 11
186.4886640249976
 21
15.13502560441642
 31
0.0
 11
186.4886640249976
 21
15.1083512846952
 31
0.0
 11
186.5171747850993
 21
15.1083512846952
 31
0.0
 11
186.5923395162766
 21
15.1083512846952
 31
0.0
 11
186.6986068948376
 21
15.1083512846952
 31
0.0
 11
186.8204255970904
 21
15.1083512846952
 31
0.0
 11
186.9422442993433
 21
15.1083512846952
 31
0.0
 11
187.0485116779043
 21
15.1083512846952
 31
0.0
 11
187.1236764090816
 21
15.1083512846952
 31
0.0
 11
187.1521871691833
 21
15.1083512846952
 31
0.0
 11
187.1521871691833
 21
15.08201559676775
 31
0.0
 11
187.1521871691833
 21
15.02407708332736
 31
0.0
 11
187.1521871691833
 21
14.96613856988696
 31
0.0
 11
187.1521871691833
 21
14.93980288195951
 31
0.0
  0
SPLINE
  5
BC
102
{ACAD_REACTORS
330
D7
102
}
330
48
100
AcDbEntity
  8
_U_30EC_U_30A4_U_30E4_U_30FC_1
  6
Continuous
 62
     2
100
AcDbSpline
210
0.0
220
0.0
230
1.0
 70
     8
 71
     3
 72
    24
 73
    20
 74
    18
 42
0.000000001
 43
0.0000000001
 44
0.00000001
 40
0.0
 40
0.0
 40
0.0
 40
0.0
 40
0.2211075008753736
 40
0.4273218586244801
 40
0.5080174679238614
 40
0.5914835907869338
 40
0.8143265690191965
 40
1.054651302686521
 40
1.295452694023114
 40
1.518109231328766
 40
1.540864321905382
 40
1.595126460622644
 40
1.659890947895958
 40
1.714153085187317
 40
1.736908174961618
 40
1.764951100735294
 40
1.801562291220888
 40
1.953914424543562
 40
2.126104167379613
 40
2.126104167379613
 40
2.126104167379613
 40
2.126104167379613
 10
185.9375369556889
 20
15.5898929511302
 30
0.0
 10
185.9112579081812
 20
15.53097628234378
 30
0.0
 10
185.8604698894426
 20
15.41711139679262
 30
0.0
 10
185.8131784839111
 20
15.14441958233129
 30
0.0
 10
185.7043482802617
 20
15.2444548257546
 30
0.0
 10
185.5514800279637
 20
15.2711859336733
 30
0.0
 10
185.7686155181199
 20
15.48518135017637
 30
0.0
 10
185.7838483674381
 20
15.70332117782491
 30
0.0
 10
185.8906889492
 20
15.8845157906643
 30
0.0
 10
185.8305380947078
 20
16.16913226311409
 30
0.0
 10
185.9334317395401
 20
16.14114089222454
 30
0.0
 10
185.977993346815
 20
16.13243251602304
 30
0.0
 10
186.0380842395396
 20
16.12139654183358
 30
0.0
 10
186.0756619587439
 20
16.10767523055564
 30
0.0
 10
186.1252466928605
 20
16.10756076160225
 30
0.0
 10
186.0930158919325
 20
16.07306592398629
 30
0.0
 10
186.0171802221881
 20
16.08404104537963
 30
0.0
 10
186.0429447159693
 20
15.89858969582454
 30
0.0
 10
186.005589676385
 20
15.80702313549595
 30
0.0
 10
185.9857704961609
 20
15.75844135397711
 30
0.0
 11
185.9375369556889
 21
15.5898929511302
 31
0.0
 11
185.8616471328552
 21
15.38221708318565
 31
0.0
 11
185.7717402238433
 21
15.19663392356202
 31
0.0
 11
185.701149392311
 21
15.23573272563556
 31
0.0
 11
185.6245525192651
 21
15.26889163187721
 31
0.0
 11
185.7214026947455
 21
15.46958801203541
 31
0.0
 11
185.7994641467471
 21
15.69688163177028
 31
0.0
 11
185.858971692972
 21
15.93021436608696
 31
0.0
 11
185.9001601511226
 21
16.14902808999059
 31
0.0
 11
185.9224183822214
 21
16.14429889221399
 31
0.0
 11
185.975495702534
 21
16.13302157443903
 31
0.0
 11
186.0388460525844
 21
16.11956154999796
 31
0.0
 11
186.091923372897
 21
16.108284232223
 31
0.0
 11
186.1141816039958
 21
16.1035550344464
 31
0.0
 11
186.096409715746
 21
16.08186250841014
 31
0.0
 11
186.0606122998071
 21
16.0741862844537
 31
0.0
 11
186.028195330148
 21
15.92532288171316
 31
0.0
 11
185.9857704961609
 21
15.75844135397711
 31
0.0
  0
LWPOLYLINE
  5
BD
102
{ACAD_REACTORS
330
D8
102
}
330
48
100
AcDbEntity
  8
_U_30EC_U_30A4_U_30E4_U_30FC_1
  6
Continuous
 62
     2
100
AcDbPolyline
 90
        5
 70
     1
 43
0.0
 10
191.1602971697031
 20
15.39722336795632
 10
192.4578138032672
 20
15.39722336795632
 10
192.4578138032672
 20
15.2287543402206
 10
191.1602971697031
 20
15.2287543402206
 10
191.1602971697031
 20
15.39722336795632
  0
MTEXT
  5
BF
330
48
100
AcDbEntity
  8
1
 62
   250
100
AcDbMText
 10
25.00000000000003
 20
5.0
 30
0.0
 40
3.5
 41
0.0
 71
     4
 72
     1
  1
備考欄の文字列 原点位置=4
  7
CONVERTER_11
 73
     1
 44
0.54545454545455
  0
MTEXT
  5
C0
330
48
100
AcDbEntity
  8
1
 62
     2
100
AcDbMText
 10
89.50000000000003
 20
24.0
 30
0.0
 40
3.5
 41
0.0
 71
     5
 72
     1
  1
尺度
  7
CONVERTER_11
 73
     1
 44
0.54545454545455
  0
MTEXT
  5
C1
330
48
100
AcDbEntity
  8
1
 62
     2
100
AcDbMText
 10
135.5
 20
25.0
 30
0.0
 40
3.0
 41
0.0
 71
     5
 72
     1
  1
製図
  7
CONVERTER_11
 73
     1
 44
0.59090909090909
  0
MTEXT
  5
C2
330
48
100
AcDbEntity
  8
1
 62
     2
100
AcDbMText
 10
152.5
 20
25.0
 30
0.0
 40
3.0
 41
0.0
 71
     5
 72
     1
  1
設計
  7
CONVERTER_11
 73
     1
 44
0.59090909090909
  0
MTEXT
  5
C3
330
48
100
AcDbEntity
  8
1
 62
     2
100
AcDbMText
 10
118.5
 20
25.0
 30
0.0
 40
3.0
 41
0.0
 71
     5
 72
     1
  1
検図
  7
CONVERTER_11
 73
     1
 44
0.59090909090909
  0
MTEXT
  5
C4
330
48
100
AcDbEntity
  8
1
 62
     2
100
AcDbMText
 10
175.0
 20
23.5
 30
0.0
 40
3.5
 41
0.0
 71
     5
 72
     1
  1
第三角法
  7
CONVERTER_11
 73
     1
 44
0.54545454545455
  0
MTEXT
  5
C5
330
48
100
AcDbEntity
  8
1
 62
     2
100
AcDbMText
 10
101.5
 20
25.0
 30
0.0
 40
3.0
 41
0.0
 71
     5
 72
     1
  1
承認
  7
CONVERTER_11
 73
     1
 44
0.59090909090909
  0
MTEXT
  5
C6
330
48
100
AcDbEntity
  8
1
 62
     2
100
AcDbMText
 10
29.00000000000003
 20
14.25
 30
0.0
 40
3.5
 41
0.0
 71
     5
 72
     1
  1
品番
  7
CONVERTER_11
 73
     1
 44
0.72727272727273
  0
MTEXT
  5
C7
330
48
100
AcDbEntity
  8
1
 62
     2
100
AcDbMText
 10
29.00000000000003
 20
22.75
 30
0.0
 40
3.5
 41
0.0
 71
     5
 72
     1
  1
品名
  7
CONVERTER_11
 73
     1
 44
0.72727272727273
  0
MTEXT
  5
C8
330
48
100
AcDbEntity
  8
1
 62
     2
100
AcDbMText
 10
29.00000000000003
 20
34.0
 30
0.0
 40
3.5
 41
0.0
 71
     5
 72
     1
  1
備考
  7
CONVERTER_11
 73
     1
 44
0.45454545454545
  0
MTEXT
  5
C9
330
48
100
AcDbEntity
  8
1
 62
     2
100
AcDbMText
 10
32.50000000000003
 20
282.0000000000003
 30
0.0
 40
5.0
 41
0.0
 71
     5
 72
     1
  1
図番
  7
CONVERTER_11
 73
     1
 44
0.45454545454545
  0
HATCH
  5
CA
330
48
100
AcDbEntity
  8
1
  6
Continuous
 62
     2
100
AcDbHatch
 10
0.0
 20
0.0
 30
0.0
210
0.0
220
0.0
230
1.0
  2
CUSTOM0
 70
     0
 71
     1
 91
        1
 92
        1
 93
        1
 72
     4
 94
        3
 73
     0
 74
     0
 95
       99
 96
       95
 40
0.0
 40
0.0
 40
0.0
 40
0.0
 40
0.0796417172272737
 40
0.162176854235653
 40
0.2486489160957972
 40
0.3404969668524966
 40
0.4381912511164873
 40
0.5434463660245157
 40
0.6518115192847452
 40
0.7530190937887108
 40
0.8492196919724992
 40
0.9419290312997977
 40
1.03424966357004
 40
1.129078600620144
 40
1.226697027573227
 40
1.327220425421691
 40
1.470572134937977
 40
1.595489863371228
 40
1.719934125348402
 40
1.850576620127423
 40
1.989059629987301
 40
2.134139054226912
 40
2.280698007207212
 40
2.424529739039466
 40
2.565929576985855
 40
2.70823926077356
 40
2.861717887443695
 40
3.045168540347419
 40
3.183798301138614
 40
3.314813961455448
 40
3.442083470447297
 40
3.569912708372941
 40
3.702177512509363
 40
3.842307559659524
 40
3.992872223245921
 40
4.15675066221831
 40
4.310981861107531
 40
4.445859909322569
 40
4.572393936131567
 40
4.701656719781954
 40
4.768279086008429
 40
4.835960697898405
 40
4.91278891872934
 40
5.006285208481517
 40
5.026909478751594
 40
5.047533749021158
 40
5.101808031471188
 40
5.162325165538501
 40
5.226919745995824
 40
5.294231806596755
 40
5.364544852554856
 40
5.438319055467888
 40
5.517877651324243
 40
5.607647714861556
 40
5.700449642544404
 40
5.78825114236414
 40
5.872714706039784
 40
5.955167292575307
 40
6.037192395190394
 40
6.120669181469093
 40
6.206848616686336
 40
6.296680855416813
 40
6.442558392872607
 40
6.568190371608285
 40
6.69290456736035
 40
6.824220446557119
 40
6.963121850329366
 40
7.107843738851171
 40
7.253431663907262
 40
7.395187468036696
 40
7.533140753237744
 40
7.670550457175189
 40
7.816236511769277
 40
7.987691657359234
 40
8.142277421969213
 40
8.293662615415013
 40
8.442962460879258
 40
8.591598316185328
 40
8.74367899236179
 40
8.90372532369919
 40
9.076307008890538
 40
9.265578604680593
 40
9.45920379536077
 40
9.617619810273556
 40
9.753609671361929
 40
9.8748733000041
 40
9.954520184977795
 40
10.02416413719251
 40
10.09769764405447
 40
10.18909955924972
 40
10.20974586420134
 40
10.23039218263379
 40
10.30057101881262
 40
10.37632012987541
 40
10.37632012987541
 40
10.37632012987541
 40
10.37632012987541
 10
170.1465954835851
 20
14.13795663216001
 10
170.1632217851219
 20
14.11720608845319
 10
170.1970784206576
 20
14.07495111711905
 10
170.2599822541036
 20
14.02029811392071
 10
170.3332500940393
 20
13.97299025121056
 10
170.4175969238636
 20
13.93527231437936
 10
170.513224061546
 20
13.91040619731959
 10
170.6171853775346
 20
13.90309559345949
 10
170.7224020220404
 20
13.91142322794057
 10
170.8206626371334
 20
13.94149179651541
 10
170.9058986427548
 20
13.98848822971877
 10
170.9779220206103
 20
14.04952991250859
 10
171.0350917709096
 20
14.12412969578585
 10
171.0767868747439
 20
14.21002464660174
 10
171.1026952846292
 20
14.30485850432212
 10
171.1118037332653
 20
14.41854979038368
 10
171.0986864796487
 20
14.5433258777078
 10
171.0325330334414
 20
14.66014719171897
 10
170.9369370919568
 20
14.74512539577377
 10
170.8249681022369
 20
14.81416684459167
 10
170.6993659583269
 20
14.87204142045892
 10
170.5656691620856
 20
14.92373723284339
 10
170.4313122818831
 20
14.97899092397186
 10
170.3051983986877
 20
15.04939770641648
 10
170.1926579987535
 20
15.13785540731253
 10
170.0969963064458
 20
15.24981067868477
 10
170.0334157151826
 20
15.3994991010139
 10
170.0200706505015
 20
15.55932794385147
 10
170.0320510987449
 20
15.7104840530685
 10
170.071229892884
 20
15.83809244591541
 10
170.135498775091
 20
15.95080874030846
 10
170.223820499974
 20
16.04648609268686
 10
170.3338091207627
 20
16.12354214985757
 10
170.4632284401265
 20
16.18151396936281
 10
170.6111838967793
 20
16.21739177588821
 10
170.7682069455487
 20
16.22746719050564
 10
170.917494046643
 20
16.2186363776259
 10
171.059625361417
 20
16.19074899340358
 10
171.1595922609625
 20
16.1341331470114
 10
171.3125074736185
 20
16.08674602105512
 10
171.2455131717168
 20
16.00197553001189
 10
171.2296479120269
 20
15.93438901873487
 10
171.1978750531296
 20
15.86926092793192
 10
171.2150202209571
 20
15.76723453256957
 10
171.1666427208231
 20
15.77493211681906
 10
171.1315789440766
 20
15.76806771724812
 10
171.1296697985718
 20
15.83263831158197
 10
171.0985692931989
 20
15.87825639621398
 10
171.0664551628455
 20
15.93561036628458
 10
171.0208038475169
 20
15.9854046269257
 10
170.9658508218386
 20
16.02994813718998
 10
170.9010841173007
 20
16.06763988836549
 10
170.8232377310597
 20
16.09283375791361
 10
170.7355160553352
 20
16.09931230998119
 10
170.6452903277807
 20
16.09235709285613
 10
170.5594594694064
 20
16.06909190460925
 10
170.4828343638596
 20
16.03131644107546
 10
170.4165265636201
 20
15.98051641089573
 10
170.3622560536964
 20
15.91731143407211
 10
170.3224925345459
 20
15.8427645571037
 10
170.2976775510587
 20
15.75917313997765
 10
170.289212426287
 20
15.65192948382286
 10
170.3019697987103
 20
15.52965457267559
 10
170.3681548409273
 20
15.41149724291213
 10
170.4640977399832
 20
15.32606325709532
 10
170.5757914963182
 20
15.25583362306728
 10
170.7010863668703
 20
15.19659162305309
 10
170.8349823941447
 20
15.14616708086128
 10
170.968993033315
 20
15.09322516984389
 10
171.0950885316915
 20
15.02750170625176
 10
171.2076216638416
 20
14.94480352537325
 10
171.3031370284233
 20
14.83996006310081
 10
171.3672706486963
 20
14.69937117251573
 10
171.3811103725279
 20
14.54065409451596
 10
171.3673954712229
 20
14.3815315521788
 10
171.3244739153984
 20
14.23483828819215
 10
171.2545906329065
 20
14.10119796587147
 10
171.157459221383
 20
13.98532387699294
 10
171.0347806023657
 20
13.89089981770093
 10
170.8874408413167
 20
13.82179270651981
 10
170.7177132497125
 20
13.77953210858854
 10
170.5317404979596
 20
13.76781736230405
 10
170.3528955926184
 20
13.77809486683438
 10
170.1881733753742
 20
13.81966573769153
 10
170.0834410841057
 20
13.88797642883945
 10
169.9350960790365
 20
13.9367521903211
 10
169.9980378194729
 20
14.02976591290846
 10
170.0072274430059
 20
14.10296536248286
 10
170.0303711301231
 20
14.1693629450135
 10
170.0034588335317
 20
14.26974809527583
 10
170.0521338956339
 20
14.2623403351738
 10
170.0916530580697
 20
14.26894063620897
 10
170.0996204944702
 20
14.19078703218937
 10
170.1305436967922
 20
14.15600927375862
 10
170.1465954835851
 20
14.13795663216001
 97
        1
330
AC
 75
     1
 76
     2
 52
45.0
 41
0.1
 77
     0
 78
     1
 53
45.0
 43
0.0
 44
0.0
 45
-0.282842712474619
 46
0.0
 79
     0
 98
        1
 10
0.0
 20
0.0
  0
HATCH
  5
CB
330
48
100
AcDbEntity
  8
1
  6
Continuous
 62
     2
100
AcDbHatch
 10
0.0
 20
0.0
 30
0.0
210
0.0
220
0.0
230
1.0
  2
CUSTOM1
 70
     0
 71
     1
 91
        2
 92
        1
 93
        1
 72
     4
 94
        3
 73
     0
 74
     0
 95
       57
 96
       53
 40
0.0
 40
0.0
 40
0.0
 40
0.0
 40
0.0471632082809203
 40
0.091486105463211
 40
0.1357762519702345
 40
0.182652700161064
 40
0.2295203288572549
 40
0.2737751972220719
 40
0.3181310461543016
 40
0.3652607198398428
 40
0.4571007286314467
 40
0.5671851029164743
 40
0.6894623283867912
 40
0.8181758272545697
 40
0.9510087229273474
 40
1.085852229674057
 40
1.218126164475315
 40
1.343545131142367
 40
1.454537202956782
 40
1.567187607530791
 40
1.680710966642409
 40
1.794226869736774
 40
1.900009184247573
 40
2.004085860447852
 40
2.10816267445174
 40
2.214000150155283
 40
2.496038577352139
 40
2.762350745479287
 40
2.997275353279381
 40
3.185110082137705
 40
3.24640789006393
 40
3.31260755021266
 40
3.378877742711561
 40
3.440140399651413
 40
4.100501696006438
 40
4.754913085563489
 40
5.411331693423881
 40
6.07789043256863
 40
6.110575292670909
 40
6.143260152775689
 40
6.367989363395061
 40
6.61052537495144
 40
6.863389136467193
 40
7.119380025547467
 40
7.376036605090965
 40
7.631164770966208
 40
7.876722425456333
 40
8.104953735855867
 40
8.312916685924158
 40
8.49773029494119
 40
8.651018984313737
 40
8.764738853624468
 40
8.764738853624468
 40
8.764738853624468
 40
8.764738853624468
 10
174.7922649500513
 20
13.81626739612932
 10
174.7766616726931
 20
13.81826231079082
 10
174.7463947960302
 20
13.82213201360302
 10
174.7010994202252
 20
13.82341984967266
 10
174.6559553129349
 20
13.8230868355405
 10
174.60990171234
 20
13.82314658674223
 10
174.5640496172096
 20
13.8232581365
 10
174.5183711648165
 20
13.82277833456588
 10
174.4750811541608
 20
13.82461109618724
 10
174.4039947951514
 20
13.80049556814663
 10
174.4057477261441
 20
13.92184693977255
 10
174.3586196370569
 20
14.00726239751235
 10
174.3191478251762
 20
14.12486929345137
 10
174.2706635532645
 20
14.2423275254044
 10
174.2201017402521
 20
14.36405935761512
 10
174.1718634610477
 20
14.4907596786247
 10
174.1135232947595
 20
14.59933687784957
 10
174.0980892667261
 20
14.75620657134416
 10
173.9566586330635
 20
14.72373446548319
 10
173.8508397414904
 20
14.73512888682182
 10
173.7358569725222
 20
14.73392591514614
 10
173.625314225214
 20
14.73506945347407
 10
173.5176583522783
 20
14.73418350037525
 10
173.4121322529242
 20
14.73416602390521
 10
173.3109192682012
 20
14.72714032472413
 10
173.1266804827753
 20
14.75135859859876
 10
173.1157393685411
 20
14.44741691121885
 10
173.008769163475
 20
14.223531772534
 10
172.9098148604346
 20
14.03895314292499
 10
172.9225090524007
 20
13.79530204804213
 10
172.8050091716397
 20
13.825080467532
 10
172.742205586831
 20
13.822580895096
 10
172.6785872093399
 20
13.82344075102807
 10
172.3946014194076
 20
13.78098039941959
 10
173.025163849938
 20
14.50081952444788
 10
173.1087645289071
 20
15.01276539435734
 10
173.4929252789339
 20
15.53353743550046
 10
173.4777208288565
 20
16.23519626253214
 10
173.7239265722696
 20
16.22345633081256
 10
173.8256346157562
 20
16.23225004452773
 10
173.8249752035817
 20
15.98059650730348
 10
173.9428317155828
 20
15.79818020733961
 10
174.0315515260485
 20
15.55563740662871
 10
174.1322292485259
 20
15.32340030530133
 10
174.2311142712243
 20
15.08674644566917
 10
174.3299676990669
 20
14.85461739170096
 10
174.4256166390925
 20
14.63122222788789
 10
174.5159904573271
 20
14.42272549049319
 10
174.5989944568189
 20
14.23308448529325
 10
174.6726088582798
 20
14.06663106068104
 10
174.7342815895546
 20
13.92917699626101
 10
174.7749458885603
 20
13.84999239430038
 10
174.7922649500513
 20
13.81626739612932
 97
        1
330
AD
 92
       16
 93
        1
 72
     4
 94
        3
 73
     0
 74
     0
 95
       25
 96
       21
 40
0.0
 40
0.0
 40
0.0
 40
0.0
 40
0.0911479969064824
 40
0.185811789620468
 40
0.2804128399734501
 40
0.371588919071452
 40
0.4679080494218718
 40
0.564268380922924
 40
0.6605683222645002
 40
0.756965301581029
 40
0.8561348172522758
 40
1.092615965104293
 40
1.374867658141875
 40
1.611348812011595
 40
1.710518328425243
 40
1.809403163726558
 40
2.045205463294061
 40
2.326646917622119
 40
2.562449217190577
 40
2.661334043833895
 40
2.661334043833895
 40
2.661334043833895
 40
2.661334043833895
 10
173.2683700567199
 20
14.886145381973
 10
173.2987525917922
 20
14.88598079714561
 10
173.3606895889111
 20
14.88564528689927
 10
173.454135696033
 20
14.88269055451999
 10
173.5475095236357
 20
14.87977752877154
 10
173.6417760753476
 20
14.87894201643418
 10
173.7354964790967
 20
14.87996644658048
 10
173.8352040303205
 20
14.87916977470972
 10
173.9188949546312
 20
14.88921410235218
 10
174.0637996315045
 20
14.86234617674175
 10
173.9396132444801
 20
15.03665530280055
 10
173.8965867286282
 20
15.196517110061
 10
173.780892214221
 20
15.45518458550223
 10
173.7017565431256
 20
15.59231052861865
 10
173.6431576621816
 20
15.80937033134084
 10
173.5864803939438
 20
15.59266134213435
 10
173.5052809900477
 20
15.45327012438243
 10
173.4063701281488
 20
15.20406969370202
 10
173.3253625094259
 20
15.01925830226081
 10
173.2813683325838
 20
14.91650446856125
 10
173.2683700567199
 20
14.886145381973
 97
        1
330
AE
 75
     1
 76
     2
 52
45.0
 41
0.1
 77
     0
 78
     1
 53
45.0
 43
0.0
 44
0.0
 45
-0.282842712474619
 46
0.0
 79
     0
 98
        1
 10
0.0
 20
0.0
  0
HATCH
  5
CC
330
48
100
AcDbEntity
  8
1
  6
Continuous
 62
     2
100
AcDbHatch
 10
0.0
 20
0.0
 30
0.0
210
0.0
220
0.0
230
1.0
  2
CUSTOM2
 70
     0
 71
     1
 91
        1
 92
        1
 93
        1
 72
     4
 94
        3
 73
     0
 74
     0
 95
       95
 96
       91
 40
0.0
 40
0.0
 40
0.0
 40
0.0
 40
0.6550406656911871
 40
1.308087289031954
 40
1.420803739835792
 40
1.566130759770814
 40
1.757067341888469
 40
2.006513545026445
 40
2.087328263121528
 40
2.185328872295575
 40
2.294612454748312
 40
2.408936380534819
 40
2.526802767798565
 40
2.646360524615605
 40
2.7625357239716
 40
2.870057342870175
 40
2.966883448431661
 40
3.050803243518324
 40
3.115818222436626
 40
3.156030057150222
 40
3.213914225080122
 40
3.276689026450522
 40
3.342960320981298
 40
3.404230667150544
 40
3.453822809493321
 40
3.532499827188409
 40
3.634775188507125
 40
3.754909333008195
 40
3.889736761660624
 40
4.03576960217522
 40
4.187256681197576
 40
4.338733685675861
 40
4.488478734676057
 40
4.634708317831501
 40
4.771493189921211
 40
4.892686571561154
 40
5.199775528944426
 40
5.460353566929641
 40
5.667603142345492
 40
5.814722905404426
 40
5.828990806219724
 40
5.855488336304421
 40
5.869756237118753
 40
6.189796507762728
 40
6.531890469872878
 40
6.883053637016901
 40
7.230512024911388
 40
7.566966656764499
 40
7.885203559707316
 40
8.172887439719126
 40
8.418011594062685
 40
8.443926721190607
 40
8.510760470613095
 40
8.602145393795604
 40
8.701714041647042
 40
8.793098965075275
 40
8.859932715057848
 40
8.885847842603496
 40
9.24230125661274
 40
9.589275455016715
 40
9.921808543164069
 40
10.23479624298458
 40
10.29968150889168
 40
10.35323493887756
 40
10.40154625355141
 40
10.46482922477816
 40
10.55973900668396
 40
10.69239545985613
 40
10.84920353475664
 40
11.01626328594772
 40
11.18672024367434
 40
11.35372582577204
 40
11.50257442292415
 40
11.61866495023275
 40
11.71329869152861
 40
11.82511050573899
 40
11.94464880845709
 40
12.069292426425
 40
12.19707290435168
 40
12.32562632860519
 40
12.45034565331271
 40
12.56646595170318
 40
12.67099007414625
 40
12.76077625936777
 40
12.82703233506687
 40
12.87429132785988
 40
12.89831990323327
 40
12.92234847860015
 40
13.53984767410317
 40
14.18294284359359
 40
14.18294284359359
 40
14.18294284359359
 40
14.18294284359359
 10
177.3067935648021
 20
14.70898038201722
 10
177.1752019758551
 20
14.82265058603231
 10
176.9124193802728
 20
15.04964496316158
 10
176.399739344102
 20
15.89214462956286
 10
176.4106654595363
 20
15.53423377577021
 10
176.4041226527991
 20
15.39267392272135
 10
176.4028026631772
 20
15.19421305299283
 10
176.4018117602539
 20
15.02150296045987
 10
176.4024101751974
 20
14.87865373257585
 10
176.4038994301883
 20
14.78265005413365
 10
176.4055683588471
 20
14.67545503263147
 10
176.4071934954619
 20
14.56164211517586
 10
176.4092429501685
 20
14.44441572604591
 10
176.4123165501927
 20
14.32656411232972
 10
176.4156339697043
 20
14.21228087320622
 10
176.419360534028
 20
14.10521401867277
 10
176.4217338161424
 20
14.01007408766922
 10
176.4278718888357
 20
13.92558557205696
 10
176.4239784495947
 20
13.86923087298143
 10
176.4455230443077
 20
13.79825022472361
 10
176.3680940058618
 20
13.82902677604486
 10
176.3116353240191
 20
13.82011242517611
 10
176.2540495896807
 20
13.82896218398278
 10
176.1690163478472
 20
13.7973822522595
 10
176.2009714146382
 20
13.88095155992194
 10
176.1990705282539
 20
13.94882608968312
 10
176.21079600473
 20
14.05233256764424
 10
176.2164241053
 20
14.170021256167
 10
176.2237902178941
 20
14.30388609164429
 10
176.232075970161
 20
14.44764152872636
 10
176.2398851897427
 20
14.59714022843447
 10
176.2457571222657
 20
14.74792549402078
 10
176.2503667817968
 20
14.89699943878436
 10
176.2542632117542
 20
15.04122913163022
 10
176.2570715126564
 20
15.17583905213017
 10
176.2576698755022
 20
15.36469614347356
 10
176.261602386715
 20
15.58975494313158
 10
176.2442175378498
 20
15.86367091125712
 10
176.2850417342583
 20
16.02787112098601
 10
176.1995153256002
 20
16.22749661465095
 10
176.2660558907687
 20
16.22385458403978
 10
176.283872427323
 20
16.22413447160854
 10
176.40568017975
 20
16.22632927398611
 10
176.5080770335463
 20
15.9467511872152
 10
176.7580021509356
 20
15.7456300853601
 10
176.987003533111
 20
15.47792614987922
 10
177.2245151213109
 20
15.22646413862379
 10
177.4486090740772
 20
14.98969974061361
 10
177.6750716283009
 20
14.73218692583083
 10
177.8325687886514
 20
14.61649335056924
 10
178.0472129612675
 20
14.27997152538797
 10
178.0422645974618
 20
14.40464754091605
 10
178.0433931602546
 20
14.46327691935739
 10
178.0428877841517
 20
14.55043662371979
 10
178.0430475158114
 20
14.64416143182874
 10
178.0430054891318
 20
14.73018971297037
 10
178.0430202040372
 20
14.79153891945497
 10
178.0429706255985
 20
14.94135231520997
 10
178.045881152281
 20
15.17989612510109
 10
178.0259521041161
 20
15.54486509868705
 10
178.0750433936247
 20
15.80799631993418
 10
177.917795150918
 20
16.2192890494775
 10
178.0762112872421
 20
16.16398282551752
 10
178.1311680478629
 20
16.1619968650018
 10
178.1827887766739
 20
16.16264778248256
 10
178.2713198965366
 20
16.20369527738246
 10
178.2204898303169
 20
16.05696326622988
 10
178.2313389930283
 20
15.95019971954433
 10
178.2166036994847
 20
15.79085705414112
 10
178.2099976446204
 20
15.62853061652876
 10
178.2014961399915
 20
15.45992521892396
 10
178.1943227202198
 20
15.29814814703543
 10
178.1889063215389
 20
15.15422331457937
 10
178.1871713967648
 20
15.03437493466932
 10
178.1875440672319
 20
14.92686101590521
 10
178.1873656126262
 20
14.81820024645589
 10
178.187701086314
 20
14.69953570165531
 10
178.1890040622184
 20
14.57555163512742
 10
178.1908887351574
 20
14.44858294171106
 10
178.192500445485
 20
14.32153861551034
 10
178.194140313743
 20
14.1985488449218
 10
178.1962570745751
 20
14.08300931383762
 10
178.1963848422364
 20
13.98090903955839
 10
178.2006514396554
 20
13.89009848838158
 10
178.1908440085289
 20
13.83213621208785
 10
178.211847477169
 20
13.76517130132028
 10
178.1725639739896
 20
13.77291153966686
 10
177.9595307117748
 20
13.75755254145195
 10
177.7636297943186
 20
14.31403058094469
 10
177.4611197631544
 20
14.57556035348509
 10
177.3067935648021
 20
14.70898038201722
 97
        1
330
AF
 75
     1
 76
     2
 52
45.0
 41
0.1
 77
     0
 78
     1
 53
45.0
 43
0.0
 44
0.0
 45
-0.282842712474619
 46
0.0
 79
     0
 98
        1
 10
0.0
 20
0.0
  0
HATCH
  5
CD
330
48
100
AcDbEntity
  8
1
  6
Continuous
 62
     2
100
AcDbHatch
 10
0.0
 20
0.0
 30
0.0
210
0.0
220
0.0
230
1.0
  2
CUSTOM3
 70
     0
 71
     1
 91
        1
 92
        1
 93
        1
 72
     4
 94
        3
 73
     0
 74
     0
 95
      110
 96
      106
 40
0.0
 40
0.0
 40
0.0
 40
0.0
 40
0.2203406257277808
 40
0.4407808782838109
 40
0.5952494494615073
 40
0.7488431659393069
 40
0.9023581831309062
 40
1.056801968670405
 40
1.210736449099905
 40
1.363041386539784
 40
1.515315729683126
 40
1.669377239148075
 40
1.721611652756566
 40
1.773199502942996
 40
1.824933793209999
 40
1.87711042648794
 40
1.982682281206702
 40
2.07878166708751
 40
2.17280964082223
 40
2.271937807378883
 40
2.378349933379279
 40
2.494131557736468
 40
2.6266816839436
 40
2.783145050796028
 40
2.890701232940863
 40
2.993130312454725
 40
3.099869730691753
 40
3.220237816691246
 40
3.352695482737509
 40
3.481732806389747
 40
3.593499473690312
 40
3.674323013331772
 40
3.817951711952722
 40
3.946167120793719
 40
4.061405053453405
 40
4.166480796003046
 40
4.26247877505908
 40
4.350736673551038
 40
4.433071991253923
 40
4.511216293814528
 40
4.564262454117866
 40
4.61847441557151
 40
4.670128488754084
 40
4.722296879126253
 40
4.819540945314119
 40
4.931194984127978
 40
5.049996040257618
 40
5.168643755415165
 40
5.283970811762375
 40
5.392260784910201
 40
5.486512254876275
 40
5.559178233949674
 40
5.591425852853313
 40
5.626215969637698
 40
5.667155838674255
 40
5.717449290214101
 40
5.73840236094471
 40
5.784499116553669
 40
5.830595872164635
 40
5.851548942897488
 40
5.873019280661601
 40
5.924217778408143
 40
5.985325662817519
 40
6.036524160567532
 40
6.057994498334058
 40
6.236847789607324
 40
6.381409928945503
 40
6.493190424178514
 40
6.574067534230293
 40
6.691018086205387
 40
6.814881554220305
 40
6.944307823240258
 40
7.071266716065879
 40
7.193488604461726
 40
7.309042773127956
 40
7.414007203170577
 40
7.505140441886326
 40
7.531150360599434
 40
7.55922164532208
 40
7.587202218920671
 40
7.612569159498832
 40
7.662550809480737
 40
7.702878875763888
 40
7.857328205230702
 40
8.010799568088347
 40
8.165256399657297
 40
8.322232698713636
 40
8.479564855016323
 40
8.635216230290526
 40
8.790882550925444
 40
8.94830515494701
 40
9.168271839032695
 40
9.387358980987031
 40
9.608047961033213
 40
9.832914234792435
 40
9.858338694962766
 40
9.925366817229767
 40
10.02013071422734
 40
10.12876249858971
 40
10.2373942829522
 40
10.33215817995161
 40
10.39918630222363
 40
10.42461076239752
 40
10.64992019336911
 40
10.87188524531159
 40
10.87188524531159
 40
10.87188524531159
 40
10.87188524531159
 10
179.9057788376618
 20
15.73923260398192
 10
179.9092864933541
 20
15.80616462073806
 10
179.9163033987663
 20
15.94005891915861
 10
179.8198027599072
 20
16.2254855497147
 10
180.0510134726108
 20
16.16284386190289
 10
180.1919290057156
 20
16.17001554056
 10
180.3490417757588
 20
16.16235883078246
 10
180.5025913427287
 20
16.16252752283046
 10
180.6545104935081
 20
16.16182040535434
 10
180.8142214813231
 20
16.17210158351649
 10
180.9408972601117
 20
16.15496511080756
 10
181.1370821122081
 20
16.22727260107148
 10
181.1034395279078
 20
16.12640699080117
 10
181.1052011317184
 20
16.0761925394767
 10
181.1027342073458
 20
16.02712335586467
 10
181.1347076966011
 20
15.94063490847005
 10
181.0010399903256
 20
15.9899743860834
 10
180.9172208688057
 20
15.98430634314171
 10
180.8173861139324
 20
15.99465516706301
 10
180.7186576720146
 20
16.00086450411085
 10
180.612153277111
 20
16.00697763816784
 10
180.491051169806
 20
16.01588883484592
 10
180.3703381502453
 20
16.00521605912385
 10
180.1812553843437
 20
16.06468503080367
 10
180.2129028505311
 20
15.90558320077543
 10
180.1995563316834
 20
15.80839128339907
 10
180.197495842645
 20
15.69634065110106
 10
180.195818804467
 20
15.57699685629352
 10
180.1973336794233
 20
15.45032592155113
 10
180.195658247867
 20
15.3230158801612
 10
180.2058844271657
 20
15.22451566404468
 10
180.1779006596582
 20
15.08388702625637
 10
180.3508029999305
 20
15.139895511341
 10
180.4645020202772
 20
15.12719951478504
 10
180.5840151672239
 20
15.13448377051258
 10
180.6888491425071
 20
15.13878017056764
 10
180.7843084898612
 20
15.14330568258974
 10
180.8763823507032
 20
15.15149201146208
 10
180.9476551782439
 20
15.14643850638113
 10
181.0544931705685
 20
15.18536425031682
 10
181.0226603598035
 20
15.10517122005883
 10
181.0266164503929
 20
15.05562936846037
 10
181.0234502392013
 20
15.00557478039824
 10
181.0550791490584
 20
14.9212884761203
 10
180.9210133677691
 20
14.9742536549516
 10
180.82923227932
 20
14.96540080890454
 10
180.7079729189602
 20
14.97570049965155
 10
180.5914113119771
 20
14.97748911767517
 10
180.4783375745879
 20
14.97787017109693
 10
180.3679246308471
 20
14.98415449472187
 10
180.289812406784
 20
14.97189133255364
 10
180.1913625833644
 20
15.00453887616127
 10
180.2012355173561
 20
14.94769748054209
 10
180.1973923244402
 20
14.91392130557987
 10
180.1966789884269
 20
14.87119604709413
 10
180.1963369642975
 20
14.83401607262153
 10
180.1963834255345
 20
14.79487237370769
 10
180.1963649429927
 20
14.75716849497686
 10
180.1963703431806
 20
14.71944955232403
 10
180.19636972142
 20
14.6899432474515
 10
180.1963698151545
 20
14.65873577699302
 10
180.196370428792
 20
14.61414424908086
 10
180.1963671499337
 20
14.55963956508853
 10
180.196375962348
 20
14.51505540201449
 10
180.1963359653417
 20
14.43117808585742
 10
180.1976024270255
 20
14.31737520677679
 10
180.1950274117842
 20
14.1683039593371
 10
180.2065009381719
 20
14.06597203813908
 10
180.1823506222264
 20
13.93338903885839
 10
180.3332993946476
 20
13.97895732272026
 10
180.4428436671556
 20
13.96427012162354
 10
180.573397047392
 20
13.96920435125072
 10
180.6990312209514
 20
13.97257705323356
 10
180.8188730625601
 20
13.97711497498778
 10
180.9391362611426
 20
13.99048536182015
 10
181.0222761663515
 20
13.98068712782599
 10
181.1456080421075
 20
14.04126214623317
 10
181.1244269203956
 20
13.98532460134021
 10
181.1235950270117
 20
13.95939249372348
 10
181.1218963707558
 20
13.93197256190943
 10
181.1217974888829
 20
13.89738195206392
 10
181.120365930133
 20
13.86050408220775
 10
181.1532804192189
 20
13.76846841021811
 10
180.9551306988108
 20
13.84132015974834
 10
180.830054829489
 20
13.81825726508604
 10
180.6673071295156
 20
13.82454021985784
 10
180.5129366450001
 20
13.82260943909925
 10
180.3566670436943
 20
13.82393762599266
 10
180.1970544465282
 20
13.8205987248786
 10
180.0540326342237
 20
13.83265795728243
 10
179.8197144881628
 20
13.76952001976924
 10
179.9173810751198
 20
14.05620527466325
 10
179.9006868780058
 20
14.24988308142667
 10
179.9146296709684
 20
14.47848242880303
 10
179.9142987846632
 20
14.63384593955054
 10
179.9143078119263
 20
14.73966336444132
 10
179.9143055876316
 20
14.8020578412422
 10
179.9143065551888
 20
14.89220425248332
 10
179.9143065473261
 20
14.99621167157441
 10
179.9143053861102
 20
15.10022131375298
 10
179.9143090971502
 20
15.19036243688769
 10
179.9143011051051
 20
15.25276803097215
 10
179.9143334275018
 20
15.35868835961119
 10
179.9131440788319
 20
15.5162671654474
 10
179.9082216489256
 20
15.66528219822066
 10
179.9057788376618
 20
15.73923260398192
 97
        1
330
B0
 75
     1
 76
     2
 52
45.0
 41
0.1
 77
     0
 78
     1
 53
45.0
 43
0.0
 44
0.0
 45
-0.282842712474619
 46
0.0
 79
     0
 98
        1
 10
0.0
 20
0.0
  0
HATCH
  5
CE
330
48
100
AcDbEntity
  8
1
  6
Continuous
 62
     2
100
AcDbHatch
 10
0.0
 20
0.0
 30
0.0
210
0.0
220
0.0
230
1.0
  2
CUSTOM4
 70
     0
 71
     1
 91
        1
 92
        1
 93
        1
 72
     4
 94
        3
 73
     0
 74
     0
 95
       47
 96
       43
 40
0.0
 40
0.0
 40
0.0
 40
0.0
 40
0.220791280995645
 40
0.4459404186302456
 40
0.4902387190458624
 40
0.5327473892721549
 40
0.5742260451224908
 40
0.6155432630560197
 40
0.6568164066315112
 40
0.698251161878007
 40
0.740766392931655
 40
0.7851366743174564
 40
1.010288833836273
 40
1.231080507002047
 40
1.4517652436523
 40
1.676638205891591
 40
1.720461045359564
 40
1.830018144043429
 40
1.972442372353062
 40
2.114866600677435
 40
2.224423699395063
 40
2.268246538883303
 40
2.493628801207176
 40
2.715602830286573
 40
2.93421133070632
 40
3.14950236985527
 40
3.231387784850914
 40
3.318231873853949
 40
3.405143198197937
 40
3.486970301720371
 40
3.70225817249377
 40
3.920866283533995
 40
4.142839325931782
 40
4.368221903865286
 40
4.412044743359767
 40
4.521601842095783
 40
4.664026070452265
 40
4.806450298808977
 40
4.916007397546672
 40
4.959830237042996
 40
5.184703515847036
 40
5.405387250767435
 40
5.405387250767435
 40
5.405387250767435
 40
5.405387250767435
 10
182.6507427258645
 20
15.7340644095388
 10
182.6568139420002
 20
15.79758482501217
 10
182.6690762107242
 20
15.92587938689633
 10
182.5604706879411
 20
16.20166220174074
 10
182.6761985896604
 20
16.17188133432058
 10
182.7171842509015
 20
16.16765556262829
 10
182.7591205797518
 20
16.16310446389609
 10
182.800419662571
 20
16.16201982929491
 10
182.8417032115555
 20
16.16310338195229
 10
182.8836148270647
 20
16.16766112711353
 10
182.9245983549019
 20
16.17187430209733
 10
183.0404922843489
 20
16.20177611317532
 10
182.9295652727456
 20
15.92339806609895
 10
182.9574856365267
 20
15.74283140824957
 10
182.9404267346969
 20
15.50961042346477
 10
182.9414637282103
 20
15.34906622543152
 10
182.9414099399404
 20
15.22284817558726
 10
182.9414277372481
 20
15.12428963336246
 10
182.941418858108
 20
14.99280702442967
 10
182.9414263928034
 20
14.86132844968654
 10
182.9414129405128
 20
14.76276222694094
 10
182.9414531717493
 20
14.63639735624155
 10
182.9406746403817
 20
14.47482068822871
 10
182.9565958319266
 20
14.24361821892914
 10
182.9333468885407
 20
14.05874351972003
 10
183.0360183444366
 20
13.78935602770062
 10
182.8820238362836
 20
13.82660112685819
 10
182.8004129802832
 20
13.82137994680532
 10
182.7188192292582
 20
13.82660620378353
 10
182.5648513666842
 20
13.78937069885393
 10
182.6674183421918
 20
14.05875129862881
 10
182.6442045316088
 20
14.24361585325415
 10
182.6600444655138
 20
14.47482218565639
 10
182.6593296313427
 20
14.63639712308506
 10
182.6593664569907
 20
14.76276231210525
 10
182.6593549000271
 20
14.86132756635986
 10
182.6593575019213
 20
14.99281127417224
 10
182.6593648531779
 20
15.12427548031205
 10
182.6593442541351
 20
15.2228778627533
 10
182.6594082192028
 20
15.34896149354432
 10
182.6581733947591
 20
15.51210091383777
 10
182.6532040396744
 20
15.66054183777557
 10
182.6507427258645
 20
15.7340644095388
 97
        1
330
B1
 75
     1
 76
     2
 52
45.0
 41
0.1
 77
     0
 78
     1
 53
45.0
 43
0.0
 44
0.0
 45
-0.282842712474619
 46
0.0
 79
     0
 98
        1
 10
0.0
 20
0.0
  0
HATCH
  5
CF
330
48
100
AcDbEntity
  8
1
  6
Continuous
 62
     2
100
AcDbHatch
 10
0.0
 20
0.0
 30
0.0
210
0.0
220
0.0
230
1.0
  2
CUSTOM5
 70
     0
 71
     1
 91
        1
 92
        1
 93
        1
 72
     4
 94
        3
 73
     0
 74
     0
 95
      118
 96
      114
 40
0.0
 40
0.0
 40
0.0
 40
0.0
 40
0.1054708162973325
 40
0.2466098270051825
 40
0.3965912874591192
 40
0.5285525069754007
 40
0.6156245055642277
 40
0.6431434105797589
 40
0.7036850037986293
 40
0.764226598450469
 40
0.7917455052354995
 40
0.9287404319990056
 40
1.106572819088065
 40
1.287544879681038
 40
1.317578308030555
 40
1.399928030857195
 40
1.522968204799973
 40
1.675072986590598
 40
1.844616533180681
 40
2.019973001638746
 40
2.189516548880064
 40
2.341621331585404
 40
2.464661506320544
 40
2.547011229647111
 40
2.577044658168075
 40
2.603797890893146
 40
2.662655002908833
 40
2.721512114949645
 40
2.748265347702825
 40
2.774215307344903
 40
2.845959313407239
 40
2.954338556588446
 40
3.090194227585634
 40
3.24436751710061
 40
3.407699615844383
 40
3.571031714539544
 40
3.72520500392023
 40
3.861060674729742
 40
3.969439917716445
 40
4.041183923629122
 40
4.067133883213117
 40
4.311886746012327
 40
4.547897258335691
 40
4.764747083044142
 40
4.952749679951992
 40
5.045772974196154
 40
5.13786201964523
 40
5.330543169793285
 40
5.553448265244282
 40
5.795083855888448
 40
6.043293412177518
 40
6.285761695541475
 40
6.313902908752959
 40
6.384255941793548
 40
6.475714884767137
 40
6.567173827759199
 40
6.637526860839977
 40
6.665668074074341
 40
6.69201892032832
 40
6.749990782071404
 40
6.807962643790787
 40
6.834313490018267
 40
6.856393084245545
 40
6.913335195650169
 40
6.991194817302833
 40
7.076026942284094
 40
7.153886563725584
 40
7.210828674845167
 40
7.232908268931502
 40
7.258199334924023
 40
7.324875781592666
 40
7.419142481925316
 40
7.52720430884225
 40
7.635266135230821
 40
7.7295328341688
 40
7.796209279293119
 40
7.821500344595061
 40
7.844652988851132
 40
7.89986314054191
 40
7.965759128054074
 40
8.020969279771357
 40
8.044121924046824
 40
8.069356610160998
 40
8.10913439544177
 40
8.132238100191477
 40
8.193147867786832
 40
8.279261678876994
 40
8.377977512674192
 40
8.476693347146963
 40
8.562807160412003
 40
8.623716930826777
 40
8.646820636853729
 40
8.671988793774542
 40
8.734909185828453
 40
8.816705695189167
 40
8.898502204815738
 40
8.9614225973782
 40
8.986590754551312
 40
9.012941600733473
 40
9.070913462380572
 40
9.12888532408208
 40
9.155236170325407
 40
9.18040432792945
 40
9.243324721948524
 40
9.325121234212316
 40
9.406917746637971
 40
9.469838141978427
 40
9.4950062882712
 40
9.517811184379346
 40
9.572192090487354
 40
9.63709833328159
 40
9.691479239515798
 40
9.714284125643841
 40
9.714284125643841
 40
9.714284125643841
 40
9.714284125643841
 10
185.2874469028653
 20
15.26889163187721
 10
185.3090990569037
 20
15.24111869242813
 10
185.3597257109473
 20
15.17618054561238
 10
185.4349383202591
 20
15.06891060312901
 10
185.5248482274347
 20
14.95377438266627
 10
185.5709169676672
 20
14.85357045748321
 10
185.6655825294655
 20
14.78434006814944
 10
185.6204439320412
 20
14.73771639678275
 10
185.594704778579
 20
14.6966030886604
 10
185.5645196708012
 20
14.6606597172794
 10
185.5193684730561
 20
14.58579782596093
 10
185.4710504458563
 20
14.80782524253608
 10
185.3968539713072
 20
14.84510677337712
 10
185.2836047324607
 20
15.11610202130599
 10
185.2885133578169
 20
15.00095328446228
 10
185.2868486556306
 20
14.92836675781627
 10
185.2876830076714
 20
14.80625588483986
 10
185.2873609540264
 20
14.65913800810459
 10
185.2875076912455
 20
14.49307063956556
 10
185.2872950092722
 20
14.321875546086
 10
185.2879497252034
 20
14.15552828635496
 10
185.2859192461139
 20
14.00935173055691
 10
185.291346039993
 20
13.88471047474608
 10
185.2804930868707
 20
13.81718656540624
 10
185.2956739155555
 20
13.75549061417019
 10
185.2457895108133
 20
13.76727503896998
 10
185.2017150342522
 20
13.75943822779966
 10
185.1582371630201
 20
13.767604413727
 10
185.1092346786488
 20
13.75538056738465
 10
185.1218731234825
 20
13.8096066724931
 10
185.1130182968449
 20
13.86936918907556
 10
185.1175058770313
 20
13.97922029044368
 10
185.1157960135991
 20
14.11029975405678
 10
185.1163550915986
 20
14.26198011444328
 10
185.1161928768694
 20
14.42211074929956
 10
185.1162269924674
 20
14.58236865674569
 10
185.1162514960127
 20
14.73370247520444
 10
185.1161453543226
 20
14.86582156338607
 10
185.116429914193
 20
14.97294802533199
 10
185.1158675547568
 20
15.03808619579481
 10
185.1180765083688
 20
15.16618957858682
 10
185.0319435998603
 20
14.79097610391581
 10
184.9555140818499
 20
14.63918193123399
 10
184.8660040767833
 20
14.47766206446309
 10
184.7640413217326
 20
14.20471848820166
 10
184.7187976491039
 20
14.36717346596512
 10
184.610235594167
 20
14.45605432058121
 10
184.7995791751753
 20
14.60549794961411
 10
184.85653405457
 20
14.79749136974927
 10
184.9717520993352
 20
15.0289962290676
 10
184.9940151630132
 20
15.21797259759067
 10
185.1771905152139
 20
15.49454089325934
 10
185.0538033597552
 20
15.48698978832099
 10
184.9925684166834
 20
15.48856772366124
 10
184.9081999617064
 20
15.48882592573677
 10
184.8204235085966
 20
15.48544845751211
 10
184.7656768696122
 20
15.49394814982025
 10
184.7104703026025
 20
15.48048561049793
 10
184.7222823035536
 20
15.52931442126769
 10
184.7142496151794
 20
15.57269004896715
 10
184.7228186104679
 20
15.61509438309581
 10
184.7102943409157
 20
15.66267796552127
 10
184.7555101538735
 20
15.65267212995118
 10
184.8014815562723
 20
15.6589410517407
 10
184.8777222047709
 20
15.65593561405881
 10
184.9561296131994
 20
15.6577044827855
 10
185.0323992648932
 20
15.65464793981669
 10
185.0783009459475
 20
15.66103971376186
 10
185.12317339654
 20
15.65093822978905
 10
185.1105552275633
 20
15.70157201581907
 10
185.1191936582707
 20
15.75501261882078
 10
185.1152361595442
 20
15.84863255131688
 10
185.1162325068335
 20
15.95112606688931
 10
185.1171927413072
 20
16.05353270248169
 10
185.1133211458006
 20
16.14735929609327
 10
185.1217789814363
 20
16.20036542840358
 10
185.1093075932836
 20
16.25211435651193
 10
185.1542106389849
 20
16.23850747226763
 10
185.1955083836772
 20
16.24100480320593
 10
185.259534428105
 20
16.23648060574496
 10
185.2986111148787
 20
16.22781003043319
 10
185.3476543498742
 20
16.23515102070698
 10
185.3225080030591
 20
16.19602896051758
 10
185.2815901333723
 20
16.20563842455809
 10
185.2910109616604
 20
16.1554014816978
 10
185.2855647318746
 20
16.10385945639492
 10
185.2881699601804
 20
16.01959707584524
 10
185.2870102202154
 20
15.92559135583413
 10
185.2883591064231
 20
15.83196865395532
 10
185.2849970101509
 20
15.74679517552231
 10
185.2920959917769
 20
15.69716856072053
 10
185.2812569154545
 20
15.64993694969998
 10
185.3304010225245
 20
15.66201674936861
 10
185.3794877630147
 20
15.6544739336302
 10
185.4573714280642
 20
15.65686070361442
 10
185.5350365172896
 20
15.65899381905423
 10
185.5845393931355
 20
15.65193391922464
 10
185.6344594750639
 20
15.66360151936223
 10
185.6223198516881
 20
15.61540235371401
 10
185.6305838229143
 20
15.57249219801242
 10
185.6223198650784
 20
15.52958201851391
 10
185.6344594549853
 20
15.48138288754869
 10
185.5845395158746
 20
15.49305034471516
 10
185.5350350651202
 20
15.48599202435051
 10
185.4573784382973
 20
15.48811665228608
 10
185.379464386576
 20
15.49053389365765
 10
185.3304500352716
 20
15.48291848194491
 10
185.2813246108943
 20
15.49507952557597
 10
185.2915559988571
 20
15.45073013424162
 10
185.2856677678053
 20
15.40925436202915
 10
185.2878788305569
 20
15.34915394315306
 10
185.2874109346145
 20
15.30225782762891
 10
185.2874386992913
 20
15.27650146418198
 10
185.2874469028653
 20
15.26889163187721
 97
        1
330
B2
 75
     1
 76
     2
 52
45.0
 41
0.1
 77
     0
 78
     1
 53
45.0
 43
0.0
 44
0.0
 45
-0.282842712474619
 46
0.0
 79
     0
 98
        1
 10
0.0
 20
0.0
  0
HATCH
  5
D0
330
48
100
AcDbEntity
  8
1
  6
Continuous
 62
     2
100
AcDbHatch
 10
0.0
 20
0.0
 30
0.0
210
0.0
220
0.0
230
1.0
  2
CUSTOM6
 70
     0
 71
     1
 91
        1
 92
        1
 93
        1
 72
     4
 94
        3
 73
     0
 74
     0
 95
       91
 96
       87
 40
0.0
 40
0.0
 40
0.0
 40
0.0
 40
0.0345987051695718
 40
0.1258134969461369
 40
0.2547723404888987
 40
0.4026032099154125
 40
0.5504340793416704
 40
0.679392922883608
 40
0.7706077146571035
 40
0.8052064287780925
 40
1.124852390615287
 40
1.427402236308888
 40
1.706356627453537
 40
1.955541417875229
 40
2.169485938566379
 40
2.34435078666484
 40
2.480568411561991
 40
2.590440557429014
 40
2.649189927151166
 40
2.749320643306374
 40
2.912632739880109
 40
3.147745656000374
 40
3.244827496385309
 40
3.338490056946909
 40
3.583815413207322
 40
3.76142394323867
 40
3.886956104362826
 40
3.985855451886984
 40
4.091766255337868
 40
4.250186473812061
 40
4.422734315084705
 40
4.6282856848388
 40
4.872093227758629
 40
5.152549652145739
 40
5.46496713583772
 40
5.803201477852637
 40
6.160362988814115
 40
6.19344944827617
 40
6.284170385501825
 40
6.419718138764694
 40
6.587285046385944
 40
6.774063446723859
 40
6.967245678113842
 40
7.154024078817828
 40
7.321590987026213
 40
7.457138740890572
 40
7.547859678556308
 40
7.580946138182868
 40
7.608533084714916
 40
7.669224367077885
 40
7.729915649430096
 40
7.757502595950144
 40
7.790278062553598
 40
7.880146277431096
 40
8.014419963180558
 40
8.180411842398058
 40
8.365434637679527
 40
8.556801071622829
 40
8.741823866830941
 40
8.907815745916452
 40
9.042089431507605
 40
9.131957646249731
 40
9.164733112797308
 40
9.415425063140253
 40
9.667986180958682
 40
9.694169807462849
 40
9.756607686047808
 40
9.831130315322614
 40
9.893568193900078
 40
9.919751820398895
 40
9.950967964690703
 40
9.996421631210806
 40
10.22087981037472
 40
10.44341866197562
 40
10.47847970788874
 40
10.57091337438775
 40
10.70159545461249
 40
10.8514017417038
 40
11.00120802880497
 40
11.13189010907403
 40
11.2243237758303
 40
11.25938480938977
 40
11.28697175596165
 40
11.34766303835938
 40
11.40835432042088
 40
11.43594125892122
 40
11.43594125892122
 40
11.43594125892122
 40
11.43594125892122
 10
190.0818114333289
 20
15.55242795125082
 10
190.0702785844941
 20
15.5524279028792
 10
190.0283409444998
 20
15.55242773704169
 10
189.9434129719026
 20
15.55243125800914
 10
189.8207688553128
 20
15.55240926435883
 10
189.6791206916993
 20
15.55250801177058
 10
189.537975369849
 20
15.55214686232426
 10
189.4141351317904
 20
15.55321883609093
 10
189.3317217825382
 20
15.55092249091274
 10
189.1727791229692
 20
15.56048569373423
 10
189.3503402353376
 20
15.19785394311375
 10
189.3379739205452
 20
14.95243127723117
 10
189.4064519473864
 20
14.66862501324837
 10
189.469302432097
 20
14.43250999939037
 10
189.5452253431729
 20
14.23326740396131
 10
189.6303189577015
 20
14.07745347451374
 10
189.7244607592935
 20
13.97657857781393
 10
189.8282648207728
 20
13.92465852638965
 10
189.9125872030774
 20
13.97606484379617
 10
189.9351322179451
 20
14.09144544037519
 10
189.9745730975372
 20
14.21885149702383
 10
189.9202919734942
 20
14.53622328086772
 10
190.0451218072473
 20
14.38982180140908
 10
190.2019291513603
 20
14.35795300331172
 10
190.0947720007057
 20
14.1242135776763
 10
190.0808711209866
 20
13.9597277658366
 10
190.0234709467225
 20
13.83130869122487
 10
189.9335020145008
 20
13.76018802352831
 10
189.8095274657878
 20
13.74432324142259
 10
189.663427319686
 20
13.77993797554177
 10
189.5243894320283
 20
13.90000570500282
 10
189.4102003962145
 20
14.07435682550325
 10
189.3146141301485
 20
14.29946603111245
 10
189.2318652572626
 20
14.56388246006447
 10
189.1807179256411
 20
14.88187933098548
 10
189.0770189207338
 20
15.15543728488916
 10
189.2042841208522
 20
15.56005818612874
 10
189.0357890623018
 20
15.55112367849683
 10
188.9511995787077
 20
15.55315961418368
 10
188.8189876387627
 20
15.55213937388411
 10
188.6560505094104
 20
15.55253230318434
 10
188.4733759170532
 20
15.55235696313374
 10
188.2847057373383
 20
15.55260105307473
 10
188.1014469020189
 20
15.55185657906241
 10
187.9404746832718
 20
15.5541636052243
 10
187.8029808335276
 20
15.54799804883668
 10
187.728959037231
 20
15.56032838458215
 10
187.6613215186856
 20
15.54329323723561
 10
187.673237371927
 20
15.59524438447532
 10
187.6655677285693
 20
15.64071424966532
 10
187.6732592225116
 20
15.68614453703708
 10
187.6613141797762
 20
15.73802395984572
 10
187.7283588305867
 20
15.72119143490266
 10
187.8017375665676
 20
15.73335409092673
 10
187.9379128305272
 20
15.7272723107496
 10
188.0973811801512
 20
15.7295483431506
 10
188.2789173085836
 20
15.72881233998964
 10
188.4658034862179
 20
15.72905954196136
 10
188.6468012316836
 20
15.72886400799256
 10
188.8080802578878
 20
15.72932234714841
 10
188.9393882124887
 20
15.72812673751208
 10
189.0225051322596
 20
15.73051347319744
 10
189.1556236547814
 20
15.72230605725466
 10
189.0645893502657
 20
15.97752868952656
 10
188.9789633074419
 20
16.24164358328248
 10
189.0990589003455
 20
16.22904442969166
 10
189.1514264948544
 20
16.22694235763077
 10
189.2214497569715
 20
16.22535399889658
 10
189.2671922337817
 20
16.21602567538114
 10
189.3220812646933
 20
16.22545966915429
 10
189.2963574785681
 20
16.17733028655177
 10
189.1825397571453
 20
16.18266829744179
 10
189.3159346621136
 20
15.95449174576779
 10
189.1943658735471
 20
15.72156856595924
 10
189.3223188769413
 20
15.73087258884441
 10
189.4049048406461
 20
15.72801001754682
 10
189.5307214850824
 20
15.72923437412305
 10
189.6741469838058
 20
15.72932431888966
 10
189.8157420951728
 20
15.72746163183855
 10
189.9459127249968
 20
15.73333075937165
 10
190.019345228619
 20
15.72070340823205
 10
190.0891112922097
 20
15.73877563110414
 10
190.0775772605395
 20
15.68612850546329
 10
190.0833184346682
 20
15.6422131768655
 10
190.081661577091
 20
15.59089982676554
 10
190.081775756167
 20
15.56158792021639
 10
190.0818114333289
 20
15.55242795125082
 97
        1
330
B3
 75
     1
 76
     2
 52
45.0
 41
0.1
 77
     0
 78
     1
 53
45.0
 43
0.0
 44
0.0
 45
-0.282842712474619
 46
0.0
 79
     0
 98
        1
 10
0.0
 20
0.0
  0
HATCH
  5
D1
330
48
100
AcDbEntity
  8
1
  6
Continuous
 62
     2
100
AcDbHatch
 10
0.0
 20
0.0
 30
0.0
210
0.0
220
0.0
230
1.0
  2
CUSTOM7
 70
     0
 71
     1
 91
        1
 92
        1
 93
        1
 72
     4
 94
        3
 73
     0
 74
     0
 95
       75
 96
       71
 40
0.0
 40
0.0
 40
0.0
 40
0.0
 40
0.0342546099129709
 40
0.1245622414432364
 40
0.2522385480897518
 40
0.398599192294068
 40
0.5449598364980839
 40
0.6726361431438834
 40
0.7629437746736942
 40
0.7971983935297973
 40
1.101723623449657
 40
1.408591244036674
 40
1.433332471690389
 40
1.487763172450203
 40
1.54219387308205
 40
1.566935100592607
 40
1.923523931821925
 40
2.271755704953724
 40
2.590579755100964
 40
2.858943305581227
 40
2.889120339309219
 40
2.918305855191219
 40
2.941366645531347
 40
2.996357760973251
 40
3.061992318140812
 40
3.116983433627019
 40
3.140044223997703
 40
3.41127312293663
 40
3.732441619741292
 40
3.761068217532991
 40
3.837787499630557
 40
3.948858699126204
 40
4.08054104910459
 40
4.21909378262598
 40
4.350776132722539
 40
4.461847332405878
 40
4.538566614678616
 40
4.567193212544864
 40
4.594907573999122
 40
4.666381453557661
 40
4.764111044011272
 40
4.870592538126075
 40
4.968322128642526
 40
5.039796008287211
 40
5.06751036978467
 40
5.094263603185884
 40
5.15312071666852
 40
5.211977830150967
 40
5.238731063551971
 40
5.27229053513921
 40
5.363380529445071
 40
5.497618415781749
 40
5.660621563453991
 40
5.838007341749692
 40
6.015393119911043
 40
6.178396267038669
 40
6.31263415184262
 40
6.40372414305961
 40
6.437283612672705
 40
6.464036846261323
 40
6.522893960004937
 40
6.581751071484203
 40
6.608504301591149
 40
6.637253941281297
 40
6.711397748903148
 40
6.812778057283761
 40
6.923237199249537
 40
7.024617507624181
 40
7.098761315207834
 40
7.127510946007784
 40
7.127510946007784
 40
7.127510946007784
 40
7.127510946007784
 10
188.4418622390564
 20
14.9584912847327
 10
188.4418622819707
 20
14.94707313408726
 10
188.4418624481128
 20
14.90555257842634
 10
188.4418593081787
 20
14.82146922003778
 10
188.44187882798
 20
14.70004497322334
 10
188.4417912187737
 20
14.55980494047454
 10
188.442111623523
 20
14.42006556794582
 10
188.4411605909742
 20
14.29745038894935
 10
188.4431978595967
 20
14.21587074438049
 10
188.4349433178745
 20
14.06271267077703
 10
188.7430797940899
 20
14.22560236054721
 10
189.0350645173741
 20
14.39482938688015
 10
189.0408354448707
 20
14.25973235781919
 10
189.0455471719891
 20
14.21617221160452
 10
189.0482535411918
 20
14.1721124935055
 10
189.0672545672959
 20
14.02272590363139
 10
188.6583942247302
 20
14.08681172241263
 10
188.3793710348832
 20
13.97296341411018
 10
188.1018081587166
 20
13.87364095811151
 10
187.8099837184402
 20
13.91630687596347
 10
187.7869144678657
 20
13.81321679744545
 10
187.7537474383333
 20
13.7869109124446
 10
187.7480653962739
 20
13.834553090363
 10
187.7284214559044
 20
13.87180336115065
 10
187.7095089485622
 20
13.93007387847561
 10
187.6942849867708
 20
13.97385201007803
 10
187.6477246372935
 20
14.08759421046311
 10
187.989089731245
 20
14.05576301120052
 10
188.2679649367387
 20
14.02161435106481
 10
188.2617753034907
 20
14.16913976479653
 10
188.2630935452773
 20
14.24013150908834
 10
188.2624831689948
 20
14.34719767958663
 10
188.2625871570725
 20
14.47398529786001
 10
188.2629987964055
 20
14.60849243496054
 10
188.2613907841969
 20
14.73395549951189
 10
188.2659902567925
 20
14.84505246719123
 10
188.2564186502211
 20
14.90761886800695
 10
188.2704001783691
 20
14.96595388295007
 10
188.2147384386704
 20
14.95289710582244
 10
188.1575655197821
 20
14.96136307749504
 10
188.0616048925648
 20
14.95729976080642
 10
187.963376752282
 20
14.9597088985248
 10
187.8672582457561
 20
14.95551600613394
 10
187.8104648525811
 20
14.96429346441168
 10
187.7550356873384
 20
14.95094936850127
 10
187.7670679427917
 20
15.00036910959263
 10
187.7592003173937
 20
15.04393988030401
 10
187.7666295563828
 20
15.08830469118531
 10
187.7551930564143
 20
15.13902297763997
 10
187.8232102370133
 20
15.12162460757749
 10
187.8968496879747
 20
15.13417450237194
 10
188.0325064058211
 20
15.12799677011104
 10
188.1884909024525
 20
15.1302920309309
 10
188.3615926358143
 20
15.12940968262536
 10
188.5346942964181
 20
15.13029207142414
 10
188.6906789811216
 20
15.12799662955556
 10
188.8263351889797
 20
15.13417486262438
 10
188.8999756705652
 20
15.1216239421834
 10
188.9679914174724
 20
15.13902373012148
 10
188.9565590885922
 20
15.08830130414561
 10
188.9639539458297
 20
15.04397060811114
 10
188.9562039912271
 20
15.00028307550202
 10
188.9681203741877
 20
14.95063590098483
 10
188.9108170223617
 20
14.96461411338431
 10
188.8520145789772
 20
14.9553975567326
 10
188.7525293633199
 20
14.95952268164935
 10
188.649428009835
 20
14.95822760025894
 10
188.5537846354573
 20
14.95854077077646
 10
188.4857467971617
 20
14.95848776697151
 10
188.4514462213443
 20
14.95849051871662
 10
188.4418622390564
 20
14.9584912847327
 97
        1
330
B4
 75
     1
 76
     2
 52
45.0
 41
0.1
 77
     0
 78
     1
 53
45.0
 43
0.0
 44
0.0
 45
-0.282842712474619
 46
0.0
 79
     0
 98
        1
 10
0.0
 20
0.0
  0
HATCH
  5
D2
330
48
100
AcDbEntity
  8
1
  6
Continuous
 62
     2
100
AcDbHatch
 10
0.0
 20
0.0
 30
0.0
210
0.0
220
0.0
230
1.0
  2
CUSTOM8
 70
     0
 71
     1
 91
        1
 92
        1
 93
        1
 72
     4
 94
        3
 73
     0
 74
     0
 95
       15
 96
       11
 40
0.0
 40
0.0
 40
0.0
 40
0.0
 40
0.2785535985096891
 40
0.5215624748199179
 40
0.6076917376041009
 40
0.6938210001741949
 40
0.9405019146455824
 40
1.221691403489255
 40
1.300471877081184
 40
1.379252341684962
 40
1.379252341684962
 40
1.379252341684962
 40
1.379252341684962
 10
189.5681493630999
 20
16.22930267330392
 10
189.6296017794178
 20
16.17691646592724
 10
189.7446649974113
 20
16.07882876798227
 10
190.0397348497244
 20
15.92889785897229
 10
189.9025147631856
 20
15.84343227515017
 10
189.8041227843779
 20
15.71085785201553
 10
189.7130033590649
 20
16.01616985781422
 10
189.3636839480654
 20
16.0796786946538
 10
189.511925837657
 20
16.17896509880887
 10
189.5494081874236
 20
16.21252348402393
 10
189.5681493630999
 20
16.22930267330392
 97
        1
330
B5
 75
     1
 76
     2
 52
45.0
 41
0.1
 77
     0
 78
     1
 53
45.0
 43
0.0
 44
0.0
 45
-0.282842712474619
 46
0.0
 79
     0
 98
        1
 10
0.0
 20
0.0
  0
HATCH
  5
D3
330
48
100
AcDbEntity
  8
1
  6
Continuous
 62
     2
100
AcDbHatch
 10
0.0
 20
0.0
 30
0.0
210
0.0
220
0.0
230
1.0
  2
CUSTOM9
 70
     0
 71
     1
 91
        1
 92
        1
 93
        1
 72
     4
 94
        3
 73
     0
 74
     0
 95
       35
 96
       31
 40
0.0
 40
0.0
 40
0.0
 40
0.0
 40
0.0335231036621225
 40
0.0713218571712618
 40
0.4278866681487434
 40
0.8116865841964362
 40
1.198190238000092
 40
1.561379546812723
 40
1.659983174622095
 40
1.759315573807219
 40
2.132719617231098
 40
2.525233363588842
 40
2.910815397779706
 40
3.265244364303306
 40
3.592606723582045
 40
3.964386154604
 40
4.359942131737824
 40
4.758154118639323
 40
4.843846538699913
 40
4.936650065543254
 40
5.256616602537338
 40
5.581707404416077
 40
5.899719158308175
 40
6.198363494280774
 40
6.466301046615798
 40
6.493895311537119
 40
6.559697020196912
 40
6.638234543442486
 40
6.704036252154238
 40
6.731630508423044
 40
6.731630508423044
 40
6.731630508423044
 40
6.731630508423044
 10
191.9736010568669
 20
16.23463843719142
 10
191.9676006097789
 20
16.22480690542328
 10
191.9548344099156
 20
16.20388988579798
 10
191.7949362006557
 20
16.17127126532695
 10
192.2322025842335
 20
15.88206680336703
 10
192.4345394828262
 20
15.68041138358444
 10
192.6819564267973
 20
15.43749387603281
 10
193.1831513624606
 20
15.36047662757781
 10
193.012556219897
 20
15.21876939174661
 10
192.9383299463201
 20
15.01710366209115
 10
192.6131432248188
 20
15.3695628717473
 10
192.3277741670664
 20
15.53175212559565
 10
192.0337604077658
 20
15.73687130053051
 10
191.8084452691134
 20
16.2182748859546
 10
191.5993085055521
 20
15.75343046609227
 10
191.3207873674834
 20
15.54350952252915
 10
191.0371383177209
 20
15.37424456359986
 10
190.7078639527832
 20
15.00142360907945
 10
190.6277012318224
 20
15.19708014459004
 10
190.4759724909744
 20
15.32491104190602
 10
190.9083395826795
 20
15.4045403176594
 10
191.0962565329766
 20
15.6002663491548
 10
191.3468477420502
 20
15.81632996916762
 10
191.5714350470162
 20
15.98190992300065
 10
191.6259775409712
 20
16.2613396463683
 10
191.7494661029012
 20
16.24737950408084
 10
191.8060273344519
 20
16.24521268867653
 10
191.8761870984945
 20
16.24046859881367
 10
191.9333414022105
 20
16.23709429350549
 10
191.9644190320838
 20
16.23519854711127
 10
191.9736010568669
 20
16.23463843719142
 97
        1
330
B6
 75
     1
 76
     2
 52
45.0
 41
0.1
 77
     0
 78
     1
 53
45.0
 43
0.0
 44
0.0
 45
-0.282842712474619
 46
0.0
 79
     0
 98
        1
 10
0.0
 20
0.0
  0
HATCH
  5
D4
330
48
100
AcDbEntity
  8
1
  6
Continuous
 62
     2
100
AcDbHatch
 10
0.0
 20
0.0
 30
0.0
210
0.0
220
0.0
230
1.0
  2
CUSTOM10
 70
     0
 71
     1
 91
        1
 92
        1
 93
        1
 72
     4
 94
        3
 73
     0
 74
     0
 95
       91
 96
       87
 40
0.0
 40
0.0
 40
0.0
 40
0.0
 40
0.0267532254356772
 40
0.0856103386464351
 40
0.1444674521997047
 40
0.1712206856619012
 40
0.2039416005643034
 40
0.2955601971652981
 40
0.4362601844617415
 40
0.6162252844507747
 40
0.8256392189705195
 40
1.05468570984446
 40
1.293548478893581
 40
1.532411247938353
 40
1.761457738799618
 40
1.970871673298586
 40
2.150836773256782
 40
2.291536760495643
 40
2.38315535683675
 40
2.41587628410137
 40
2.442629517488021
 40
2.501486630949169
 40
2.560343744424334
 40
2.587096977826614
 40
2.617068194441042
 40
2.699247336756183
 40
2.822032643466495
 40
2.973822353258025
 40
3.143014704823467
 40
3.318007936880046
 40
3.487200288186879
 40
3.63898999754836
 40
3.761775303794859
 40
3.843954445753194
 40
3.873925662229889
 40
3.890812773500586
 40
3.907699884771754
 40
3.93796076785738
 40
3.980983618142417
 40
4.199085915228557
 40
4.439444339237341
 40
4.677588241261013
 40
5.050698317837899
 40
5.448212454763285
 40
5.855291218044809
 40
6.138575438885495
 40
6.417434507584315
 40
6.444551104394
 40
6.504207617363302
 40
6.563864130314628
 40
6.590980727104222
 40
6.848609460381605
 40
7.109611990668562
 40
7.352910904446222
 40
7.557830220705583
 40
7.587518925913498
 40
7.652834077375911
 40
7.718149228845842
 40
7.747837934062144
 40
7.854880190301101
 40
7.976511257403684
 40
8.369487896592487
 40
8.75751495922378
 40
9.126072419331242
 40
9.460639380392305
 40
9.746695593036046
 40
9.777569943118822
 40
9.8070503209319
 40
9.830377336129025
 40
9.886003295436085
 40
9.95239556942998
 40
10.00802152870632
 40
10.03134854388224
 40
10.21356951009594
 40
10.42203479292877
 40
10.66154556731065
 40
10.91693789564304
 40
11.15832906556564
 40
11.18982674596622
 40
11.27286608520406
 40
11.39026653033348
 40
11.52484752840884
 40
11.65942852648446
 40
11.77682897161482
 40
11.85986831085681
 40
11.89136598230427
 40
11.89136598230427
 40
11.89136598230427
 40
11.89136598230427
 10
190.7027885008196
 20
14.70699600701772
 10
190.7028237765288
 20
14.71587847311985
 10
190.7029366710796
 20
14.74430237047347
 10
190.701298456849
 20
14.79409639169806
 10
190.706975029291
 20
14.83657564478158
 10
190.6956928731706
 20
14.88730154856852
 10
190.7632296979031
 20
14.87012900740113
 10
190.83880292107
 20
14.88290227166001
 10
190.9828357056
 20
14.87629729457387
 10
191.1569419185427
 20
14.87888462206471
 10
191.3639599611003
 20
14.87800591955558
 10
191.5894688172378
 20
14.87828207920033
 10
191.8251162293406
 20
14.87818339658667
 10
192.0607640531348
 20
14.87828184412772
 10
192.2862717580626
 20
14.87800678190793
 10
192.4932934632805
 20
14.8788818627074
 10
192.6673888915288
 20
14.87630522678451
 10
192.8114492071986
 20
14.88288290449218
 10
192.8869691915293
 20
14.87016243405609
 10
192.954577603703
 20
14.88726400191691
 10
192.9430840140676
 20
14.83674785802944
 10
192.9505104581733
 20
14.79253252226504
 10
192.9428838927986
 20
14.74867966503611
 10
192.9546489459425
 20
14.69878374479328
 10
192.8930788491983
 20
14.71393227712512
 10
192.8256791738671
 20
14.70310665350673
 10
192.7013004056222
 20
14.70852031626236
 10
192.555442823657
 20
14.70649205390785
 10
192.3893576440086
 20
14.70715777578387
 10
192.2188412621724
 20
14.70689643521242
 10
192.0519790855388
 20
14.70721553391094
 10
191.9087346827105
 20
14.70635302590762
 10
191.7773313869834
 20
14.70863300482987
 10
191.7239859134657
 20
14.70407704374203
 10
191.6485188456912
 20
14.70999914992876
 10
191.6769075779232
 20
14.70094169343356
 10
191.7033652409542
 20
14.69725912268938
 10
191.6633522907701
 20
14.66654271968277
 10
191.5713663691868
 20
14.67667591174636
 10
191.543939620707
 20
14.43032502247788
 10
191.4478793967234
 20
14.27499558764378
 10
191.1917277964473
 20
13.94525417931568
 10
191.7627537732762
 20
14.08430022210452
 10
192.0173656320517
 20
14.08291779973366
 10
192.6279647048616
 20
13.99790569242082
 10
192.3340698578085
 20
14.29685417558207
 10
192.0133304286516
 20
14.44330856901776
 10
192.1313543360434
 20
14.50025540818286
 10
192.172471646626
 20
14.52420099873347
 10
192.2156812394411
 20
14.5459975881123
 10
192.317457409445
 20
14.60928721253904
 10
192.4328867625248
 20
14.3514715140878
 10
192.6329591642277
 20
14.21616041113683
 10
192.7269077387228
 20
14.03792795138883
 10
192.9558829746392
 20
13.87997821027049
 10
192.8596031846708
 20
13.82915972576302
 10
192.8167959763779
 20
13.79881292523058
 10
192.7718243528778
 20
13.77466130281462
 10
192.7121720925214
 20
13.72552146747573
 10
192.6789731061324
 20
13.85997475673615
 10
192.5582013350796
 20
14.01594265286594
 10
192.1970976005978
 20
13.88569928059559
 10
191.838506195554
 20
13.90224694409487
 10
191.4570920450081
 20
13.8933122935187
 10
191.170345528289
 20
13.82882671672409
 10
190.8592055599715
 20
13.94230668192834
 10
190.8268737818788
 20
13.83122259927767
 10
190.7896178253317
 20
13.81196313850022
 10
190.7865737632754
 20
13.85874784087301
 10
190.7679892860607
 20
13.8980685391914
 10
190.7512436616778
 20
13.95765983478234
 10
190.7383730915753
 20
14.00201969871285
 10
190.7042327806429
 20
14.091063311202
 10
190.9482714457754
 20
14.02181042943768
 10
191.1441394486671
 20
14.00030369057755
 10
191.2395426381277
 20
14.28226484478465
 10
191.2945135769597
 20
14.44363045421125
 10
191.5159619357154
 20
14.71391177589737
 10
191.3849239381216
 20
14.70548446853735
 10
191.3110026555853
 20
14.70779008496969
 10
191.1977459876244
 20
14.70671378321658
 10
191.0694251807484
 20
14.7070763907651
 10
190.9404252030415
 20
14.70697724466086
 10
190.828784094629
 20
14.70699932712572
 10
190.7514663970026
 20
14.7069957918967
 10
190.713287653201
 20
14.70699595845081
 10
190.7027885008196
 20
14.70699600701772
 97
        1
330
B7
 75
     1
 76
     2
 52
45.0
 41
0.1
 77
     0
 78
     1
 53
45.0
 43
0.0
 44
0.0
 45
-0.282842712474619
 46
0.0
 79
     0
 98
        1
 10
0.0
 20
0.0
  0
HATCH
  5
D5
330
48
100
AcDbEntity
  8
1
  6
Continuous
 62
     2
100
AcDbHatch
 10
0.0
 20
0.0
 30
0.0
210
0.0
220
0.0
230
1.0
  2
CUSTOM11
 70
     0
 71
     1
 91
        1
 92
        1
 93
        1
 72
     4
 94
        3
 73
     0
 74
     0
 95
      131
 96
      127
 40
0.0
 40
0.0
 40
0.0
 40
0.0
 40
0.0195577029826562
 40
0.0426490537461665
 40
0.2863607575857061
 40
0.5344948436189786
 40
0.7842238845573569
 40
0.8737315789467665
 40
0.980383281031313
 40
1.092842274517057
 40
1.199761146656815
 40
1.289788768186517
 40
1.351573580786206
 40
1.370727117561439
 40
1.416400936017866
 40
1.470914848356024
 40
1.51658866679183
 40
1.535742203552915
 40
1.634216592293291
 40
1.760283341175136
 40
1.897966686682201
 40
2.031216387369028
 40
2.049689751138021
 40
2.101115601646956
 40
2.17950257774007
 40
2.278859318314182
 40
2.393194462258838
 40
2.516516648383946
 40
2.642834515406072
 40
2.766156701983574
 40
2.880491846754683
 40
2.979848588358722
 40
3.058235565443897
 40
3.109661416669048
 40
3.128134780704225
 40
3.146783742386542
 40
3.191254343315403
 40
3.244332157316062
 40
3.288802758225966
 40
3.307451719895208
 40
3.327717853844818
 40
3.383747753580175
 40
3.46838866592456
 40
3.57448783769886
 40
3.694892515728957
 40
3.822449946852087
 40
3.950007377920467
 40
4.070412055800551
 40
4.176511227368097
 40
4.26115213950154
 40
4.317182039076728
 40
4.337448172964647
 40
4.620011002696248
 40
4.885096638397526
 40
4.94537304351835
 40
5.014107710488665
 40
5.070481727652066
 40
5.319246955636577
 40
5.584812164506047
 40
5.859000912056905
 40
6.133746937542101
 40
6.401732212968929
 40
6.42073668399552
 40
6.47284571745117
 40
6.550702743894098
 40
6.646951193874306
 40
6.75423449793063
 40
6.865196086587408
 40
6.972479390357867
 40
7.068727839772029
 40
7.146584865451038
 40
7.198693898189267
 40
7.217698368905408
 40
7.234950401630888
 40
7.276089864269931
 40
7.32519180351604
 40
7.366331266090425
 40
7.383583298769777
 40
7.402779163492154
 40
7.453386443254585
 40
7.524934666445587
 40
7.606953361405926
 40
7.688972056429078
 40
7.760520279784329
 40
7.811127559734571
 40
7.830323424546192
 40
7.847844055299822
 40
7.894799345666856
 40
7.962779392744537
 40
8.043374293560577
 40
8.128174145149478
 40
8.208769044817268
 40
8.276749090376965
 40
8.323704379669524
 40
8.341225010056254
 40
8.358497614800402
 40
8.401679126686608
 40
8.457815092185664
 40
8.513951057728066
 40
8.55713256970802
 40
8.574405174505063
 40
8.602340668616508
 40
8.643455660540061
 40
8.663225271966729
 40
8.715345156564362
 40
8.789031889628687
 40
8.8735020455204
 40
8.957972194324011
 40
9.031658925567891
 40
9.083778811234568
 40
9.103548423003028
 40
9.119550083123565
 40
9.160817522379867
 40
9.217244429110233
 40
9.278724491644718
 40
9.335151398295503
 40
9.376418837357798
 40
9.392420497300586
 40
9.401196302734807
 40
9.417494229384284
 40
9.426270027749556
 40
9.440875075477589
 40
9.475702496998771
 40
9.517270709865938
 40
9.552098131994109
 40
9.566703169884319
 40
9.566703169884319
 40
9.566703169884319
 40
9.566703169884319
 10
194.6170254148479
 20
15.67015871511032
 10
194.613434509337
 20
15.66453690702161
 10
194.6056039123625
 20
15.65227754419112
 10
194.5129968974545
 20
15.61601916040989
 10
194.4887622233248
 20
15.40148444212709
 10
194.3858709845939
 20
15.22197284509711
 10
194.1220492364304
 20
15.03615573798146
 10
194.284547156918
 20
14.95959336566085
 10
194.3607225760838
 20
14.89856693195446
 10
194.4492171072758
 20
14.83515804544764
 10
194.538993023311
 20
14.77525634219566
 10
194.5883817636047
 20
14.72102154849212
 10
194.674570815738
 20
14.69286240541839
 10
194.641126067423
 20
14.65713309652816
 10
194.621467116631
 20
14.62550387991909
 10
194.5919888217883
 20
14.58475872796071
 10
194.5688989446031
 20
14.55504663489643
 10
194.5380205968357
 20
14.50211422668492
 10
194.472919336574
 20
14.62740334938906
 10
194.3796000122415
 20
14.68213900233938
 10
194.2950636285139
 20
14.73916423939348
 10
194.1722498125741
 20
14.89675287427527
 10
194.1764450847301
 20
14.82035806766842
 10
194.1751478652677
 20
14.77361280161301
 10
194.1758126448076
 20
14.69584785812606
 10
194.1755549986956
 20
14.59902068324429
 10
194.1756431239922
 20
14.48650279078815
 10
194.1756077302281
 20
14.36524085945706
 10
194.1756511758278
 20
14.24086897858967
 10
194.1755199942405
 20
14.11967683631343
 10
194.1759477562047
 20
14.0069114891975
 10
194.174667820231
 20
13.91082913768752
 10
194.1779759851043
 20
13.83113826468708
 10
194.1715197740086
 20
13.78815175788792
 10
194.1806208705556
 20
13.7495543237205
 10
194.1447910339935
 20
13.75810887724078
 10
194.1115223815252
 20
13.75342519985455
 10
194.060456257604
 20
13.75351298759792
 10
194.0269723972814
 20
13.75794430283829
 10
193.9907585408753
 20
13.74960793842518
 10
194.0009782568665
 20
13.79145277179292
 10
193.9936487887773
 20
13.83778560820181
 10
193.9973633136102
 20
13.9237483110602
 10
193.9959480554896
 20
14.02605142704855
 10
193.9964105554639
 20
14.14453223931517
 10
193.996277368623
 20
14.2695768315336
 10
193.9963015910045
 20
14.39475828107053
 10
193.9963354925551
 20
14.5128664537906
 10
193.9962060293132
 20
14.61628748709517
 10
193.9965507549081
 20
14.69932036153668
 10
193.9958698278689
 20
14.75143368521244
 10
193.9994586600625
 20
14.87912907821363
 10
193.7826171386436
 20
14.58048716819622
 10
193.6021354921951
 20
14.35263981511516
 10
193.5490322295611
 20
14.49373443289815
 10
193.5200429133149
 20
14.54325767560946
 10
193.419664806282
 20
14.64641779790108
 10
193.7405127723261
 20
14.72695035023779
 10
193.8689897005429
 20
14.91066283036436
 10
194.0906454325359
 20
15.11931995771763
 10
194.1770224894069
 20
15.29339211228347
 10
194.4549394229074
 20
15.56967051342518
 10
194.3346247839284
 20
15.5653455955112
 10
194.2863197351348
 20
15.56614856202559
 10
194.2102377454905
 20
15.56574582146591
 10
194.116701000975
 20
15.56590275611615
 10
194.0117594788557
 20
15.56582502576229
 10
193.9033887738717
 20
15.56595464378561
 10
193.7981454235897
 20
15.56554393490698
 10
193.7056237819412
 20
15.56682073671596
 10
193.6268130800707
 20
15.56340766534857
 10
193.5839674565379
 20
15.57023350036325
 10
193.5449499586515
 20
15.56065064201129
 10
193.5526365271863
 20
15.59420779565548
 10
193.5485464404312
 20
15.62523550322239
 10
193.5485531368814
 20
15.67236529270906
 10
193.5526239724911
 20
15.70340941646784
 10
193.5449495574583
 20
15.73701861635907
 10
193.5834819405494
 20
15.72748410420877
 10
193.624122801448
 20
15.73397435498077
 10
193.6951471850463
 20
15.7310015065026
 10
193.7729318149633
 20
15.73174761399163
 10
193.8507292246474
 20
15.73247814044531
 10
193.9217232089907
 20
15.72954235514166
 10
193.962427979182
 20
15.73595468772958
 10
194.0009853489909
 20
15.7265052417601
 10
193.9927342754928
 20
15.7626469215879
 10
193.9982346669358
 20
15.80129837613232
 10
193.9955754206163
 20
15.86913528561843
 10
193.9965815471533
 20
15.94591641538744
 10
193.9960178018319
 20
16.02849393582759
 10
193.9970714526592
 20
16.1051732922988
 10
193.994267586313
 20
16.17331990776701
 10
194.0000702721303
 20
16.21132399809348
 10
193.9915654551159
 20
16.24758448077647
 10
194.0255610233125
 20
16.23755723771854
 10
194.0594575683099
 20
16.2407326681371
 10
194.1126669060347
 20
16.23508965640616
 10
194.1660768574483
 20
16.23434774436433
 10
194.199591464949
 20
16.2281922348299
 10
194.2388086183039
 20
16.23346029773604
 10
194.2120263698492
 20
16.1925338079349
 10
194.1708111001724
 20
16.20371204538109
 10
194.1782641540873
 20
16.15867056192122
 10
194.1742227952185
 20
16.11412278028144
 10
194.176171404964
 20
16.04223572621703
 10
194.1752364849758
 20
15.96168630588772
 10
194.176510719003
 20
15.88173995404998
 10
194.1732043793863
 20
15.80841837083187
 10
194.1802106179962
 20
15.76688643002574
 10
194.1701440380125
 20
15.72752418568118
 10
194.2029814803922
 20
15.73468063430987
 10
194.236457729648
 20
15.7302724313795
 10
194.2915053476019
 20
15.73217943347903
 10
194.3489502595314
 20
15.73185366407294
 10
194.4023026248309
 20
15.73106308733087
 10
194.4398540896639
 20
15.7331395911808
 10
194.4623172523237
 20
15.73022338167114
 10
194.4751678073731
 20
15.73572552644062
 10
194.4858255685888
 20
15.73801118197796
 10
194.4986635650143
 20
15.7449497258806
 10
194.5145991033071
 20
15.72853046313679
 10
194.5410623920891
 20
15.71709122319454
 10
194.5726805253758
 20
15.69644687835196
 10
194.5987255892151
 20
15.681168696283
 10
194.6128517723974
 20
15.67266976323188
 10
194.6170254148479
 20
15.67015871511032
 97
        1
330
B8
 75
     1
 76
     2
 52
45.0
 41
0.1
 77
     0
 78
     1
 53
45.0
 43
0.0
 44
0.0
 45
-0.282842712474619
 46
0.0
 79
     0
 98
        1
 10
0.0
 20
0.0
  0
HATCH
  5
D6
330
48
100
AcDbEntity
  8
1
  6
Continuous
 62
     2
100
AcDbHatch
 10
0.0
 20
0.0
 30
0.0
210
0.0
220
0.0
230
1.0
  2
CUSTOM12
 70
     0
 71
     1
 91
        1
 92
        1
 93
        1
 72
     4
 94
        3
 73
     0
 74
     0
 95
      124
 96
      120
 40
0.0
 40
0.0
 40
0.0
 40
0.0
 40
0.027818722962451
 40
0.1011590162384269
 40
0.2048470170590239
 40
0.3237088716559245
 40
0.4425707262522
 40
0.5462587270699547
 40
0.6195990203311798
 40
0.647417752257866
 40
0.6750060736115242
 40
0.7357003855242812
 40
0.7963946998054545
 40
0.8239830245571873
 40
0.8540933811102966
 40
0.9373396629409647
 40
1.063094687343246
 40
1.220731268638084
 40
1.399622220914758
 40
1.589140358637743
 40
1.778658496423909
 40
1.957549448940519
 40
2.115186030873169
 40
2.240941056914473
 40
2.324187341760543
 40
2.354297700109393
 40
2.381886024671901
 40
2.442580338710491
 40
2.503274652750521
 40
2.530862977314627
 40
2.56098394927858
 40
2.640393784452926
 40
2.752662861759149
 40
2.881361560118166
 40
3.010060258455213
 40
3.12232933570536
 40
3.201739170817974
 40
3.231860142753335
 40
3.264298024030389
 40
3.352343701778255
 40
3.482095226868775
 40
3.639650650173031
 40
3.811108022565478
 40
3.98256539492798
 40
4.140120818152554
 40
4.269872343141262
 40
4.357918020802319
 40
4.390355902043946
 40
4.423256253992515
 40
4.508104530073036
 40
4.624121560636804
 40
4.750528176031561
 40
4.866545206602008
 40
4.951393482691965
 40
4.984293834645366
 40
5.011450833242285
 40
5.071196230152073
 40
5.130941627057152
 40
5.15809862564882
 40
5.19099897760151
 40
5.275847253689336
 40
5.39186428425677
 40
5.518270899648315
 40
5.634287930209354
 40
5.719136206288028
 40
5.752036558235916
 40
5.782130946282941
 40
5.862783906229114
 40
5.979550131774986
 40
6.117984316640391
 40
6.263641154587938
 40
6.402075339414144
 40
6.51884156490794
 40
6.599494524815525
 40
6.629588912848763
 40
6.65440302822634
 40
6.713575149488107
 40
6.784199939329425
 40
6.843372060493527
 40
6.868186175802773
 40
6.896246243201829
 40
6.939586233758214
 40
6.967846564564845
 40
7.043584251089787
 40
7.153234334451654
 40
7.283231855734415
 40
7.420011856035457
 40
7.550009376579818
 40
7.65965945883523
 40
7.735397144417226
 40
7.7636574748514
 40
7.796409728011057
 40
7.880876065096332
 40
7.996370852465717
 40
8.122208446418613
 40
8.237703224799207
 40
8.3221695620109
 40
8.354921815205914
 40
8.382078813307697
 40
8.441824209207006
 40
8.50156960524016
 40
8.52872660348574
 40
8.56147885669579
 40
8.64594519387784
 40
8.761439980865351
 40
8.887277580764493
 40
9.002772362001014
 40
9.087238696661235
 40
9.119990949235689
 40
9.152428830613387
 40
9.240474508638599
 40
9.370226034149546
 40
9.527781457984423
 40
9.699238830981406
 40
9.87069620397859
 40
10.028251627814
 40
10.15800315332562
 40
10.24604883135116
 40
10.27848670378519
 40
10.27848670378519
 40
10.27848670378519
 40
10.27848670378519
 10
195.3821827564383
 20
14.01410517385762
 10
195.3914554737523
 20
14.01410498511279
 10
195.4251744536861
 20
14.01410430876719
 10
195.4934706812465
 20
14.01411807243309
 10
195.592014171158
 20
14.0140322421955
 10
195.7062066464812
 20
14.01441755612255
 10
195.818589441707
 20
14.0130083589755
 10
195.9214376600118
 20
14.01719117422248
 10
195.9806839874849
 20
14.00823089251988
 10
196.0371265937032
 20
14.02164434526066
 10
196.0246255586954
 20
13.97087198613366
 10
196.0329549635703
 20
13.92589320939071
 10
196.0248170841119
 20
13.88056752990492
 10
196.0370529214457
 20
13.8293193240847
 10
195.9747773490334
 20
13.84447955365281
 10
195.9060513026868
 20
13.83359750710746
 10
195.7782756749592
 20
13.83911304747977
 10
195.6262984511643
 20
13.83700851253702
 10
195.4502695972523
 20
13.83771002588478
 10
195.2644431934287
 20
13.83745237531296
 10
195.0786167437175
 20
13.83771005144606
 10
194.9025880142168
 20
13.83700841847735
 10
194.7506104154195
 20
13.83911332229993
 10
194.6228357664554
 20
13.83359680767644
 10
194.5541077836581
 20
13.84448077125947
 10
194.4918349042883
 20
13.82931786684213
 10
194.5040616290017
 20
13.88057510805176
 10
194.4960004462597
 20
13.9258247327243
 10
194.5040675809892
 20
13.97106357955328
 10
194.4918238487083
 20
14.02234176909963
 10
194.5525017120698
 20
14.0074957736314
 10
194.6162810745736
 20
14.01756448170739
 10
194.7277314353502
 20
14.01294644212004
 10
194.8497533443824
 20
14.01413328905473
 10
194.9719538137823
 20
14.0151586390064
 10
195.0829794287392
 20
14.01092475623406
 10
195.1476517413959
 20
14.02018584521744
 10
195.2091162810501
 20
14.00604423049687
 10
195.1930065601337
 20
14.07235527884522
 10
195.2042980327358
 20
14.1444779012198
 10
195.1987400822561
 20
14.2751376088829
 10
195.200803506169
 20
14.42607323708244
 10
195.2000167127295
 20
14.59335873107889
 10
195.2007845215627
 20
14.76061110332305
 10
195.1988038785628
 20
14.91163289269916
 10
195.204130615662
 20
15.04206069552996
 10
195.1933101388425
 20
15.114654426059
 10
195.2090326429875
 20
15.18150469436799
 10
195.143270813249
 20
15.16580512490825
 10
195.0756367830763
 20
15.17609243083996
 10
194.9615885293809
 20
15.17113786847123
 10
194.8451242674902
 20
15.17414128030475
 10
194.7306554121477
 20
15.16880303143389
 10
194.6640324657812
 20
15.18001268074825
 10
194.5990769715186
 20
15.16349132665012
 10
194.6107989758707
 20
15.2147372047706
 10
194.6032830189122
 20
15.25950333784092
 10
194.6107989878835
 20
15.30426944897963
 10
194.5990769505347
 20
15.35551536129743
 10
194.6640326339199
 20
15.33899381766817
 10
194.7306533339822
 20
15.35020571373946
 10
194.8451352858063
 20
15.34485436710666
 10
194.9615454436962
 20
15.3479118877112
 10
195.0757660174641
 20
15.3427849901071
 10
195.1430150439227
 20
15.353457333556
 10
195.2083325941438
 20
15.33742082669079
 10
195.1941391448553
 20
15.39949685750056
 10
195.2036059462994
 20
15.46586761628765
 10
195.1990269004085
 20
15.58239972741968
 10
195.2007696555948
 20
15.71426685022378
 10
195.1997551495391
 20
15.85615960150275
 10
195.2017191344373
 20
15.98769050702582
 10
195.1964668553851
 20
16.10524577283005
 10
195.2073408763474
 20
16.16947789001586
 10
195.1919536641853
 20
16.2310880254505
 10
195.24075915378
 20
16.21702407382113
 10
195.2853995564726
 20
16.21954742075317
 10
195.3538643946742
 20
16.21512797401711
 10
195.3959106169103
 20
16.20613025544037
 10
195.4487544758774
 20
16.21411714866512
 10
195.4207035002014
 20
16.17113917611679
 10
195.3749142248594
 20
16.18259552043845
 10
195.3869539073265
 20
16.12173520005145
 10
195.3796086070641
 20
16.0576929946878
 10
195.3831195826161
 20
15.94909368863917
 10
195.3819806760173
 20
15.82494319144759
 10
195.3819174780263
 20
15.69189719829883
 10
195.3832872966868
 20
15.56797381249559
 10
195.3791638801313
 20
15.45868337849341
 10
195.3877763103564
 20
15.39608580094172
 10
195.3746757454401
 20
15.33740133296367
 10
195.4393884328198
 20
15.35362113810904
 10
195.5060405953155
 20
15.34270260383313
 10
195.6198779541103
 20
15.34793740173758
 10
195.7357259122097
 20
15.34485547516915
 10
195.849692426328
 20
15.35018259812514
 10
195.9160341018099
 20
15.33904208166545
 10
195.980718852548
 20
15.3554697959318
 10
195.9689820772722
 20
15.30425925210052
 10
195.976516806304
 20
15.25950334121002
 10
195.9689820992258
 20
15.21474739010028
 10
195.9807188140736
 20
15.16353690871041
 10
195.9160344075252
 20
15.1799642779422
 10
195.8496886430824
 20
15.1688278444727
 10
195.7357459487012
 20
15.17413115893121
 10
195.6197995623054
 20
15.17114764593545
 10
195.5062756882122
 20
15.17606892268394
 10
195.4389231318804
 20
15.1658508751352
 10
195.3734285122495
 20
15.18145996138816
 10
195.3891713619218
 20
15.11463851827412
 10
195.3783275998213
 20
15.04207057815881
 10
195.3836581629792
 20
14.91162247614417
 10
195.3817136151855
 20
14.76064558185228
 10
195.3823133683214
 20
14.59322243934161
 10
195.3821506559603
 20
14.42656176118374
 10
195.3821895488136
 20
14.2736014292164
 10
195.3821816413099
 20
14.1484917898571
 10
195.3821828382745
 20
14.06507890991425
 10
195.3821827716208
 20
14.02491778281981
 10
195.3821827564383
 20
14.01410517385762
 97
        1
330
B9
 75
     1
 76
     2
 52
45.0
 41
0.1
 77
     0
 78
     1
 53
45.0
 43
0.0
 44
0.0
 45
-0.282842712474619
 46
0.0
 79
     0
 98
        1
 10
0.0
 20
0.0
  0
HATCH
  5
D7
330
48
100
AcDbEntity
  8
1
  6
Continuous
 62
     2
100
AcDbHatch
 10
0.0
 20
0.0
 30
0.0
210
0.0
220
0.0
230
1.0
  2
CUSTOM13
 70
     0
 71
     1
 91
        1
 92
        1
 93
        3
 72
     4
 94
        3
 73
     0
 74
     0
 95
       24
 96
       20
 40
0.0
 40
0.0
 40
0.0
 40
0.0
 40
0.2211075008753736
 40
0.4273218586244801
 40
0.5080174679238614
 40
0.5914835907869338
 40
0.8143265690191965
 40
1.054651302686521
 40
1.295452694023114
 40
1.518109231328766
 40
1.540864321905382
 40
1.595126460622644
 40
1.659890947895958
 40
1.714153085187317
 40
1.736908174961618
 40
1.764951100735294
 40
1.801562291220888
 40
1.953914424543562
 40
2.126104167379613
 40
2.126104167379613
 40
2.126104167379613
 40
2.126104167379613
 10
185.9375369556889
 20
15.5898929511302
 10
185.9112579081812
 20
15.53097628234378
 10
185.8604698894426
 20
15.41711139679262
 10
185.8131784839111
 20
15.14441958233129
 10
185.7043482802617
 20
15.2444548257546
 10
185.5514800279637
 20
15.2711859336733
 10
185.7686155181199
 20
15.48518135017637
 10
185.7838483674381
 20
15.70332117782491
 10
185.8906889492
 20
15.8845157906643
 10
185.8305380947078
 20
16.16913226311409
 10
185.9334317395401
 20
16.14114089222454
 10
185.977993346815
 20
16.13243251602304
 10
186.0380842395396
 20
16.12139654183358
 10
186.0756619587439
 20
16.10767523055564
 10
186.1252466928605
 20
16.10756076160225
 10
186.0930158919325
 20
16.07306592398629
 10
186.0171802221881
 20
16.08404104537963
 10
186.0429447159693
 20
15.89858969582454
 10
186.005589676385
 20
15.80702313549595
 10
185.9857704961609
 20
15.75844135397711
 72
     4
 94
        3
 73
     0
 74
     0
 95
       70
 96
       66
 40
0.0
 40
0.0
 40
0.0
 40
0.0
 40
0.0241731073021472
 40
0.0846058988987013
 40
0.1631685280353284
 40
0.2417311571789756
 40
0.3021639488292751
 40
0.3263370654895541
 40
0.3533118254248881
 40
0.4228783438922111
 40
0.5179999095313367
 40
0.6216398239466031
 40
0.7167613891499635
 40
0.7863279069649792
 40
0.8133026791761729
 40
0.8372943998771563
 40
0.8945054261372748
 40
0.9627895541962506
 40
1.020000580349059
 40
1.043992300975157
 40
1.071934345522972
 40
1.113121768772996
 40
1.145225199332313
 40
1.225483775412834
 40
1.329819923771524
 40
1.434156071994393
 40
1.514414647795798
 40
1.546518078208401
 40
1.578974764260174
 40
1.662678849314169
 40
1.77713137366839
 40
1.901833377474781
 40
2.01628590050057
 40
2.099989982527938
 40
2.132446666570296
 40
2.15878235448602
 40
2.216720867907811
 40
2.27465938133423
 40
2.300995069256166
 40
2.333451754066138
 40
2.417155836543819
 40
2.531608358985258
 40
2.656310362283753
 40
2.770762886388886
 40
2.854466971340051
 40
2.886923657363857
 40
2.913597976833293
 40
2.982389642875101
 40
3.07645171694697
 40
3.178937260458591
 40
3.272999334740002
 40
3.34179100105923
 40
3.368465320663543
 40
3.396976080738764
 40
3.472140811846
 40
3.57840819030869
 40
3.700226892456126
 40
3.822045594634343
 40
3.92831297325645
 40
4.003477705314848
 40
4.031988456866913
 40
4.058324144797715
 40
4.116262658236882
 40
4.174201171400688
 40
4.200536849608624
 40
4.200536849608624
 40
4.200536849608624
 40
4.200536849608624
 10
185.9857704961609
 20
15.75844135397711
 10
185.9938259544679
 20
15.75844359811692
 10
186.0220200663241
 20
15.75845146032804
 10
186.0765534803672
 20
15.75830754828377
 10
186.1482891808604
 20
15.75909120499903
 10
186.2236240137062
 20
15.75627570463817
 10
186.2713052366438
 20
15.76298403400963
 10
186.3195071245616
 20
15.75197563692439
 10
186.3062571799873
 20
15.80546402997039
 10
186.3151093964538
 20
15.86049583543097
 10
186.3108698036285
 20
15.95419908726114
 10
186.3133483481281
 20
16.04959482218539
 10
186.3090938706059
 20
16.14356821983392
 10
186.3179818665847
 20
16.19795062438018
 10
186.3046977409945
 20
16.25233997691465
 10
186.3514119277109
 20
16.23842216335364
 10
186.3943254545737
 20
16.24103877374051
 10
186.4605443456684
 20
16.23648422450763
 10
186.5013342271799
 20
16.22778162134172
 10
186.5525145690819
 20
16.23531799890206
 10
186.5253720487201
 20
16.19349970223285
 10
186.4803096055707
 20
16.20284992072594
 10
186.4942065045051
 20
16.13841207371836
 10
186.4858414431653
 20
16.07378219627399
 10
186.4903632178398
 20
15.97529141193889
 10
186.4854741311167
 20
15.87595932842574
 10
186.4950258992081
 20
15.81293115552973
 10
186.47997614552
 20
15.74964011499795
 10
186.5449159457208
 20
15.76515072944275
 10
186.6116246399497
 20
15.75499387697818
 10
186.7241435470827
 20
15.75988800099374
 10
186.8390235448953
 20
15.75691204732789
 10
186.9519871999747
 20
15.76221664184997
 10
187.0176267597678
 20
15.75107306472094
 10
187.0816276691053
 20
15.76744532319863
 10
187.0703142889189
 20
15.7176168990528
 10
187.0775339871509
 20
15.67416715212129
 10
187.0703142611269
 20
15.63071745587451
 10
187.0816277175994
 20
15.58088895196882
 10
187.0176263598972
 20
15.59726166091369
 10
186.9519921240459
 20
15.58611271661594
 10
186.838997431733
 20
15.5914485720686
 10
186.7242456548644
 20
15.58834345663828
 10
186.611318368686
 20
15.59364894682594
 10
186.5455220903585
 20
15.582573000196
 10
186.4816097975358
 20
15.59887597847624
 10
186.4936015165126
 20
15.54423524395748
 10
186.4862104613005
 20
15.48854295047847
 10
186.4892684841983
 20
15.39649689140575
 10
186.4893422785682
 20
15.30179109873105
 10
186.486031357836
 20
15.20952782902269
 10
186.4939505989903
 20
15.15435768736143
 10
186.4815076611617
 20
15.10058169100139
 10
186.5389116551631
 20
15.11453768862784
 10
186.5994708140383
 20
15.10511457884229
 10
186.7048680855081
 20
15.10942885928707
 10
186.8204294070622
 20
15.10835504612034
 10
186.9359688877797
 20
15.10725965900997
 10
187.0414181130841
 20
15.11162525770635
 10
187.1018680471803
 20
15.10209426030674
 10
187.1592837739111
 20
15.11617289606382
 10
187.1477773876708
 20
15.06707153265684
 10
187.153756678175
 20
15.02564658018651
 10
187.1520311050801
 20
14.97651677966697
 10
187.1521500122971
 20
14.94854428447609
 10
187.1521871691833
 20
14.93980288195951
 72
     4
 94
        3
 73
     0
 74
     0
 95
       62
 96
       58
 40
0.0
 40
0.0
 40
0.0
 40
0.0
 40
0.0598250028308485
 40
0.2024846486897331
 40
0.3727558389221031
 40
0.515415484793607
 40
0.5752404975785339
 40
0.9332326775487246
 40
1.290451762839466
 40
1.602077253145862
 40
1.699931634112134
 40
1.799359756425047
 40
2.27012014965711
 40
2.804661928461628
 40
2.882342287383354
 40
3.076543185719229
 40
3.329004354835722
 40
3.581465524568583
 40
3.77566642454389
 40
3.853346784558523
 40
3.899120679595268
 40
3.984129341792266
 40
4.029903236817615
 40
4.105797496059779
 40
4.295533144152756
 40
4.542189486612024
 40
4.788845828875996
 40
4.978581476410399
 40
5.054475735244649
 40
5.621734664339719
 40
6.13086724203775
 40
6.225249780949027
 40
6.318913039727691
 40
6.663579954559346
 40
7.047498900225191
 40
7.435230791576111
 40
7.498943906668523
 40
7.650875181210517
 40
7.832212509002027
 40
7.984143783697413
 40
8.04785689890354
 40
8.09155463273305
 40
8.172707566964718
 40
8.216405300768445
 40
8.28902178216133
 40
8.462184160757703
 40
8.668861838005784
 40
8.842024215264376
 40
8.91464069547557
 40
8.98988158086178
 40
9.155411528827699
 40
9.320941477744494
 40
9.39618235248775
 40
9.454709011144297
 40
9.583467660171232
 40
9.712226309013511
 40
9.770752957989965
 40
9.770752957989965
 40
9.770752957989965
 40
9.770752957989965
 10
187.1521871691833
 20
14.93980288195951
 10
187.1322348171623
 20
14.93980875568673
 10
187.0647037716466
 20
14.93982863806158
 10
186.9410612161788
 20
14.93949362520326
 10
186.7863180150056
 20
14.94107673750513
 10
186.669734948248
 20
14.93686078860496
 10
186.455094263424
 20
14.95215205331627
 10
186.8518948407228
 20
14.59198721286194
 10
186.8945656069267
 20
14.37510503397167
 10
187.3189162146611
 20
14.19325062511451
 10
187.1439821496074
 20
14.08985196568073
 10
187.0194523925084
 20
13.87831523212725
 10
186.7666277235942
 20
14.34806081001567
 10
186.4797602893627
 20
14.99511516984534
 10
186.4906335926659
 20
14.68782672154703
 10
186.488289277796
 20
14.52288616971785
 10
186.4861096126411
 20
14.28879670711697
 10
186.4980774396346
 20
14.04498072421784
 10
186.468798474063
 20
13.89855796860983
 10
186.511452262547
 20
13.75113490174535
 10
186.4239814005639
 20
13.76685797306217
 10
186.3768527606745
 20
13.76694303543451
 10
186.2898973207713
 20
13.75109425482907
 10
186.3313474021722
 20
13.89527771422761
 10
186.3029875004285
 20
14.03855052698455
 10
186.3145973775299
 20
14.27674947365267
 10
186.3124175648272
 20
14.5051723524035
 10
186.3103111127993
 20
14.66705729376
 10
186.3208035438325
 20
14.98153709333762
 10
186.0128963252894
 20
14.29229470872439
 10
185.7055258267454
 20
13.81476750243045
 10
185.5851367066275
 20
14.03741112637428
 10
185.4074607910721
 20
14.15011034955561
 10
185.8853326362894
 20
14.32548143465466
 10
185.9353959057208
 20
14.56091929252033
 10
186.3583799621717
 20
14.95322989344607
 10
186.127675427354
 20
14.93655307029067
 10
186.004968585934
 20
14.94269518948772
 10
185.8325483095662
 20
14.93312822699575
 10
185.7213224694448
 20
14.95448818489666
 10
185.6025779627448
 20
14.92136265357421
 10
185.6183169706686
 20
15.00203900606885
 10
185.6178550933762
 20
15.04645414290856
 10
185.6027881889931
 20
15.12967081778536
 10
185.7372380935444
 20
15.09062651983886
 10
185.8619755545747
 20
15.11739729328425
 10
186.062875523728
 20
15.10063949044055
 10
186.1921540949353
 20
15.12204225913007
 10
186.3328419928294
 20
15.08868778853423
 10
186.2980927452614
 20
15.22651875785071
 10
186.3222185666714
 20
15.34963257349485
 10
186.2967086182392
 20
15.47024055670341
 10
186.3333251146685
 20
15.60539865141501
 10
186.2211417027769
 20
15.58094545781896
 10
186.1280356457136
 20
15.59307749842028
 10
186.0191547579819
 20
15.5895763007
 10
185.9569697640964
 20
15.58981755951609
 10
185.9375369557246
 20
15.5898929512415
 97
        3
330
BB
330
BC
330
BA
 75
     1
 76
     2
 52
45.0
 41
0.1
 77
     0
 78
     1
 53
45.0
 43
0.0
 44
0.0
 45
-0.282842712474619
 46
0.0
 79
     0
 98
        1
 10
0.0
 20
0.0
  0
HATCH
  5
D8
330
48
100
AcDbEntity
  8
1
  6
Continuous
 62
     2
100
AcDbHatch
 10
0.0
 20
0.0
 30
0.0
210
0.0
220
0.0
230
1.0
  2
CUSTOM14
 70
     0
 71
     1
 91
        1
 92
        1
 93
        4
 72
     1
 10
192.4578138032672
 20
15.2287543402206
 11
191.1602971697031
 21
15.2287543402206
 72
     1
 10
191.1602971697031
 20
15.2287543402206
 11
191.1602971697031
 21
15.39722336795632
 72
     1
 10
191.1602971697031
 20
15.39722336795632
 11
192.4578138032672
 21
15.39722336795632
 72
     1
 10
192.4578138032672
 20
15.39722336795632
 11
192.4578138032672
 21
15.2287543402206
 97
        1
330
BD
 75
     1
 76
     2
 52
45.0
 41
0.1
 77
     0
 78
     1
 53
45.0
 43
0.0
 44
0.0
 45
-0.282842712474619
 46
0.0
 79
     0
 98
        1
 10
0.0
 20
0.0
  0
ENDBLK
  5
4A
330
48
100
AcDbEntity
  8
0
100
AcDbBlockEnd
  0
BLOCK
  5
4D
330
4B
100
AcDbEntity
  8
0
100
AcDbBlockBegin
  2
開示A4枠
 70
     0
 10
0.0
 20
0.0
 30
0.0
  3
開示A4枠
  1

  0
INSERT
  5
4C
330
4B
100
AcDbEntity
  8
1
100
AcDbBlockReference
  2
開示A4
 10
0.0
 20
0.0
 30
0.0
  0
ENDBLK
  5
4E
330
4B
100
AcDbEntity
  8
0
100
AcDbBlockEnd
  0
BLOCK
  5
50
330
4F
100
AcDbEntity
  8
0
100
AcDbBlockBegin
  2
30-1-13
 70
     0
 10
113.2147857550509
 20
149.7861547387687
 30
0.0
  3
30-1-13
  1

  0
LINE
  5
D9
330
4F
100
AcDbEntity
  8
1
  6
Continuous
 62
     7
100
AcDbLine
 10
99.69056584104119
 20
131.232955755526
 30
0.0
 11
123.1905658410412
 21
131.232955755526
 31
0.0
  0
LINE
  5
DA
330
4F
100
AcDbEntity
  8
1
  6
Continuous
 62
     7
100
AcDbLine
 10
99.69056584104119
 20
146.0329557555261
 30
0.0
 11
123.1905658410412
 21
146.032955755526
 31
0.0
  0
LINE
  5
DB
330
4F
100
AcDbEntity
  8
1
  6
DASH_CENTER
 62
     2
100
AcDbLine
 10
124.9660026197884
 20
178.8108200482641
 30
0.0
 11
97.91545229179368
 21
178.810820048264
 31
0.0
  0
LINE
  5
DC
330
4F
100
AcDbEntity
  8
1
  6
DASH_CENTER
 62
     2
100
AcDbLine
 10
111.4405658410412
 20
149.182084061514
 30
0.0
 11
111.4405658410412
 21
127.4640839579999
 31
0.0
  0
LINE
  5
DD
330
4F
100
AcDbEntity
  8
1
  6
DASH_CENTER
 62
     2
100
AcDbLine
 10
111.4405658410412
 20
192.3355332732659
 30
0.0
 11
111.4405658410412
 21
165.2856886668153
 31
0.0
  0
LINE
  5
DE
330
4F
100
AcDbEntity
  8
1
  6
Continuous
 62
     7
100
AcDbLine
 10
100.2905658410412
 20
146.232955755526
 30
0.0
 11
122.9905658410412
 21
146.232955755526
 31
0.0
  0
LINE
  5
DF
330
4F
100
AcDbEntity
  8
1
  6
Continuous
 62
     7
100
AcDbLine
 10
100.7905658410412
 20
129.2329557555261
 30
0.0
 11
122.0905658410399
 21
129.232955755524
 31
0.0
  0
LINE
  5
E0
330
4F
100
AcDbEntity
  8
1
  6
Continuous
 62
     7
100
AcDbLine
 10
99.69056584104119
 20
146.0329557555261
 30
0.0
 11
99.69056584104119
 21
131.232955755526
 31
0.0
  0
LINE
  5
E1
330
4F
100
AcDbEntity
  8
1
  6
Continuous
 62
     7
100
AcDbLine
 10
99.69056584104119
 20
146.0329557555261
 30
0.0
 11
99.89056584104122
 21
146.232955755526
 31
0.0
  0
LINE
  5
E2
330
4F
100
AcDbEntity
  8
1
  6
Continuous
 62
     7
100
AcDbLine
 10
99.89056584104122
 20
146.232955755526
 30
0.0
 11
100.2905658410412
 21
146.232955755526
 31
0.0
  0
LINE
  5
E3
330
4F
100
AcDbEntity
  8
1
  6
Continuous
 62
     7
100
AcDbLine
 10
123.1905658410412
 20
131.232955755526
 30
0.0
 11
123.1905658410412
 21
146.032955755526
 31
0.0
  0
LINE
  5
E4
330
4F
100
AcDbEntity
  8
1
  6
Continuous
 62
     7
100
AcDbLine
 10
122.9905658410412
 20
146.232955755526
 30
0.0
 11
123.1905658410412
 21
146.032955755526
 31
0.0
  0
ARC
  5
E5
330
4F
100
AcDbEntity
  8
1
  6
Continuous
 62
     7
100
AcDbCircle
 10
114.2243101738806
 20
137.9240151385877
 30
0.0
 40
15.99999999999998
100
AcDbArc
 50
204.7204436720409
 51
212.901143813905
  0
ARC
  5
E6
330
4F
100
AcDbEntity
  8
1
  6
Continuous
 62
     7
100
AcDbCircle
 10
108.6568215082018
 20
137.9240151385877
 30
0.0
 40
15.99999999999997
100
AcDbArc
 50
327.0988561860947
 51
335.2795563279591
  0
CIRCLE
  5
E7
330
4F
100
AcDbEntity
  8
0
  6
Continuous
 62
     7
100
AcDbCircle
 10
111.4405658410412
 20
178.810820048264
 30
0.0
 40
11.75
  0
CIRCLE
  5
E8
330
4F
100
AcDbEntity
  8
0
  6
Continuous
 62
     7
100
AcDbCircle
 10
111.4405658410412
 20
178.810820048264
 30
0.0
 40
11.55
  0
CIRCLE
  5
E9
330
4F
100
AcDbEntity
  8
0
  6
Continuous
 62
     2
100
AcDbCircle
 10
111.4405658410412
 20
178.810820048264
 30
0.0
 40
11.14999999999999
  0
CIRCLE
  5
EA
330
4F
100
AcDbEntity
  8
0
  6
Continuous
 62
     7
100
AcDbCircle
 10
111.4405658410412
 20
178.810820048264
 30
0.0
 40
10.39999999999999
  0
ENDBLK
  5
51
330
4F
100
AcDbEntity
  8
0
100
AcDbBlockEnd
  0
BLOCK
  5
53
330
52
100
AcDbEntity
  8
0
100
AcDbBlockBegin
  2
77-15-13
 70
     0
 10
-0.23698353923101
 20
168.4241469193227
 30
0.0
  3
77-15-13
  1

  0
LINE
  5
EB
330
52
100
AcDbEntity
  8
1
  6
Continuous
 62
     7
100
AcDbLine
 10
101.9405658410412
 20
129.232955755526
 30
0.0
 11
101.9405658410412
 21
129.032955755526
 31
0.0
  0
LINE
  5
EC
330
52
100
AcDbEntity
  8
0
  6
Continuous
 62
     7
100
AcDbLine
 10
118.6800597511264
 20
178.6423939500442
 30
0.0
 11
110.9034053309581
 21
186.4190483702125
 31
0.0
  0
LINE
  5
ED
330
52
100
AcDbEntity
  8
0
  6
Continuous
 62
     7
100
AcDbLine
 10
104.2010719309561
 20
178.6423939500444
 30
0.0
 11
111.9777263511244
 21
186.4190483702127
 31
0.0
  0
LINE
  5
EE
330
52
100
AcDbEntity
  8
0
  6
Continuous
 62
     7
100
AcDbLine
 10
117.9729529699398
 20
177.9352871688576
 30
0.0
 11
110.1962985497715
 21
185.711941589026
 31
0.0
  0
LINE
  5
EF
330
52
100
AcDbEntity
  8
0
  6
Continuous
 62
     7
100
AcDbLine
 10
112.3160987204474
 20
172.2784329193654
 30
0.0
 11
104.5394443002791
 21
180.0550873395337
 31
0.0
  0
LINE
  5
F0
330
52
100
AcDbEntity
  8
0
  6
Continuous
 62
     7
100
AcDbLine
 10
117.2658461887533
 20
177.2281803876711
 30
0.0
 11
109.4891917685849
 21
185.0048348078394
 31
0.0
  0
LINE
  5
F1
330
52
100
AcDbEntity
  8
0
  6
Continuous
 62
     7
100
AcDbLine
 10
116.5587394075667
 20
176.5210736064846
 30
0.0
 11
108.7820849873984
 21
184.2977280266529
 31
0.0
  0
LINE
  5
F2
330
52
100
AcDbEntity
  8
0
  6
Continuous
 62
     7
100
AcDbLine
 10
115.8516326263802
 20
175.813966825298
 30
0.0
 11
108.0749782062119
 21
183.5906212454664
 31
0.0
  0
LINE
  5
F3
330
52
100
AcDbEntity
  8
0
  6
Continuous
 62
     7
100
AcDbLine
 10
115.1445258451936
 20
175.1068600441115
 30
0.0
 11
107.3678714250253
 21
182.8835144642798
 31
0.0
  0
LINE
  5
F4
330
52
100
AcDbEntity
  8
0
  6
Continuous
 62
     7
100
AcDbLine
 10
114.4374190640071
 20
174.399753262925
 30
0.0
 11
106.6607646438388
 21
182.1764076830933
 31
0.0
  0
LINE
  5
F5
330
52
100
AcDbEntity
  8
0
  6
Continuous
 62
     7
100
AcDbLine
 10
113.7303122828205
 20
173.6926464817384
 30
0.0
 11
105.9536578626522
 21
181.4693009019068
 31
0.0
  0
LINE
  5
F6
330
52
100
AcDbEntity
  8
0
  6
Continuous
 62
     7
100
AcDbLine
 10
113.0232055016339
 20
172.9855397005519
 30
0.0
 11
105.2465510814656
 21
180.7621941207203
 31
0.0
  0
LINE
  5
F7
330
52
100
AcDbEntity
  8
0
  6
Continuous
 62
     7
100
AcDbLine
 10
110.5650329616349
 20
172.2784329193654
 30
0.0
 11
118.3416873818032
 21
180.0550873395337
 31
0.0
  0
LINE
  5
F8
330
52
100
AcDbEntity
  8
0
  6
Continuous
 62
     7
100
AcDbLine
 10
109.8579261804483
 20
172.9855397005519
 30
0.0
 11
117.6345806006166
 21
180.7621941207203
 31
0.0
  0
LINE
  5
F9
330
52
100
AcDbEntity
  8
0
  6
Continuous
 62
     7
100
AcDbLine
 10
109.1508193992618
 20
173.6926464817385
 30
0.0
 11
116.9274738194301
 21
181.4693009019068
 31
0.0
  0
LINE
  5
FA
330
52
100
AcDbEntity
  8
0
  6
Continuous
 62
     7
100
AcDbLine
 10
108.4437126180753
 20
174.3997532629251
 30
0.0
 11
116.2203670382436
 21
182.1764076830934
 31
0.0
  0
LINE
  5
FB
330
52
100
AcDbEntity
  8
0
  6
Continuous
 62
     7
100
AcDbLine
 10
107.7366058368887
 20
175.1068600441116
 30
0.0
 11
115.5132602570571
 21
182.8835144642799
 31
0.0
  0
LINE
  5
FC
330
52
100
AcDbEntity
  8
0
  6
Continuous
 62
     7
100
AcDbLine
 10
107.0294990557022
 20
175.8139668252982
 30
0.0
 11
114.8061534758705
 21
183.5906212454665
 31
0.0
  0
LINE
  5
FD
330
52
100
AcDbEntity
  8
0
  6
Continuous
 62
     7
100
AcDbLine
 10
106.3223922745157
 20
176.5210736064847
 30
0.0
 11
114.099046694684
 21
184.297728026653
 31
0.0
  0
LINE
  5
FE
330
52
100
AcDbEntity
  8
0
  6
Continuous
 62
     7
100
AcDbLine
 10
105.6152854933292
 20
177.2281803876713
 30
0.0
 11
113.3919399134975
 21
185.0048348078396
 31
0.0
  0
LINE
  5
FF
330
52
100
AcDbEntity
  8
0
  6
Continuous
 62
     7
100
AcDbLine
 10
104.9081787121426
 20
177.9352871688578
 30
0.0
 11
112.6848331323109
 21
185.7119415890261
 31
0.0
  0
LINE
  5
100
330
52
100
AcDbEntity
  8
1
  6
Continuous
 62
     7
100
AcDbLine
 10
101.9405658410412
 20
129.032955755526
 30
0.0
 11
120.9405658410412
 21
129.032955755526
 31
0.0
  0
LINE
  5
101
330
52
100
AcDbEntity
  8
1
  6
Continuous
 62
     7
100
AcDbLine
 10
120.9405658410412
 20
129.032955755526
 30
0.0
 11
120.9405658410412
 21
129.2329557555241
 31
0.0
  0
ENDBLK
  5
54
330
52
100
AcDbEntity
  8
0
100
AcDbBlockEnd
  0
BLOCK
  5
56
330
55
100
AcDbEntity
  8
0
100
AcDbBlockBegin
  2
92-21
 70
     0
 10
96.7253398471671
 20
110.5627765436619
 30
0.0
  3
92-21
  1

  0
CIRCLE
  5
102
330
55
100
AcDbEntity
  8
0
  6
Continuous
 62
     7
100
AcDbCircle
 10
111.4405658410412
 20
178.810820048264
 30
0.0
 40
8.0
  0
CIRCLE
  5
103
330
55
100
AcDbEntity
  8
0
  6
Continuous
 62
     7
100
AcDbCircle
 10
111.4405658410412
 20
178.810820048264
 30
0.0
 40
10.25
  0
ENDBLK
  5
57
330
55
100
AcDbEntity
  8
0
100
AcDbBlockEnd
  0
BLOCK
  5
11B
330
114
100
AcDbEntity
  8
0
100
AcDbBlockBegin
  2
*D6
 70
     1
 10
0.0
 20
0.0
 30
0.0
  3
*D6
  1

  0
LINE
  5
115
330
114
100
AcDbEntity
  8
1
  6
Continuous
 62
     2
100
AcDbLine
 10
88.69056584104119
 20
146.232955755526
 30
0.0
 11
88.69056584104119
 21
129.2329557555261
 31
0.0
  0
LINE
  5
116
330
114
100
AcDbEntity
  8
1
  6
Continuous
 62
     2
100
AcDbLine
 10
100.7905658410412
 20
129.2329557555261
 30
0.0
 11
87.69056584104119
 21
129.2329557555261
 31
0.0
  0
LINE
  5
117
330
114
100
AcDbEntity
  8
1
  6
Continuous
 62
     2
100
AcDbLine
 10
99.89056584104122
 20
146.232955755526
 30
0.0
 11
87.69056584104119
 21
146.232955755526
 31
0.0
  0
SOLID
  5
118
330
114
100
AcDbEntity
  8
1
 62
     2
100
AcDbTrace
 10
89.15134958259708
 20
142.732955755526
 30
0.0
 11
88.2297820994853
 21
142.732955755526
 31
0.0
 12
88.69056584104119
 22
146.232955755526
 32
0.0
 13
88.69056584104119
 23
146.232955755526
 33
0.0
  0
SOLID
  5
119
330
114
100
AcDbEntity
  8
1
 62
     2
100
AcDbTrace
 10
88.2297820994853
 20
132.7329557555261
 30
0.0
 11
89.15134958259708
 21
132.7329557555261
 31
0.0
 12
88.69056584104119
 22
129.2329557555261
 32
0.0
 13
88.69056584104119
 23
129.2329557555261
 33
0.0
  0
MTEXT
  5
11A
330
114
100
AcDbEntity
  8
1
 62
     7
100
AcDbMText
 10
87.69056584104119
 20
135.450353852884
 30
0.0
 40
3.5
 41
0.0
 71
     7
 72
     1
  1
17
  7
CONVERTER_12
 11
0.0
 21
1.0
 31
0.0
 73
     1
 44
0.60024009603842
  0
ENDBLK
  5
11C
330
114
100
AcDbEntity
  8
0
100
AcDbBlockEnd
  0
BLOCK
  5
126
330
11F
100
AcDbEntity
  8
0
100
AcDbBlockBegin
  2
*D7
 70
     1
 10
0.0
 20
0.0
 30
0.0
  3
*D7
  1

  0
LINE
  5
120
330
11F
100
AcDbEntity
  8
1
  6
Continuous
 62
     2
100
AcDbLine
 10
99.6905658410412
 20
120.0329557555259
 30
0.0
 11
123.1905658410412
 21
120.0329557555259
 31
0.0
  0
LINE
  5
121
330
11F
100
AcDbEntity
  8
1
  6
Continuous
 62
     2
100
AcDbLine
 10
123.1905658410412
 20
131.232955755526
 30
0.0
 11
123.1905658410412
 21
119.0329557555259
 31
0.0
  0
LINE
  5
122
330
11F
100
AcDbEntity
  8
1
  6
Continuous
 62
     2
100
AcDbLine
 10
99.6905658410412
 20
131.232955755526
 30
0.0
 11
99.6905658410412
 21
119.0329557555259
 31
0.0
  0
SOLID
  5
123
330
11F
100
AcDbEntity
  8
1
 62
     2
100
AcDbTrace
 10
103.1905658410412
 20
120.4937394970818
 30
0.0
 11
103.1905658410412
 21
119.57217201397
 31
0.0
 12
99.6905658410412
 22
120.0329557555259
 32
0.0
 13
99.6905658410412
 23
120.0329557555259
 33
0.0
  0
SOLID
  5
124
330
11F
100
AcDbEntity
  8
1
 62
     2
100
AcDbTrace
 10
119.6905658410412
 20
119.57217201397
 30
0.0
 11
119.6905658410412
 21
120.4937394970818
 31
0.0
 12
123.1905658410412
 22
120.0329557555259
 32
0.0
 13
123.1905658410412
 23
120.0329557555259
 33
0.0
  0
MTEXT
  5
125
330
11F
100
AcDbEntity
  8
1
 62
     7
100
AcDbMText
 10
108.2214681014897
 20
121.0329487984496
 30
0.0
 40
3.5
 41
0.0
 71
     7
 72
     1
  1
\C7;{\Fgdt;n}\C7;24
  7
CONVERTER_12
 11
0.9999999999970619
 21
2.424068405545306E-6
 31
0.0
 73
     1
 44
0.60024009603842
  0
ENDBLK
  5
127
330
11F
100
AcDbEntity
  8
0
100
AcDbBlockEnd
  0
ENDSEC
  0
SECTION
  2
ENTITIES
  0
INSERT
  5
58
330
1F
100
AcDbEntity
  8
0
100
AcDbBlockReference
  2
開示A4枠
 10
0.0
 20
0.0
 30
0.0
  0
INSERT
  5
59
330
1F
100
AcDbEntity
  8
1
100
AcDbBlockReference
  2
30-1-13
 10
113.2147857550509
 20
149.7861547387687
 30
0.0
  0
INSERT
  5
5A
330
1F
100
AcDbEntity
  8
0
100
AcDbBlockReference
  2
77-15-13
 10
-0.23698353923101
 20
168.4241469193227
 30
0.0
  0
INSERT
  5
5B
330
1F
100
AcDbEntity
  8
0
100
AcDbBlockReference
  2
92-21
 10
96.7253398471671
 20
110.5627765436619
 30
0.0
  0
SOLID
  5
104
330
1F
100
AcDbEntity
  8
1
 62
     2
100
AcDbTrace
 10
123.9415154152029
 20
149.4944365395495
 30
0.0
 11
124.7396162668794
 21
149.0336527979936
 31
0.0
 12
122.5905658410412
 22
146.232955755526
 32
0.0
 13
122.5905658410412
 23
146.232955755526
 33
0.0
  0
LEADER
  5
105
330
1F
100
AcDbEntity
  8
1
  6
Continuous
 62
     2
100
AcDbLeader
  3
Standard
 71
     0
 76
     3
 10
122.5905658410412
 20
146.232955755526
 30
0.0
 10
129.3845095116769
 20
158.000411376828
 30
0.0
 10
150.3042098224342
 20
158.000411376828
 30
0.0
  0
MTEXT
  5
107
330
1F
100
AcDbEntity
  8
1
 62
     7
100
AcDbMText
 10
157.5
 20
12.5
 30
0.0
 40
2.5
 41
0.0
 71
     5
 72
     1
  1
2
  7
CONVERTER_12
 73
     1
 44
0.7202881152461
  0
MTEXT
  5
108
330
1F
100
AcDbEntity
  8
1
 62
     7
100
AcDbMText
 10
151.75
 20
12.5
 30
0.0
 40
2.5
 41
0.0
 71
     5
 72
     1
  1
04
  7
CONVERTER_12
 73
     1
 44
0.7202881152461
  0
MTEXT
  5
109
330
1F
100
AcDbEntity
  8
1
 62
     7
100
AcDbMText
 10
140.5
 20
12.5
 30
0.0
 40
2.5
 41
0.0
 71
     5
 72
     1
  1
2
  7
CONVERTER_12
 73
     1
 44
0.7202881152461
  0
MTEXT
  5
10A
330
1F
100
AcDbEntity
  8
1
 62
     7
100
AcDbMText
 10
134.75
 20
12.5
 30
0.0
 40
2.5
 41
0.0
 71
     5
 72
     1
  1
04
  7
CONVERTER_12
 73
     1
 44
0.7202881152461
  0
MTEXT
  5
10B
330
1F
100
AcDbEntity
  8
1
 62
     7
100
AcDbMText
 10
123.5
 20
12.5
 30
0.0
 40
2.5
 41
0.0
 71
     5
 72
     1
  1
2
  7
CONVERTER_12
 73
     1
 44
0.7202881152461
  0
MTEXT
  5
10C
330
1F
100
AcDbEntity
  8
1
 62
     7
100
AcDbMText
 10
117.75
 20
12.5
 30
0.0
 40
2.5
 41
0.0
 71
     5
 72
     1
  1
04
  7
CONVERTER_12
 73
     1
 44
0.7202881152461
  0
MTEXT
  5
10D
330
1F
100
AcDbEntity
  8
1
 62
     7
100
AcDbMText
 10
100.75
 20
12.5
 30
0.0
 40
2.5
 41
0.0
 71
     5
 72
     1
  1
04
  7
CONVERTER_12
 73
     1
 44
0.7202881152461
  0
MTEXT
  5
10E
330
1F
100
AcDbEntity
  8
1
 62
     7
100
AcDbMText
 10
106.5
 20
12.5
 30
0.0
 40
2.5
 41
0.0
 71
     5
 72
     1
  1
2
  7
CONVERTER_12
 73
     1
 44
0.7202881152461
  0
TEXT
  5
10F
330
1F
100
AcDbEntity
  8
1
 62
     7
100
AcDbText
 10
130.9902061614576
 20
159.660892412118
 30
0.0
 40
3.0
  1
M22X1,25
 41
0.9
  7
CONVERTER_12
100
AcDbText
  0
MTEXT
  5
110
330
1F
100
AcDbEntity
  8
1
 62
     7
100
AcDbMText
 10
93.75000000000003
 20
17.00000000000011
 30
0.0
 40
3.5
 41
0.0
 71
     5
 72
     1
  1
1
  7
CONVERTER_12
 73
     1
 44
0.7202881152461
  0
MTEXT
  5
111
330
1F
100
AcDbEntity
  8
1
 62
     7
100
AcDbMText
 10
57.00000000000003
 20
14.25000000000011
 30
0.0
 40
3.5
 41
0.0
 71
     5
 72
     1
  1
M28-13
  7
CONVERTER_12
 73
     1
 44
0.7202881152461
  0
MTEXT
  5
112
330
1F
100
AcDbEntity
  8
1
 62
     7
100
AcDbMText
 10
57.00000000000003
 20
22.75000000000011
 30
0.0
 40
3.5
 41
0.0
 71
     5
 72
     1
  1
水栓泡沫器
  7
CONVERTER_11
 73
     1
 44
0.54545454545455
  0
MTEXT
  5
113
330
1F
100
AcDbEntity
  8
1
 62
     7
100
AcDbMText
 10
85.25000000000003
 20
17.00000000000011
 30
0.0
 40
3.5
 41
0.0
 71
     5
 72
     1
  1
1
  7
CONVERTER_12
 73
     1
 44
0.7202881152461
  0
DIMENSION
  5
11E
330
1F
100
AcDbEntity
  8
1
100
AcDbDimension
  2
*D6
 10
88.69056584104119
 20
146.232955755526
 30
0.0
 11
85.94056584104119
 21
137.550353852884
 31
0.0
 70
    32
  1
<>
 71
     5
 42
-1.0
 53
90.0
  3
ME10_DIM_10
100
AcDbAlignedDimension
 13
100.7905658410412
 23
129.2329557555261
 33
0.0
 14
99.89056584104122
 24
146.232955755526
 34
0.0
 50
90.0
100
AcDbRotatedDimension
  0
DIMENSION
  5
129
330
1F
100
AcDbEntity
  8
1
100
AcDbDimension
  2
*D7
 10
99.6905658410412
 20
120.0329557555259
 30
0.0
 11
111.6164681014813
 21
122.7829557555259
 31
0.0
 70
    32
  1
{\Fgdt;n}24
 71
     5
 42
-1.0
 53
0.00013888888889
  3
ME10_DIM_11
100
AcDbAlignedDimension
 13
123.1905658410412
 23
131.232955755526
 33
0.0
 14
99.69056584104119
 24
131.232955755526
 34
0.0
100
AcDbRotatedDimension
  0
ENDSEC
  0
SECTION
  2
OBJECTS
  0
DICTIONARY
  5
C
330
0
100
AcDbDictionary
281
     1
  3
ACAD_GROUP
350
D
  3
ACAD_LAYOUT
350
1A
  3
ACAD_MATERIAL
350
3B
  3
ACAD_MLEADERSTYLE
350
12C
  3
ACAD_MLINESTYLE
350
17
  3
ACAD_PLOTSETTINGS
350
19
  3
ACAD_PLOTSTYLENAME
350
E
  3
ACAD_VISUALSTYLE
350
2A
  3
AcDbVariableDictionary
350
12A
  0
DICTIONARY
  5
D
102
{ACAD_REACTORS
330
C
102
}
330
C
100
AcDbDictionary
281
     1
  0
DICTIONARY
  5
1A
102
{ACAD_REACTORS
330
C
102
}
330
C
100
AcDbDictionary
281
     1
  3
Layout1
350
1E
  3
Layout2
350
26
  3
Model
350
22
  0
DICTIONARY
  5
3B
102
{ACAD_REACTORS
330
C
102
}
330
C
100
AcDbDictionary
281
     1
  3
ByBlock
350
3D
  3
ByLayer
350
3C
  3
Global
350
3E
  0
DICTIONARY
  5
12C
102
{ACAD_REACTORS
330
C
102
}
330
C
100
AcDbDictionary
281
     1
  0
DICTIONARY
  5
17
102
{ACAD_REACTORS
330
C
102
}
330
C
100
AcDbDictionary
281
     1
  3
Standard
350
18
  0
DICTIONARY
  5
19
102
{ACAD_REACTORS
330
C
102
}
330
C
100
AcDbDictionary
281
     1
  0
ACDBDICTIONARYWDFLT
  5
E
102
{ACAD_REACTORS
330
C
102
}
330
C
100
AcDbDictionary
281
     1
  3
Normal
350
F
100
AcDbDictionaryWithDefault
340
F
  0
DICTIONARY
  5
2A
102
{ACAD_REACTORS
330
C
102
}
330
C
100
AcDbDictionary
281
     1
  3
2dWireframe
350
2F
  3
3D Hidden
350
31
  3
3dWireframe
350
30
  3
Basic
350
32
  3
Brighten
350
36
  3
ColorChange
350
3A
  3
Conceptual
350
34
  3
Dim
350
35
  3
Facepattern
350
39
  3
Flat
350
2B
  3
FlatWithEdges
350
2C
  3
Gouraud
350
2D
  3
GouraudWithEdges
350
2E
  3
Linepattern
350
38
  3
Realistic
350
33
  3
Thicken
350
37
  0
DICTIONARY
  5
12A
102
{ACAD_REACTORS
330
C
102
}
330
C
100
AcDbDictionary
281
     1
  3
DIMASSOC
350
12D
  3
HIDETEXT
350
12E
  0
LAYOUT
  5
1E
102
{ACAD_REACTORS
330
1A
102
}
330
1A
100
AcDbPlotSettings
  1

  2
none_device
  4

  6

 40
0.0
 41
0.0
 42
0.0
 43
0.0
 44
0.0
 45
0.0
 46
0.0
 47
0.0
 48
0.0
 49
0.0
140
0.0
141
0.0
142
1.0
143
1.0
 70
   688
 72
     0
 73
     0
 74
     5
  7

 75
    16
147
1.0
148
0.0
149
0.0
100
AcDbLayout
  1
Layout1
 70
     1
 71
     1
 10
0.0
 20
0.0
 11
12.0
 21
9.0
 12
0.0
 22
0.0
 32
0.0
 14
1.00000000000000E+20
 24
1.00000000000000E+20
 34
1.00000000000000E+20
 15
-1.00000000000000E+20
 25
-1.00000000000000E+20
 35
-1.00000000000000E+20
146
0.0
 13
0.0
 23
0.0
 33
0.0
 16
1.0
 26
0.0
 36
0.0
 17
0.0
 27
1.0
 37
0.0
 76
     0
330
1B
  0
LAYOUT
  5
26
102
{ACAD_REACTORS
330
1A
102
}
330
1A
100
AcDbPlotSettings
  1

  2
none_device
  4

  6

 40
0.0
 41
0.0
 42
0.0
 43
0.0
 44
0.0
 45
0.0
 46
0.0
 47
0.0
 48
0.0
 49
0.0
140
0.0
141
0.0
142
1.0
143
1.0
 70
   688
 72
     0
 73
     0
 74
     5
  7

 75
    16
147
1.0
148
0.0
149
0.0
100
AcDbLayout
  1
Layout2
 70
     1
 71
     2
 10
0.0
 20
0.0
 11
0.0
 21
0.0
 12
0.0
 22
0.0
 32
0.0
 14
0.0
 24
0.0
 34
0.0
 15
0.0
 25
0.0
 35
0.0
146
0.0
 13
0.0
 23
0.0
 33
0.0
 16
1.0
 26
0.0
 36
0.0
 17
0.0
 27
1.0
 37
0.0
 76
     0
330
23
  0
LAYOUT
  5
22
102
{ACAD_REACTORS
330
1A
102
}
330
1A
100
AcDbPlotSettings
  1

  2
none_device
  4

  6

 40
0.0
 41
0.0
 42
0.0
 43
0.0
 44
0.0
 45
0.0
 46
0.0
 47
0.0
 48
0.0
 49
0.0
140
0.0
141
0.0
142
1.0
143
1.0
 70
  1712
 72
     0
 73
     0
 74
     0
  7

 75
     0
147
1.0
148
0.0
149
0.0
100
AcDbLayout
  1
Model
 70
     1
 71
     0
 10
0.0
 20
0.0
 11
12.0
 21
9.0
 12
0.0
 22
0.0
 32
0.0
 14
0.0
 24
0.0
 34
0.0
 15
210.0
 25
297.0
 35
0.0
146
0.0
 13
0.0
 23
0.0
 33
0.0
 16
1.0
 26
0.0
 36
0.0
 17
0.0
 27
1.0
 37
0.0
 76
     0
330
1F
331
29
  0
MATERIAL
  5
3D
102
{ACAD_REACTORS
330
3B
102
}
102
{ACAD_XDICTIONARY
360
151
102
}
330
3B
100
AcDbMaterial
  1
ByBlock
  0
MATERIAL
  5
3C
102
{ACAD_REACTORS
330
3B
102
}
102
{ACAD_XDICTIONARY
360
14F
102
}
330
3B
100
AcDbMaterial
  1
ByLayer
  0
MATERIAL
  5
3E
102
{ACAD_REACTORS
330
3B
102
}
102
{ACAD_XDICTIONARY
360
153
102
}
330
3B
100
AcDbMaterial
  1
Global
  0
MLINESTYLE
  5
18
102
{ACAD_REACTORS
330
17
102
}
330
17
100
AcDbMlineStyle
  2
Standard
 70
     0
  3

 62
   256
 51
90.0
 52
90.0
 71
     2
 49
0.5
 62
   256
  6
BYLAYER
 49
-0.5
 62
   256
  6
BYLAYER
  0
ACDBPLACEHOLDER
  5
F
102
{ACAD_REACTORS
330
E
102
}
330
E
  0
VISUALSTYLE
  5
2F
102
{ACAD_REACTORS
330
2A
102
}
102
{ACAD_XDICTIONARY
360
137
102
}
330
2A
100
AcDbVisualStyle
  2
2dWireframe
 70
     4
 71
     0
 72
     2
 73
     0
 90
        0
 40
-0.6
 41
-30.0
 62
     5
 63
     7
 74
     1
 91
        4
 64
     7
 65
   257
 75
     1
175
     1
 42
1.0
 92
        0
 66
   257
 43
1.0
 76
     1
 77
     6
 78
     2
 67
     7
 79
     5
170
     0
171
     0
290
     0
174
     0
 93
        1
 44
0.0
173
     0
291
     0
 45
0.0
1001
ACAD
1000
AcDbSavedByObjectVersion
1070
     0
  0
VISUALSTYLE
  5
31
102
{ACAD_REACTORS
330
2A
102
}
102
{ACAD_XDICTIONARY
360
13B
102
}
330
2A
100
AcDbVisualStyle
  2
3D Hidden
 70
     6
 71
     1
 72
     2
 73
     2
 90
        0
 40
-0.6
 41
-30.0
 62
     5
 63
     7
 74
     2
 91
        2
 64
     7
 65
   257
 75
     2
175
     1
 42
40.0
 92
        0
 66
   257
 43
1.0
 76
     1
 77
     6
 78
     2
 67
     7
 79
     3
170
     0
171
     0
290
     0
174
     0
 93
        1
 44
0.0
173
     0
291
     0
 45
0.0
1001
ACAD
1000
AcDbSavedByObjectVersion
1070
     0
  0
VISUALSTYLE
  5
30
102
{ACAD_REACTORS
330
2A
102
}
102
{ACAD_XDICTIONARY
360
139
102
}
330
2A
100
AcDbVisualStyle
  2
3dWireframe
 70
     5
 71
     0
 72
     2
 73
     0
 90
        0
 40
-0.6
 41
-30.0
 62
     5
 63
     7
 74
     1
 91
        4
 64
     7
 65
   257
 75
     1
175
     1
 42
1.0
 92
        0
 66
   257
 43
1.0
 76
     1
 77
     6
 78
     2
 67
     7
 79
     5
170
     0
171
     0
290
     0
174
     0
 93
        1
 44
0.0
173
     0
291
     0
 45
0.0
1001
ACAD
1000
AcDbSavedByObjectVersion
1070
     0
  0
VISUALSTYLE
  5
32
102
{ACAD_REACTORS
330
2A
102
}
102
{ACAD_XDICTIONARY
360
13D
102
}
330
2A
100
AcDbVisualStyle
  2
Basic
 70
     7
 71
     1
 72
     0
 73
     1
 90
        0
 40
-0.6
 41
-30.0
 62
     5
 63
     7
 74
     0
 91
        4
 64
     7
 65
   257
 75
     1
175
     1
 42
1.0
 92
        8
 66
     7
 43
1.0
 76
     1
 77
     6
 78
     2
 67
     7
 79
     5
170
     0
171
     0
290
     0
174
     0
 93
        1
 44
0.0
173
     0
291
     1
 45
0.0
1001
ACAD
1000
AcDbSavedByObjectVersion
1070
     0
  0
VISUALSTYLE
  5
36
102
{ACAD_REACTORS
330
2A
102
}
102
{ACAD_XDICTIONARY
360
145
102
}
330
2A
100
AcDbVisualStyle
  2
Brighten
 70
    12
 71
     2
 72
     2
 73
     0
 90
        0
 40
-0.6
 41
-30.0
 62
     5
 63
     7
 74
     1
 91
        4
 64
     7
 65
   257
 75
     1
175
     1
 42
1.0
 92
        8
 66
     7
 43
1.0
 76
     1
 77
     6
 78
     2
 67
     7
 79
     5
170
     0
171
     0
290
     0
174
     0
 93
        1
 44
50.0
173
     0
291
     1
 45
0.0
1001
ACAD
1000
AcDbSavedByObjectVersion
1070
     0
  0
VISUALSTYLE
  5
3A
102
{ACAD_REACTORS
330
2A
102
}
102
{ACAD_XDICTIONARY
360
14D
102
}
330
2A
100
AcDbVisualStyle
  2
ColorChange
 70
    16
 71
     2
 72
     2
 73
     3
 90
        0
 40
-0.6
 41
-30.0
 62
     5
 63
     8
 74
     1
 91
        4
 64
     7
 65
   257
 75
     1
175
     1
 42
1.0
 92
        8
 66
     8
 43
1.0
 76
     1
 77
     6
 78
     2
 67
     7
 79
     5
170
     0
171
     0
290
     0
174
     0
 93
        1
 44
0.0
173
     0
291
     1
 45
0.0
1001
ACAD
1000
AcDbSavedByObjectVersion
1070
     0
  0
VISUALSTYLE
  5
34
102
{ACAD_REACTORS
330
2A
102
}
102
{ACAD_XDICTIONARY
360
141
102
}
330
2A
100
AcDbVisualStyle
  2
Conceptual
 70
     9
 71
     3
 72
     2
 73
     0
 90
        0
 40
-0.6
 41
-30.0
 62
     5
 63
     7
 74
     2
 91
        2
 64
     7
 65
   257
 75
     1
175
     1
 42
40.0
 92
        8
 66
     7
 43
1.0
 76
     1
 77
     6
 78
     2
 67
     7
 79
     3
170
     0
171
     0
290
     0
174
     0
 93
        1
 44
0.0
173
     0
291
     0
 45
0.0
1001
ACAD
1000
AcDbSavedByObjectVersion
1070
     0
  0
VISUALSTYLE
  5
35
102
{ACAD_REACTORS
330
2A
102
}
102
{ACAD_XDICTIONARY
360
143
102
}
330
2A
100
AcDbVisualStyle
  2
Dim
 70
    11
 71
     2
 72
     2
 73
     0
 90
        0
 40
-0.6
 41
-30.0
 62
     5
 63
     7
 74
     1
 91
        4
 64
     7
 65
   257
 75
     1
175
     1
 42
1.0
 92
        8
 66
     7
 43
1.0
 76
     1
 77
     6
 78
     2
 67
     7
 79
     5
170
     0
171
     0
290
     0
174
     0
 93
        1
 44
-50.0
173
     0
291
     1
 45
0.0
1001
ACAD
1000
AcDbSavedByObjectVersion
1070
     0
  0
VISUALSTYLE
  5
39
102
{ACAD_REACTORS
330
2A
102
}
102
{ACAD_XDICTIONARY
360
14B
102
}
330
2A
100
AcDbVisualStyle
  2
Facepattern
 70
    15
 71
     2
 72
     2
 73
     0
 90
        0
 40
-0.6
 41
-30.0
 62
     5
 63
     7
 74
     1
 91
        4
 64
     7
 65
   257
 75
     1
175
     1
 42
1.0
 92
        8
 66
     7
 43
1.0
 76
     1
 77
     6
 78
     2
 67
     7
 79
     5
170
     0
171
     0
290
     0
174
     0
 93
        1
 44
0.0
173
     0
291
     1
 45
0.0
1001
ACAD
1000
AcDbSavedByObjectVersion
1070
     0
  0
VISUALSTYLE
  5
2B
102
{ACAD_REACTORS
330
2A
102
}
102
{ACAD_XDICTIONARY
360
12F
102
}
330
2A
100
AcDbVisualStyle
  2
Flat
 70
     0
 71
     2
 72
     1
 73
     1
 90
        2
 40
-0.6
 41
30.0
 62
     5
 63
     7
 74
     0
 91
        4
 64
     7
 65
   257
 75
     1
175
     1
 42
1.0
 92
        8
 66
     7
 43
1.0
 76
     1
 77
     6
 78
     2
 67
     7
 79
     5
170
     0
171
     0
290
     0
174
     0
 93
       13
 44
0.0
173
     0
291
     1
 45
0.0
1001
ACAD
1000
AcDbSavedByObjectVersion
1070
     0
  0
VISUALSTYLE
  5
2C
102
{ACAD_REACTORS
330
2A
102
}
102
{ACAD_XDICTIONARY
360
131
102
}
330
2A
100
AcDbVisualStyle
  2
FlatWithEdges
 70
     1
 71
     2
 72
     1
 73
     1
 90
        2
 40
-0.6
 41
30.0
 62
     5
 63
     7
 74
     1
 91
        4
 64
     7
 65
   257
 75
     1
175
     1
 42
1.0
 92
        0
 66
   257
 43
1.0
 76
     1
 77
     6
 78
     2
 67
     7
 79
     5
170
     0
171
     0
290
     0
174
     0
 93
       13
 44
0.0
173
     0
291
     1
 45
0.0
1001
ACAD
1000
AcDbSavedByObjectVersion
1070
     0
  0
VISUALSTYLE
  5
2D
102
{ACAD_REACTORS
330
2A
102
}
102
{ACAD_XDICTIONARY
360
133
102
}
330
2A
100
AcDbVisualStyle
  2
Gouraud
 70
     2
 71
     2
 72
     2
 73
     1
 90
        2
 40
-0.6
 41
30.0
 62
     5
 63
     7
 74
     0
 91
        4
 64
     7
 65
   257
 75
     1
175
     1
 42
1.0
 92
        0
 66
     7
 43
1.0
 76
     1
 77
     6
 78
     2
 67
     7
 79
     5
170
     0
171
     0
290
     0
174
     0
 93
       13
 44
0.0
173
     0
291
     1
 45
0.0
1001
ACAD
1000
AcDbSavedByObjectVersion
1070
     0
  0
VISUALSTYLE
  5
2E
102
{ACAD_REACTORS
330
2A
102
}
102
{ACAD_XDICTIONARY
360
135
102
}
330
2A
100
AcDbVisualStyle
  2
GouraudWithEdges
 70
     3
 71
     2
 72
     2
 73
     1
 90
        2
 40
-0.6
 41
30.0
 62
     5
 63
     7
 74
     1
 91
        4
 64
     7
 65
   257
 75
     1
175
     1
 42
1.0
 92
        0
 66
   257
 43
1.0
 76
     1
 77
     6
 78
     2
 67
     7
 79
     5
170
     0
171
     0
290
     0
174
     0
 93
       13
 44
0.0
173
     0
291
     1
 45
0.0
1001
ACAD
1000
AcDbSavedByObjectVersion
1070
     0
  0
VISUALSTYLE
  5
38
102
{ACAD_REACTORS
330
2A
102
}
102
{ACAD_XDICTIONARY
360
149
102
}
330
2A
100
AcDbVisualStyle
  2
Linepattern
 70
    14
 71
     2
 72
     2
 73
     0
 90
        0
 40
-0.6
 41
-30.0
 62
     5
 63
     7
 74
     1
 91
        4
 64
     7
 65
   257
 75
     7
175
     7
 42
1.0
 92
        8
 66
     7
 43
1.0
 76
     1
 77
     6
 78
     2
 67
     7
 79
     5
170
     0
171
     0
290
     0
174
     0
 93
        1
 44
0.0
173
     0
291
     1
 45
0.0
1001
ACAD
1000
AcDbSavedByObjectVersion
1070
     0
  0
VISUALSTYLE
  5
33
102
{ACAD_REACTORS
330
2A
102
}
102
{ACAD_XDICTIONARY
360
13F
102
}
330
2A
100
AcDbVisualStyle
  2
Realistic
 70
     8
 71
     2
 72
     2
 73
     0
 90
        0
 40
-0.6
 41
-30.0
 62
     5
 63
     7
 74
     1
 91
        0
 64
     7
 65
   257
 75
     1
175
     1
 42
1.0
 92
        8
 66
     8
 43
1.0
 76
     1
 77
     6
 78
     2
 67
     7
 79
     5
170
     0
171
     0
290
     0
174
     0
 93
       13
 44
0.0
173
     0
291
     0
 45
0.0
1001
ACAD
1000
AcDbSavedByObjectVersion
1070
     0
  0
VISUALSTYLE
  5
37
102
{ACAD_REACTORS
330
2A
102
}
102
{ACAD_XDICTIONARY
360
147
102
}
330
2A
100
AcDbVisualStyle
  2
Thicken
 70
    13
 71
     2
 72
     2
 73
     0
 90
        0
 40
-0.6
 41
-30.0
 62
     5
 63
     7
 74
     1
 91
        4
 64
     7
 65
   257
 75
     1
175
     1
 42
1.0
 92
       12
 66
     7
 43
1.0
 76
     1
 77
     6
 78
     2
 67
     7
 79
     5
170
     0
171
     0
290
     0
174
     0
 93
        1
 44
0.0
173
     0
291
     1
 45
0.0
1001
ACAD
1000
AcDbSavedByObjectVersion
1070
     0
  0
DICTIONARYVAR
  5
12D
102
{ACAD_REACTORS
330
12A
102
}
330
12A
100
DictionaryVariables
280
     0
  1
2
  0
DICTIONARYVAR
  5
12E
102
{ACAD_REACTORS
330
12A
102
}
330
12A
100
DictionaryVariables
280
     0
  1
1
  0
DICTIONARY
  5
151
330
3D
100
AcDbDictionary
280
     1
281
     1
  3
ACAD_XREC_ROUNDTRIP
360
152
  0
DICTIONARY
  5
14F
330
3C
100
AcDbDictionary
280
     1
281
     1
  3
ACAD_XREC_ROUNDTRIP
360
150
  0
DICTIONARY
  5
153
330
3E
100
AcDbDictionary
280
     1
281
     1
  3
ACAD_XREC_ROUNDTRIP
360
154
  0
DICTIONARY
  5
137
330
2F
100
AcDbDictionary
280
     1
281
     1
  3
ACAD_XREC_ROUNDTRIP
360
138
  0
DICTIONARY
  5
13B
330
31
100
AcDbDictionary
280
     1
281
     1
  3
ACAD_XREC_ROUNDTRIP
360
13C
  0
DICTIONARY
  5
139
330
30
100
AcDbDictionary
280
     1
281
     1
  3
ACAD_XREC_ROUNDTRIP
360
13A
  0
DICTIONARY
  5
13D
330
32
100
AcDbDictionary
280
     1
281
     1
  3
ACAD_XREC_ROUNDTRIP
360
13E
  0
DICTIONARY
  5
145
330
36
100
AcDbDictionary
280
     1
281
     1
  3
ACAD_XREC_ROUNDTRIP
360
146
  0
DICTIONARY
  5
14D
330
3A
100
AcDbDictionary
280
     1
281
     1
  3
ACAD_XREC_ROUNDTRIP
360
14E
  0
DICTIONARY
  5
141
330
34
100
AcDbDictionary
280
     1
281
     1
  3
ACAD_XREC_ROUNDTRIP
360
142
  0
DICTIONARY
  5
143
330
35
100
AcDbDictionary
280
     1
281
     1
  3
ACAD_XREC_ROUNDTRIP
360
144
  0
DICTIONARY
  5
14B
330
39
100
AcDbDictionary
280
     1
281
     1
  3
ACAD_XREC_ROUNDTRIP
360
14C
  0
DICTIONARY
  5
12F
330
2B
100
AcDbDictionary
280
     1
281
     1
  3
ACAD_XREC_ROUNDTRIP
360
130
  0
DICTIONARY
  5
131
330
2C
100
AcDbDictionary
280
     1
281
     1
  3
ACAD_XREC_ROUNDTRIP
360
132
  0
DICTIONARY
  5
133
330
2D
100
AcDbDictionary
280
     1
281
     1
  3
ACAD_XREC_ROUNDTRIP
360
134
  0
DICTIONARY
  5
135
330
2E
100
AcDbDictionary
280
     1
281
     1
  3
ACAD_XREC_ROUNDTRIP
360
136
  0
DICTIONARY
  5
149
330
38
100
AcDbDictionary
280
     1
281
     1
  3
ACAD_XREC_ROUNDTRIP
360
14A
  0
DICTIONARY
  5
13F
330
33
100
AcDbDictionary
280
     1
281
     1
  3
ACAD_XREC_ROUNDTRIP
360
140
  0
DICTIONARY
  5
147
330
37
100
AcDbDictionary
280
     1
281
     1
  3
ACAD_XREC_ROUNDTRIP
360
148
  0
XRECORD
  5
152
102
{ACAD_REACTORS
330
151
102
}
330
151
100
AcDbXrecord
280
     1
102
MATERIAL
148
0.0
149
0.0
149
0.0
 93
        0
 94
      127
282
     0
 72
     1
 77
     1
171
     1
175
     1
179
     1
273
     0
  0
XRECORD
  5
150
102
{ACAD_REACTORS
330
14F
102
}
330
14F
100
AcDbXrecord
280
     1
102
MATERIAL
148
0.0
149
0.0
149
0.0
 93
        0
 94
      127
282
     0
 72
     1
 77
     1
171
     1
175
     1
179
     1
273
     0
  0
XRECORD
  5
154
102
{ACAD_REACTORS
330
153
102
}
330
153
100
AcDbXrecord
280
     1
102
MATERIAL
148
0.0
149
0.0
149
0.0
 93
        0
 94
      127
282
     0
 72
     1
 77
     1
171
     1
175
     1
179
     1
273
     0
  0
XRECORD
  5
138
102
{ACAD_REACTORS
330
137
102
}
330
137
100
AcDbXrecord
280
     1
102
RTVSPropertyOp0
 70
     1
102
RTVSPropertyOp1
 70
     1
102
RTVSPropertyOp2
 70
     1
102
RTVSPropertyOp3
 70
     1
102
RTVSPropertyOp4
 70
     1
102
RTVSPropertyOp5
 70
     1
102
RTVSPropertyOp6
 70
     1
102
RTVSPropertyOp7
 70
     1
102
RTVSPropertyOp8
 70
     1
102
RTVSPropertyOp9
 70
     1
102
RTVSPropertyOp10
 70
     1
102
RTVSPropertyOp11
 70
     1
102
RTVSPropertyOp12
 70
     1
102
RTVSPropertyOp13
 70
     1
102
RTVSPropertyOp14
 70
     1
102
RTVSPropertyOp15
 70
     1
102
RTVSPropertyOp16
 70
     1
102
RTVSPropertyOp17
 70
     1
102
RTVSPropertyOp18
 70
     1
102
RTVSPropertyOp19
 70
     1
102
RTVSPropertyOp20
 70
     1
102
RTVSPropertyOp21
 70
     1
102
RTVSPropertyOp22
 70
     1
102
RTVSPropertyOp23
 70
     1
102
RTVSPropertyOp24
 70
     1
102
RTVSPropertyOp25
 70
     1
102
RTVSPropertyOp26
 70
     1
102
RTVSPropertyOp27
 70
     1
102
RTVSPropertyOp28
 70
     1
102
RTVSPropertyOp29
 70
     1
102
RTVSPropertyOp30
 70
     1
102
RTVSPropertyOp31
 70
     1
102
RTVSPropertyOp32
 70
     1
  0
XRECORD
  5
13C
102
{ACAD_REACTORS
330
13B
102
}
330
13B
100
AcDbXrecord
280
     1
102
RTVSPropertyOp0
 70
     1
102
RTVSPropertyOp1
 70
     1
102
RTVSPropertyOp2
 70
     1
102
RTVSPropertyOp3
 70
     1
102
RTVSPropertyOp4
 70
     1
102
RTVSPropertyOp5
 70
     1
102
RTVSPropertyOp6
 70
     1
102
RTVSPropertyOp7
 70
     1
102
RTVSPropertyOp8
 70
     1
102
RTVSPropertyOp9
 70
     1
102
RTVSPropertyOp10
 70
     1
102
RTVSPropertyOp11
 70
     1
102
RTVSPropertyOp12
 70
     1
102
RTVSPropertyOp13
 70
     1
102
RTVSPropertyOp14
 70
     1
102
RTVSPropertyOp15
 70
     1
102
RTVSPropertyOp16
 70
     1
102
RTVSPropertyOp17
 70
     1
102
RTVSPropertyOp18
 70
     1
102
RTVSPropertyOp19
 70
     1
102
RTVSPropertyOp20
 70
     1
102
RTVSPropertyOp21
 70
     1
102
RTVSPropertyOp22
 70
     1
102
RTVSPropertyOp23
 70
     1
102
RTVSPropertyOp24
 70
     1
102
RTVSPropertyOp25
 70
     1
102
RTVSPropertyOp26
 70
     1
102
RTVSPropertyOp27
 70
     1
102
RTVSPropertyOp28
 70
     1
102
RTVSPropertyOp29
 70
     1
102
RTVSPropertyOp30
 70
     1
102
RTVSPropertyOp31
 70
     1
102
RTVSPropertyOp32
 70
     1
  0
XRECORD
  5
13A
102
{ACAD_REACTORS
330
139
102
}
330
139
100
AcDbXrecord
280
     1
102
RTVSPropertyOp0
 70
     1
102
RTVSPropertyOp1
 70
     1
102
RTVSPropertyOp2
 70
     1
102
RTVSPropertyOp3
 70
     1
102
RTVSPropertyOp4
 70
     1
102
RTVSPropertyOp5
 70
     1
102
RTVSPropertyOp6
 70
     1
102
RTVSPropertyOp7
 70
     1
102
RTVSPropertyOp8
 70
     1
102
RTVSPropertyOp9
 70
     1
102
RTVSPropertyOp10
 70
     1
102
RTVSPropertyOp11
 70
     1
102
RTVSPropertyOp12
 70
     1
102
RTVSPropertyOp13
 70
     1
102
RTVSPropertyOp14
 70
     1
102
RTVSPropertyOp15
 70
     1
102
RTVSPropertyOp16
 70
     1
102
RTVSPropertyOp17
 70
     1
102
RTVSPropertyOp18
 70
     1
102
RTVSPropertyOp19
 70
     1
102
RTVSPropertyOp20
 70
     1
102
RTVSPropertyOp21
 70
     1
102
RTVSPropertyOp22
 70
     1
102
RTVSPropertyOp23
 70
     1
102
RTVSPropertyOp24
 70
     1
102
RTVSPropertyOp25
 70
     1
102
RTVSPropertyOp26
 70
     1
102
RTVSPropertyOp27
 70
     1
102
RTVSPropertyOp28
 70
     1
102
RTVSPropertyOp29
 70
     1
102
RTVSPropertyOp30
 70
     1
102
RTVSPropertyOp31
 70
     1
102
RTVSPropertyOp32
 70
     1
  0
XRECORD
  5
13E
102
{ACAD_REACTORS
330
13D
102
}
330
13D
100
AcDbXrecord
280
     1
102
RTVSPropertyOp0
 70
     1
102
RTVSPropertyOp1
 70
     1
102
RTVSPropertyOp2
 70
     1
102
RTVSPropertyOp3
 70
     1
102
RTVSPropertyOp4
 70
     1
102
RTVSPropertyOp5
 70
     1
102
RTVSPropertyOp6
 70
     1
102
RTVSPropertyOp7
 70
     1
102
RTVSPropertyOp8
 70
     1
102
RTVSPropertyOp9
 70
     1
102
RTVSPropertyOp10
 70
     1
102
RTVSPropertyOp11
 70
     1
102
RTVSPropertyOp12
 70
     1
102
RTVSPropertyOp13
 70
     1
102
RTVSPropertyOp14
 70
     1
102
RTVSPropertyOp15
 70
     1
102
RTVSPropertyOp16
 70
     1
102
RTVSPropertyOp17
 70
     1
102
RTVSPropertyOp18
 70
     1
102
RTVSPropertyOp19
 70
     1
102
RTVSPropertyOp20
 70
     1
102
RTVSPropertyOp21
 70
     1
102
RTVSPropertyOp22
 70
     1
102
RTVSPropertyOp23
 70
     1
102
RTVSPropertyOp24
 70
     1
102
RTVSPropertyOp25
 70
     1
102
RTVSPropertyOp26
 70
     1
102
RTVSPropertyOp27
 70
     1
102
RTVSPropertyOp28
 70
     1
102
RTVSPropertyOp29
 70
     1
102
RTVSPropertyOp30
 70
     1
102
RTVSPropertyOp31
 70
     1
102
RTVSPropertyOp32
 70
     1
  0
XRECORD
  5
146
102
{ACAD_REACTORS
330
145
102
}
330
145
100
AcDbXrecord
280
     1
102
RTVSPropertyOp0
 70
     1
102
RTVSPropertyOp1
 70
     1
102
RTVSPropertyOp2
 70
     1
102
RTVSPropertyOp3
 70
     1
102
RTVSPropertyOp4
 70
     1
102
RTVSPropertyOp5
 70
     1
102
RTVSPropertyOp6
 70
     1
102
RTVSPropertyOp7
 70
     1
102
RTVSPropertyOp8
 70
     1
102
RTVSPropertyOp9
 70
     1
102
RTVSPropertyOp10
 70
     1
102
RTVSPropertyOp11
 70
     1
102
RTVSPropertyOp12
 70
     1
102
RTVSPropertyOp13
 70
     1
102
RTVSPropertyOp14
 70
     1
102
RTVSPropertyOp15
 70
     1
102
RTVSPropertyOp16
 70
     1
102
RTVSPropertyOp17
 70
     1
102
RTVSPropertyOp18
 70
     1
102
RTVSPropertyOp19
 70
     1
102
RTVSPropertyOp20
 70
     1
102
RTVSPropertyOp21
 70
     1
102
RTVSPropertyOp22
 70
     1
102
RTVSPropertyOp23
 70
     1
102
RTVSPropertyOp24
 70
     1
102
RTVSPropertyOp25
 70
     1
102
RTVSPropertyOp26
 70
     1
102
RTVSPropertyOp27
 70
     1
102
RTVSPropertyOp28
 70
     1
102
RTVSPropertyOp29
 70
     1
102
RTVSPropertyOp30
 70
     1
102
RTVSPropertyOp31
 70
     1
102
RTVSPropertyOp32
 70
     1
  0
XRECORD
  5
14E
102
{ACAD_REACTORS
330
14D
102
}
330
14D
100
AcDbXrecord
280
     1
102
RTVSPropertyOp0
 70
     1
102
RTVSPropertyOp1
 70
     1
102
RTVSPropertyOp2
 70
     1
102
RTVSPropertyOp3
 70
     1
102
RTVSPropertyOp4
 70
     1
102
RTVSPropertyOp5
 70
     1
102
RTVSPropertyOp6
 70
     1
102
RTVSPropertyOp7
 70
     1
102
RTVSPropertyOp8
 70
     1
102
RTVSPropertyOp9
 70
     1
102
RTVSPropertyOp10
 70
     1
102
RTVSPropertyOp11
 70
     1
102
RTVSPropertyOp12
 70
     1
102
RTVSPropertyOp13
 70
     1
102
RTVSPropertyOp14
 70
     1
102
RTVSPropertyOp15
 70
     1
102
RTVSPropertyOp16
 70
     1
102
RTVSPropertyOp17
 70
     1
102
RTVSPropertyOp18
 70
     1
102
RTVSPropertyOp19
 70
     1
102
RTVSPropertyOp20
 70
     1
102
RTVSPropertyOp21
 70
     1
102
RTVSPropertyOp22
 70
     1
102
RTVSPropertyOp23
 70
     1
102
RTVSPropertyOp24
 70
     1
102
RTVSPropertyOp25
 70
     1
102
RTVSPropertyOp26
 70
     1
102
RTVSPropertyOp27
 70
     1
102
RTVSPropertyOp28
 70
     1
102
RTVSPropertyOp29
 70
     1
102
RTVSPropertyOp30
 70
     1
102
RTVSPropertyOp31
 70
     1
102
RTVSPropertyOp32
 70
     1
  0
XRECORD
  5
142
102
{ACAD_REACTORS
330
141
102
}
330
141
100
AcDbXrecord
280
     1
102
RTVSPropertyOp0
 70
     1
102
RTVSPropertyOp1
 70
     1
102
RTVSPropertyOp2
 70
     1
102
RTVSPropertyOp3
 70
     1
102
RTVSPropertyOp4
 70
     1
102
RTVSPropertyOp5
 70
     1
102
RTVSPropertyOp6
 70
     1
102
RTVSPropertyOp7
 70
     1
102
RTVSPropertyOp8
 70
     1
102
RTVSPropertyOp9
 70
     1
102
RTVSPropertyOp10
 70
     1
102
RTVSPropertyOp11
 70
     1
102
RTVSPropertyOp12
 70
     1
102
RTVSPropertyOp13
 70
     1
102
RTVSPropertyOp14
 70
     1
102
RTVSPropertyOp15
 70
     1
102
RTVSPropertyOp16
 70
     1
102
RTVSPropertyOp17
 70
     1
102
RTVSPropertyOp18
 70
     1
102
RTVSPropertyOp19
 70
     1
102
RTVSPropertyOp20
 70
     1
102
RTVSPropertyOp21
 70
     1
102
RTVSPropertyOp22
 70
     1
102
RTVSPropertyOp23
 70
     1
102
RTVSPropertyOp24
 70
     1
102
RTVSPropertyOp25
 70
     1
102
RTVSPropertyOp26
 70
     1
102
RTVSPropertyOp27
 70
     1
102
RTVSPropertyOp28
 70
     1
102
RTVSPropertyOp29
 70
     1
102
RTVSPropertyOp30
 70
     1
102
RTVSPropertyOp31
 70
     1
102
RTVSPropertyOp32
 70
     1
  0
XRECORD
  5
144
102
{ACAD_REACTORS
330
143
102
}
330
143
100
AcDbXrecord
280
     1
102
RTVSPropertyOp0
 70
     1
102
RTVSPropertyOp1
 70
     1
102
RTVSPropertyOp2
 70
     1
102
RTVSPropertyOp3
 70
     1
102
RTVSPropertyOp4
 70
     1
102
RTVSPropertyOp5
 70
     1
102
RTVSPropertyOp6
 70
     1
102
RTVSPropertyOp7
 70
     1
102
RTVSPropertyOp8
 70
     1
102
RTVSPropertyOp9
 70
     1
102
RTVSPropertyOp10
 70
     1
102
RTVSPropertyOp11
 70
     1
102
RTVSPropertyOp12
 70
     1
102
RTVSPropertyOp13
 70
     1
102
RTVSPropertyOp14
 70
     1
102
RTVSPropertyOp15
 70
     1
102
RTVSPropertyOp16
 70
     1
102
RTVSPropertyOp17
 70
     1
102
RTVSPropertyOp18
 70
     1
102
RTVSPropertyOp19
 70
     1
102
RTVSPropertyOp20
 70
     1
102
RTVSPropertyOp21
 70
     1
102
RTVSPropertyOp22
 70
     1
102
RTVSPropertyOp23
 70
     1
102
RTVSPropertyOp24
 70
     1
102
RTVSPropertyOp25
 70
     1
102
RTVSPropertyOp26
 70
     1
102
RTVSPropertyOp27
 70
     1
102
RTVSPropertyOp28
 70
     1
102
RTVSPropertyOp29
 70
     1
102
RTVSPropertyOp30
 70
     1
102
RTVSPropertyOp31
 70
     1
102
RTVSPropertyOp32
 70
     1
  0
XRECORD
  5
14C
102
{ACAD_REACTORS
330
14B
102
}
330
14B
100
AcDbXrecord
280
     1
102
RTVSPropertyOp0
 70
     1
102
RTVSPropertyOp1
 70
     1
102
RTVSPropertyOp2
 70
     1
102
RTVSPropertyOp3
 70
     1
102
RTVSPropertyOp4
 70
     1
102
RTVSPropertyOp5
 70
     1
102
RTVSPropertyOp6
 70
     1
102
RTVSPropertyOp7
 70
     1
102
RTVSPropertyOp8
 70
     1
102
RTVSPropertyOp9
 70
     1
102
RTVSPropertyOp10
 70
     1
102
RTVSPropertyOp11
 70
     1
102
RTVSPropertyOp12
 70
     1
102
RTVSPropertyOp13
 70
     1
102
RTVSPropertyOp14
 70
     1
102
RTVSPropertyOp15
 70
     1
102
RTVSPropertyOp16
 70
     1
102
RTVSPropertyOp17
 70
     1
102
RTVSPropertyOp18
 70
     1
102
RTVSPropertyOp19
 70
     1
102
RTVSPropertyOp20
 70
     1
102
RTVSPropertyOp21
 70
     1
102
RTVSPropertyOp22
 70
     1
102
RTVSPropertyOp23
 70
     1
102
RTVSPropertyOp24
 70
     1
102
RTVSPropertyOp25
 70
     1
102
RTVSPropertyOp26
 70
     1
102
RTVSPropertyOp27
 70
     1
102
RTVSPropertyOp28
 70
     1
102
RTVSPropertyOp29
 70
     1
102
RTVSPropertyOp30
 70
     1
102
RTVSPropertyOp31
 70
     1
102
RTVSPropertyOp32
 70
     1
  0
XRECORD
  5
130
102
{ACAD_REACTORS
330
12F
102
}
330
12F
100
AcDbXrecord
280
     1
102
RTVSPropertyOp0
 70
     1
102
RTVSPropertyOp1
 70
     1
102
RTVSPropertyOp2
 70
     1
102
RTVSPropertyOp3
 70
     1
102
RTVSPropertyOp4
 70
     1
102
RTVSPropertyOp5
 70
     1
102
RTVSPropertyOp6
 70
     1
102
RTVSPropertyOp7
 70
     1
102
RTVSPropertyOp8
 70
     1
102
RTVSPropertyOp9
 70
     1
102
RTVSPropertyOp10
 70
     1
102
RTVSPropertyOp11
 70
     1
102
RTVSPropertyOp12
 70
     1
102
RTVSPropertyOp13
 70
     1
102
RTVSPropertyOp14
 70
     1
102
RTVSPropertyOp15
 70
     1
102
RTVSPropertyOp16
 70
     1
102
RTVSPropertyOp17
 70
     1
102
RTVSPropertyOp18
 70
     1
102
RTVSPropertyOp19
 70
     1
102
RTVSPropertyOp20
 70
     1
102
RTVSPropertyOp21
 70
     1
102
RTVSPropertyOp22
 70
     1
102
RTVSPropertyOp23
 70
     1
102
RTVSPropertyOp24
 70
     1
102
RTVSPropertyOp25
 70
     1
102
RTVSPropertyOp26
 70
     1
102
RTVSPropertyOp27
 70
     1
102
RTVSPropertyOp28
 70
     1
102
RTVSPropertyOp29
 70
     1
102
RTVSPropertyOp30
 70
     1
102
RTVSPropertyOp31
 70
     1
102
RTVSPropertyOp32
 70
     1
  0
XRECORD
  5
132
102
{ACAD_REACTORS
330
131
102
}
330
131
100
AcDbXrecord
280
     1
102
RTVSPropertyOp0
 70
     1
102
RTVSPropertyOp1
 70
     1
102
RTVSPropertyOp2
 70
     1
102
RTVSPropertyOp3
 70
     1
102
RTVSPropertyOp4
 70
     1
102
RTVSPropertyOp5
 70
     1
102
RTVSPropertyOp6
 70
     1
102
RTVSPropertyOp7
 70
     1
102
RTVSPropertyOp8
 70
     1
102
RTVSPropertyOp9
 70
     1
102
RTVSPropertyOp10
 70
     1
102
RTVSPropertyOp11
 70
     1
102
RTVSPropertyOp12
 70
     1
102
RTVSPropertyOp13
 70
     1
102
RTVSPropertyOp14
 70
     1
102
RTVSPropertyOp15
 70
     1
102
RTVSPropertyOp16
 70
     1
102
RTVSPropertyOp17
 70
     1
102
RTVSPropertyOp18
 70
     1
102
RTVSPropertyOp19
 70
     1
102
RTVSPropertyOp20
 70
     1
102
RTVSPropertyOp21
 70
     1
102
RTVSPropertyOp22
 70
     1
102
RTVSPropertyOp23
 70
     1
102
RTVSPropertyOp24
 70
     1
102
RTVSPropertyOp25
 70
     1
102
RTVSPropertyOp26
 70
     1
102
RTVSPropertyOp27
 70
     1
102
RTVSPropertyOp28
 70
     1
102
RTVSPropertyOp29
 70
     1
102
RTVSPropertyOp30
 70
     1
102
RTVSPropertyOp31
 70
     1
102
RTVSPropertyOp32
 70
     1
  0
XRECORD
  5
134
102
{ACAD_REACTORS
330
133
102
}
330
133
100
AcDbXrecord
280
     1
102
RTVSPropertyOp0
 70
     1
102
RTVSPropertyOp1
 70
     1
102
RTVSPropertyOp2
 70
     1
102
RTVSPropertyOp3
 70
     1
102
RTVSPropertyOp4
 70
     1
102
RTVSPropertyOp5
 70
     1
102
RTVSPropertyOp6
 70
     1
102
RTVSPropertyOp7
 70
     1
102
RTVSPropertyOp8
 70
     1
102
RTVSPropertyOp9
 70
     1
102
RTVSPropertyOp10
 70
     1
102
RTVSPropertyOp11
 70
     1
102
RTVSPropertyOp12
 70
     1
102
RTVSPropertyOp13
 70
     1
102
RTVSPropertyOp14
 70
     1
102
RTVSPropertyOp15
 70
     1
102
RTVSPropertyOp16
 70
     1
102
RTVSPropertyOp17
 70
     1
102
RTVSPropertyOp18
 70
     1
102
RTVSPropertyOp19
 70
     1
102
RTVSPropertyOp20
 70
     1
102
RTVSPropertyOp21
 70
     1
102
RTVSPropertyOp22
 70
     1
102
RTVSPropertyOp23
 70
     1
102
RTVSPropertyOp24
 70
     1
102
RTVSPropertyOp25
 70
     1
102
RTVSPropertyOp26
 70
     1
102
RTVSPropertyOp27
 70
     1
102
RTVSPropertyOp28
 70
     1
102
RTVSPropertyOp29
 70
     1
102
RTVSPropertyOp30
 70
     1
102
RTVSPropertyOp31
 70
     1
102
RTVSPropertyOp32
 70
     1
  0
XRECORD
  5
136
102
{ACAD_REACTORS
330
135
102
}
330
135
100
AcDbXrecord
280
     1
102
RTVSPropertyOp0
 70
     1
102
RTVSPropertyOp1
 70
     1
102
RTVSPropertyOp2
 70
     1
102
RTVSPropertyOp3
 70
     1
102
RTVSPropertyOp4
 70
     1
102
RTVSPropertyOp5
 70
     1
102
RTVSPropertyOp6
 70
     1
102
RTVSPropertyOp7
 70
     1
102
RTVSPropertyOp8
 70
     1
102
RTVSPropertyOp9
 70
     1
102
RTVSPropertyOp10
 70
     1
102
RTVSPropertyOp11
 70
     1
102
RTVSPropertyOp12
 70
     1
102
RTVSPropertyOp13
 70
     1
102
RTVSPropertyOp14
 70
     1
102
RTVSPropertyOp15
 70
     1
102
RTVSPropertyOp16
 70
     1
102
RTVSPropertyOp17
 70
     1
102
RTVSPropertyOp18
 70
     1
102
RTVSPropertyOp19
 70
     1
102
RTVSPropertyOp20
 70
     1
102
RTVSPropertyOp21
 70
     1
102
RTVSPropertyOp22
 70
     1
102
RTVSPropertyOp23
 70
     1
102
RTVSPropertyOp24
 70
     1
102
RTVSPropertyOp25
 70
     1
102
RTVSPropertyOp26
 70
     1
102
RTVSPropertyOp27
 70
     1
102
RTVSPropertyOp28
 70
     1
102
RTVSPropertyOp29
 70
     1
102
RTVSPropertyOp30
 70
     1
102
RTVSPropertyOp31
 70
     1
102
RTVSPropertyOp32
 70
     1
  0
XRECORD
  5
14A
102
{ACAD_REACTORS
330
149
102
}
330
149
100
AcDbXrecord
280
     1
102
RTVSPropertyOp0
 70
     1
102
RTVSPropertyOp1
 70
     1
102
RTVSPropertyOp2
 70
     1
102
RTVSPropertyOp3
 70
     1
102
RTVSPropertyOp4
 70
     1
102
RTVSPropertyOp5
 70
     1
102
RTVSPropertyOp6
 70
     1
102
RTVSPropertyOp7
 70
     1
102
RTVSPropertyOp8
 70
     1
102
RTVSPropertyOp9
 70
     1
102
RTVSPropertyOp10
 70
     1
102
RTVSPropertyOp11
 70
     1
102
RTVSPropertyOp12
 70
     1
102
RTVSPropertyOp13
 70
     1
102
RTVSPropertyOp14
 70
     1
102
RTVSPropertyOp15
 70
     1
102
RTVSPropertyOp16
 70
     1
102
RTVSPropertyOp17
 70
     1
102
RTVSPropertyOp18
 70
     1
102
RTVSPropertyOp19
 70
     1
102
RTVSPropertyOp20
 70
     1
102
RTVSPropertyOp21
 70
     1
102
RTVSPropertyOp22
 70
     1
102
RTVSPropertyOp23
 70
     1
102
RTVSPropertyOp24
 70
     1
102
RTVSPropertyOp25
 70
     1
102
RTVSPropertyOp26
 70
     1
102
RTVSPropertyOp27
 70
     1
102
RTVSPropertyOp28
 70
     1
102
RTVSPropertyOp29
 70
     1
102
RTVSPropertyOp30
 70
     1
102
RTVSPropertyOp31
 70
     1
102
RTVSPropertyOp32
 70
     1
  0
XRECORD
  5
140
102
{ACAD_REACTORS
330
13F
102
}
330
13F
100
AcDbXrecord
280
     1
102
RTVSPropertyOp0
 70
     1
102
RTVSPropertyOp1
 70
     1
102
RTVSPropertyOp2
 70
     1
102
RTVSPropertyOp3
 70
     1
102
RTVSPropertyOp4
 70
     1
102
RTVSPropertyOp5
 70
     1
102
RTVSPropertyOp6
 70
     1
102
RTVSPropertyOp7
 70
     1
102
RTVSPropertyOp8
 70
     1
102
RTVSPropertyOp9
 70
     1
102
RTVSPropertyOp10
 70
     1
102
RTVSPropertyOp11
 70
     1
102
RTVSPropertyOp12
 70
     1
102
RTVSPropertyOp13
 70
     1
102
RTVSPropertyOp14
 70
     1
102
RTVSPropertyOp15
 70
     1
102
RTVSPropertyOp16
 70
     1
102
RTVSPropertyOp17
 70
     1
102
RTVSPropertyOp18
 70
     1
102
RTVSPropertyOp19
 70
     1
102
RTVSPropertyOp20
 70
     1
102
RTVSPropertyOp21
 70
     1
102
RTVSPropertyOp22
 70
     1
102
RTVSPropertyOp23
 70
     1
102
RTVSPropertyOp24
 70
     1
102
RTVSPropertyOp25
 70
     1
102
RTVSPropertyOp26
 70
     1
102
RTVSPropertyOp27
 70
     1
102
RTVSPropertyOp28
 70
     1
102
RTVSPropertyOp29
 70
     1
102
RTVSPropertyOp30
 70
     1
102
RTVSPropertyOp31
 70
     1
102
RTVSPropertyOp32
 70
     1
  0
XRECORD
  5
148
102
{ACAD_REACTORS
330
147
102
}
330
147
100
AcDbXrecord
280
     1
102
RTVSPropertyOp0
 70
     1
102
RTVSPropertyOp1
 70
     1
102
RTVSPropertyOp2
 70
     1
102
RTVSPropertyOp3
 70
     1
102
RTVSPropertyOp4
 70
     1
102
RTVSPropertyOp5
 70
     1
102
RTVSPropertyOp6
 70
     1
102
RTVSPropertyOp7
 70
     1
102
RTVSPropertyOp8
 70
     1
102
RTVSPropertyOp9
 70
     1
102
RTVSPropertyOp10
 70
     1
102
RTVSPropertyOp11
 70
     1
102
RTVSPropertyOp12
 70
     1
102
RTVSPropertyOp13
 70
     1
102
RTVSPropertyOp14
 70
     1
102
RTVSPropertyOp15
 70
     1
102
RTVSPropertyOp16
 70
     1
102
RTVSPropertyOp17
 70
     1
102
RTVSPropertyOp18
 70
     1
102
RTVSPropertyOp19
 70
     1
102
RTVSPropertyOp20
 70
     1
102
RTVSPropertyOp21
 70
     1
102
RTVSPropertyOp22
 70
     1
102
RTVSPropertyOp23
 70
     1
102
RTVSPropertyOp24
 70
     1
102
RTVSPropertyOp25
 70
     1
102
RTVSPropertyOp26
 70
     1
102
RTVSPropertyOp27
 70
     1
102
RTVSPropertyOp28
 70
     1
102
RTVSPropertyOp29
 70
     1
102
RTVSPropertyOp30
 70
     1
102
RTVSPropertyOp31
 70
     1
102
RTVSPropertyOp32
 70
     1
  0
ENDSEC
  0
EOF
