  0
SECTION
  2
HEADER
  9
$ACADVER
  1
AC1015
  9
$ACADMAINTVER
 70
     6
  9
$DWGCODEPAGE
  3
ANSI_932
  9
$INSBASE
 10
0.0
 20
0.0
 30
0.0
  9
$EXTMIN
 10
0.0
 20
0.0
 30
0.0
  9
$EXTMAX
 10
210.0
 20
297.0
 30
0.0
  9
$LIMMIN
 10
0.0
 20
0.0
  9
$LIMMAX
 10
12.0
 20
9.0
  9
$ORTHOMODE
 70
     0
  9
$REGENMODE
 70
     1
  9
$FILLMODE
 70
     1
  9
$QTEXTMODE
 70
     0
  9
$MIRRTEXT
 70
     1
  9
$LTSCALE
 40
1.0
  9
$ATTMODE
 70
     1
  9
$TEXTSIZE
 40
0.2
  9
$TRACEWID
 40
0.05
  9
$TEXTSTYLE
  7
Standard
  9
$CLAYER
  8
0
  9
$CELTYPE
  6
ByLayer
  9
$CECOLOR
 62
   256
  9
$CELTSCALE
 40
1.0
  9
$DISPSILH
 70
     0
  9
$DIMSCALE
 40
1.0
  9
$DIMASZ
 40
0.18
  9
$DIMEXO
 40
0.0625
  9
$DIMDLI
 40
0.38
  9
$DIMRND
 40
0.0
  9
$DIMDLE
 40
0.0
  9
$DIMEXE
 40
0.18
  9
$DIMTP
 40
0.0
  9
$DIMTM
 40
0.0
  9
$DIMTXT
 40
0.18
  9
$DIMCEN
 40
0.09
  9
$DIMTSZ
 40
0.0
  9
$DIMTOL
 70
     0
  9
$DIMLIM
 70
     0
  9
$DIMTIH
 70
     1
  9
$DIMTOH
 70
     1
  9
$DIMSE1
 70
     0
  9
$DIMSE2
 70
     0
  9
$DIMTAD
 70
     0
  9
$DIMZIN
 70
     0
  9
$DIMBLK
  1

  9
$DIMASO
 70
     1
  9
$DIMSHO
 70
     1
  9
$DIMPOST
  1

  9
$DIMAPOST
  1

  9
$DIMALT
 70
     0
  9
$DIMALTD
 70
     2
  9
$DIMALTF
 40
25.4
  9
$DIMLFAC
 40
1.0
  9
$DIMTOFL
 70
     0
  9
$DIMTVP
 40
0.0
  9
$DIMTIX
 70
     0
  9
$DIMSOXD
 70
     0
  9
$DIMSAH
 70
     0
  9
$DIMBLK1
  1

  9
$DIMBLK2
  1

  9
$DIMSTYLE
  2
Standard
  9
$DIMCLRD
 70
     0
  9
$DIMCLRE
 70
     0
  9
$DIMCLRT
 70
     0
  9
$DIMTFAC
 40
1.0
  9
$DIMGAP
 40
0.09
  9
$DIMJUST
 70
     0
  9
$DIMSD1
 70
     0
  9
$DIMSD2
 70
     0
  9
$DIMTOLJ
 70
     1
  9
$DIMTZIN
 70
     0
  9
$DIMALTZ
 70
     0
  9
$DIMALTTZ
 70
     0
  9
$DIMUPT
 70
     0
  9
$DIMDEC
 70
     4
  9
$DIMTDEC
 70
     4
  9
$DIMALTU
 70
     2
  9
$DIMALTTD
 70
     2
  9
$DIMTXSTY
  7
Standard
  9
$DIMAUNIT
 70
     0
  9
$DIMADEC
 70
     0
  9
$DIMALTRND
 40
0.0
  9
$DIMAZIN
 70
     0
  9
$DIMDSEP
 70
    46
  9
$DIMATFIT
 70
     3
  9
$DIMFRAC
 70
     0
  9
$DIMLDRBLK
  1

  9
$DIMLUNIT
 70
     2
  9
$DIMLWD
 70
    -2
  9
$DIMLWE
 70
    -2
  9
$DIMTMOVE
 70
     0
  9
$LUNITS
 70
     2
  9
$LUPREC
 70
     4
  9
$SKETCHINC
 40
0.1
  9
$FILLETRAD
 40
0.5
  9
$AUNITS
 70
     0
  9
$AUPREC
 70
     0
  9
$MENU
  1
.
  9
$ELEVATION
 40
0.0
  9
$PELEVATION
 40
0.0
  9
$THICKNESS
 40
0.0
  9
$LIMCHECK
 70
     0
  9
$CHAMFERA
 40
0.5
  9
$CHAMFERB
 40
0.5
  9
$CHAMFERC
 40
1.0
  9
$CHAMFERD
 40
0.0
  9
$SKPOLY
 70
     0
  9
$TDCREATE
 40
2459773.649246204
  9
$TDUCREATE
 40
2459773.274246204
  9
$TDUPDATE
 40
2459773.649247465
  9
$TDUUPDATE
 40
2459773.274247465
  9
$TDINDWG
 40
0.0000000116
  9
$TDUSRTIMER
 40
0.0000000116
  9
$USRTIMER
 70
     1
  9
$ANGBASE
 50
0.0
  9
$ANGDIR
 70
     0
  9
$PDMODE
 70
     0
  9
$PDSIZE
 40
0.0
  9
$PLINEWID
 40
0.0
  9
$SPLFRAME
 70
     0
  9
$SPLINETYPE
 70
     6
  9
$SPLINESEGS
 70
     8
  9
$HANDSEED
  5
182
  9
$SURFTAB1
 70
     6
  9
$SURFTAB2
 70
     6
  9
$SURFTYPE
 70
     6
  9
$SURFU
 70
     6
  9
$SURFV
 70
     6
  9
$UCSBASE
  2

  9
$UCSNAME
  2

  9
$UCSORG
 10
0.0
 20
0.0
 30
0.0
  9
$UCSXDIR
 10
1.0
 20
0.0
 30
0.0
  9
$UCSYDIR
 10
0.0
 20
1.0
 30
0.0
  9
$UCSORTHOREF
  2

  9
$UCSORTHOVIEW
 70
     0
  9
$UCSORGTOP
 10
0.0
 20
0.0
 30
0.0
  9
$UCSORGBOTTOM
 10
0.0
 20
0.0
 30
0.0
  9
$UCSORGLEFT
 10
0.0
 20
0.0
 30
0.0
  9
$UCSORGRIGHT
 10
0.0
 20
0.0
 30
0.0
  9
$UCSORGFRONT
 10
0.0
 20
0.0
 30
0.0
  9
$UCSORGBACK
 10
0.0
 20
0.0
 30
0.0
  9
$PUCSBASE
  2

  9
$PUCSNAME
  2

  9
$PUCSORG
 10
0.0
 20
0.0
 30
0.0
  9
$PUCSXDIR
 10
1.0
 20
0.0
 30
0.0
  9
$PUCSYDIR
 10
0.0
 20
1.0
 30
0.0
  9
$PUCSORTHOREF
  2

  9
$PUCSORTHOVIEW
 70
     0
  9
$PUCSORGTOP
 10
0.0
 20
0.0
 30
0.0
  9
$PUCSORGBOTTOM
 10
0.0
 20
0.0
 30
0.0
  9
$PUCSORGLEFT
 10
0.0
 20
0.0
 30
0.0
  9
$PUCSORGRIGHT
 10
0.0
 20
0.0
 30
0.0
  9
$PUCSORGFRONT
 10
0.0
 20
0.0
 30
0.0
  9
$PUCSORGBACK
 10
0.0
 20
0.0
 30
0.0
  9
$USERI1
 70
     0
  9
$USERI2
 70
     0
  9
$USERI3
 70
     0
  9
$USERI4
 70
     0
  9
$USERI5
 70
     0
  9
$USERR1
 40
18.1
  9
$USERR2
 40
0.0
  9
$USERR3
 40
0.0
  9
$USERR4
 40
0.0
  9
$USERR5
 40
0.0
  9
$WORLDVIEW
 70
     1
  9
$SHADEDGE
 70
     3
  9
$SHADEDIF
 70
    70
  9
$TILEMODE
 70
     1
  9
$MAXACTVP
 70
    64
  9
$PINSBASE
 10
0.0
 20
0.0
 30
0.0
  9
$PLIMCHECK
 70
     0
  9
$PEXTMIN
 10
1.00000000000000E+20
 20
1.00000000000000E+20
 30
1.00000000000000E+20
  9
$PEXTMAX
 10
-1.00000000000000E+20
 20
-1.00000000000000E+20
 30
-1.00000000000000E+20
  9
$PLIMMIN
 10
0.0
 20
0.0
  9
$PLIMMAX
 10
12.0
 20
9.0
  9
$UNITMODE
 70
     0
  9
$VISRETAIN
 70
     1
  9
$PLINEGEN
 70
     0
  9
$PSLTSCALE
 70
     1
  9
$TREEDEPTH
 70
  3020
  9
$CMLSTYLE
  2
Standard
  9
$CMLJUST
 70
     0
  9
$CMLSCALE
 40
1.0
  9
$PROXYGRAPHICS
 70
     1
  9
$MEASUREMENT
 70
     1
  9
$CELWEIGHT
370
    -1
  9
$ENDCAPS
280
     0
  9
$JOINSTYLE
280
     0
  9
$LWDISPLAY
290
     0
  9
$INSUNITS
 70
     4
  9
$HYPERLINKBASE
  1

  9
$STYLESHEET
  1

  9
$XEDIT
290
     1
  9
$CEPSNTYPE
380
     0
  9
$PSTYLEMODE
290
     1
  9
$FINGERPRINTGUID
  2
{3E6E9868-E82A-4A68-A288-F0540EF411C2}
  9
$VERSIONGUID
  2
{FAEB1C32-E019-11D5-929B-00C0DF256EC4}
  9
$EXTNAMES
290
     1
  9
$PSVPSCALE
 40
0.0
  9
$OLESTARTUP
290
     0
  0
ENDSEC
  0
SECTION
  2
CLASSES
  0
CLASS
  1
ACDBDICTIONARYWDFLT
  2
AcDbDictionaryWithDefault
  3
ObjectDBX Classes
 90
        0
280
     0
281
     0
  0
CLASS
  1
VISUALSTYLE
  2
AcDbVisualStyle
  3
ObjectDBX Classes
 90
     4095
280
     0
281
     0
  0
CLASS
  1
MATERIAL
  2
AcDbMaterial
  3
ObjectDBX Classes
 90
     1153
280
     0
281
     0
  0
CLASS
  1
DICTIONARYVAR
  2
AcDbDictionaryVar
  3
ObjectDBX Classes
 90
        0
280
     0
281
     0
  0
CLASS
  1
ACDBPLACEHOLDER
  2
AcDbPlaceHolder
  3
ObjectDBX Classes
 90
        0
280
     0
281
     0
  0
CLASS
  1
LAYOUT
  2
AcDbLayout
  3
ObjectDBX Classes
 90
        0
280
     0
281
     0
  0
ENDSEC
  0
SECTION
  2
TABLES
  0
TABLE
  2
VPORT
  5
8
330
0
100
AcDbSymbolTable
 70
     1
  0
VPORT
  5
29
330
8
100
AcDbSymbolTableRecord
100
AcDbViewportTableRecord
  2
*Active
 70
     0
 10
0.0
 20
0.0
 11
1.0
 21
1.0
 12
105.0
 22
148.5
 13
0.0
 23
0.0
 14
0.5
 24
0.5
 15
0.5
 25
0.5
 16
0.0
 26
0.0
 36
1.0
 17
0.0
 27
0.0
 37
0.0
 40
326.7
 41
1.60267857142857
 42
50.0
 43
0.0
 44
0.0
 50
0.0
 51
0.0
 71
     0
 72
   100
 73
     1
 74
     3
 75
     0
 76
     0
 77
     0
 78
     0
281
     0
 65
     1
110
0.0
120
0.0
130
0.0
111
1.0
121
0.0
131
0.0
112
0.0
122
1.0
132
0.0
 79
     0
146
0.0
  0
ENDTAB
  0
TABLE
  2
LTYPE
  5
5
330
0
100
AcDbSymbolTable
 70
     8
  0
LTYPE
  5
14
330
5
100
AcDbSymbolTableRecord
100
AcDbLinetypeTableRecord
  2
ByBlock
 70
     0
  3

 72
    65
 73
     0
 40
0.0
  0
LTYPE
  5
15
330
5
100
AcDbSymbolTableRecord
100
AcDbLinetypeTableRecord
  2
ByLayer
 70
     0
  3

 72
    65
 73
     0
 40
0.0
  0
LTYPE
  5
16
330
5
100
AcDbSymbolTableRecord
100
AcDbLinetypeTableRecord
  2
Continuous
 70
     0
  3
Solid line
 72
    65
 73
     0
 40
0.0
  0
LTYPE
  5
3F
330
5
100
AcDbSymbolTableRecord
100
AcDbLinetypeTableRecord
  2
DASHED
 70
     0
  3
Dashed
 72
    65
 73
     2
 40
15.0
 49
7.0
 74
     0
 49
-8.0
 74
     0
  0
LTYPE
  5
40
330
5
100
AcDbSymbolTableRecord
100
AcDbLinetypeTableRecord
  2
DOTTED
 70
     0
  3
Dotted
 72
    65
 73
     2
 40
1.0
 49
0.0
 74
     0
 49
-1.0
 74
     0
  0
LTYPE
  5
41
330
5
100
AcDbSymbolTableRecord
100
AcDbLinetypeTableRecord
  2
DOT_CENTER
 70
     0
  3
Dot_Center
 72
    65
 73
     4
 40
14.0
 49
12.0
 74
     0
 49
-1.0
 74
     0
 49
0.0
 74
     0
 49
-1.0
 74
     0
  0
LTYPE
  5
42
330
5
100
AcDbSymbolTableRecord
100
AcDbLinetypeTableRecord
  2
LONG_DASHED
 70
     0
  3
Long_Dashed
 72
    65
 73
     2
 40
15.0
 49
10.0
 74
     0
 49
-5.0
 74
     0
  0
LTYPE
  5
43
330
5
100
AcDbSymbolTableRecord
100
AcDbLinetypeTableRecord
  2
DASH_CENTER
 70
     0
  3
Dash_Center
 72
    65
 73
     4
 40
14.0
 49
11.0
 74
     0
 49
-1.0
 74
     0
 49
1.0
 74
     0
 49
-1.0
 74
     0
  0
LTYPE
  5
44
330
5
100
AcDbSymbolTableRecord
100
AcDbLinetypeTableRecord
  2
PHANTOM
 70
     0
  3
Phantom
 72
    65
 73
     6
 40
13.0
 49
10.0
 74
     0
 49
-1.0
 74
     0
 49
0.0
 74
     0
 49
-1.0
 74
     0
 49
0.0
 74
     0
 49
-1.0
 74
     0
  0
LTYPE
  5
45
330
5
100
AcDbSymbolTableRecord
100
AcDbLinetypeTableRecord
  2
CENTER_DASH_DASH
 70
     0
  3
Center_Dash_Dash
 72
    65
 73
     6
 40
14.0
 49
9.0
 74
     0
 49
-1.0
 74
     0
 49
1.0
 74
     0
 49
-1.0
 74
     0
 49
1.0
 74
     0
 49
-1.0
 74
     0
  0
ENDTAB
  0
TABLE
  2
LAYER
  5
2
330
0
100
AcDbSymbolTable
 70
     3
  0
LAYER
  5
10
330
2
100
AcDbSymbolTableRecord
100
AcDbLayerTableRecord
  2
0
 70
     0
 62
     7
  6
Continuous
370
    -3
390
F
  0
LAYER
  5
46
330
2
100
AcDbSymbolTableRecord
100
AcDbLayerTableRecord
  2
1
 70
     0
 62
     7
  6
Continuous
370
    -3
390
F
  0
LAYER
  5
47
330
2
100
AcDbSymbolTableRecord
100
AcDbLayerTableRecord
  2
_U_30EC_U_30A4_U_30E4_U_30FC_1
 70
     0
 62
     7
  6
Continuous
370
    -3
390
F
  0
ENDTAB
  0
TABLE
  2
STYLE
  5
3
330
0
100
AcDbSymbolTable
 70
     3
  0
STYLE
  5
11
330
3
100
AcDbSymbolTableRecord
100
AcDbTextStyleTableRecord
  2
Standard
 70
     0
 40
0.0
 41
1.0
 50
0.0
 71
     0
 42
0.2
  3
txt
  4

  0
STYLE
  5
C6
330
3
100
AcDbSymbolTableRecord
100
AcDbTextStyleTableRecord
  2
CONVERTER_11
 70
     0
 40
0.0
 41
0.89
 50
0.0
 71
     0
 42
0.2
  3
MS Mincho.ttf
  4

1001
ACAD
1000
MS Mincho
1071
    32785
  0
STYLE
  5
115
330
3
100
AcDbSymbolTableRecord
100
AcDbTextStyleTableRecord
  2
CONVERTER_12
 70
     0
 40
0.0
 41
0.9
 50
0.0
 71
     0
 42
0.2
  3
txt.shx
  4

  0
ENDTAB
  0
TABLE
  2
VIEW
  5
6
330
0
100
AcDbSymbolTable
 70
     0
  0
ENDTAB
  0
TABLE
  2
UCS
  5
7
330
0
100
AcDbSymbolTable
 70
     0
  0
ENDTAB
  0
TABLE
  2
APPID
  5
9
330
0
100
AcDbSymbolTable
 70
     1
  0
APPID
  5
12
330
9
100
AcDbSymbolTableRecord
100
AcDbRegAppTableRecord
  2
ACAD
 70
     0
  0
ENDTAB
  0
TABLE
  2
DIMSTYLE
  5
A
330
0
100
AcDbSymbolTable
 70
     4
100
AcDbDimStyleTable
  0
DIMSTYLE
105
27
330
A
100
AcDbSymbolTableRecord
100
AcDbDimStyleTableRecord
  2
Standard
 70
     0
178
     0
340
11
  0
DIMSTYLE
105
12F
102
{ACAD_REACTORS
330
130
102
}
330
A
100
AcDbSymbolTableRecord
100
AcDbDimStyleTableRecord
  2
ME10_DIM_10
 70
     0
 41
3.5
 42
0.0
 44
1.0
 73
     0
 74
     0
 77
     1
 78
     8
140
3.5
147
1.0
172
     1
173
     1
174
     1
175
     1
176
     2
177
     2
271
     2
178
     7
271
     2
340
115
  0
DIMSTYLE
105
13A
102
{ACAD_REACTORS
330
13B
102
}
330
A
100
AcDbSymbolTableRecord
100
AcDbDimStyleTableRecord
  2
ME10_DIM_11
 70
     0
  3
{\Fgdt;n}<>
 41
3.5
 42
0.0
 44
1.0
 73
     0
 74
     0
 77
     1
 78
     8
140
3.5
147
1.0
172
     1
173
     1
174
     1
175
     1
176
     2
177
     2
271
     2
178
     7
271
     2
340
115
  0
DIMSTYLE
105
145
102
{ACAD_REACTORS
330
146
102
}
330
A
100
AcDbSymbolTableRecord
100
AcDbDimStyleTableRecord
  2
ME10_DIM_12
 70
     0
 41
3.5
 42
0.0
 44
1.0
 73
     0
 74
     0
 77
     1
 78
     8
140
3.5
147
1.0
172
     1
173
     1
174
     1
175
     1
176
     2
177
     2
271
     2
178
     7
271
     2
340
115
  0
ENDTAB
  0
TABLE
  2
BLOCK_RECORD
  5
1
330
0
100
AcDbSymbolTable
 70
    13
  0
BLOCK_RECORD
  5
1F
330
1
100
AcDbSymbolTableRecord
100
AcDbBlockTableRecord
  2
*Model_Space
340
22
  0
BLOCK_RECORD
  5
1B
330
1
100
AcDbSymbolTableRecord
100
AcDbBlockTableRecord
  2
*Paper_Space
340
1E
  0
BLOCK_RECORD
  5
23
330
1
100
AcDbSymbolTableRecord
100
AcDbBlockTableRecord
  2
*Paper_Space0
340
26
  0
BLOCK_RECORD
  5
48
330
1
100
AcDbSymbolTableRecord
100
AcDbBlockTableRecord
  2
開示A4
340
0
102
{BLKREFS
331
4C
102
}
  0
BLOCK_RECORD
  5
4B
330
1
100
AcDbSymbolTableRecord
100
AcDbBlockTableRecord
  2
開示A4枠
340
0
102
{BLKREFS
331
5E
102
}
  0
BLOCK_RECORD
  5
4F
330
1
100
AcDbSymbolTableRecord
100
AcDbBlockTableRecord
  2
平パッキン
340
0
102
{BLKREFS
331
5F
102
}
  0
BLOCK_RECORD
  5
52
330
1
100
AcDbSymbolTableRecord
100
AcDbBlockTableRecord
  2
77-8
340
0
102
{BLKREFS
331
60
102
}
  0
BLOCK_RECORD
  5
55
330
1
100
AcDbSymbolTableRecord
100
AcDbBlockTableRecord
  2
95-21-16_8X1_9
340
0
102
{BLKREFS
331
61
102
}
  0
BLOCK_RECORD
  5
58
330
1
100
AcDbSymbolTableRecord
100
AcDbBlockTableRecord
  2
77-9
340
0
102
{BLKREFS
331
62
102
}
  0
BLOCK_RECORD
  5
5B
330
1
100
AcDbSymbolTableRecord
100
AcDbBlockTableRecord
  2
30-18A
340
0
102
{BLKREFS
331
63
102
}
  0
BLOCK_RECORD
  5
124
330
1
100
AcDbSymbolTableRecord
100
AcDbBlockTableRecord
  2
*D8
340
0
  0
BLOCK_RECORD
  5
131
330
1
100
AcDbSymbolTableRecord
100
AcDbBlockTableRecord
  2
*D9
340
0
  0
BLOCK_RECORD
  5
13C
330
1
100
AcDbSymbolTableRecord
100
AcDbBlockTableRecord
  2
*D10
340
0
  0
BLOCK_RECORD
  5
147
330
1
100
AcDbSymbolTableRecord
100
AcDbBlockTableRecord
  2
*D11
340
0
102
{BLKREFS
331
14E
102
}
  0
BLOCK_RECORD
  5
14F
330
1
100
AcDbSymbolTableRecord
100
AcDbBlockTableRecord
  2
*D12
340
0
102
{BLKREFS
331
156
102
}
  0
ENDTAB
  0
ENDSEC
  0
SECTION
  2
BLOCKS
  0
BLOCK
  5
20
330
1F
100
AcDbEntity
  8
0
100
AcDbBlockBegin
  2
*Model_Space
 70
     0
 10
0.0
 20
0.0
 30
0.0
  3
*Model_Space
  1

  0
ENDBLK
  5
21
330
1F
100
AcDbEntity
  8
0
100
AcDbBlockEnd
  0
BLOCK
  5
1C
330
1B
100
AcDbEntity
 67
     1
  8
0
100
AcDbBlockBegin
  2
*Paper_Space
 70
     0
 10
0.0
 20
0.0
 30
0.0
  3
*Paper_Space
  1

  0
ENDBLK
  5
1D
330
1B
100
AcDbEntity
 67
     1
  8
0
100
AcDbBlockEnd
  0
BLOCK
  5
24
330
23
100
AcDbEntity
  8
0
100
AcDbBlockBegin
  2
*Paper_Space0
 70
     0
 10
0.0
 20
0.0
 30
0.0
  3
*Paper_Space0
  1

  0
ENDBLK
  5
25
330
23
100
AcDbEntity
  8
0
100
AcDbBlockEnd
  0
BLOCK
  5
49
330
48
100
AcDbEntity
  8
0
100
AcDbBlockBegin
  2
開示A4
 70
     0
 10
0.0
 20
0.0
 30
0.0
  3
開示A4
  1

  0
POINT
  5
64
330
48
100
AcDbEntity
  8
1
 62
     4
100
AcDbPoint
 10
34.0
 20
34.00000000000001
 30
0.0
  0
POINT
  5
65
330
48
100
AcDbEntity
  8
1
 62
     4
100
AcDbPoint
 10
57.00000000000003
 20
12.25
 30
0.0
  0
POINT
  5
66
330
48
100
AcDbEntity
  8
1
 62
     4
100
AcDbPoint
 10
57.00000000000003
 20
20.75
 30
0.0
  0
POINT
  5
67
330
48
100
AcDbEntity
  8
1
 62
     4
100
AcDbPoint
 10
57.00000000000003
 20
24.75
 30
0.0
  0
POINT
  5
68
330
48
100
AcDbEntity
  8
1
 62
     4
100
AcDbPoint
 10
57.00000000000003
 20
16.25
 30
0.0
  0
POINT
  5
69
330
48
100
AcDbEntity
  8
1
 62
     4
100
AcDbPoint
 10
157.5
 20
19.0
 30
0.0
  0
POINT
  5
6A
330
48
100
AcDbEntity
  8
1
 62
     4
100
AcDbPoint
 10
47.50000000000003
 20
282.0000000000003
 30
0.0
  0
POINT
  5
6B
330
48
100
AcDbEntity
  8
1
 62
     4
100
AcDbPoint
 10
57.00000000000003
 20
22.75
 30
0.0
  0
POINT
  5
6C
330
48
100
AcDbEntity
  8
1
 62
     4
100
AcDbPoint
 10
57.00000000000003
 20
14.25
 30
0.0
  0
POINT
  5
6D
330
48
100
AcDbEntity
  8
1
 62
     4
100
AcDbPoint
 10
157.5
 20
12.5
 30
0.0
  0
POINT
  5
6E
330
48
100
AcDbEntity
  8
1
 62
     4
100
AcDbPoint
 10
163.25
 20
12.5
 30
0.0
  0
POINT
  5
6F
330
48
100
AcDbEntity
  8
1
 62
     4
100
AcDbPoint
 10
151.75
 20
12.5
 30
0.0
  0
POINT
  5
70
330
48
100
AcDbEntity
  8
1
 62
     4
100
AcDbPoint
 10
134.75
 20
12.5
 30
0.0
  0
POINT
  5
71
330
48
100
AcDbEntity
  8
1
 62
     4
100
AcDbPoint
 10
146.25
 20
12.5
 30
0.0
  0
POINT
  5
72
330
48
100
AcDbEntity
  8
1
 62
     4
100
AcDbPoint
 10
140.5
 20
12.5
 30
0.0
  0
POINT
  5
73
330
48
100
AcDbEntity
  8
1
 62
     4
100
AcDbPoint
 10
140.5
 20
19.0
 30
0.0
  0
POINT
  5
74
330
48
100
AcDbEntity
  8
1
 62
     4
100
AcDbPoint
 10
117.75
 20
12.5
 30
0.0
  0
POINT
  5
75
330
48
100
AcDbEntity
  8
1
 62
     4
100
AcDbPoint
 10
129.25
 20
12.5
 30
0.0
  0
POINT
  5
76
330
48
100
AcDbEntity
  8
1
 62
     4
100
AcDbPoint
 10
123.5
 20
12.5
 30
0.0
  0
POINT
  5
77
330
48
100
AcDbEntity
  8
1
 62
     4
100
AcDbPoint
 10
123.5
 20
19.0
 30
0.0
  0
POINT
  5
78
330
48
100
AcDbEntity
  8
1
 62
     4
100
AcDbPoint
 10
100.75
 20
12.5
 30
0.0
  0
POINT
  5
79
330
48
100
AcDbEntity
  8
1
 62
     4
100
AcDbPoint
 10
112.25
 20
12.5
 30
0.0
  0
POINT
  5
7A
330
48
100
AcDbEntity
  8
1
 62
     4
100
AcDbPoint
 10
106.5
 20
12.5
 30
0.0
  0
POINT
  5
7B
330
48
100
AcDbEntity
  8
1
 62
     4
100
AcDbPoint
 10
106.5
 20
19.0
 30
0.0
  0
POINT
  5
7C
330
48
100
AcDbEntity
  8
1
 62
     4
100
AcDbPoint
 10
85.25000000000003
 20
17.0
 30
0.0
  0
POINT
  5
7D
330
48
100
AcDbEntity
  8
1
 62
     4
100
AcDbPoint
 10
93.75000000000003
 20
17.0
 30
0.0
  0
POINT
  5
7E
330
48
100
AcDbEntity
  8
1
 62
     4
100
AcDbPoint
 10
183.0
 20
15.0
 30
0.0
  0
LINE
  5
7F
330
48
100
AcDbEntity
  8
1
  6
Continuous
 62
     2
100
AcDbLine
 10
81.00000000000003
 20
27.00000000000001
 30
0.0
 11
81.00000000000003
 21
10.0
 31
0.0
  0
LINE
  5
80
330
48
100
AcDbEntity
  8
1
  6
DOT_CENTER
 62
     2
100
AcDbLine
 10
187.0
 20
26.5
 30
0.0
 11
187.0
 21
20.5
 31
0.0
  0
LINE
  5
81
330
48
100
AcDbEntity
  8
1
  6
DOT_CENTER
 62
     2
100
AcDbLine
 10
184.0
 20
23.5
 30
0.0
 11
197.0
 21
23.5
 31
0.0
  0
LINE
  5
82
330
48
100
AcDbEntity
  8
1
  6
Continuous
 62
     7
100
AcDbLine
 10
196.0
 20
21.5
 30
0.0
 11
191.0
 21
22.3
 31
0.0
  0
LINE
  5
83
330
48
100
AcDbEntity
  8
1
  6
Continuous
 62
     7
100
AcDbLine
 10
196.0
 20
25.5
 30
0.0
 11
196.0
 21
21.5
 31
0.0
  0
LINE
  5
84
330
48
100
AcDbEntity
  8
1
  6
Continuous
 62
     7
100
AcDbLine
 10
191.0
 20
24.7
 30
0.0
 11
196.0
 21
25.5
 31
0.0
  0
LINE
  5
85
330
48
100
AcDbEntity
  8
1
  6
Continuous
 62
     7
100
AcDbLine
 10
191.0
 20
24.7
 30
0.0
 11
191.0
 21
22.3
 31
0.0
  0
LINE
  5
86
330
48
100
AcDbEntity
  8
1
  6
Continuous
 62
     2
100
AcDbLine
 10
33.0
 20
27.0
 30
0.0
 11
33.0
 21
10.0
 31
0.0
  0
LINE
  5
87
330
48
100
AcDbEntity
  8
1
  6
Continuous
 62
     2
100
AcDbLine
 10
25.0
 20
18.5
 30
0.0
 11
81.00000000000003
 21
18.5
 31
0.0
  0
LINE
  5
88
330
48
100
AcDbEntity
  8
1
  6
Continuous
 62
     7
100
AcDbLine
 10
200.0
 20
287.0000000000003
 30
0.0
 11
105.0
 21
287.0000000000003
 31
0.0
  0
LINE
  5
89
330
48
100
AcDbEntity
  8
1
  6
Continuous
 62
     7
100
AcDbLine
 10
200.0
 20
10.0
 30
0.0
 11
200.0
 21
148.5
 31
0.0
  0
LINE
  5
8A
330
48
100
AcDbEntity
  8
1
  6
Continuous
 62
     7
100
AcDbLine
 10
25.0
 20
10.0
 30
0.0
 11
105.0
 21
10.0
 31
0.0
  0
LINE
  5
8B
330
48
100
AcDbEntity
  8
1
  6
PHANTOM
 62
     4
100
AcDbLine
 10
0.0
 20
297.0
 30
0.0
 11
0.0
 21
0.0
 31
0.0
  0
LINE
  5
8C
330
48
100
AcDbEntity
  8
1
  6
PHANTOM
 62
     4
100
AcDbLine
 10
210.0
 20
297.0
 30
0.0
 11
0.0
 21
297.0
 31
0.0
  0
LINE
  5
8D
330
48
100
AcDbEntity
  8
1
  6
PHANTOM
 62
     4
100
AcDbLine
 10
210.0
 20
0.0
 30
0.0
 11
210.0
 21
297.0
 31
0.0
  0
LINE
  5
8E
330
48
100
AcDbEntity
  8
1
  6
PHANTOM
 62
     4
100
AcDbLine
 10
0.0
 20
0.0
 30
0.0
 11
210.0
 21
0.0
 31
0.0
  0
LINE
  5
8F
330
48
100
AcDbEntity
  8
1
  6
Continuous
 62
     7
100
AcDbLine
 10
25.0
 20
41.0
 30
0.0
 11
200.0
 21
41.0
 31
0.0
  0
LINE
  5
90
330
48
100
AcDbEntity
  8
1
  6
Continuous
 62
     7
100
AcDbLine
 10
200.0
 20
27.00000000000001
 30
0.0
 11
25.0
 21
27.00000000000001
 31
0.0
  0
LINE
  5
91
330
48
100
AcDbEntity
  8
1
  6
Continuous
 62
     2
100
AcDbLine
 10
33.0
 20
41.00000000000001
 30
0.0
 11
33.0
 21
27.0
 31
0.0
  0
LINE
  5
92
330
48
100
AcDbEntity
  8
1
  6
Continuous
 62
     2
100
AcDbLine
 10
55.00000000000003
 20
287.0000000000003
 30
0.0
 11
55.00000000000003
 21
277.0000000000003
 31
0.0
  0
LINE
  5
93
330
48
100
AcDbEntity
  8
1
  6
Continuous
 62
     2
100
AcDbLine
 10
40.0
 20
287.0000000000003
 30
0.0
 11
40.0
 21
277.0000000000003
 31
0.0
  0
LINE
  5
94
330
48
100
AcDbEntity
  8
1
  6
Continuous
 62
     7
100
AcDbLine
 10
25.0
 20
10.0
 30
0.0
 11
25.0
 21
148.5
 31
0.0
  0
LINE
  5
95
330
48
100
AcDbEntity
  8
1
  6
Continuous
 62
     2
100
AcDbLine
 10
55.00000000000003
 20
277.0000000000003
 30
0.0
 11
25.0
 21
277.0000000000003
 31
0.0
  0
LINE
  5
96
330
48
100
AcDbEntity
  8
1
  6
Continuous
 62
     2
100
AcDbLine
 10
166.0
 20
27.00000000000001
 30
0.0
 11
166.0
 21
10.0
 31
0.0
  0
LINE
  5
97
330
48
100
AcDbEntity
  8
1
  6
Continuous
 62
     2
100
AcDbLine
 10
132.0
 20
27.00000000000001
 30
0.0
 11
132.0
 21
10.0
 31
0.0
  0
LINE
  5
98
330
48
100
AcDbEntity
  8
1
  6
Continuous
 62
     2
100
AcDbLine
 10
149.0
 20
27.00000000000001
 30
0.0
 11
149.0
 21
10.0
 31
0.0
  0
LINE
  5
99
330
48
100
AcDbEntity
  8
1
  6
Continuous
 62
     2
100
AcDbLine
 10
115.0
 20
27.00000000000001
 30
0.0
 11
115.0
 21
10.0
 31
0.0
  0
LINE
  5
9A
330
48
100
AcDbEntity
  8
1
  6
Continuous
 62
     2
100
AcDbLine
 10
98.00000000000003
 20
27.00000000000001
 30
0.0
 11
98.00000000000003
 21
10.0
 31
0.0
  0
LINE
  5
9B
330
48
100
AcDbEntity
  8
1
  6
Continuous
 62
     2
100
AcDbLine
 10
166.0
 20
20.0
 30
0.0
 11
200.0
 21
20.0
 31
0.0
  0
LINE
  5
9C
330
48
100
AcDbEntity
  8
1
  6
Continuous
 62
     2
100
AcDbLine
 10
105.0
 20
287.0000000000003
 30
0.0
 11
105.0
 21
292.0000000000003
 31
0.0
  0
LINE
  5
9D
330
48
100
AcDbEntity
  8
1
  6
Continuous
 62
     7
100
AcDbLine
 10
105.0
 20
287.0000000000003
 30
0.0
 11
25.0
 21
287.0000000000003
 31
0.0
  0
LINE
  5
9E
330
48
100
AcDbEntity
  8
1
  6
Continuous
 62
     2
100
AcDbLine
 10
25.0
 20
148.5
 30
0.0
 11
20.0
 21
148.5
 31
0.0
  0
LINE
  5
9F
330
48
100
AcDbEntity
  8
1
  6
Continuous
 62
     7
100
AcDbLine
 10
25.0
 20
148.5
 30
0.0
 11
25.0
 21
287.0000000000003
 31
0.0
  0
LINE
  5
A0
330
48
100
AcDbEntity
  8
1
  6
Continuous
 62
     2
100
AcDbLine
 10
200.0
 20
148.5
 30
0.0
 11
205.0
 21
148.5
 31
0.0
  0
LINE
  5
A1
330
48
100
AcDbEntity
  8
1
  6
Continuous
 62
     7
100
AcDbLine
 10
200.0
 20
148.5
 30
0.0
 11
200.0
 21
287.0000000000003
 31
0.0
  0
LINE
  5
A2
330
48
100
AcDbEntity
  8
1
  6
Continuous
 62
     2
100
AcDbLine
 10
105.0
 20
10.0
 30
0.0
 11
105.0
 21
5.0
 31
0.0
  0
LINE
  5
A3
330
48
100
AcDbEntity
  8
1
  6
Continuous
 62
     7
100
AcDbLine
 10
105.0
 20
10.0
 30
0.0
 11
200.0
 21
10.0
 31
0.0
  0
CIRCLE
  5
A8
330
48
100
AcDbEntity
  8
1
  6
DOT_CENTER
 62
     7
100
AcDbCircle
 10
89.50000000000003
 20
18.0
 30
0.0
 40
0.0999999999999659
  0
CIRCLE
  5
A9
330
48
100
AcDbEntity
  8
1
  6
DOT_CENTER
 62
     7
100
AcDbCircle
 10
89.50000000000003
 20
16.0
 30
0.0
 40
0.0999999999999659
  0
CIRCLE
  5
AA
330
48
100
AcDbEntity
  8
1
  6
Continuous
 62
     7
100
AcDbCircle
 10
187.0
 20
23.5
 30
0.0
 40
2.0
  0
CIRCLE
  5
AB
330
48
100
AcDbEntity
  8
1
  6
Continuous
 62
     7
100
AcDbCircle
 10
187.0
 20
23.5
 30
0.0
 40
1.200000000000188
  0
CIRCLE
  5
AC
330
48
100
AcDbEntity
  8
1
  6
Continuous
 62
     7
100
AcDbCircle
 10
154.5
 20
12.5
 30
0.0
 40
0.3000000000000966
  0
CIRCLE
  5
AD
330
48
100
AcDbEntity
  8
1
  6
Continuous
 62
     7
100
AcDbCircle
 10
160.5
 20
12.5
 30
0.0
 40
0.3000000000000966
  0
CIRCLE
  5
AE
330
48
100
AcDbEntity
  8
1
  6
Continuous
 62
     7
100
AcDbCircle
 10
143.5
 20
12.5
 30
0.0
 40
0.3000000000000966
  0
CIRCLE
  5
AF
330
48
100
AcDbEntity
  8
1
  6
Continuous
 62
     7
100
AcDbCircle
 10
137.5
 20
12.5
 30
0.0
 40
0.3000000000000966
  0
CIRCLE
  5
B0
330
48
100
AcDbEntity
  8
1
  6
Continuous
 62
     7
100
AcDbCircle
 10
126.5
 20
12.5
 30
0.0
 40
0.2999999999999972
  0
CIRCLE
  5
B1
330
48
100
AcDbEntity
  8
1
  6
Continuous
 62
     7
100
AcDbCircle
 10
120.5
 20
12.5
 30
0.0
 40
0.2999999999999972
  0
CIRCLE
  5
B2
330
48
100
AcDbEntity
  8
1
  6
Continuous
 62
     7
100
AcDbCircle
 10
109.5
 20
12.5
 30
0.0
 40
0.2999999999999972
  0
CIRCLE
  5
B3
330
48
100
AcDbEntity
  8
1
  6
Continuous
 62
     7
100
AcDbCircle
 10
103.5
 20
12.5
 30
0.0
 40
0.2999999999999972
  0
SPLINE
  5
B4
102
{ACAD_REACTORS
330
D2
102
}
330
48
100
AcDbEntity
  8
_U_30EC_U_30A4_U_30E4_U_30FC_1
  6
Continuous
 62
     2
100
AcDbSpline
210
0.0
220
0.0
230
1.0
 70
    11
 71
     3
 72
    99
 73
    95
 74
    93
 42
0.000000001
 43
0.0000000001
 44
0.00000001
 40
0.0
 40
0.0
 40
0.0
 40
0.0
 40
0.0796417172272102
 40
0.1621768542355718
 40
0.2486489160957381
 40
0.3404969668524209
 40
0.4381912511164263
 40
0.5434463660244586
 40
0.6518115192846919
 40
0.7530190937886424
 40
0.8492196919725047
 40
0.9419290312997814
 40
1.034249663570002
 40
1.129078600620148
 40
1.226697027573244
 40
1.327220425421684
 40
1.470572134937979
 40
1.59548986337117
 40
1.719934125348419
 40
1.85057662012746
 40
1.989059629987342
 40
2.134139054226956
 40
2.280698007207239
 40
2.424529739039504
 40
2.565929576985872
 40
2.708239260773595
 40
2.86171788744366
 40
3.04516854034738
 40
3.183798301138623
 40
3.314813961455506
 40
3.442083470447359
 40
3.569912708373002
 40
3.702177512509403
 40
3.842307559659582
 40
3.992872223246005
 40
4.156750662218364
 40
4.310981861107585
 40
4.445859909322625
 40
4.572393936131622
 40
4.701656719782009
 40
4.768279086008509
 40
4.835960697898442
 40
4.912788918729386
 40
5.006285208481574
 40
5.026909478751622
 40
5.04753374902113
 40
5.101808031471196
 40
5.162325165538507
 40
5.226919745995823
 40
5.294231806596691
 40
5.364544852554829
 40
5.438319055467882
 40
5.517877651324186
 40
5.607647714861526
 40
5.700449642544342
 40
5.78825114236401
 40
5.872714706039734
 40
5.955167292575265
 40
6.037192395190329
 40
6.120669181469039
 40
6.206848616686283
 40
6.296680855416748
 40
6.44255839287259
 40
6.568190371608257
 40
6.692904567360296
 40
6.824220446557082
 40
6.9631218503293
 40
7.107843738851094
 40
7.253431663907201
 40
7.395187468036624
 40
7.533140753237674
 40
7.670550457175183
 40
7.816236511769189
 40
7.987691657359146
 40
8.142277421969188
 40
8.293662615414927
 40
8.442962460879196
 40
8.59159831618523
 40
8.743678992361719
 40
8.903725323699105
 40
9.076307008890451
 40
9.265578604680506
 40
9.459203795360683
 40
9.617619810273467
 40
9.753609671361817
 40
9.874873300004005
 40
9.954520184977708
 40
10.02416413719235
 40
10.09769764405435
 40
10.18909955924964
 40
10.20974586420126
 40
10.23039218263371
 40
10.30057101881258
 40
10.37632012987541
 40
10.37632012987541
 40
10.37632012987541
 40
10.37632012987541
 10
170.1465954835851
 20
14.1379566321599
 30
0.0
 10
170.1632217851219
 20
14.11720608845311
 30
0.0
 10
170.1970784206577
 20
14.07495111711902
 30
0.0
 10
170.2599822541036
 20
14.02029811392072
 30
0.0
 10
170.3332500940393
 20
13.97299025121049
 30
0.0
 10
170.4175969238636
 20
13.93527231437939
 30
0.0
 10
170.513224061546
 20
13.91040619731953
 30
0.0
 10
170.6171853775345
 20
13.90309559345934
 30
0.0
 10
170.7224020220405
 20
13.91142322794055
 30
0.0
 10
170.8206626371334
 20
13.94149179651526
 30
0.0
 10
170.9058986427548
 20
13.98848822971875
 30
0.0
 10
170.9779220206103
 20
14.04952991250858
 30
0.0
 10
171.0350917709096
 20
14.12412969578581
 30
0.0
 10
171.076786874744
 20
14.21002464660174
 30
0.0
 10
171.1026952846293
 20
14.30485850432209
 30
0.0
 10
171.1118037332652
 20
14.41854979038368
 30
0.0
 10
171.0986864796487
 20
14.54332587770775
 30
0.0
 10
171.0325330334415
 20
14.660147191719
 30
0.0
 10
170.9369370919569
 20
14.74512539577374
 30
0.0
 10
170.8249681022368
 20
14.81416684459164
 30
0.0
 10
170.699365958327
 20
14.87204142045891
 30
0.0
 10
170.5656691620856
 20
14.9237372328434
 30
0.0
 10
170.4313122818831
 20
14.97899092397179
 30
0.0
 10
170.3051983986876
 20
15.04939770641647
 30
0.0
 10
170.1926579987535
 20
15.13785540731248
 30
0.0
 10
170.0969963064458
 20
15.24981067868472
 30
0.0
 10
170.0334157151825
 20
15.3994991010138
 30
0.0
 10
170.0200706505015
 20
15.55932794385139
 30
0.0
 10
170.0320510987448
 20
15.71048405306843
 30
0.0
 10
170.071229892884
 20
15.83809244591539
 30
0.0
 10
170.135498775091
 20
15.95080874030846
 30
0.0
 10
170.223820499974
 20
16.04648609268686
 30
0.0
 10
170.3338091207627
 20
16.12354214985752
 30
0.0
 10
170.4632284401265
 20
16.18151396936283
 30
0.0
 10
170.6111838967793
 20
16.2173917758882
 30
0.0
 10
170.7682069455487
 20
16.22746719050562
 30
0.0
 10
170.917494046643
 20
16.21863637762589
 30
0.0
 10
171.059625361417
 20
16.19074899340355
 30
0.0
 10
171.1595922609625
 20
16.13413314701138
 30
0.0
 10
171.3125074736185
 20
16.08674602105509
 30
0.0
 10
171.2455131717168
 20
16.00197553001187
 30
0.0
 10
171.2296479120269
 20
15.93438901873487
 30
0.0
 10
171.1978750531297
 20
15.86926092793192
 30
0.0
 10
171.215020220957
 20
15.76723453256957
 30
0.0
 10
171.1666427208232
 20
15.77493211681904
 30
0.0
 10
171.1315789440766
 20
15.76806771724812
 30
0.0
 10
171.1296697985718
 20
15.83263831158195
 30
0.0
 10
171.0985692931989
 20
15.87825639621396
 30
0.0
 10
171.0664551628456
 20
15.93561036628455
 30
0.0
 10
171.0208038475168
 20
15.98540462692559
 30
0.0
 10
170.9658508218386
 20
16.02994813718992
 30
0.0
 10
170.9010841173008
 20
16.06763988836551
 30
0.0
 10
170.8232377310596
 20
16.09283375791351
 30
0.0
 10
170.7355160553352
 20
16.09931230998107
 30
0.0
 10
170.6452903277807
 20
16.09235709285609
 30
0.0
 10
170.5594594694065
 20
16.06909190460923
 30
0.0
 10
170.4828343638596
 20
16.03131644107547
 30
0.0
 10
170.4165265636201
 20
15.98051641089572
 30
0.0
 10
170.3622560536964
 20
15.91731143407209
 30
0.0
 10
170.3224925345458
 20
15.8427645571037
 30
0.0
 10
170.2976775510588
 20
15.75917313997764
 30
0.0
 10
170.289212426287
 20
15.65192948382284
 30
0.0
 10
170.3019697987103
 20
15.52965457267555
 30
0.0
 10
170.3681548409274
 20
15.41149724291216
 30
0.0
 10
170.4640977399832
 20
15.32606325709529
 30
0.0
 10
170.5757914963181
 20
15.25583362306715
 30
0.0
 10
170.7010863668703
 20
15.19659162305306
 30
0.0
 10
170.8349823941447
 20
15.14616708086129
 30
0.0
 10
170.968993033315
 20
15.09322516984383
 30
0.0
 10
171.0950885316915
 20
15.02750170625175
 30
0.0
 10
171.2076216638417
 20
14.94480352537322
 30
0.0
 10
171.3031370284233
 20
14.83996006310072
 30
0.0
 10
171.3672706486962
 20
14.69937117251569
 30
0.0
 10
171.3811103725279
 20
14.54065409451592
 30
0.0
 10
171.367395471223
 20
14.38153155217875
 30
0.0
 10
171.3244739153984
 20
14.23483828819212
 30
0.0
 10
171.2545906329066
 20
14.10119796587142
 30
0.0
 10
171.1574592213829
 20
13.98532387699294
 30
0.0
 10
171.0347806023657
 20
13.89089981770087
 30
0.0
 10
170.8874408413168
 20
13.82179270651981
 30
0.0
 10
170.7177132497125
 20
13.77953210858854
 30
0.0
 10
170.5317404979596
 20
13.76781736230405
 30
0.0
 10
170.3528955926183
 20
13.77809486683439
 30
0.0
 10
170.1881733753743
 20
13.81966573769151
 30
0.0
 10
170.0834410841056
 20
13.88797642883947
 30
0.0
 10
169.9350960790365
 20
13.93675219032108
 30
0.0
 10
169.998037819473
 20
14.02976591290841
 30
0.0
 10
170.0072274430059
 20
14.1029653624828
 30
0.0
 10
170.0303711301232
 20
14.16936294501345
 30
0.0
 10
170.0034588335316
 20
14.26974809527581
 30
0.0
 10
170.0521338956339
 20
14.26234033517379
 30
0.0
 10
170.0916530580697
 20
14.26894063620895
 30
0.0
 10
170.0996204944701
 20
14.1907870321893
 30
0.0
 10
170.1305436967922
 20
14.15600927375853
 30
0.0
 10
170.1465954835851
 20
14.1379566321599
 30
0.0
 11
170.1465954835851
 21
14.1379566321599
 31
0.0
 11
170.1982038075864
 21
14.07729869814737
 31
0.0
 11
170.2601105501335
 21
14.0227129516332
 31
0.0
 11
170.3327764009802
 21
13.97583980928383
 31
0.0
 11
170.4166468655843
 21
13.9383990627654
 31
0.0
 11
170.511221073241
 21
13.91390636311879
 31
0.0
 11
170.6161603327165
 21
13.90575829888471
 31
0.0
 11
170.7240739497552
 21
13.91564048638223
 31
0.0
 11
170.8208419941616
 21
13.9452870488748
 31
0.0
 11
170.9050776083319
 21
13.99175118948819
 31
0.0
 11
170.9756144207686
 21
14.05191413218149
 31
0.0
 11
171.031944210998
 21
14.12505819466318
 31
0.0
 11
171.0736690016003
 21
14.2102143404752
 31
0.0
 11
171.0994680808033
 21
14.30436190989614
 31
0.0
 11
171.1080824729446
 21
14.4045155209822
 31
0.0
 11
171.0878517703357
 21
14.54643250879396
 31
0.0
 11
171.0272522666732
 21
14.65566684036389
 31
0.0
 11
170.9364971286286
 21
14.74081306430097
 31
0.0
 11
170.826010188474
 21
14.81052746532519
 31
0.0
 11
170.7008523531254
 21
14.86979854169923
 31
0.0
 11
170.5662951950998
 21
14.9240425347412
 31
0.0
 11
170.4316884277007
 21
14.98201274306003
 31
0.0
 11
170.3065802017258
 21
15.0529739930423
 31
0.0
 11
170.196027609828
 21
15.14113315968692
 31
0.0
 11
170.1053381235265
 21
15.25080295132619
 31
0.0
 11
170.0447055469484
 21
15.39179720476311
 31
0.0
 11
170.0245079172553
 21
15.57413260402311
 31
0.0
 11
170.0374030471347
 21
15.71216131926639
 31
0.0
 11
170.0761016659391
 21
15.8373312845129
 31
0.0
 11
170.1393141731506
 21
15.94779262129085
 31
0.0
 11
170.2257499954545
 21
16.0419688539062
 31
0.0
 11
170.3336492808962
 21
16.1184654077065
 31
0.0
 11
170.4613526283328
 21
16.1761567010949
 31
0.0
 11
170.6075393259923
 21
16.21220066809973
 31
0.0
 11
170.770976856545
 21
16.2242138538606
 31
0.0
 11
170.9248918431289
 21
16.21434269066864
 31
0.0
 11
171.0564887242607
 21
16.18477329831499
 31
0.0
 11
171.172563634494
 21
16.13439993895253
 31
0.0
 11
171.2800792741122
 21
16.0626416316788
 31
0.0
 11
171.2516994050444
 21
16.00236624106888
 31
0.0
 11
171.2284855254283
 21
15.9387901733765
 31
0.0
 11
171.2078381040801
 21
15.8647884199227
 31
0.0
 11
171.1871840681487
 21
15.7736019789733
 31
0.0
 11
171.1665597978415
 21
15.7736019789733
 31
0.0
 11
171.1459355275344
 21
15.7736019789733
 31
0.0
 11
171.1256706495791
 21
15.82395108486346
 31
0.0
 11
171.0994658759421
 21
15.8785004511693
 31
0.0
 11
171.0650468924451
 21
15.93316116296115
 31
0.0
 11
171.0203554612937
 21
15.98349593725411
 31
0.0
 11
170.9657333359511
 21
16.02777175321527
 31
0.0
 11
170.9016722004326
 21
16.06436142334501
 31
0.0
 11
170.8259682961141
 21
16.08882545979726
 31
0.0
 11
170.7365722046449
 21
16.0970110066702
 31
0.0
 11
170.6440937174208
 21
16.08926973931102
 31
0.0
 11
170.5594072091646
 21
16.0660900344557
 31
0.0
 11
170.483702448884
 21
16.02863495634009
 31
0.0
 11
170.4183754766516
 21
15.978327742811
 31
0.0
 11
170.3650487887664
 21
15.91600293379879
 31
0.0
 11
170.3254809233901
 21
15.8424994789561
 31
0.0
 11
170.3009523754711
 21
15.75988443557394
 31
0.0
 11
170.2927954104108
 21
15.6704232984435
 31
0.0
 11
170.3130095765618
 21
15.5259530814657
 31
0.0
 11
170.3736256166821
 21
15.41591177072939
 31
0.0
 11
170.4643479320758
 21
15.33033670130633
 31
0.0
 11
170.5748676948813
 21
15.25941954854621
 31
0.0
 11
170.7000089937719
 21
15.1991430555058
 31
0.0
 11
170.8345826882553
 21
15.1459044791302
 31
0.0
 11
170.9691729191968
 21
15.09039489581074
 31
0.0
 11
171.0942976816297
 21
15.0237728124941
 31
0.0
 11
171.204800907977
 21
14.9411886371675
 31
0.0
 11
171.2955397598288
 21
14.8380000347627
 31
0.0
 11
171.3561557999489
 21
14.70552315979584
 31
0.0
 11
171.3763699660998
 21
14.53526378483839
 31
0.0
 11
171.3621839747998
 21
14.38133030397411
 31
0.0
 11
171.3196087009193
 21
14.23605531269099
 31
0.0
 11
171.2499752884265
 21
14.10398854189069
 31
0.0
 11
171.1544992078713
 21
13.9900721877525
 31
0.0
 11
171.0341060772624
 21
13.89715272597017
 31
0.0
 11
170.8896160201846
 21
13.8283235766818
 31
0.0
 11
170.7223519532713
 21
13.78581275203967
 31
0.0
 11
170.5336103348226
 21
13.7716586461404
 31
0.0
 11
170.3405031726387
 21
13.78581275203967
 31
0.0
 11
170.1878975900911
 21
13.8283235766818
 31
0.0
 11
170.0661897942203
 21
13.88899033013893
 31
0.0
 11
169.9660261826363
 21
13.95734322942739
 31
0.0
 11
169.9922320587039
 21
14.03255545163078
 31
0.0
 11
170.0090121537618
 21
14.10014767383611
 31
0.0
 11
170.0206196447852
 21
14.17275926235961
 31
0.0
 11
170.0313606254139
 21
14.2635278821286
 31
0.0
 11
170.0520069443315
 21
14.2635278821286
 31
0.0
 11
170.0726532632492
 21
14.2635278821286
 31
0.0
 11
170.1048916391629
 21
14.20119204881082
 31
0.0
 11
170.1465954835851
 21
14.1379566321599
 31
0.0
  0
SPLINE
  5
B5
102
{ACAD_REACTORS
330
D3
102
}
330
48
100
AcDbEntity
  8
_U_30EC_U_30A4_U_30E4_U_30FC_1
  6
Continuous
 62
     2
100
AcDbSpline
210
0.0
220
0.0
230
1.0
 70
    11
 71
     3
 72
    57
 73
    53
 74
    51
 42
0.000000001
 43
0.0000000001
 44
0.00000001
 40
0.0
 40
0.0
 40
0.0
 40
0.0
 40
0.0471632082808921
 40
0.0914861054632111
 40
0.1357762519702346
 40
0.1826527001610641
 40
0.229520328857255
 40
0.2737751972220719
 40
0.3181310461543017
 40
0.3652607198398426
 40
0.4571007286313989
 40
0.5671851029164828
 40
0.6894623283867831
 40
0.8181758272545507
 40
0.9510087229273481
 40
1.085852229674046
 40
1.218126164475279
 40
1.343545131142366
 40
1.454537202956781
 40
1.56718760753079
 40
1.68071096664238
 40
1.794226869736688
 40
1.900009184247544
 40
2.004085860447767
 40
2.108162674451711
 40
2.214000150155283
 40
2.49603857735212
 40
2.762350745479285
 40
2.997275353279414
 40
3.185110082137701
 40
3.246407890063926
 40
3.312607550212656
 40
3.378877742711557
 40
3.440140399651409
 40
4.100501696006398
 40
4.754913085563438
 40
5.411331693423832
 40
6.07789043256862
 40
6.110575292670899
 40
6.143260152775679
 40
6.367989363395036
 40
6.610525374951424
 40
6.863389136467209
 40
7.119380025547452
 40
7.376036605091011
 40
7.631164770966201
 40
7.876722425456316
 40
8.104953735855851
 40
8.312916685924215
 40
8.497730294941176
 40
8.651018984313769
 40
8.764738853624452
 40
8.764738853624452
 40
8.764738853624452
 40
8.764738853624452
 10
174.7922649500513
 20
13.81626739612931
 30
0.0
 10
174.7766616726931
 20
13.81826231079081
 30
0.0
 10
174.7463947960302
 20
13.82213201360301
 30
0.0
 10
174.7010994202252
 20
13.82341984967265
 30
0.0
 10
174.6559553129349
 20
13.82308683554049
 30
0.0
 10
174.6099017123399
 20
13.82314658674222
 30
0.0
 10
174.5640496172096
 20
13.82325813649999
 30
0.0
 10
174.5183711648164
 20
13.82277833456587
 30
0.0
 10
174.4750811541608
 20
13.82461109618723
 30
0.0
 10
174.4039947951514
 20
13.80049556814663
 30
0.0
 10
174.4057477261441
 20
13.92184693977253
 30
0.0
 10
174.358619637057
 20
14.00726239751233
 30
0.0
 10
174.3191478251762
 20
14.12486929345137
 30
0.0
 10
174.2706635532645
 20
14.24232752540438
 30
0.0
 10
174.2201017402522
 20
14.3640593576151
 30
0.0
 10
174.1718634610477
 20
14.49075967862468
 30
0.0
 10
174.1135232947594
 20
14.59933687784953
 30
0.0
 10
174.0980892667262
 20
14.75620657134415
 30
0.0
 10
173.9566586330635
 20
14.72373446548319
 30
0.0
 10
173.8508397414903
 20
14.73512888682181
 30
0.0
 10
173.7358569725222
 20
14.73392591514613
 30
0.0
 10
173.6253142252141
 20
14.73506945347408
 30
0.0
 10
173.5176583522784
 20
14.73418350037525
 30
0.0
 10
173.4121322529243
 20
14.7341660239052
 30
0.0
 10
173.3109192682013
 20
14.72714032472412
 30
0.0
 10
173.1266804827753
 20
14.75135859859875
 30
0.0
 10
173.1157393685412
 20
14.44741691121882
 30
0.0
 10
173.0087691634749
 20
14.22353177253399
 30
0.0
 10
172.9098148604347
 20
14.03895314292497
 30
0.0
 10
172.9225090524007
 20
13.79530204804213
 30
0.0
 10
172.8050091716397
 20
13.82508046753198
 30
0.0
 10
172.742205586831
 20
13.82258089509599
 30
0.0
 10
172.67858720934
 20
13.82344075102806
 30
0.0
 10
172.3946014194075
 20
13.78098039941958
 30
0.0
 10
173.0251638499381
 20
14.50081952444783
 30
0.0
 10
173.1087645289073
 20
15.01276539435723
 30
0.0
 10
173.4929252789338
 20
15.53353743550043
 30
0.0
 10
173.4777208288565
 20
16.2351962625321
 30
0.0
 10
173.7239265722697
 20
16.22345633081255
 30
0.0
 10
173.8256346157561
 20
16.23225004452771
 30
0.0
 10
173.8249752035818
 20
15.98059650730348
 30
0.0
 10
173.9428317155828
 20
15.7981802073396
 30
0.0
 10
174.0315515260485
 20
15.55563740662868
 30
0.0
 10
174.1322292485259
 20
15.32340030530129
 30
0.0
 10
174.2311142712243
 20
15.08674644566914
 30
0.0
 10
174.3299676990669
 20
14.85461739170092
 30
0.0
 10
174.4256166390925
 20
14.63122222788788
 30
0.0
 10
174.5159904573272
 20
14.42272549049317
 30
0.0
 10
174.5989944568188
 20
14.23308448529319
 30
0.0
 10
174.6726088582799
 20
14.066631060681
 30
0.0
 10
174.7342815895545
 20
13.929176996261
 30
0.0
 10
174.7749458885604
 20
13.84999239430036
 30
0.0
 10
174.7922649500513
 20
13.81626739612931
 30
0.0
 11
174.7922649500513
 21
13.81626739612931
 31
0.0
 11
174.7453878317448
 21
13.82145433189186
 31
0.0
 11
174.7010975896125
 21
13.8231553822386
 31
0.0
 11
174.6568074431729
 21
13.8231553822386
 31
0.0
 11
174.6099309947159
 21
13.8231553822386
 31
0.0
 11
174.5630633657033
 21
13.8231553822386
 31
0.0
 11
174.5188084970408
 21
13.8231553822386
 31
0.0
 11
174.4744852776854
 21
13.82145433189186
 31
0.0
 11
174.4276419021443
 21
13.81626739612931
 31
0.0
 11
174.3992532136325
 21
13.90360966173245
 31
0.0
 11
174.3622721815898
 21
14.0072965627482
 31
0.0
 11
174.3188386236701
 21
14.12159987001128
 31
0.0
 11
174.2711055866936
 21
14.24113531268969
 31
0.0
 11
174.2208160133237
 21
14.36408057307565
 31
0.0
 11
174.1696467003932
 21
14.4888382292945
 31
0.0
 11
174.1197531801326
 21
14.61134141502773
 31
0.0
 11
174.0733119111841
 21
14.7278451736792
 31
0.0
 11
173.9623611907589
 21
14.73087465284505
 31
0.0
 11
173.8497309225089
 21
14.7330045486779
 31
0.0
 11
173.7362152069449
 21
14.73432195319139
 31
0.0
 11
173.6227000476801
 21
14.73473315978851
 31
0.0
 11
173.5169185312816
 21
14.73432195319139
 31
0.0
 11
173.4128501919226
 21
14.7330045486779
 31
0.0
 11
173.3087951724045
 21
14.73087465284505
 31
0.0
 11
173.2030010615596
 21
14.7278451736792
 31
0.0
 11
173.0980914750139
 21
14.46604437513351
 31
0.0
 11
173.0034868690331
 21
14.2171023265846
 31
0.0
 11
172.9252231210298
 21
13.99559756969557
 31
0.0
 11
172.8693431224555
 21
13.81626739612931
 31
0.0
 11
172.8082651639442
 21
13.82145433189186
 31
0.0
 11
172.742087361813
 21
13.8231553822386
 31
0.0
 11
172.6758390041282
 21
13.82145433189186
 31
0.0
 11
172.6147963233938
 21
13.81626739612931
 31
0.0
 11
172.889968495193
 21
14.41656508695141
 31
0.0
 11
173.1582945734171
 21
15.0134364236077
 31
0.0
 11
173.4240277350405
 21
15.61366245644379
 31
0.0
 11
173.6914740737033
 21
16.2242138538606
 31
0.0
 11
173.7241589339806
 21
16.2242138538606
 31
0.0
 11
173.7568437942579
 21
16.2242138538606
 31
0.0
 11
173.8428300681057
 21
16.01658539037086
 31
0.0
 11
173.9357285813609
 21
15.7925461456352
 31
0.0
 11
174.0328714521463
 21
15.55908663180469
 31
0.0
 11
174.1317936458031
 21
15.3229812846415
 31
0.0
 11
174.2315341249927
 21
15.08649780379783
 31
0.0
 11
174.3313071129353
 21
14.85168781253709
 31
0.0
 11
174.4280608257448
 21
14.6259949219685
 31
0.0
 11
174.5188084970408
 21
14.4165805209792
 31
0.0
 11
174.6022150834546
 21
14.22607611130459
 31
0.0
 11
174.6770293263377
 21
14.0570823266247
 31
0.0
 11
174.7410729186603
 21
13.91781337700667
 31
0.0
 11
174.7922649500513
 21
13.81626739612931
 31
0.0
  0
SPLINE
  5
B6
102
{ACAD_REACTORS
330
D3
102
}
330
48
100
AcDbEntity
  8
_U_30EC_U_30A4_U_30E4_U_30FC_1
  6
Continuous
 62
     2
100
AcDbSpline
210
0.0
220
0.0
230
1.0
 70
    11
 71
     3
 72
    25
 73
    21
 74
    19
 42
0.000000001
 43
0.0000000001
 44
0.00000001
 40
0.0
 40
0.0
 40
0.0
 40
0.0
 40
0.0911479969065388
 40
0.1858117896204662
 40
0.2804128399734486
 40
0.3715889190714506
 40
0.4679080494218704
 40
0.5642683809229225
 40
0.6605683222644985
 40
0.7569653015810248
 40
0.8561348172522699
 40
1.092615965104277
 40
1.374867658141851
 40
1.611348812011566
 40
1.710518328425211
 40
1.809403163726526
 40
2.045205463294019
 40
2.326646917622067
 40
2.562449217190521
 40
2.661334043833836
 40
2.661334043833836
 40
2.661334043833836
 40
2.661334043833836
 10
173.2683700567199
 20
14.8861453819729
 30
0.0
 10
173.2987525917923
 20
14.88598079714554
 30
0.0
 10
173.3606895889112
 20
14.88564528689922
 30
0.0
 10
173.454135696033
 20
14.88269055452001
 30
0.0
 10
173.5475095236357
 20
14.87977752877152
 30
0.0
 10
173.6417760753476
 20
14.87894201643416
 30
0.0
 10
173.7354964790966
 20
14.87996644658046
 30
0.0
 10
173.8352040303205
 20
14.87916977470971
 30
0.0
 10
173.9188949546313
 20
14.88921410235218
 30
0.0
 10
174.0637996315045
 20
14.86234617674163
 30
0.0
 10
173.9396132444801
 20
15.03665530280046
 30
0.0
 10
173.8965867286281
 20
15.19651711006087
 30
0.0
 10
173.780892214221
 20
15.45518458550212
 30
0.0
 10
173.7017565431256
 20
15.59231052861852
 30
0.0
 10
173.6431576621816
 20
15.80937033134071
 30
0.0
 10
173.5864803939438
 20
15.59266134213422
 30
0.0
 10
173.5052809900477
 20
15.45327012438232
 30
0.0
 10
173.4063701281488
 20
15.20406969370191
 30
0.0
 10
173.3253625094259
 20
15.01925830226071
 30
0.0
 10
173.2813683325838
 20
14.91650446856114
 30
0.0
 10
173.2683700567199
 20
14.8861453819729
 30
0.0
 11
173.2683700567199
 21
14.8861453819729
 31
0.0
 11
173.3595137737821
 21
14.8852612326676
 31
0.0
 11
173.4541428297581
 21
14.882696979196
 31
0.0
 11
173.5487082179706
 21
14.88009965280779
 31
0.0
 11
173.6398803250196
 21
14.8792485764191
 31
0.0
 11
173.7361985777706
 21
14.87965978301621
 31
0.0
 11
173.8325499034376
 21
14.8809771875297
 31
0.0
 11
173.9288262638286
 21
14.88310818579311
 31
0.0
 11
174.0251753846343
 21
14.8861453819729
 31
0.0
 11
173.9854633323141
 21
14.97701642195018
 31
0.0
 11
173.8907653613968
 21
15.19370890189598
 31
0.0
 11
173.7777387509471
 21
15.45234186183131
 31
0.0
 11
173.6830407800297
 21
15.66903434177711
 31
0.0
 11
173.6433287277095
 21
15.75990538175439
 31
0.0
 11
173.6043330259266
 21
15.66903434177711
 31
0.0
 11
173.5113432755212
 21
15.45234186183131
 31
0.0
 11
173.4003555089082
 21
15.19370890189599
 31
0.0
 11
173.3073657585028
 21
14.97701642195018
 31
0.0
 11
173.2683700567199
 21
14.8861453819729
 31
0.0
  0
SPLINE
  5
B7
102
{ACAD_REACTORS
330
D4
102
}
330
48
100
AcDbEntity
  8
_U_30EC_U_30A4_U_30E4_U_30FC_1
  6
Continuous
 62
     2
100
AcDbSpline
210
0.0
220
0.0
230
1.0
 70
    11
 71
     3
 72
    95
 73
    91
 74
    89
 42
0.000000001
 43
0.0000000001
 44
0.00000001
 40
0.0
 40
0.0
 40
0.0
 40
0.0
 40
0.6550406656911508
 40
1.30808728903191
 40
1.420803739835791
 40
1.566130759770794
 40
1.757067341888434
 40
2.006513545026423
 40
2.087328263121511
 40
2.185328872295626
 40
2.294612454748367
 40
2.408936380534788
 40
2.52680276779854
 40
2.646360524615595
 40
2.762535723971563
 40
2.870057342870133
 40
2.966883448431661
 40
3.050803243518291
 40
3.115818222436589
 40
3.156030057150187
 40
3.213914225080087
 40
3.276689026450486
 40
3.342960320981262
 40
3.404230667150509
 40
3.453822809493282
 40
3.532499827188283
 40
3.634775188507063
 40
3.754909333008059
 40
3.88973676166057
 40
4.035769602175079
 40
4.187256681197529
 40
4.338733685675828
 40
4.488478734676026
 40
4.634708317831476
 40
4.771493189921143
 40
4.892686571561121
 40
5.199775528944344
 40
5.460353566929506
 40
5.667603142345404
 40
5.814722905404384
 40
5.828990806219682
 40
5.855488336304379
 40
5.869756237118711
 40
6.189796507762725
 40
6.531890469872905
 40
6.883053637016897
 40
7.230512024911356
 40
7.566966656764457
 40
7.885203559707267
 40
8.17288743971908
 40
8.418011594062637
 40
8.443926721190559
 40
8.510760470613045
 40
8.602145393795553
 40
8.70171404164699
 40
8.79309896507522
 40
8.859932715057791
 40
8.88584784260344
 40
9.242301256612645
 40
9.589275455016558
 40
9.921808543164012
 40
10.23479624298452
 40
10.29968150889162
 40
10.3532349388775
 40
10.40154625355135
 40
10.4648292247781
 40
10.55973900668388
 40
10.69239545985607
 40
10.84920353475657
 40
11.01626328594764
 40
11.18672024367426
 40
11.35372582577196
 40
11.50257442292409
 40
11.61866495023277
 40
11.71329869152862
 40
11.82511050573891
 40
11.94464880845701
 40
12.06929242642491
 40
12.19707290435164
 40
12.32562632860512
 40
12.45034565331266
 40
12.56646595170312
 40
12.67099007414621
 40
12.76077625936769
 40
12.82703233506683
 40
12.87429132785979
 40
12.89831990323319
 40
12.92234847860007
 40
13.53984767410308
 40
14.18294284359349
 40
14.18294284359349
 40
14.18294284359349
 40
14.18294284359349
 10
177.3067935648021
 20
14.7089803820172
 30
0.0
 10
177.175201975855
 20
14.82265058603228
 30
0.0
 10
176.9124193802727
 20
15.04964496316154
 30
0.0
 10
176.3997393441024
 20
15.89214462956287
 30
0.0
 10
176.4106654595361
 20
15.53423377577019
 30
0.0
 10
176.4041226527991
 20
15.39267392272132
 30
0.0
 10
176.4028026631773
 20
15.19421305299282
 30
0.0
 10
176.4018117602538
 20
15.02150296045984
 30
0.0
 10
176.4024101751975
 20
14.87865373257581
 30
0.0
 10
176.4038994301883
 20
14.78265005413358
 30
0.0
 10
176.4055683588472
 20
14.6754550326314
 30
0.0
 10
176.4071934954618
 20
14.56164211517583
 30
0.0
 10
176.4092429501684
 20
14.44441572604588
 30
0.0
 10
176.4123165501928
 20
14.32656411232971
 30
0.0
 10
176.4156339697043
 20
14.2122808732062
 30
0.0
 10
176.4193605340279
 20
14.10521401867276
 30
0.0
 10
176.4217338161424
 20
14.0100740876692
 30
0.0
 10
176.4278718888357
 20
13.92558557205694
 30
0.0
 10
176.4239784495947
 20
13.86923087298143
 30
0.0
 10
176.4455230443077
 20
13.7982502247236
 30
0.0
 10
176.3680940058618
 20
13.82902677604485
 30
0.0
 10
176.3116353240191
 20
13.8201124251761
 30
0.0
 10
176.2540495896807
 20
13.82896218398277
 30
0.0
 10
176.1690163478472
 20
13.79738225225949
 30
0.0
 10
176.2009714146382
 20
13.88095155992189
 30
0.0
 10
176.1990705282539
 20
13.94882608968307
 30
0.0
 10
176.2107960047299
 20
14.05233256764416
 30
0.0
 10
176.2164241053
 20
14.17002125616694
 30
0.0
 10
176.2237902178941
 20
14.30388609164421
 30
0.0
 10
176.2320759701612
 20
14.44764152872629
 30
0.0
 10
176.2398851897426
 20
14.59714022843443
 30
0.0
 10
176.2457571222659
 20
14.74792549402077
 30
0.0
 10
176.2503667817969
 20
14.89699943878435
 30
0.0
 10
176.2542632117542
 20
15.0412291316302
 30
0.0
 10
176.2570715126564
 20
15.17583905213016
 30
0.0
 10
176.2576698755022
 20
15.36469614347352
 30
0.0
 10
176.2616023867151
 20
15.58975494313152
 30
0.0
 10
176.2442175378497
 20
15.86367091125706
 30
0.0
 10
176.2850417342584
 20
16.02787112098592
 30
0.0
 10
176.1995153256002
 20
16.22749661465096
 30
0.0
 10
176.2660558907688
 20
16.22385458403976
 30
0.0
 10
176.283872427323
 20
16.22413447160852
 30
0.0
 10
176.4056801797504
 20
16.2263292739861
 30
0.0
 10
176.5080770335462
 20
15.94675118721512
 30
0.0
 10
176.7580021509356
 20
15.74563008536
 30
0.0
 10
176.9870035331109
 20
15.47792614987914
 30
0.0
 10
177.2245151213109
 20
15.22646413862376
 30
0.0
 10
177.4486090740772
 20
14.98969974061359
 30
0.0
 10
177.6750716283009
 20
14.73218692583082
 30
0.0
 10
177.8325687886515
 20
14.61649335056923
 30
0.0
 10
178.0472129612673
 20
14.27997152538795
 30
0.0
 10
178.0422645974619
 20
14.40464754091604
 30
0.0
 10
178.0433931602546
 20
14.46327691935738
 30
0.0
 10
178.0428877841517
 20
14.55043662371978
 30
0.0
 10
178.0430475158113
 20
14.64416143182872
 30
0.0
 10
178.0430054891318
 20
14.73018971297035
 30
0.0
 10
178.0430202040372
 20
14.79153891945495
 30
0.0
 10
178.0429706255982
 20
14.94135231520992
 30
0.0
 10
178.0458811522811
 20
15.17989612510103
 30
0.0
 10
178.0259521041162
 20
15.54486509868698
 30
0.0
 10
178.0750433936248
 20
15.80799631993412
 30
0.0
 10
177.917795150918
 20
16.21928904947747
 30
0.0
 10
178.0762112872421
 20
16.1639828255175
 30
0.0
 10
178.1311680478628
 20
16.16199686500178
 30
0.0
 10
178.182788776674
 20
16.16264778248254
 30
0.0
 10
178.2713198965366
 20
16.20369527738244
 30
0.0
 10
178.2204898303168
 20
16.05696326622985
 30
0.0
 10
178.2313389930283
 20
15.95019971954432
 30
0.0
 10
178.2166036994847
 20
15.7908570541411
 30
0.0
 10
178.2099976446204
 20
15.62853061652875
 30
0.0
 10
178.2014961399915
 20
15.45992521892396
 30
0.0
 10
178.1943227202198
 20
15.29814814703543
 30
0.0
 10
178.1889063215389
 20
15.15422331457933
 30
0.0
 10
178.1871713967648
 20
15.03437493466925
 30
0.0
 10
178.1875440672318
 20
14.92686101590514
 30
0.0
 10
178.1873656126263
 20
14.81820024645586
 30
0.0
 10
178.1877010863139
 20
14.69953570165531
 30
0.0
 10
178.1890040622184
 20
14.5755516351274
 30
0.0
 10
178.1908887351574
 20
14.44858294171105
 30
0.0
 10
178.192500445485
 20
14.3215386155103
 30
0.0
 10
178.194140313743
 20
14.19854884492178
 30
0.0
 10
178.1962570745753
 20
14.08300931383758
 30
0.0
 10
178.1963848422363
 20
13.98090903955836
 30
0.0
 10
178.2006514396554
 20
13.89009848838154
 30
0.0
 10
178.1908440085289
 20
13.83213621208784
 30
0.0
 10
178.2118474771689
 20
13.76517130132028
 30
0.0
 10
178.1725639739897
 20
13.77291153966686
 30
0.0
 10
177.9595307117743
 20
13.75755254145193
 30
0.0
 10
177.7636297943189
 20
14.3140305809447
 30
0.0
 10
177.4611197631543
 20
14.57556035348507
 30
0.0
 10
177.3067935648021
 20
14.7089803820172
 30
0.0
 11
177.3067935648021
 21
14.7089803820172
 31
0.0
 11
176.8595529338511
 21
15.18757635411975
 31
0.0
 11
176.4124049070644
 21
15.6635264928897
 31
0.0
 11
176.4089664262494
 21
15.55086249986231
 31
0.0
 11
176.40556101835
 21
15.40557538184309
 31
0.0
 11
176.4029636920274
 21
15.21465645827969
 31
0.0
 11
176.4021126156603
 21
14.96521170139759
 31
0.0
 11
176.402523923029
 21
14.88439802954282
 31
0.0
 11
176.4038420329818
 21
14.7864062847756
 31
0.0
 11
176.4055192267718
 21
14.67713557299738
 31
0.0
 11
176.4072367127518
 21
14.5628245487204
 31
0.0
 11
176.4094007838772
 21
14.44497802965266
 31
0.0
 11
176.4124049070644
 21
14.32545802100199
 31
0.0
 11
176.4158359733138
 21
14.20933349846156
 31
0.0
 11
176.4192928929998
 21
14.1018674655023
 31
0.0
 11
176.4227085253088
 21
14.00510162351261
 31
0.0
 11
176.4261896983793
 21
13.92125406276971
 31
0.0
 11
176.4296006184313
 21
13.8563286200776
 31
0.0
 11
176.4330776843148
 21
13.81626739612931
 31
0.0
 11
176.3754263821571
 21
13.82145433189186
 31
0.0
 11
176.3126746318309
 21
13.8231553822386
 31
0.0
 11
176.2464251717157
 21
13.82145433189186
 31
0.0
 11
176.1853747739675
 21
13.81626739612931
 31
0.0
 11
176.1926772737812
 21
13.8653189412559
 31
0.0
 11
176.2008793569054
 21
13.9435672572085
 31
0.0
 11
176.2090098822348
 21
14.04551893253028
 31
0.0
 11
176.2163406441397
 21
14.16542920159751
 31
0.0
 11
176.2236358280422
 21
14.3000591234389
 31
0.0
 11
176.2318444255597
 21
14.44586107652739
 31
0.0
 11
176.2395504149466
 21
14.59715203135074
 31
0.0
 11
176.2455763002094
 21
14.7485091320073
 31
0.0
 11
176.2503046247416
 21
14.89817951391435
 31
0.0
 11
176.254192897212
 21
15.0443573958222
 31
0.0
 11
176.2567527408965
 21
15.18111831592692
 31
0.0
 11
176.2576324804574
 21
15.3023085068689
 31
0.0
 11
176.257192610677
 21
15.60939715262543
 31
0.0
 11
176.2559126888347
 21
15.86997204839361
 31
0.0
 11
176.2528658717893
 21
16.07719922716123
 31
0.0
 11
176.2473049112763
 21
16.2242138538606
 31
0.0
 11
176.2615728121469
 21
16.2242138538606
 31
0.0
 11
176.2880703423352
 21
16.2242138538606
 31
0.0
 11
176.3023382432058
 21
16.2242138538606
 31
0.0
 11
176.5194743650277
 21
15.9891017966277
 31
0.0
 11
176.7512744123079
 21
15.7375128123156
 31
0.0
 11
176.9894816018839
 21
15.47949555543568
 31
0.0
 11
177.2260074557521
 21
15.22497079855489
 31
0.0
 11
177.4555698717705
 21
14.97899759549138
 31
0.0
 11
177.6731797360103
 21
14.7467893403411
 31
0.0
 11
177.8713724913707
 21
14.53826680567101
 31
0.0
 11
178.0430143099086
 21
14.3632669793259
 31
0.0
 11
178.0430143099086
 21
14.38918210687044
 31
0.0
 11
178.0430143099086
 21
14.45601585685372
 31
0.0
 11
178.0430143099086
 21
14.54740078030025
 31
0.0
 11
178.0430143099086
 21
14.64696942823454
 31
0.0
 11
178.0430143099086
 21
14.73835435168107
 31
0.0
 11
178.0430143099086
 21
14.80518810166435
 31
0.0
 11
178.0430143099086
 21
14.83110322920889
 31
0.0
 11
178.0417233637609
 21
15.18755430550866
 31
0.0
 11
178.0378461155958
 21
15.5345068401441
 31
0.0
 11
178.0296197790002
 21
15.86693815950551
 31
0.0
 11
178.0154535467228
 21
16.17960510387179
 31
0.0
 11
178.0790351249618
 21
16.16666367158336
 31
0.0
 11
178.1324170159611
 21
16.1623807288761
 31
0.0
 11
178.1805381084833
 21
16.16666367158336
 31
0.0
 11
178.2424836798197
 21
16.17960510387179
 31
0.0
 11
178.2351216487575
 21
16.08498128445103
 31
0.0
 11
178.2269790968818
 21
15.9525749650396
 31
0.0
 11
178.2183705364004
 21
15.79600336785655
 31
0.0
 11
178.2097547223215
 21
15.62916593734271
 31
0.0
 11
178.2016187850288
 21
15.45890325509363
 31
0.0
 11
178.1942501393835
 21
15.292060312427
 31
0.0
 11
178.1891406931522
 21
15.14329943572812
 31
0.0
 11
178.1874503478904
 21
15.027221215271
 31
0.0
 11
178.1874503478904
 21
14.93258747397516
 31
0.0
 11
178.1874503478904
 21
14.82077565976709
 31
0.0
 11
178.1878461204497
 21
14.70123801222749
 31
0.0
 11
178.1890819450708
 21
14.5766005209392
 31
0.0
 11
178.1908392193317
 21
14.44883212687388
 31
0.0
 11
178.1925303477608
 21
14.32028982655881
 31
0.0
 11
178.1942876220215
 21
14.19558288214553
 31
0.0
 11
178.1959787504506
 21
14.0794748960635
 31
0.0
 11
178.1972884379172
 21
13.97495896727016
 31
0.0
 11
178.1976985420735
 21
13.88517371555651
 31
0.0
 11
178.1976985420735
 21
13.81891763918413
 31
0.0
 11
178.1976985420735
 21
13.7716586461404
 31
0.0
 11
178.1736699662976
 21
13.7716586461404
 31
0.0
 11
178.1496413905217
 21
13.7716586461404
 31
0.0
 11
177.7410729200423
 21
14.23466735262191
 31
0.0
 11
177.3067935648021
 21
14.7089803820172
 31
0.0
  0
SPLINE
  5
B8
102
{ACAD_REACTORS
330
D5
102
}
330
48
100
AcDbEntity
  8
_U_30EC_U_30A4_U_30E4_U_30FC_1
  6
Continuous
 62
     2
100
AcDbSpline
210
0.0
220
0.0
230
1.0
 70
    11
 71
     3
 72
   110
 73
   106
 74
   104
 42
0.000000001
 43
0.0000000001
 44
0.00000001
 40
0.0
 40
0.0
 40
0.0
 40
0.0
 40
0.2203406257277613
 40
0.4407808782838126
 40
0.5952494494615108
 40
0.7488431659393125
 40
0.9023581831309095
 40
1.056801968670408
 40
1.210736449099908
 40
1.363041386539785
 40
1.515315729683158
 40
1.669377239148166
 40
1.721611652756682
 40
1.773199502943085
 40
1.824933793210093
 40
1.877110426488126
 40
1.98268228120695
 40
2.078781667087788
 40
2.172809640822508
 40
2.271937807379161
 40
2.378349933379553
 40
2.494131557736741
 40
2.626681683943875
 40
2.783145050796303
 40
2.890701232941144
 40
2.993130312455082
 40
3.099869730692028
 40
3.220237816691513
 40
3.352695482737789
 40
3.481732806390101
 40
3.593499473690593
 40
3.674323013332138
 40
3.817951711953003
 40
3.946167120794001
 40
4.061405053453686
 40
4.166480796003328
 40
4.262478775059363
 40
4.350736673551321
 40
4.433071991254203
 40
4.511216293814803
 40
4.564262454118077
 40
4.618474415571664
 40
4.670128488754298
 40
4.722296879126497
 40
4.819540945314367
 40
4.931194984128223
 40
5.049996040257867
 40
5.168643755415411
 40
5.283970811762623
 40
5.39226078491045
 40
5.486512254876495
 40
5.559178233949837
 40
5.591425852853487
 40
5.626215969637882
 40
5.667155838674422
 40
5.717449290214264
 40
5.738402360944876
 40
5.784499116553838
 40
5.830595872164806
 40
5.851548942897661
 40
5.873019280661775
 40
5.924217778408317
 40
5.985325662817696
 40
6.036524160567713
 40
6.057994498334241
 40
6.236847789607492
 40
6.381409928945685
 40
6.493190424178696
 40
6.574067534230555
 40
6.691018086205649
 40
6.814881554220567
 40
6.94430782324052
 40
7.071266716066144
 40
7.193488604461988
 40
7.309042773128215
 40
7.414007203170841
 40
7.505140441886595
 40
7.531150360599722
 40
7.559221645322323
 40
7.587202218920969
 40
7.612569159499184
 40
7.662550809481044
 40
7.70287887576414
 40
7.857328205230954
 40
8.010799568088599
 40
8.16525639965755
 40
8.322232698713888
 40
8.479564855016546
 40
8.635216230290693
 40
8.790882550925696
 40
8.94830515494726
 40
9.168271839032935
 40
9.387358980987177
 40
9.608047961033401
 40
9.832914234792586
 40
9.85833869496292
 40
9.925366817229936
 40
10.02013071422753
 40
10.12876249858992
 40
10.23739428295243
 40
10.33215817995185
 40
10.39918630222389
 40
10.42461076239778
 40
10.64992019336936
 40
10.87188524531183
 40
10.87188524531183
 40
10.87188524531183
 40
10.87188524531183
 10
179.9057788376619
 20
15.7392326039819
 30
0.0
 10
179.9092864933542
 20
15.80616462073804
 30
0.0
 10
179.9163033987662
 20
15.94005891915858
 30
0.0
 10
179.8198027599072
 20
16.22548554971469
 30
0.0
 10
180.0510134726109
 20
16.16284386190284
 30
0.0
 10
180.1919290057156
 20
16.17001554055983
 30
0.0
 10
180.3490417757588
 20
16.16235883078247
 30
0.0
 10
180.5025913427287
 20
16.16252752283043
 30
0.0
 10
180.6545104935081
 20
16.16182040535435
 30
0.0
 10
180.8142214813231
 20
16.17210158351631
 30
0.0
 10
180.9408972601117
 20
16.15496511080751
 30
0.0
 10
181.1370821122082
 20
16.22727260107147
 30
0.0
 10
181.1034395279078
 20
16.12640699080115
 30
0.0
 10
181.1052011317184
 20
16.07619253947668
 30
0.0
 10
181.1027342073458
 20
16.02712335586462
 30
0.0
 10
181.1347076966013
 20
15.94063490846992
 30
0.0
 10
181.0010399903256
 20
15.9899743860834
 30
0.0
 10
180.9172208688057
 20
15.98430634314171
 30
0.0
 10
180.8173861139323
 20
15.99465516706298
 30
0.0
 10
180.7186576720146
 20
16.00086450411087
 30
0.0
 10
180.6121532771111
 20
16.00697763816776
 30
0.0
 10
180.4910511698059
 20
16.01588883484579
 30
0.0
 10
180.3703381502454
 20
16.00521605912386
 30
0.0
 10
180.1812553843436
 20
16.06468503080364
 30
0.0
 10
180.2129028505311
 20
15.90558320077538
 30
0.0
 10
180.1995563316834
 20
15.80839128339902
 30
0.0
 10
180.197495842645
 20
15.69634065110101
 30
0.0
 10
180.1958188044672
 20
15.57699685629351
 30
0.0
 10
180.1973336794233
 20
15.45032592155108
 30
0.0
 10
180.195658247867
 20
15.32301588016115
 30
0.0
 10
180.2058844271658
 20
15.22451566404461
 30
0.0
 10
180.1779006596583
 20
15.08388702625629
 30
0.0
 10
180.3508029999305
 20
15.13989551134087
 30
0.0
 10
180.4645020202771
 20
15.12719951478504
 30
0.0
 10
180.5840151672239
 20
15.13448377051251
 30
0.0
 10
180.6888491425071
 20
15.13878017056763
 30
0.0
 10
180.7843084898612
 20
15.14330568258973
 30
0.0
 10
180.8763823507032
 20
15.15149201146206
 30
0.0
 10
180.9476551782439
 20
15.14643850638109
 30
0.0
 10
181.0544931705684
 20
15.18536425031669
 30
0.0
 10
181.0226603598037
 20
15.10517122005879
 30
0.0
 10
181.026616450393
 20
15.05562936846034
 30
0.0
 10
181.0234502392014
 20
15.0055747803982
 30
0.0
 10
181.0550791490583
 20
14.92128847612019
 30
0.0
 10
180.9210133677692
 20
14.97425365495158
 30
0.0
 10
180.82923227932
 20
14.96540080890437
 30
0.0
 10
180.7079729189603
 20
14.9757004996516
 30
0.0
 10
180.5914113119772
 20
14.97748911767499
 30
0.0
 10
180.4783375745879
 20
14.97787017109694
 30
0.0
 10
180.3679246308471
 20
14.98415449472185
 30
0.0
 10
180.2898124067841
 20
14.97189133255365
 30
0.0
 10
180.1913625833645
 20
15.00453887616125
 30
0.0
 10
180.2012355173561
 20
14.94769748054208
 30
0.0
 10
180.1973923244403
 20
14.91392130557987
 30
0.0
 10
180.1966789884268
 20
14.87119604709411
 30
0.0
 10
180.1963369642977
 20
14.83401607262153
 30
0.0
 10
180.1963834255345
 20
14.79487237370769
 30
0.0
 10
180.1963649429929
 20
14.75716849497685
 30
0.0
 10
180.1963703431807
 20
14.71944955232402
 30
0.0
 10
180.1963697214202
 20
14.6899432474515
 30
0.0
 10
180.1963698151546
 20
14.65873577699301
 30
0.0
 10
180.1963704287922
 20
14.61414424908084
 30
0.0
 10
180.1963671499338
 20
14.55963956508851
 30
0.0
 10
180.1963759623482
 20
14.51505540201448
 30
0.0
 10
180.1963359653419
 20
14.4311780858574
 30
0.0
 10
180.1976024270255
 20
14.31737520677677
 30
0.0
 10
180.1950274117841
 20
14.16830395933708
 30
0.0
 10
180.206500938172
 20
14.06597203813903
 30
0.0
 10
180.1823506222263
 20
13.93338903885829
 30
0.0
 10
180.3332993946477
 20
13.97895732272016
 30
0.0
 10
180.4428436671555
 20
13.96427012162343
 30
0.0
 10
180.573397047392
 20
13.9692043512506
 30
0.0
 10
180.6990312209514
 20
13.97257705323359
 30
0.0
 10
180.8188730625601
 20
13.97711497498771
 30
0.0
 10
180.9391362611426
 20
13.99048536182003
 30
0.0
 10
181.0222761663516
 20
13.98068712782593
 30
0.0
 10
181.1456080421073
 20
14.04126214623318
 30
0.0
 10
181.1244269203958
 20
13.98532460134018
 30
0.0
 10
181.1235950270115
 20
13.95939249372345
 30
0.0
 10
181.1218963707559
 20
13.93197256190938
 30
0.0
 10
181.1217974888829
 20
13.89738195206384
 30
0.0
 10
181.1203659301329
 20
13.86050408220768
 30
0.0
 10
181.153280419219
 20
13.76846841021811
 30
0.0
 10
180.9551306988107
 20
13.84132015974833
 30
0.0
 10
180.8300548294891
 20
13.81825726508603
 30
0.0
 10
180.6673071295156
 20
13.82454021985784
 30
0.0
 10
180.5129366450001
 20
13.82260943909923
 30
0.0
 10
180.3566670436944
 20
13.82393762599266
 30
0.0
 10
180.1970544465282
 20
13.82059872487859
 30
0.0
 10
180.0540326342237
 20
13.83265795728243
 30
0.0
 10
179.8197144881628
 20
13.76952001976923
 30
0.0
 10
179.9173810751197
 20
14.05620527466319
 30
0.0
 10
179.900686878006
 20
14.2498830814266
 30
0.0
 10
179.9146296709684
 20
14.47848242880293
 30
0.0
 10
179.9142987846632
 20
14.63384593955044
 30
0.0
 10
179.9143078119264
 20
14.73966336444122
 30
0.0
 10
179.9143055876316
 20
14.80205784124211
 30
0.0
 10
179.9143065551889
 20
14.89220425248324
 30
0.0
 10
179.9143065473262
 20
14.99621167157436
 30
0.0
 10
179.9143053861102
 20
15.10022131375294
 30
0.0
 10
179.9143090971502
 20
15.19036243688767
 30
0.0
 10
179.9143011051051
 20
15.25276803097215
 30
0.0
 10
179.9143334275018
 20
15.35868835961119
 30
0.0
 10
179.9131440788319
 20
15.51626716544739
 30
0.0
 10
179.9082216489257
 20
15.66528219822064
 30
0.0
 10
179.9057788376619
 20
15.7392326039819
 30
0.0
 11
179.9057788376619
 21
15.7392326039819
 31
0.0
 11
179.896691822374
 21
15.95938578101016
 31
0.0
 11
179.8868249573133
 21
16.17960510387179
 31
0.0
 11
180.04115751414
 21
16.17312391463727
 31
0.0
 11
180.1946500189046
 21
16.1675489233192
 31
0.0
 11
180.3481160653366
 21
16.16367167505632
 31
0.0
 11
180.5025544554939
 21
16.1623807288761
 31
0.0
 11
180.6564835227473
 21
16.16367167505632
 31
0.0
 11
180.80873910046
 21
16.1675489233192
 31
0.0
 11
180.9609113551074
 21
16.17312391463727
 31
0.0
 11
181.1148364762484
 21
16.17960510387179
 31
0.0
 11
181.1070811703124
 21
16.12794961777356
 31
0.0
 11
181.1044991623591
 21
16.076426423342
 31
0.0
 11
181.1070811703124
 21
16.0247566056466
 31
0.0
 11
181.1148364762484
 21
15.9731595483678
 31
0.0
 11
181.0094874054411
 21
15.98001446156059
 31
0.0
 11
180.913637570006
 21
15.9869355205866
 31
0.0
 11
180.8198593171903
 21
15.993783819196
 31
0.0
 11
180.7209679915881
 21
16.0006321178054
 31
0.0
 11
180.6147532199924
 21
16.00710999974822
 31
0.0
 11
180.4991060528038
 21
16.0126882983579
 31
0.0
 11
180.3666126447258
 21
16.01656554662087
 31
0.0
 11
180.2101546018423
 21
16.0178564928011
 31
0.0
 11
180.2062663293721
 21
15.91037061609186
 31
0.0
 11
180.20153800484
 21
15.8080507289646
 31
0.0
 11
180.197660756675
 21
15.70138175329686
 31
0.0
 11
180.1963698105273
 21
15.5810205901325
 31
0.0
 11
180.1967799146836
 21
15.44856355891566
 31
0.0
 11
180.1980896021502
 21
15.3195328818645
 31
0.0
 11
180.199407457705
 21
15.20777398432308
 31
0.0
 11
180.1998191153661
 21
15.1269514930238
 31
0.0
 11
180.3434452935874
 21
15.12780256941246
 31
0.0
 11
180.4716343930758
 21
15.13039989580079
 31
0.0
 11
180.5868078221795
 21
15.13425509545253
 31
0.0
 11
180.691775631222
 21
15.1390164930208
 31
0.0
 11
180.7876346289421
 21
15.14418027774175
 31
0.0
 11
180.8757413374193
 21
15.1493440624627
 31
0.0
 11
180.9578881438496
 21
15.15491243919737
 31
0.0
 11
181.0357692335571
 21
15.1613208680152
 31
0.0
 11
181.0280180445186
 21
15.10884407115336
 31
0.0
 11
181.0254328449318
 21
15.0546937847086
 31
0.0
 11
181.0280180445186
 21
15.00310444444365
 31
0.0
 11
181.0357692335571
 21
14.9515151041788
 31
0.0
 11
180.9389813454014
 21
14.96092324653756
 31
0.0
 11
180.8275950722015
 21
14.9686512847301
 31
0.0
 11
180.7089261429373
 21
14.97425273438148
 31
0.0
 11
180.5903167449213
 21
14.9772678819501
 31
0.0
 11
180.4750025117521
 21
14.97898767361639
 31
0.0
 11
180.36672619507
 21
14.98070746528261
 31
0.0
 11
180.2724839317708
 21
14.98202486979618
 31
0.0
 11
180.1998191153661
 21
14.9824360763933
 31
0.0
 11
180.199407457705
 21
14.95019108508194
 31
0.0
 11
180.1980896021502
 21
14.91542593752119
 31
0.0
 11
180.1967799146836
 21
14.87450702260086
 31
0.0
 11
180.1963698105273
 21
14.8242152430995
 31
0.0
 11
180.1963698105273
 21
14.8032621723582
 31
0.0
 11
180.1963698105273
 21
14.75716541672736
 31
0.0
 11
180.1963698105273
 21
14.7110686610965
 31
0.0
 11
180.1963698105273
 21
14.69011559035521
 31
0.0
 11
180.1963698105273
 21
14.6686452525828
 31
0.0
 11
180.1963698105273
 21
14.61744675481784
 31
0.0
 11
180.1963698105273
 21
14.55633887038868
 31
0.0
 11
180.1963698105273
 21
14.50514037262371
 31
0.0
 11
180.1963698105273
 21
14.4836700348513
 31
0.0
 11
180.1967799146836
 21
14.30481721371548
 31
0.0
 11
180.1980896021502
 21
14.1602610071544
 31
0.0
 11
180.2002868589709
 21
14.04850210961289
 31
0.0
 11
180.2032586986985
 21
13.9676796183136
 31
0.0
 11
180.3202092517447
 21
13.9676796183136
 31
0.0
 11
180.4440727208746
 21
13.9676796183136
 31
0.0
 11
180.5734925526422
 21
13.96897056449386
 31
0.0
 11
180.7003922282244
 21
13.9728478127568
 31
0.0
 11
180.8224658067973
 21
13.97886708358863
 31
0.0
 11
180.9377587499463
 21
13.98663260442
 31
0.0
 11
181.0421754573518
 21
13.997341614834
 31
0.0
 11
181.1320599255448
 21
14.01237656274689
 31
0.0
 11
181.1264254031191
 21
13.98698427976714
 31
0.0
 11
181.1234433285423
 21
13.959071840538
 31
0.0
 11
181.12213398812
 21
13.93112191867001
 31
0.0
 11
181.1217235369195
 21
13.90575829888471
 31
0.0
 11
181.1243087365064
 21
13.85584355063326
 31
0.0
 11
181.1320599255448
 21
13.81626739612931
 31
0.0
 11
180.9776977178344
 21
13.82145433189186
 31
0.0
 11
180.8242357818765
 21
13.8231553822386
 31
0.0
 11
180.6697789496483
 21
13.8231553822386
 31
0.0
 11
180.5128026496768
 21
13.8231553822386
 31
0.0
 11
180.3554704921536
 21
13.8231553822386
 31
0.0
 11
180.1998191153661
 21
13.8231553822386
 31
0.0
 11
180.0441620874241
 21
13.82145433189186
 31
0.0
 11
179.8868249573133
 21
13.81626739612931
 31
0.0
 11
179.896691822374
 21
14.03601267385212
 31
0.0
 11
179.9057788376619
 21
14.2549112849085
 31
0.0
 11
179.91217215184
 21
14.47550763902
 31
0.0
 11
179.9143063455009
 21
14.70036378479711
 31
0.0
 11
179.9143063455009
 21
14.7257882449687
 31
0.0
 11
179.9143063455009
 21
14.79281636723928
 31
0.0
 11
179.9143063455009
 21
14.88758026424251
 31
0.0
 11
179.9143063455009
 21
14.99621204861205
 31
0.0
 11
179.9143063455009
 21
15.1048438329816
 31
0.0
 11
179.9143063455009
 21
15.19960772998483
 31
0.0
 11
179.9143063455009
 21
15.2666358522554
 31
0.0
 11
179.9143063455009
 21
15.292060312427
 31
0.0
 11
179.9121721518401
 21
15.51735963528733
 31
0.0
 11
179.9057788376619
 21
15.7392326039819
 31
0.0
  0
SPLINE
  5
B9
102
{ACAD_REACTORS
330
D6
102
}
330
48
100
AcDbEntity
  8
_U_30EC_U_30A4_U_30E4_U_30FC_1
  6
Continuous
 62
     2
100
AcDbSpline
210
0.0
220
0.0
230
1.0
 70
    11
 71
     3
 72
    47
 73
    43
 74
    41
 42
0.000000001
 43
0.0000000001
 44
0.00000001
 40
0.0
 40
0.0
 40
0.0
 40
0.0
 40
0.2207912809957301
 40
0.4459404186303237
 40
0.4902387190459467
 40
0.5327473892722467
 40
0.5742260451226022
 40
0.6155432630561877
 40
0.656816406631622
 40
0.6982511618780808
 40
0.7407663929317363
 40
0.7851366743175439
 40
1.010288833836352
 40
1.231080507002213
 40
1.451765243652434
 40
1.676638205891677
 40
1.720461045359648
 40
1.830018144043511
 40
1.972442372353144
 40
2.114866600677511
 40
2.224423699395136
 40
2.268246538883377
 40
2.493628801207246
 40
2.715602830286639
 40
2.934211330706399
 40
3.149502369855345
 40
3.23138778485096
 40
3.318231873853938
 40
3.405143198198011
 40
3.486970301720445
 40
3.702258172493842
 40
3.920866283534078
 40
4.14283932593186
 40
4.36822190386536
 40
4.41204474335984
 40
4.521601842095854
 40
4.664026070452334
 40
4.806450298809044
 40
4.916007397546738
 40
4.95983023704306
 40
5.18470351584705
 40
5.405387250767419
 40
5.405387250767419
 40
5.405387250767419
 40
5.405387250767419
 10
182.6507427258645
 20
15.7340644095387
 30
0.0
 10
182.6568139420002
 20
15.79758482501208
 30
0.0
 10
182.6690762107243
 20
15.92587938689626
 30
0.0
 10
182.5604706879412
 20
16.20166220174076
 30
0.0
 10
182.6761985896603
 20
16.17188133432053
 30
0.0
 10
182.7171842509015
 20
16.16765556262812
 30
0.0
 10
182.7591205797519
 20
16.1631044638961
 30
0.0
 10
182.800419662571
 20
16.16201982929488
 30
0.0
 10
182.8417032115557
 20
16.1631033819523
 30
0.0
 10
182.8836148270647
 20
16.16766112711336
 30
0.0
 10
182.9245983549019
 20
16.17187430209728
 30
0.0
 10
183.0404922843488
 20
16.20177611317533
 30
0.0
 10
182.9295652727456
 20
15.92339806609888
 30
0.0
 10
182.9574856365267
 20
15.74283140824952
 30
0.0
 10
182.940426734697
 20
15.50961042346471
 30
0.0
 10
182.9414637282102
 20
15.34906622543147
 30
0.0
 10
182.9414099399405
 20
15.22284817558725
 30
0.0
 10
182.941427737248
 20
15.12428963336244
 30
0.0
 10
182.9414188581081
 20
14.99280702442966
 30
0.0
 10
182.9414263928033
 20
14.86132844968652
 30
0.0
 10
182.9414129405129
 20
14.76276222694094
 30
0.0
 10
182.9414531717492
 20
14.63639735624153
 30
0.0
 10
182.9406746403817
 20
14.47482068822871
 30
0.0
 10
182.9565958319267
 20
14.24361821892914
 30
0.0
 10
182.9333468885407
 20
14.05874351972002
 30
0.0
 10
183.0360183444367
 20
13.78935602770061
 30
0.0
 10
182.8820238362836
 20
13.82660112685818
 30
0.0
 10
182.8004129802832
 20
13.8213799468053
 30
0.0
 10
182.7188192292583
 20
13.82660620378353
 30
0.0
 10
182.5648513666842
 20
13.78937069885392
 30
0.0
 10
182.6674183421917
 20
14.05875129862881
 30
0.0
 10
182.6442045316088
 20
14.24361585325414
 30
0.0
 10
182.6600444655138
 20
14.47482218565639
 30
0.0
 10
182.6593296313428
 20
14.63639712308505
 30
0.0
 10
182.6593664569907
 20
14.76276231210523
 30
0.0
 10
182.659354900027
 20
14.86132756635985
 30
0.0
 10
182.6593575019214
 20
14.99281127417222
 30
0.0
 10
182.6593648531779
 20
15.12427548031202
 30
0.0
 10
182.6593442541351
 20
15.22287786275329
 30
0.0
 10
182.6594082192028
 20
15.34896149354428
 30
0.0
 10
182.658173394759
 20
15.51210091383772
 30
0.0
 10
182.6532040396745
 20
15.66054183777548
 30
0.0
 10
182.6507427258645
 20
15.7340644095387
 30
0.0
 11
182.6507427258645
 21
15.7340644095387
 31
0.0
 11
182.6417328200379
 21
15.95467178795576
 31
0.0
 11
182.6318769706146
 21
16.17960510387179
 31
0.0
 11
182.6756985840801
 21
16.17312391463727
 31
0.0
 11
182.7178400934215
 21
16.1675489233192
 31
0.0
 11
182.7591371409791
 21
16.16367167505632
 31
0.0
 11
182.8004341885366
 21
16.1623807288761
 31
0.0
 11
182.8416871388731
 21
16.16367167505632
 31
0.0
 11
182.8829400892097
 21
16.1675489233192
 31
0.0
 11
182.9250882131343
 21
16.17312391463727
 31
0.0
 11
182.9689825870145
 21
16.17960510387179
 31
0.0
 11
182.9590577693891
 21
15.95467178795576
 31
0.0
 11
182.950038420831
 21
15.7340644095387
 31
0.0
 11
182.9435638463435
 21
15.51347467001053
 31
0.0
 11
182.9414218238286
 21
15.2886119096501
 31
0.0
 11
182.9414218238286
 21
15.24478907015489
 31
0.0
 11
182.9414218238286
 21
15.13523197141685
 31
0.0
 11
182.9414218238286
 21
14.9928077430574
 31
0.0
 11
182.9414218238286
 21
14.85038351469795
 31
0.0
 11
182.9414218238286
 21
14.74082641595992
 31
0.0
 11
182.9414218238286
 21
14.6970035764647
 31
0.0
 11
182.9435638463435
 21
14.47163149318765
 31
0.0
 11
182.950038420831
 21
14.2497519099098
 31
0.0
 11
182.9590577693891
 21
14.03132954885328
 31
0.0
 11
182.9689825870145
 21
13.81626739612931
 31
0.0
 11
182.887261616877
 21
13.82145433189186
 31
0.0
 11
182.8004341885366
 21
13.8231553822386
 31
0.0
 11
182.7135395119339
 21
13.82145433189186
 31
0.0
 11
182.6318769706146
 21
13.81626739612931
 31
0.0
 11
182.6417328200379
 21
14.03132954885329
 31
0.0
 11
182.6507427258645
 21
14.2497519099098
 31
0.0
 11
182.6571833838798
 21
14.47163149318765
 31
0.0
 11
182.6593583588023
 21
14.6970035764647
 31
0.0
 11
182.6593583588023
 21
14.74082641595991
 31
0.0
 11
182.6593583588023
 21
14.85038351469795
 31
0.0
 11
182.6593583588023
 21
14.9928077430574
 31
0.0
 11
182.6593583588023
 21
15.13523197141685
 31
0.0
 11
182.6593583588023
 21
15.24478907015489
 31
0.0
 11
182.6593583588023
 21
15.2886119096501
 31
0.0
 11
182.6571833838798
 21
15.51347467001053
 31
0.0
 11
182.6507427258645
 21
15.7340644095387
 31
0.0
  0
SPLINE
  5
BA
102
{ACAD_REACTORS
330
D7
102
}
330
48
100
AcDbEntity
  8
_U_30EC_U_30A4_U_30E4_U_30FC_1
  6
Continuous
 62
     2
100
AcDbSpline
210
0.0
220
0.0
230
1.0
 70
    11
 71
     3
 72
   118
 73
   114
 74
   112
 42
0.000000001
 43
0.0000000001
 44
0.00000001
 40
0.0
 40
0.0
 40
0.0
 40
0.0
 40
0.1054708162973368
 40
0.2466098270051868
 40
0.3965912874591235
 40
0.5285525069754036
 40
0.6156245055642277
 40
0.6431434105797574
 40
0.7036850037986235
 40
0.7642265984504605
 40
0.7917455052354909
 40
0.928740431998972
 40
1.106572819088004
 40
1.287544879681019
 40
1.317578308030536
 40
1.399928030857174
 40
1.522968204799951
 40
1.675072986590575
 40
1.844616533180658
 40
2.019973001638722
 40
2.189516548880039
 40
2.341621331585379
 40
2.464661506320517
 40
2.547011229647082
 40
2.577044658168046
 40
2.603797890893117
 40
2.662655002908804
 40
2.721512114949616
 40
2.748265347702795
 40
2.77421530734487
 40
2.845959313407202
 40
2.954338556588399
 40
3.090194227585575
 40
3.244367517100541
 40
3.407699615844296
 40
3.571031714539443
 40
3.725205003920121
 40
3.861060674729621
 40
3.969439917716312
 40
4.041183923628984
 40
4.067133883212978
 40
4.311886746012147
 40
4.547897258335507
 40
4.764747083043949
 40
4.952749679951754
 40
5.045772974195904
 40
5.137862019644982
 40
5.330543169793033
 40
5.553448265244028
 40
5.795083855888183
 40
6.043293412177231
 40
6.285761695541144
 40
6.313902908752627
 40
6.384255941793217
 40
6.475714884766806
 40
6.567173827758868
 40
6.637526860839646
 40
6.665668074074009
 40
6.692018920327987
 40
6.749990782071068
 40
6.807962643790447
 40
6.834313490017925
 40
6.856393084245203
 40
6.913335195649827
 40
6.991194817302491
 40
7.076026942283752
 40
7.153886563725242
 40
7.210828674844825
 40
7.23290826893116
 40
7.258199334923685
 40
7.32487578159234
 40
7.419142481925006
 40
7.527204308841958
 40
7.635266135230546
 40
7.729532834168543
 40
7.796209279292869
 40
7.821500344594819
 40
7.844652988850889
 40
7.899863140541669
 40
7.965759128053835
 40
8.020969279771121
 40
8.044121924046587
 40
8.069356610160675
 40
8.109134395441464
 40
8.132238100191179
 40
8.193147867786545
 40
8.279261678876724
 40
8.377977512673942
 40
8.476693347146734
 40
8.56280716041179
 40
8.623716930826578
 40
8.646820636853533
 40
8.671988793774347
 40
8.734909185828258
 40
8.816705695188972
 40
8.898502204815543
 40
8.961422597378004
 40
8.986590754551116
 40
9.012941600733276
 40
9.070913462380371
 40
9.128885324081875
 40
9.155236170325201
 40
9.180404327929244
 40
9.243324721948317
 40
9.32512123421211
 40
9.406917746637765
 40
9.46983814197822
 40
9.495006288270995
 40
9.51781118437913
 40
9.572192090487116
 40
9.637098333281326
 40
9.691479239515514
 40
9.714284125643546
 40
9.714284125643546
 40
9.714284125643546
 40
9.714284125643546
 10
185.2874469028653
 20
15.2688916318772
 30
0.0
 10
185.3090990569037
 20
15.24111869242812
 30
0.0
 10
185.3597257109473
 20
15.17618054561237
 30
0.0
 10
185.4349383202592
 20
15.06891060312899
 30
0.0
 10
185.5248482274346
 20
14.95377438266626
 30
0.0
 10
185.5709169676674
 20
14.8535704574832
 30
0.0
 10
185.6655825294655
 20
14.78434006814942
 30
0.0
 10
185.6204439320412
 20
14.73771639678274
 30
0.0
 10
185.5947047785789
 20
14.69660308866039
 30
0.0
 10
185.5645196708012
 20
14.6606597172794
 30
0.0
 10
185.5193684730562
 20
14.58579782596095
 30
0.0
 10
185.4710504458562
 20
14.80782524253604
 30
0.0
 10
185.3968539713072
 20
14.84510677337707
 30
0.0
 10
185.2836047324607
 20
15.116102021306
 30
0.0
 10
185.2885133578169
 20
15.00095328446227
 30
0.0
 10
185.2868486556306
 20
14.92836675781626
 30
0.0
 10
185.2876830076713
 20
14.80625588483985
 30
0.0
 10
185.2873609540265
 20
14.65913800810459
 30
0.0
 10
185.2875076912455
 20
14.49307063956555
 30
0.0
 10
185.2872950092723
 20
14.321875546086
 30
0.0
 10
185.2879497252034
 20
14.15552828635495
 30
0.0
 10
185.2859192461138
 20
14.0093517305569
 30
0.0
 10
185.291346039993
 20
13.88471047474608
 30
0.0
 10
185.2804930868708
 20
13.81718656540623
 30
0.0
 10
185.2956739155555
 20
13.7554906141702
 30
0.0
 10
185.2457895108133
 20
13.76727503896998
 30
0.0
 10
185.2017150342521
 20
13.75943822779966
 30
0.0
 10
185.1582371630201
 20
13.767604413727
 30
0.0
 10
185.1092346786488
 20
13.75538056738464
 30
0.0
 10
185.1218731234825
 20
13.8096066724931
 30
0.0
 10
185.1130182968449
 20
13.86936918907554
 30
0.0
 10
185.1175058770314
 20
13.97922029044367
 30
0.0
 10
185.1157960135991
 20
14.11029975405675
 30
0.0
 10
185.1163550915986
 20
14.26198011444324
 30
0.0
 10
185.1161928768694
 20
14.4221107492995
 30
0.0
 10
185.1162269924674
 20
14.58236865674563
 30
0.0
 10
185.1162514960127
 20
14.73370247520436
 30
0.0
 10
185.1161453543225
 20
14.86582156338597
 30
0.0
 10
185.1164299141931
 20
14.97294802533189
 30
0.0
 10
185.1158675547567
 20
15.03808619579469
 30
0.0
 10
185.118076508369
 20
15.16618957858672
 30
0.0
 10
185.0319435998601
 20
14.79097610391572
 30
0.0
 10
184.95551408185
 20
14.63918193123394
 30
0.0
 10
184.8660040767834
 20
14.47766206446304
 30
0.0
 10
184.7640413217326
 20
14.20471848820168
 30
0.0
 10
184.7187976491039
 20
14.36717346596511
 30
0.0
 10
184.610235594167
 20
14.4560543205812
 30
0.0
 10
184.7995791751752
 20
14.60549794961409
 30
0.0
 10
184.85653405457
 20
14.79749136974926
 30
0.0
 10
184.9717520993352
 20
15.02899622906756
 30
0.0
 10
184.9940151630132
 20
15.21797259759062
 30
0.0
 10
185.1771905152139
 20
15.49454089325923
 30
0.0
 10
185.0538033597552
 20
15.4869897883209
 30
0.0
 10
184.9925684166834
 20
15.48856772366114
 30
0.0
 10
184.9081999617064
 20
15.48882592573667
 30
0.0
 10
184.8204235085966
 20
15.48544845751201
 30
0.0
 10
184.7656768696122
 20
15.49394814982015
 30
0.0
 10
184.7104703026025
 20
15.48048561049783
 30
0.0
 10
184.7222823035536
 20
15.52931442126759
 30
0.0
 10
184.7142496151794
 20
15.57269004896705
 30
0.0
 10
184.7228186104679
 20
15.6150943830957
 30
0.0
 10
184.7102943409156
 20
15.66267796552116
 30
0.0
 10
184.7555101538736
 20
15.65267212995107
 30
0.0
 10
184.8014815562723
 20
15.65894105174059
 30
0.0
 10
184.877722204771
 20
15.6559356140587
 30
0.0
 10
184.9561296131993
 20
15.65770448278539
 30
0.0
 10
185.0323992648932
 20
15.65464793981658
 30
0.0
 10
185.0783009459474
 20
15.66103971376175
 30
0.0
 10
185.12317339654
 20
15.65093822978894
 30
0.0
 10
185.1105552275634
 20
15.70157201581897
 30
0.0
 10
185.1191936582707
 20
15.75501261882069
 30
0.0
 10
185.1152361595442
 20
15.8486325513168
 30
0.0
 10
185.1162325068335
 20
15.95112606688925
 30
0.0
 10
185.1171927413073
 20
16.05353270248165
 30
0.0
 10
185.1133211458006
 20
16.14735929609324
 30
0.0
 10
185.1217789814364
 20
16.20036542840356
 30
0.0
 10
185.1093075932835
 20
16.25211435651192
 30
0.0
 10
185.1542106389849
 20
16.2385074722676
 30
0.0
 10
185.1955083836772
 20
16.24100480320588
 30
0.0
 10
185.259534428105
 20
16.23648060574489
 30
0.0
 10
185.2986111148786
 20
16.22781003043309
 30
0.0
 10
185.3476543498742
 20
16.23515102070687
 30
0.0
 10
185.322508003059
 20
16.19602896051754
 30
0.0
 10
185.2815901333723
 20
16.20563842455811
 30
0.0
 10
185.2910109616604
 20
16.15540148169778
 30
0.0
 10
185.2855647318746
 20
16.10385945639491
 30
0.0
 10
185.2881699601803
 20
16.0195970758452
 30
0.0
 10
185.2870102202154
 20
15.92559135583408
 30
0.0
 10
185.2883591064231
 20
15.83196865395524
 30
0.0
 10
185.284997010151
 20
15.74679517552222
 30
0.0
 10
185.2920959917768
 20
15.69716856072042
 30
0.0
 10
185.2812569154546
 20
15.64993694969987
 30
0.0
 10
185.3304010225245
 20
15.6620167493685
 30
0.0
 10
185.3794877630147
 20
15.65447393363009
 30
0.0
 10
185.4573714280641
 20
15.65686070361431
 30
0.0
 10
185.5350365172895
 20
15.65899381905412
 30
0.0
 10
185.5845393931355
 20
15.65193391922453
 30
0.0
 10
185.6344594750638
 20
15.66360151936212
 30
0.0
 10
185.6223198516881
 20
15.6154023537139
 30
0.0
 10
185.6305838229144
 20
15.57249219801232
 30
0.0
 10
185.6223198650783
 20
15.5295820185138
 30
0.0
 10
185.6344594549854
 20
15.4813828875486
 30
0.0
 10
185.5845395158746
 20
15.49305034471505
 30
0.0
 10
185.5350350651202
 20
15.48599202435041
 30
0.0
 10
185.4573784382973
 20
15.48811665228598
 30
0.0
 10
185.379464386576
 20
15.49053389365755
 30
0.0
 10
185.3304500352716
 20
15.4829184819448
 30
0.0
 10
185.2813246108943
 20
15.49507952557587
 30
0.0
 10
185.2915559988571
 20
15.45073013424154
 30
0.0
 10
185.2856677678053
 20
15.40925436202908
 30
0.0
 10
185.2878788305569
 20
15.34915394315302
 30
0.0
 10
185.2874109346146
 20
15.30225782762889
 30
0.0
 10
185.2874386992913
 20
15.27650146418196
 30
0.0
 10
185.2874469028653
 20
15.2688916318772
 30
0.0
 11
185.2874469028653
 21
15.2688916318772
 31
0.0
 11
185.3516977534484
 21
15.18524999634258
 31
0.0
 11
185.4348258835499
 21
15.07118889748222
 31
0.0
 11
185.5216831568896
 21
14.94891767195724
 31
0.0
 11
185.5971214371872
 21
14.84064565642876
 31
0.0
 11
185.6459925881626
 21
14.7685821875579
 31
0.0
 11
185.6296821285093
 21
14.74641782124399
 31
0.0
 11
185.5937991172719
 21
14.6976562153534
 31
0.0
 11
185.5579161060346
 21
14.64889460946281
 31
0.0
 11
185.5416056463813
 21
14.6267302431489
 31
0.0
 11
185.4763067109446
 21
14.74716139023812
 31
0.0
 11
185.3848434243234
 21
14.89966983670204
 31
0.0
 11
185.2874469028653
 21
15.05219788193141
 31
0.0
 11
185.2874469028653
 21
15.02216445328252
 31
0.0
 11
185.2874469028653
 21
14.93981472956782
 31
0.0
 11
185.2874469028653
 21
14.81677455413526
 31
0.0
 11
185.2874469028653
 21
14.66466977033282
 31
0.0
 11
185.2874469028653
 21
14.49512622150843
 31
0.0
 11
185.2874469028653
 21
14.31976975101007
 31
0.0
 11
185.2874469028653
 21
14.15022620218568
 31
0.0
 11
185.2874469028653
 21
13.99812141838323
 31
0.0
 11
185.2874469028653
 21
13.87508124295068
 31
0.0
 11
185.2874469028653
 21
13.79273151923598
 31
0.0
 11
185.2874469028653
 21
13.76269809058709
 31
0.0
 11
185.2606936700409
 21
13.76269809058709
 31
0.0
 11
185.2018365578272
 21
13.76269809058709
 31
0.0
 11
185.1429794456134
 21
13.76269809058709
 31
0.0
 11
185.116226212789
 21
13.76269809058709
 31
0.0
 11
185.116226212789
 21
13.78864805031247
 31
0.0
 11
185.116226212789
 21
13.86039205661205
 31
0.0
 11
185.116226212789
 21
13.96877130017098
 31
0.0
 11
185.116226212789
 21
14.10462697167444
 31
0.0
 11
185.116226212789
 21
14.25880026180758
 31
0.0
 11
185.116226212789
 21
14.42213236125555
 31
0.0
 11
185.116226212789
 21
14.58546446070352
 31
0.0
 11
185.116226212789
 21
14.73963775083666
 31
0.0
 11
185.116226212789
 21
14.87549342234012
 31
0.0
 11
185.116226212789
 21
14.98387266589905
 31
0.0
 11
185.116226212789
 21
15.05561667219863
 31
0.0
 11
185.116226212789
 21
15.08156663192401
 31
0.0
 11
185.0379865861721
 21
14.8496560330237
 31
0.0
 11
184.9497110789303
 21
14.63077616328676
 31
0.0
 11
184.8544106930045
 21
14.43598991333545
 31
0.0
 11
184.7550964303356
 21
14.276360173792
 31
0.0
 11
184.7109198342406
 21
14.358224461966
 31
0.0
 11
184.658805738348
 21
14.43414885430811
 31
0.0
 11
184.7627302590299
 21
14.59640087926757
 31
0.0
 11
184.8629319864735
 21
14.79551465421781
 31
0.0
 11
184.9550446607901
 21
15.01890447916196
 31
0.0
 11
185.0347020220912
 21
15.25398465410318
 31
0.0
 11
185.097537810488
 21
15.4881694790446
 31
0.0
 11
185.0693965972142
 21
15.4881694790446
 31
0.0
 11
184.9990435640297
 21
15.4881694790446
 31
0.0
 11
184.9075846208898
 21
15.4881694790446
 31
0.0
 11
184.8161256777499
 21
15.4881694790446
 31
0.0
 11
184.7457726445654
 21
15.4881694790446
 31
0.0
 11
184.7176314312916
 21
15.4881694790446
 31
0.0
 11
184.7176314312916
 21
15.51452032539218
 31
0.0
 11
184.7176314312916
 21
15.57249218735685
 31
0.0
 11
184.7176314312916
 21
15.63046404932152
 31
0.0
 11
184.7176314312916
 21
15.6568148956691
 31
0.0
 11
184.739711025602
 21
15.6568148956691
 31
0.0
 11
184.7966531372444
 21
15.6568148956691
 31
0.0
 11
184.8745127592862
 21
15.6568148956691
 31
0.0
 11
184.9593448847944
 21
15.6568148956691
 31
0.0
 11
185.0372045068361
 21
15.6568148956691
 31
0.0
 11
185.0941466184786
 21
15.6568148956691
 31
0.0
 11
185.116226212789
 21
15.6568148956691
 31
0.0
 11
185.116226212789
 21
15.68210596174351
 31
0.0
 11
185.116226212789
 21
15.74878240866696
 31
0.0
 11
185.116226212789
 21
15.84304910948977
 31
0.0
 11
185.116226212789
 21
15.95111093726225
 31
0.0
 11
185.116226212789
 21
16.05917276503473
 31
0.0
 11
185.116226212789
 21
16.15343946585754
 31
0.0
 11
185.116226212789
 21
16.22011591278099
 31
0.0
 11
185.116226212789
 21
16.2454069788554
 31
0.0
 11
185.1393181988665
 21
16.24373213107804
 31
0.0
 11
185.1943837041284
 21
16.23973826330124
 31
0.0
 11
185.2601070491184
 21
16.23497138885797
 31
0.0
 11
185.3151725543802
 21
16.23097752108118
 31
0.0
 11
185.3382645404578
 21
16.22930267330381
 31
0.0
 11
185.3249012644362
 21
16.2078967792119
 31
0.0
 11
185.2874469028653
 21
16.1945011455347
 31
0.0
 11
185.2874469028653
 21
16.17139743948579
 31
0.0
 11
185.2874469028653
 21
16.1104876689932
 31
0.0
 11
185.2874469028653
 21
16.02437385553816
 31
0.0
 11
185.2874469028653
 21
15.9256580206019
 31
0.0
 11
185.2874469028653
 21
15.82694218566564
 31
0.0
 11
185.2874469028653
 21
15.7408283722106
 31
0.0
 11
185.2874469028653
 21
15.67991860171801
 31
0.0
 11
185.2874469028653
 21
15.6568148956691
 31
0.0
 11
185.3126150604809
 21
15.6568148956691
 31
0.0
 11
185.3755354545199
 21
15.6568148956691
 31
0.0
 11
185.4573319667706
 21
15.6568148956691
 31
0.0
 11
185.5391284790212
 21
15.6568148956691
 31
0.0
 11
185.6020488730602
 21
15.6568148956691
 31
0.0
 11
185.6272170306758
 21
15.6568148956691
 31
0.0
 11
185.6272170306758
 21
15.63046404932152
 31
0.0
 11
185.6272170306758
 21
15.57249218735685
 31
0.0
 11
185.6272170306758
 21
15.51452032539218
 31
0.0
 11
185.6272170306758
 21
15.4881694790446
 31
0.0
 11
185.6020488730602
 21
15.4881694790446
 31
0.0
 11
185.5391284790212
 21
15.4881694790446
 31
0.0
 11
185.4573319667705
 21
15.4881694790446
 31
0.0
 11
185.3755354545199
 21
15.4881694790446
 31
0.0
 11
185.3126150604809
 21
15.4881694790446
 31
0.0
 11
185.2874469028653
 21
15.4881694790446
 31
0.0
 11
185.2874469028653
 21
15.46536458293919
 31
0.0
 11
185.2874469028653
 21
15.41098367684168
 31
0.0
 11
185.2874469028653
 21
15.34607743408013
 31
0.0
 11
185.2874469028653
 21
15.29169652798261
 31
0.0
 11
185.2874469028653
 21
15.2688916318772
 31
0.0
  0
SPLINE
  5
BB
102
{ACAD_REACTORS
330
D8
102
}
330
48
100
AcDbEntity
  8
_U_30EC_U_30A4_U_30E4_U_30FC_1
  6
Continuous
 62
     2
100
AcDbSpline
210
0.0
220
0.0
230
1.0
 70
    11
 71
     3
 72
    91
 73
    87
 74
    85
 42
0.000000001
 43
0.0000000001
 44
0.00000001
 40
0.0
 40
0.0
 40
0.0
 40
0.0
 40
0.0345987051695718
 40
0.1258134969461369
 40
0.2547723404888987
 40
0.4026032099154125
 40
0.5504340793416704
 40
0.679392922883608
 40
0.7706077146571035
 40
0.8052064287780925
 40
1.124852390615285
 40
1.42740223630889
 40
1.706356627453538
 40
1.955541417875234
 40
2.169485938566389
 40
2.344350786664854
 40
2.480568411562008
 40
2.590440557429031
 40
2.649189927151185
 40
2.749320643306391
 40
2.912632739880097
 40
3.147745656000301
 40
3.24482749638518
 40
3.338490056946772
 40
3.583815413207185
 40
3.761423943238536
 40
3.886956104362694
 40
3.985855451886854
 40
4.091766255337738
 40
4.250186473811931
 40
4.422734315084575
 40
4.62828568483867
 40
4.8720932277585
 40
5.152549652145611
 40
5.464967135837594
 40
5.803201477852515
 40
6.160362988813994
 40
6.193449448276049
 40
6.284170385501704
 40
6.419718138764574
 40
6.587285046385824
 40
6.774063446723738
 40
6.967245678113721
 40
7.154024078817707
 40
7.321590987026092
 40
7.457138740890451
 40
7.547859678556187
 40
7.580946138182747
 40
7.608533084714797
 40
7.66922436707777
 40
7.729915649429985
 40
7.757502595950034
 40
7.790278062553488
 40
7.880146277430986
 40
8.014419963180448
 40
8.180411842397948
 40
8.365434637679417
 40
8.556801071622719
 40
8.741823866830831
 40
8.907815745916341
 40
9.042089431507495
 40
9.13195764624962
 40
9.164733112797197
 40
9.415425063140104
 40
9.667986180958561
 40
9.694169807462728
 40
9.756607686047687
 40
9.831130315322579
 40
9.893568193900014
 40
9.91975182039886
 40
9.95096796469071
 40
9.996421631210834
 40
10.22087981037465
 40
10.44341866197553
 40
10.47847970788865
 40
10.57091337438763
 40
10.70159545461237
 40
10.85140174170365
 40
11.0012080288048
 40
11.13189010907385
 40
11.2243237758301
 40
11.25938480938956
 40
11.28697175596144
 40
11.34766303835918
 40
11.40835432042068
 40
11.43594125892102
 40
11.43594125892102
 40
11.43594125892102
 40
11.43594125892102
 10
190.0818114333289
 20
15.55242795125081
 30
0.0
 10
190.0702785844941
 20
15.55242790287919
 30
0.0
 10
190.0283409444998
 20
15.55242773704168
 30
0.0
 10
189.9434129719026
 20
15.55243125800913
 30
0.0
 10
189.8207688553128
 20
15.55240926435882
 30
0.0
 10
189.6791206916993
 20
15.55250801177058
 30
0.0
 10
189.537975369849
 20
15.55214686232425
 30
0.0
 10
189.4141351317904
 20
15.55321883609093
 30
0.0
 10
189.3317217825382
 20
15.55092249091272
 30
0.0
 10
189.1727791229691
 20
15.56048569373424
 30
0.0
 10
189.3503402353376
 20
15.19785394311373
 30
0.0
 10
189.3379739205453
 20
14.95243127723116
 30
0.0
 10
189.4064519473864
 20
14.66862501324836
 30
0.0
 10
189.469302432097
 20
14.43250999939036
 30
0.0
 10
189.5452253431728
 20
14.23326740396129
 30
0.0
 10
189.6303189577016
 20
14.07745347451372
 30
0.0
 10
189.7244607592935
 20
13.9765785778139
 30
0.0
 10
189.8282648207727
 20
13.92465852638961
 30
0.0
 10
189.9125872030774
 20
13.97606484379614
 30
0.0
 10
189.9351322179452
 20
14.09144544037515
 30
0.0
 10
189.9745730975371
 20
14.21885149702378
 30
0.0
 10
189.9202919734942
 20
14.53622328086752
 30
0.0
 10
190.0451218072474
 20
14.38982180140906
 30
0.0
 10
190.2019291513602
 20
14.3579530033117
 30
0.0
 10
190.0947720007057
 20
14.1242135776763
 30
0.0
 10
190.0808711209867
 20
13.95972776583659
 30
0.0
 10
190.0234709467225
 20
13.83130869122486
 30
0.0
 10
189.9335020145008
 20
13.7601880235283
 30
0.0
 10
189.8095274657877
 20
13.74432324142257
 30
0.0
 10
189.663427319686
 20
13.77993797554175
 30
0.0
 10
189.5243894320283
 20
13.9000057050028
 30
0.0
 10
189.4102003962145
 20
14.07435682550324
 30
0.0
 10
189.3146141301485
 20
14.29946603111243
 30
0.0
 10
189.2318652572627
 20
14.56388246006446
 30
0.0
 10
189.1807179256411
 20
14.88187933098546
 30
0.0
 10
189.0770189207339
 20
15.15543728488915
 30
0.0
 10
189.2042841208519
 20
15.56005818612873
 30
0.0
 10
189.0357890623019
 20
15.55112367849682
 30
0.0
 10
188.9511995787076
 20
15.55315961418367
 30
0.0
 10
188.8189876387628
 20
15.5521393738841
 30
0.0
 10
188.6560505094103
 20
15.55253230318434
 30
0.0
 10
188.4733759170532
 20
15.55235696313372
 30
0.0
 10
188.2847057373383
 20
15.55260105307472
 30
0.0
 10
188.1014469020189
 20
15.5518565790624
 30
0.0
 10
187.9404746832718
 20
15.55416360522429
 30
0.0
 10
187.8029808335276
 20
15.54799804883666
 30
0.0
 10
187.7289590372311
 20
15.56032838458215
 30
0.0
 10
187.6613215186856
 20
15.5432932372356
 30
0.0
 10
187.673237371927
 20
15.59524438447531
 30
0.0
 10
187.6655677285694
 20
15.64071424966532
 30
0.0
 10
187.6732592225115
 20
15.68614453703708
 30
0.0
 10
187.6613141797762
 20
15.73802395984572
 30
0.0
 10
187.7283588305866
 20
15.72119143490266
 30
0.0
 10
187.8017375665677
 20
15.73335409092673
 30
0.0
 10
187.9379128305272
 20
15.7272723107496
 30
0.0
 10
188.0973811801512
 20
15.7295483431506
 30
0.0
 10
188.2789173085836
 20
15.72881233998964
 30
0.0
 10
188.4658034862179
 20
15.72905954196136
 30
0.0
 10
188.6468012316836
 20
15.72886400799256
 30
0.0
 10
188.8080802578878
 20
15.72932234714841
 30
0.0
 10
188.9393882124887
 20
15.72812673751208
 30
0.0
 10
189.0225051322596
 20
15.73051347319744
 30
0.0
 10
189.1556236547815
 20
15.72230605725467
 30
0.0
 10
189.0645893502657
 20
15.97752868952655
 30
0.0
 10
188.978963307442
 20
16.24164358328246
 30
0.0
 10
189.0990589003455
 20
16.22904442969165
 30
0.0
 10
189.1514264948543
 20
16.22694235763075
 30
0.0
 10
189.2214497569716
 20
16.22535399889658
 30
0.0
 10
189.2671922337818
 20
16.21602567538113
 30
0.0
 10
189.3220812646934
 20
16.22545966915428
 30
0.0
 10
189.2963574785682
 20
16.17733028655172
 30
0.0
 10
189.1825397571455
 20
16.18266829744155
 30
0.0
 10
189.3159346621136
 20
15.95449174576779
 30
0.0
 10
189.1943658735471
 20
15.72156856595924
 30
0.0
 10
189.3223188769414
 20
15.73087258884441
 30
0.0
 10
189.4049048406462
 20
15.72801001754682
 30
0.0
 10
189.5307214850825
 20
15.72923437412305
 30
0.0
 10
189.6741469838059
 20
15.72932431888966
 30
0.0
 10
189.8157420951729
 20
15.72746163183855
 30
0.0
 10
189.9459127249967
 20
15.73333075937165
 30
0.0
 10
190.0193452286191
 20
15.72070340823206
 30
0.0
 10
190.0891112922096
 20
15.73877563110414
 30
0.0
 10
190.0775772605396
 20
15.68612850546329
 30
0.0
 10
190.0833184346683
 20
15.64221317686551
 30
0.0
 10
190.0816615770911
 20
15.59089982676553
 30
0.0
 10
190.0817757561669
 20
15.56158792021638
 30
0.0
 10
190.0818114333289
 20
15.55242795125081
 30
0.0
 11
190.0818114333289
 21
15.55242795125081
 31
0.0
 11
190.0472127192051
 21
15.55242795125081
 31
0.0
 11
189.9559979274241
 21
15.55242795125081
 31
0.0
 11
189.8270390838717
 21
15.55242795125081
 31
0.0
 11
189.6792082144335
 21
15.55242795125081
 31
0.0
 11
189.5313773449954
 21
15.55242795125081
 31
0.0
 11
189.402418501443
 21
15.55242795125081
 31
0.0
 11
189.311203709662
 21
15.55242795125081
 31
0.0
 11
189.2766049955382
 21
15.55242795125081
 31
0.0
 11
189.3083140497693
 21
15.23435864930124
 31
0.0
 11
189.3527866656865
 21
14.93509522788083
 31
0.0
 11
189.4092389118319
 21
14.66191269512577
 31
0.0
 11
189.4768868567478
 21
14.42208605917227
 31
0.0
 11
189.5549465689761
 21
14.22289032815653
 31
0.0
 11
189.6426341170591
 21
14.07160051021475
 31
0.0
 11
189.7391655695388
 21
13.97549161348314
 31
0.0
 11
189.8437569949575
 21
13.94183864609789
 31
0.0
 11
189.8943077302786
 21
13.97177376978832
 31
0.0
 11
189.9310588991551
 21
14.06491619815045
 31
0.0
 11
189.9562640977528
 21
14.22627151712052
 31
0.0
 11
189.9721769222368
 21
14.4608453126348
 31
0.0
 11
190.0494082682583
 21
14.40202182306618
 31
0.0
 11
190.1327184184385
 21
14.3592188543269
 31
0.0
 11
190.1066365811217
 21
14.11528388661011
 31
0.0
 11
190.0673317805105
 21
13.94207902887564
 31
0.0
 11
190.0105702596765
 21
13.8301127244592
 31
0.0
 11
189.932118261691
 21
13.76989341669649
 31
0.0
 11
189.8277420296256
 21
13.7519295489232
 31
0.0
 11
189.6738595065097
 21
13.78957440012364
 31
0.0
 11
189.5388902376747
 21
13.89707348877406
 31
0.0
 11
189.4221739916163
 21
14.06627361744812
 31
0.0
 11
189.32305053683
 21
14.28902158871946
 31
0.0
 11
189.2408596418113
 21
14.55716420516175
 31
0.0
 11
189.1749410750559
 21
14.86254826934863
 31
0.0
 11
189.1246346050593
 21
15.19702058385377
 31
0.0
 11
189.0892800003171
 21
15.55242795125081
 31
0.0
 11
189.0561935405844
 21
15.55242795125081
 31
0.0
 11
188.9654726026075
 21
15.55242795125081
 31
0.0
 11
188.8299248482185
 21
15.55242795125081
 31
0.0
 11
188.6623579392495
 21
15.55242795125081
 31
0.0
 11
188.4755795375324
 21
15.55242795125081
 31
0.0
 11
188.2823973048992
 21
15.55242795125081
 31
0.0
 11
188.0956189031822
 21
15.55242795125081
 31
0.0
 11
187.9280519942131
 21
15.55242795125081
 31
0.0
 11
187.7925042398241
 21
15.55242795125081
 31
0.0
 11
187.7017833018473
 21
15.55242795125081
 31
0.0
 11
187.6686968421145
 21
15.55242795125081
 31
0.0
 11
187.6686968421145
 21
15.5800148978585
 31
0.0
 11
187.6686968421145
 21
15.64070618039541
 31
0.0
 11
187.6686968421145
 21
15.70139746293231
 31
0.0
 11
187.6686968421145
 21
15.72898440954
 31
0.0
 11
187.7014723087631
 21
15.72898440954
 31
0.0
 11
187.7913405237673
 21
15.72898440954
 31
0.0
 11
187.9256142097148
 21
15.72898440954
 31
0.0
 11
188.0916060891932
 21
15.72898440954
 31
0.0
 11
188.2766288847901
 21
15.72898440954
 31
0.0
 11
188.4679953190932
 21
15.72898440954
 31
0.0
 11
188.6530181146902
 21
15.72898440954
 31
0.0
 11
188.8190099941685
 21
15.72898440954
 31
0.0
 11
188.953283680116
 21
15.72898440954
 31
0.0
 11
189.0431518951202
 21
15.72898440954
 31
0.0
 11
189.0759273617688
 21
15.72898440954
 31
0.0
 11
189.0659183950103
 21
15.97947647544959
 31
0.0
 11
189.0599112510663
 21
16.23196614552531
 31
0.0
 11
189.0860575870659
 21
16.23056921608122
 31
0.0
 11
189.1484065421419
 21
16.22723807663761
 31
0.0
 11
189.22282303691
 21
16.2232622005275
 31
0.0
 11
189.285171991986
 21
16.21993106108389
 31
0.0
 11
189.3113183279856
 21
16.2185341316398
 31
0.0
 11
189.2982931113041
 21
16.19016528616079
 31
0.0
 11
189.2551649266406
 21
16.17581274276159
 31
0.0
 11
189.2574991961822
 21
15.95136670115109
 31
0.0
 11
189.2658452735904
 21
15.72898440954
 31
0.0
 11
189.3009063195167
 21
15.72898440954
 31
0.0
 11
189.3933399860495
 21
15.72898440954
 31
0.0
 11
189.5240220663202
 21
15.72898440954
 31
0.0
 11
189.6738283534597
 21
15.72898440954
 31
0.0
 11
189.8236346405991
 21
15.72898440954
 31
0.0
 11
189.9543167208698
 21
15.72898440954
 31
0.0
 11
190.0467503874027
 21
15.72898440954
 31
0.0
 11
190.0818114333289
 21
15.72898440954
 31
0.0
 11
190.0818114333289
 21
15.70139746293231
 31
0.0
 11
190.0818114333289
 21
15.64070618039541
 31
0.0
 11
190.0818114333289
 21
15.5800148978585
 31
0.0
 11
190.0818114333289
 21
15.55242795125081
 31
0.0
  0
SPLINE
  5
BC
102
{ACAD_REACTORS
330
D9
102
}
330
48
100
AcDbEntity
  8
_U_30EC_U_30A4_U_30E4_U_30FC_1
  6
Continuous
 62
     2
100
AcDbSpline
210
0.0
220
0.0
230
1.0
 70
    11
 71
     3
 72
    75
 73
    71
 74
    69
 42
0.000000001
 43
0.0000000001
 44
0.00000001
 40
0.0
 40
0.0
 40
0.0
 40
0.0
 40
0.0342546099129638
 40
0.1245622414432222
 40
0.2522385480897252
 40
0.3985991922940236
 40
0.5449598364980217
 40
0.6726361431438088
 40
0.762943774673609
 40
0.7971983935297084
 40
1.101723623449639
 40
1.40859124403667
 40
1.433332471690366
 40
1.487763172450138
 40
1.542193873081945
 40
1.566935100592484
 40
1.923523931821802
 40
2.271755704953579
 40
2.590579755100794
 40
2.858943305581021
 40
2.889120339309045
 40
2.918305855191071
 40
2.941366645531199
 40
2.996357760973089
 40
3.061992318140646
 40
3.116983433626822
 40
3.140044223997516
 40
3.411273122936353
 40
3.732441619741022
 40
3.76106821753272
 40
3.837787499630278
 40
3.94885869912591
 40
4.080541049104281
 40
4.219093782625658
 40
4.350776132722202
 40
4.46184733240553
 40
4.538566614678261
 40
4.567193212544505
 40
4.594907573998763
 40
4.666381453557302
 40
4.764111044010913
 40
4.870592538125716
 40
4.968322128642167
 40
5.039796008286852
 40
5.067510369784311
 40
5.094263603185525
 40
5.15312071666816
 40
5.211977830150606
 40
5.238731063551612
 40
5.272290535138851
 40
5.363380529444712
 40
5.49761841578139
 40
5.660621563453632
 40
5.838007341749333
 40
6.015393119910684
 40
6.17839626703831
 40
6.312634151842262
 40
6.403724143059251
 40
6.437283612672347
 40
6.464036846260961
 40
6.52289396000458
 40
6.581751071483844
 40
6.60850430159079
 40
6.637253941280938
 40
6.711397748902789
 40
6.812778057283402
 40
6.923237199249178
 40
7.024617507623822
 40
7.098761315207475
 40
7.127510946007425
 40
7.127510946007425
 40
7.127510946007425
 40
7.127510946007425
 10
188.4418622390564
 20
14.9584912847326
 30
0.0
 10
188.4418622819707
 20
14.94707313408716
 30
0.0
 10
188.4418624481129
 20
14.90555257842625
 30
0.0
 10
188.4418593081787
 20
14.82146922003769
 30
0.0
 10
188.4418788279801
 20
14.70004497322327
 30
0.0
 10
188.4417912187737
 20
14.55980494047448
 30
0.0
 10
188.442111623523
 20
14.42006556794578
 30
0.0
 10
188.4411605909741
 20
14.29745038894933
 30
0.0
 10
188.4431978595967
 20
14.21587074438047
 30
0.0
 10
188.4349433178745
 20
14.06271267077701
 30
0.0
 10
188.7430797940904
 20
14.22560236054714
 30
0.0
 10
189.0350645173733
 20
14.39482938687999
 30
0.0
 10
189.0408354448709
 20
14.2597323578191
 30
0.0
 10
189.0455471719891
 20
14.21617221160444
 30
0.0
 10
189.0482535411918
 20
14.17211249350546
 30
0.0
 10
189.067254567296
 20
14.02272590363135
 30
0.0
 10
188.6583942247302
 20
14.08681172241262
 30
0.0
 10
188.3793710348833
 20
13.97296341411014
 30
0.0
 10
188.1018081587166
 20
13.87364095811144
 30
0.0
 10
187.8099837184402
 20
13.91630687596345
 30
0.0
 10
187.7869144678658
 20
13.8132167974454
 30
0.0
 10
187.7537474383333
 20
13.7869109124446
 30
0.0
 10
187.7480653962738
 20
13.83455309036298
 30
0.0
 10
187.7284214559045
 20
13.87180336115066
 30
0.0
 10
187.7095089485623
 20
13.93007387847558
 30
0.0
 10
187.6942849867709
 20
13.97385201007804
 30
0.0
 10
187.6477246372935
 20
14.08759421046302
 30
0.0
 10
187.9890897312451
 20
14.05576301120047
 30
0.0
 10
188.2679649367386
 20
14.02161435106478
 30
0.0
 10
188.2617753034907
 20
14.16913976479652
 30
0.0
 10
188.2630935452773
 20
14.24013150908831
 30
0.0
 10
188.2624831689948
 20
14.3471976795866
 30
0.0
 10
188.2625871570724
 20
14.47398529785996
 30
0.0
 10
188.2629987964055
 20
14.60849243496048
 30
0.0
 10
188.2613907841968
 20
14.73395549951181
 30
0.0
 10
188.2659902567925
 20
14.84505246719114
 30
0.0
 10
188.2564186502211
 20
14.90761886800684
 30
0.0
 10
188.2704001783691
 20
14.96595388294997
 30
0.0
 10
188.2147384386705
 20
14.95289710582233
 30
0.0
 10
188.1575655197821
 20
14.96136307749495
 30
0.0
 10
188.0616048925648
 20
14.95729976080632
 30
0.0
 10
187.963376752282
 20
14.9597088985247
 30
0.0
 10
187.8672582457561
 20
14.95551600613384
 30
0.0
 10
187.810464852581
 20
14.96429346441158
 30
0.0
 10
187.7550356873384
 20
14.95094936850117
 30
0.0
 10
187.7670679427917
 20
15.00036910959253
 30
0.0
 10
187.7592003173938
 20
15.04393988030391
 30
0.0
 10
187.7666295563828
 20
15.08830469118521
 30
0.0
 10
187.7551930564144
 20
15.13902297763987
 30
0.0
 10
187.8232102370133
 20
15.12162460757739
 30
0.0
 10
187.8968496879747
 20
15.13417450237185
 30
0.0
 10
188.0325064058211
 20
15.12799677011093
 30
0.0
 10
188.1884909024525
 20
15.1302920309308
 30
0.0
 10
188.3615926358143
 20
15.12940968262525
 30
0.0
 10
188.5346942964181
 20
15.13029207142404
 30
0.0
 10
188.6906789811216
 20
15.12799662955546
 30
0.0
 10
188.8263351889797
 20
15.13417486262427
 30
0.0
 10
188.8999756705652
 20
15.12162394218331
 30
0.0
 10
188.9679914174724
 20
15.13902373012138
 30
0.0
 10
188.9565590885922
 20
15.08830130414551
 30
0.0
 10
188.9639539458298
 20
15.04397060811104
 30
0.0
 10
188.956203991227
 20
15.00028307550192
 30
0.0
 10
188.9681203741877
 20
14.95063590098473
 30
0.0
 10
188.9108170223617
 20
14.96461411338421
 30
0.0
 10
188.8520145789772
 20
14.9553975567325
 30
0.0
 10
188.7525293633199
 20
14.95952268164925
 30
0.0
 10
188.649428009835
 20
14.95822760025884
 30
0.0
 10
188.5537846354573
 20
14.95854077077636
 30
0.0
 10
188.4857467971617
 20
14.95848776697141
 30
0.0
 10
188.4514462213443
 20
14.95849051871652
 30
0.0
 10
188.4418622390564
 20
14.9584912847326
 30
0.0
 11
188.4418622390564
 21
14.9584912847326
 31
0.0
 11
188.4418622390564
 21
14.92423666587181
 31
0.0
 11
188.4418622390564
 21
14.83392903432972
 31
0.0
 11
188.4418622390564
 21
14.70625272766678
 31
0.0
 11
188.4418622390564
 21
14.5598920834434
 31
0.0
 11
188.4418622390564
 21
14.41353143922002
 31
0.0
 11
188.4418622390564
 21
14.28585513255707
 31
0.0
 11
188.4418622390564
 21
14.19554750101499
 31
0.0
 11
188.4418622390564
 21
14.1612928821542
 31
0.0
 11
188.7391932644568
 21
14.22709475713766
 31
0.0
 11
189.0384623627246
 21
14.29496038212069
 31
0.0
 11
189.0405487124978
 21
14.27030727882826
 31
0.0
 11
189.0451386819987
 21
14.2160704515849
 31
0.0
 11
189.0497286514996
 21
14.16183362434154
 31
0.0
 11
189.0518150012728
 21
14.1371805210491
 31
0.0
 11
188.705639688924
 21
14.05163370140897
 31
0.0
 11
188.3669653138838
 21
13.97060877629899
 31
0.0
 11
188.0563731516688
 21
13.89862764024926
 31
0.0
 11
187.7944444777956
 21
13.8402121877899
 31
0.0
 11
187.7817515029292
 21
13.81283442738013
 31
0.0
 11
187.7569794787513
 21
13.79740260446729
 31
0.0
 11
187.7491867589501
 21
13.81910683390631
 31
0.0
 11
187.7306041194242
 21
13.87086307333781
 31
0.0
 11
187.70842483999
 21
13.93263664943348
 31
0.0
 11
187.6898422004641
 21
13.98439288886498
 31
0.0
 11
187.6820494806629
 21
14.006097118304
 31
0.0
 11
187.9482776335931
 21
14.05794001759664
 31
0.0
 11
188.2626334936289
 21
14.1237396877191
 31
0.0
 11
188.2626334936289
 21
14.15236628569624
 31
0.0
 11
188.2626334936289
 21
14.22908556827499
 31
0.0
 11
188.2626334936289
 21
14.3401567684263
 31
0.0
 11
188.2626334936289
 21
14.47183911912116
 31
0.0
 11
188.2626334936289
 21
14.61039185333054
 31
0.0
 11
188.2626334936289
 21
14.7420742040254
 31
0.0
 11
188.2626334936289
 21
14.85314540417671
 31
0.0
 11
188.2626334936289
 21
14.92986468675546
 31
0.0
 11
188.2626334936289
 21
14.9584912847326
 31
0.0
 11
188.2349191321108
 21
14.9584912847326
 31
0.0
 11
188.1634452524063
 21
14.9584912847326
 31
0.0
 11
188.06571566179
 21
14.9584912847326
 31
0.0
 11
187.9592341675364
 21
14.9584912847326
 31
0.0
 11
187.8615045769201
 21
14.9584912847326
 31
0.0
 11
187.7900306972156
 21
14.9584912847326
 31
0.0
 11
187.7623163356975
 21
14.9584912847326
 31
0.0
 11
187.7623163356975
 21
14.98524451823285
 31
0.0
 11
187.7623163356975
 21
15.0441016319334
 31
0.0
 11
187.7623163356975
 21
15.10295874563395
 31
0.0
 11
187.7623163356975
 21
15.1297119791342
 31
0.0
 11
187.7958758072874
 21
15.1297119791342
 31
0.0
 11
187.8869658016031
 21
15.1297119791342
 31
0.0
 11
188.0212036879629
 21
15.1297119791342
 31
0.0
 11
188.1842068356856
 21
15.1297119791342
 31
0.0
 11
188.3615926140897
 21
15.1297119791342
 31
0.0
 11
188.5389783924938
 21
15.1297119791342
 31
0.0
 11
188.7019815402164
 21
15.1297119791342
 31
0.0
 11
188.8362194265763
 21
15.1297119791342
 31
0.0
 11
188.9273094208918
 21
15.1297119791342
 31
0.0
 11
188.9608688924818
 21
15.1297119791342
 31
0.0
 11
188.9608688924818
 21
15.10295874563395
 31
0.0
 11
188.9608688924818
 21
15.0441016319334
 31
0.0
 11
188.9608688924818
 21
14.98524451823285
 31
0.0
 11
188.9608688924818
 21
14.9584912847326
 31
0.0
 11
188.9321192527877
 21
14.9584912847326
 31
0.0
 11
188.8579754451555
 21
14.9584912847326
 31
0.0
 11
188.7565951367604
 21
14.9584912847326
 31
0.0
 11
188.6461359947778
 21
14.9584912847326
 31
0.0
 11
188.5447556863827
 21
14.9584912847326
 31
0.0
 11
188.4706118787505
 21
14.9584912847326
 31
0.0
 11
188.4418622390564
 21
14.9584912847326
 31
0.0
  0
SPLINE
  5
BD
102
{ACAD_REACTORS
330
DA
102
}
330
48
100
AcDbEntity
  8
_U_30EC_U_30A4_U_30E4_U_30FC_1
  6
Continuous
 62
     2
100
AcDbSpline
210
0.0
220
0.0
230
1.0
 70
    11
 71
     3
 72
    15
 73
    11
 74
     9
 42
0.000000001
 43
0.0000000001
 44
0.00000001
 40
0.0
 40
0.0
 40
0.0
 40
0.0
 40
0.2785535985096468
 40
0.5215624748199168
 40
0.6076917376040658
 40
0.6938210001741258
 40
0.9405019146455021
 40
1.221691403489124
 40
1.300471877081049
 40
1.379252341684824
 40
1.379252341684824
 40
1.379252341684824
 40
1.379252341684824
 10
189.5681493630999
 20
16.22930267330381
 30
0.0
 10
189.6296017794178
 20
16.17691646592717
 30
0.0
 10
189.7446649974114
 20
16.07882876798225
 30
0.0
 10
190.0397348497244
 20
15.92889785897218
 30
0.0
 10
189.9025147631856
 20
15.84343227515012
 30
0.0
 10
189.8041227843778
 20
15.71085785201556
 30
0.0
 10
189.713003359065
 20
16.01616985781419
 30
0.0
 10
189.3636839480655
 20
16.07967869465371
 30
0.0
 10
189.511925837657
 20
16.17896509880877
 30
0.0
 10
189.5494081874236
 20
16.21252348402382
 30
0.0
 10
189.5681493630999
 20
16.22930267330381
 30
0.0
 11
189.5681493630999
 21
16.22930267330381
 31
0.0
 11
189.7919222440596
 21
16.06341774278974
 31
0.0
 11
189.9695046306383
 21
15.8975328122756
 31
0.0
 11
189.9066308127979
 21
15.8386674303459
 31
0.0
 11
189.8437569949575
 21
15.7798020484162
 31
0.0
 11
189.6688535117725
 21
15.9537567705949
 31
0.0
 11
189.447825685614
 21
16.127579201107
 31
0.0
 11
189.507987524357
 21
16.1784409372054
 31
0.0
 11
189.5681493630999
 21
16.22930267330381
 31
0.0
  0
SPLINE
  5
BE
102
{ACAD_REACTORS
330
DB
102
}
330
48
100
AcDbEntity
  8
_U_30EC_U_30A4_U_30E4_U_30FC_1
  6
Continuous
 62
     2
100
AcDbSpline
210
0.0
220
0.0
230
1.0
 70
    11
 71
     3
 72
    35
 73
    31
 74
    29
 42
0.000000001
 43
0.0000000001
 44
0.00000001
 40
0.0
 40
0.0
 40
0.0
 40
0.0
 40
0.0335231036620424
 40
0.0713218571711711
 40
0.4278866681486848
 40
0.8116865841963747
 40
1.198190238000036
 40
1.561379546812646
 40
1.659983174622039
 40
1.759315573807166
 40
2.132719617231101
 40
2.525233363588838
 40
2.910815397779726
 40
3.265244364303305
 40
3.592606723582116
 40
3.964386154604111
 40
4.359942131737901
 40
4.758154118639423
 40
4.843846538700024
 40
4.936650065543362
 40
5.256616602537422
 40
5.581707404416147
 40
5.899719158308241
 40
6.198363494280859
 40
6.466301046615921
 40
6.493895311537243
 40
6.559697020197038
 40
6.638234543442614
 40
6.704036252154368
 40
6.731630508423175
 40
6.731630508423175
 40
6.731630508423175
 40
6.731630508423175
 10
191.9736010568669
 20
16.23463843719129
 30
0.0
 10
191.9676006097788
 20
16.22480690542318
 30
0.0
 10
191.9548344099157
 20
16.20388988579796
 30
0.0
 10
191.7949362006554
 20
16.17127126532702
 30
0.0
 10
192.2322025842337
 20
15.882066803367
 30
0.0
 10
192.4345394828262
 20
15.6804113835844
 30
0.0
 10
192.6819564267973
 20
15.43749387603273
 30
0.0
 10
193.1831513624605
 20
15.36047662757784
 30
0.0
 10
193.012556219897
 20
15.21876939174655
 30
0.0
 10
192.9383299463203
 20
15.01710366209099
 30
0.0
 10
192.6131432248188
 20
15.36956287174721
 30
0.0
 10
192.3277741670664
 20
15.53175212559561
 30
0.0
 10
192.0337604077658
 20
15.73687130053047
 30
0.0
 10
191.8084452691135
 20
16.21827488595462
 30
0.0
 10
191.5993085055522
 20
15.75343046609221
 30
0.0
 10
191.3207873674833
 20
15.54350952252913
 30
0.0
 10
191.037138317721
 20
15.37424456359981
 30
0.0
 10
190.7078639527831
 20
15.00142360907941
 30
0.0
 10
190.6277012318224
 20
15.19708014459003
 30
0.0
 10
190.4759724909744
 20
15.324911041906
 30
0.0
 10
190.9083395826795
 20
15.40454031765934
 30
0.0
 10
191.0962565329765
 20
15.6002663491547
 30
0.0
 10
191.3468477420502
 20
15.81632996916754
 30
0.0
 10
191.5714350470161
 20
15.98190992300057
 30
0.0
 10
191.6259775409713
 20
16.26133964636832
 30
0.0
 10
191.7494661029011
 20
16.2473795040808
 30
0.0
 10
191.806027334452
 20
16.24521268867647
 30
0.0
 10
191.8761870984945
 20
16.24046859881359
 30
0.0
 10
191.9333414022105
 20
16.23709429350536
 30
0.0
 10
191.9644190320839
 20
16.23519854711115
 30
0.0
 10
191.9736010568669
 20
16.23463843719129
 30
0.0
 11
191.9736010568669
 21
16.23463843719129
 31
0.0
 11
191.9525319069884
 21
16.20856374969783
 31
0.0
 11
191.9174464559425
 21
16.1945011455347
 31
0.0
 11
192.1512374769095
 21
15.92527961131384
 31
0.0
 11
192.4414585957566
 21
15.6741340796926
 31
0.0
 11
192.7612797483684
 21
15.45710987618784
 31
0.0
 11
193.0838708706289
 21
15.29025232631641
 31
0.0
 11
193.0213299868076
 21
15.21402035584926
 31
0.0
 11
192.9688035818976
 21
15.1297119791342
 31
0.0
 11
192.6436279095814
 21
15.31326404831576
 31
0.0
 11
192.3237227768436
 21
15.54070139743426
 31
0.0
 11
192.0354200158608
 21
15.7967385512331
 31
0.0
 11
191.8050514588096
 21
16.0660900344557
 31
0.0
 11
191.5995531719516
 21
15.81126348721036
 31
0.0
 11
191.3288301341535
 21
15.55645182277754
 31
0.0
 11
191.0119538423247
 21
15.31969466354856
 31
0.0
 11
190.6679957933741
 21
15.11903163191469
 31
0.0
 11
190.6218855341338
 21
15.19126067703555
 31
0.0
 11
190.5636970460348
 21
15.2635558679897
 31
0.0
 11
190.8433040489015
 21
15.41911456961744
 31
0.0
 11
191.1093004621154
 21
15.60601009790403
 31
0.0
 11
191.3499997459746
 21
15.81384496285206
 31
0.0
 11
191.5537153607774
 21
16.03222167446415
 31
0.0
 11
191.7087607668218
 21
16.2507427427429
 31
0.0
 11
191.7363041569865
 21
16.24906789496553
 31
0.0
 11
191.8019845489177
 21
16.24507402718873
 31
0.0
 11
191.880377274771
 21
16.24030715274546
 31
0.0
 11
191.9460576667022
 21
16.23631328496866
 31
0.0
 11
191.9736010568669
 21
16.23463843719129
 31
0.0
  0
SPLINE
  5
BF
102
{ACAD_REACTORS
330
DC
102
}
330
48
100
AcDbEntity
  8
_U_30EC_U_30A4_U_30E4_U_30FC_1
  6
Continuous
 62
     2
100
AcDbSpline
210
0.0
220
0.0
230
1.0
 70
    11
 71
     3
 72
    91
 73
    87
 74
    85
 42
0.000000001
 43
0.0000000001
 44
0.00000001
 40
0.0
 40
0.0
 40
0.0
 40
0.0
 40
0.0267532254356684
 40
0.0856103386464049
 40
0.144467452199655
 40
0.1712206856618426
 40
0.2039416005642447
 40
0.2955601971652395
 40
0.4362601844616829
 40
0.6162252844507161
 40
0.8256392189704609
 40
1.054685709844402
 40
1.293548478893522
 40
1.532411247938294
 40
1.761457738799559
 40
1.970871673298528
 40
2.150836773256724
 40
2.291536760495585
 40
2.383155356836691
 40
2.415876284101311
 40
2.442629517487952
 40
2.501486630949082
 40
2.560343744424226
 40
2.587096977826497
 40
2.617068194440924
 40
2.699247336756065
 40
2.822032643466378
 40
2.973822353257908
 40
3.14301470482335
 40
3.318007936879929
 40
3.487200288186762
 40
3.638989997548243
 40
3.761775303794741
 40
3.843954445753076
 40
3.873925662229772
 40
3.890812773500483
 40
3.907699884771665
 40
3.937960767857229
 40
3.980983618142264
 40
4.199085915228416
 40
4.439444339237216
 40
4.677588241260844
 40
5.050698317837758
 40
5.448212454763173
 40
5.85529121804464
 40
6.138575438885277
 40
6.417434507584145
 40
6.44455110439383
 40
6.504207617363132
 40
6.563864130314458
 40
6.590980727104053
 40
6.848609460381468
 40
7.109611990668451
 40
7.352910904446111
 40
7.557830220705435
 40
7.587518925913349
 40
7.652834077375759
 40
7.718149228845686
 40
7.747837934061986
 40
7.854880190300898
 40
7.976511257403436
 40
8.369487896592236
 40
8.75751495922353
 40
9.126072419330992
 40
9.460639380392054
 40
9.746695593035795
 40
9.777569943118571
 40
9.807050320931609
 40
9.83037733612874
 40
9.886003295435838
 40
9.952395569429772
 40
10.00802152870616
 40
10.03134854388208
 40
10.2135695100957
 40
10.42203479292852
 40
10.66154556731046
 40
10.91693789564287
 40
11.15832906556545
 40
11.18982674596603
 40
11.27286608520387
 40
11.39026653033329
 40
11.52484752840866
 40
11.65942852648428
 40
11.77682897161463
 40
11.85986831085663
 40
11.89136598230408
 40
11.89136598230408
 40
11.89136598230408
 40
11.89136598230408
 10
190.7027885008196
 20
14.70699600701769
 30
0.0
 10
190.7028237765288
 20
14.71587847311982
 30
0.0
 10
190.7029366710797
 20
14.74430237047343
 30
0.0
 10
190.7012984568488
 20
14.79409639169799
 30
0.0
 10
190.7069750292911
 20
14.8365756447815
 30
0.0
 10
190.6956928731706
 20
14.88730154856843
 30
0.0
 10
190.7632296979031
 20
14.87012900740105
 30
0.0
 10
190.83880292107
 20
14.88290227165991
 30
0.0
 10
190.9828357056
 20
14.87629729457378
 30
0.0
 10
191.1569419185427
 20
14.87888462206462
 30
0.0
 10
191.3639599611003
 20
14.87800591955549
 30
0.0
 10
191.5894688172378
 20
14.87828207920023
 30
0.0
 10
191.8251162293406
 20
14.87818339658658
 30
0.0
 10
192.0607640531348
 20
14.87828184412763
 30
0.0
 10
192.2862717580626
 20
14.87800678190785
 30
0.0
 10
192.4932934632805
 20
14.87888186270731
 30
0.0
 10
192.6673888915288
 20
14.87630522678442
 30
0.0
 10
192.8114492071986
 20
14.8828829044921
 30
0.0
 10
192.8869691915293
 20
14.870162434056
 30
0.0
 10
192.954577603703
 20
14.88726400191683
 30
0.0
 10
192.9430840140676
 20
14.83674785802936
 30
0.0
 10
192.9505104581733
 20
14.79253252226498
 30
0.0
 10
192.9428838927986
 20
14.74867966503606
 30
0.0
 10
192.9546489459424
 20
14.69878374479324
 30
0.0
 10
192.8930788491983
 20
14.71393227712509
 30
0.0
 10
192.8256791738672
 20
14.7031066535067
 30
0.0
 10
192.7013004056221
 20
14.70852031626233
 30
0.0
 10
192.555442823657
 20
14.70649205390782
 30
0.0
 10
192.3893576440085
 20
14.70715777578384
 30
0.0
 10
192.2188412621724
 20
14.70689643521239
 30
0.0
 10
192.0519790855388
 20
14.70721553391091
 30
0.0
 10
191.9087346827105
 20
14.70635302590759
 30
0.0
 10
191.7773313869834
 20
14.70863300482986
 30
0.0
 10
191.7239859134656
 20
14.70407704374198
 30
0.0
 10
191.6485188456913
 20
14.70999914992875
 30
0.0
 10
191.6769075779232
 20
14.70094169343349
 30
0.0
 10
191.7033652409542
 20
14.69725912268924
 30
0.0
 10
191.6633522907701
 20
14.66654271968277
 30
0.0
 10
191.5713663691869
 20
14.6766759117463
 30
0.0
 10
191.5439396207069
 20
14.43032502247786
 30
0.0
 10
191.4478793967234
 20
14.27499558764373
 30
0.0
 10
191.1917277964474
 20
13.94525417931569
 30
0.0
 10
191.7627537732763
 20
14.0843002221045
 30
0.0
 10
192.0173656320516
 20
14.08291779973365
 30
0.0
 10
192.6279647048617
 20
13.99790569242085
 30
0.0
 10
192.3340698578083
 20
14.29685417558203
 30
0.0
 10
192.0133304286516
 20
14.44330856901777
 30
0.0
 10
192.1313543360434
 20
14.50025540818286
 30
0.0
 10
192.1724716466261
 20
14.52420099873347
 30
0.0
 10
192.215681239441
 20
14.5459975881123
 30
0.0
 10
192.3174574094452
 20
14.60928721253905
 30
0.0
 10
192.4328867625247
 20
14.35147151408778
 30
0.0
 10
192.6329591642278
 20
14.21616041113681
 30
0.0
 10
192.7269077387228
 20
14.03792795138883
 30
0.0
 10
192.9558829746393
 20
13.87997821027045
 30
0.0
 10
192.8596031846708
 20
13.82915972576301
 30
0.0
 10
192.8167959763779
 20
13.79881292523056
 30
0.0
 10
192.7718243528779
 20
13.77466130281463
 30
0.0
 10
192.7121720925214
 20
13.72552146747574
 30
0.0
 10
192.6789731061324
 20
13.85997475673609
 30
0.0
 10
192.5582013350797
 20
14.0159426528658
 30
0.0
 10
192.1970976005978
 20
13.88569928059554
 30
0.0
 10
191.8385061955541
 20
13.90224694409482
 30
0.0
 10
191.457092045008
 20
13.89331229351863
 30
0.0
 10
191.1703455282892
 20
13.82882671672407
 30
0.0
 10
190.8592055599712
 20
13.94230668192824
 30
0.0
 10
190.8268737818789
 20
13.8312225992777
 30
0.0
 10
190.7896178253318
 20
13.81196313850006
 30
0.0
 10
190.7865737632756
 20
13.85874784087295
 30
0.0
 10
190.7679892860608
 20
13.89806853919129
 30
0.0
 10
190.7512436616778
 20
13.95765983478232
 30
0.0
 10
190.7383730915754
 20
14.00201969871281
 30
0.0
 10
190.7042327806429
 20
14.091063311202
 30
0.0
 10
190.9482714457754
 20
14.02181042943768
 30
0.0
 10
191.1441394486671
 20
14.00030369057742
 30
0.0
 10
191.2395426381277
 20
14.28226484478462
 30
0.0
 10
191.2945135769597
 20
14.44363045421122
 30
0.0
 10
191.5159619357156
 20
14.71391177589736
 30
0.0
 10
191.3849239381216
 20
14.70548446853731
 30
0.0
 10
191.3110026555854
 20
14.70779008496967
 30
0.0
 10
191.1977459876244
 20
14.70671378321655
 30
0.0
 10
191.0694251807484
 20
14.70707639076507
 30
0.0
 10
190.9404252030415
 20
14.70697724466083
 30
0.0
 10
190.828784094629
 20
14.70699932712569
 30
0.0
 10
190.7514663970026
 20
14.70699579189667
 30
0.0
 10
190.713287653201
 20
14.70699595845078
 30
0.0
 10
190.7027885008196
 20
14.70699600701769
 30
0.0
 11
190.7027885008196
 21
14.70699600701769
 31
0.0
 11
190.7027885008196
 21
14.73374924051794
 31
0.0
 11
190.7027885008196
 21
14.7926063542185
 31
0.0
 11
190.7027885008196
 21
14.85146346791906
 31
0.0
 11
190.7027885008196
 21
14.87821670141931
 31
0.0
 11
190.7355094280989
 21
14.87821670141931
 31
0.0
 11
190.8271280244809
 21
14.87821670141931
 31
0.0
 11
190.9678280117818
 21
14.87821670141931
 31
0.0
 11
191.1477931118179
 21
14.87821670141931
 31
0.0
 11
191.3572070464054
 21
14.87821670141931
 31
0.0
 11
191.5862535373604
 21
14.87821670141931
 31
0.0
 11
191.8251163064992
 21
14.87821670141931
 31
0.0
 11
192.0639790756381
 21
14.87821670141931
 31
0.0
 11
192.2930255665931
 21
14.87821670141931
 31
0.0
 11
192.5024395011806
 21
14.87821670141931
 31
0.0
 11
192.6824046012167
 21
14.87821670141931
 31
0.0
 11
192.8231045885176
 21
14.87821670141931
 31
0.0
 11
192.9147231848996
 21
14.87821670141931
 31
0.0
 11
192.9474441121789
 21
14.87821670141931
 31
0.0
 11
192.9474441121789
 21
14.85146346791906
 31
0.0
 11
192.9474441121789
 21
14.7926063542185
 31
0.0
 11
192.9474441121789
 21
14.73374924051794
 31
0.0
 11
192.9474441121789
 21
14.70699600701769
 31
0.0
 11
192.9174728954758
 21
14.70699600701769
 31
0.0
 11
192.8352937529027
 21
14.70699600701769
 31
0.0
 11
192.7125084457639
 21
14.70699600701769
 31
0.0
 11
192.5607187353642
 21
14.70699600701769
 31
0.0
 11
192.3915263830077
 21
14.70699600701769
 31
0.0
 11
192.2165331499991
 21
14.70699600701769
 31
0.0
 11
192.0473407976426
 21
14.70699600701769
 31
0.0
 11
191.8955510872428
 21
14.70699600701769
 31
0.0
 11
191.7727657801042
 21
14.70699600701769
 31
0.0
 11
191.690586637531
 21
14.70699600701769
 31
0.0
 11
191.6606154208279
 21
14.70699600701769
 31
0.0
 11
191.6766359412525
 21
14.70165583340789
 31
0.0
 11
191.6926564616771
 21
14.6963156597981
 31
0.0
 11
191.670615568142
 21
14.67558114591444
 31
0.0
 11
191.6284861855363
 21
14.6668587153611
 31
0.0
 11
191.5365235541377
 21
14.46909247312656
 31
0.0
 11
191.4279078521763
 21
14.25467511978507
 31
0.0
 11
191.3127500824807
 21
14.0462255905162
 31
0.0
 11
191.685736667502
 21
14.05582441253028
 31
0.0
 11
192.0830700036151
 21
14.06781232404995
 31
0.0
 11
192.4899342191145
 21
14.08102711828531
 31
0.0
 11
192.2983119496979
 21
14.28966761302478
 31
0.0
 11
192.0966752013698
 21
14.4822942015183
 31
0.0
 11
192.1204947794749
 21
14.49525327269563
 31
0.0
 11
192.1728978513061
 21
14.52376322928575
 31
0.0
 11
192.2253009231374
 21
14.55227318587587
 31
0.0
 11
192.2491205012425
 21
14.5652322570532
 31
0.0
 11
192.4387101558627
 21
14.39079508370266
 31
0.0
 11
192.6200310940436
 21
14.20305846374089
 31
0.0
 11
192.7777729231148
 21
14.01782380992435
 31
0.0
 11
192.8966252504058
 21
13.85089253500949
 31
0.0
 11
192.8715408217923
 21
13.8350120228607
 31
0.0
 11
192.8163550788425
 21
13.80007489613335
 31
0.0
 11
192.7611693358928
 21
13.765137769406
 31
0.0
 11
192.7360849072793
 21
13.7492572572572
 31
0.0
 11
192.6775518151612
 21
13.83887824681809
 31
0.0
 11
192.6050015078457
 21
13.93650288221031
 31
0.0
 11
192.2125412924095
 21
13.91636286943758
 31
0.0
 11
191.824947406956
 21
13.89803302999772
 31
0.0
 11
191.4567378976213
 21
13.88202178722394
 31
0.0
 11
191.1224308105412
 21
13.86883756444947
 31
0.0
 11
190.8365441918518
 21
13.8589887850075
 31
0.0
 11
190.821186232174
 21
13.83220523466694
 31
0.0
 11
190.7937434290547
 21
13.82143559057239
 31
0.0
 11
190.7867927192321
 21
13.84370299445572
 31
0.0
 11
190.7702179496549
 21
13.89680218833135
 31
0.0
 11
190.7504351601597
 21
13.96017864553775
 31
0.0
 11
190.7338603905825
 21
14.01327783941337
 31
0.0
 11
190.7269096807599
 21
14.0355452432967
 31
0.0
 11
190.9091199859153
 21
14.03751638912951
 31
0.0
 11
191.1174975848588
 21
14.0435621182947
 31
0.0
 11
191.2303203127216
 21
14.25483550301553
 31
0.0
 11
191.3407936722035
 21
14.48509813155879
 31
0.0
 11
191.4358254265627
 21
14.70699600701769
 31
0.0
 11
191.4043277461597
 21
14.70699600701769
 31
0.0
 11
191.3212884069153
 21
14.70699600701769
 31
0.0
 11
191.2038879617768
 21
14.70699600701769
 31
0.0
 11
191.0693069636912
 21
14.70699600701769
 31
0.0
 11
190.9347259656055
 21
14.70699600701769
 31
0.0
 11
190.817325520467
 21
14.70699600701769
 31
0.0
 11
190.7342861812226
 21
14.70699600701769
 31
0.0
 11
190.7027885008196
 21
14.70699600701769
 31
0.0
  0
SPLINE
  5
C0
102
{ACAD_REACTORS
330
DD
102
}
330
48
100
AcDbEntity
  8
_U_30EC_U_30A4_U_30E4_U_30FC_1
  6
Continuous
 62
     2
100
AcDbSpline
210
0.0
220
0.0
230
1.0
 70
    11
 71
     3
 72
   131
 73
   127
 74
   125
 42
0.000000001
 43
0.0000000001
 44
0.00000001
 40
0.0
 40
0.0
 40
0.0
 40
0.0
 40
0.0195577029826827
 40
0.0426490537462382
 40
0.2863607575857793
 40
0.5344948436190533
 40
0.7842238845574374
 40
0.8737315789468489
 40
0.9803832810313975
 40
1.092842274517145
 40
1.19976114665691
 40
1.289788768186627
 40
1.351573580786339
 40
1.370727117561564
 40
1.416400936017972
 40
1.470914848356109
 40
1.516588666791897
 40
1.535742203552975
 40
1.634216592293323
 40
1.760283341175149
 40
1.897966686682223
 40
2.031216387369006
 40
2.049689751138001
 40
2.101115601646938
 40
2.179502577740059
 40
2.278859318314178
 40
2.393194462258839
 40
2.516516648383957
 40
2.642834515406089
 40
2.766156701983598
 40
2.880491846754714
 40
2.97984858835876
 40
3.058235565443939
 40
3.109661416669096
 40
3.128134780704273
 40
3.14678374238659
 40
3.191254343315479
 40
3.244332157316138
 40
3.28880275822607
 40
3.307451719895341
 40
3.327717853844953
 40
3.383747753580315
 40
3.468388665924709
 40
3.574487837699018
 40
3.694892515729129
 40
3.822449946852269
 40
3.950007377920664
 40
4.070412055800758
 40
4.176511227368315
 40
4.261152139501765
 40
4.317182039076958
 40
4.337448172964879
 40
4.620011002696494
 40
4.885096638397765
 40
4.94537304351859
 40
5.014107710488907
 40
5.070481727652314
 40
5.319246955636824
 40
5.584812164506294
 40
5.859000912057151
 40
6.133746937542345
 40
6.401732212969169
 40
6.42073668399576
 40
6.472845717451411
 40
6.550702743894338
 40
6.646951193874547
 40
6.754234497930871
 40
6.865196086587649
 40
6.972479390358107
 40
7.068727839772269
 40
7.146584865451278
 40
7.198693898189508
 40
7.217698368905649
 40
7.234950401631116
 40
7.276089864270131
 40
7.325191803516208
 40
7.366331266090566
 40
7.383583298769907
 40
7.402779163492284
 40
7.453386443254716
 40
7.524934666445717
 40
7.606953361406057
 40
7.688972056429209
 40
7.760520279784459
 40
7.811127559734701
 40
7.830323424546322
 40
7.847844055299952
 40
7.894799345667001
 40
7.962779392744696
 40
8.043374293560753
 40
8.12817414514967
 40
8.208769044817481
 40
8.276749090377193
 40
8.323704379669758
 40
8.341225010056492
 40
8.35849761480064
 40
8.401679126686846
 40
8.457815092185903
 40
8.513951057728308
 40
8.557132569708264
 40
8.574405174505307
 40
8.602340668616664
 40
8.643455660540155
 40
8.663225271966827
 40
8.715345156564478
 40
8.789031889628816
 40
8.873502045520555
 40
8.957972194324187
 40
9.031658925568085
 40
9.083778811234776
 40
9.103548423003241
 40
9.119550083123807
 40
9.16081752238008
 40
9.217244429110474
 40
9.27872449164496
 40
9.335151398295716
 40
9.376418837358012
 40
9.3924204973008
 40
9.401196302735046
 40
9.417494229384497
 40
9.426270027749798
 40
9.440875075477802
 40
9.475702496998998
 40
9.517270709866152
 40
9.552098131994311
 40
9.566703169884516
 40
9.566703169884516
 40
9.566703169884516
 40
9.566703169884516
 10
194.617025414848
 20
15.6701587151103
 30
0.0
 10
194.6134345093371
 20
15.6645369070216
 30
0.0
 10
194.6056039123625
 20
15.6522775441911
 30
0.0
 10
194.5129968974547
 20
15.61601916041006
 30
0.0
 10
194.4887622233247
 20
15.40148444212703
 30
0.0
 10
194.3858709845939
 20
15.22197284509712
 30
0.0
 10
194.1220492364304
 20
15.03615573798145
 30
0.0
 10
194.2845471569181
 20
14.95959336566084
 30
0.0
 10
194.3607225760838
 20
14.89856693195444
 30
0.0
 10
194.4492171072758
 20
14.83515804544762
 30
0.0
 10
194.538993023311
 20
14.77525634219562
 30
0.0
 10
194.5883817636046
 20
14.72102154849207
 30
0.0
 10
194.6745708157382
 20
14.6928624054183
 30
0.0
 10
194.6411260674229
 20
14.65713309652808
 30
0.0
 10
194.6214671166311
 20
14.62550387991903
 30
0.0
 10
194.5919888217882
 20
14.58475872796067
 30
0.0
 10
194.5688989446031
 20
14.55504663489641
 30
0.0
 10
194.5380205968357
 20
14.50211422668492
 30
0.0
 10
194.472919336574
 20
14.62740334938899
 30
0.0
 10
194.3796000122415
 20
14.68213900233935
 30
0.0
 10
194.2950636285138
 20
14.73916423939342
 30
0.0
 10
194.1722498125744
 20
14.89675287427525
 30
0.0
 10
194.1764450847302
 20
14.82035806766838
 30
0.0
 10
194.1751478652678
 20
14.77361280161298
 30
0.0
 10
194.1758126448077
 20
14.69584785812602
 30
0.0
 10
194.1755549986958
 20
14.59902068324423
 30
0.0
 10
194.1756431239921
 20
14.48650279078809
 30
0.0
 10
194.1756077302282
 20
14.365240859457
 30
0.0
 10
194.175651175828
 20
14.24086897858961
 30
0.0
 10
194.1755199942406
 20
14.11967683631335
 30
0.0
 10
194.1759477562047
 20
14.00691148919742
 30
0.0
 10
194.1746678202312
 20
13.91082913768743
 30
0.0
 10
194.1779759851044
 20
13.83113826468698
 30
0.0
 10
194.1715197740088
 20
13.78815175788783
 30
0.0
 10
194.1806208705556
 20
13.7495543237204
 30
0.0
 10
194.1447910339936
 20
13.75810887724069
 30
0.0
 10
194.1115223815252
 20
13.75342519985445
 30
0.0
 10
194.0604562576041
 20
13.75351298759782
 30
0.0
 10
194.0269723972813
 20
13.75794430283819
 30
0.0
 10
193.9907585408754
 20
13.74960793842507
 30
0.0
 10
194.0009782568665
 20
13.79145277179282
 30
0.0
 10
193.9936487887774
 20
13.83778560820172
 30
0.0
 10
193.9973633136102
 20
13.92374831106012
 30
0.0
 10
193.9959480554897
 20
14.02605142704848
 30
0.0
 10
193.9964105554638
 20
14.14453223931511
 30
0.0
 10
193.996277368623
 20
14.26957683153355
 30
0.0
 10
193.9963015910045
 20
14.39475828107049
 30
0.0
 10
193.9963354925551
 20
14.51286645379058
 30
0.0
 10
193.9962060293132
 20
14.61628748709515
 30
0.0
 10
193.9965507549081
 20
14.69932036153667
 30
0.0
 10
193.9958698278689
 20
14.75143368521244
 30
0.0
 10
193.9994586600625
 20
14.87912907821362
 30
0.0
 10
193.7826171386435
 20
14.5804871681962
 30
0.0
 10
193.6021354921951
 20
14.35263981511515
 30
0.0
 10
193.5490322295611
 20
14.49373443289814
 30
0.0
 10
193.5200429133149
 20
14.54325767560945
 30
0.0
 10
193.419664806282
 20
14.64641779790109
 30
0.0
 10
193.7405127723261
 20
14.72695035023778
 30
0.0
 10
193.868989700543
 20
14.91066283036435
 30
0.0
 10
194.0906454325358
 20
15.11931995771763
 30
0.0
 10
194.1770224894069
 20
15.29339211228347
 30
0.0
 10
194.4549394229075
 20
15.56967051342517
 30
0.0
 10
194.3346247839284
 20
15.56534559551119
 30
0.0
 10
194.2863197351348
 20
15.56614856202558
 30
0.0
 10
194.2102377454905
 20
15.56574582146589
 30
0.0
 10
194.116701000975
 20
15.56590275611614
 30
0.0
 10
194.0117594788557
 20
15.56582502576229
 30
0.0
 10
193.9033887738717
 20
15.56595464378559
 30
0.0
 10
193.7981454235897
 20
15.56554393490697
 30
0.0
 10
193.7056237819412
 20
15.56682073671596
 30
0.0
 10
193.6268130800707
 20
15.56340766534855
 30
0.0
 10
193.5839674565379
 20
15.57023350036325
 30
0.0
 10
193.5449499586516
 20
15.56065064201128
 30
0.0
 10
193.5526365271863
 20
15.59420779565546
 30
0.0
 10
193.5485464404311
 20
15.62523550322233
 30
0.0
 10
193.5485531368814
 20
15.67236529270898
 30
0.0
 10
193.5526239724911
 20
15.70340941646774
 30
0.0
 10
193.5449495574583
 20
15.73701861635895
 30
0.0
 10
193.5834819405495
 20
15.72748410420866
 30
0.0
 10
193.6241228014479
 20
15.73397435498065
 30
0.0
 10
193.6951471850463
 20
15.73100150650248
 30
0.0
 10
193.7729318149633
 20
15.73174761399151
 30
0.0
 10
193.8507292246474
 20
15.73247814044519
 30
0.0
 10
193.9217232089907
 20
15.72954235514154
 30
0.0
 10
193.962427979182
 20
15.73595468772946
 30
0.0
 10
194.000985348991
 20
15.72650524175998
 30
0.0
 10
193.9927342754927
 20
15.76264692158778
 30
0.0
 10
193.9982346669359
 20
15.80129837613222
 30
0.0
 10
193.9955754206163
 20
15.86913528561834
 30
0.0
 10
193.9965815471533
 20
15.94591641538737
 30
0.0
 10
193.9960178018319
 20
16.02849393582754
 30
0.0
 10
193.9970714526593
 20
16.10517329229877
 30
0.0
 10
193.9942675863129
 20
16.17331990776698
 30
0.0
 10
194.0000702721304
 20
16.21132399809347
 30
0.0
 10
193.9915654551158
 20
16.24758448077645
 30
0.0
 10
194.0255610233125
 20
16.23755723771853
 30
0.0
 10
194.05945756831
 20
16.24073266813706
 30
0.0
 10
194.1126669060346
 20
16.2350896564061
 30
0.0
 10
194.1660768574482
 20
16.23434774436424
 30
0.0
 10
194.1995914649491
 20
16.22819223482981
 30
0.0
 10
194.2388086183038
 20
16.23346029773592
 30
0.0
 10
194.2120263698493
 20
16.1925338079349
 30
0.0
 10
194.1708111001724
 20
16.20371204538106
 30
0.0
 10
194.1782641540875
 20
16.15867056192121
 30
0.0
 10
194.1742227952185
 20
16.11412278028141
 30
0.0
 10
194.1761714049641
 20
16.04223572621699
 30
0.0
 10
194.1752364849759
 20
15.96168630588766
 30
0.0
 10
194.176510719003
 20
15.8817399540499
 30
0.0
 10
194.1732043793864
 20
15.80841837083177
 30
0.0
 10
194.1802106179962
 20
15.76688643002562
 30
0.0
 10
194.1701440380126
 20
15.72752418568106
 30
0.0
 10
194.2029814803922
 20
15.73468063430975
 30
0.0
 10
194.2364577296482
 20
15.73027243137938
 30
0.0
 10
194.2915053476019
 20
15.73217943347891
 30
0.0
 10
194.3489502595316
 20
15.73185366407282
 30
0.0
 10
194.402302624831
 20
15.73106308733076
 30
0.0
 10
194.4398540896639
 20
15.73313959118068
 30
0.0
 10
194.4623172523238
 20
15.73022338167103
 30
0.0
 10
194.4751678073732
 20
15.73572552644049
 30
0.0
 10
194.4858255685889
 20
15.73801118197786
 30
0.0
 10
194.4986635650145
 20
15.74494972588049
 30
0.0
 10
194.5145991033071
 20
15.72853046313667
 30
0.0
 10
194.5410623920893
 20
15.71709122319449
 30
0.0
 10
194.5726805253759
 20
15.6964468783519
 30
0.0
 10
194.5987255892152
 20
15.68116869628296
 30
0.0
 10
194.6128517723974
 20
15.67266976323186
 30
0.0
 10
194.617025414848
 20
15.6701587151103
 30
0.0
 11
194.617025414848
 21
15.6701587151103
 31
0.0
 11
194.6049990002244
 21
15.65473571164186
 31
0.0
 11
194.5848961795565
 21
15.64337406233921
 31
0.0
 11
194.4778986355813
 21
15.4244062023116
 31
0.0
 11
194.3477039934324
 21
15.21317201512161
 31
0.0
 11
194.1996540366071
 21
15.0120605902748
 31
0.0
 11
194.2734958253735
 21
14.96147384935381
 31
0.0
 11
194.36056643118
 21
14.89988411653741
 31
0.0
 11
194.4518003750404
 21
14.83413160594428
 31
0.0
 11
194.5381321779687
 21
14.77105653169306
 31
0.0
 11
194.6104963609787
 21
14.71749910790241
 31
0.0
 11
194.6598274450843
 21
14.680299548691
 31
0.0
 11
194.6486940702213
 21
14.6647141086949
 31
0.0
 11
194.6221452532403
 21
14.6275488287042
 31
0.0
 11
194.5904579555533
 21
14.5831902687153
 31
0.0
 11
194.5639091385723
 21
14.5460249887246
 31
0.0
 11
194.5527757637093
 21
14.5304395487285
 31
0.0
 11
194.4807013362947
 21
14.59754008690615
 31
0.0
 11
194.3852856985381
 21
14.67993354174669
 31
0.0
 11
194.279326415217
 21
14.76785017366917
 31
0.0
 11
194.1756210511091
 21
14.85152024309269
 31
0.0
 11
194.1756210511091
 21
14.83304687900865
 31
0.0
 11
194.1756210511091
 21
14.78162102763957
 31
0.0
 11
194.1756210511091
 21
14.70323405031
 31
0.0
 11
194.1756210511091
 21
14.6038773083445
 31
0.0
 11
194.1756210511091
 21
14.48954216306761
 31
0.0
 11
194.1756210511091
 21
14.36621997580389
 31
0.0
 11
194.1756210511091
 21
14.2399021078779
 31
0.0
 11
194.1756210511091
 21
14.11657992061418
 31
0.0
 11
194.1756210511091
 21
14.00224477533729
 31
0.0
 11
194.1756210511091
 21
13.90288803337179
 31
0.0
 11
194.1756210511091
 21
13.82450105604222
 31
0.0
 11
194.1756210511091
 21
13.77307520467314
 31
0.0
 11
194.1756210511091
 21
13.7546018405891
 31
0.0
 11
194.1569720893627
 21
13.7546018405891
 31
0.0
 11
194.112501488275
 21
13.7546018405891
 31
0.0
 11
194.0594236740736
 21
13.7546018405891
 31
0.0
 11
194.0149530729859
 21
13.7546018405891
 31
0.0
 11
193.9963041112395
 21
13.7546018405891
 31
0.0
 11
193.9963041112395
 21
13.77486797460217
 31
0.0
 11
193.9963041112395
 21
13.83089787452065
 31
0.0
 11
193.9963041112395
 21
13.91553878716346
 31
0.0
 11
193.9963041112395
 21
14.02163795934952
 31
0.0
 11
193.9963041112395
 21
14.14204263789775
 31
0.0
 11
193.9963041112395
 21
14.26960006962705
 31
0.0
 11
193.9963041112395
 21
14.39715750135636
 31
0.0
 11
193.9963041112395
 21
14.51756217990458
 31
0.0
 11
193.9963041112395
 21
14.62366135209064
 31
0.0
 11
193.9963041112395
 21
14.70830226473345
 31
0.0
 11
193.9963041112395
 21
14.76433216465193
 31
0.0
 11
193.9963041112395
 21
14.784598298665
 31
0.0
 11
193.7883272849481
 21
14.59331998274057
 31
0.0
 11
193.5763486358425
 21
14.43414885430811
 31
0.0
 11
193.5495629014482
 21
14.48814671952096
 31
0.0
 11
193.5138765415024
 21
14.54689140572028
 31
0.0
 11
193.4799697494124
 21
14.59192871537979
 31
0.0
 11
193.6830287742319
 21
14.73563387201054
 31
0.0
 11
193.881853195826
 21
14.91168423529988
 31
0.0
 11
194.0677041444178
 21
15.11327514524951
 31
0.0
 11
194.2318427502303
 21
15.33360194186111
 31
0.0
 11
194.3655301434864
 21
15.5658599651364
 31
0.0
 11
194.3465256724482
 21
15.5658599651364
 31
0.0
 11
194.2944166389562
 21
15.5658599651364
 31
0.0
 11
194.2165596124447
 21
15.5658599651364
 31
0.0
 11
194.1203111623478
 21
15.5658599651364
 31
0.0
 11
194.0130278580997
 21
15.5658599651364
 31
0.0
 11
193.9020662691345
 21
15.5658599651364
 31
0.0
 11
193.7947829648864
 21
15.5658599651364
 31
0.0
 11
193.6985345147895
 21
15.5658599651364
 31
0.0
 11
193.620677488278
 21
15.5658599651364
 31
0.0
 11
193.568568454786
 21
15.5658599651364
 31
0.0
 11
193.5495639837478
 21
15.5658599651364
 31
0.0
 11
193.5495639837478
 21
15.58311199790986
 31
0.0
 11
193.5495639837478
 21
15.62425146067732
 31
0.0
 11
193.5495639837478
 21
15.67335340010947
 31
0.0
 11
193.5495639837478
 21
15.71449286287693
 31
0.0
 11
193.5495639837478
 21
15.73174489565039
 31
0.0
 11
193.5687598486009
 21
15.73174489565039
 31
0.0
 11
193.6193671286684
 21
15.73174489565039
 31
0.0
 11
193.690915352212
 21
15.73174489565039
 31
0.0
 11
193.7729340474937
 21
15.73174489565039
 31
0.0
 11
193.8549527427753
 21
15.73174489565039
 31
0.0
 11
193.9265009663189
 21
15.73174489565039
 31
0.0
 11
193.9771082463864
 21
15.73174489565039
 31
0.0
 11
193.9963041112395
 21
15.73174489565039
 31
0.0
 11
193.9963041112395
 21
15.74926552655212
 31
0.0
 11
193.9963041112395
 21
15.79622081736876
 31
0.0
 11
193.9963041112395
 21
15.86420086526749
 31
0.0
 11
193.9963041112395
 21
15.94479576741545
 31
0.0
 11
193.9963041112395
 21
16.02959562097984
 31
0.0
 11
193.9963041112395
 21
16.11019052312781
 31
0.0
 11
193.9963041112395
 21
16.17817057102653
 31
0.0
 11
193.9963041112395
 21
16.22512586184317
 31
0.0
 11
193.9963041112395
 21
16.2426464927449
 31
0.0
 11
194.0135484112111
 21
16.24165806167519
 31
0.0
 11
194.0566591611401
 21
16.23918698400091
 31
0.0
 11
194.1127031360477
 21
16.23597458302435
 31
0.0
 11
194.1687471109553
 21
16.2327621820478
 31
0.0
 11
194.2118578608843
 21
16.23029110437352
 31
0.0
 11
194.2291021608559
 21
16.22930267330381
 31
0.0
 11
194.2143774674851
 21
16.20556293372639
 31
0.0
 11
194.1756210511091
 21
16.1918376733131
 31
0.0
 11
194.1756210511091
 21
16.1720680617729
 31
0.0
 11
194.1756210511091
 21
16.1199481768033
 31
0.0
 11
194.1756210511091
 21
16.04626144288076
 31
0.0
 11
194.1756210511091
 21
15.96179128448174
 31
0.0
 11
194.1756210511091
 21
15.87732112608273
 31
0.0
 11
194.1756210511091
 21
15.80363439216019
 31
0.0
 11
194.1756210511091
 21
15.75151450719058
 31
0.0
 11
194.1756210511091
 21
15.73174489565039
 31
0.0
 11
194.1916227112937
 21
15.73174489565039
 31
0.0
 11
194.2328901507171
 21
15.73174489565039
 31
0.0
 11
194.2893170576838
 21
15.73174489565039
 31
0.0
 11
194.3507971204982
 21
15.73174489565039
 31
0.0
 11
194.4072240274649
 21
15.73174489565039
 31
0.0
 11
194.4484914668883
 21
15.73174489565039
 31
0.0
 11
194.4644931270729
 21
15.73174489565039
 31
0.0
 11
194.4728206422926
 21
15.73451387455915
 31
0.0
 11
194.4882860277004
 21
15.73965626396114
 31
0.0
 11
194.4966135429201
 21
15.7424252428699
 31
0.0
 11
194.5091363776006
 21
15.7349095239829
 31
0.0
 11
194.5389985218387
 21
15.71698742509852
 31
0.0
 11
194.5746404359294
 21
15.69559653288168
 31
0.0
 11
194.6045025801675
 21
15.6776744339973
 31
0.0
 11
194.617025414848
 21
15.6701587151103
 31
0.0
  0
SPLINE
  5
C1
102
{ACAD_REACTORS
330
DE
102
}
330
48
100
AcDbEntity
  8
_U_30EC_U_30A4_U_30E4_U_30FC_1
  6
Continuous
 62
     2
100
AcDbSpline
210
0.0
220
0.0
230
1.0
 70
    11
 71
     3
 72
   124
 73
   120
 74
   118
 42
0.000000001
 43
0.0000000001
 44
0.00000001
 40
0.0
 40
0.0
 40
0.0
 40
0.0
 40
0.027818722962451
 40
0.1011590162384269
 40
0.2048470170590239
 40
0.3237088716559245
 40
0.4425707262522
 40
0.5462587270699547
 40
0.6195990203311798
 40
0.647417752257866
 40
0.6750060736115242
 40
0.7357003855242759
 40
0.7963946998054456
 40
0.8239830245571766
 40
0.854093381110286
 40
0.937339662940954
 40
1.063094687343235
 40
1.220731268638073
 40
1.399622220914748
 40
1.589140358637732
 40
1.778658496423898
 40
1.957549448940509
 40
2.115186030873159
 40
2.240941056914463
 40
2.324187341760532
 40
2.354297700109382
 40
2.38188602467189
 40
2.442580338710475
 40
2.503274652750497
 40
2.530862977314606
 40
2.560983949278559
 40
2.640393784452905
 40
2.752662861759128
 40
2.881361560118145
 40
3.010060258455192
 40
3.122329335705339
 40
3.201739170817953
 40
3.231860142753313
 40
3.26429802403037
 40
3.352343701778238
 40
3.482095226868759
 40
3.639650650173016
 40
3.811108022565468
 40
3.982565394927973
 40
4.140120818152551
 40
4.269872343141258
 40
4.357918020802319
 40
4.390355902043946
 40
4.423256253992515
 40
4.508104530073036
 40
4.624121560636804
 40
4.750528176031561
 40
4.866545206602008
 40
4.951393482691965
 40
4.984293834645366
 40
5.01145083324228
 40
5.071196230152062
 40
5.130941627057136
 40
5.1580986256488
 40
5.190998977601491
 40
5.275847253689316
 40
5.391864284256751
 40
5.518270899648296
 40
5.634287930209335
 40
5.719136206288009
 40
5.752036558235896
 40
5.782130946282924
 40
5.8627839062291
 40
5.979550131774972
 40
6.11798431664038
 40
6.263641154587931
 40
6.40207533941414
 40
6.51884156490794
 40
6.599494524815525
 40
6.629588912848763
 40
6.65440302822634
 40
6.713575149488107
 40
6.784199939329425
 40
6.843372060493528
 40
6.868186175802774
 40
6.896246243201869
 40
6.939586233758275
 40
6.967846564564903
 40
7.043584251089834
 40
7.153234334451687
 40
7.283231855734432
 40
7.420011856035455
 40
7.550009376579796
 40
7.659659458835192
 40
7.735397144417178
 40
7.76365747485135
 40
7.796409728011007
 40
7.880876065096281
 40
7.996370852465667
 40
8.122208446418561
 40
8.237703224799155
 40
8.32216956201085
 40
8.354921815205863
 40
8.382078813307643
 40
8.441824209206946
 40
8.501569605240093
 40
8.52872660348567
 40
8.561478856695718
 40
8.645945193877768
 40
8.76143998086528
 40
8.887277580764422
 40
9.002772362000943
 40
9.087238696661164
 40
9.119990949235618
 40
9.152428830613317
 40
9.24047450863853
 40
9.370226034149479
 40
9.527781457984359
 40
9.699238830981344
 40
9.87069620397853
 40
10.02825162781395
 40
10.15800315332557
 40
10.24604883135111
 40
10.27848670378514
 40
10.27848670378514
 40
10.27848670378514
 40
10.27848670378514
 10
195.3821827564383
 20
14.0141051738576
 30
0.0
 10
195.3914554737523
 20
14.01410498511277
 30
0.0
 10
195.4251744536861
 20
14.01410430876717
 30
0.0
 10
195.4934706812465
 20
14.01411807243307
 30
0.0
 10
195.592014171158
 20
14.01403224219548
 30
0.0
 10
195.7062066464812
 20
14.01441755612253
 30
0.0
 10
195.818589441707
 20
14.01300835897548
 30
0.0
 10
195.9214376600118
 20
14.01719117422245
 30
0.0
 10
195.9806839874849
 20
14.00823089251985
 30
0.0
 10
196.0371265937033
 20
14.02164434526064
 30
0.0
 10
196.0246255586954
 20
13.97087198613364
 30
0.0
 10
196.0329549635703
 20
13.9258932093907
 30
0.0
 10
196.024817084112
 20
13.88056752990491
 30
0.0
 10
196.0370529214457
 20
13.82931932408469
 30
0.0
 10
195.9747773490333
 20
13.84447955365279
 30
0.0
 10
195.9060513026868
 20
13.83359750710746
 30
0.0
 10
195.7782756749592
 20
13.83911304747975
 30
0.0
 10
195.6262984511643
 20
13.83700851253701
 30
0.0
 10
195.4502695972523
 20
13.83771002588476
 30
0.0
 10
195.2644431934287
 20
13.83745237531295
 30
0.0
 10
195.0786167437175
 20
13.83771005144606
 30
0.0
 10
194.9025880142168
 20
13.83700841847734
 30
0.0
 10
194.7506104154195
 20
13.83911332229992
 30
0.0
 10
194.6228357664554
 20
13.83359680767643
 30
0.0
 10
194.5541077836581
 20
13.84448077125945
 30
0.0
 10
194.4918349042883
 20
13.82931786684212
 30
0.0
 10
194.5040616290017
 20
13.88057510805175
 30
0.0
 10
194.4960004462597
 20
13.92582473272428
 30
0.0
 10
194.5040675809893
 20
13.97106357955326
 30
0.0
 10
194.4918238487083
 20
14.02234176909961
 30
0.0
 10
194.5525017120697
 20
14.00749577363138
 30
0.0
 10
194.6162810745736
 20
14.01756448170738
 30
0.0
 10
194.7277314353502
 20
14.01294644212002
 30
0.0
 10
194.8497533443824
 20
14.01413328905472
 30
0.0
 10
194.9719538137823
 20
14.01515863900637
 30
0.0
 10
195.0829794287392
 20
14.01092475623404
 30
0.0
 10
195.1476517413958
 20
14.02018584521742
 30
0.0
 10
195.2091162810501
 20
14.00604423049685
 30
0.0
 10
195.1930065601337
 20
14.0723552788452
 30
0.0
 10
195.2042980327358
 20
14.14447790121978
 30
0.0
 10
195.1987400822561
 20
14.27513760888288
 30
0.0
 10
195.2008035061691
 20
14.42607323708243
 30
0.0
 10
195.2000167127295
 20
14.59335873107888
 30
0.0
 10
195.2007845215627
 20
14.76061110332304
 30
0.0
 10
195.1988038785628
 20
14.91163289269915
 30
0.0
 10
195.204130615662
 20
15.04206069552996
 30
0.0
 10
195.1933101388425
 20
15.114654426059
 30
0.0
 10
195.2090326429875
 20
15.18150469436799
 30
0.0
 10
195.143270813249
 20
15.16580512490825
 30
0.0
 10
195.0756367830763
 20
15.17609243083996
 30
0.0
 10
194.9615885293809
 20
15.17113786847123
 30
0.0
 10
194.8451242674902
 20
15.17414128030475
 30
0.0
 10
194.7306554121477
 20
15.16880303143389
 30
0.0
 10
194.6640324657812
 20
15.18001268074826
 30
0.0
 10
194.5990769715185
 20
15.16349132665012
 30
0.0
 10
194.6107989758708
 20
15.2147372047706
 30
0.0
 10
194.6032830189121
 20
15.25950333784091
 30
0.0
 10
194.6107989878835
 20
15.30426944897962
 30
0.0
 10
194.5990769505347
 20
15.35551536129741
 30
0.0
 10
194.66403263392
 20
15.33899381766815
 30
0.0
 10
194.7306533339821
 20
15.35020571373944
 30
0.0
 10
194.8451352858063
 20
15.34485436710664
 30
0.0
 10
194.9615454436962
 20
15.34791188771117
 30
0.0
 10
195.0757660174641
 20
15.34278499010708
 30
0.0
 10
195.1430150439226
 20
15.35345733355598
 30
0.0
 10
195.2083325941438
 20
15.33742082669077
 30
0.0
 10
195.1941391448552
 20
15.39949685750054
 30
0.0
 10
195.2036059462995
 20
15.46586761628763
 30
0.0
 10
195.1990269004085
 20
15.58239972741967
 30
0.0
 10
195.2007696555948
 20
15.71426685022377
 30
0.0
 10
195.1997551495392
 20
15.85615960150275
 30
0.0
 10
195.2017191344372
 20
15.98769050702582
 30
0.0
 10
195.1964668553851
 20
16.10524577283004
 30
0.0
 10
195.2073408763475
 20
16.16947789001587
 30
0.0
 10
195.1919536641853
 20
16.2310880254505
 30
0.0
 10
195.24075915378
 20
16.21702407382113
 30
0.0
 10
195.2853995564725
 20
16.21954742075316
 30
0.0
 10
195.3538643946742
 20
16.2151279740171
 30
0.0
 10
195.3959106169103
 20
16.20613025544036
 30
0.0
 10
195.4487544758775
 20
16.2141171486651
 30
0.0
 10
195.4207035002013
 20
16.17113917611671
 30
0.0
 10
195.3749142248595
 20
16.18259552043832
 30
0.0
 10
195.3869539073264
 20
16.12173520005133
 30
0.0
 10
195.3796086070641
 20
16.05769299468768
 30
0.0
 10
195.3831195826162
 20
15.94909368863907
 30
0.0
 10
195.3819806760173
 20
15.8249431914475
 30
0.0
 10
195.3819174780263
 20
15.69189719829876
 30
0.0
 10
195.3832872966868
 20
15.56797381249554
 30
0.0
 10
195.3791638801314
 20
15.45868337849338
 30
0.0
 10
195.3877763103564
 20
15.3960858009417
 30
0.0
 10
195.3746757454402
 20
15.33740133296365
 30
0.0
 10
195.4393884328198
 20
15.35362113810902
 30
0.0
 10
195.5060405953156
 20
15.34270260383311
 30
0.0
 10
195.6198779541102
 20
15.34793740173756
 30
0.0
 10
195.7357259122097
 20
15.34485547516913
 30
0.0
 10
195.849692426328
 20
15.35018259812512
 30
0.0
 10
195.91603410181
 20
15.33904208166543
 30
0.0
 10
195.9807188525479
 20
15.35546979593178
 30
0.0
 10
195.9689820772722
 20
15.30425925210051
 30
0.0
 10
195.9765168063041
 20
15.25950334121001
 30
0.0
 10
195.9689820992258
 20
15.21474739010028
 30
0.0
 10
195.9807188140737
 20
15.16353690871041
 30
0.0
 10
195.9160344075252
 20
15.17996427794221
 30
0.0
 10
195.8496886430824
 20
15.1688278444727
 30
0.0
 10
195.7357459487012
 20
15.17413115893121
 30
0.0
 10
195.6197995623054
 20
15.17114764593544
 30
0.0
 10
195.5062756882122
 20
15.17606892268395
 30
0.0
 10
195.4389231318804
 20
15.1658508751352
 30
0.0
 10
195.3734285122495
 20
15.18145996138816
 30
0.0
 10
195.3891713619218
 20
15.11463851827412
 30
0.0
 10
195.3783275998213
 20
15.0420705781588
 30
0.0
 10
195.3836581629793
 20
14.91162247614417
 30
0.0
 10
195.3817136151855
 20
14.76064558185227
 30
0.0
 10
195.3823133683214
 20
14.5932224393416
 30
0.0
 10
195.3821506559605
 20
14.42656176118374
 30
0.0
 10
195.3821895488136
 20
14.27360142921638
 30
0.0
 10
195.3821816413098
 20
14.14849178985707
 30
0.0
 10
195.3821828382744
 20
14.06507890991423
 30
0.0
 10
195.3821827716208
 20
14.02491778281978
 30
0.0
 10
195.3821827564383
 20
14.0141051738576
 30
0.0
 11
195.3821827564383
 21
14.0141051738576
 31
0.0
 11
195.4100014883675
 21
14.0141051738576
 31
0.0
 11
195.4833417816353
 21
14.0141051738576
 31
0.0
 11
195.5870297824622
 21
14.0141051738576
 31
0.0
 11
195.7058916370687
 21
14.0141051738576
 31
0.0
 11
195.8247534916751
 21
14.0141051738576
 31
0.0
 11
195.928441492502
 21
14.0141051738576
 31
0.0
 11
196.0017817857698
 21
14.0141051738576
 31
0.0
 11
196.029600517699
 21
14.0141051738576
 31
0.0
 11
196.029600517699
 21
13.98651684921172
 31
0.0
 11
196.029600517699
 21
13.9258225349908
 31
0.0
 11
196.029600517699
 21
13.86512822076988
 31
0.0
 11
196.029600517699
 21
13.837539896124
 31
0.0
 11
195.9994901593494
 21
13.837539896124
 31
0.0
 11
195.9162438745004
 21
13.837539896124
 31
0.0
 11
195.7904888484521
 21
13.837539896124
 31
0.0
 11
195.6328522665041
 21
13.837539896124
 31
0.0
 11
195.4539613139564
 21
13.837539896124
 31
0.0
 11
195.2644431761089
 21
13.837539896124
 31
0.0
 11
195.0749250382613
 21
13.837539896124
 31
0.0
 11
194.8960340857136
 21
13.837539896124
 31
0.0
 11
194.7383975037656
 21
13.837539896124
 31
0.0
 11
194.6126424777172
 21
13.837539896124
 31
0.0
 11
194.5293961928683
 21
13.837539896124
 31
0.0
 11
194.4992858345187
 21
13.837539896124
 31
0.0
 11
194.4992858345187
 21
13.86512822076988
 31
0.0
 11
194.4992858345187
 21
13.9258225349908
 31
0.0
 11
194.4992858345187
 21
13.98651684921172
 31
0.0
 11
194.4992858345187
 21
14.0141051738576
 31
0.0
 11
194.5294068064947
 21
14.0141051738576
 31
0.0
 11
194.608816641704
 21
14.0141051738576
 31
0.0
 11
194.721085719069
 21
14.0141051738576
 31
0.0
 11
194.8497844175118
 21
14.0141051738576
 31
0.0
 11
194.9784831159545
 21
14.0141051738576
 31
0.0
 11
195.0907521933195
 21
14.0141051738576
 31
0.0
 11
195.1701620285289
 21
14.0141051738576
 31
0.0
 11
195.2002830005048
 21
14.0141051738576
 31
0.0
 11
195.2002830005048
 21
14.04654305523838
 31
0.0
 11
195.2002830005048
 21
14.13458873327193
 31
0.0
 11
195.2002830005048
 21
14.26434025879505
 31
0.0
 11
195.2002830005048
 21
14.42189568264456
 31
0.0
 11
195.2002830005048
 21
14.59335305565725
 31
0.0
 11
195.2002830005048
 21
14.76481042866995
 31
0.0
 11
195.2002830005048
 21
14.92236585251946
 31
0.0
 11
195.2002830005048
 21
15.05211737804258
 31
0.0
 11
195.2002830005048
 21
15.14016305607613
 31
0.0
 11
195.2002830005048
 21
15.17260093745691
 31
0.0
 11
195.1673826485529
 21
15.17260093745691
 31
0.0
 11
195.0825343724662
 21
15.17260093745691
 31
0.0
 11
194.9665173418988
 21
15.17260093745691
 31
0.0
 11
194.8401107265044
 21
15.17260093745691
 31
0.0
 11
194.724093695937
 21
15.17260093745691
 31
0.0
 11
194.6392454198503
 21
15.17260093745691
 31
0.0
 11
194.6063450678984
 21
15.17260093745691
 31
0.0
 11
194.6063450678984
 21
15.19975793614803
 31
0.0
 11
194.6063450678984
 21
15.2595033332685
 31
0.0
 11
194.6063450678984
 21
15.31924873038898
 31
0.0
 11
194.6063450678984
 21
15.3464057290801
 31
0.0
 11
194.6392454198504
 21
15.3464057290801
 31
0.0
 11
194.724093695937
 21
15.3464057290801
 31
0.0
 11
194.8401107265044
 21
15.3464057290801
 31
0.0
 11
194.9665173418988
 21
15.3464057290801
 31
0.0
 11
195.0825343724662
 21
15.3464057290801
 31
0.0
 11
195.1673826485529
 21
15.3464057290801
 31
0.0
 11
195.2002830005048
 21
15.3464057290801
 31
0.0
 11
195.2002830005048
 21
15.3765001173137
 31
0.0
 11
195.2002830005048
 21
15.45715307777974
 31
0.0
 11
195.2002830005048
 21
15.5739193041261
 31
0.0
 11
195.2002830005048
 21
15.71235349000064
 31
0.0
 11
195.2002830005048
 21
15.85801032905125
 31
0.0
 11
195.2002830005048
 21
15.9964445149258
 31
0.0
 11
195.2002830005048
 21
16.11321074127216
 31
0.0
 11
195.2002830005048
 21
16.1938637017382
 31
0.0
 11
195.2002830005048
 21
16.2239580899718
 31
0.0
 11
195.2250405288618
 21
16.22228324219444
 31
0.0
 11
195.2840777118669
 21
16.21828937441767
 31
0.0
 11
195.3545414464214
 21
16.21352249997442
 31
0.0
 11
195.4135786294265
 21
16.20952863219765
 31
0.0
 11
195.4383361577835
 21
16.20785378442029
 31
0.0
 11
195.423306722403
 21
16.18415814206508
 31
0.0
 11
195.3821827564383
 21
16.17047697887399
 31
0.0
 11
195.3821827564383
 21
16.14221664794827
 31
0.0
 11
195.3821827564383
 21
16.06647896106735
 31
0.0
 11
195.3821827564383
 21
15.95682887707557
 31
0.0
 11
195.3821827564383
 21
15.82683135481727
 31
0.0
 11
195.3821827564383
 21
15.69005135313681
 31
0.0
 11
195.3821827564383
 21
15.56005383087852
 31
0.0
 11
195.3821827564383
 21
15.45040374688674
 31
0.0
 11
195.3821827564383
 21
15.37466606000582
 31
0.0
 11
195.3821827564383
 21
15.3464057290801
 31
0.0
 11
195.4149350096115
 21
15.3464057290801
 31
0.0
 11
195.4994013467422
 21
15.3464057290801
 31
0.0
 11
195.6148961342476
 21
15.3464057290801
 31
0.0
 11
195.7407337385445
 21
15.3464057290801
 31
0.0
 11
195.8562285260498
 21
15.3464057290801
 31
0.0
 11
195.9406948631806
 21
15.3464057290801
 31
0.0
 11
195.9734471163538
 21
15.3464057290801
 31
0.0
 11
195.9734471163538
 21
15.31924873038898
 31
0.0
 11
195.9734471163538
 21
15.2595033332685
 31
0.0
 11
195.9734471163538
 21
15.19975793614803
 31
0.0
 11
195.9734471163538
 21
15.17260093745691
 31
0.0
 11
195.9406948631806
 21
15.17260093745691
 31
0.0
 11
195.8562285260498
 21
15.17260093745691
 31
0.0
 11
195.7407337385445
 21
15.17260093745691
 31
0.0
 11
195.6148961342476
 21
15.17260093745691
 31
0.0
 11
195.4994013467422
 21
15.17260093745691
 31
0.0
 11
195.4149350096114
 21
15.17260093745691
 31
0.0
 11
195.3821827564383
 21
15.17260093745691
 31
0.0
 11
195.3821827564383
 21
15.14016305607613
 31
0.0
 11
195.3821827564383
 21
15.05211737804258
 31
0.0
 11
195.3821827564383
 21
14.92236585251946
 31
0.0
 11
195.3821827564383
 21
14.76481042866995
 31
0.0
 11
195.3821827564383
 21
14.59335305565726
 31
0.0
 11
195.3821827564383
 21
14.42189568264456
 31
0.0
 11
195.3821827564383
 21
14.26434025879505
 31
0.0
 11
195.3821827564383
 21
14.13458873327193
 31
0.0
 11
195.3821827564383
 21
14.04654305523838
 31
0.0
 11
195.3821827564383
 21
14.0141051738576
 31
0.0
  0
SPLINE
  5
C2
102
{ACAD_REACTORS
330
DF
102
}
330
48
100
AcDbEntity
  8
_U_30EC_U_30A4_U_30E4_U_30FC_1
  6
Continuous
 62
     2
100
AcDbSpline
210
0.0
220
0.0
230
1.0
 70
     8
 71
     3
 72
    62
 73
    58
 74
    56
 42
0.000000001
 43
0.0000000001
 44
0.00000001
 40
0.0
 40
0.0
 40
0.0
 40
0.0
 40
0.0598250028308485
 40
0.2024846486897331
 40
0.3727558389221031
 40
0.515415484793607
 40
0.5752404975785339
 40
0.9332326775487156
 40
1.290451762839457
 40
1.602077253145847
 40
1.699931634112108
 40
1.799359756424961
 40
2.27012014965709
 40
2.804661928461527
 40
2.882342287383239
 40
3.076543185719095
 40
3.329004354835562
 40
3.581465524568395
 40
3.77566642454368
 40
3.853346784558302
 40
3.899120679595048
 40
3.984129341792046
 40
4.029903236817394
 40
4.105797496059547
 40
4.295533144152507
 40
4.542189486611746
 40
4.788845828875695
 40
4.978581476410075
 40
5.054475735244318
 40
5.621734664339313
 40
6.130867242037329
 40
6.225249780948603
 40
6.31891303972727
 40
6.66357995455889
 40
7.047498900224751
 40
7.435230791575685
 40
7.498943906668097
 40
7.650875181210091
 40
7.832212509001601
 40
7.984143783696987
 40
8.047856898903113
 40
8.09155463273263
 40
8.172707566964307
 40
8.216405300768038
 40
8.289021782160923
 40
8.462184160757296
 40
8.668861838005377
 40
8.842024215263969
 40
8.914640695475164
 40
8.989881580861358
 40
9.155411528827242
 40
9.320941477744
 40
9.396182352487243
 40
9.45470901114379
 40
9.583467660170724
 40
9.712226309013003
 40
9.770752957989457
 40
9.770752957989457
 40
9.770752957989457
 40
9.770752957989457
 10
187.1521871691833
 20
14.93980288195949
 30
0.0
 10
187.1322348171623
 20
14.93980875568671
 30
0.0
 10
187.0647037716466
 20
14.93982863806156
 30
0.0
 10
186.9410612161788
 20
14.93949362520325
 30
0.0
 10
186.7863180150056
 20
14.94107673750511
 30
0.0
 10
186.669734948248
 20
14.93686078860494
 30
0.0
 10
186.455094263424
 20
14.95215205331625
 30
0.0
 10
186.8518948407229
 20
14.59198721286193
 30
0.0
 10
186.8945656069267
 20
14.37510503397165
 30
0.0
 10
187.3189162146611
 20
14.19325062511452
 30
0.0
 10
187.1439821496074
 20
14.08985196568073
 30
0.0
 10
187.0194523925086
 20
13.87831523212717
 30
0.0
 10
186.7666277235942
 20
14.3480608100156
 30
0.0
 10
186.4797602893627
 20
14.9951151698452
 30
0.0
 10
186.4906335926659
 20
14.68782672154693
 30
0.0
 10
186.4882892777961
 20
14.52288616971777
 30
0.0
 10
186.4861096126411
 20
14.28879670711691
 30
0.0
 10
186.4980774396346
 20
14.04498072421781
 30
0.0
 10
186.4687984740631
 20
13.89855796860981
 30
0.0
 10
186.511452262547
 20
13.75113490174536
 30
0.0
 10
186.4239814005639
 20
13.76685797306216
 30
0.0
 10
186.3768527606744
 20
13.76694303543451
 30
0.0
 10
186.2898973207713
 20
13.75109425482906
 30
0.0
 10
186.3313474021722
 20
13.89527771422759
 30
0.0
 10
186.3029875004286
 20
14.03855052698452
 30
0.0
 10
186.3145973775299
 20
14.27674947365261
 30
0.0
 10
186.3124175648272
 20
14.50517235240343
 30
0.0
 10
186.3103111127993
 20
14.6670572937599
 30
0.0
 10
186.3208035438324
 20
14.98153709333748
 30
0.0
 10
186.0128963252892
 20
14.29229470872434
 30
0.0
 10
185.7055258267456
 20
13.81476750243047
 30
0.0
 10
185.5851367066274
 20
14.03741112637428
 30
0.0
 10
185.4074607910722
 20
14.15011034955562
 30
0.0
 10
185.8853326362894
 20
14.32548143465459
 30
0.0
 10
185.9353959057208
 20
14.56091929252029
 30
0.0
 10
186.3583799621716
 20
14.95322989344605
 30
0.0
 10
186.127675427354
 20
14.93655307029065
 30
0.0
 10
186.004968585934
 20
14.9426951894877
 30
0.0
 10
185.8325483095662
 20
14.93312822699573
 30
0.0
 10
185.7213224694448
 20
14.95448818489664
 30
0.0
 10
185.6025779627448
 20
14.92136265357419
 30
0.0
 10
185.6183169706686
 20
15.00203900606884
 30
0.0
 10
185.6178550933762
 20
15.04645414290855
 30
0.0
 10
185.6027881889931
 20
15.12967081778536
 30
0.0
 10
185.7372380935443
 20
15.09062651983886
 30
0.0
 10
185.8619755545747
 20
15.11739729328424
 30
0.0
 10
186.062875523728
 20
15.10063949044055
 30
0.0
 10
186.1921540949353
 20
15.12204225913007
 30
0.0
 10
186.3328419928294
 20
15.08868778853423
 30
0.0
 10
186.2980927452615
 20
15.22651875785069
 30
0.0
 10
186.3222185666713
 20
15.34963257349479
 30
0.0
 10
186.2967086182392
 20
15.47024055670333
 30
0.0
 10
186.3333251146685
 20
15.60539865141491
 30
0.0
 10
186.2211417027769
 20
15.58094545781887
 30
0.0
 10
186.1280356457136
 20
15.59307749842018
 30
0.0
 10
186.0191547579819
 20
15.58957630069989
 30
0.0
 10
185.9569697640964
 20
15.58981755951599
 30
0.0
 10
185.9375369557246
 20
15.5898929512414
 30
0.0
 11
187.1521871691833
 21
14.93980288195949
 31
0.0
 11
187.0923621563982
 21
14.93980288195949
 31
0.0
 11
186.949702510526
 21
14.93980288195949
 31
0.0
 11
186.7794313202913
 21
14.93980288195949
 31
0.0
 11
186.6367716744191
 21
14.93980288195949
 31
0.0
 11
186.576946661634
 21
14.93980288195949
 31
0.0
 11
186.7679960754842
 21
14.63705127966891
 31
0.0
 11
186.994127278563
 21
14.36051890576686
 31
0.0
 11
187.2244526173371
 21
14.1506125349346
 31
0.0
 11
187.1521596330704
 21
14.08466403668715
 31
0.0
 11
187.0879364402644
 21
14.0087605905256
 31
0.0
 11
186.7732818215558
 21
14.35891458349365
 31
0.0
 11
186.4886640249976
 21
14.811382951436
 31
0.0
 11
186.4886640249976
 21
14.73370259137312
 31
0.0
 11
186.4886640249976
 21
14.53950169121591
 31
0.0
 11
186.4886640249976
 21
14.28704052101154
 31
0.0
 11
186.4886640249976
 21
14.03457935080718
 31
0.0
 11
186.4886640249976
 21
13.84037845064997
 31
0.0
 11
186.4886640249976
 21
13.76269809058709
 31
0.0
 11
186.4428901295605
 21
13.76269809058709
 31
0.0
 11
186.3578814666058
 21
13.76269809058709
 31
0.0
 11
186.3121075711687
 21
13.76269809058709
 31
0.0
 11
186.3121075711687
 21
13.83859234982737
 31
0.0
 11
186.3121075711687
 21
14.02832799792808
 31
0.0
 11
186.3121075711687
 21
14.274984340459
 31
0.0
 11
186.3121075711687
 21
14.52164068298992
 31
0.0
 11
186.3121075711687
 21
14.71137633109063
 31
0.0
 11
186.3121075711687
 21
14.78727059033091
 31
0.0
 11
185.9987626399266
 21
14.31440946197692
 31
0.0
 11
185.6352328662148
 21
13.9579517710938
 31
0.0
 11
185.5773927461627
 21
14.03253450545024
 31
0.0
 11
185.5094852305341
 21
14.0970432293924
 31
0.0
 11
185.7750721898319
 21
14.31672219795887
 31
0.0
 11
186.0233764972061
 21
14.60953395971696
 31
0.0
 11
186.226498280526
 21
14.93980288195949
 31
0.0
 11
186.1627851652721
 21
14.93980288195949
 31
0.0
 11
186.0108538904359
 21
14.93980288195949
 31
0.0
 11
185.8295165624055
 21
14.93980288195949
 31
0.0
 11
185.6775852875693
 21
14.93980288195949
 31
0.0
 11
185.6138721723154
 21
14.93980288195949
 31
0.0
 11
185.6138721723154
 21
14.98350061600208
 31
0.0
 11
185.6138721723154
 21
15.06465355065261
 31
0.0
 11
185.6138721723154
 21
15.1083512846952
 31
0.0
 11
185.6864886537961
 21
15.1083512846952
 31
0.0
 11
185.8596510327118
 21
15.1083512846952
 31
0.0
 11
186.0663287107723
 21
15.1083512846952
 31
0.0
 11
186.239491089688
 21
15.1083512846952
 31
0.0
 11
186.3121075711687
 21
15.1083512846952
 31
0.0
 11
186.3121075711687
 21
15.18359217009304
 31
0.0
 11
186.3121075711687
 21
15.3491221179683
 31
0.0
 11
186.3121075711687
 21
15.51465206584355
 31
0.0
 11
186.3121075711687
 21
15.5898929512414
 31
0.0
 11
186.2535809125055
 21
15.5898929512414
 31
0.0
 11
186.1248222634467
 21
15.5898929512414
 31
0.0
 11
185.9960636143877
 21
15.5898929512414
 31
0.0
 11
185.9375369557246
 21
15.5898929512414
 31
0.0
  0
SPLINE
  5
C3
102
{ACAD_REACTORS
330
DF
102
}
330
48
100
AcDbEntity
  8
_U_30EC_U_30A4_U_30E4_U_30FC_1
  6
Continuous
 62
     2
100
AcDbSpline
210
0.0
220
0.0
230
1.0
 70
     8
 71
     3
 72
    70
 73
    66
 74
    64
 42
0.000000001
 43
0.0000000001
 44
0.00000001
 40
0.0
 40
0.0
 40
0.0
 40
0.0
 40
0.0241731073021472
 40
0.0846058988987013
 40
0.1631685280353284
 40
0.2417311571789756
 40
0.3021639488292751
 40
0.3263370654895541
 40
0.3533118254248934
 40
0.4228783438922253
 40
0.5179999095313704
 40
0.62163982394666
 40
0.716761389150031
 40
0.7863279069650609
 40
0.8133026791762618
 40
0.8372943998772457
 40
0.8945054261373657
 40
0.9627895541963437
 40
1.020000580349154
 40
1.043992300975253
 40
1.071934345522995
 40
1.11312176877301
 40
1.145225199332335
 40
1.225483775412873
 40
1.329819923771589
 40
1.434156071994482
 40
1.514414647795907
 40
1.546518078208515
 40
1.578974764260289
 40
1.662678849314284
 40
1.777131373668504
 40
1.901833377474895
 40
2.016285900500685
 40
2.099989982528052
 40
2.132446666570411
 40
2.158782354486136
 40
2.216720867907923
 40
2.274659381334348
 40
2.300995069256282
 40
2.333451754066254
 40
2.417155836543935
 40
2.531608358985375
 40
2.65631036228387
 40
2.770762886389002
 40
2.854466971340167
 40
2.886923657363974
 40
2.913597976833404
 40
2.982389642875197
 40
3.076451716947049
 40
3.178937260458647
 40
3.272999334740038
 40
3.341791001059251
 40
3.368465320663558
 40
3.396976080738779
 40
3.472140811846015
 40
3.578408190308705
 40
3.700226892456141
 40
3.822045594634358
 40
3.928312973256465
 40
4.003477705314863
 40
4.031988456866928
 40
4.058324144797734
 40
4.116262658236908
 40
4.174201171400719
 40
4.200536849608659
 40
4.200536849608659
 40
4.200536849608659
 40
4.200536849608659
 10
185.9857704961609
 20
15.75844135397701
 30
0.0
 10
185.9938259544679
 20
15.75844359811683
 30
0.0
 10
186.0220200663241
 20
15.75845146032793
 30
0.0
 10
186.0765534803672
 20
15.75830754828368
 30
0.0
 10
186.1482891808604
 20
15.75909120499894
 30
0.0
 10
186.2236240137062
 20
15.75627570463807
 30
0.0
 10
186.2713052366438
 20
15.76298403400953
 30
0.0
 10
186.3195071245616
 20
15.75197563692428
 30
0.0
 10
186.3062571799873
 20
15.8054640299703
 30
0.0
 10
186.3151093964538
 20
15.86049583543089
 30
0.0
 10
186.3108698036285
 20
15.95419908726108
 30
0.0
 10
186.313348348128
 20
16.04959482218533
 30
0.0
 10
186.309093870606
 20
16.14356821983389
 30
0.0
 10
186.3179818665846
 20
16.19795062438015
 30
0.0
 10
186.3046977409945
 20
16.25233997691464
 30
0.0
 10
186.3514119277109
 20
16.23842216335361
 30
0.0
 10
186.3943254545736
 20
16.24103877374046
 30
0.0
 10
186.4605443456684
 20
16.23648422450756
 30
0.0
 10
186.5013342271799
 20
16.22778162134163
 30
0.0
 10
186.5525145690819
 20
16.23531799890194
 30
0.0
 10
186.5253720487201
 20
16.19349970223284
 30
0.0
 10
186.4803096055706
 20
16.20284992072594
 30
0.0
 10
186.4942065045051
 20
16.13841207371835
 30
0.0
 10
186.4858414431653
 20
16.07378219627396
 30
0.0
 10
186.4903632178398
 20
15.97529141193884
 30
0.0
 10
186.4854741311167
 20
15.87595932842567
 30
0.0
 10
186.4950258992082
 20
15.81293115552964
 30
0.0
 10
186.4799761455201
 20
15.74964011499785
 30
0.0
 10
186.5449159457208
 20
15.76515072944265
 30
0.0
 10
186.6116246399497
 20
15.75499387697808
 30
0.0
 10
186.7241435470827
 20
15.75988800099363
 30
0.0
 10
186.8390235448954
 20
15.7569120473278
 30
0.0
 10
186.9519871999747
 20
15.76221664184987
 30
0.0
 10
187.0176267597677
 20
15.75107306472084
 30
0.0
 10
187.0816276691053
 20
15.76744532319854
 30
0.0
 10
187.0703142889189
 20
15.7176168990527
 30
0.0
 10
187.077533987151
 20
15.67416715212119
 30
0.0
 10
187.070314261127
 20
15.63071745587441
 30
0.0
 10
187.0816277175993
 20
15.58088895196873
 30
0.0
 10
187.0176263598972
 20
15.59726166091358
 30
0.0
 10
186.9519921240459
 20
15.58611271661584
 30
0.0
 10
186.838997431733
 20
15.5914485720685
 30
0.0
 10
186.7242456548644
 20
15.58834345663818
 30
0.0
 10
186.611318368686
 20
15.59364894682584
 30
0.0
 10
186.5455220903584
 20
15.58257300019589
 30
0.0
 10
186.4816097975358
 20
15.59887597847614
 30
0.0
 10
186.4936015165125
 20
15.54423524395738
 30
0.0
 10
186.4862104613005
 20
15.48854295047839
 30
0.0
 10
186.4892684841983
 20
15.39649689140569
 30
0.0
 10
186.4893422785682
 20
15.30179109873101
 30
0.0
 10
186.4860313578361
 20
15.20952782902267
 30
0.0
 10
186.4939505989903
 20
15.15435768736141
 30
0.0
 10
186.4815076611617
 20
15.10058169100139
 30
0.0
 10
186.5389116551632
 20
15.11453768862784
 30
0.0
 10
186.5994708140383
 20
15.1051145788423
 30
0.0
 10
186.7048680855081
 20
15.10942885928707
 30
0.0
 10
186.8204294070622
 20
15.10835504612034
 30
0.0
 10
186.9359688877797
 20
15.10725965900997
 30
0.0
 10
187.041418113084
 20
15.11162525770635
 30
0.0
 10
187.1018680471804
 20
15.10209426030674
 30
0.0
 10
187.159283773911
 20
15.11617289606382
 30
0.0
 10
187.1477773876709
 20
15.06707153265685
 30
0.0
 10
187.1537566781749
 20
15.0256465801865
 30
0.0
 10
187.1520311050801
 20
14.97651677966695
 30
0.0
 10
187.1521500122971
 20
14.94854428447607
 30
0.0
 10
187.1521871691833
 20
14.93980288195949
 30
0.0
 11
185.9857704961609
 21
15.75844135397701
 31
0.0
 11
186.0099436128282
 21
15.75844135397701
 31
0.0
 11
186.0703764044962
 21
15.75844135397701
 31
0.0
 11
186.1489390336648
 21
15.75844135397701
 31
0.0
 11
186.2275016628334
 21
15.75844135397701
 31
0.0
 11
186.2879344545015
 21
15.75844135397701
 31
0.0
 11
186.3121075711687
 21
15.75844135397701
 31
0.0
 11
186.3121075711687
 21
15.78541612620059
 31
0.0
 11
186.3121075711687
 21
15.85498264404036
 31
0.0
 11
186.3121075711687
 21
15.95010420924984
 31
0.0
 11
186.3121075711687
 21
16.05374412358257
 31
0.0
 11
186.3121075711687
 21
16.14886568879204
 31
0.0
 11
186.3121075711687
 21
16.21843220663181
 31
0.0
 11
186.3121075711687
 21
16.2454069788554
 31
0.0
 11
186.3360407604892
 21
16.24373213107804
 31
0.0
 11
186.3931122119458
 21
16.23973826330124
 31
0.0
 11
186.461229750781
 21
16.23497138885797
 31
0.0
 11
186.5183012022376
 21
16.23097752108118
 31
0.0
 11
186.5422343915581
 21
16.22930267330381
 31
0.0
 11
186.5274972731229
 21
16.20556293372639
 31
0.0
 11
186.4886640249976
 21
16.1918376733131
 31
0.0
 11
186.4886640249976
 21
16.15973424225117
 31
0.0
 11
186.4886640249976
 21
16.07947566459634
 31
0.0
 11
186.4886640249976
 21
15.97513951364505
 31
0.0
 11
186.4886640249976
 21
15.87080336269377
 31
0.0
 11
186.4886640249976
 21
15.79054478503894
 31
0.0
 11
186.4886640249976
 21
15.75844135397701
 31
0.0
 11
186.5211207110824
 21
15.75844135397701
 31
0.0
 11
186.6048247962486
 21
15.75844135397701
 31
0.0
 11
186.7192773208634
 21
15.75844135397701
 31
0.0
 11
186.8439793252946
 21
15.75844135397701
 31
0.0
 11
186.9584318499095
 21
15.75844135397701
 31
0.0
 11
187.0421359350756
 21
15.75844135397701
 31
0.0
 11
187.0745926211604
 21
15.75844135397701
 31
0.0
 11
187.0745926211604
 21
15.73210566604957
 31
0.0
 11
187.0745926211604
 21
15.67416715260921
 31
0.0
 11
187.0745926211604
 21
15.61622863916884
 31
0.0
 11
187.0745926211604
 21
15.5898929512414
 31
0.0
 11
187.0421359350756
 21
15.5898929512414
 31
0.0
 11
186.9584318499095
 21
15.5898929512414
 31
0.0
 11
186.8439793252946
 21
15.5898929512414
 31
0.0
 11
186.7192773208634
 21
15.5898929512414
 31
0.0
 11
186.6048247962485
 21
15.5898929512414
 31
0.0
 11
186.5211207110824
 21
15.5898929512414
 31
0.0
 11
186.4886640249976
 21
15.5898929512414
 31
0.0
 11
186.4886640249976
 21
15.56321863152018
 31
0.0
 11
186.4886640249976
 21
15.49442696487072
 31
0.0
 11
186.4886640249976
 21
15.40036489006432
 31
0.0
 11
186.4886640249976
 21
15.29787934587227
 31
0.0
 11
186.4886640249976
 21
15.20381727106587
 31
0.0
 11
186.4886640249976
 21
15.13502560441642
 31
0.0
 11
186.4886640249976
 21
15.1083512846952
 31
0.0
 11
186.5171747850993
 21
15.1083512846952
 31
0.0
 11
186.5923395162766
 21
15.1083512846952
 31
0.0
 11
186.6986068948376
 21
15.1083512846952
 31
0.0
 11
186.8204255970904
 21
15.1083512846952
 31
0.0
 11
186.9422442993433
 21
15.1083512846952
 31
0.0
 11
187.0485116779043
 21
15.1083512846952
 31
0.0
 11
187.1236764090816
 21
15.1083512846952
 31
0.0
 11
187.1521871691833
 21
15.1083512846952
 31
0.0
 11
187.1521871691833
 21
15.08201559676774
 31
0.0
 11
187.1521871691833
 21
15.02407708332735
 31
0.0
 11
187.1521871691833
 21
14.96613856988695
 31
0.0
 11
187.1521871691833
 21
14.93980288195949
 31
0.0
  0
SPLINE
  5
C4
102
{ACAD_REACTORS
330
DF
102
}
330
48
100
AcDbEntity
  8
_U_30EC_U_30A4_U_30E4_U_30FC_1
  6
Continuous
 62
     2
100
AcDbSpline
210
0.0
220
0.0
230
1.0
 70
     8
 71
     3
 72
    24
 73
    20
 74
    18
 42
0.000000001
 43
0.0000000001
 44
0.00000001
 40
0.0
 40
0.0
 40
0.0
 40
0.0
 40
0.2211075008753953
 40
0.4273218586245801
 40
0.5080174679239837
 40
0.5914835907870774
 40
0.8143265690193788
 40
1.054651302686687
 40
1.295452694023262
 40
1.518109231328853
 40
1.540864321905467
 40
1.595126460622724
 40
1.659890947896033
 40
1.714153085187387
 40
1.736908174961686
 40
1.7649511007354
 40
1.801562291220983
 40
1.953914424543671
 40
2.126104167379805
 40
2.126104167379805
 40
2.126104167379805
 40
2.126104167379805
 10
185.9375369556889
 20
15.5898929511302
 30
0.0
 10
185.9112579081811
 20
15.53097628234378
 30
0.0
 10
185.8604698894426
 20
15.4171113967926
 30
0.0
 10
185.8131784839111
 20
15.14441958233113
 30
0.0
 10
185.7043482802618
 20
15.24445482575454
 30
0.0
 10
185.5514800279637
 20
15.27118593367333
 30
0.0
 10
185.76861551812
 20
15.48518135017631
 30
0.0
 10
185.7838483674381
 20
15.70332117782491
 30
0.0
 10
185.8906889492002
 20
15.88451579066425
 30
0.0
 10
185.8305380947077
 20
16.16913226311396
 30
0.0
 10
185.9334317395402
 20
16.14114089222447
 30
0.0
 10
185.977993346815
 20
16.13243251602298
 30
0.0
 10
186.0380842395397
 20
16.12139654183355
 30
0.0
 10
186.0756619587438
 20
16.10767523055561
 30
0.0
 10
186.1252466928606
 20
16.10756076160227
 30
0.0
 10
186.0930158919325
 20
16.07306592398622
 30
0.0
 10
186.0171802221882
 20
16.08404104537973
 30
0.0
 10
186.0429447159694
 20
15.89858969582446
 30
0.0
 10
186.0055896763849
 20
15.80702313549586
 30
0.0
 10
185.9857704961609
 20
15.75844135397701
 30
0.0
 11
185.9375369556889
 21
15.5898929511302
 31
0.0
 11
185.8616471328552
 21
15.38221708318562
 31
0.0
 11
185.7717402238433
 21
15.19663392356191
 31
0.0
 11
185.701149392311
 21
15.2357327256355
 31
0.0
 11
185.6245525192651
 21
15.2688916318772
 31
0.0
 11
185.7214026947456
 21
15.4695880120354
 31
0.0
 11
185.7994641467472
 21
15.69688163177027
 31
0.0
 11
185.8589716929721
 21
15.93021436608692
 31
0.0
 11
185.9001601511226
 21
16.1490280899905
 31
0.0
 11
185.9224183822214
 21
16.14429889221391
 31
0.0
 11
185.975495702534
 21
16.13302157443898
 31
0.0
 11
186.0388460525844
 21
16.11956154999793
 31
0.0
 11
186.091923372897
 21
16.10828423222299
 31
0.0
 11
186.1141816039958
 21
16.1035550344464
 31
0.0
 11
186.096409715746
 21
16.08186250841009
 31
0.0
 11
186.0606122998071
 21
16.0741862844537
 31
0.0
 11
186.028195330148
 21
15.92532288171315
 31
0.0
 11
185.9857704961609
 21
15.75844135397701
 31
0.0
  0
LWPOLYLINE
  5
C5
102
{ACAD_REACTORS
330
E0
102
}
330
48
100
AcDbEntity
  8
_U_30EC_U_30A4_U_30E4_U_30FC_1
  6
Continuous
 62
     2
100
AcDbPolyline
 90
        5
 70
     1
 43
0.0
 10
191.1602971697031
 20
15.3972233679563
 10
192.4578138032672
 20
15.3972233679563
 10
192.4578138032672
 20
15.2287543402206
 10
191.1602971697031
 20
15.2287543402206
 10
191.1602971697031
 20
15.3972233679563
  0
MTEXT
  5
C7
330
48
100
AcDbEntity
  8
1
 62
   250
100
AcDbMText
 10
25.0
 20
5.0
 30
0.0
 40
3.5
 41
0.0
 71
     4
 72
     1
  1
備考欄の文字列 原点位置=4
  7
CONVERTER_11
 73
     1
 44
0.54545454545455
  0
MTEXT
  5
C8
330
48
100
AcDbEntity
  8
1
 62
     2
100
AcDbMText
 10
89.50000000000003
 20
24.0
 30
0.0
 40
3.5
 41
0.0
 71
     5
 72
     1
  1
尺度
  7
CONVERTER_11
 73
     1
 44
0.54545454545455
  0
MTEXT
  5
C9
330
48
100
AcDbEntity
  8
1
 62
     2
100
AcDbMText
 10
135.5
 20
25.0
 30
0.0
 40
3.0
 41
0.0
 71
     5
 72
     1
  1
製図
  7
CONVERTER_11
 73
     1
 44
0.59090909090909
  0
MTEXT
  5
CA
330
48
100
AcDbEntity
  8
1
 62
     2
100
AcDbMText
 10
152.5
 20
25.0
 30
0.0
 40
3.0
 41
0.0
 71
     5
 72
     1
  1
設計
  7
CONVERTER_11
 73
     1
 44
0.59090909090909
  0
MTEXT
  5
CB
330
48
100
AcDbEntity
  8
1
 62
     2
100
AcDbMText
 10
118.5
 20
25.0
 30
0.0
 40
3.0
 41
0.0
 71
     5
 72
     1
  1
検図
  7
CONVERTER_11
 73
     1
 44
0.59090909090909
  0
MTEXT
  5
CC
330
48
100
AcDbEntity
  8
1
 62
     2
100
AcDbMText
 10
175.0
 20
23.5
 30
0.0
 40
3.5
 41
0.0
 71
     5
 72
     1
  1
第三角法
  7
CONVERTER_11
 73
     1
 44
0.54545454545455
  0
MTEXT
  5
CD
330
48
100
AcDbEntity
  8
1
 62
     2
100
AcDbMText
 10
101.5
 20
25.0
 30
0.0
 40
3.0
 41
0.0
 71
     5
 72
     1
  1
承認
  7
CONVERTER_11
 73
     1
 44
0.59090909090909
  0
MTEXT
  5
CE
330
48
100
AcDbEntity
  8
1
 62
     2
100
AcDbMText
 10
29.0
 20
14.25
 30
0.0
 40
3.5
 41
0.0
 71
     5
 72
     1
  1
品番
  7
CONVERTER_11
 73
     1
 44
0.72727272727273
  0
MTEXT
  5
CF
330
48
100
AcDbEntity
  8
1
 62
     2
100
AcDbMText
 10
29.0
 20
22.75
 30
0.0
 40
3.5
 41
0.0
 71
     5
 72
     1
  1
品名
  7
CONVERTER_11
 73
     1
 44
0.72727272727273
  0
MTEXT
  5
D0
330
48
100
AcDbEntity
  8
1
 62
     2
100
AcDbMText
 10
29.0
 20
34.00000000000001
 30
0.0
 40
3.5
 41
0.0
 71
     5
 72
     1
  1
備考
  7
CONVERTER_11
 73
     1
 44
0.45454545454545
  0
MTEXT
  5
D1
330
48
100
AcDbEntity
  8
1
 62
     2
100
AcDbMText
 10
32.5
 20
282.0000000000003
 30
0.0
 40
5.0
 41
0.0
 71
     5
 72
     1
  1
図番
  7
CONVERTER_11
 73
     1
 44
0.45454545454545
  0
HATCH
  5
D2
330
48
100
AcDbEntity
  8
1
  6
Continuous
 62
     2
100
AcDbHatch
 10
0.0
 20
0.0
 30
0.0
210
0.0
220
0.0
230
1.0
  2
CUSTOM0
 70
     0
 71
     1
 91
        1
 92
        1
 93
        1
 72
     4
 94
        3
 73
     0
 74
     0
 95
       99
 96
       95
 40
0.0
 40
0.0
 40
0.0
 40
0.0
 40
0.0796417172272102
 40
0.1621768542355718
 40
0.2486489160957381
 40
0.3404969668524209
 40
0.4381912511164263
 40
0.5434463660244586
 40
0.6518115192846919
 40
0.7530190937886424
 40
0.8492196919725047
 40
0.9419290312997814
 40
1.034249663570002
 40
1.129078600620148
 40
1.226697027573244
 40
1.327220425421684
 40
1.470572134937979
 40
1.59548986337117
 40
1.719934125348419
 40
1.85057662012746
 40
1.989059629987342
 40
2.134139054226956
 40
2.280698007207239
 40
2.424529739039504
 40
2.565929576985872
 40
2.708239260773595
 40
2.86171788744366
 40
3.04516854034738
 40
3.183798301138623
 40
3.314813961455506
 40
3.442083470447359
 40
3.569912708373002
 40
3.702177512509403
 40
3.842307559659582
 40
3.992872223246005
 40
4.156750662218364
 40
4.310981861107585
 40
4.445859909322625
 40
4.572393936131622
 40
4.701656719782009
 40
4.768279086008509
 40
4.835960697898442
 40
4.912788918729386
 40
5.006285208481574
 40
5.026909478751622
 40
5.04753374902113
 40
5.101808031471196
 40
5.162325165538507
 40
5.226919745995823
 40
5.294231806596691
 40
5.364544852554829
 40
5.438319055467882
 40
5.517877651324186
 40
5.607647714861526
 40
5.700449642544342
 40
5.78825114236401
 40
5.872714706039734
 40
5.955167292575265
 40
6.037192395190329
 40
6.120669181469039
 40
6.206848616686283
 40
6.296680855416748
 40
6.44255839287259
 40
6.568190371608257
 40
6.692904567360296
 40
6.824220446557082
 40
6.9631218503293
 40
7.107843738851094
 40
7.253431663907201
 40
7.395187468036624
 40
7.533140753237674
 40
7.670550457175183
 40
7.816236511769189
 40
7.987691657359146
 40
8.142277421969188
 40
8.293662615414927
 40
8.442962460879196
 40
8.59159831618523
 40
8.743678992361719
 40
8.903725323699105
 40
9.076307008890451
 40
9.265578604680506
 40
9.459203795360683
 40
9.617619810273467
 40
9.753609671361817
 40
9.874873300004005
 40
9.954520184977708
 40
10.02416413719235
 40
10.09769764405435
 40
10.18909955924964
 40
10.20974586420126
 40
10.23039218263371
 40
10.30057101881258
 40
10.37632012987541
 40
10.37632012987541
 40
10.37632012987541
 40
10.37632012987541
 10
170.1465954835851
 20
14.1379566321599
 10
170.1632217851219
 20
14.11720608845311
 10
170.1970784206577
 20
14.07495111711902
 10
170.2599822541036
 20
14.02029811392072
 10
170.3332500940393
 20
13.97299025121049
 10
170.4175969238636
 20
13.93527231437939
 10
170.513224061546
 20
13.91040619731953
 10
170.6171853775345
 20
13.90309559345934
 10
170.7224020220405
 20
13.91142322794055
 10
170.8206626371334
 20
13.94149179651526
 10
170.9058986427548
 20
13.98848822971875
 10
170.9779220206103
 20
14.04952991250858
 10
171.0350917709096
 20
14.12412969578581
 10
171.076786874744
 20
14.21002464660174
 10
171.1026952846293
 20
14.30485850432209
 10
171.1118037332652
 20
14.41854979038368
 10
171.0986864796487
 20
14.54332587770775
 10
171.0325330334415
 20
14.660147191719
 10
170.9369370919569
 20
14.74512539577374
 10
170.8249681022368
 20
14.81416684459164
 10
170.699365958327
 20
14.87204142045891
 10
170.5656691620856
 20
14.9237372328434
 10
170.4313122818831
 20
14.97899092397179
 10
170.3051983986876
 20
15.04939770641647
 10
170.1926579987535
 20
15.13785540731248
 10
170.0969963064458
 20
15.24981067868472
 10
170.0334157151825
 20
15.3994991010138
 10
170.0200706505015
 20
15.55932794385139
 10
170.0320510987448
 20
15.71048405306843
 10
170.071229892884
 20
15.83809244591539
 10
170.135498775091
 20
15.95080874030846
 10
170.223820499974
 20
16.04648609268686
 10
170.3338091207627
 20
16.12354214985752
 10
170.4632284401265
 20
16.18151396936283
 10
170.6111838967793
 20
16.2173917758882
 10
170.7682069455487
 20
16.22746719050562
 10
170.917494046643
 20
16.21863637762589
 10
171.059625361417
 20
16.19074899340355
 10
171.1595922609625
 20
16.13413314701138
 10
171.3125074736185
 20
16.08674602105509
 10
171.2455131717168
 20
16.00197553001187
 10
171.2296479120269
 20
15.93438901873487
 10
171.1978750531297
 20
15.86926092793192
 10
171.215020220957
 20
15.76723453256957
 10
171.1666427208232
 20
15.77493211681904
 10
171.1315789440766
 20
15.76806771724812
 10
171.1296697985718
 20
15.83263831158195
 10
171.0985692931989
 20
15.87825639621396
 10
171.0664551628456
 20
15.93561036628455
 10
171.0208038475168
 20
15.98540462692559
 10
170.9658508218386
 20
16.02994813718992
 10
170.9010841173008
 20
16.06763988836551
 10
170.8232377310596
 20
16.09283375791351
 10
170.7355160553352
 20
16.09931230998107
 10
170.6452903277807
 20
16.09235709285609
 10
170.5594594694065
 20
16.06909190460923
 10
170.4828343638596
 20
16.03131644107547
 10
170.4165265636201
 20
15.98051641089572
 10
170.3622560536964
 20
15.91731143407209
 10
170.3224925345458
 20
15.8427645571037
 10
170.2976775510588
 20
15.75917313997764
 10
170.289212426287
 20
15.65192948382284
 10
170.3019697987103
 20
15.52965457267555
 10
170.3681548409274
 20
15.41149724291216
 10
170.4640977399832
 20
15.32606325709529
 10
170.5757914963181
 20
15.25583362306715
 10
170.7010863668703
 20
15.19659162305306
 10
170.8349823941447
 20
15.14616708086129
 10
170.968993033315
 20
15.09322516984383
 10
171.0950885316915
 20
15.02750170625175
 10
171.2076216638417
 20
14.94480352537322
 10
171.3031370284233
 20
14.83996006310072
 10
171.3672706486962
 20
14.69937117251569
 10
171.3811103725279
 20
14.54065409451592
 10
171.367395471223
 20
14.38153155217875
 10
171.3244739153984
 20
14.23483828819212
 10
171.2545906329066
 20
14.10119796587142
 10
171.1574592213829
 20
13.98532387699294
 10
171.0347806023657
 20
13.89089981770087
 10
170.8874408413168
 20
13.82179270651981
 10
170.7177132497125
 20
13.77953210858854
 10
170.5317404979596
 20
13.76781736230405
 10
170.3528955926183
 20
13.77809486683439
 10
170.1881733753743
 20
13.81966573769151
 10
170.0834410841056
 20
13.88797642883947
 10
169.9350960790365
 20
13.93675219032108
 10
169.998037819473
 20
14.02976591290841
 10
170.0072274430059
 20
14.1029653624828
 10
170.0303711301232
 20
14.16936294501345
 10
170.0034588335316
 20
14.26974809527581
 10
170.0521338956339
 20
14.26234033517379
 10
170.0916530580697
 20
14.26894063620895
 10
170.0996204944701
 20
14.1907870321893
 10
170.1305436967922
 20
14.15600927375853
 10
170.1465954835851
 20
14.1379566321599
 97
        1
330
B4
 75
     1
 76
     2
 52
45.0
 41
0.1
 77
     0
 78
     1
 53
45.0
 43
0.0
 44
0.0
 45
-0.282842712474619
 46
0.0
 79
     0
 98
        1
 10
0.0
 20
0.0
  0
HATCH
  5
D3
330
48
100
AcDbEntity
  8
1
  6
Continuous
 62
     2
100
AcDbHatch
 10
0.0
 20
0.0
 30
0.0
210
0.0
220
0.0
230
1.0
  2
CUSTOM1
 70
     0
 71
     1
 91
        2
 92
        1
 93
        1
 72
     4
 94
        3
 73
     0
 74
     0
 95
       57
 96
       53
 40
0.0
 40
0.0
 40
0.0
 40
0.0
 40
0.0471632082808921
 40
0.0914861054632111
 40
0.1357762519702346
 40
0.1826527001610641
 40
0.229520328857255
 40
0.2737751972220719
 40
0.3181310461543017
 40
0.3652607198398426
 40
0.4571007286313989
 40
0.5671851029164828
 40
0.6894623283867831
 40
0.8181758272545507
 40
0.9510087229273481
 40
1.085852229674046
 40
1.218126164475279
 40
1.343545131142366
 40
1.454537202956781
 40
1.56718760753079
 40
1.68071096664238
 40
1.794226869736688
 40
1.900009184247544
 40
2.004085860447767
 40
2.108162674451711
 40
2.214000150155283
 40
2.49603857735212
 40
2.762350745479285
 40
2.997275353279414
 40
3.185110082137701
 40
3.246407890063926
 40
3.312607550212656
 40
3.378877742711557
 40
3.440140399651409
 40
4.100501696006398
 40
4.754913085563438
 40
5.411331693423832
 40
6.07789043256862
 40
6.110575292670899
 40
6.143260152775679
 40
6.367989363395036
 40
6.610525374951424
 40
6.863389136467209
 40
7.119380025547452
 40
7.376036605091011
 40
7.631164770966201
 40
7.876722425456316
 40
8.104953735855851
 40
8.312916685924215
 40
8.497730294941176
 40
8.651018984313769
 40
8.764738853624452
 40
8.764738853624452
 40
8.764738853624452
 40
8.764738853624452
 10
174.7922649500513
 20
13.81626739612931
 10
174.7766616726931
 20
13.81826231079081
 10
174.7463947960302
 20
13.82213201360301
 10
174.7010994202252
 20
13.82341984967265
 10
174.6559553129349
 20
13.82308683554049
 10
174.6099017123399
 20
13.82314658674222
 10
174.5640496172096
 20
13.82325813649999
 10
174.5183711648164
 20
13.82277833456587
 10
174.4750811541608
 20
13.82461109618723
 10
174.4039947951514
 20
13.80049556814663
 10
174.4057477261441
 20
13.92184693977253
 10
174.358619637057
 20
14.00726239751233
 10
174.3191478251762
 20
14.12486929345137
 10
174.2706635532645
 20
14.24232752540438
 10
174.2201017402522
 20
14.3640593576151
 10
174.1718634610477
 20
14.49075967862468
 10
174.1135232947594
 20
14.59933687784953
 10
174.0980892667262
 20
14.75620657134415
 10
173.9566586330635
 20
14.72373446548319
 10
173.8508397414903
 20
14.73512888682181
 10
173.7358569725222
 20
14.73392591514613
 10
173.6253142252141
 20
14.73506945347408
 10
173.5176583522784
 20
14.73418350037525
 10
173.4121322529243
 20
14.7341660239052
 10
173.3109192682013
 20
14.72714032472412
 10
173.1266804827753
 20
14.75135859859875
 10
173.1157393685412
 20
14.44741691121882
 10
173.0087691634749
 20
14.22353177253399
 10
172.9098148604347
 20
14.03895314292497
 10
172.9225090524007
 20
13.79530204804213
 10
172.8050091716397
 20
13.82508046753198
 10
172.742205586831
 20
13.82258089509599
 10
172.67858720934
 20
13.82344075102806
 10
172.3946014194075
 20
13.78098039941958
 10
173.0251638499381
 20
14.50081952444783
 10
173.1087645289073
 20
15.01276539435723
 10
173.4929252789338
 20
15.53353743550043
 10
173.4777208288565
 20
16.2351962625321
 10
173.7239265722697
 20
16.22345633081255
 10
173.8256346157561
 20
16.23225004452771
 10
173.8249752035818
 20
15.98059650730348
 10
173.9428317155828
 20
15.7981802073396
 10
174.0315515260485
 20
15.55563740662868
 10
174.1322292485259
 20
15.32340030530129
 10
174.2311142712243
 20
15.08674644566914
 10
174.3299676990669
 20
14.85461739170092
 10
174.4256166390925
 20
14.63122222788788
 10
174.5159904573272
 20
14.42272549049317
 10
174.5989944568188
 20
14.23308448529319
 10
174.6726088582799
 20
14.066631060681
 10
174.7342815895545
 20
13.929176996261
 10
174.7749458885604
 20
13.84999239430036
 10
174.7922649500513
 20
13.81626739612931
 97
        1
330
B5
 92
       16
 93
        1
 72
     4
 94
        3
 73
     0
 74
     0
 95
       25
 96
       21
 40
0.0
 40
0.0
 40
0.0
 40
0.0
 40
0.0911479969065388
 40
0.1858117896204662
 40
0.2804128399734486
 40
0.3715889190714506
 40
0.4679080494218704
 40
0.5642683809229225
 40
0.6605683222644985
 40
0.7569653015810248
 40
0.8561348172522699
 40
1.092615965104277
 40
1.374867658141851
 40
1.611348812011566
 40
1.710518328425211
 40
1.809403163726526
 40
2.045205463294019
 40
2.326646917622067
 40
2.562449217190521
 40
2.661334043833836
 40
2.661334043833836
 40
2.661334043833836
 40
2.661334043833836
 10
173.2683700567199
 20
14.8861453819729
 10
173.2987525917923
 20
14.88598079714554
 10
173.3606895889112
 20
14.88564528689922
 10
173.454135696033
 20
14.88269055452001
 10
173.5475095236357
 20
14.87977752877152
 10
173.6417760753476
 20
14.87894201643416
 10
173.7354964790966
 20
14.87996644658046
 10
173.8352040303205
 20
14.87916977470971
 10
173.9188949546313
 20
14.88921410235218
 10
174.0637996315045
 20
14.86234617674163
 10
173.9396132444801
 20
15.03665530280046
 10
173.8965867286281
 20
15.19651711006087
 10
173.780892214221
 20
15.45518458550212
 10
173.7017565431256
 20
15.59231052861852
 10
173.6431576621816
 20
15.80937033134071
 10
173.5864803939438
 20
15.59266134213422
 10
173.5052809900477
 20
15.45327012438232
 10
173.4063701281488
 20
15.20406969370191
 10
173.3253625094259
 20
15.01925830226071
 10
173.2813683325838
 20
14.91650446856114
 10
173.2683700567199
 20
14.8861453819729
 97
        1
330
B6
 75
     1
 76
     2
 52
45.0
 41
0.1
 77
     0
 78
     1
 53
45.0
 43
0.0
 44
0.0
 45
-0.282842712474619
 46
0.0
 79
     0
 98
        1
 10
0.0
 20
0.0
  0
HATCH
  5
D4
330
48
100
AcDbEntity
  8
1
  6
Continuous
 62
     2
100
AcDbHatch
 10
0.0
 20
0.0
 30
0.0
210
0.0
220
0.0
230
1.0
  2
CUSTOM2
 70
     0
 71
     1
 91
        1
 92
        1
 93
        1
 72
     4
 94
        3
 73
     0
 74
     0
 95
       95
 96
       91
 40
0.0
 40
0.0
 40
0.0
 40
0.0
 40
0.6550406656911508
 40
1.30808728903191
 40
1.420803739835791
 40
1.566130759770794
 40
1.757067341888434
 40
2.006513545026423
 40
2.087328263121511
 40
2.185328872295626
 40
2.294612454748367
 40
2.408936380534788
 40
2.52680276779854
 40
2.646360524615595
 40
2.762535723971563
 40
2.870057342870133
 40
2.966883448431661
 40
3.050803243518291
 40
3.115818222436589
 40
3.156030057150187
 40
3.213914225080087
 40
3.276689026450486
 40
3.342960320981262
 40
3.404230667150509
 40
3.453822809493282
 40
3.532499827188283
 40
3.634775188507063
 40
3.754909333008059
 40
3.88973676166057
 40
4.035769602175079
 40
4.187256681197529
 40
4.338733685675828
 40
4.488478734676026
 40
4.634708317831476
 40
4.771493189921143
 40
4.892686571561121
 40
5.199775528944344
 40
5.460353566929506
 40
5.667603142345404
 40
5.814722905404384
 40
5.828990806219682
 40
5.855488336304379
 40
5.869756237118711
 40
6.189796507762725
 40
6.531890469872905
 40
6.883053637016897
 40
7.230512024911356
 40
7.566966656764457
 40
7.885203559707267
 40
8.17288743971908
 40
8.418011594062637
 40
8.443926721190559
 40
8.510760470613045
 40
8.602145393795553
 40
8.70171404164699
 40
8.79309896507522
 40
8.859932715057791
 40
8.88584784260344
 40
9.242301256612645
 40
9.589275455016558
 40
9.921808543164012
 40
10.23479624298452
 40
10.29968150889162
 40
10.3532349388775
 40
10.40154625355135
 40
10.4648292247781
 40
10.55973900668388
 40
10.69239545985607
 40
10.84920353475657
 40
11.01626328594764
 40
11.18672024367426
 40
11.35372582577196
 40
11.50257442292409
 40
11.61866495023277
 40
11.71329869152862
 40
11.82511050573891
 40
11.94464880845701
 40
12.06929242642491
 40
12.19707290435164
 40
12.32562632860512
 40
12.45034565331266
 40
12.56646595170312
 40
12.67099007414621
 40
12.76077625936769
 40
12.82703233506683
 40
12.87429132785979
 40
12.89831990323319
 40
12.92234847860007
 40
13.53984767410308
 40
14.18294284359349
 40
14.18294284359349
 40
14.18294284359349
 40
14.18294284359349
 10
177.3067935648021
 20
14.7089803820172
 10
177.175201975855
 20
14.82265058603228
 10
176.9124193802727
 20
15.04964496316154
 10
176.3997393441024
 20
15.89214462956287
 10
176.4106654595361
 20
15.53423377577019
 10
176.4041226527991
 20
15.39267392272132
 10
176.4028026631773
 20
15.19421305299282
 10
176.4018117602538
 20
15.02150296045984
 10
176.4024101751975
 20
14.87865373257581
 10
176.4038994301883
 20
14.78265005413358
 10
176.4055683588472
 20
14.6754550326314
 10
176.4071934954618
 20
14.56164211517583
 10
176.4092429501684
 20
14.44441572604588
 10
176.4123165501928
 20
14.32656411232971
 10
176.4156339697043
 20
14.2122808732062
 10
176.4193605340279
 20
14.10521401867276
 10
176.4217338161424
 20
14.0100740876692
 10
176.4278718888357
 20
13.92558557205694
 10
176.4239784495947
 20
13.86923087298143
 10
176.4455230443077
 20
13.7982502247236
 10
176.3680940058618
 20
13.82902677604485
 10
176.3116353240191
 20
13.8201124251761
 10
176.2540495896807
 20
13.82896218398277
 10
176.1690163478472
 20
13.79738225225949
 10
176.2009714146382
 20
13.88095155992189
 10
176.1990705282539
 20
13.94882608968307
 10
176.2107960047299
 20
14.05233256764416
 10
176.2164241053
 20
14.17002125616694
 10
176.2237902178941
 20
14.30388609164421
 10
176.2320759701612
 20
14.44764152872629
 10
176.2398851897426
 20
14.59714022843443
 10
176.2457571222659
 20
14.74792549402077
 10
176.2503667817969
 20
14.89699943878435
 10
176.2542632117542
 20
15.0412291316302
 10
176.2570715126564
 20
15.17583905213016
 10
176.2576698755022
 20
15.36469614347352
 10
176.2616023867151
 20
15.58975494313152
 10
176.2442175378497
 20
15.86367091125706
 10
176.2850417342584
 20
16.02787112098592
 10
176.1995153256002
 20
16.22749661465096
 10
176.2660558907688
 20
16.22385458403976
 10
176.283872427323
 20
16.22413447160852
 10
176.4056801797504
 20
16.2263292739861
 10
176.5080770335462
 20
15.94675118721512
 10
176.7580021509356
 20
15.74563008536
 10
176.9870035331109
 20
15.47792614987914
 10
177.2245151213109
 20
15.22646413862376
 10
177.4486090740772
 20
14.98969974061359
 10
177.6750716283009
 20
14.73218692583082
 10
177.8325687886515
 20
14.61649335056923
 10
178.0472129612673
 20
14.27997152538795
 10
178.0422645974619
 20
14.40464754091604
 10
178.0433931602546
 20
14.46327691935738
 10
178.0428877841517
 20
14.55043662371978
 10
178.0430475158113
 20
14.64416143182872
 10
178.0430054891318
 20
14.73018971297035
 10
178.0430202040372
 20
14.79153891945495
 10
178.0429706255982
 20
14.94135231520992
 10
178.0458811522811
 20
15.17989612510103
 10
178.0259521041162
 20
15.54486509868698
 10
178.0750433936248
 20
15.80799631993412
 10
177.917795150918
 20
16.21928904947747
 10
178.0762112872421
 20
16.1639828255175
 10
178.1311680478628
 20
16.16199686500178
 10
178.182788776674
 20
16.16264778248254
 10
178.2713198965366
 20
16.20369527738244
 10
178.2204898303168
 20
16.05696326622985
 10
178.2313389930283
 20
15.95019971954432
 10
178.2166036994847
 20
15.7908570541411
 10
178.2099976446204
 20
15.62853061652875
 10
178.2014961399915
 20
15.45992521892396
 10
178.1943227202198
 20
15.29814814703543
 10
178.1889063215389
 20
15.15422331457933
 10
178.1871713967648
 20
15.03437493466925
 10
178.1875440672318
 20
14.92686101590514
 10
178.1873656126263
 20
14.81820024645586
 10
178.1877010863139
 20
14.69953570165531
 10
178.1890040622184
 20
14.5755516351274
 10
178.1908887351574
 20
14.44858294171105
 10
178.192500445485
 20
14.3215386155103
 10
178.194140313743
 20
14.19854884492178
 10
178.1962570745753
 20
14.08300931383758
 10
178.1963848422363
 20
13.98090903955836
 10
178.2006514396554
 20
13.89009848838154
 10
178.1908440085289
 20
13.83213621208784
 10
178.2118474771689
 20
13.76517130132028
 10
178.1725639739897
 20
13.77291153966686
 10
177.9595307117743
 20
13.75755254145193
 10
177.7636297943189
 20
14.3140305809447
 10
177.4611197631543
 20
14.57556035348507
 10
177.3067935648021
 20
14.7089803820172
 97
        1
330
B7
 75
     1
 76
     2
 52
45.0
 41
0.1
 77
     0
 78
     1
 53
45.0
 43
0.0
 44
0.0
 45
-0.282842712474619
 46
0.0
 79
     0
 98
        1
 10
0.0
 20
0.0
  0
HATCH
  5
D5
330
48
100
AcDbEntity
  8
1
  6
Continuous
 62
     2
100
AcDbHatch
 10
0.0
 20
0.0
 30
0.0
210
0.0
220
0.0
230
1.0
  2
CUSTOM3
 70
     0
 71
     1
 91
        1
 92
        1
 93
        1
 72
     4
 94
        3
 73
     0
 74
     0
 95
      110
 96
      106
 40
0.0
 40
0.0
 40
0.0
 40
0.0
 40
0.2203406257277613
 40
0.4407808782838126
 40
0.5952494494615108
 40
0.7488431659393125
 40
0.9023581831309095
 40
1.056801968670408
 40
1.210736449099908
 40
1.363041386539785
 40
1.515315729683158
 40
1.669377239148166
 40
1.721611652756682
 40
1.773199502943085
 40
1.824933793210093
 40
1.877110426488126
 40
1.98268228120695
 40
2.078781667087788
 40
2.172809640822508
 40
2.271937807379161
 40
2.378349933379553
 40
2.494131557736741
 40
2.626681683943875
 40
2.783145050796303
 40
2.890701232941144
 40
2.993130312455082
 40
3.099869730692028
 40
3.220237816691513
 40
3.352695482737789
 40
3.481732806390101
 40
3.593499473690593
 40
3.674323013332138
 40
3.817951711953003
 40
3.946167120794001
 40
4.061405053453686
 40
4.166480796003328
 40
4.262478775059363
 40
4.350736673551321
 40
4.433071991254203
 40
4.511216293814803
 40
4.564262454118077
 40
4.618474415571664
 40
4.670128488754298
 40
4.722296879126497
 40
4.819540945314367
 40
4.931194984128223
 40
5.049996040257867
 40
5.168643755415411
 40
5.283970811762623
 40
5.39226078491045
 40
5.486512254876495
 40
5.559178233949837
 40
5.591425852853487
 40
5.626215969637882
 40
5.667155838674422
 40
5.717449290214264
 40
5.738402360944876
 40
5.784499116553838
 40
5.830595872164806
 40
5.851548942897661
 40
5.873019280661775
 40
5.924217778408317
 40
5.985325662817696
 40
6.036524160567713
 40
6.057994498334241
 40
6.236847789607492
 40
6.381409928945685
 40
6.493190424178696
 40
6.574067534230555
 40
6.691018086205649
 40
6.814881554220567
 40
6.94430782324052
 40
7.071266716066144
 40
7.193488604461988
 40
7.309042773128215
 40
7.414007203170841
 40
7.505140441886595
 40
7.531150360599722
 40
7.559221645322323
 40
7.587202218920969
 40
7.612569159499184
 40
7.662550809481044
 40
7.70287887576414
 40
7.857328205230954
 40
8.010799568088599
 40
8.16525639965755
 40
8.322232698713888
 40
8.479564855016546
 40
8.635216230290693
 40
8.790882550925696
 40
8.94830515494726
 40
9.168271839032935
 40
9.387358980987177
 40
9.608047961033401
 40
9.832914234792586
 40
9.85833869496292
 40
9.925366817229936
 40
10.02013071422753
 40
10.12876249858992
 40
10.23739428295243
 40
10.33215817995185
 40
10.39918630222389
 40
10.42461076239778
 40
10.64992019336936
 40
10.87188524531183
 40
10.87188524531183
 40
10.87188524531183
 40
10.87188524531183
 10
179.9057788376619
 20
15.7392326039819
 10
179.9092864933542
 20
15.80616462073804
 10
179.9163033987662
 20
15.94005891915858
 10
179.8198027599072
 20
16.22548554971469
 10
180.0510134726109
 20
16.16284386190284
 10
180.1919290057156
 20
16.17001554055983
 10
180.3490417757588
 20
16.16235883078247
 10
180.5025913427287
 20
16.16252752283043
 10
180.6545104935081
 20
16.16182040535435
 10
180.8142214813231
 20
16.17210158351631
 10
180.9408972601117
 20
16.15496511080751
 10
181.1370821122082
 20
16.22727260107147
 10
181.1034395279078
 20
16.12640699080115
 10
181.1052011317184
 20
16.07619253947668
 10
181.1027342073458
 20
16.02712335586462
 10
181.1347076966013
 20
15.94063490846992
 10
181.0010399903256
 20
15.9899743860834
 10
180.9172208688057
 20
15.98430634314171
 10
180.8173861139323
 20
15.99465516706298
 10
180.7186576720146
 20
16.00086450411087
 10
180.6121532771111
 20
16.00697763816776
 10
180.4910511698059
 20
16.01588883484579
 10
180.3703381502454
 20
16.00521605912386
 10
180.1812553843436
 20
16.06468503080364
 10
180.2129028505311
 20
15.90558320077538
 10
180.1995563316834
 20
15.80839128339902
 10
180.197495842645
 20
15.69634065110101
 10
180.1958188044672
 20
15.57699685629351
 10
180.1973336794233
 20
15.45032592155108
 10
180.195658247867
 20
15.32301588016115
 10
180.2058844271658
 20
15.22451566404461
 10
180.1779006596583
 20
15.08388702625629
 10
180.3508029999305
 20
15.13989551134087
 10
180.4645020202771
 20
15.12719951478504
 10
180.5840151672239
 20
15.13448377051251
 10
180.6888491425071
 20
15.13878017056763
 10
180.7843084898612
 20
15.14330568258973
 10
180.8763823507032
 20
15.15149201146206
 10
180.9476551782439
 20
15.14643850638109
 10
181.0544931705684
 20
15.18536425031669
 10
181.0226603598037
 20
15.10517122005879
 10
181.026616450393
 20
15.05562936846034
 10
181.0234502392014
 20
15.0055747803982
 10
181.0550791490583
 20
14.92128847612019
 10
180.9210133677692
 20
14.97425365495158
 10
180.82923227932
 20
14.96540080890437
 10
180.7079729189603
 20
14.9757004996516
 10
180.5914113119772
 20
14.97748911767499
 10
180.4783375745879
 20
14.97787017109694
 10
180.3679246308471
 20
14.98415449472185
 10
180.2898124067841
 20
14.97189133255365
 10
180.1913625833645
 20
15.00453887616125
 10
180.2012355173561
 20
14.94769748054208
 10
180.1973923244403
 20
14.91392130557987
 10
180.1966789884268
 20
14.87119604709411
 10
180.1963369642977
 20
14.83401607262153
 10
180.1963834255345
 20
14.79487237370769
 10
180.1963649429929
 20
14.75716849497685
 10
180.1963703431807
 20
14.71944955232402
 10
180.1963697214202
 20
14.6899432474515
 10
180.1963698151546
 20
14.65873577699301
 10
180.1963704287922
 20
14.61414424908084
 10
180.1963671499338
 20
14.55963956508851
 10
180.1963759623482
 20
14.51505540201448
 10
180.1963359653419
 20
14.4311780858574
 10
180.1976024270255
 20
14.31737520677677
 10
180.1950274117841
 20
14.16830395933708
 10
180.206500938172
 20
14.06597203813903
 10
180.1823506222263
 20
13.93338903885829
 10
180.3332993946477
 20
13.97895732272016
 10
180.4428436671555
 20
13.96427012162343
 10
180.573397047392
 20
13.9692043512506
 10
180.6990312209514
 20
13.97257705323359
 10
180.8188730625601
 20
13.97711497498771
 10
180.9391362611426
 20
13.99048536182003
 10
181.0222761663516
 20
13.98068712782593
 10
181.1456080421073
 20
14.04126214623318
 10
181.1244269203958
 20
13.98532460134018
 10
181.1235950270115
 20
13.95939249372345
 10
181.1218963707559
 20
13.93197256190938
 10
181.1217974888829
 20
13.89738195206384
 10
181.1203659301329
 20
13.86050408220768
 10
181.153280419219
 20
13.76846841021811
 10
180.9551306988107
 20
13.84132015974833
 10
180.8300548294891
 20
13.81825726508603
 10
180.6673071295156
 20
13.82454021985784
 10
180.5129366450001
 20
13.82260943909923
 10
180.3566670436944
 20
13.82393762599266
 10
180.1970544465282
 20
13.82059872487859
 10
180.0540326342237
 20
13.83265795728243
 10
179.8197144881628
 20
13.76952001976923
 10
179.9173810751197
 20
14.05620527466319
 10
179.900686878006
 20
14.2498830814266
 10
179.9146296709684
 20
14.47848242880293
 10
179.9142987846632
 20
14.63384593955044
 10
179.9143078119264
 20
14.73966336444122
 10
179.9143055876316
 20
14.80205784124211
 10
179.9143065551889
 20
14.89220425248324
 10
179.9143065473262
 20
14.99621167157436
 10
179.9143053861102
 20
15.10022131375294
 10
179.9143090971502
 20
15.19036243688767
 10
179.9143011051051
 20
15.25276803097215
 10
179.9143334275018
 20
15.35868835961119
 10
179.9131440788319
 20
15.51626716544739
 10
179.9082216489257
 20
15.66528219822064
 10
179.9057788376619
 20
15.7392326039819
 97
        1
330
B8
 75
     1
 76
     2
 52
45.0
 41
0.1
 77
     0
 78
     1
 53
45.0
 43
0.0
 44
0.0
 45
-0.282842712474619
 46
0.0
 79
     0
 98
        1
 10
0.0
 20
0.0
  0
HATCH
  5
D6
330
48
100
AcDbEntity
  8
1
  6
Continuous
 62
     2
100
AcDbHatch
 10
0.0
 20
0.0
 30
0.0
210
0.0
220
0.0
230
1.0
  2
CUSTOM4
 70
     0
 71
     1
 91
        1
 92
        1
 93
        1
 72
     4
 94
        3
 73
     0
 74
     0
 95
       47
 96
       43
 40
0.0
 40
0.0
 40
0.0
 40
0.0
 40
0.2207912809957301
 40
0.4459404186303237
 40
0.4902387190459467
 40
0.5327473892722467
 40
0.5742260451226022
 40
0.6155432630561877
 40
0.656816406631622
 40
0.6982511618780808
 40
0.7407663929317363
 40
0.7851366743175439
 40
1.010288833836352
 40
1.231080507002213
 40
1.451765243652434
 40
1.676638205891677
 40
1.720461045359648
 40
1.830018144043511
 40
1.972442372353144
 40
2.114866600677511
 40
2.224423699395136
 40
2.268246538883377
 40
2.493628801207246
 40
2.715602830286639
 40
2.934211330706399
 40
3.149502369855345
 40
3.23138778485096
 40
3.318231873853938
 40
3.405143198198011
 40
3.486970301720445
 40
3.702258172493842
 40
3.920866283534078
 40
4.14283932593186
 40
4.36822190386536
 40
4.41204474335984
 40
4.521601842095854
 40
4.664026070452334
 40
4.806450298809044
 40
4.916007397546738
 40
4.95983023704306
 40
5.18470351584705
 40
5.405387250767419
 40
5.405387250767419
 40
5.405387250767419
 40
5.405387250767419
 10
182.6507427258645
 20
15.7340644095387
 10
182.6568139420002
 20
15.79758482501208
 10
182.6690762107243
 20
15.92587938689626
 10
182.5604706879412
 20
16.20166220174076
 10
182.6761985896603
 20
16.17188133432053
 10
182.7171842509015
 20
16.16765556262812
 10
182.7591205797519
 20
16.1631044638961
 10
182.800419662571
 20
16.16201982929488
 10
182.8417032115557
 20
16.1631033819523
 10
182.8836148270647
 20
16.16766112711336
 10
182.9245983549019
 20
16.17187430209728
 10
183.0404922843488
 20
16.20177611317533
 10
182.9295652727456
 20
15.92339806609888
 10
182.9574856365267
 20
15.74283140824952
 10
182.940426734697
 20
15.50961042346471
 10
182.9414637282102
 20
15.34906622543147
 10
182.9414099399405
 20
15.22284817558725
 10
182.941427737248
 20
15.12428963336244
 10
182.9414188581081
 20
14.99280702442966
 10
182.9414263928033
 20
14.86132844968652
 10
182.9414129405129
 20
14.76276222694094
 10
182.9414531717492
 20
14.63639735624153
 10
182.9406746403817
 20
14.47482068822871
 10
182.9565958319267
 20
14.24361821892914
 10
182.9333468885407
 20
14.05874351972002
 10
183.0360183444367
 20
13.78935602770061
 10
182.8820238362836
 20
13.82660112685818
 10
182.8004129802832
 20
13.8213799468053
 10
182.7188192292583
 20
13.82660620378353
 10
182.5648513666842
 20
13.78937069885392
 10
182.6674183421917
 20
14.05875129862881
 10
182.6442045316088
 20
14.24361585325414
 10
182.6600444655138
 20
14.47482218565639
 10
182.6593296313428
 20
14.63639712308505
 10
182.6593664569907
 20
14.76276231210523
 10
182.659354900027
 20
14.86132756635985
 10
182.6593575019214
 20
14.99281127417222
 10
182.6593648531779
 20
15.12427548031202
 10
182.6593442541351
 20
15.22287786275329
 10
182.6594082192028
 20
15.34896149354428
 10
182.658173394759
 20
15.51210091383772
 10
182.6532040396745
 20
15.66054183777548
 10
182.6507427258645
 20
15.7340644095387
 97
        1
330
B9
 75
     1
 76
     2
 52
45.0
 41
0.1
 77
     0
 78
     1
 53
45.0
 43
0.0
 44
0.0
 45
-0.282842712474619
 46
0.0
 79
     0
 98
        1
 10
0.0
 20
0.0
  0
HATCH
  5
D7
330
48
100
AcDbEntity
  8
1
  6
Continuous
 62
     2
100
AcDbHatch
 10
0.0
 20
0.0
 30
0.0
210
0.0
220
0.0
230
1.0
  2
CUSTOM5
 70
     0
 71
     1
 91
        1
 92
        1
 93
        1
 72
     4
 94
        3
 73
     0
 74
     0
 95
      118
 96
      114
 40
0.0
 40
0.0
 40
0.0
 40
0.0
 40
0.1054708162973368
 40
0.2466098270051868
 40
0.3965912874591235
 40
0.5285525069754036
 40
0.6156245055642277
 40
0.6431434105797574
 40
0.7036850037986235
 40
0.7642265984504605
 40
0.7917455052354909
 40
0.928740431998972
 40
1.106572819088004
 40
1.287544879681019
 40
1.317578308030536
 40
1.399928030857174
 40
1.522968204799951
 40
1.675072986590575
 40
1.844616533180658
 40
2.019973001638722
 40
2.189516548880039
 40
2.341621331585379
 40
2.464661506320517
 40
2.547011229647082
 40
2.577044658168046
 40
2.603797890893117
 40
2.662655002908804
 40
2.721512114949616
 40
2.748265347702795
 40
2.77421530734487
 40
2.845959313407202
 40
2.954338556588399
 40
3.090194227585575
 40
3.244367517100541
 40
3.407699615844296
 40
3.571031714539443
 40
3.725205003920121
 40
3.861060674729621
 40
3.969439917716312
 40
4.041183923628984
 40
4.067133883212978
 40
4.311886746012147
 40
4.547897258335507
 40
4.764747083043949
 40
4.952749679951754
 40
5.045772974195904
 40
5.137862019644982
 40
5.330543169793033
 40
5.553448265244028
 40
5.795083855888183
 40
6.043293412177231
 40
6.285761695541144
 40
6.313902908752627
 40
6.384255941793217
 40
6.475714884766806
 40
6.567173827758868
 40
6.637526860839646
 40
6.665668074074009
 40
6.692018920327987
 40
6.749990782071068
 40
6.807962643790447
 40
6.834313490017925
 40
6.856393084245203
 40
6.913335195649827
 40
6.991194817302491
 40
7.076026942283752
 40
7.153886563725242
 40
7.210828674844825
 40
7.23290826893116
 40
7.258199334923685
 40
7.32487578159234
 40
7.419142481925006
 40
7.527204308841958
 40
7.635266135230546
 40
7.729532834168543
 40
7.796209279292869
 40
7.821500344594819
 40
7.844652988850889
 40
7.899863140541669
 40
7.965759128053835
 40
8.020969279771121
 40
8.044121924046587
 40
8.069356610160675
 40
8.109134395441464
 40
8.132238100191179
 40
8.193147867786545
 40
8.279261678876724
 40
8.377977512673942
 40
8.476693347146734
 40
8.56280716041179
 40
8.623716930826578
 40
8.646820636853533
 40
8.671988793774347
 40
8.734909185828258
 40
8.816705695188972
 40
8.898502204815543
 40
8.961422597378004
 40
8.986590754551116
 40
9.012941600733276
 40
9.070913462380371
 40
9.128885324081875
 40
9.155236170325201
 40
9.180404327929244
 40
9.243324721948317
 40
9.32512123421211
 40
9.406917746637765
 40
9.46983814197822
 40
9.495006288270995
 40
9.51781118437913
 40
9.572192090487116
 40
9.637098333281326
 40
9.691479239515514
 40
9.714284125643546
 40
9.714284125643546
 40
9.714284125643546
 40
9.714284125643546
 10
185.2874469028653
 20
15.2688916318772
 10
185.3090990569037
 20
15.24111869242812
 10
185.3597257109473
 20
15.17618054561237
 10
185.4349383202592
 20
15.06891060312899
 10
185.5248482274346
 20
14.95377438266626
 10
185.5709169676674
 20
14.8535704574832
 10
185.6655825294655
 20
14.78434006814942
 10
185.6204439320412
 20
14.73771639678274
 10
185.5947047785789
 20
14.69660308866039
 10
185.5645196708012
 20
14.6606597172794
 10
185.5193684730562
 20
14.58579782596095
 10
185.4710504458562
 20
14.80782524253604
 10
185.3968539713072
 20
14.84510677337707
 10
185.2836047324607
 20
15.116102021306
 10
185.2885133578169
 20
15.00095328446227
 10
185.2868486556306
 20
14.92836675781626
 10
185.2876830076713
 20
14.80625588483985
 10
185.2873609540265
 20
14.65913800810459
 10
185.2875076912455
 20
14.49307063956555
 10
185.2872950092723
 20
14.321875546086
 10
185.2879497252034
 20
14.15552828635495
 10
185.2859192461138
 20
14.0093517305569
 10
185.291346039993
 20
13.88471047474608
 10
185.2804930868708
 20
13.81718656540623
 10
185.2956739155555
 20
13.7554906141702
 10
185.2457895108133
 20
13.76727503896998
 10
185.2017150342521
 20
13.75943822779966
 10
185.1582371630201
 20
13.767604413727
 10
185.1092346786488
 20
13.75538056738464
 10
185.1218731234825
 20
13.8096066724931
 10
185.1130182968449
 20
13.86936918907554
 10
185.1175058770314
 20
13.97922029044367
 10
185.1157960135991
 20
14.11029975405675
 10
185.1163550915986
 20
14.26198011444324
 10
185.1161928768694
 20
14.4221107492995
 10
185.1162269924674
 20
14.58236865674563
 10
185.1162514960127
 20
14.73370247520436
 10
185.1161453543225
 20
14.86582156338597
 10
185.1164299141931
 20
14.97294802533189
 10
185.1158675547567
 20
15.03808619579469
 10
185.118076508369
 20
15.16618957858672
 10
185.0319435998601
 20
14.79097610391572
 10
184.95551408185
 20
14.63918193123394
 10
184.8660040767834
 20
14.47766206446304
 10
184.7640413217326
 20
14.20471848820168
 10
184.7187976491039
 20
14.36717346596511
 10
184.610235594167
 20
14.4560543205812
 10
184.7995791751752
 20
14.60549794961409
 10
184.85653405457
 20
14.79749136974926
 10
184.9717520993352
 20
15.02899622906756
 10
184.9940151630132
 20
15.21797259759062
 10
185.1771905152139
 20
15.49454089325923
 10
185.0538033597552
 20
15.4869897883209
 10
184.9925684166834
 20
15.48856772366114
 10
184.9081999617064
 20
15.48882592573667
 10
184.8204235085966
 20
15.48544845751201
 10
184.7656768696122
 20
15.49394814982015
 10
184.7104703026025
 20
15.48048561049783
 10
184.7222823035536
 20
15.52931442126759
 10
184.7142496151794
 20
15.57269004896705
 10
184.7228186104679
 20
15.6150943830957
 10
184.7102943409156
 20
15.66267796552116
 10
184.7555101538736
 20
15.65267212995107
 10
184.8014815562723
 20
15.65894105174059
 10
184.877722204771
 20
15.6559356140587
 10
184.9561296131993
 20
15.65770448278539
 10
185.0323992648932
 20
15.65464793981658
 10
185.0783009459474
 20
15.66103971376175
 10
185.12317339654
 20
15.65093822978894
 10
185.1105552275634
 20
15.70157201581897
 10
185.1191936582707
 20
15.75501261882069
 10
185.1152361595442
 20
15.8486325513168
 10
185.1162325068335
 20
15.95112606688925
 10
185.1171927413073
 20
16.05353270248165
 10
185.1133211458006
 20
16.14735929609324
 10
185.1217789814364
 20
16.20036542840356
 10
185.1093075932835
 20
16.25211435651192
 10
185.1542106389849
 20
16.2385074722676
 10
185.1955083836772
 20
16.24100480320588
 10
185.259534428105
 20
16.23648060574489
 10
185.2986111148786
 20
16.22781003043309
 10
185.3476543498742
 20
16.23515102070687
 10
185.322508003059
 20
16.19602896051754
 10
185.2815901333723
 20
16.20563842455811
 10
185.2910109616604
 20
16.15540148169778
 10
185.2855647318746
 20
16.10385945639491
 10
185.2881699601803
 20
16.0195970758452
 10
185.2870102202154
 20
15.92559135583408
 10
185.2883591064231
 20
15.83196865395524
 10
185.284997010151
 20
15.74679517552222
 10
185.2920959917768
 20
15.69716856072042
 10
185.2812569154546
 20
15.64993694969987
 10
185.3304010225245
 20
15.6620167493685
 10
185.3794877630147
 20
15.65447393363009
 10
185.4573714280641
 20
15.65686070361431
 10
185.5350365172895
 20
15.65899381905412
 10
185.5845393931355
 20
15.65193391922453
 10
185.6344594750638
 20
15.66360151936212
 10
185.6223198516881
 20
15.6154023537139
 10
185.6305838229144
 20
15.57249219801232
 10
185.6223198650783
 20
15.5295820185138
 10
185.6344594549854
 20
15.4813828875486
 10
185.5845395158746
 20
15.49305034471505
 10
185.5350350651202
 20
15.48599202435041
 10
185.4573784382973
 20
15.48811665228598
 10
185.379464386576
 20
15.49053389365755
 10
185.3304500352716
 20
15.4829184819448
 10
185.2813246108943
 20
15.49507952557587
 10
185.2915559988571
 20
15.45073013424154
 10
185.2856677678053
 20
15.40925436202908
 10
185.2878788305569
 20
15.34915394315302
 10
185.2874109346146
 20
15.30225782762889
 10
185.2874386992913
 20
15.27650146418196
 10
185.2874469028653
 20
15.2688916318772
 97
        1
330
BA
 75
     1
 76
     2
 52
45.0
 41
0.1
 77
     0
 78
     1
 53
45.0
 43
0.0
 44
0.0
 45
-0.282842712474619
 46
0.0
 79
     0
 98
        1
 10
0.0
 20
0.0
  0
HATCH
  5
D8
330
48
100
AcDbEntity
  8
1
  6
Continuous
 62
     2
100
AcDbHatch
 10
0.0
 20
0.0
 30
0.0
210
0.0
220
0.0
230
1.0
  2
CUSTOM6
 70
     0
 71
     1
 91
        1
 92
        1
 93
        1
 72
     4
 94
        3
 73
     0
 74
     0
 95
       91
 96
       87
 40
0.0
 40
0.0
 40
0.0
 40
0.0
 40
0.0345987051695718
 40
0.1258134969461369
 40
0.2547723404888987
 40
0.4026032099154125
 40
0.5504340793416704
 40
0.679392922883608
 40
0.7706077146571035
 40
0.8052064287780925
 40
1.124852390615285
 40
1.42740223630889
 40
1.706356627453538
 40
1.955541417875234
 40
2.169485938566389
 40
2.344350786664854
 40
2.480568411562008
 40
2.590440557429031
 40
2.649189927151185
 40
2.749320643306391
 40
2.912632739880097
 40
3.147745656000301
 40
3.24482749638518
 40
3.338490056946772
 40
3.583815413207185
 40
3.761423943238536
 40
3.886956104362694
 40
3.985855451886854
 40
4.091766255337738
 40
4.250186473811931
 40
4.422734315084575
 40
4.62828568483867
 40
4.8720932277585
 40
5.152549652145611
 40
5.464967135837594
 40
5.803201477852515
 40
6.160362988813994
 40
6.193449448276049
 40
6.284170385501704
 40
6.419718138764574
 40
6.587285046385824
 40
6.774063446723738
 40
6.967245678113721
 40
7.154024078817707
 40
7.321590987026092
 40
7.457138740890451
 40
7.547859678556187
 40
7.580946138182747
 40
7.608533084714797
 40
7.66922436707777
 40
7.729915649429985
 40
7.757502595950034
 40
7.790278062553488
 40
7.880146277430986
 40
8.014419963180448
 40
8.180411842397948
 40
8.365434637679417
 40
8.556801071622719
 40
8.741823866830831
 40
8.907815745916341
 40
9.042089431507495
 40
9.13195764624962
 40
9.164733112797197
 40
9.415425063140104
 40
9.667986180958561
 40
9.694169807462728
 40
9.756607686047687
 40
9.831130315322579
 40
9.893568193900014
 40
9.91975182039886
 40
9.95096796469071
 40
9.996421631210834
 40
10.22087981037465
 40
10.44341866197553
 40
10.47847970788865
 40
10.57091337438763
 40
10.70159545461237
 40
10.85140174170365
 40
11.0012080288048
 40
11.13189010907385
 40
11.2243237758301
 40
11.25938480938956
 40
11.28697175596144
 40
11.34766303835918
 40
11.40835432042068
 40
11.43594125892102
 40
11.43594125892102
 40
11.43594125892102
 40
11.43594125892102
 10
190.0818114333289
 20
15.55242795125081
 10
190.0702785844941
 20
15.55242790287919
 10
190.0283409444998
 20
15.55242773704168
 10
189.9434129719026
 20
15.55243125800913
 10
189.8207688553128
 20
15.55240926435882
 10
189.6791206916993
 20
15.55250801177058
 10
189.537975369849
 20
15.55214686232425
 10
189.4141351317904
 20
15.55321883609093
 10
189.3317217825382
 20
15.55092249091272
 10
189.1727791229691
 20
15.56048569373424
 10
189.3503402353376
 20
15.19785394311373
 10
189.3379739205453
 20
14.95243127723116
 10
189.4064519473864
 20
14.66862501324836
 10
189.469302432097
 20
14.43250999939036
 10
189.5452253431728
 20
14.23326740396129
 10
189.6303189577016
 20
14.07745347451372
 10
189.7244607592935
 20
13.9765785778139
 10
189.8282648207727
 20
13.92465852638961
 10
189.9125872030774
 20
13.97606484379614
 10
189.9351322179452
 20
14.09144544037515
 10
189.9745730975371
 20
14.21885149702378
 10
189.9202919734942
 20
14.53622328086752
 10
190.0451218072474
 20
14.38982180140906
 10
190.2019291513602
 20
14.3579530033117
 10
190.0947720007057
 20
14.1242135776763
 10
190.0808711209867
 20
13.95972776583659
 10
190.0234709467225
 20
13.83130869122486
 10
189.9335020145008
 20
13.7601880235283
 10
189.8095274657877
 20
13.74432324142257
 10
189.663427319686
 20
13.77993797554175
 10
189.5243894320283
 20
13.9000057050028
 10
189.4102003962145
 20
14.07435682550324
 10
189.3146141301485
 20
14.29946603111243
 10
189.2318652572627
 20
14.56388246006446
 10
189.1807179256411
 20
14.88187933098546
 10
189.0770189207339
 20
15.15543728488915
 10
189.2042841208519
 20
15.56005818612873
 10
189.0357890623019
 20
15.55112367849682
 10
188.9511995787076
 20
15.55315961418367
 10
188.8189876387628
 20
15.5521393738841
 10
188.6560505094103
 20
15.55253230318434
 10
188.4733759170532
 20
15.55235696313372
 10
188.2847057373383
 20
15.55260105307472
 10
188.1014469020189
 20
15.5518565790624
 10
187.9404746832718
 20
15.55416360522429
 10
187.8029808335276
 20
15.54799804883666
 10
187.7289590372311
 20
15.56032838458215
 10
187.6613215186856
 20
15.5432932372356
 10
187.673237371927
 20
15.59524438447531
 10
187.6655677285694
 20
15.64071424966532
 10
187.6732592225115
 20
15.68614453703708
 10
187.6613141797762
 20
15.73802395984572
 10
187.7283588305866
 20
15.72119143490266
 10
187.8017375665677
 20
15.73335409092673
 10
187.9379128305272
 20
15.7272723107496
 10
188.0973811801512
 20
15.7295483431506
 10
188.2789173085836
 20
15.72881233998964
 10
188.4658034862179
 20
15.72905954196136
 10
188.6468012316836
 20
15.72886400799256
 10
188.8080802578878
 20
15.72932234714841
 10
188.9393882124887
 20
15.72812673751208
 10
189.0225051322596
 20
15.73051347319744
 10
189.1556236547815
 20
15.72230605725467
 10
189.0645893502657
 20
15.97752868952655
 10
188.978963307442
 20
16.24164358328246
 10
189.0990589003455
 20
16.22904442969165
 10
189.1514264948543
 20
16.22694235763075
 10
189.2214497569716
 20
16.22535399889658
 10
189.2671922337818
 20
16.21602567538113
 10
189.3220812646934
 20
16.22545966915428
 10
189.2963574785682
 20
16.17733028655172
 10
189.1825397571455
 20
16.18266829744155
 10
189.3159346621136
 20
15.95449174576779
 10
189.1943658735471
 20
15.72156856595924
 10
189.3223188769414
 20
15.73087258884441
 10
189.4049048406462
 20
15.72801001754682
 10
189.5307214850825
 20
15.72923437412305
 10
189.6741469838059
 20
15.72932431888966
 10
189.8157420951729
 20
15.72746163183855
 10
189.9459127249967
 20
15.73333075937165
 10
190.0193452286191
 20
15.72070340823206
 10
190.0891112922096
 20
15.73877563110414
 10
190.0775772605396
 20
15.68612850546329
 10
190.0833184346683
 20
15.64221317686551
 10
190.0816615770911
 20
15.59089982676553
 10
190.0817757561669
 20
15.56158792021638
 10
190.0818114333289
 20
15.55242795125081
 97
        1
330
BB
 75
     1
 76
     2
 52
45.0
 41
0.1
 77
     0
 78
     1
 53
45.0
 43
0.0
 44
0.0
 45
-0.282842712474619
 46
0.0
 79
     0
 98
        1
 10
0.0
 20
0.0
  0
HATCH
  5
D9
330
48
100
AcDbEntity
  8
1
  6
Continuous
 62
     2
100
AcDbHatch
 10
0.0
 20
0.0
 30
0.0
210
0.0
220
0.0
230
1.0
  2
CUSTOM7
 70
     0
 71
     1
 91
        1
 92
        1
 93
        1
 72
     4
 94
        3
 73
     0
 74
     0
 95
       75
 96
       71
 40
0.0
 40
0.0
 40
0.0
 40
0.0
 40
0.0342546099129638
 40
0.1245622414432222
 40
0.2522385480897252
 40
0.3985991922940236
 40
0.5449598364980217
 40
0.6726361431438088
 40
0.762943774673609
 40
0.7971983935297084
 40
1.101723623449639
 40
1.40859124403667
 40
1.433332471690366
 40
1.487763172450138
 40
1.542193873081945
 40
1.566935100592484
 40
1.923523931821802
 40
2.271755704953579
 40
2.590579755100794
 40
2.858943305581021
 40
2.889120339309045
 40
2.918305855191071
 40
2.941366645531199
 40
2.996357760973089
 40
3.061992318140646
 40
3.116983433626822
 40
3.140044223997516
 40
3.411273122936353
 40
3.732441619741022
 40
3.76106821753272
 40
3.837787499630278
 40
3.94885869912591
 40
4.080541049104281
 40
4.219093782625658
 40
4.350776132722202
 40
4.46184733240553
 40
4.538566614678261
 40
4.567193212544505
 40
4.594907573998763
 40
4.666381453557302
 40
4.764111044010913
 40
4.870592538125716
 40
4.968322128642167
 40
5.039796008286852
 40
5.067510369784311
 40
5.094263603185525
 40
5.15312071666816
 40
5.211977830150606
 40
5.238731063551612
 40
5.272290535138851
 40
5.363380529444712
 40
5.49761841578139
 40
5.660621563453632
 40
5.838007341749333
 40
6.015393119910684
 40
6.17839626703831
 40
6.312634151842262
 40
6.403724143059251
 40
6.437283612672347
 40
6.464036846260961
 40
6.52289396000458
 40
6.581751071483844
 40
6.60850430159079
 40
6.637253941280938
 40
6.711397748902789
 40
6.812778057283402
 40
6.923237199249178
 40
7.024617507623822
 40
7.098761315207475
 40
7.127510946007425
 40
7.127510946007425
 40
7.127510946007425
 40
7.127510946007425
 10
188.4418622390564
 20
14.9584912847326
 10
188.4418622819707
 20
14.94707313408716
 10
188.4418624481129
 20
14.90555257842625
 10
188.4418593081787
 20
14.82146922003769
 10
188.4418788279801
 20
14.70004497322327
 10
188.4417912187737
 20
14.55980494047448
 10
188.442111623523
 20
14.42006556794578
 10
188.4411605909741
 20
14.29745038894933
 10
188.4431978595967
 20
14.21587074438047
 10
188.4349433178745
 20
14.06271267077701
 10
188.7430797940904
 20
14.22560236054714
 10
189.0350645173733
 20
14.39482938687999
 10
189.0408354448709
 20
14.2597323578191
 10
189.0455471719891
 20
14.21617221160444
 10
189.0482535411918
 20
14.17211249350546
 10
189.067254567296
 20
14.02272590363135
 10
188.6583942247302
 20
14.08681172241262
 10
188.3793710348833
 20
13.97296341411014
 10
188.1018081587166
 20
13.87364095811144
 10
187.8099837184402
 20
13.91630687596345
 10
187.7869144678658
 20
13.8132167974454
 10
187.7537474383333
 20
13.7869109124446
 10
187.7480653962738
 20
13.83455309036298
 10
187.7284214559045
 20
13.87180336115066
 10
187.7095089485623
 20
13.93007387847558
 10
187.6942849867709
 20
13.97385201007804
 10
187.6477246372935
 20
14.08759421046302
 10
187.9890897312451
 20
14.05576301120047
 10
188.2679649367386
 20
14.02161435106478
 10
188.2617753034907
 20
14.16913976479652
 10
188.2630935452773
 20
14.24013150908831
 10
188.2624831689948
 20
14.3471976795866
 10
188.2625871570724
 20
14.47398529785996
 10
188.2629987964055
 20
14.60849243496048
 10
188.2613907841968
 20
14.73395549951181
 10
188.2659902567925
 20
14.84505246719114
 10
188.2564186502211
 20
14.90761886800684
 10
188.2704001783691
 20
14.96595388294997
 10
188.2147384386705
 20
14.95289710582233
 10
188.1575655197821
 20
14.96136307749495
 10
188.0616048925648
 20
14.95729976080632
 10
187.963376752282
 20
14.9597088985247
 10
187.8672582457561
 20
14.95551600613384
 10
187.810464852581
 20
14.96429346441158
 10
187.7550356873384
 20
14.95094936850117
 10
187.7670679427917
 20
15.00036910959253
 10
187.7592003173938
 20
15.04393988030391
 10
187.7666295563828
 20
15.08830469118521
 10
187.7551930564144
 20
15.13902297763987
 10
187.8232102370133
 20
15.12162460757739
 10
187.8968496879747
 20
15.13417450237185
 10
188.0325064058211
 20
15.12799677011093
 10
188.1884909024525
 20
15.1302920309308
 10
188.3615926358143
 20
15.12940968262525
 10
188.5346942964181
 20
15.13029207142404
 10
188.6906789811216
 20
15.12799662955546
 10
188.8263351889797
 20
15.13417486262427
 10
188.8999756705652
 20
15.12162394218331
 10
188.9679914174724
 20
15.13902373012138
 10
188.9565590885922
 20
15.08830130414551
 10
188.9639539458298
 20
15.04397060811104
 10
188.956203991227
 20
15.00028307550192
 10
188.9681203741877
 20
14.95063590098473
 10
188.9108170223617
 20
14.96461411338421
 10
188.8520145789772
 20
14.9553975567325
 10
188.7525293633199
 20
14.95952268164925
 10
188.649428009835
 20
14.95822760025884
 10
188.5537846354573
 20
14.95854077077636
 10
188.4857467971617
 20
14.95848776697141
 10
188.4514462213443
 20
14.95849051871652
 10
188.4418622390564
 20
14.9584912847326
 97
        1
330
BC
 75
     1
 76
     2
 52
45.0
 41
0.1
 77
     0
 78
     1
 53
45.0
 43
0.0
 44
0.0
 45
-0.282842712474619
 46
0.0
 79
     0
 98
        1
 10
0.0
 20
0.0
  0
HATCH
  5
DA
330
48
100
AcDbEntity
  8
1
  6
Continuous
 62
     2
100
AcDbHatch
 10
0.0
 20
0.0
 30
0.0
210
0.0
220
0.0
230
1.0
  2
CUSTOM8
 70
     0
 71
     1
 91
        1
 92
        1
 93
        1
 72
     4
 94
        3
 73
     0
 74
     0
 95
       15
 96
       11
 40
0.0
 40
0.0
 40
0.0
 40
0.0
 40
0.2785535985096468
 40
0.5215624748199168
 40
0.6076917376040658
 40
0.6938210001741258
 40
0.9405019146455021
 40
1.221691403489124
 40
1.300471877081049
 40
1.379252341684824
 40
1.379252341684824
 40
1.379252341684824
 40
1.379252341684824
 10
189.5681493630999
 20
16.22930267330381
 10
189.6296017794178
 20
16.17691646592717
 10
189.7446649974114
 20
16.07882876798225
 10
190.0397348497244
 20
15.92889785897218
 10
189.9025147631856
 20
15.84343227515012
 10
189.8041227843778
 20
15.71085785201556
 10
189.713003359065
 20
16.01616985781419
 10
189.3636839480655
 20
16.07967869465371
 10
189.511925837657
 20
16.17896509880877
 10
189.5494081874236
 20
16.21252348402382
 10
189.5681493630999
 20
16.22930267330381
 97
        1
330
BD
 75
     1
 76
     2
 52
45.0
 41
0.1
 77
     0
 78
     1
 53
45.0
 43
0.0
 44
0.0
 45
-0.282842712474619
 46
0.0
 79
     0
 98
        1
 10
0.0
 20
0.0
  0
HATCH
  5
DB
330
48
100
AcDbEntity
  8
1
  6
Continuous
 62
     2
100
AcDbHatch
 10
0.0
 20
0.0
 30
0.0
210
0.0
220
0.0
230
1.0
  2
CUSTOM9
 70
     0
 71
     1
 91
        1
 92
        1
 93
        1
 72
     4
 94
        3
 73
     0
 74
     0
 95
       35
 96
       31
 40
0.0
 40
0.0
 40
0.0
 40
0.0
 40
0.0335231036620424
 40
0.0713218571711711
 40
0.4278866681486848
 40
0.8116865841963747
 40
1.198190238000036
 40
1.561379546812646
 40
1.659983174622039
 40
1.759315573807166
 40
2.132719617231101
 40
2.525233363588838
 40
2.910815397779726
 40
3.265244364303305
 40
3.592606723582116
 40
3.964386154604111
 40
4.359942131737901
 40
4.758154118639423
 40
4.843846538700024
 40
4.936650065543362
 40
5.256616602537422
 40
5.581707404416147
 40
5.899719158308241
 40
6.198363494280859
 40
6.466301046615921
 40
6.493895311537243
 40
6.559697020197038
 40
6.638234543442614
 40
6.704036252154368
 40
6.731630508423175
 40
6.731630508423175
 40
6.731630508423175
 40
6.731630508423175
 10
191.9736010568669
 20
16.23463843719129
 10
191.9676006097788
 20
16.22480690542318
 10
191.9548344099157
 20
16.20388988579796
 10
191.7949362006554
 20
16.17127126532702
 10
192.2322025842337
 20
15.882066803367
 10
192.4345394828262
 20
15.6804113835844
 10
192.6819564267973
 20
15.43749387603273
 10
193.1831513624605
 20
15.36047662757784
 10
193.012556219897
 20
15.21876939174655
 10
192.9383299463203
 20
15.01710366209099
 10
192.6131432248188
 20
15.36956287174721
 10
192.3277741670664
 20
15.53175212559561
 10
192.0337604077658
 20
15.73687130053047
 10
191.8084452691135
 20
16.21827488595462
 10
191.5993085055522
 20
15.75343046609221
 10
191.3207873674833
 20
15.54350952252913
 10
191.037138317721
 20
15.37424456359981
 10
190.7078639527831
 20
15.00142360907941
 10
190.6277012318224
 20
15.19708014459003
 10
190.4759724909744
 20
15.324911041906
 10
190.9083395826795
 20
15.40454031765934
 10
191.0962565329765
 20
15.6002663491547
 10
191.3468477420502
 20
15.81632996916754
 10
191.5714350470161
 20
15.98190992300057
 10
191.6259775409713
 20
16.26133964636832
 10
191.7494661029011
 20
16.2473795040808
 10
191.806027334452
 20
16.24521268867647
 10
191.8761870984945
 20
16.24046859881359
 10
191.9333414022105
 20
16.23709429350536
 10
191.9644190320839
 20
16.23519854711115
 10
191.9736010568669
 20
16.23463843719129
 97
        1
330
BE
 75
     1
 76
     2
 52
45.0
 41
0.1
 77
     0
 78
     1
 53
45.0
 43
0.0
 44
0.0
 45
-0.282842712474619
 46
0.0
 79
     0
 98
        1
 10
0.0
 20
0.0
  0
HATCH
  5
DC
330
48
100
AcDbEntity
  8
1
  6
Continuous
 62
     2
100
AcDbHatch
 10
0.0
 20
0.0
 30
0.0
210
0.0
220
0.0
230
1.0
  2
CUSTOM10
 70
     0
 71
     1
 91
        1
 92
        1
 93
        1
 72
     4
 94
        3
 73
     0
 74
     0
 95
       91
 96
       87
 40
0.0
 40
0.0
 40
0.0
 40
0.0
 40
0.0267532254356684
 40
0.0856103386464049
 40
0.144467452199655
 40
0.1712206856618426
 40
0.2039416005642447
 40
0.2955601971652395
 40
0.4362601844616829
 40
0.6162252844507161
 40
0.8256392189704609
 40
1.054685709844402
 40
1.293548478893522
 40
1.532411247938294
 40
1.761457738799559
 40
1.970871673298528
 40
2.150836773256724
 40
2.291536760495585
 40
2.383155356836691
 40
2.415876284101311
 40
2.442629517487952
 40
2.501486630949082
 40
2.560343744424226
 40
2.587096977826497
 40
2.617068194440924
 40
2.699247336756065
 40
2.822032643466378
 40
2.973822353257908
 40
3.14301470482335
 40
3.318007936879929
 40
3.487200288186762
 40
3.638989997548243
 40
3.761775303794741
 40
3.843954445753076
 40
3.873925662229772
 40
3.890812773500483
 40
3.907699884771665
 40
3.937960767857229
 40
3.980983618142264
 40
4.199085915228416
 40
4.439444339237216
 40
4.677588241260844
 40
5.050698317837758
 40
5.448212454763173
 40
5.85529121804464
 40
6.138575438885277
 40
6.417434507584145
 40
6.44455110439383
 40
6.504207617363132
 40
6.563864130314458
 40
6.590980727104053
 40
6.848609460381468
 40
7.109611990668451
 40
7.352910904446111
 40
7.557830220705435
 40
7.587518925913349
 40
7.652834077375759
 40
7.718149228845686
 40
7.747837934061986
 40
7.854880190300898
 40
7.976511257403436
 40
8.369487896592236
 40
8.75751495922353
 40
9.126072419330992
 40
9.460639380392054
 40
9.746695593035795
 40
9.777569943118571
 40
9.807050320931609
 40
9.83037733612874
 40
9.886003295435838
 40
9.952395569429772
 40
10.00802152870616
 40
10.03134854388208
 40
10.2135695100957
 40
10.42203479292852
 40
10.66154556731046
 40
10.91693789564287
 40
11.15832906556545
 40
11.18982674596603
 40
11.27286608520387
 40
11.39026653033329
 40
11.52484752840866
 40
11.65942852648428
 40
11.77682897161463
 40
11.85986831085663
 40
11.89136598230408
 40
11.89136598230408
 40
11.89136598230408
 40
11.89136598230408
 10
190.7027885008196
 20
14.70699600701769
 10
190.7028237765288
 20
14.71587847311982
 10
190.7029366710797
 20
14.74430237047343
 10
190.7012984568488
 20
14.79409639169799
 10
190.7069750292911
 20
14.8365756447815
 10
190.6956928731706
 20
14.88730154856843
 10
190.7632296979031
 20
14.87012900740105
 10
190.83880292107
 20
14.88290227165991
 10
190.9828357056
 20
14.87629729457378
 10
191.1569419185427
 20
14.87888462206462
 10
191.3639599611003
 20
14.87800591955549
 10
191.5894688172378
 20
14.87828207920023
 10
191.8251162293406
 20
14.87818339658658
 10
192.0607640531348
 20
14.87828184412763
 10
192.2862717580626
 20
14.87800678190785
 10
192.4932934632805
 20
14.87888186270731
 10
192.6673888915288
 20
14.87630522678442
 10
192.8114492071986
 20
14.8828829044921
 10
192.8869691915293
 20
14.870162434056
 10
192.954577603703
 20
14.88726400191683
 10
192.9430840140676
 20
14.83674785802936
 10
192.9505104581733
 20
14.79253252226498
 10
192.9428838927986
 20
14.74867966503606
 10
192.9546489459424
 20
14.69878374479324
 10
192.8930788491983
 20
14.71393227712509
 10
192.8256791738672
 20
14.7031066535067
 10
192.7013004056221
 20
14.70852031626233
 10
192.555442823657
 20
14.70649205390782
 10
192.3893576440085
 20
14.70715777578384
 10
192.2188412621724
 20
14.70689643521239
 10
192.0519790855388
 20
14.70721553391091
 10
191.9087346827105
 20
14.70635302590759
 10
191.7773313869834
 20
14.70863300482986
 10
191.7239859134656
 20
14.70407704374198
 10
191.6485188456913
 20
14.70999914992875
 10
191.6769075779232
 20
14.70094169343349
 10
191.7033652409542
 20
14.69725912268924
 10
191.6633522907701
 20
14.66654271968277
 10
191.5713663691869
 20
14.6766759117463
 10
191.5439396207069
 20
14.43032502247786
 10
191.4478793967234
 20
14.27499558764373
 10
191.1917277964474
 20
13.94525417931569
 10
191.7627537732763
 20
14.0843002221045
 10
192.0173656320516
 20
14.08291779973365
 10
192.6279647048617
 20
13.99790569242085
 10
192.3340698578083
 20
14.29685417558203
 10
192.0133304286516
 20
14.44330856901777
 10
192.1313543360434
 20
14.50025540818286
 10
192.1724716466261
 20
14.52420099873347
 10
192.215681239441
 20
14.5459975881123
 10
192.3174574094452
 20
14.60928721253905
 10
192.4328867625247
 20
14.35147151408778
 10
192.6329591642278
 20
14.21616041113681
 10
192.7269077387228
 20
14.03792795138883
 10
192.9558829746393
 20
13.87997821027045
 10
192.8596031846708
 20
13.82915972576301
 10
192.8167959763779
 20
13.79881292523056
 10
192.7718243528779
 20
13.77466130281463
 10
192.7121720925214
 20
13.72552146747574
 10
192.6789731061324
 20
13.85997475673609
 10
192.5582013350797
 20
14.0159426528658
 10
192.1970976005978
 20
13.88569928059554
 10
191.8385061955541
 20
13.90224694409482
 10
191.457092045008
 20
13.89331229351863
 10
191.1703455282892
 20
13.82882671672407
 10
190.8592055599712
 20
13.94230668192824
 10
190.8268737818789
 20
13.8312225992777
 10
190.7896178253318
 20
13.81196313850006
 10
190.7865737632756
 20
13.85874784087295
 10
190.7679892860608
 20
13.89806853919129
 10
190.7512436616778
 20
13.95765983478232
 10
190.7383730915754
 20
14.00201969871281
 10
190.7042327806429
 20
14.091063311202
 10
190.9482714457754
 20
14.02181042943768
 10
191.1441394486671
 20
14.00030369057742
 10
191.2395426381277
 20
14.28226484478462
 10
191.2945135769597
 20
14.44363045421122
 10
191.5159619357156
 20
14.71391177589736
 10
191.3849239381216
 20
14.70548446853731
 10
191.3110026555854
 20
14.70779008496967
 10
191.1977459876244
 20
14.70671378321655
 10
191.0694251807484
 20
14.70707639076507
 10
190.9404252030415
 20
14.70697724466083
 10
190.828784094629
 20
14.70699932712569
 10
190.7514663970026
 20
14.70699579189667
 10
190.713287653201
 20
14.70699595845078
 10
190.7027885008196
 20
14.70699600701769
 97
        1
330
BF
 75
     1
 76
     2
 52
45.0
 41
0.1
 77
     0
 78
     1
 53
45.0
 43
0.0
 44
0.0
 45
-0.282842712474619
 46
0.0
 79
     0
 98
        1
 10
0.0
 20
0.0
  0
HATCH
  5
DD
330
48
100
AcDbEntity
  8
1
  6
Continuous
 62
     2
100
AcDbHatch
 10
0.0
 20
0.0
 30
0.0
210
0.0
220
0.0
230
1.0
  2
CUSTOM11
 70
     0
 71
     1
 91
        1
 92
        1
 93
        1
 72
     4
 94
        3
 73
     0
 74
     0
 95
      131
 96
      127
 40
0.0
 40
0.0
 40
0.0
 40
0.0
 40
0.0195577029826827
 40
0.0426490537462382
 40
0.2863607575857793
 40
0.5344948436190533
 40
0.7842238845574374
 40
0.8737315789468489
 40
0.9803832810313975
 40
1.092842274517145
 40
1.19976114665691
 40
1.289788768186627
 40
1.351573580786339
 40
1.370727117561564
 40
1.416400936017972
 40
1.470914848356109
 40
1.516588666791897
 40
1.535742203552975
 40
1.634216592293323
 40
1.760283341175149
 40
1.897966686682223
 40
2.031216387369006
 40
2.049689751138001
 40
2.101115601646938
 40
2.179502577740059
 40
2.278859318314178
 40
2.393194462258839
 40
2.516516648383957
 40
2.642834515406089
 40
2.766156701983598
 40
2.880491846754714
 40
2.97984858835876
 40
3.058235565443939
 40
3.109661416669096
 40
3.128134780704273
 40
3.14678374238659
 40
3.191254343315479
 40
3.244332157316138
 40
3.28880275822607
 40
3.307451719895341
 40
3.327717853844953
 40
3.383747753580315
 40
3.468388665924709
 40
3.574487837699018
 40
3.694892515729129
 40
3.822449946852269
 40
3.950007377920664
 40
4.070412055800758
 40
4.176511227368315
 40
4.261152139501765
 40
4.317182039076958
 40
4.337448172964879
 40
4.620011002696494
 40
4.885096638397765
 40
4.94537304351859
 40
5.014107710488907
 40
5.070481727652314
 40
5.319246955636824
 40
5.584812164506294
 40
5.859000912057151
 40
6.133746937542345
 40
6.401732212969169
 40
6.42073668399576
 40
6.472845717451411
 40
6.550702743894338
 40
6.646951193874547
 40
6.754234497930871
 40
6.865196086587649
 40
6.972479390358107
 40
7.068727839772269
 40
7.146584865451278
 40
7.198693898189508
 40
7.217698368905649
 40
7.234950401631116
 40
7.276089864270131
 40
7.325191803516208
 40
7.366331266090566
 40
7.383583298769907
 40
7.402779163492284
 40
7.453386443254716
 40
7.524934666445717
 40
7.606953361406057
 40
7.688972056429209
 40
7.760520279784459
 40
7.811127559734701
 40
7.830323424546322
 40
7.847844055299952
 40
7.894799345667001
 40
7.962779392744696
 40
8.043374293560753
 40
8.12817414514967
 40
8.208769044817481
 40
8.276749090377193
 40
8.323704379669758
 40
8.341225010056492
 40
8.35849761480064
 40
8.401679126686846
 40
8.457815092185903
 40
8.513951057728308
 40
8.557132569708264
 40
8.574405174505307
 40
8.602340668616664
 40
8.643455660540155
 40
8.663225271966827
 40
8.715345156564478
 40
8.789031889628816
 40
8.873502045520555
 40
8.957972194324187
 40
9.031658925568085
 40
9.083778811234776
 40
9.103548423003241
 40
9.119550083123807
 40
9.16081752238008
 40
9.217244429110474
 40
9.27872449164496
 40
9.335151398295716
 40
9.376418837358012
 40
9.3924204973008
 40
9.401196302735046
 40
9.417494229384497
 40
9.426270027749798
 40
9.440875075477802
 40
9.475702496998998
 40
9.517270709866152
 40
9.552098131994311
 40
9.566703169884516
 40
9.566703169884516
 40
9.566703169884516
 40
9.566703169884516
 10
194.617025414848
 20
15.6701587151103
 10
194.6134345093371
 20
15.6645369070216
 10
194.6056039123625
 20
15.6522775441911
 10
194.5129968974547
 20
15.61601916041006
 10
194.4887622233247
 20
15.40148444212703
 10
194.3858709845939
 20
15.22197284509712
 10
194.1220492364304
 20
15.03615573798145
 10
194.2845471569181
 20
14.95959336566084
 10
194.3607225760838
 20
14.89856693195444
 10
194.4492171072758
 20
14.83515804544762
 10
194.538993023311
 20
14.77525634219562
 10
194.5883817636046
 20
14.72102154849207
 10
194.6745708157382
 20
14.6928624054183
 10
194.6411260674229
 20
14.65713309652808
 10
194.6214671166311
 20
14.62550387991903
 10
194.5919888217882
 20
14.58475872796067
 10
194.5688989446031
 20
14.55504663489641
 10
194.5380205968357
 20
14.50211422668492
 10
194.472919336574
 20
14.62740334938899
 10
194.3796000122415
 20
14.68213900233935
 10
194.2950636285138
 20
14.73916423939342
 10
194.1722498125744
 20
14.89675287427525
 10
194.1764450847302
 20
14.82035806766838
 10
194.1751478652678
 20
14.77361280161298
 10
194.1758126448077
 20
14.69584785812602
 10
194.1755549986958
 20
14.59902068324423
 10
194.1756431239921
 20
14.48650279078809
 10
194.1756077302282
 20
14.365240859457
 10
194.175651175828
 20
14.24086897858961
 10
194.1755199942406
 20
14.11967683631335
 10
194.1759477562047
 20
14.00691148919742
 10
194.1746678202312
 20
13.91082913768743
 10
194.1779759851044
 20
13.83113826468698
 10
194.1715197740088
 20
13.78815175788783
 10
194.1806208705556
 20
13.7495543237204
 10
194.1447910339936
 20
13.75810887724069
 10
194.1115223815252
 20
13.75342519985445
 10
194.0604562576041
 20
13.75351298759782
 10
194.0269723972813
 20
13.75794430283819
 10
193.9907585408754
 20
13.74960793842507
 10
194.0009782568665
 20
13.79145277179282
 10
193.9936487887774
 20
13.83778560820172
 10
193.9973633136102
 20
13.92374831106012
 10
193.9959480554897
 20
14.02605142704848
 10
193.9964105554638
 20
14.14453223931511
 10
193.996277368623
 20
14.26957683153355
 10
193.9963015910045
 20
14.39475828107049
 10
193.9963354925551
 20
14.51286645379058
 10
193.9962060293132
 20
14.61628748709515
 10
193.9965507549081
 20
14.69932036153667
 10
193.9958698278689
 20
14.75143368521244
 10
193.9994586600625
 20
14.87912907821362
 10
193.7826171386435
 20
14.5804871681962
 10
193.6021354921951
 20
14.35263981511515
 10
193.5490322295611
 20
14.49373443289814
 10
193.5200429133149
 20
14.54325767560945
 10
193.419664806282
 20
14.64641779790109
 10
193.7405127723261
 20
14.72695035023778
 10
193.868989700543
 20
14.91066283036435
 10
194.0906454325358
 20
15.11931995771763
 10
194.1770224894069
 20
15.29339211228347
 10
194.4549394229075
 20
15.56967051342517
 10
194.3346247839284
 20
15.56534559551119
 10
194.2863197351348
 20
15.56614856202558
 10
194.2102377454905
 20
15.56574582146589
 10
194.116701000975
 20
15.56590275611614
 10
194.0117594788557
 20
15.56582502576229
 10
193.9033887738717
 20
15.56595464378559
 10
193.7981454235897
 20
15.56554393490697
 10
193.7056237819412
 20
15.56682073671596
 10
193.6268130800707
 20
15.56340766534855
 10
193.5839674565379
 20
15.57023350036325
 10
193.5449499586516
 20
15.56065064201128
 10
193.5526365271863
 20
15.59420779565546
 10
193.5485464404311
 20
15.62523550322233
 10
193.5485531368814
 20
15.67236529270898
 10
193.5526239724911
 20
15.70340941646774
 10
193.5449495574583
 20
15.73701861635895
 10
193.5834819405495
 20
15.72748410420866
 10
193.6241228014479
 20
15.73397435498065
 10
193.6951471850463
 20
15.73100150650248
 10
193.7729318149633
 20
15.73174761399151
 10
193.8507292246474
 20
15.73247814044519
 10
193.9217232089907
 20
15.72954235514154
 10
193.962427979182
 20
15.73595468772946
 10
194.000985348991
 20
15.72650524175998
 10
193.9927342754927
 20
15.76264692158778
 10
193.9982346669359
 20
15.80129837613222
 10
193.9955754206163
 20
15.86913528561834
 10
193.9965815471533
 20
15.94591641538737
 10
193.9960178018319
 20
16.02849393582754
 10
193.9970714526593
 20
16.10517329229877
 10
193.9942675863129
 20
16.17331990776698
 10
194.0000702721304
 20
16.21132399809347
 10
193.9915654551158
 20
16.24758448077645
 10
194.0255610233125
 20
16.23755723771853
 10
194.05945756831
 20
16.24073266813706
 10
194.1126669060346
 20
16.2350896564061
 10
194.1660768574482
 20
16.23434774436424
 10
194.1995914649491
 20
16.22819223482981
 10
194.2388086183038
 20
16.23346029773592
 10
194.2120263698493
 20
16.1925338079349
 10
194.1708111001724
 20
16.20371204538106
 10
194.1782641540875
 20
16.15867056192121
 10
194.1742227952185
 20
16.11412278028141
 10
194.1761714049641
 20
16.04223572621699
 10
194.1752364849759
 20
15.96168630588766
 10
194.176510719003
 20
15.8817399540499
 10
194.1732043793864
 20
15.80841837083177
 10
194.1802106179962
 20
15.76688643002562
 10
194.1701440380126
 20
15.72752418568106
 10
194.2029814803922
 20
15.73468063430975
 10
194.2364577296482
 20
15.73027243137938
 10
194.2915053476019
 20
15.73217943347891
 10
194.3489502595316
 20
15.73185366407282
 10
194.402302624831
 20
15.73106308733076
 10
194.4398540896639
 20
15.73313959118068
 10
194.4623172523238
 20
15.73022338167103
 10
194.4751678073732
 20
15.73572552644049
 10
194.4858255685889
 20
15.73801118197786
 10
194.4986635650145
 20
15.74494972588049
 10
194.5145991033071
 20
15.72853046313667
 10
194.5410623920893
 20
15.71709122319449
 10
194.5726805253759
 20
15.6964468783519
 10
194.5987255892152
 20
15.68116869628296
 10
194.6128517723974
 20
15.67266976323186
 10
194.617025414848
 20
15.6701587151103
 97
        1
330
C0
 75
     1
 76
     2
 52
45.0
 41
0.1
 77
     0
 78
     1
 53
45.0
 43
0.0
 44
0.0
 45
-0.282842712474619
 46
0.0
 79
     0
 98
        1
 10
0.0
 20
0.0
  0
HATCH
  5
DE
330
48
100
AcDbEntity
  8
1
  6
Continuous
 62
     2
100
AcDbHatch
 10
0.0
 20
0.0
 30
0.0
210
0.0
220
0.0
230
1.0
  2
CUSTOM12
 70
     0
 71
     1
 91
        1
 92
        1
 93
        1
 72
     4
 94
        3
 73
     0
 74
     0
 95
      124
 96
      120
 40
0.0
 40
0.0
 40
0.0
 40
0.0
 40
0.027818722962451
 40
0.1011590162384269
 40
0.2048470170590239
 40
0.3237088716559245
 40
0.4425707262522
 40
0.5462587270699547
 40
0.6195990203311798
 40
0.647417752257866
 40
0.6750060736115242
 40
0.7357003855242759
 40
0.7963946998054456
 40
0.8239830245571766
 40
0.854093381110286
 40
0.937339662940954
 40
1.063094687343235
 40
1.220731268638073
 40
1.399622220914748
 40
1.589140358637732
 40
1.778658496423898
 40
1.957549448940509
 40
2.115186030873159
 40
2.240941056914463
 40
2.324187341760532
 40
2.354297700109382
 40
2.38188602467189
 40
2.442580338710475
 40
2.503274652750497
 40
2.530862977314606
 40
2.560983949278559
 40
2.640393784452905
 40
2.752662861759128
 40
2.881361560118145
 40
3.010060258455192
 40
3.122329335705339
 40
3.201739170817953
 40
3.231860142753313
 40
3.26429802403037
 40
3.352343701778238
 40
3.482095226868759
 40
3.639650650173016
 40
3.811108022565468
 40
3.982565394927973
 40
4.140120818152551
 40
4.269872343141258
 40
4.357918020802319
 40
4.390355902043946
 40
4.423256253992515
 40
4.508104530073036
 40
4.624121560636804
 40
4.750528176031561
 40
4.866545206602008
 40
4.951393482691965
 40
4.984293834645366
 40
5.01145083324228
 40
5.071196230152062
 40
5.130941627057136
 40
5.1580986256488
 40
5.190998977601491
 40
5.275847253689316
 40
5.391864284256751
 40
5.518270899648296
 40
5.634287930209335
 40
5.719136206288009
 40
5.752036558235896
 40
5.782130946282924
 40
5.8627839062291
 40
5.979550131774972
 40
6.11798431664038
 40
6.263641154587931
 40
6.40207533941414
 40
6.51884156490794
 40
6.599494524815525
 40
6.629588912848763
 40
6.65440302822634
 40
6.713575149488107
 40
6.784199939329425
 40
6.843372060493528
 40
6.868186175802774
 40
6.896246243201869
 40
6.939586233758275
 40
6.967846564564903
 40
7.043584251089834
 40
7.153234334451687
 40
7.283231855734432
 40
7.420011856035455
 40
7.550009376579796
 40
7.659659458835192
 40
7.735397144417178
 40
7.76365747485135
 40
7.796409728011007
 40
7.880876065096281
 40
7.996370852465667
 40
8.122208446418561
 40
8.237703224799155
 40
8.32216956201085
 40
8.354921815205863
 40
8.382078813307643
 40
8.441824209206946
 40
8.501569605240093
 40
8.52872660348567
 40
8.561478856695718
 40
8.645945193877768
 40
8.76143998086528
 40
8.887277580764422
 40
9.002772362000943
 40
9.087238696661164
 40
9.119990949235618
 40
9.152428830613317
 40
9.24047450863853
 40
9.370226034149479
 40
9.527781457984359
 40
9.699238830981344
 40
9.87069620397853
 40
10.02825162781395
 40
10.15800315332557
 40
10.24604883135111
 40
10.27848670378514
 40
10.27848670378514
 40
10.27848670378514
 40
10.27848670378514
 10
195.3821827564383
 20
14.0141051738576
 10
195.3914554737523
 20
14.01410498511277
 10
195.4251744536861
 20
14.01410430876717
 10
195.4934706812465
 20
14.01411807243307
 10
195.592014171158
 20
14.01403224219548
 10
195.7062066464812
 20
14.01441755612253
 10
195.818589441707
 20
14.01300835897548
 10
195.9214376600118
 20
14.01719117422245
 10
195.9806839874849
 20
14.00823089251985
 10
196.0371265937033
 20
14.02164434526064
 10
196.0246255586954
 20
13.97087198613364
 10
196.0329549635703
 20
13.9258932093907
 10
196.024817084112
 20
13.88056752990491
 10
196.0370529214457
 20
13.82931932408469
 10
195.9747773490333
 20
13.84447955365279
 10
195.9060513026868
 20
13.83359750710746
 10
195.7782756749592
 20
13.83911304747975
 10
195.6262984511643
 20
13.83700851253701
 10
195.4502695972523
 20
13.83771002588476
 10
195.2644431934287
 20
13.83745237531295
 10
195.0786167437175
 20
13.83771005144606
 10
194.9025880142168
 20
13.83700841847734
 10
194.7506104154195
 20
13.83911332229992
 10
194.6228357664554
 20
13.83359680767643
 10
194.5541077836581
 20
13.84448077125945
 10
194.4918349042883
 20
13.82931786684212
 10
194.5040616290017
 20
13.88057510805175
 10
194.4960004462597
 20
13.92582473272428
 10
194.5040675809893
 20
13.97106357955326
 10
194.4918238487083
 20
14.02234176909961
 10
194.5525017120697
 20
14.00749577363138
 10
194.6162810745736
 20
14.01756448170738
 10
194.7277314353502
 20
14.01294644212002
 10
194.8497533443824
 20
14.01413328905472
 10
194.9719538137823
 20
14.01515863900637
 10
195.0829794287392
 20
14.01092475623404
 10
195.1476517413958
 20
14.02018584521742
 10
195.2091162810501
 20
14.00604423049685
 10
195.1930065601337
 20
14.0723552788452
 10
195.2042980327358
 20
14.14447790121978
 10
195.1987400822561
 20
14.27513760888288
 10
195.2008035061691
 20
14.42607323708243
 10
195.2000167127295
 20
14.59335873107888
 10
195.2007845215627
 20
14.76061110332304
 10
195.1988038785628
 20
14.91163289269915
 10
195.204130615662
 20
15.04206069552996
 10
195.1933101388425
 20
15.114654426059
 10
195.2090326429875
 20
15.18150469436799
 10
195.143270813249
 20
15.16580512490825
 10
195.0756367830763
 20
15.17609243083996
 10
194.9615885293809
 20
15.17113786847123
 10
194.8451242674902
 20
15.17414128030475
 10
194.7306554121477
 20
15.16880303143389
 10
194.6640324657812
 20
15.18001268074826
 10
194.5990769715185
 20
15.16349132665012
 10
194.6107989758708
 20
15.2147372047706
 10
194.6032830189121
 20
15.25950333784091
 10
194.6107989878835
 20
15.30426944897962
 10
194.5990769505347
 20
15.35551536129741
 10
194.66403263392
 20
15.33899381766815
 10
194.7306533339821
 20
15.35020571373944
 10
194.8451352858063
 20
15.34485436710664
 10
194.9615454436962
 20
15.34791188771117
 10
195.0757660174641
 20
15.34278499010708
 10
195.1430150439226
 20
15.35345733355598
 10
195.2083325941438
 20
15.33742082669077
 10
195.1941391448552
 20
15.39949685750054
 10
195.2036059462995
 20
15.46586761628763
 10
195.1990269004085
 20
15.58239972741967
 10
195.2007696555948
 20
15.71426685022377
 10
195.1997551495392
 20
15.85615960150275
 10
195.2017191344372
 20
15.98769050702582
 10
195.1964668553851
 20
16.10524577283004
 10
195.2073408763475
 20
16.16947789001587
 10
195.1919536641853
 20
16.2310880254505
 10
195.24075915378
 20
16.21702407382113
 10
195.2853995564725
 20
16.21954742075316
 10
195.3538643946742
 20
16.2151279740171
 10
195.3959106169103
 20
16.20613025544036
 10
195.4487544758775
 20
16.2141171486651
 10
195.4207035002013
 20
16.17113917611671
 10
195.3749142248595
 20
16.18259552043832
 10
195.3869539073264
 20
16.12173520005133
 10
195.3796086070641
 20
16.05769299468768
 10
195.3831195826162
 20
15.94909368863907
 10
195.3819806760173
 20
15.8249431914475
 10
195.3819174780263
 20
15.69189719829876
 10
195.3832872966868
 20
15.56797381249554
 10
195.3791638801314
 20
15.45868337849338
 10
195.3877763103564
 20
15.3960858009417
 10
195.3746757454402
 20
15.33740133296365
 10
195.4393884328198
 20
15.35362113810902
 10
195.5060405953156
 20
15.34270260383311
 10
195.6198779541102
 20
15.34793740173756
 10
195.7357259122097
 20
15.34485547516913
 10
195.849692426328
 20
15.35018259812512
 10
195.91603410181
 20
15.33904208166543
 10
195.9807188525479
 20
15.35546979593178
 10
195.9689820772722
 20
15.30425925210051
 10
195.9765168063041
 20
15.25950334121001
 10
195.9689820992258
 20
15.21474739010028
 10
195.9807188140737
 20
15.16353690871041
 10
195.9160344075252
 20
15.17996427794221
 10
195.8496886430824
 20
15.1688278444727
 10
195.7357459487012
 20
15.17413115893121
 10
195.6197995623054
 20
15.17114764593544
 10
195.5062756882122
 20
15.17606892268395
 10
195.4389231318804
 20
15.1658508751352
 10
195.3734285122495
 20
15.18145996138816
 10
195.3891713619218
 20
15.11463851827412
 10
195.3783275998213
 20
15.0420705781588
 10
195.3836581629793
 20
14.91162247614417
 10
195.3817136151855
 20
14.76064558185227
 10
195.3823133683214
 20
14.5932224393416
 10
195.3821506559605
 20
14.42656176118374
 10
195.3821895488136
 20
14.27360142921638
 10
195.3821816413098
 20
14.14849178985707
 10
195.3821828382744
 20
14.06507890991423
 10
195.3821827716208
 20
14.02491778281978
 10
195.3821827564383
 20
14.0141051738576
 97
        1
330
C1
 75
     1
 76
     2
 52
45.0
 41
0.1
 77
     0
 78
     1
 53
45.0
 43
0.0
 44
0.0
 45
-0.282842712474619
 46
0.0
 79
     0
 98
        1
 10
0.0
 20
0.0
  0
HATCH
  5
DF
330
48
100
AcDbEntity
  8
1
  6
Continuous
 62
     2
100
AcDbHatch
 10
0.0
 20
0.0
 30
0.0
210
0.0
220
0.0
230
1.0
  2
CUSTOM13
 70
     0
 71
     1
 91
        1
 92
        1
 93
        3
 72
     4
 94
        3
 73
     0
 74
     0
 95
       24
 96
       20
 40
0.0
 40
0.0
 40
0.0
 40
0.0
 40
0.2211075008753953
 40
0.4273218586245801
 40
0.5080174679239837
 40
0.5914835907870774
 40
0.8143265690193788
 40
1.054651302686687
 40
1.295452694023262
 40
1.518109231328853
 40
1.540864321905467
 40
1.595126460622724
 40
1.659890947896033
 40
1.714153085187387
 40
1.736908174961686
 40
1.7649511007354
 40
1.801562291220983
 40
1.953914424543671
 40
2.126104167379805
 40
2.126104167379805
 40
2.126104167379805
 40
2.126104167379805
 10
185.9375369556889
 20
15.5898929511302
 10
185.9112579081811
 20
15.53097628234378
 10
185.8604698894426
 20
15.4171113967926
 10
185.8131784839111
 20
15.14441958233113
 10
185.7043482802618
 20
15.24445482575454
 10
185.5514800279637
 20
15.27118593367333
 10
185.76861551812
 20
15.48518135017631
 10
185.7838483674381
 20
15.70332117782491
 10
185.8906889492002
 20
15.88451579066425
 10
185.8305380947077
 20
16.16913226311396
 10
185.9334317395402
 20
16.14114089222447
 10
185.977993346815
 20
16.13243251602298
 10
186.0380842395397
 20
16.12139654183355
 10
186.0756619587438
 20
16.10767523055561
 10
186.1252466928606
 20
16.10756076160227
 10
186.0930158919325
 20
16.07306592398622
 10
186.0171802221882
 20
16.08404104537973
 10
186.0429447159694
 20
15.89858969582446
 10
186.0055896763849
 20
15.80702313549586
 10
185.9857704961609
 20
15.75844135397701
 72
     4
 94
        3
 73
     0
 74
     0
 95
       70
 96
       66
 40
0.0
 40
0.0
 40
0.0
 40
0.0
 40
0.0241731073021472
 40
0.0846058988987013
 40
0.1631685280353284
 40
0.2417311571789756
 40
0.3021639488292751
 40
0.3263370654895541
 40
0.3533118254248934
 40
0.4228783438922253
 40
0.5179999095313704
 40
0.62163982394666
 40
0.716761389150031
 40
0.7863279069650609
 40
0.8133026791762618
 40
0.8372943998772457
 40
0.8945054261373657
 40
0.9627895541963437
 40
1.020000580349154
 40
1.043992300975253
 40
1.071934345522995
 40
1.11312176877301
 40
1.145225199332335
 40
1.225483775412873
 40
1.329819923771589
 40
1.434156071994482
 40
1.514414647795907
 40
1.546518078208515
 40
1.578974764260289
 40
1.662678849314284
 40
1.777131373668504
 40
1.901833377474895
 40
2.016285900500685
 40
2.099989982528052
 40
2.132446666570411
 40
2.158782354486136
 40
2.216720867907923
 40
2.274659381334348
 40
2.300995069256282
 40
2.333451754066254
 40
2.417155836543935
 40
2.531608358985375
 40
2.65631036228387
 40
2.770762886389002
 40
2.854466971340167
 40
2.886923657363974
 40
2.913597976833404
 40
2.982389642875197
 40
3.076451716947049
 40
3.178937260458647
 40
3.272999334740038
 40
3.341791001059251
 40
3.368465320663558
 40
3.396976080738779
 40
3.472140811846015
 40
3.578408190308705
 40
3.700226892456141
 40
3.822045594634358
 40
3.928312973256465
 40
4.003477705314863
 40
4.031988456866928
 40
4.058324144797734
 40
4.116262658236908
 40
4.174201171400719
 40
4.200536849608659
 40
4.200536849608659
 40
4.200536849608659
 40
4.200536849608659
 10
185.9857704961609
 20
15.75844135397701
 10
185.9938259544679
 20
15.75844359811683
 10
186.0220200663241
 20
15.75845146032793
 10
186.0765534803672
 20
15.75830754828368
 10
186.1482891808604
 20
15.75909120499894
 10
186.2236240137062
 20
15.75627570463807
 10
186.2713052366438
 20
15.76298403400953
 10
186.3195071245616
 20
15.75197563692428
 10
186.3062571799873
 20
15.8054640299703
 10
186.3151093964538
 20
15.86049583543089
 10
186.3108698036285
 20
15.95419908726108
 10
186.313348348128
 20
16.04959482218533
 10
186.309093870606
 20
16.14356821983389
 10
186.3179818665846
 20
16.19795062438015
 10
186.3046977409945
 20
16.25233997691464
 10
186.3514119277109
 20
16.23842216335361
 10
186.3943254545736
 20
16.24103877374046
 10
186.4605443456684
 20
16.23648422450756
 10
186.5013342271799
 20
16.22778162134163
 10
186.5525145690819
 20
16.23531799890194
 10
186.5253720487201
 20
16.19349970223284
 10
186.4803096055706
 20
16.20284992072594
 10
186.4942065045051
 20
16.13841207371835
 10
186.4858414431653
 20
16.07378219627396
 10
186.4903632178398
 20
15.97529141193884
 10
186.4854741311167
 20
15.87595932842567
 10
186.4950258992082
 20
15.81293115552964
 10
186.4799761455201
 20
15.74964011499785
 10
186.5449159457208
 20
15.76515072944265
 10
186.6116246399497
 20
15.75499387697808
 10
186.7241435470827
 20
15.75988800099363
 10
186.8390235448954
 20
15.7569120473278
 10
186.9519871999747
 20
15.76221664184987
 10
187.0176267597677
 20
15.75107306472084
 10
187.0816276691053
 20
15.76744532319854
 10
187.0703142889189
 20
15.7176168990527
 10
187.077533987151
 20
15.67416715212119
 10
187.070314261127
 20
15.63071745587441
 10
187.0816277175993
 20
15.58088895196873
 10
187.0176263598972
 20
15.59726166091358
 10
186.9519921240459
 20
15.58611271661584
 10
186.838997431733
 20
15.5914485720685
 10
186.7242456548644
 20
15.58834345663818
 10
186.611318368686
 20
15.59364894682584
 10
186.5455220903584
 20
15.58257300019589
 10
186.4816097975358
 20
15.59887597847614
 10
186.4936015165125
 20
15.54423524395738
 10
186.4862104613005
 20
15.48854295047839
 10
186.4892684841983
 20
15.39649689140569
 10
186.4893422785682
 20
15.30179109873101
 10
186.4860313578361
 20
15.20952782902267
 10
186.4939505989903
 20
15.15435768736141
 10
186.4815076611617
 20
15.10058169100139
 10
186.5389116551632
 20
15.11453768862784
 10
186.5994708140383
 20
15.1051145788423
 10
186.7048680855081
 20
15.10942885928707
 10
186.8204294070622
 20
15.10835504612034
 10
186.9359688877797
 20
15.10725965900997
 10
187.041418113084
 20
15.11162525770635
 10
187.1018680471804
 20
15.10209426030674
 10
187.159283773911
 20
15.11617289606382
 10
187.1477773876709
 20
15.06707153265685
 10
187.1537566781749
 20
15.0256465801865
 10
187.1520311050801
 20
14.97651677966695
 10
187.1521500122971
 20
14.94854428447607
 10
187.1521871691833
 20
14.93980288195949
 72
     4
 94
        3
 73
     0
 74
     0
 95
       62
 96
       58
 40
0.0
 40
0.0
 40
0.0
 40
0.0
 40
0.0598250028308485
 40
0.2024846486897331
 40
0.3727558389221031
 40
0.515415484793607
 40
0.5752404975785339
 40
0.9332326775487156
 40
1.290451762839457
 40
1.602077253145847
 40
1.699931634112108
 40
1.799359756424961
 40
2.27012014965709
 40
2.804661928461527
 40
2.882342287383239
 40
3.076543185719095
 40
3.329004354835562
 40
3.581465524568395
 40
3.77566642454368
 40
3.853346784558302
 40
3.899120679595048
 40
3.984129341792046
 40
4.029903236817394
 40
4.105797496059547
 40
4.295533144152507
 40
4.542189486611746
 40
4.788845828875695
 40
4.978581476410075
 40
5.054475735244318
 40
5.621734664339313
 40
6.130867242037329
 40
6.225249780948603
 40
6.31891303972727
 40
6.66357995455889
 40
7.047498900224751
 40
7.435230791575685
 40
7.498943906668097
 40
7.650875181210091
 40
7.832212509001601
 40
7.984143783696987
 40
8.047856898903113
 40
8.09155463273263
 40
8.172707566964307
 40
8.216405300768038
 40
8.289021782160923
 40
8.462184160757296
 40
8.668861838005377
 40
8.842024215263969
 40
8.914640695475164
 40
8.989881580861358
 40
9.155411528827242
 40
9.320941477744
 40
9.396182352487243
 40
9.45470901114379
 40
9.583467660170724
 40
9.712226309013003
 40
9.770752957989457
 40
9.770752957989457
 40
9.770752957989457
 40
9.770752957989457
 10
187.1521871691833
 20
14.93980288195949
 10
187.1322348171623
 20
14.93980875568671
 10
187.0647037716466
 20
14.93982863806156
 10
186.9410612161788
 20
14.93949362520325
 10
186.7863180150056
 20
14.94107673750511
 10
186.669734948248
 20
14.93686078860494
 10
186.455094263424
 20
14.95215205331625
 10
186.8518948407229
 20
14.59198721286193
 10
186.8945656069267
 20
14.37510503397165
 10
187.3189162146611
 20
14.19325062511452
 10
187.1439821496074
 20
14.08985196568073
 10
187.0194523925086
 20
13.87831523212717
 10
186.7666277235942
 20
14.3480608100156
 10
186.4797602893627
 20
14.9951151698452
 10
186.4906335926659
 20
14.68782672154693
 10
186.4882892777961
 20
14.52288616971777
 10
186.4861096126411
 20
14.28879670711691
 10
186.4980774396346
 20
14.04498072421781
 10
186.4687984740631
 20
13.89855796860981
 10
186.511452262547
 20
13.75113490174536
 10
186.4239814005639
 20
13.76685797306216
 10
186.3768527606744
 20
13.76694303543451
 10
186.2898973207713
 20
13.75109425482906
 10
186.3313474021722
 20
13.89527771422759
 10
186.3029875004286
 20
14.03855052698452
 10
186.3145973775299
 20
14.27674947365261
 10
186.3124175648272
 20
14.50517235240343
 10
186.3103111127993
 20
14.6670572937599
 10
186.3208035438324
 20
14.98153709333748
 10
186.0128963252892
 20
14.29229470872434
 10
185.7055258267456
 20
13.81476750243047
 10
185.5851367066274
 20
14.03741112637428
 10
185.4074607910722
 20
14.15011034955562
 10
185.8853326362894
 20
14.32548143465459
 10
185.9353959057208
 20
14.56091929252029
 10
186.3583799621716
 20
14.95322989344605
 10
186.127675427354
 20
14.93655307029065
 10
186.004968585934
 20
14.9426951894877
 10
185.8325483095662
 20
14.93312822699573
 10
185.7213224694448
 20
14.95448818489664
 10
185.6025779627448
 20
14.92136265357419
 10
185.6183169706686
 20
15.00203900606884
 10
185.6178550933762
 20
15.04645414290855
 10
185.6027881889931
 20
15.12967081778536
 10
185.7372380935443
 20
15.09062651983886
 10
185.8619755545747
 20
15.11739729328424
 10
186.062875523728
 20
15.10063949044055
 10
186.1921540949353
 20
15.12204225913007
 10
186.3328419928294
 20
15.08868778853423
 10
186.2980927452615
 20
15.22651875785069
 10
186.3222185666713
 20
15.34963257349479
 10
186.2967086182392
 20
15.47024055670333
 10
186.3333251146685
 20
15.60539865141491
 10
186.2211417027769
 20
15.58094545781887
 10
186.1280356457136
 20
15.59307749842018
 10
186.0191547579819
 20
15.58957630069989
 10
185.9569697640964
 20
15.58981755951599
 10
185.9375369557246
 20
15.5898929512414
 97
        3
330
C3
330
C4
330
C2
 75
     1
 76
     2
 52
45.0
 41
0.1
 77
     0
 78
     1
 53
45.0
 43
0.0
 44
0.0
 45
-0.282842712474619
 46
0.0
 79
     0
 98
        1
 10
0.0
 20
0.0
  0
HATCH
  5
E0
330
48
100
AcDbEntity
  8
1
  6
Continuous
 62
     2
100
AcDbHatch
 10
0.0
 20
0.0
 30
0.0
210
0.0
220
0.0
230
1.0
  2
CUSTOM14
 70
     0
 71
     1
 91
        1
 92
        1
 93
        4
 72
     1
 10
192.4578138032672
 20
15.2287543402206
 11
191.1602971697031
 21
15.2287543402206
 72
     1
 10
191.1602971697031
 20
15.2287543402206
 11
191.1602971697031
 21
15.3972233679563
 72
     1
 10
191.1602971697031
 20
15.3972233679563
 11
192.4578138032672
 21
15.3972233679563
 72
     1
 10
192.4578138032672
 20
15.3972233679563
 11
192.4578138032672
 21
15.2287543402206
 97
        1
330
C5
 75
     1
 76
     2
 52
45.0
 41
0.1
 77
     0
 78
     1
 53
45.0
 43
0.0
 44
0.0
 45
-0.282842712474619
 46
0.0
 79
     0
 98
        1
 10
0.0
 20
0.0
  0
ENDBLK
  5
4A
330
48
100
AcDbEntity
  8
0
100
AcDbBlockEnd
  0
BLOCK
  5
4D
330
4B
100
AcDbEntity
  8
0
100
AcDbBlockBegin
  2
開示A4枠
 70
     0
 10
0.0
 20
0.0
 30
0.0
  3
開示A4枠
  1

  0
INSERT
  5
4C
330
4B
100
AcDbEntity
  8
1
100
AcDbBlockReference
  2
開示A4
 10
0.0
 20
0.0
 30
0.0
  0
ENDBLK
  5
4E
330
4B
100
AcDbEntity
  8
0
100
AcDbBlockEnd
  0
BLOCK
  5
50
330
4F
100
AcDbEntity
  8
0
100
AcDbBlockBegin
  2
平パッキン
 70
     0
 10
99.78962201785683
 20
72.28305189876781
 30
0.0
  3
平パッキン
  1

  0
LINE
  5
E1
330
4F
100
AcDbEntity
  8
1
  6
Continuous
 62
     7
100
AcDbLine
 10
102.5636983083368
 20
80.2401486324938
 30
0.0
 11
122.5636983083368
 21
80.2401486324938
 31
0.0
  0
LINE
  5
E2
330
4F
100
AcDbEntity
  8
1
  6
Continuous
 62
     7
100
AcDbLine
 10
102.5636983083368
 20
75.2401486324938
 30
0.0
 11
122.5636983083368
 21
75.2401486324938
 31
0.0
  0
LINE
  5
E3
330
4F
100
AcDbEntity
  8
1
  6
Continuous
 62
     7
100
AcDbLine
 10
102.5636983083368
 20
75.2401486324938
 30
0.0
 11
102.5636983083368
 21
80.2401486324938
 31
0.0
  0
LINE
  5
E4
330
4F
100
AcDbEntity
  8
1
  6
Continuous
 62
     7
100
AcDbLine
 10
122.5636983083368
 20
75.2401486324938
 30
0.0
 11
122.5636983083368
 21
80.2401486324938
 31
0.0
  0
LINE
  5
E5
330
4F
100
AcDbEntity
  8
1
  6
DASH_CENTER
 62
     2
100
AcDbLine
 10
112.5636983083368
 20
82.78305189876781
 30
0.0
 11
112.5636983083368
 21
72.28305189876781
 31
0.0
  0
LINE
  5
E6
330
4F
100
AcDbEntity
  8
1
  6
DASH_CENTER
 62
     2
100
AcDbLine
 10
99.78962201785683
 20
100.3846063753781
 30
0.0
 11
124.7896220178568
 21
100.3846063753781
 31
0.0
  0
LINE
  5
E7
330
4F
100
AcDbEntity
  8
1
  6
DASH_CENTER
 62
     2
100
AcDbLine
 10
112.5636983083368
 20
88.24802260452489
 30
0.0
 11
112.5636983083368
 21
112.7480226045249
 31
0.0
  0
CIRCLE
  5
E8
330
4F
100
AcDbEntity
  8
1
  6
Continuous
 62
     7
100
AcDbCircle
 10
112.5636983083368
 20
100.3846063753781
 30
0.0
 40
10.0
  0
CIRCLE
  5
E9
330
4F
100
AcDbEntity
  8
1
  6
Continuous
 62
     7
100
AcDbCircle
 10
112.5636983083368
 20
100.3846063753781
 30
0.0
 40
7.0
  0
ENDBLK
  5
51
330
4F
100
AcDbEntity
  8
0
100
AcDbBlockEnd
  0
BLOCK
  5
53
330
52
100
AcDbEntity
  8
0
100
AcDbBlockBegin
  2
77-8
 70
     0
 10
-212.6957334173381
 20
221.4899249465595
 30
0.0
  3
77-8
  1

  0
CIRCLE
  5
EA
330
52
100
AcDbEntity
  8
1
  6
Continuous
 62
     7
100
AcDbCircle
 10
112.5636983083368
 20
212.9662475554323
 30
0.0
 40
7.749999999999801
  0
ENDBLK
  5
54
330
52
100
AcDbEntity
  8
0
100
AcDbBlockEnd
  0
BLOCK
  5
56
330
55
100
AcDbEntity
  8
0
100
AcDbBlockBegin
  2
95-21-16_8X1_9
 70
     0
 10
117.5971194142921
 20
138.5414219220133
 30
0.0
  3
95-21-16_8X1_9
  1

  0
CIRCLE
  5
EB
330
55
100
AcDbEntity
  8
1
  6
Continuous
 62
     7
100
AcDbCircle
 10
112.5636983083368
 20
212.9662475554323
 30
0.0
 40
8.400000000000503
  0
CIRCLE
  5
EC
330
55
100
AcDbEntity
  8
1
  6
Continuous
 62
     7
100
AcDbCircle
 10
112.5636983083368
 20
212.9662475554323
 30
0.0
 40
10.2999999999995
  0
ENDBLK
  5
57
330
55
100
AcDbEntity
  8
0
100
AcDbBlockEnd
  0
BLOCK
  5
59
330
58
100
AcDbEntity
  8
0
100
AcDbBlockBegin
  2
77-9
 70
     0
 10
-214.529549517631
 20
206.7046531770644
 30
0.0
  3
77-9
  1

  0
LINE
  5
ED
330
58
100
AcDbEntity
  8
1
  6
Continuous
 62
     2
100
AcDbLine
 10
105.7804219460094
 20
209.5452737901352
 30
0.0
 11
108.8111656560257
 21
212.5760175001515
 31
0.0
  0
LINE
  5
EE
330
58
100
AcDbEntity
  8
1
  6
Continuous
 62
     2
100
AcDbLine
 10
106.3630299877063
 20
208.7136682694589
 30
0.0
 11
109.6836415383395
 21
212.0342798200921
 31
0.0
  0
LINE
  5
EF
330
58
100
AcDbEntity
  8
1
  6
Continuous
 62
     2
100
AcDbLine
 10
107.0833662969829
 20
208.0197910163626
 30
0.0
 11
110.9662327914486
 21
211.9026575108281
 31
0.0
  0
LINE
  5
F0
330
58
100
AcDbEntity
  8
1
  6
Continuous
 62
     2
100
AcDbLine
 10
107.7706287860342
 20
207.2928399430408
 30
0.0
 11
111.6204214602744
 21
211.1426326172808
 31
0.0
  0
LINE
  5
F1
330
58
100
AcDbEntity
  8
1
  6
Continuous
 62
     2
100
AcDbLine
 10
108.6088490707557
 20
206.716846665389
 30
0.0
 11
111.7321994774031
 21
209.8401970720365
 31
0.0
  0
LINE
  5
F2
330
58
100
AcDbEntity
  8
1
  6
Continuous
 62
     2
100
AcDbLine
 10
109.6611053596535
 20
206.3548893919138
 30
0.0
 11
111.7381412698105
 21
208.4319253020709
 31
0.0
  0
LINE
  5
F3
330
58
100
AcDbEntity
  8
1
  6
Continuous
 62
     2
100
AcDbLine
 10
105.6036780657966
 20
210.7827434722955
 30
0.0
 11
107.1946355083826
 21
212.3737009148814
 31
0.0
  0
LINE
  5
F4
330
58
100
AcDbEntity
  8
1
  6
Continuous
 62
     2
100
AcDbLine
 10
110.1683412294537
 20
212.2284223185565
 30
0.0
 11
112.1443829766883
 21
210.2523805713217
 31
0.0
  0
LINE
  5
F5
330
58
100
AcDbEntity
  8
1
  6
Continuous
 62
     2
100
AcDbLine
 10
108.4822493695943
 20
212.5003006160427
 30
0.0
 11
112.0079186056251
 21
208.9746313800118
 31
0.0
  0
LINE
  5
F6
330
58
100
AcDbEntity
  8
1
  6
Continuous
 62
     2
100
AcDbLine
 10
107.4708634423339
 20
212.0974729809301
 30
0.0
 11
111.790304363775
 21
207.7780320594889
 31
0.0
  0
LINE
  5
F7
330
58
100
AcDbEntity
  8
1
  6
Continuous
 62
     2
100
AcDbLine
 10
106.1816574251796
 20
211.9724654357111
 30
0.0
 11
111.1758042792198
 21
206.9783185816712
 31
0.0
  0
LINE
  5
F8
330
58
100
AcDbEntity
  8
1
  6
Continuous
 62
     2
100
AcDbLine
 10
105.997117003555
 20
210.7427922949628
 30
0.0
 11
109.7543029811638
 21
206.9856063173539
 31
0.0
  0
LINE
  5
F9
330
58
100
AcDbEntity
  8
1
  6
Continuous
 62
     2
100
AcDbLine
 10
106.4875287271961
 20
208.8381670089486
 30
0.0
 11
108.0946701774849
 21
207.2310255586597
 31
0.0
  0
ENDBLK
  5
5A
330
58
100
AcDbEntity
  8
0
100
AcDbBlockEnd
  0
BLOCK
  5
5C
330
5B
100
AcDbEntity
  8
0
100
AcDbBlockBegin
  2
30-18A
 70
     0
 10
217.6143122136607
 20
200.2652337460032
 30
0.0
  3
30-18A
  1

  0
LINE
  5
FA
330
5B
100
AcDbEntity
  8
1
  6
Continuous
 62
     7
100
AcDbLine
 10
100.8564757734506
 20
145.878112297323
 30
0.0
 11
100.0636983083368
 21
148.6528334252203
 31
0.0
  0
LINE
  5
FB
330
5B
100
AcDbEntity
  8
1
  6
Continuous
 62
     7
100
AcDbLine
 10
112.5636983083368
 20
145.1528334252208
 30
0.0
 11
120.5636983083367
 21
145.1528334252209
 31
0.0
  0
LINE
  5
FC
330
5B
100
AcDbEntity
  8
1
  6
Continuous
 62
     7
100
AcDbLine
 10
123.5636983083363
 20
157.652833425221
 30
0.0
 11
124.0636983083366
 21
157.652833425221
 31
0.0
  0
LINE
  5
FD
330
5B
100
AcDbEntity
  8
1
  6
Continuous
 62
     7
100
AcDbLine
 10
120.5636983083367
 20
145.1528334252209
 30
0.0
 11
123.3093968955826
 21
145.1528334252211
 31
0.0
  0
LINE
  5
FE
330
5B
100
AcDbEntity
  8
1
  6
Continuous
 62
     7
100
AcDbLine
 10
125.0636983083368
 20
148.652833425221
 30
0.0
 11
124.2709208432232
 21
145.8781122973237
 31
0.0
  0
LINE
  5
FF
330
5B
100
AcDbEntity
  8
1
  6
Continuous
 62
     7
100
AcDbLine
 10
125.0636983083368
 20
148.652833425221
 30
0.0
 11
125.0636983083366
 21
156.6528334252211
 31
0.0
  0
LINE
  5
100
330
5B
100
AcDbEntity
  8
1
  6
Continuous
 62
     7
100
AcDbLine
 10
100.0636983083368
 20
156.6528334252204
 30
0.0
 11
100.0636983083368
 21
148.6528334252203
 31
0.0
  0
LINE
  5
101
330
5B
100
AcDbEntity
  8
1
  6
Continuous
 62
     7
100
AcDbLine
 10
101.8179997210912
 20
145.1528334252205
 30
0.0
 11
104.5636983083367
 21
145.1528334252205
 31
0.0
  0
LINE
  5
102
330
5B
100
AcDbEntity
  8
1
  6
Continuous
 62
     7
100
AcDbLine
 10
101.0636983083366
 20
157.6528334252204
 30
0.0
 11
101.5636983083364
 21
157.6528334252203
 31
0.0
  0
LINE
  5
103
330
5B
100
AcDbEntity
  8
1
  6
Continuous
 62
     7
100
AcDbLine
 10
104.5636983083367
 20
145.1528334252205
 30
0.0
 11
112.5636983083368
 21
145.1528334252208
 31
0.0
  0
LINE
  5
104
330
5B
100
AcDbEntity
  8
1
  6
Continuous
 62
     7
100
AcDbLine
 10
101.5636983083364
 20
157.6528334252203
 30
0.0
 11
123.5636983083363
 21
157.652833425221
 31
0.0
  0
LINE
  5
105
330
5B
100
AcDbEntity
  8
1
  6
Continuous
 62
     7
100
AcDbLine
 10
100.0636983083368
 20
148.6528334252203
 30
0.0
 11
125.0636983083368
 21
148.652833425221
 31
0.0
  0
CIRCLE
  5
106
330
5B
100
AcDbEntity
  8
1
  6
Continuous
 62
     2
100
AcDbCircle
 10
112.5636983083368
 20
212.9662475554323
 30
0.0
 40
10.9999999999995
  0
CIRCLE
  5
107
330
5B
100
AcDbEntity
  8
1
  6
Continuous
 62
     7
100
AcDbCircle
 10
112.5636983083368
 20
212.9662475554323
 30
0.0
 40
12.4999999999999
  0
CIRCLE
  5
108
330
5B
100
AcDbEntity
  8
1
  6
Continuous
 62
     7
100
AcDbCircle
 10
112.5636983083368
 20
212.9662475554323
 30
0.0
 40
10.3749999999999
  0
ARC
  5
109
330
5B
100
AcDbEntity
  8
1
  6
Continuous
 62
     7
100
AcDbCircle
 10
124.0636983083366
 20
156.6528334252211
 30
0.0
 40
1.0
100
AcDbArc
 50
0.0
 51
90.0
  0
ARC
  5
10A
330
5B
100
AcDbEntity
  8
1
  6
Continuous
 62
     7
100
AcDbCircle
 10
123.3093968955825
 20
146.152833425221
 30
0.0
 40
0.9999999999998863
100
AcDbArc
 50
270.0000000000057
 51
318.9643661455189
  0
ARC
  5
10B
330
5B
100
AcDbEntity
  8
1
  6
Continuous
 62
     7
100
AcDbCircle
 10
123.3093968955825
 20
146.152833425221
 30
0.0
 40
0.9999999999996244
100
AcDbArc
 50
318.9643661455189
 51
344.0546040990798
  0
ARC
  5
10C
330
5B
100
AcDbEntity
  8
1
  6
Continuous
 62
     7
100
AcDbCircle
 10
101.0636983083364
 20
156.6528334252205
 30
0.0
 40
0.9999999999998863
100
AcDbArc
 50
89.9999999999886
 51
180.0000000000065
  0
ARC
  5
10D
330
5B
100
AcDbEntity
  8
1
  6
Continuous
 62
     7
100
AcDbCircle
 10
101.817999721091
 20
146.1528334252204
 30
0.0
 40
0.9999999999995948
100
AcDbArc
 50
195.9453959009296
 51
221.0356338544773
  0
ARC
  5
10E
330
5B
100
AcDbEntity
  8
1
  6
Continuous
 62
     7
100
AcDbCircle
 10
101.817999721091
 20
146.1528334252204
 30
0.0
 40
0.9999999999996995
100
AcDbArc
 50
221.0356338544773
 51
270.0000000000114
  0
ENDBLK
  5
5D
330
5B
100
AcDbEntity
  8
0
100
AcDbBlockEnd
  0
BLOCK
  5
12D
330
124
100
AcDbEntity
  8
0
100
AcDbBlockBegin
  2
*D8
 70
     1
 10
0.0
 20
0.0
 30
0.0
  3
*D8
  1

  0
LINE
  5
125
330
124
100
AcDbEntity
  8
1
  6
Continuous
 62
     2
100
AcDbLine
 10
129.863536636487
 20
80.2401486324938
 30
0.0
 11
129.863536636487
 21
87.2401486324938
 31
0.0
  0
LINE
  5
126
330
124
100
AcDbEntity
  8
1
  6
Continuous
 62
     2
100
AcDbLine
 10
129.863536636487
 20
75.2401486324938
 30
0.0
 11
129.863536636487
 21
80.2401486324938
 31
0.0
  0
LINE
  5
127
330
124
100
AcDbEntity
  8
1
  6
Continuous
 62
     2
100
AcDbLine
 10
129.863536636487
 20
68.2401486324938
 30
0.0
 11
129.863536636487
 21
75.2401486324938
 31
0.0
  0
LINE
  5
128
330
124
100
AcDbEntity
  8
1
  6
Continuous
 62
     2
100
AcDbLine
 10
122.5636983083368
 20
80.2401486324938
 30
0.0
 11
130.863536636487
 21
80.2401486324938
 31
0.0
  0
LINE
  5
129
330
124
100
AcDbEntity
  8
1
  6
Continuous
 62
     2
100
AcDbLine
 10
122.5636983083368
 20
75.2401486324938
 30
0.0
 11
130.863536636487
 21
75.2401486324938
 31
0.0
  0
SOLID
  5
12A
330
124
100
AcDbEntity
  8
1
 62
     2
100
AcDbTrace
 10
130.3243203780429
 20
71.7401486324938
 30
0.0
 11
129.4027528949311
 21
71.7401486324938
 31
0.0
 12
129.863536636487
 22
75.2401486324938
 32
0.0
 13
129.863536636487
 23
75.2401486324938
 33
0.0
  0
SOLID
  5
12B
330
124
100
AcDbEntity
  8
1
 62
     2
100
AcDbTrace
 10
129.4027528949311
 20
83.7401486324938
 30
0.0
 11
130.3243203780429
 21
83.7401486324938
 31
0.0
 12
129.863536636487
 22
80.2401486324938
 32
0.0
 13
129.863536636487
 23
80.2401486324938
 33
0.0
  0
MTEXT
  5
12C
330
124
100
AcDbEntity
  8
1
 62
     7
100
AcDbMText
 10
128.863536636487
 20
83.405161908088
 30
0.0
 40
3.5
 41
0.0
 71
     7
 72
     1
  1
5
  7
CONVERTER_12
 11
0.0
 21
1.0
 31
0.0
 73
     1
 44
0.60024009603842
  0
ENDBLK
  5
12E
330
124
100
AcDbEntity
  8
0
100
AcDbBlockEnd
  0
BLOCK
  5
138
330
131
100
AcDbEntity
  8
0
100
AcDbBlockBegin
  2
*D9
 70
     1
 10
0.0
 20
0.0
 30
0.0
  3
*D9
  1

  0
LINE
  5
132
330
131
100
AcDbEntity
  8
1
  6
Continuous
 62
     2
100
AcDbLine
 10
100.0636983083368
 20
168.6528334252203
 30
0.0
 11
125.0636983083366
 21
168.6528334252203
 31
0.0
  0
LINE
  5
133
330
131
100
AcDbEntity
  8
1
  6
Continuous
 62
     2
100
AcDbLine
 10
125.0636983083366
 20
156.652833425221
 30
0.0
 11
125.0636983083366
 21
169.6528334252203
 31
0.0
  0
LINE
  5
134
330
131
100
AcDbEntity
  8
1
  6
Continuous
 62
     2
100
AcDbLine
 10
100.0636983083368
 20
156.6528334252204
 30
0.0
 11
100.0636983083368
 21
169.6528334252203
 31
0.0
  0
SOLID
  5
135
330
131
100
AcDbEntity
  8
1
 62
     2
100
AcDbTrace
 10
103.5636983083368
 20
169.1136171667762
 30
0.0
 11
103.5636983083368
 21
168.1920496836644
 31
0.0
 12
100.0636983083368
 22
168.6528334252203
 32
0.0
 13
100.0636983083368
 23
168.6528334252203
 33
0.0
  0
SOLID
  5
136
330
131
100
AcDbEntity
  8
1
 62
     2
100
AcDbTrace
 10
121.5636983083366
 20
168.1920496836644
 30
0.0
 11
121.5636983083366
 21
169.1136171667762
 31
0.0
 12
125.0636983083366
 22
168.6528334252203
 32
0.0
 13
125.0636983083366
 23
168.6528334252203
 33
0.0
  0
MTEXT
  5
137
330
131
100
AcDbEntity
  8
1
 62
     7
100
AcDbMText
 10
109.2944886835174
 20
169.652826468144
 30
0.0
 40
3.5
 41
0.0
 71
     7
 72
     1
  1
\C7;{\Fgdt;n}\C7;25
  7
CONVERTER_12
 11
0.9999999999970619
 21
2.424068405545306E-6
 31
0.0
 73
     1
 44
0.60024009603842
  0
ENDBLK
  5
139
330
131
100
AcDbEntity
  8
0
100
AcDbBlockEnd
  0
BLOCK
  5
143
330
13C
100
AcDbEntity
  8
0
100
AcDbBlockBegin
  2
*D10
 70
     1
 10
0.0
 20
0.0
 30
0.0
  3
*D10
  1

  0
LINE
  5
13D
330
13C
100
AcDbEntity
  8
1
  6
Continuous
 62
     2
100
AcDbLine
 10
134.0636983083367
 20
157.652833425221
 30
0.0
 11
134.0636983083367
 21
145.152833425221
 31
0.0
  0
LINE
  5
13E
330
13C
100
AcDbEntity
  8
1
  6
Continuous
 62
     2
100
AcDbLine
 10
123.3093968955826
 20
145.152833425221
 30
0.0
 11
135.0636983083367
 21
145.152833425221
 31
0.0
  0
LINE
  5
13F
330
13C
100
AcDbEntity
  8
1
  6
Continuous
 62
     2
100
AcDbLine
 10
124.0636983083366
 20
157.652833425221
 30
0.0
 11
135.0636983083367
 21
157.652833425221
 31
0.0
  0
SOLID
  5
140
330
13C
100
AcDbEntity
  8
1
 62
     2
100
AcDbTrace
 10
134.5244820498926
 20
154.152833425221
 30
0.0
 11
133.6029145667808
 21
154.152833425221
 31
0.0
 12
134.0636983083367
 22
157.652833425221
 32
0.0
 13
134.0636983083367
 23
157.652833425221
 33
0.0
  0
SOLID
  5
141
330
13C
100
AcDbEntity
  8
1
 62
     2
100
AcDbTrace
 10
133.6029145667808
 20
148.652833425221
 30
0.0
 11
134.5244820498926
 21
148.652833425221
 31
0.0
 12
134.0636983083367
 22
145.152833425221
 32
0.0
 13
134.0636983083367
 23
145.152833425221
 33
0.0
  0
MTEXT
  5
142
330
13C
100
AcDbEntity
  8
1
 62
     7
100
AcDbMText
 10
133.0636983083367
 20
149.3192844165031
 30
0.0
 40
3.5
 41
0.0
 71
     7
 72
     1
  1
13
  7
CONVERTER_12
 11
0.0
 21
1.0
 31
0.0
 73
     1
 44
0.60024009603842
  0
ENDBLK
  5
144
330
13C
100
AcDbEntity
  8
0
100
AcDbBlockEnd
  0
BLOCK
  5
14C
330
147
100
AcDbEntity
  8
0
100
AcDbBlockBegin
  2
*D11
 70
     1
 10
0.0
 20
0.0
 30
0.0
  3
*D11
  1

  0
LINE
  5
148
330
147
100
AcDbEntity
  8
1
  6
Continuous
 62
     2
100
AcDbLine
 10
105.350456781828
 20
90.48351316905747
 30
0.0
 11
125.7485480707565
 21
118.4824928705548
 31
0.0
  0
SOLID
  5
149
330
147
100
AcDbEntity
  8
1
 62
     2
100
AcDbTrace
 10
118.3740471454993
 20
109.142583770129
 30
0.0
 11
119.1189063737608
 21
108.5999316200341
 31
0.0
 12
116.685550609199
 22
106.0423739218471
 32
0.0
 13
116.685550609199
 23
106.0423739218471
 33
0.0
  0
SOLID
  5
14A
330
147
100
AcDbEntity
  8
1
 62
     2
100
AcDbTrace
 10
106.7533494711743
 20
91.62662898062725
 30
0.0
 11
106.0084902429128
 21
92.16928113072211
 31
0.0
 12
108.4418460074746
 22
94.72683882890917
 32
0.0
 13
108.4418460074746
 23
94.72683882890917
 33
0.0
  0
MTEXT
  5
14B
330
147
100
AcDbEntity
  8
1
 62
     7
100
AcDbMText
 10
120.7772247402472
 20
113.3569836916015
 30
0.0
 40
3.5
 41
0.0
 71
     7
 72
     1
  1
\C7;{\Fgdt;n}\C7;14
  7
CONVERTER_12
 11
0.5888360429803112
 21
0.80825250663842
 31
0.0
 73
     1
 44
0.60024009603842
  0
ENDBLK
  5
14D
330
147
100
AcDbEntity
  8
0
100
AcDbBlockEnd
  0
BLOCK
  5
154
330
14F
100
AcDbEntity
  8
0
100
AcDbBlockBegin
  2
*D12
 70
     1
 10
0.0
 20
0.0
 30
0.0
  3
*D12
  1

  0
LINE
  5
150
330
14F
100
AcDbEntity
  8
1
  6
Continuous
 62
     2
100
AcDbLine
 10
98.90470258605744
 20
93.60269397114033
 30
0.0
 11
132.8808425755498
 21
110.4723972734856
 31
0.0
  0
SOLID
  5
151
330
14F
100
AcDbEntity
  8
1
 62
     2
100
AcDbTrace
 10
124.4503505888773
 20
106.8009775630513
 30
0.0
 11
124.8601859951106
 21
105.9755555099618
 31
0.0
 12
121.5204168147495
 22
104.8317620502881
 32
0.0
 13
121.5204168147495
 23
104.8317620502881
 33
0.0
  0
SOLID
  5
152
330
14F
100
AcDbEntity
  8
1
 62
     2
100
AcDbTrace
 10
100.6770460277963
 20
93.96823518770479
 30
0.0
 11
100.267210621563
 21
94.79365724079433
 31
0.0
 12
103.6069798019241
 22
95.93745070046808
 32
0.0
 13
103.6069798019241
 23
95.93745070046808
 33
0.0
  0
MTEXT
  5
153
330
14F
100
AcDbEntity
  8
1
 62
     7
100
AcDbMText
 10
125.1632715808516
 20
107.7569787160999
 30
0.0
 40
3.5
 41
0.0
 71
     7
 72
     1
  1
\C7;{\Fgdt;n}\C7;20
  7
CONVERTER_12
 11
0.8956718506412704
 21
0.4447155674909996
 31
0.0
 73
     1
 44
0.60024009603842
  0
ENDBLK
  5
155
330
14F
100
AcDbEntity
  8
0
100
AcDbBlockEnd
  0
ENDSEC
  0
SECTION
  2
ENTITIES
  0
INSERT
  5
5E
330
1F
100
AcDbEntity
  8
0
100
AcDbBlockReference
  2
開示A4枠
 10
0.0
 20
0.0
 30
0.0
  0
INSERT
  5
5F
330
1F
100
AcDbEntity
  8
1
100
AcDbBlockReference
  2
平パッキン
 10
99.78962201785683
 20
72.28305189876781
 30
0.0
  0
INSERT
  5
60
330
1F
100
AcDbEntity
  8
0
100
AcDbBlockReference
  2
77-8
 10
-212.6957334173381
 20
221.4899249465595
 30
0.0
  0
INSERT
  5
61
330
1F
100
AcDbEntity
  8
0
100
AcDbBlockReference
  2
95-21-16_8X1_9
 10
117.5971194142921
 20
138.5414219220133
 30
0.0
  0
INSERT
  5
62
330
1F
100
AcDbEntity
  8
0
100
AcDbBlockReference
  2
77-9
 10
-214.529549517631
 20
206.7046531770644
 30
0.0
  0
INSERT
  5
63
330
1F
100
AcDbEntity
  8
1
100
AcDbBlockReference
  2
30-18A
 10
217.6143122136607
 20
200.2652337460032
 30
0.0
  0
LINE
  5
10F
330
1F
100
AcDbEntity
  8
1
  6
DASH_CENTER
 62
     2
100
AcDbLine
 10
112.5636983083368
 20
160.1528334252207
 30
0.0
 11
112.5636983083368
 21
142.1528334252208
 31
0.0
  0
LINE
  5
110
330
1F
100
AcDbEntity
  8
1
  6
DASH_CENTER
 62
     2
100
AcDbLine
 10
112.5636983083368
 20
228.4662475554322
 30
0.0
 11
112.5636983083368
 21
197.4662475554324
 31
0.0
  0
LINE
  5
111
330
1F
100
AcDbEntity
  8
1
  6
DASH_CENTER
 62
     2
100
AcDbLine
 10
97.06369830833691
 20
212.9662475554323
 30
0.0
 11
128.0636983083367
 21
212.9662475554323
 31
0.0
  0
LINE
  5
112
330
1F
100
AcDbEntity
  8
1
  6
Continuous
 62
     2
100
AcDbLine
 10
108.144033647601
 20
61.6578331294368
 30
0.0
 11
118.144033647601
 21
61.6578331294368
 31
0.0
  0
SOLID
  5
113
330
1F
100
AcDbEntity
  8
1
 62
     2
100
AcDbTrace
 10
124.9146478824989
 20
160.9143142092443
 30
0.0
 11
125.7127487341754
 21
160.4535304676884
 31
0.0
 12
123.5636983083372
 22
157.6528334252208
 32
0.0
 13
123.5636983083372
 23
157.6528334252208
 33
0.0
  0
LEADER
  5
114
330
1F
100
AcDbEntity
  8
1
  6
Continuous
 62
     2
100
AcDbLeader
  3
Standard
 71
     0
 76
     3
 10
123.5636983083372
 20
157.6528334252208
 30
0.0
 10
129.3372010002337
 20
167.6528334252212
 30
0.0
 10
150.8973755471607
 20
167.6528334252212
 30
0.0
  0
MTEXT
  5
116
330
1F
100
AcDbEntity
  8
1
 62
     7
100
AcDbMText
 10
157.5
 20
12.5
 30
0.0
 40
2.5
 41
0.0
 71
     5
 72
     1
  1
2
  7
CONVERTER_12
 73
     1
 44
0.7202881152461
  0
MTEXT
  5
117
330
1F
100
AcDbEntity
  8
1
 62
     7
100
AcDbMText
 10
151.75
 20
12.5
 30
0.0
 40
2.5
 41
0.0
 71
     5
 72
     1
  1
04
  7
CONVERTER_12
 73
     1
 44
0.7202881152461
  0
MTEXT
  5
118
330
1F
100
AcDbEntity
  8
1
 62
     7
100
AcDbMText
 10
140.5
 20
12.5
 30
0.0
 40
2.5
 41
0.0
 71
     5
 72
     1
  1
2
  7
CONVERTER_12
 73
     1
 44
0.7202881152461
  0
MTEXT
  5
119
330
1F
100
AcDbEntity
  8
1
 62
     7
100
AcDbMText
 10
134.75
 20
12.5
 30
0.0
 40
2.5
 41
0.0
 71
     5
 72
     1
  1
04
  7
CONVERTER_12
 73
     1
 44
0.7202881152461
  0
MTEXT
  5
11A
330
1F
100
AcDbEntity
  8
1
 62
     7
100
AcDbMText
 10
123.5
 20
12.5
 30
0.0
 40
2.5
 41
0.0
 71
     5
 72
     1
  1
2
  7
CONVERTER_12
 73
     1
 44
0.7202881152461
  0
MTEXT
  5
11B
330
1F
100
AcDbEntity
  8
1
 62
     7
100
AcDbMText
 10
117.75
 20
12.5
 30
0.0
 40
2.5
 41
0.0
 71
     5
 72
     1
  1
04
  7
CONVERTER_12
 73
     1
 44
0.7202881152461
  0
MTEXT
  5
11C
330
1F
100
AcDbEntity
  8
1
 62
     7
100
AcDbMText
 10
100.75
 20
12.5
 30
0.0
 40
2.5
 41
0.0
 71
     5
 72
     1
  1
04
  7
CONVERTER_12
 73
     1
 44
0.7202881152461
  0
MTEXT
  5
11D
330
1F
100
AcDbEntity
  8
1
 62
     7
100
AcDbMText
 10
106.5
 20
12.5
 30
0.0
 40
2.5
 41
0.0
 71
     5
 72
     1
  1
2
  7
CONVERTER_12
 73
     1
 44
0.7202881152461
  0
MTEXT
  5
11E
330
1F
100
AcDbEntity
  8
1
 62
     7
100
AcDbMText
 10
130.5704810758157
 20
172.381798102505
 30
0.0
 40
3.0
 41
0.0
 71
     1
 72
     1
  1
M22X1,25
  7
CONVERTER_12
 73
     1
 44
1.32052821128451
  0
MTEXT
  5
11F
330
1F
100
AcDbEntity
  8
1
 62
     7
100
AcDbMText
 10
113.242707719606
 20
63.9743042129394
 30
0.0
 40
3.0
 41
0.0
 71
     5
 72
     1
  1
添付品
  7
CONVERTER_11
 73
     1
 44
0.54545454545455
  0
MTEXT
  5
120
330
1F
100
AcDbEntity
  8
1
 62
     7
100
AcDbMText
 10
93.75000000000003
 20
17.0
 30
0.0
 40
3.5
 41
0.0
 71
     5
 72
     1
  1
1
  7
CONVERTER_12
 73
     1
 44
0.7202881152461
  0
MTEXT
  5
121
330
1F
100
AcDbEntity
  8
1
 62
     7
100
AcDbMText
 10
57.00000000000003
 20
14.25
 30
0.0
 40
3.5
 41
0.0
 71
     5
 72
     1
  1
M280
  7
CONVERTER_12
 73
     1
 44
0.7202881152461
  0
MTEXT
  5
122
330
1F
100
AcDbEntity
  8
1
 62
     7
100
AcDbMText
 10
57.00000000000003
 20
22.75
 30
0.0
 40
3.5
 41
0.0
 71
     5
 72
     1
  1
断熱パイプ用整流器
  7
CONVERTER_11
 73
     1
 44
0.54545454545455
  0
MTEXT
  5
123
330
1F
100
AcDbEntity
  8
1
 62
     7
100
AcDbMText
 10
85.25000000000003
 20
17.0
 30
0.0
 40
3.5
 41
0.0
 71
     5
 72
     1
  1
1
  7
CONVERTER_12
 73
     1
 44
0.7202881152461
  0
DIMENSION
  5
130
330
1F
100
AcDbEntity
  8
1
100
AcDbDimension
  2
*D8
 10
129.863536636487
 20
75.2401486324938
 30
0.0
 11
127.113536636487
 21
84.455161908088
 31
0.0
 70
    33
  1
<>
 71
     5
 42
-1.0
 53
90.0
  3
ME10_DIM_10
100
AcDbAlignedDimension
 13
122.5636983083368
 23
80.2401486324938
 33
0.0
 14
122.5636983083368
 24
75.2401486324938
 34
0.0
  0
DIMENSION
  5
13B
330
1F
100
AcDbEntity
  8
1
100
AcDbDimension
  2
*D9
 10
100.0636983083368
 20
168.6528334252203
 30
0.0
 11
112.689488683509
 21
171.4028334252203
 31
0.0
 70
    32
  1
<>
 71
     5
 42
-1.0
 53
0.00013888888889
  3
ME10_DIM_11
100
AcDbAlignedDimension
 13
125.0636983083366
 23
156.6528334252211
 33
0.0
 14
100.0636983083368
 24
156.6528334252204
 34
0.0
100
AcDbRotatedDimension
  0
DIMENSION
  5
146
330
1F
100
AcDbEntity
  8
1
100
AcDbDimension
  2
*D10
 10
134.0636983083367
 20
157.652833425221
 30
0.0
 11
131.3136983083367
 21
151.4192844165031
 31
0.0
 70
    32
  1
13
 71
     5
 42
-1.0
 53
90.0
  3
ME10_DIM_12
100
AcDbAlignedDimension
 13
123.3093968955826
 23
145.1528334252211
 33
0.0
 14
124.0636983083366
 24
157.652833425221
 34
0.0
 50
90.0
100
AcDbRotatedDimension
  0
INSERT
  5
14E
330
1F
100
AcDbEntity
  8
1
100
AcDbBlockReference
  2
*D11
 10
0.0
 20
0.0
 30
0.0
  0
INSERT
  5
156
330
1F
100
AcDbEntity
  8
1
100
AcDbBlockReference
  2
*D12
 10
0.0
 20
0.0
 30
0.0
  0
ENDSEC
  0
SECTION
  2
OBJECTS
  0
DICTIONARY
  5
C
330
0
100
AcDbDictionary
281
     1
  3
ACAD_GROUP
350
D
  3
ACAD_LAYOUT
350
1A
  3
ACAD_MATERIAL
350
3B
  3
ACAD_MLEADERSTYLE
350
159
  3
ACAD_MLINESTYLE
350
17
  3
ACAD_PLOTSETTINGS
350
19
  3
ACAD_PLOTSTYLENAME
350
E
  3
ACAD_VISUALSTYLE
350
2A
  3
AcDbVariableDictionary
350
157
  0
DICTIONARY
  5
D
102
{ACAD_REACTORS
330
C
102
}
330
C
100
AcDbDictionary
281
     1
  0
DICTIONARY
  5
1A
102
{ACAD_REACTORS
330
C
102
}
330
C
100
AcDbDictionary
281
     1
  3
Layout1
350
1E
  3
Layout2
350
26
  3
Model
350
22
  0
DICTIONARY
  5
3B
102
{ACAD_REACTORS
330
C
102
}
330
C
100
AcDbDictionary
281
     1
  3
ByBlock
350
3D
  3
ByLayer
350
3C
  3
Global
350
3E
  0
DICTIONARY
  5
159
102
{ACAD_REACTORS
330
C
102
}
330
C
100
AcDbDictionary
281
     1
  0
DICTIONARY
  5
17
102
{ACAD_REACTORS
330
C
102
}
330
C
100
AcDbDictionary
281
     1
  3
Standard
350
18
  0
DICTIONARY
  5
19
102
{ACAD_REACTORS
330
C
102
}
330
C
100
AcDbDictionary
281
     1
  0
ACDBDICTIONARYWDFLT
  5
E
102
{ACAD_REACTORS
330
C
102
}
330
C
100
AcDbDictionary
281
     1
  3
Normal
350
F
100
AcDbDictionaryWithDefault
340
F
  0
DICTIONARY
  5
2A
102
{ACAD_REACTORS
330
C
102
}
330
C
100
AcDbDictionary
281
     1
  3
2dWireframe
350
2F
  3
3D Hidden
350
31
  3
3dWireframe
350
30
  3
Basic
350
32
  3
Brighten
350
36
  3
ColorChange
350
3A
  3
Conceptual
350
34
  3
Dim
350
35
  3
Facepattern
350
39
  3
Flat
350
2B
  3
FlatWithEdges
350
2C
  3
Gouraud
350
2D
  3
GouraudWithEdges
350
2E
  3
Linepattern
350
38
  3
Realistic
350
33
  3
Thicken
350
37
  0
DICTIONARY
  5
157
102
{ACAD_REACTORS
330
C
102
}
330
C
100
AcDbDictionary
281
     1
  3
DIMASSOC
350
15A
  3
HIDETEXT
350
15B
  0
LAYOUT
  5
1E
102
{ACAD_REACTORS
330
1A
102
}
330
1A
100
AcDbPlotSettings
  1

  2
none_device
  4

  6

 40
0.0
 41
0.0
 42
0.0
 43
0.0
 44
0.0
 45
0.0
 46
0.0
 47
0.0
 48
0.0
 49
0.0
140
0.0
141
0.0
142
1.0
143
1.0
 70
   688
 72
     0
 73
     0
 74
     5
  7

 75
    16
147
1.0
148
0.0
149
0.0
100
AcDbLayout
  1
Layout1
 70
     1
 71
     1
 10
0.0
 20
0.0
 11
12.0
 21
9.0
 12
0.0
 22
0.0
 32
0.0
 14
1.00000000000000E+20
 24
1.00000000000000E+20
 34
1.00000000000000E+20
 15
-1.00000000000000E+20
 25
-1.00000000000000E+20
 35
-1.00000000000000E+20
146
0.0
 13
0.0
 23
0.0
 33
0.0
 16
1.0
 26
0.0
 36
0.0
 17
0.0
 27
1.0
 37
0.0
 76
     0
330
1B
  0
LAYOUT
  5
26
102
{ACAD_REACTORS
330
1A
102
}
330
1A
100
AcDbPlotSettings
  1

  2
none_device
  4

  6

 40
0.0
 41
0.0
 42
0.0
 43
0.0
 44
0.0
 45
0.0
 46
0.0
 47
0.0
 48
0.0
 49
0.0
140
0.0
141
0.0
142
1.0
143
1.0
 70
   688
 72
     0
 73
     0
 74
     5
  7

 75
    16
147
1.0
148
0.0
149
0.0
100
AcDbLayout
  1
Layout2
 70
     1
 71
     2
 10
0.0
 20
0.0
 11
0.0
 21
0.0
 12
0.0
 22
0.0
 32
0.0
 14
0.0
 24
0.0
 34
0.0
 15
0.0
 25
0.0
 35
0.0
146
0.0
 13
0.0
 23
0.0
 33
0.0
 16
1.0
 26
0.0
 36
0.0
 17
0.0
 27
1.0
 37
0.0
 76
     0
330
23
  0
LAYOUT
  5
22
102
{ACAD_REACTORS
330
1A
102
}
330
1A
100
AcDbPlotSettings
  1

  2
none_device
  4

  6

 40
0.0
 41
0.0
 42
0.0
 43
0.0
 44
0.0
 45
0.0
 46
0.0
 47
0.0
 48
0.0
 49
0.0
140
0.0
141
0.0
142
1.0
143
1.0
 70
  1712
 72
     0
 73
     0
 74
     0
  7

 75
     0
147
1.0
148
0.0
149
0.0
100
AcDbLayout
  1
Model
 70
     1
 71
     0
 10
0.0
 20
0.0
 11
12.0
 21
9.0
 12
0.0
 22
0.0
 32
0.0
 14
0.0
 24
0.0
 34
0.0
 15
210.0
 25
297.0
 35
0.0
146
0.0
 13
0.0
 23
0.0
 33
0.0
 16
1.0
 26
0.0
 36
0.0
 17
0.0
 27
1.0
 37
0.0
 76
     0
330
1F
331
29
  0
MATERIAL
  5
3D
102
{ACAD_REACTORS
330
3B
102
}
102
{ACAD_XDICTIONARY
360
17E
102
}
330
3B
100
AcDbMaterial
  1
ByBlock
  0
MATERIAL
  5
3C
102
{ACAD_REACTORS
330
3B
102
}
102
{ACAD_XDICTIONARY
360
17C
102
}
330
3B
100
AcDbMaterial
  1
ByLayer
  0
MATERIAL
  5
3E
102
{ACAD_REACTORS
330
3B
102
}
102
{ACAD_XDICTIONARY
360
180
102
}
330
3B
100
AcDbMaterial
  1
Global
  0
MLINESTYLE
  5
18
102
{ACAD_REACTORS
330
17
102
}
330
17
100
AcDbMlineStyle
  2
Standard
 70
     0
  3

 62
   256
 51
90.0
 52
90.0
 71
     2
 49
0.5
 62
   256
  6
BYLAYER
 49
-0.5
 62
   256
  6
BYLAYER
  0
ACDBPLACEHOLDER
  5
F
102
{ACAD_REACTORS
330
E
102
}
330
E
  0
VISUALSTYLE
  5
2F
102
{ACAD_REACTORS
330
2A
102
}
102
{ACAD_XDICTIONARY
360
164
102
}
330
2A
100
AcDbVisualStyle
  2
2dWireframe
 70
     4
 71
     0
 72
     2
 73
     0
 90
        0
 40
-0.6
 41
-30.0
 62
     5
 63
     7
 74
     1
 91
        4
 64
     7
 65
   257
 75
     1
175
     1
 42
1.0
 92
        0
 66
   257
 43
1.0
 76
     1
 77
     6
 78
     2
 67
     7
 79
     5
170
     0
171
     0
290
     0
174
     0
 93
        1
 44
0.0
173
     0
291
     0
 45
0.0
1001
ACAD
1000
AcDbSavedByObjectVersion
1070
     0
  0
VISUALSTYLE
  5
31
102
{ACAD_REACTORS
330
2A
102
}
102
{ACAD_XDICTIONARY
360
168
102
}
330
2A
100
AcDbVisualStyle
  2
3D Hidden
 70
     6
 71
     1
 72
     2
 73
     2
 90
        0
 40
-0.6
 41
-30.0
 62
     5
 63
     7
 74
     2
 91
        2
 64
     7
 65
   257
 75
     2
175
     1
 42
40.0
 92
        0
 66
   257
 43
1.0
 76
     1
 77
     6
 78
     2
 67
     7
 79
     3
170
     0
171
     0
290
     0
174
     0
 93
        1
 44
0.0
173
     0
291
     0
 45
0.0
1001
ACAD
1000
AcDbSavedByObjectVersion
1070
     0
  0
VISUALSTYLE
  5
30
102
{ACAD_REACTORS
330
2A
102
}
102
{ACAD_XDICTIONARY
360
166
102
}
330
2A
100
AcDbVisualStyle
  2
3dWireframe
 70
     5
 71
     0
 72
     2
 73
     0
 90
        0
 40
-0.6
 41
-30.0
 62
     5
 63
     7
 74
     1
 91
        4
 64
     7
 65
   257
 75
     1
175
     1
 42
1.0
 92
        0
 66
   257
 43
1.0
 76
     1
 77
     6
 78
     2
 67
     7
 79
     5
170
     0
171
     0
290
     0
174
     0
 93
        1
 44
0.0
173
     0
291
     0
 45
0.0
1001
ACAD
1000
AcDbSavedByObjectVersion
1070
     0
  0
VISUALSTYLE
  5
32
102
{ACAD_REACTORS
330
2A
102
}
102
{ACAD_XDICTIONARY
360
16A
102
}
330
2A
100
AcDbVisualStyle
  2
Basic
 70
     7
 71
     1
 72
     0
 73
     1
 90
        0
 40
-0.6
 41
-30.0
 62
     5
 63
     7
 74
     0
 91
        4
 64
     7
 65
   257
 75
     1
175
     1
 42
1.0
 92
        8
 66
     7
 43
1.0
 76
     1
 77
     6
 78
     2
 67
     7
 79
     5
170
     0
171
     0
290
     0
174
     0
 93
        1
 44
0.0
173
     0
291
     1
 45
0.0
1001
ACAD
1000
AcDbSavedByObjectVersion
1070
     0
  0
VISUALSTYLE
  5
36
102
{ACAD_REACTORS
330
2A
102
}
102
{ACAD_XDICTIONARY
360
172
102
}
330
2A
100
AcDbVisualStyle
  2
Brighten
 70
    12
 71
     2
 72
     2
 73
     0
 90
        0
 40
-0.6
 41
-30.0
 62
     5
 63
     7
 74
     1
 91
        4
 64
     7
 65
   257
 75
     1
175
     1
 42
1.0
 92
        8
 66
     7
 43
1.0
 76
     1
 77
     6
 78
     2
 67
     7
 79
     5
170
     0
171
     0
290
     0
174
     0
 93
        1
 44
50.0
173
     0
291
     1
 45
0.0
1001
ACAD
1000
AcDbSavedByObjectVersion
1070
     0
  0
VISUALSTYLE
  5
3A
102
{ACAD_REACTORS
330
2A
102
}
102
{ACAD_XDICTIONARY
360
17A
102
}
330
2A
100
AcDbVisualStyle
  2
ColorChange
 70
    16
 71
     2
 72
     2
 73
     3
 90
        0
 40
-0.6
 41
-30.0
 62
     5
 63
     8
 74
     1
 91
        4
 64
     7
 65
   257
 75
     1
175
     1
 42
1.0
 92
        8
 66
     8
 43
1.0
 76
     1
 77
     6
 78
     2
 67
     7
 79
     5
170
     0
171
     0
290
     0
174
     0
 93
        1
 44
0.0
173
     0
291
     1
 45
0.0
1001
ACAD
1000
AcDbSavedByObjectVersion
1070
     0
  0
VISUALSTYLE
  5
34
102
{ACAD_REACTORS
330
2A
102
}
102
{ACAD_XDICTIONARY
360
16E
102
}
330
2A
100
AcDbVisualStyle
  2
Conceptual
 70
     9
 71
     3
 72
     2
 73
     0
 90
        0
 40
-0.6
 41
-30.0
 62
     5
 63
     7
 74
     2
 91
        2
 64
     7
 65
   257
 75
     1
175
     1
 42
40.0
 92
        8
 66
     7
 43
1.0
 76
     1
 77
     6
 78
     2
 67
     7
 79
     3
170
     0
171
     0
290
     0
174
     0
 93
        1
 44
0.0
173
     0
291
     0
 45
0.0
1001
ACAD
1000
AcDbSavedByObjectVersion
1070
     0
  0
VISUALSTYLE
  5
35
102
{ACAD_REACTORS
330
2A
102
}
102
{ACAD_XDICTIONARY
360
170
102
}
330
2A
100
AcDbVisualStyle
  2
Dim
 70
    11
 71
     2
 72
     2
 73
     0
 90
        0
 40
-0.6
 41
-30.0
 62
     5
 63
     7
 74
     1
 91
        4
 64
     7
 65
   257
 75
     1
175
     1
 42
1.0
 92
        8
 66
     7
 43
1.0
 76
     1
 77
     6
 78
     2
 67
     7
 79
     5
170
     0
171
     0
290
     0
174
     0
 93
        1
 44
-50.0
173
     0
291
     1
 45
0.0
1001
ACAD
1000
AcDbSavedByObjectVersion
1070
     0
  0
VISUALSTYLE
  5
39
102
{ACAD_REACTORS
330
2A
102
}
102
{ACAD_XDICTIONARY
360
178
102
}
330
2A
100
AcDbVisualStyle
  2
Facepattern
 70
    15
 71
     2
 72
     2
 73
     0
 90
        0
 40
-0.6
 41
-30.0
 62
     5
 63
     7
 74
     1
 91
        4
 64
     7
 65
   257
 75
     1
175
     1
 42
1.0
 92
        8
 66
     7
 43
1.0
 76
     1
 77
     6
 78
     2
 67
     7
 79
     5
170
     0
171
     0
290
     0
174
     0
 93
        1
 44
0.0
173
     0
291
     1
 45
0.0
1001
ACAD
1000
AcDbSavedByObjectVersion
1070
     0
  0
VISUALSTYLE
  5
2B
102
{ACAD_REACTORS
330
2A
102
}
102
{ACAD_XDICTIONARY
360
15C
102
}
330
2A
100
AcDbVisualStyle
  2
Flat
 70
     0
 71
     2
 72
     1
 73
     1
 90
        2
 40
-0.6
 41
30.0
 62
     5
 63
     7
 74
     0
 91
        4
 64
     7
 65
   257
 75
     1
175
     1
 42
1.0
 92
        8
 66
     7
 43
1.0
 76
     1
 77
     6
 78
     2
 67
     7
 79
     5
170
     0
171
     0
290
     0
174
     0
 93
       13
 44
0.0
173
     0
291
     1
 45
0.0
1001
ACAD
1000
AcDbSavedByObjectVersion
1070
     0
  0
VISUALSTYLE
  5
2C
102
{ACAD_REACTORS
330
2A
102
}
102
{ACAD_XDICTIONARY
360
15E
102
}
330
2A
100
AcDbVisualStyle
  2
FlatWithEdges
 70
     1
 71
     2
 72
     1
 73
     1
 90
        2
 40
-0.6
 41
30.0
 62
     5
 63
     7
 74
     1
 91
        4
 64
     7
 65
   257
 75
     1
175
     1
 42
1.0
 92
        0
 66
   257
 43
1.0
 76
     1
 77
     6
 78
     2
 67
     7
 79
     5
170
     0
171
     0
290
     0
174
     0
 93
       13
 44
0.0
173
     0
291
     1
 45
0.0
1001
ACAD
1000
AcDbSavedByObjectVersion
1070
     0
  0
VISUALSTYLE
  5
2D
102
{ACAD_REACTORS
330
2A
102
}
102
{ACAD_XDICTIONARY
360
160
102
}
330
2A
100
AcDbVisualStyle
  2
Gouraud
 70
     2
 71
     2
 72
     2
 73
     1
 90
        2
 40
-0.6
 41
30.0
 62
     5
 63
     7
 74
     0
 91
        4
 64
     7
 65
   257
 75
     1
175
     1
 42
1.0
 92
        0
 66
     7
 43
1.0
 76
     1
 77
     6
 78
     2
 67
     7
 79
     5
170
     0
171
     0
290
     0
174
     0
 93
       13
 44
0.0
173
     0
291
     1
 45
0.0
1001
ACAD
1000
AcDbSavedByObjectVersion
1070
     0
  0
VISUALSTYLE
  5
2E
102
{ACAD_REACTORS
330
2A
102
}
102
{ACAD_XDICTIONARY
360
162
102
}
330
2A
100
AcDbVisualStyle
  2
GouraudWithEdges
 70
     3
 71
     2
 72
     2
 73
     1
 90
        2
 40
-0.6
 41
30.0
 62
     5
 63
     7
 74
     1
 91
        4
 64
     7
 65
   257
 75
     1
175
     1
 42
1.0
 92
        0
 66
   257
 43
1.0
 76
     1
 77
     6
 78
     2
 67
     7
 79
     5
170
     0
171
     0
290
     0
174
     0
 93
       13
 44
0.0
173
     0
291
     1
 45
0.0
1001
ACAD
1000
AcDbSavedByObjectVersion
1070
     0
  0
VISUALSTYLE
  5
38
102
{ACAD_REACTORS
330
2A
102
}
102
{ACAD_XDICTIONARY
360
176
102
}
330
2A
100
AcDbVisualStyle
  2
Linepattern
 70
    14
 71
     2
 72
     2
 73
     0
 90
        0
 40
-0.6
 41
-30.0
 62
     5
 63
     7
 74
     1
 91
        4
 64
     7
 65
   257
 75
     7
175
     7
 42
1.0
 92
        8
 66
     7
 43
1.0
 76
     1
 77
     6
 78
     2
 67
     7
 79
     5
170
     0
171
     0
290
     0
174
     0
 93
        1
 44
0.0
173
     0
291
     1
 45
0.0
1001
ACAD
1000
AcDbSavedByObjectVersion
1070
     0
  0
VISUALSTYLE
  5
33
102
{ACAD_REACTORS
330
2A
102
}
102
{ACAD_XDICTIONARY
360
16C
102
}
330
2A
100
AcDbVisualStyle
  2
Realistic
 70
     8
 71
     2
 72
     2
 73
     0
 90
        0
 40
-0.6
 41
-30.0
 62
     5
 63
     7
 74
     1
 91
        0
 64
     7
 65
   257
 75
     1
175
     1
 42
1.0
 92
        8
 66
     8
 43
1.0
 76
     1
 77
     6
 78
     2
 67
     7
 79
     5
170
     0
171
     0
290
     0
174
     0
 93
       13
 44
0.0
173
     0
291
     0
 45
0.0
1001
ACAD
1000
AcDbSavedByObjectVersion
1070
     0
  0
VISUALSTYLE
  5
37
102
{ACAD_REACTORS
330
2A
102
}
102
{ACAD_XDICTIONARY
360
174
102
}
330
2A
100
AcDbVisualStyle
  2
Thicken
 70
    13
 71
     2
 72
     2
 73
     0
 90
        0
 40
-0.6
 41
-30.0
 62
     5
 63
     7
 74
     1
 91
        4
 64
     7
 65
   257
 75
     1
175
     1
 42
1.0
 92
       12
 66
     7
 43
1.0
 76
     1
 77
     6
 78
     2
 67
     7
 79
     5
170
     0
171
     0
290
     0
174
     0
 93
        1
 44
0.0
173
     0
291
     1
 45
0.0
1001
ACAD
1000
AcDbSavedByObjectVersion
1070
     0
  0
DICTIONARYVAR
  5
15A
102
{ACAD_REACTORS
330
157
102
}
330
157
100
DictionaryVariables
280
     0
  1
2
  0
DICTIONARYVAR
  5
15B
102
{ACAD_REACTORS
330
157
102
}
330
157
100
DictionaryVariables
280
     0
  1
1
  0
DICTIONARY
  5
17E
330
3D
100
AcDbDictionary
280
     1
281
     1
  3
ACAD_XREC_ROUNDTRIP
360
17F
  0
DICTIONARY
  5
17C
330
3C
100
AcDbDictionary
280
     1
281
     1
  3
ACAD_XREC_ROUNDTRIP
360
17D
  0
DICTIONARY
  5
180
330
3E
100
AcDbDictionary
280
     1
281
     1
  3
ACAD_XREC_ROUNDTRIP
360
181
  0
DICTIONARY
  5
164
330
2F
100
AcDbDictionary
280
     1
281
     1
  3
ACAD_XREC_ROUNDTRIP
360
165
  0
DICTIONARY
  5
168
330
31
100
AcDbDictionary
280
     1
281
     1
  3
ACAD_XREC_ROUNDTRIP
360
169
  0
DICTIONARY
  5
166
330
30
100
AcDbDictionary
280
     1
281
     1
  3
ACAD_XREC_ROUNDTRIP
360
167
  0
DICTIONARY
  5
16A
330
32
100
AcDbDictionary
280
     1
281
     1
  3
ACAD_XREC_ROUNDTRIP
360
16B
  0
DICTIONARY
  5
172
330
36
100
AcDbDictionary
280
     1
281
     1
  3
ACAD_XREC_ROUNDTRIP
360
173
  0
DICTIONARY
  5
17A
330
3A
100
AcDbDictionary
280
     1
281
     1
  3
ACAD_XREC_ROUNDTRIP
360
17B
  0
DICTIONARY
  5
16E
330
34
100
AcDbDictionary
280
     1
281
     1
  3
ACAD_XREC_ROUNDTRIP
360
16F
  0
DICTIONARY
  5
170
330
35
100
AcDbDictionary
280
     1
281
     1
  3
ACAD_XREC_ROUNDTRIP
360
171
  0
DICTIONARY
  5
178
330
39
100
AcDbDictionary
280
     1
281
     1
  3
ACAD_XREC_ROUNDTRIP
360
179
  0
DICTIONARY
  5
15C
330
2B
100
AcDbDictionary
280
     1
281
     1
  3
ACAD_XREC_ROUNDTRIP
360
15D
  0
DICTIONARY
  5
15E
330
2C
100
AcDbDictionary
280
     1
281
     1
  3
ACAD_XREC_ROUNDTRIP
360
15F
  0
DICTIONARY
  5
160
330
2D
100
AcDbDictionary
280
     1
281
     1
  3
ACAD_XREC_ROUNDTRIP
360
161
  0
DICTIONARY
  5
162
330
2E
100
AcDbDictionary
280
     1
281
     1
  3
ACAD_XREC_ROUNDTRIP
360
163
  0
DICTIONARY
  5
176
330
38
100
AcDbDictionary
280
     1
281
     1
  3
ACAD_XREC_ROUNDTRIP
360
177
  0
DICTIONARY
  5
16C
330
33
100
AcDbDictionary
280
     1
281
     1
  3
ACAD_XREC_ROUNDTRIP
360
16D
  0
DICTIONARY
  5
174
330
37
100
AcDbDictionary
280
     1
281
     1
  3
ACAD_XREC_ROUNDTRIP
360
175
  0
XRECORD
  5
17F
102
{ACAD_REACTORS
330
17E
102
}
330
17E
100
AcDbXrecord
280
     1
102
MATERIAL
148
0.0
149
0.0
149
0.0
 93
        0
 94
      127
282
     0
 72
     1
 77
     1
171
     1
175
     1
179
     1
273
     0
  0
XRECORD
  5
17D
102
{ACAD_REACTORS
330
17C
102
}
330
17C
100
AcDbXrecord
280
     1
102
MATERIAL
148
0.0
149
0.0
149
0.0
 93
        0
 94
      127
282
     0
 72
     1
 77
     1
171
     1
175
     1
179
     1
273
     0
  0
XRECORD
  5
181
102
{ACAD_REACTORS
330
180
102
}
330
180
100
AcDbXrecord
280
     1
102
MATERIAL
148
0.0
149
0.0
149
0.0
 93
        0
 94
      127
282
     0
 72
     1
 77
     1
171
     1
175
     1
179
     1
273
     0
  0
XRECORD
  5
165
102
{ACAD_REACTORS
330
164
102
}
330
164
100
AcDbXrecord
280
     1
102
RTVSPropertyOp0
 70
     1
102
RTVSPropertyOp1
 70
     1
102
RTVSPropertyOp2
 70
     1
102
RTVSPropertyOp3
 70
     1
102
RTVSPropertyOp4
 70
     1
102
RTVSPropertyOp5
 70
     1
102
RTVSPropertyOp6
 70
     1
102
RTVSPropertyOp7
 70
     1
102
RTVSPropertyOp8
 70
     1
102
RTVSPropertyOp9
 70
     1
102
RTVSPropertyOp10
 70
     1
102
RTVSPropertyOp11
 70
     1
102
RTVSPropertyOp12
 70
     1
102
RTVSPropertyOp13
 70
     1
102
RTVSPropertyOp14
 70
     1
102
RTVSPropertyOp15
 70
     1
102
RTVSPropertyOp16
 70
     1
102
RTVSPropertyOp17
 70
     1
102
RTVSPropertyOp18
 70
     1
102
RTVSPropertyOp19
 70
     1
102
RTVSPropertyOp20
 70
     1
102
RTVSPropertyOp21
 70
     1
102
RTVSPropertyOp22
 70
     1
102
RTVSPropertyOp23
 70
     1
102
RTVSPropertyOp24
 70
     1
102
RTVSPropertyOp25
 70
     1
102
RTVSPropertyOp26
 70
     1
102
RTVSPropertyOp27
 70
     1
102
RTVSPropertyOp28
 70
     1
102
RTVSPropertyOp29
 70
     1
102
RTVSPropertyOp30
 70
     1
102
RTVSPropertyOp31
 70
     1
102
RTVSPropertyOp32
 70
     1
  0
XRECORD
  5
169
102
{ACAD_REACTORS
330
168
102
}
330
168
100
AcDbXrecord
280
     1
102
RTVSPropertyOp0
 70
     1
102
RTVSPropertyOp1
 70
     1
102
RTVSPropertyOp2
 70
     1
102
RTVSPropertyOp3
 70
     1
102
RTVSPropertyOp4
 70
     1
102
RTVSPropertyOp5
 70
     1
102
RTVSPropertyOp6
 70
     1
102
RTVSPropertyOp7
 70
     1
102
RTVSPropertyOp8
 70
     1
102
RTVSPropertyOp9
 70
     1
102
RTVSPropertyOp10
 70
     1
102
RTVSPropertyOp11
 70
     1
102
RTVSPropertyOp12
 70
     1
102
RTVSPropertyOp13
 70
     1
102
RTVSPropertyOp14
 70
     1
102
RTVSPropertyOp15
 70
     1
102
RTVSPropertyOp16
 70
     1
102
RTVSPropertyOp17
 70
     1
102
RTVSPropertyOp18
 70
     1
102
RTVSPropertyOp19
 70
     1
102
RTVSPropertyOp20
 70
     1
102
RTVSPropertyOp21
 70
     1
102
RTVSPropertyOp22
 70
     1
102
RTVSPropertyOp23
 70
     1
102
RTVSPropertyOp24
 70
     1
102
RTVSPropertyOp25
 70
     1
102
RTVSPropertyOp26
 70
     1
102
RTVSPropertyOp27
 70
     1
102
RTVSPropertyOp28
 70
     1
102
RTVSPropertyOp29
 70
     1
102
RTVSPropertyOp30
 70
     1
102
RTVSPropertyOp31
 70
     1
102
RTVSPropertyOp32
 70
     1
  0
XRECORD
  5
167
102
{ACAD_REACTORS
330
166
102
}
330
166
100
AcDbXrecord
280
     1
102
RTVSPropertyOp0
 70
     1
102
RTVSPropertyOp1
 70
     1
102
RTVSPropertyOp2
 70
     1
102
RTVSPropertyOp3
 70
     1
102
RTVSPropertyOp4
 70
     1
102
RTVSPropertyOp5
 70
     1
102
RTVSPropertyOp6
 70
     1
102
RTVSPropertyOp7
 70
     1
102
RTVSPropertyOp8
 70
     1
102
RTVSPropertyOp9
 70
     1
102
RTVSPropertyOp10
 70
     1
102
RTVSPropertyOp11
 70
     1
102
RTVSPropertyOp12
 70
     1
102
RTVSPropertyOp13
 70
     1
102
RTVSPropertyOp14
 70
     1
102
RTVSPropertyOp15
 70
     1
102
RTVSPropertyOp16
 70
     1
102
RTVSPropertyOp17
 70
     1
102
RTVSPropertyOp18
 70
     1
102
RTVSPropertyOp19
 70
     1
102
RTVSPropertyOp20
 70
     1
102
RTVSPropertyOp21
 70
     1
102
RTVSPropertyOp22
 70
     1
102
RTVSPropertyOp23
 70
     1
102
RTVSPropertyOp24
 70
     1
102
RTVSPropertyOp25
 70
     1
102
RTVSPropertyOp26
 70
     1
102
RTVSPropertyOp27
 70
     1
102
RTVSPropertyOp28
 70
     1
102
RTVSPropertyOp29
 70
     1
102
RTVSPropertyOp30
 70
     1
102
RTVSPropertyOp31
 70
     1
102
RTVSPropertyOp32
 70
     1
  0
XRECORD
  5
16B
102
{ACAD_REACTORS
330
16A
102
}
330
16A
100
AcDbXrecord
280
     1
102
RTVSPropertyOp0
 70
     1
102
RTVSPropertyOp1
 70
     1
102
RTVSPropertyOp2
 70
     1
102
RTVSPropertyOp3
 70
     1
102
RTVSPropertyOp4
 70
     1
102
RTVSPropertyOp5
 70
     1
102
RTVSPropertyOp6
 70
     1
102
RTVSPropertyOp7
 70
     1
102
RTVSPropertyOp8
 70
     1
102
RTVSPropertyOp9
 70
     1
102
RTVSPropertyOp10
 70
     1
102
RTVSPropertyOp11
 70
     1
102
RTVSPropertyOp12
 70
     1
102
RTVSPropertyOp13
 70
     1
102
RTVSPropertyOp14
 70
     1
102
RTVSPropertyOp15
 70
     1
102
RTVSPropertyOp16
 70
     1
102
RTVSPropertyOp17
 70
     1
102
RTVSPropertyOp18
 70
     1
102
RTVSPropertyOp19
 70
     1
102
RTVSPropertyOp20
 70
     1
102
RTVSPropertyOp21
 70
     1
102
RTVSPropertyOp22
 70
     1
102
RTVSPropertyOp23
 70
     1
102
RTVSPropertyOp24
 70
     1
102
RTVSPropertyOp25
 70
     1
102
RTVSPropertyOp26
 70
     1
102
RTVSPropertyOp27
 70
     1
102
RTVSPropertyOp28
 70
     1
102
RTVSPropertyOp29
 70
     1
102
RTVSPropertyOp30
 70
     1
102
RTVSPropertyOp31
 70
     1
102
RTVSPropertyOp32
 70
     1
  0
XRECORD
  5
173
102
{ACAD_REACTORS
330
172
102
}
330
172
100
AcDbXrecord
280
     1
102
RTVSPropertyOp0
 70
     1
102
RTVSPropertyOp1
 70
     1
102
RTVSPropertyOp2
 70
     1
102
RTVSPropertyOp3
 70
     1
102
RTVSPropertyOp4
 70
     1
102
RTVSPropertyOp5
 70
     1
102
RTVSPropertyOp6
 70
     1
102
RTVSPropertyOp7
 70
     1
102
RTVSPropertyOp8
 70
     1
102
RTVSPropertyOp9
 70
     1
102
RTVSPropertyOp10
 70
     1
102
RTVSPropertyOp11
 70
     1
102
RTVSPropertyOp12
 70
     1
102
RTVSPropertyOp13
 70
     1
102
RTVSPropertyOp14
 70
     1
102
RTVSPropertyOp15
 70
     1
102
RTVSPropertyOp16
 70
     1
102
RTVSPropertyOp17
 70
     1
102
RTVSPropertyOp18
 70
     1
102
RTVSPropertyOp19
 70
     1
102
RTVSPropertyOp20
 70
     1
102
RTVSPropertyOp21
 70
     1
102
RTVSPropertyOp22
 70
     1
102
RTVSPropertyOp23
 70
     1
102
RTVSPropertyOp24
 70
     1
102
RTVSPropertyOp25
 70
     1
102
RTVSPropertyOp26
 70
     1
102
RTVSPropertyOp27
 70
     1
102
RTVSPropertyOp28
 70
     1
102
RTVSPropertyOp29
 70
     1
102
RTVSPropertyOp30
 70
     1
102
RTVSPropertyOp31
 70
     1
102
RTVSPropertyOp32
 70
     1
  0
XRECORD
  5
17B
102
{ACAD_REACTORS
330
17A
102
}
330
17A
100
AcDbXrecord
280
     1
102
RTVSPropertyOp0
 70
     1
102
RTVSPropertyOp1
 70
     1
102
RTVSPropertyOp2
 70
     1
102
RTVSPropertyOp3
 70
     1
102
RTVSPropertyOp4
 70
     1
102
RTVSPropertyOp5
 70
     1
102
RTVSPropertyOp6
 70
     1
102
RTVSPropertyOp7
 70
     1
102
RTVSPropertyOp8
 70
     1
102
RTVSPropertyOp9
 70
     1
102
RTVSPropertyOp10
 70
     1
102
RTVSPropertyOp11
 70
     1
102
RTVSPropertyOp12
 70
     1
102
RTVSPropertyOp13
 70
     1
102
RTVSPropertyOp14
 70
     1
102
RTVSPropertyOp15
 70
     1
102
RTVSPropertyOp16
 70
     1
102
RTVSPropertyOp17
 70
     1
102
RTVSPropertyOp18
 70
     1
102
RTVSPropertyOp19
 70
     1
102
RTVSPropertyOp20
 70
     1
102
RTVSPropertyOp21
 70
     1
102
RTVSPropertyOp22
 70
     1
102
RTVSPropertyOp23
 70
     1
102
RTVSPropertyOp24
 70
     1
102
RTVSPropertyOp25
 70
     1
102
RTVSPropertyOp26
 70
     1
102
RTVSPropertyOp27
 70
     1
102
RTVSPropertyOp28
 70
     1
102
RTVSPropertyOp29
 70
     1
102
RTVSPropertyOp30
 70
     1
102
RTVSPropertyOp31
 70
     1
102
RTVSPropertyOp32
 70
     1
  0
XRECORD
  5
16F
102
{ACAD_REACTORS
330
16E
102
}
330
16E
100
AcDbXrecord
280
     1
102
RTVSPropertyOp0
 70
     1
102
RTVSPropertyOp1
 70
     1
102
RTVSPropertyOp2
 70
     1
102
RTVSPropertyOp3
 70
     1
102
RTVSPropertyOp4
 70
     1
102
RTVSPropertyOp5
 70
     1
102
RTVSPropertyOp6
 70
     1
102
RTVSPropertyOp7
 70
     1
102
RTVSPropertyOp8
 70
     1
102
RTVSPropertyOp9
 70
     1
102
RTVSPropertyOp10
 70
     1
102
RTVSPropertyOp11
 70
     1
102
RTVSPropertyOp12
 70
     1
102
RTVSPropertyOp13
 70
     1
102
RTVSPropertyOp14
 70
     1
102
RTVSPropertyOp15
 70
     1
102
RTVSPropertyOp16
 70
     1
102
RTVSPropertyOp17
 70
     1
102
RTVSPropertyOp18
 70
     1
102
RTVSPropertyOp19
 70
     1
102
RTVSPropertyOp20
 70
     1
102
RTVSPropertyOp21
 70
     1
102
RTVSPropertyOp22
 70
     1
102
RTVSPropertyOp23
 70
     1
102
RTVSPropertyOp24
 70
     1
102
RTVSPropertyOp25
 70
     1
102
RTVSPropertyOp26
 70
     1
102
RTVSPropertyOp27
 70
     1
102
RTVSPropertyOp28
 70
     1
102
RTVSPropertyOp29
 70
     1
102
RTVSPropertyOp30
 70
     1
102
RTVSPropertyOp31
 70
     1
102
RTVSPropertyOp32
 70
     1
  0
XRECORD
  5
171
102
{ACAD_REACTORS
330
170
102
}
330
170
100
AcDbXrecord
280
     1
102
RTVSPropertyOp0
 70
     1
102
RTVSPropertyOp1
 70
     1
102
RTVSPropertyOp2
 70
     1
102
RTVSPropertyOp3
 70
     1
102
RTVSPropertyOp4
 70
     1
102
RTVSPropertyOp5
 70
     1
102
RTVSPropertyOp6
 70
     1
102
RTVSPropertyOp7
 70
     1
102
RTVSPropertyOp8
 70
     1
102
RTVSPropertyOp9
 70
     1
102
RTVSPropertyOp10
 70
     1
102
RTVSPropertyOp11
 70
     1
102
RTVSPropertyOp12
 70
     1
102
RTVSPropertyOp13
 70
     1
102
RTVSPropertyOp14
 70
     1
102
RTVSPropertyOp15
 70
     1
102
RTVSPropertyOp16
 70
     1
102
RTVSPropertyOp17
 70
     1
102
RTVSPropertyOp18
 70
     1
102
RTVSPropertyOp19
 70
     1
102
RTVSPropertyOp20
 70
     1
102
RTVSPropertyOp21
 70
     1
102
RTVSPropertyOp22
 70
     1
102
RTVSPropertyOp23
 70
     1
102
RTVSPropertyOp24
 70
     1
102
RTVSPropertyOp25
 70
     1
102
RTVSPropertyOp26
 70
     1
102
RTVSPropertyOp27
 70
     1
102
RTVSPropertyOp28
 70
     1
102
RTVSPropertyOp29
 70
     1
102
RTVSPropertyOp30
 70
     1
102
RTVSPropertyOp31
 70
     1
102
RTVSPropertyOp32
 70
     1
  0
XRECORD
  5
179
102
{ACAD_REACTORS
330
178
102
}
330
178
100
AcDbXrecord
280
     1
102
RTVSPropertyOp0
 70
     1
102
RTVSPropertyOp1
 70
     1
102
RTVSPropertyOp2
 70
     1
102
RTVSPropertyOp3
 70
     1
102
RTVSPropertyOp4
 70
     1
102
RTVSPropertyOp5
 70
     1
102
RTVSPropertyOp6
 70
     1
102
RTVSPropertyOp7
 70
     1
102
RTVSPropertyOp8
 70
     1
102
RTVSPropertyOp9
 70
     1
102
RTVSPropertyOp10
 70
     1
102
RTVSPropertyOp11
 70
     1
102
RTVSPropertyOp12
 70
     1
102
RTVSPropertyOp13
 70
     1
102
RTVSPropertyOp14
 70
     1
102
RTVSPropertyOp15
 70
     1
102
RTVSPropertyOp16
 70
     1
102
RTVSPropertyOp17
 70
     1
102
RTVSPropertyOp18
 70
     1
102
RTVSPropertyOp19
 70
     1
102
RTVSPropertyOp20
 70
     1
102
RTVSPropertyOp21
 70
     1
102
RTVSPropertyOp22
 70
     1
102
RTVSPropertyOp23
 70
     1
102
RTVSPropertyOp24
 70
     1
102
RTVSPropertyOp25
 70
     1
102
RTVSPropertyOp26
 70
     1
102
RTVSPropertyOp27
 70
     1
102
RTVSPropertyOp28
 70
     1
102
RTVSPropertyOp29
 70
     1
102
RTVSPropertyOp30
 70
     1
102
RTVSPropertyOp31
 70
     1
102
RTVSPropertyOp32
 70
     1
  0
XRECORD
  5
15D
102
{ACAD_REACTORS
330
15C
102
}
330
15C
100
AcDbXrecord
280
     1
102
RTVSPropertyOp0
 70
     1
102
RTVSPropertyOp1
 70
     1
102
RTVSPropertyOp2
 70
     1
102
RTVSPropertyOp3
 70
     1
102
RTVSPropertyOp4
 70
     1
102
RTVSPropertyOp5
 70
     1
102
RTVSPropertyOp6
 70
     1
102
RTVSPropertyOp7
 70
     1
102
RTVSPropertyOp8
 70
     1
102
RTVSPropertyOp9
 70
     1
102
RTVSPropertyOp10
 70
     1
102
RTVSPropertyOp11
 70
     1
102
RTVSPropertyOp12
 70
     1
102
RTVSPropertyOp13
 70
     1
102
RTVSPropertyOp14
 70
     1
102
RTVSPropertyOp15
 70
     1
102
RTVSPropertyOp16
 70
     1
102
RTVSPropertyOp17
 70
     1
102
RTVSPropertyOp18
 70
     1
102
RTVSPropertyOp19
 70
     1
102
RTVSPropertyOp20
 70
     1
102
RTVSPropertyOp21
 70
     1
102
RTVSPropertyOp22
 70
     1
102
RTVSPropertyOp23
 70
     1
102
RTVSPropertyOp24
 70
     1
102
RTVSPropertyOp25
 70
     1
102
RTVSPropertyOp26
 70
     1
102
RTVSPropertyOp27
 70
     1
102
RTVSPropertyOp28
 70
     1
102
RTVSPropertyOp29
 70
     1
102
RTVSPropertyOp30
 70
     1
102
RTVSPropertyOp31
 70
     1
102
RTVSPropertyOp32
 70
     1
  0
XRECORD
  5
15F
102
{ACAD_REACTORS
330
15E
102
}
330
15E
100
AcDbXrecord
280
     1
102
RTVSPropertyOp0
 70
     1
102
RTVSPropertyOp1
 70
     1
102
RTVSPropertyOp2
 70
     1
102
RTVSPropertyOp3
 70
     1
102
RTVSPropertyOp4
 70
     1
102
RTVSPropertyOp5
 70
     1
102
RTVSPropertyOp6
 70
     1
102
RTVSPropertyOp7
 70
     1
102
RTVSPropertyOp8
 70
     1
102
RTVSPropertyOp9
 70
     1
102
RTVSPropertyOp10
 70
     1
102
RTVSPropertyOp11
 70
     1
102
RTVSPropertyOp12
 70
     1
102
RTVSPropertyOp13
 70
     1
102
RTVSPropertyOp14
 70
     1
102
RTVSPropertyOp15
 70
     1
102
RTVSPropertyOp16
 70
     1
102
RTVSPropertyOp17
 70
     1
102
RTVSPropertyOp18
 70
     1
102
RTVSPropertyOp19
 70
     1
102
RTVSPropertyOp20
 70
     1
102
RTVSPropertyOp21
 70
     1
102
RTVSPropertyOp22
 70
     1
102
RTVSPropertyOp23
 70
     1
102
RTVSPropertyOp24
 70
     1
102
RTVSPropertyOp25
 70
     1
102
RTVSPropertyOp26
 70
     1
102
RTVSPropertyOp27
 70
     1
102
RTVSPropertyOp28
 70
     1
102
RTVSPropertyOp29
 70
     1
102
RTVSPropertyOp30
 70
     1
102
RTVSPropertyOp31
 70
     1
102
RTVSPropertyOp32
 70
     1
  0
XRECORD
  5
161
102
{ACAD_REACTORS
330
160
102
}
330
160
100
AcDbXrecord
280
     1
102
RTVSPropertyOp0
 70
     1
102
RTVSPropertyOp1
 70
     1
102
RTVSPropertyOp2
 70
     1
102
RTVSPropertyOp3
 70
     1
102
RTVSPropertyOp4
 70
     1
102
RTVSPropertyOp5
 70
     1
102
RTVSPropertyOp6
 70
     1
102
RTVSPropertyOp7
 70
     1
102
RTVSPropertyOp8
 70
     1
102
RTVSPropertyOp9
 70
     1
102
RTVSPropertyOp10
 70
     1
102
RTVSPropertyOp11
 70
     1
102
RTVSPropertyOp12
 70
     1
102
RTVSPropertyOp13
 70
     1
102
RTVSPropertyOp14
 70
     1
102
RTVSPropertyOp15
 70
     1
102
RTVSPropertyOp16
 70
     1
102
RTVSPropertyOp17
 70
     1
102
RTVSPropertyOp18
 70
     1
102
RTVSPropertyOp19
 70
     1
102
RTVSPropertyOp20
 70
     1
102
RTVSPropertyOp21
 70
     1
102
RTVSPropertyOp22
 70
     1
102
RTVSPropertyOp23
 70
     1
102
RTVSPropertyOp24
 70
     1
102
RTVSPropertyOp25
 70
     1
102
RTVSPropertyOp26
 70
     1
102
RTVSPropertyOp27
 70
     1
102
RTVSPropertyOp28
 70
     1
102
RTVSPropertyOp29
 70
     1
102
RTVSPropertyOp30
 70
     1
102
RTVSPropertyOp31
 70
     1
102
RTVSPropertyOp32
 70
     1
  0
XRECORD
  5
163
102
{ACAD_REACTORS
330
162
102
}
330
162
100
AcDbXrecord
280
     1
102
RTVSPropertyOp0
 70
     1
102
RTVSPropertyOp1
 70
     1
102
RTVSPropertyOp2
 70
     1
102
RTVSPropertyOp3
 70
     1
102
RTVSPropertyOp4
 70
     1
102
RTVSPropertyOp5
 70
     1
102
RTVSPropertyOp6
 70
     1
102
RTVSPropertyOp7
 70
     1
102
RTVSPropertyOp8
 70
     1
102
RTVSPropertyOp9
 70
     1
102
RTVSPropertyOp10
 70
     1
102
RTVSPropertyOp11
 70
     1
102
RTVSPropertyOp12
 70
     1
102
RTVSPropertyOp13
 70
     1
102
RTVSPropertyOp14
 70
     1
102
RTVSPropertyOp15
 70
     1
102
RTVSPropertyOp16
 70
     1
102
RTVSPropertyOp17
 70
     1
102
RTVSPropertyOp18
 70
     1
102
RTVSPropertyOp19
 70
     1
102
RTVSPropertyOp20
 70
     1
102
RTVSPropertyOp21
 70
     1
102
RTVSPropertyOp22
 70
     1
102
RTVSPropertyOp23
 70
     1
102
RTVSPropertyOp24
 70
     1
102
RTVSPropertyOp25
 70
     1
102
RTVSPropertyOp26
 70
     1
102
RTVSPropertyOp27
 70
     1
102
RTVSPropertyOp28
 70
     1
102
RTVSPropertyOp29
 70
     1
102
RTVSPropertyOp30
 70
     1
102
RTVSPropertyOp31
 70
     1
102
RTVSPropertyOp32
 70
     1
  0
XRECORD
  5
177
102
{ACAD_REACTORS
330
176
102
}
330
176
100
AcDbXrecord
280
     1
102
RTVSPropertyOp0
 70
     1
102
RTVSPropertyOp1
 70
     1
102
RTVSPropertyOp2
 70
     1
102
RTVSPropertyOp3
 70
     1
102
RTVSPropertyOp4
 70
     1
102
RTVSPropertyOp5
 70
     1
102
RTVSPropertyOp6
 70
     1
102
RTVSPropertyOp7
 70
     1
102
RTVSPropertyOp8
 70
     1
102
RTVSPropertyOp9
 70
     1
102
RTVSPropertyOp10
 70
     1
102
RTVSPropertyOp11
 70
     1
102
RTVSPropertyOp12
 70
     1
102
RTVSPropertyOp13
 70
     1
102
RTVSPropertyOp14
 70
     1
102
RTVSPropertyOp15
 70
     1
102
RTVSPropertyOp16
 70
     1
102
RTVSPropertyOp17
 70
     1
102
RTVSPropertyOp18
 70
     1
102
RTVSPropertyOp19
 70
     1
102
RTVSPropertyOp20
 70
     1
102
RTVSPropertyOp21
 70
     1
102
RTVSPropertyOp22
 70
     1
102
RTVSPropertyOp23
 70
     1
102
RTVSPropertyOp24
 70
     1
102
RTVSPropertyOp25
 70
     1
102
RTVSPropertyOp26
 70
     1
102
RTVSPropertyOp27
 70
     1
102
RTVSPropertyOp28
 70
     1
102
RTVSPropertyOp29
 70
     1
102
RTVSPropertyOp30
 70
     1
102
RTVSPropertyOp31
 70
     1
102
RTVSPropertyOp32
 70
     1
  0
XRECORD
  5
16D
102
{ACAD_REACTORS
330
16C
102
}
330
16C
100
AcDbXrecord
280
     1
102
RTVSPropertyOp0
 70
     1
102
RTVSPropertyOp1
 70
     1
102
RTVSPropertyOp2
 70
     1
102
RTVSPropertyOp3
 70
     1
102
RTVSPropertyOp4
 70
     1
102
RTVSPropertyOp5
 70
     1
102
RTVSPropertyOp6
 70
     1
102
RTVSPropertyOp7
 70
     1
102
RTVSPropertyOp8
 70
     1
102
RTVSPropertyOp9
 70
     1
102
RTVSPropertyOp10
 70
     1
102
RTVSPropertyOp11
 70
     1
102
RTVSPropertyOp12
 70
     1
102
RTVSPropertyOp13
 70
     1
102
RTVSPropertyOp14
 70
     1
102
RTVSPropertyOp15
 70
     1
102
RTVSPropertyOp16
 70
     1
102
RTVSPropertyOp17
 70
     1
102
RTVSPropertyOp18
 70
     1
102
RTVSPropertyOp19
 70
     1
102
RTVSPropertyOp20
 70
     1
102
RTVSPropertyOp21
 70
     1
102
RTVSPropertyOp22
 70
     1
102
RTVSPropertyOp23
 70
     1
102
RTVSPropertyOp24
 70
     1
102
RTVSPropertyOp25
 70
     1
102
RTVSPropertyOp26
 70
     1
102
RTVSPropertyOp27
 70
     1
102
RTVSPropertyOp28
 70
     1
102
RTVSPropertyOp29
 70
     1
102
RTVSPropertyOp30
 70
     1
102
RTVSPropertyOp31
 70
     1
102
RTVSPropertyOp32
 70
     1
  0
XRECORD
  5
175
102
{ACAD_REACTORS
330
174
102
}
330
174
100
AcDbXrecord
280
     1
102
RTVSPropertyOp0
 70
     1
102
RTVSPropertyOp1
 70
     1
102
RTVSPropertyOp2
 70
     1
102
RTVSPropertyOp3
 70
     1
102
RTVSPropertyOp4
 70
     1
102
RTVSPropertyOp5
 70
     1
102
RTVSPropertyOp6
 70
     1
102
RTVSPropertyOp7
 70
     1
102
RTVSPropertyOp8
 70
     1
102
RTVSPropertyOp9
 70
     1
102
RTVSPropertyOp10
 70
     1
102
RTVSPropertyOp11
 70
     1
102
RTVSPropertyOp12
 70
     1
102
RTVSPropertyOp13
 70
     1
102
RTVSPropertyOp14
 70
     1
102
RTVSPropertyOp15
 70
     1
102
RTVSPropertyOp16
 70
     1
102
RTVSPropertyOp17
 70
     1
102
RTVSPropertyOp18
 70
     1
102
RTVSPropertyOp19
 70
     1
102
RTVSPropertyOp20
 70
     1
102
RTVSPropertyOp21
 70
     1
102
RTVSPropertyOp22
 70
     1
102
RTVSPropertyOp23
 70
     1
102
RTVSPropertyOp24
 70
     1
102
RTVSPropertyOp25
 70
     1
102
RTVSPropertyOp26
 70
     1
102
RTVSPropertyOp27
 70
     1
102
RTVSPropertyOp28
 70
     1
102
RTVSPropertyOp29
 70
     1
102
RTVSPropertyOp30
 70
     1
102
RTVSPropertyOp31
 70
     1
102
RTVSPropertyOp32
 70
     1
  0
ENDSEC
  0
EOF
