  0
SECTION
  2
HEADER
  9
$ACADVER
  1
AC1015
  9
$ACADMAINTVER
 70
     6
  9
$DWGCODEPAGE
  3
ANSI_932
  9
$INSBASE
 10
0.0
 20
0.0
 30
0.0
  9
$EXTMIN
 10
0.0
 20
0.0
 30
0.0
  9
$EXTMAX
 10
210.0000000000001
 20
297.0
 30
0.0
  9
$LIMMIN
 10
0.0
 20
0.0
  9
$LIMMAX
 10
12.0
 20
9.0
  9
$ORTHOMODE
 70
     0
  9
$REGENMODE
 70
     1
  9
$FILLMODE
 70
     1
  9
$QTEXTMODE
 70
     0
  9
$MIRRTEXT
 70
     1
  9
$LTSCALE
 40
1.0
  9
$ATTMODE
 70
     1
  9
$TEXTSIZE
 40
0.2
  9
$TRACEWID
 40
0.05
  9
$TEXTSTYLE
  7
Standard
  9
$CLAYER
  8
0
  9
$CELTYPE
  6
ByLayer
  9
$CECOLOR
 62
   256
  9
$CELTSCALE
 40
1.0
  9
$DISPSILH
 70
     0
  9
$DIMSCALE
 40
1.0
  9
$DIMASZ
 40
0.18
  9
$DIMEXO
 40
0.0625
  9
$DIMDLI
 40
0.38
  9
$DIMRND
 40
0.0
  9
$DIMDLE
 40
0.0
  9
$DIMEXE
 40
0.18
  9
$DIMTP
 40
0.0
  9
$DIMTM
 40
0.0
  9
$DIMTXT
 40
0.18
  9
$DIMCEN
 40
0.09
  9
$DIMTSZ
 40
0.0
  9
$DIMTOL
 70
     0
  9
$DIMLIM
 70
     0
  9
$DIMTIH
 70
     1
  9
$DIMTOH
 70
     1
  9
$DIMSE1
 70
     0
  9
$DIMSE2
 70
     0
  9
$DIMTAD
 70
     0
  9
$DIMZIN
 70
     0
  9
$DIMBLK
  1

  9
$DIMASO
 70
     1
  9
$DIMSHO
 70
     1
  9
$DIMPOST
  1

  9
$DIMAPOST
  1

  9
$DIMALT
 70
     0
  9
$DIMALTD
 70
     2
  9
$DIMALTF
 40
25.4
  9
$DIMLFAC
 40
1.0
  9
$DIMTOFL
 70
     0
  9
$DIMTVP
 40
0.0
  9
$DIMTIX
 70
     0
  9
$DIMSOXD
 70
     0
  9
$DIMSAH
 70
     0
  9
$DIMBLK1
  1

  9
$DIMBLK2
  1

  9
$DIMSTYLE
  2
Standard
  9
$DIMCLRD
 70
     0
  9
$DIMCLRE
 70
     0
  9
$DIMCLRT
 70
     0
  9
$DIMTFAC
 40
1.0
  9
$DIMGAP
 40
0.09
  9
$DIMJUST
 70
     0
  9
$DIMSD1
 70
     0
  9
$DIMSD2
 70
     0
  9
$DIMTOLJ
 70
     1
  9
$DIMTZIN
 70
     0
  9
$DIMALTZ
 70
     0
  9
$DIMALTTZ
 70
     0
  9
$DIMUPT
 70
     0
  9
$DIMDEC
 70
     4
  9
$DIMTDEC
 70
     4
  9
$DIMALTU
 70
     2
  9
$DIMALTTD
 70
     2
  9
$DIMTXSTY
  7
Standard
  9
$DIMAUNIT
 70
     0
  9
$DIMADEC
 70
     0
  9
$DIMALTRND
 40
0.0
  9
$DIMAZIN
 70
     0
  9
$DIMDSEP
 70
    46
  9
$DIMATFIT
 70
     3
  9
$DIMFRAC
 70
     0
  9
$DIMLDRBLK
  1

  9
$DIMLUNIT
 70
     2
  9
$DIMLWD
 70
    -2
  9
$DIMLWE
 70
    -2
  9
$DIMTMOVE
 70
     0
  9
$LUNITS
 70
     2
  9
$LUPREC
 70
     4
  9
$SKETCHINC
 40
0.1
  9
$FILLETRAD
 40
0.5
  9
$AUNITS
 70
     0
  9
$AUPREC
 70
     0
  9
$MENU
  1
.
  9
$ELEVATION
 40
0.0
  9
$PELEVATION
 40
0.0
  9
$THICKNESS
 40
0.0
  9
$LIMCHECK
 70
     0
  9
$CHAMFERA
 40
0.5
  9
$CHAMFERB
 40
0.5
  9
$CHAMFERC
 40
1.0
  9
$CHAMFERD
 40
0.0
  9
$SKPOLY
 70
     0
  9
$TDCREATE
 40
2459774.448977268
  9
$TDUCREATE
 40
2459774.073977268
  9
$TDUPDATE
 40
2459774.448978715
  9
$TDUUPDATE
 40
2459774.073978715
  9
$TDINDWG
 40
0.0000000116
  9
$TDUSRTIMER
 40
0.0000000116
  9
$USRTIMER
 70
     1
  9
$ANGBASE
 50
0.0
  9
$ANGDIR
 70
     0
  9
$PDMODE
 70
     0
  9
$PDSIZE
 40
0.0
  9
$PLINEWID
 40
0.0
  9
$SPLFRAME
 70
     0
  9
$SPLINETYPE
 70
     6
  9
$SPLINESEGS
 70
     8
  9
$HANDSEED
  5
178
  9
$SURFTAB1
 70
     6
  9
$SURFTAB2
 70
     6
  9
$SURFTYPE
 70
     6
  9
$SURFU
 70
     6
  9
$SURFV
 70
     6
  9
$UCSBASE
  2

  9
$UCSNAME
  2

  9
$UCSORG
 10
0.0
 20
0.0
 30
0.0
  9
$UCSXDIR
 10
1.0
 20
0.0
 30
0.0
  9
$UCSYDIR
 10
0.0
 20
1.0
 30
0.0
  9
$UCSORTHOREF
  2

  9
$UCSORTHOVIEW
 70
     0
  9
$UCSORGTOP
 10
0.0
 20
0.0
 30
0.0
  9
$UCSORGBOTTOM
 10
0.0
 20
0.0
 30
0.0
  9
$UCSORGLEFT
 10
0.0
 20
0.0
 30
0.0
  9
$UCSORGRIGHT
 10
0.0
 20
0.0
 30
0.0
  9
$UCSORGFRONT
 10
0.0
 20
0.0
 30
0.0
  9
$UCSORGBACK
 10
0.0
 20
0.0
 30
0.0
  9
$PUCSBASE
  2

  9
$PUCSNAME
  2

  9
$PUCSORG
 10
0.0
 20
0.0
 30
0.0
  9
$PUCSXDIR
 10
1.0
 20
0.0
 30
0.0
  9
$PUCSYDIR
 10
0.0
 20
1.0
 30
0.0
  9
$PUCSORTHOREF
  2

  9
$PUCSORTHOVIEW
 70
     0
  9
$PUCSORGTOP
 10
0.0
 20
0.0
 30
0.0
  9
$PUCSORGBOTTOM
 10
0.0
 20
0.0
 30
0.0
  9
$PUCSORGLEFT
 10
0.0
 20
0.0
 30
0.0
  9
$PUCSORGRIGHT
 10
0.0
 20
0.0
 30
0.0
  9
$PUCSORGFRONT
 10
0.0
 20
0.0
 30
0.0
  9
$PUCSORGBACK
 10
0.0
 20
0.0
 30
0.0
  9
$USERI1
 70
     0
  9
$USERI2
 70
     0
  9
$USERI3
 70
     0
  9
$USERI4
 70
     0
  9
$USERI5
 70
     0
  9
$USERR1
 40
18.1
  9
$USERR2
 40
0.0
  9
$USERR3
 40
0.0
  9
$USERR4
 40
0.0
  9
$USERR5
 40
0.0
  9
$WORLDVIEW
 70
     1
  9
$SHADEDGE
 70
     3
  9
$SHADEDIF
 70
    70
  9
$TILEMODE
 70
     1
  9
$MAXACTVP
 70
    64
  9
$PINSBASE
 10
0.0
 20
0.0
 30
0.0
  9
$PLIMCHECK
 70
     0
  9
$PEXTMIN
 10
1.00000000000000E+20
 20
1.00000000000000E+20
 30
1.00000000000000E+20
  9
$PEXTMAX
 10
-1.00000000000000E+20
 20
-1.00000000000000E+20
 30
-1.00000000000000E+20
  9
$PLIMMIN
 10
0.0
 20
0.0
  9
$PLIMMAX
 10
12.0
 20
9.0
  9
$UNITMODE
 70
     0
  9
$VISRETAIN
 70
     1
  9
$PLINEGEN
 70
     0
  9
$PSLTSCALE
 70
     1
  9
$TREEDEPTH
 70
  3020
  9
$CMLSTYLE
  2
Standard
  9
$CMLJUST
 70
     0
  9
$CMLSCALE
 40
1.0
  9
$PROXYGRAPHICS
 70
     1
  9
$MEASUREMENT
 70
     1
  9
$CELWEIGHT
370
    -1
  9
$ENDCAPS
280
     0
  9
$JOINSTYLE
280
     0
  9
$LWDISPLAY
290
     0
  9
$INSUNITS
 70
     4
  9
$HYPERLINKBASE
  1

  9
$STYLESHEET
  1

  9
$XEDIT
290
     1
  9
$CEPSNTYPE
380
     0
  9
$PSTYLEMODE
290
     1
  9
$FINGERPRINTGUID
  2
{B6E08AE9-C427-4F4B-A93D-BB53D446B645}
  9
$VERSIONGUID
  2
{FAEB1C32-E019-11D5-929B-00C0DF256EC4}
  9
$EXTNAMES
290
     1
  9
$PSVPSCALE
 40
0.0
  9
$OLESTARTUP
290
     0
  0
ENDSEC
  0
SECTION
  2
CLASSES
  0
CLASS
  1
ACDBDICTIONARYWDFLT
  2
AcDbDictionaryWithDefault
  3
ObjectDBX Classes
 90
        0
280
     0
281
     0
  0
CLASS
  1
VISUALSTYLE
  2
AcDbVisualStyle
  3
ObjectDBX Classes
 90
     4095
280
     0
281
     0
  0
CLASS
  1
MATERIAL
  2
AcDbMaterial
  3
ObjectDBX Classes
 90
     1153
280
     0
281
     0
  0
CLASS
  1
DICTIONARYVAR
  2
AcDbDictionaryVar
  3
ObjectDBX Classes
 90
        0
280
     0
281
     0
  0
CLASS
  1
ACDBPLACEHOLDER
  2
AcDbPlaceHolder
  3
ObjectDBX Classes
 90
        0
280
     0
281
     0
  0
CLASS
  1
LAYOUT
  2
AcDbLayout
  3
ObjectDBX Classes
 90
        0
280
     0
281
     0
  0
ENDSEC
  0
SECTION
  2
TABLES
  0
TABLE
  2
VPORT
  5
8
330
0
100
AcDbSymbolTable
 70
     1
  0
VPORT
  5
29
330
8
100
AcDbSymbolTableRecord
100
AcDbViewportTableRecord
  2
*Active
 70
     0
 10
0.0
 20
0.0
 11
1.0
 21
1.0
 12
105.0000000000001
 22
148.5
 13
0.0
 23
0.0
 14
0.5
 24
0.5
 15
0.5
 25
0.5
 16
0.0
 26
0.0
 36
1.0
 17
0.0
 27
0.0
 37
0.0
 40
326.7
 41
1.60267857142857
 42
50.0
 43
0.0
 44
0.0
 50
0.0
 51
0.0
 71
     0
 72
   100
 73
     1
 74
     3
 75
     0
 76
     0
 77
     0
 78
     0
281
     0
 65
     1
110
0.0
120
0.0
130
0.0
111
1.0
121
0.0
131
0.0
112
0.0
122
1.0
132
0.0
 79
     0
146
0.0
  0
ENDTAB
  0
TABLE
  2
LTYPE
  5
5
330
0
100
AcDbSymbolTable
 70
     8
  0
LTYPE
  5
14
330
5
100
AcDbSymbolTableRecord
100
AcDbLinetypeTableRecord
  2
ByBlock
 70
     0
  3

 72
    65
 73
     0
 40
0.0
  0
LTYPE
  5
15
330
5
100
AcDbSymbolTableRecord
100
AcDbLinetypeTableRecord
  2
ByLayer
 70
     0
  3

 72
    65
 73
     0
 40
0.0
  0
LTYPE
  5
16
330
5
100
AcDbSymbolTableRecord
100
AcDbLinetypeTableRecord
  2
Continuous
 70
     0
  3
Solid line
 72
    65
 73
     0
 40
0.0
  0
LTYPE
  5
3F
330
5
100
AcDbSymbolTableRecord
100
AcDbLinetypeTableRecord
  2
DASHED
 70
     0
  3
Dashed
 72
    65
 73
     2
 40
15.0
 49
7.0
 74
     0
 49
-8.0
 74
     0
  0
LTYPE
  5
40
330
5
100
AcDbSymbolTableRecord
100
AcDbLinetypeTableRecord
  2
DOTTED
 70
     0
  3
Dotted
 72
    65
 73
     2
 40
1.0
 49
0.0
 74
     0
 49
-1.0
 74
     0
  0
LTYPE
  5
41
330
5
100
AcDbSymbolTableRecord
100
AcDbLinetypeTableRecord
  2
DOT_CENTER
 70
     0
  3
Dot_Center
 72
    65
 73
     4
 40
14.0
 49
12.0
 74
     0
 49
-1.0
 74
     0
 49
0.0
 74
     0
 49
-1.0
 74
     0
  0
LTYPE
  5
42
330
5
100
AcDbSymbolTableRecord
100
AcDbLinetypeTableRecord
  2
LONG_DASHED
 70
     0
  3
Long_Dashed
 72
    65
 73
     2
 40
15.0
 49
10.0
 74
     0
 49
-5.0
 74
     0
  0
LTYPE
  5
43
330
5
100
AcDbSymbolTableRecord
100
AcDbLinetypeTableRecord
  2
DASH_CENTER
 70
     0
  3
Dash_Center
 72
    65
 73
     4
 40
14.0
 49
11.0
 74
     0
 49
-1.0
 74
     0
 49
1.0
 74
     0
 49
-1.0
 74
     0
  0
LTYPE
  5
44
330
5
100
AcDbSymbolTableRecord
100
AcDbLinetypeTableRecord
  2
PHANTOM
 70
     0
  3
Phantom
 72
    65
 73
     6
 40
13.0
 49
10.0
 74
     0
 49
-1.0
 74
     0
 49
0.0
 74
     0
 49
-1.0
 74
     0
 49
0.0
 74
     0
 49
-1.0
 74
     0
  0
LTYPE
  5
45
330
5
100
AcDbSymbolTableRecord
100
AcDbLinetypeTableRecord
  2
CENTER_DASH_DASH
 70
     0
  3
Center_Dash_Dash
 72
    65
 73
     6
 40
14.0
 49
9.0
 74
     0
 49
-1.0
 74
     0
 49
1.0
 74
     0
 49
-1.0
 74
     0
 49
1.0
 74
     0
 49
-1.0
 74
     0
  0
ENDTAB
  0
TABLE
  2
LAYER
  5
2
330
0
100
AcDbSymbolTable
 70
     3
  0
LAYER
  5
10
330
2
100
AcDbSymbolTableRecord
100
AcDbLayerTableRecord
  2
0
 70
     0
 62
     7
  6
Continuous
370
    -3
390
F
  0
LAYER
  5
46
330
2
100
AcDbSymbolTableRecord
100
AcDbLayerTableRecord
  2
1
 70
     0
 62
     7
  6
Continuous
370
    -3
390
F
  0
LAYER
  5
47
330
2
100
AcDbSymbolTableRecord
100
AcDbLayerTableRecord
  2
_U_30EC_U_30A4_U_30E4_U_30FC_1
 70
     0
 62
     7
  6
Continuous
370
    -3
390
F
  0
ENDTAB
  0
TABLE
  2
STYLE
  5
3
330
0
100
AcDbSymbolTable
 70
     3
  0
STYLE
  5
11
330
3
100
AcDbSymbolTableRecord
100
AcDbTextStyleTableRecord
  2
Standard
 70
     0
 40
0.0
 41
1.0
 50
0.0
 71
     0
 42
0.2
  3
txt
  4

  0
STYLE
  5
BA
330
3
100
AcDbSymbolTableRecord
100
AcDbTextStyleTableRecord
  2
CONVERTER_11
 70
     0
 40
0.0
 41
0.89
 50
0.0
 71
     0
 42
0.2
  3
MS Mincho.ttf
  4

1001
ACAD
1000
MS Mincho
1071
    32785
  0
STYLE
  5
11F
330
3
100
AcDbSymbolTableRecord
100
AcDbTextStyleTableRecord
  2
CONVERTER_12
 70
     0
 40
0.0
 41
0.9
 50
0.0
 71
     0
 42
0.2
  3
txt.shx
  4

  0
ENDTAB
  0
TABLE
  2
VIEW
  5
6
330
0
100
AcDbSymbolTable
 70
     0
  0
ENDTAB
  0
TABLE
  2
UCS
  5
7
330
0
100
AcDbSymbolTable
 70
     0
  0
ENDTAB
  0
TABLE
  2
APPID
  5
9
330
0
100
AcDbSymbolTable
 70
     1
  0
APPID
  5
12
330
9
100
AcDbSymbolTableRecord
100
AcDbRegAppTableRecord
  2
ACAD
 70
     0
  0
ENDTAB
  0
TABLE
  2
DIMSTYLE
  5
A
330
0
100
AcDbSymbolTable
 70
     4
100
AcDbDimStyleTable
  0
DIMSTYLE
105
27
330
A
100
AcDbSymbolTableRecord
100
AcDbDimStyleTableRecord
  2
Standard
 70
     0
178
     0
340
11
  0
DIMSTYLE
105
135
102
{ACAD_REACTORS
330
136
102
}
330
A
100
AcDbSymbolTableRecord
100
AcDbDimStyleTableRecord
  2
ME10_DIM_10
 70
     0
 41
3.5
 42
0.0
 44
1.0
 73
     0
 74
     0
 77
     1
 78
     8
140
3.5
147
1.0
172
     1
173
     1
174
     1
175
     1
176
     2
177
     2
271
     2
178
     7
271
     2
340
11F
  0
DIMSTYLE
105
140
102
{ACAD_REACTORS
330
141
102
}
330
A
100
AcDbSymbolTableRecord
100
AcDbDimStyleTableRecord
  2
ME10_DIM_11
 70
     0
 41
3.5
 42
0.0
 44
1.0
 73
     0
 74
     0
 77
     1
 78
     8
140
3.5
147
1.0
172
     1
173
     1
174
     1
175
     1
176
     2
177
     2
271
     2
178
     7
271
     2
340
11F
  0
DIMSTYLE
105
14B
102
{ACAD_REACTORS
330
14C
102
}
330
A
100
AcDbSymbolTableRecord
100
AcDbDimStyleTableRecord
  2
ME10_DIM_12
 70
     0
  3
{\Fgdt;n}<>
 41
3.5
 42
0.0
 44
1.0
 73
     0
 74
     0
 77
     1
 78
     8
140
3.5
147
1.0
172
     1
173
     1
174
     1
175
     1
176
     2
177
     2
271
     2
178
     7
271
     2
340
11F
  0
ENDTAB
  0
TABLE
  2
BLOCK_RECORD
  5
1
330
0
100
AcDbSymbolTable
 70
     8
  0
BLOCK_RECORD
  5
1F
330
1
100
AcDbSymbolTableRecord
100
AcDbBlockTableRecord
  2
*Model_Space
340
22
  0
BLOCK_RECORD
  5
1B
330
1
100
AcDbSymbolTableRecord
100
AcDbBlockTableRecord
  2
*Paper_Space
340
1E
  0
BLOCK_RECORD
  5
23
330
1
100
AcDbSymbolTableRecord
100
AcDbBlockTableRecord
  2
*Paper_Space0
340
26
  0
BLOCK_RECORD
  5
48
330
1
100
AcDbSymbolTableRecord
100
AcDbBlockTableRecord
  2
開示A4
340
0
102
{BLKREFS
331
4C
102
}
  0
BLOCK_RECORD
  5
4B
330
1
100
AcDbSymbolTableRecord
100
AcDbBlockTableRecord
  2
開示A4枠
340
0
102
{BLKREFS
331
55
102
}
  0
BLOCK_RECORD
  5
4F
330
1
100
AcDbSymbolTableRecord
100
AcDbBlockTableRecord
  2
84-26B
340
0
102
{BLKREFS
331
56
102
}
  0
BLOCK_RECORD
  5
52
330
1
100
AcDbSymbolTableRecord
100
AcDbBlockTableRecord
  2
30-44
340
0
102
{BLKREFS
331
57
102
}
  0
BLOCK_RECORD
  5
12C
330
1
100
AcDbSymbolTableRecord
100
AcDbBlockTableRecord
  2
*D5
340
0
  0
BLOCK_RECORD
  5
137
330
1
100
AcDbSymbolTableRecord
100
AcDbBlockTableRecord
  2
*D6
340
0
  0
BLOCK_RECORD
  5
142
330
1
100
AcDbSymbolTableRecord
100
AcDbBlockTableRecord
  2
*D7
340
0
  0
ENDTAB
  0
ENDSEC
  0
SECTION
  2
BLOCKS
  0
BLOCK
  5
20
330
1F
100
AcDbEntity
  8
0
100
AcDbBlockBegin
  2
*Model_Space
 70
     0
 10
0.0
 20
0.0
 30
0.0
  3
*Model_Space
  1

  0
ENDBLK
  5
21
330
1F
100
AcDbEntity
  8
0
100
AcDbBlockEnd
  0
BLOCK
  5
1C
330
1B
100
AcDbEntity
 67
     1
  8
0
100
AcDbBlockBegin
  2
*Paper_Space
 70
     0
 10
0.0
 20
0.0
 30
0.0
  3
*Paper_Space
  1

  0
ENDBLK
  5
1D
330
1B
100
AcDbEntity
 67
     1
  8
0
100
AcDbBlockEnd
  0
BLOCK
  5
24
330
23
100
AcDbEntity
  8
0
100
AcDbBlockBegin
  2
*Paper_Space0
 70
     0
 10
0.0
 20
0.0
 30
0.0
  3
*Paper_Space0
  1

  0
ENDBLK
  5
25
330
23
100
AcDbEntity
  8
0
100
AcDbBlockEnd
  0
BLOCK
  5
49
330
48
100
AcDbEntity
  8
0
100
AcDbBlockBegin
  2
開示A4
 70
     0
 10
0.0
 20
0.0
 30
0.0
  3
開示A4
  1

  0
POINT
  5
58
330
48
100
AcDbEntity
  8
1
 62
     4
100
AcDbPoint
 10
183.0000000000001
 20
15.0
 30
0.0
  0
POINT
  5
59
330
48
100
AcDbEntity
  8
1
 62
     4
100
AcDbPoint
 10
93.75000000000006
 20
17.0
 30
0.0
  0
POINT
  5
5A
330
48
100
AcDbEntity
  8
1
 62
     4
100
AcDbPoint
 10
85.25000000000006
 20
17.0
 30
0.0
  0
POINT
  5
5B
330
48
100
AcDbEntity
  8
1
 62
     4
100
AcDbPoint
 10
106.5000000000001
 20
19.0
 30
0.0
  0
POINT
  5
5C
330
48
100
AcDbEntity
  8
1
 62
     4
100
AcDbPoint
 10
106.5000000000001
 20
12.5
 30
0.0
  0
POINT
  5
5D
330
48
100
AcDbEntity
  8
1
 62
     4
100
AcDbPoint
 10
112.2500000000001
 20
12.5
 30
0.0
  0
POINT
  5
5E
330
48
100
AcDbEntity
  8
1
 62
     4
100
AcDbPoint
 10
100.7500000000001
 20
12.5
 30
0.0
  0
POINT
  5
5F
330
48
100
AcDbEntity
  8
1
 62
     4
100
AcDbPoint
 10
123.5000000000001
 20
19.0
 30
0.0
  0
POINT
  5
60
330
48
100
AcDbEntity
  8
1
 62
     4
100
AcDbPoint
 10
123.5000000000001
 20
12.5
 30
0.0
  0
POINT
  5
61
330
48
100
AcDbEntity
  8
1
 62
     4
100
AcDbPoint
 10
129.2500000000001
 20
12.5
 30
0.0
  0
POINT
  5
62
330
48
100
AcDbEntity
  8
1
 62
     4
100
AcDbPoint
 10
117.7500000000001
 20
12.5
 30
0.0
  0
POINT
  5
63
330
48
100
AcDbEntity
  8
1
 62
     4
100
AcDbPoint
 10
140.5000000000001
 20
19.0
 30
0.0
  0
POINT
  5
64
330
48
100
AcDbEntity
  8
1
 62
     4
100
AcDbPoint
 10
140.5000000000001
 20
12.5
 30
0.0
  0
POINT
  5
65
330
48
100
AcDbEntity
  8
1
 62
     4
100
AcDbPoint
 10
146.2500000000001
 20
12.5
 30
0.0
  0
POINT
  5
66
330
48
100
AcDbEntity
  8
1
 62
     4
100
AcDbPoint
 10
134.7500000000001
 20
12.5
 30
0.0
  0
POINT
  5
67
330
48
100
AcDbEntity
  8
1
 62
     4
100
AcDbPoint
 10
151.7500000000001
 20
12.5
 30
0.0
  0
POINT
  5
68
330
48
100
AcDbEntity
  8
1
 62
     4
100
AcDbPoint
 10
163.2500000000001
 20
12.5
 30
0.0
  0
POINT
  5
69
330
48
100
AcDbEntity
  8
1
 62
     4
100
AcDbPoint
 10
157.5000000000001
 20
12.5
 30
0.0
  0
POINT
  5
6A
330
48
100
AcDbEntity
  8
1
 62
     4
100
AcDbPoint
 10
57.00000000000006
 20
14.25
 30
0.0
  0
POINT
  5
6B
330
48
100
AcDbEntity
  8
1
 62
     4
100
AcDbPoint
 10
57.00000000000006
 20
22.75
 30
0.0
  0
POINT
  5
6C
330
48
100
AcDbEntity
  8
1
 62
     4
100
AcDbPoint
 10
47.50000000000006
 20
282.0000000000003
 30
0.0
  0
POINT
  5
6D
330
48
100
AcDbEntity
  8
1
 62
     4
100
AcDbPoint
 10
157.5000000000001
 20
19.0
 30
0.0
  0
POINT
  5
6E
330
48
100
AcDbEntity
  8
1
 62
     4
100
AcDbPoint
 10
57.00000000000006
 20
16.25
 30
0.0
  0
POINT
  5
6F
330
48
100
AcDbEntity
  8
1
 62
     4
100
AcDbPoint
 10
57.00000000000006
 20
24.75
 30
0.0
  0
POINT
  5
70
330
48
100
AcDbEntity
  8
1
 62
     4
100
AcDbPoint
 10
57.00000000000006
 20
20.75
 30
0.0
  0
POINT
  5
71
330
48
100
AcDbEntity
  8
1
 62
     4
100
AcDbPoint
 10
57.00000000000006
 20
12.25
 30
0.0
  0
POINT
  5
72
330
48
100
AcDbEntity
  8
1
 62
     4
100
AcDbPoint
 10
34.00000000000006
 20
34.0
 30
0.0
  0
LINE
  5
77
330
48
100
AcDbEntity
  8
1
  6
Continuous
 62
     7
100
AcDbLine
 10
105.0000000000001
 20
10.0
 30
0.0
 11
200.0000000000001
 21
10.0
 31
0.0
  0
LINE
  5
78
330
48
100
AcDbEntity
  8
1
  6
Continuous
 62
     2
100
AcDbLine
 10
105.0000000000001
 20
10.0
 30
0.0
 11
105.0000000000001
 21
4.99999999999999
 31
0.0
  0
LINE
  5
79
330
48
100
AcDbEntity
  8
1
  6
Continuous
 62
     7
100
AcDbLine
 10
200.0000000000001
 20
148.5
 30
0.0
 11
200.0000000000001
 21
287.0000000000003
 31
0.0
  0
LINE
  5
7A
330
48
100
AcDbEntity
  8
1
  6
Continuous
 62
     2
100
AcDbLine
 10
200.0000000000001
 20
148.5
 30
0.0
 11
205.0000000000001
 21
148.5
 31
0.0
  0
LINE
  5
7B
330
48
100
AcDbEntity
  8
1
  6
Continuous
 62
     7
100
AcDbLine
 10
25.00000000000006
 20
148.5
 30
0.0
 11
25.00000000000006
 21
287.0000000000003
 31
0.0
  0
LINE
  5
7C
330
48
100
AcDbEntity
  8
1
  6
Continuous
 62
     2
100
AcDbLine
 10
25.00000000000006
 20
148.5
 30
0.0
 11
20.00000000000006
 21
148.5
 31
0.0
  0
LINE
  5
7D
330
48
100
AcDbEntity
  8
1
  6
Continuous
 62
     7
100
AcDbLine
 10
105.0000000000001
 20
287.0000000000003
 30
0.0
 11
25.00000000000006
 21
287.0000000000003
 31
0.0
  0
LINE
  5
7E
330
48
100
AcDbEntity
  8
1
  6
Continuous
 62
     2
100
AcDbLine
 10
105.0000000000001
 20
287.0000000000003
 30
0.0
 11
105.0000000000001
 21
292.0000000000003
 31
0.0
  0
LINE
  5
7F
330
48
100
AcDbEntity
  8
1
  6
Continuous
 62
     2
100
AcDbLine
 10
166.0000000000001
 20
20.0
 30
0.0
 11
200.0000000000001
 21
20.0
 31
0.0
  0
LINE
  5
80
330
48
100
AcDbEntity
  8
1
  6
Continuous
 62
     2
100
AcDbLine
 10
98.00000000000006
 20
27.0
 30
0.0
 11
98.00000000000006
 21
9.99999999999999
 31
0.0
  0
LINE
  5
81
330
48
100
AcDbEntity
  8
1
  6
Continuous
 62
     2
100
AcDbLine
 10
115.0000000000001
 20
27.0
 30
0.0
 11
115.0000000000001
 21
9.99999999999999
 31
0.0
  0
LINE
  5
82
330
48
100
AcDbEntity
  8
1
  6
Continuous
 62
     2
100
AcDbLine
 10
149.0000000000001
 20
27.0
 30
0.0
 11
149.0000000000001
 21
10.0
 31
0.0
  0
LINE
  5
83
330
48
100
AcDbEntity
  8
1
  6
Continuous
 62
     2
100
AcDbLine
 10
132.0000000000001
 20
27.0
 30
0.0
 11
132.0000000000001
 21
9.99999999999999
 31
0.0
  0
LINE
  5
84
330
48
100
AcDbEntity
  8
1
  6
Continuous
 62
     2
100
AcDbLine
 10
166.0000000000001
 20
27.0
 30
0.0
 11
166.0000000000001
 21
10.0
 31
0.0
  0
LINE
  5
85
330
48
100
AcDbEntity
  8
1
  6
Continuous
 62
     2
100
AcDbLine
 10
55.00000000000006
 20
277.0000000000003
 30
0.0
 11
25.00000000000006
 21
277.0000000000003
 31
0.0
  0
LINE
  5
86
330
48
100
AcDbEntity
  8
1
  6
Continuous
 62
     7
100
AcDbLine
 10
25.00000000000006
 20
10.0
 30
0.0
 11
25.00000000000006
 21
148.5
 31
0.0
  0
LINE
  5
87
330
48
100
AcDbEntity
  8
1
  6
Continuous
 62
     2
100
AcDbLine
 10
40.00000000000006
 20
287.0000000000003
 30
0.0
 11
40.00000000000006
 21
277.0000000000003
 31
0.0
  0
LINE
  5
88
330
48
100
AcDbEntity
  8
1
  6
Continuous
 62
     2
100
AcDbLine
 10
55.00000000000006
 20
287.0000000000003
 30
0.0
 11
55.00000000000006
 21
277.0000000000003
 31
0.0
  0
LINE
  5
89
330
48
100
AcDbEntity
  8
1
  6
Continuous
 62
     2
100
AcDbLine
 10
33.00000000000006
 20
41.0
 30
0.0
 11
33.00000000000006
 21
27.0
 31
0.0
  0
LINE
  5
8A
330
48
100
AcDbEntity
  8
1
  6
Continuous
 62
     7
100
AcDbLine
 10
200.0000000000001
 20
27.0
 30
0.0
 11
25.00000000000006
 21
27.0
 31
0.0
  0
LINE
  5
8B
330
48
100
AcDbEntity
  8
1
  6
Continuous
 62
     7
100
AcDbLine
 10
25.00000000000006
 20
41.0
 30
0.0
 11
200.0000000000001
 21
41.0
 31
0.0
  0
LINE
  5
8C
330
48
100
AcDbEntity
  8
1
  6
PHANTOM
 62
     4
100
AcDbLine
 10
0.0
 20
0.0
 30
0.0
 11
210.0000000000001
 21
0.0
 31
0.0
  0
LINE
  5
8D
330
48
100
AcDbEntity
  8
1
  6
PHANTOM
 62
     4
100
AcDbLine
 10
210.0000000000001
 20
0.0
 30
0.0
 11
210.0000000000001
 21
297.0
 31
0.0
  0
LINE
  5
8E
330
48
100
AcDbEntity
  8
1
  6
PHANTOM
 62
     4
100
AcDbLine
 10
210.0000000000001
 20
297.0
 30
0.0
 11
0.0
 21
297.0
 31
0.0
  0
LINE
  5
8F
330
48
100
AcDbEntity
  8
1
  6
PHANTOM
 62
     4
100
AcDbLine
 10
0.0
 20
297.0
 30
0.0
 11
0.0
 21
0.0
 31
0.0
  0
LINE
  5
90
330
48
100
AcDbEntity
  8
1
  6
Continuous
 62
     7
100
AcDbLine
 10
25.00000000000006
 20
10.0
 30
0.0
 11
105.0000000000001
 21
10.0
 31
0.0
  0
LINE
  5
91
330
48
100
AcDbEntity
  8
1
  6
Continuous
 62
     7
100
AcDbLine
 10
200.0000000000001
 20
10.0
 30
0.0
 11
200.0000000000001
 21
148.5
 31
0.0
  0
LINE
  5
92
330
48
100
AcDbEntity
  8
1
  6
Continuous
 62
     7
100
AcDbLine
 10
200.0000000000001
 20
287.0000000000003
 30
0.0
 11
105.0000000000001
 21
287.0000000000003
 31
0.0
  0
LINE
  5
93
330
48
100
AcDbEntity
  8
1
  6
Continuous
 62
     2
100
AcDbLine
 10
25.00000000000006
 20
18.5
 30
0.0
 11
81.00000000000006
 21
18.5
 31
0.0
  0
LINE
  5
94
330
48
100
AcDbEntity
  8
1
  6
Continuous
 62
     2
100
AcDbLine
 10
33.00000000000006
 20
27.0
 30
0.0
 11
33.00000000000006
 21
10.0
 31
0.0
  0
LINE
  5
95
330
48
100
AcDbEntity
  8
1
  6
Continuous
 62
     7
100
AcDbLine
 10
191.0000000000001
 20
24.7
 30
0.0
 11
191.0000000000001
 21
22.30000000000002
 31
0.0
  0
LINE
  5
96
330
48
100
AcDbEntity
  8
1
  6
Continuous
 62
     7
100
AcDbLine
 10
191.0000000000001
 20
24.7
 30
0.0
 11
196.0000000000001
 21
25.5
 31
0.0
  0
LINE
  5
97
330
48
100
AcDbEntity
  8
1
  6
Continuous
 62
     7
100
AcDbLine
 10
196.0000000000001
 20
25.5
 30
0.0
 11
196.0000000000001
 21
21.5
 31
0.0
  0
LINE
  5
98
330
48
100
AcDbEntity
  8
1
  6
Continuous
 62
     7
100
AcDbLine
 10
196.0000000000001
 20
21.5
 30
0.0
 11
191.0000000000001
 21
22.30000000000002
 31
0.0
  0
LINE
  5
99
330
48
100
AcDbEntity
  8
1
  6
DOT_CENTER
 62
     2
100
AcDbLine
 10
184.0000000000001
 20
23.5
 30
0.0
 11
197.0000000000001
 21
23.5
 31
0.0
  0
LINE
  5
9A
330
48
100
AcDbEntity
  8
1
  6
DOT_CENTER
 62
     2
100
AcDbLine
 10
187.0000000000001
 20
26.5
 30
0.0
 11
187.0000000000001
 21
20.5
 31
0.0
  0
LINE
  5
9B
330
48
100
AcDbEntity
  8
1
  6
Continuous
 62
     2
100
AcDbLine
 10
81.00000000000006
 20
27.0
 30
0.0
 11
81.00000000000006
 21
10.0
 31
0.0
  0
CIRCLE
  5
9C
330
48
100
AcDbEntity
  8
1
  6
Continuous
 62
     7
100
AcDbCircle
 10
103.5000000000001
 20
12.5
 30
0.0
 40
0.2999999999999972
  0
CIRCLE
  5
9D
330
48
100
AcDbEntity
  8
1
  6
Continuous
 62
     7
100
AcDbCircle
 10
109.5000000000001
 20
12.5
 30
0.0
 40
0.2999999999999972
  0
CIRCLE
  5
9E
330
48
100
AcDbEntity
  8
1
  6
Continuous
 62
     7
100
AcDbCircle
 10
120.5000000000001
 20
12.5
 30
0.0
 40
0.2999999999999972
  0
CIRCLE
  5
9F
330
48
100
AcDbEntity
  8
1
  6
Continuous
 62
     7
100
AcDbCircle
 10
126.5000000000001
 20
12.5
 30
0.0
 40
0.2999999999999972
  0
CIRCLE
  5
A0
330
48
100
AcDbEntity
  8
1
  6
Continuous
 62
     7
100
AcDbCircle
 10
137.5000000000001
 20
12.5
 30
0.0
 40
0.2999999999999829
  0
CIRCLE
  5
A1
330
48
100
AcDbEntity
  8
1
  6
Continuous
 62
     7
100
AcDbCircle
 10
143.5000000000001
 20
12.5
 30
0.0
 40
0.2999999999999829
  0
CIRCLE
  5
A2
330
48
100
AcDbEntity
  8
1
  6
Continuous
 62
     7
100
AcDbCircle
 10
160.5000000000001
 20
12.5
 30
0.0
 40
0.2999999999999829
  0
CIRCLE
  5
A3
330
48
100
AcDbEntity
  8
1
  6
Continuous
 62
     7
100
AcDbCircle
 10
154.5000000000001
 20
12.5
 30
0.0
 40
0.2999999999999829
  0
CIRCLE
  5
A4
330
48
100
AcDbEntity
  8
1
  6
Continuous
 62
     7
100
AcDbCircle
 10
187.0000000000001
 20
23.5
 30
0.0
 40
1.200000000000074
  0
CIRCLE
  5
A5
330
48
100
AcDbEntity
  8
1
  6
Continuous
 62
     7
100
AcDbCircle
 10
187.0000000000001
 20
23.5
 30
0.0
 40
2.0
  0
CIRCLE
  5
A6
330
48
100
AcDbEntity
  8
1
  6
DOT_CENTER
 62
     7
100
AcDbCircle
 10
89.50000000000006
 20
16.0
 30
0.0
 40
0.1000000000000227
  0
CIRCLE
  5
A7
330
48
100
AcDbEntity
  8
1
  6
DOT_CENTER
 62
     7
100
AcDbCircle
 10
89.50000000000006
 20
18.0
 30
0.0
 40
0.1000000000000227
  0
SPLINE
  5
A8
102
{ACAD_REACTORS
330
C7
102
}
330
48
100
AcDbEntity
  8
_U_30EC_U_30A4_U_30E4_U_30FC_1
  6
Continuous
 62
     2
100
AcDbSpline
210
0.0
220
0.0
230
1.0
 70
     8
 71
     3
 72
    24
 73
    20
 74
    18
 42
0.000000001
 43
0.0000000001
 44
0.00000001
 40
0.0
 40
0.0
 40
0.0
 40
0.0
 40
0.2211075008753739
 40
0.4273218586245375
 40
0.5080174679239171
 40
0.5914835907870544
 40
0.8143265690192968
 40
1.054651302686604
 40
1.295452694023195
 40
1.518109231328849
 40
1.540864321905464
 40
1.595126460622724
 40
1.659890947896038
 40
1.714153085187423
 40
1.736908174961695
 40
1.7649511007354
 40
1.801562291220962
 40
1.95391442454366
 40
2.126104167379727
 40
2.126104167379727
 40
2.126104167379727
 40
2.126104167379727
 10
185.937536955689
 20
15.58989295113015
 30
0.0
 10
185.9112579081813
 20
15.53097628234373
 30
0.0
 10
185.8604698894427
 20
15.41711139679256
 30
0.0
 10
185.8131784839112
 20
15.14441958233112
 30
0.0
 10
185.7043482802619
 20
15.24445482575457
 30
0.0
 10
185.5514800279637
 20
15.27118593367324
 30
0.0
 10
185.7686155181199
 20
15.48518135017633
 30
0.0
 10
185.7838483674382
 20
15.70332117782487
 30
0.0
 10
185.8906889492
 20
15.88451579066425
 30
0.0
 10
185.8305380947081
 20
16.16913226311401
 30
0.0
 10
185.9334317395402
 20
16.1411408922245
 30
0.0
 10
185.9779933468151
 20
16.13243251602299
 30
0.0
 10
186.0380842395397
 20
16.12139654183353
 30
0.0
 10
186.075661958744
 20
16.10767523055561
 30
0.0
 10
186.1252466928606
 20
16.10756076160221
 30
0.0
 10
186.0930158919326
 20
16.07306592398625
 30
0.0
 10
186.0171802221883
 20
16.08404104537961
 30
0.0
 10
186.0429447159693
 20
15.89858969582451
 30
0.0
 10
186.0055896763851
 20
15.80702313549589
 30
0.0
 10
185.985770496161
 20
15.75844135397704
 30
0.0
 11
185.937536955689
 21
15.58989295113015
 31
0.0
 11
185.8616471328553
 21
15.38221708318559
 31
0.0
 11
185.7717402238434
 21
15.19663392356191
 31
0.0
 11
185.7011493923111
 21
15.2357327256355
 31
0.0
 11
185.6245525192652
 21
15.26889163187718
 31
0.0
 11
185.7214026947456
 21
15.46958801203537
 31
0.0
 11
185.7994641467471
 21
15.69688163177024
 31
0.0
 11
185.8589716929721
 21
15.93021436608691
 31
0.0
 11
185.9001601511227
 21
16.14902808999053
 31
0.0
 11
185.9224183822215
 21
16.14429889221394
 31
0.0
 11
185.9754957025341
 21
16.13302157443899
 31
0.0
 11
186.0388460525845
 21
16.11956154999791
 31
0.0
 11
186.0919233728971
 21
16.10828423222296
 31
0.0
 11
186.1141816039959
 21
16.10355503444637
 31
0.0
 11
186.0964097157461
 21
16.0818625084101
 31
0.0
 11
186.0606122998072
 21
16.07418628445367
 31
0.0
 11
186.028195330148
 21
15.92532288171312
 31
0.0
 11
185.985770496161
 21
15.75844135397704
 31
0.0
  0
SPLINE
  5
A9
102
{ACAD_REACTORS
330
C7
102
}
330
48
100
AcDbEntity
  8
_U_30EC_U_30A4_U_30E4_U_30FC_1
  6
Continuous
 62
     2
100
AcDbSpline
210
0.0
220
0.0
230
1.0
 70
     8
 71
     3
 72
    70
 73
    66
 74
    64
 42
0.000000001
 43
0.0000000001
 44
0.00000001
 40
0.0
 40
0.0
 40
0.0
 40
0.0
 40
0.0241731073021472
 40
0.0846058988987297
 40
0.1631685280353284
 40
0.2417311571789756
 40
0.3021639488292751
 40
0.3263370654895825
 40
0.3533118254249165
 40
0.4228783438922431
 40
0.5179999095313758
 40
0.6216398239466422
 40
0.7167613891500096
 40
0.7863279069650254
 40
0.8133026791762227
 40
0.8372943998772064
 40
0.8945054261372977
 40
0.9627895541962747
 40
1.020000580349084
 40
1.043992300975183
 40
1.071934345522919
 40
1.113121768772929
 40
1.145225199332254
 40
1.225483775412792
 40
1.329819923771504
 40
1.434156071994398
 40
1.514414647795819
 40
1.546518078208427
 40
1.578974764260229
 40
1.662678849314167
 40
1.777131373668416
 40
1.901833377474807
 40
2.016285900500597
 40
2.099989982527964
 40
2.132446666570322
 40
2.158782354486046
 40
2.216720867907835
 40
2.274659381334256
 40
2.300995069256192
 40
2.333451754066164
 40
2.417155836543845
 40
2.531608358985284
 40
2.656310362283779
 40
2.770762886388912
 40
2.854466971340077
 40
2.886923657363884
 40
2.913597976833316
 40
2.982389642875122
 40
3.076451716946986
 40
3.178937260458598
 40
3.272999334740003
 40
3.341791001059224
 40
3.368465320663537
 40
3.396976080738758
 40
3.472140811845966
 40
3.578408190308656
 40
3.700226892456064
 40
3.822045594634281
 40
3.928312973256359
 40
4.003477705314756
 40
4.031988456866822
 40
4.05832414479762
 40
4.116262658236781
 40
4.174201171400579
 40
4.200536849608513
 40
4.200536849608513
 40
4.200536849608513
 40
4.200536849608513
 10
185.985770496161
 20
15.75844135397704
 30
0.0
 10
185.993825954468
 20
15.75844359811685
 30
0.0
 10
186.0220200663242
 20
15.75845146032797
 30
0.0
 10
186.0765534803674
 20
15.7583075482837
 30
0.0
 10
186.1482891808604
 20
15.75909120499896
 30
0.0
 10
186.2236240137063
 20
15.7562757046381
 30
0.0
 10
186.2713052366439
 20
15.76298403400956
 30
0.0
 10
186.3195071245617
 20
15.75197563692431
 30
0.0
 10
186.3062571799875
 20
15.80546402997032
 30
0.0
 10
186.3151093964539
 20
15.86049583543091
 30
0.0
 10
186.3108698036287
 20
15.95419908726108
 30
0.0
 10
186.3133483481281
 20
16.04959482218531
 30
0.0
 10
186.3090938706062
 20
16.14356821983387
 30
0.0
 10
186.3179818665847
 20
16.19795062438012
 30
0.0
 10
186.3046977409946
 20
16.2523399769146
 30
0.0
 10
186.351411927711
 20
16.23842216335359
 30
0.0
 10
186.3943254545738
 20
16.24103877374043
 30
0.0
 10
186.4605443456685
 20
16.23648422450754
 30
0.0
 10
186.5013342271799
 20
16.22778162134162
 30
0.0
 10
186.5525145690819
 20
16.23531799890195
 30
0.0
 10
186.5253720487201
 20
16.19349970223284
 30
0.0
 10
186.4803096055708
 20
16.20284992072597
 30
0.0
 10
186.4942065045051
 20
16.13841207371837
 30
0.0
 10
186.4858414431655
 20
16.07378219627398
 30
0.0
 10
186.4903632178399
 20
15.97529141193887
 30
0.0
 10
186.4854741311169
 20
15.8759593284257
 30
0.0
 10
186.4950258992081
 20
15.81293115552966
 30
0.0
 10
186.4799761455202
 20
15.74964011499787
 30
0.0
 10
186.5449159457208
 20
15.76515072944267
 30
0.0
 10
186.6116246399498
 20
15.75499387697812
 30
0.0
 10
186.7241435470827
 20
15.75988800099366
 30
0.0
 10
186.8390235448954
 20
15.75691204732783
 30
0.0
 10
186.9519871999748
 20
15.7622166418499
 30
0.0
 10
187.0176267597679
 20
15.75107306472088
 30
0.0
 10
187.0816276691054
 20
15.76744532319856
 30
0.0
 10
187.070314288919
 20
15.71761689905274
 30
0.0
 10
187.077533987151
 20
15.67416715212121
 30
0.0
 10
187.070314261127
 20
15.63071745587443
 30
0.0
 10
187.0816277175994
 20
15.58088895196875
 30
0.0
 10
187.0176263598972
 20
15.59726166091361
 30
0.0
 10
186.951992124046
 20
15.58611271661587
 30
0.0
 10
186.8389974317331
 20
15.59144857206852
 30
0.0
 10
186.7242456548644
 20
15.58834345663821
 30
0.0
 10
186.6113183686862
 20
15.59364894682587
 30
0.0
 10
186.5455220903585
 20
15.58257300019592
 30
0.0
 10
186.4816097975359
 20
15.59887597847617
 30
0.0
 10
186.4936015165127
 20
15.5442352439574
 30
0.0
 10
186.4862104613006
 20
15.48854295047841
 30
0.0
 10
186.4892684841984
 20
15.39649689140569
 30
0.0
 10
186.4893422785684
 20
15.301791098731
 30
0.0
 10
186.4860313578361
 20
15.20952782902264
 30
0.0
 10
186.4939505989904
 20
15.15435768736139
 30
0.0
 10
186.4815076611618
 20
15.10058169100135
 30
0.0
 10
186.5389116551633
 20
15.1145376886278
 30
0.0
 10
186.5994708140383
 20
15.10511457884226
 30
0.0
 10
186.7048680855081
 20
15.10942885928703
 30
0.0
 10
186.8204294070623
 20
15.1083550461203
 30
0.0
 10
186.9359688877797
 20
15.10725965900994
 30
0.0
 10
187.0414181130841
 20
15.11162525770631
 30
0.0
 10
187.1018680471804
 20
15.10209426030669
 30
0.0
 10
187.159283773911
 20
15.11617289606378
 30
0.0
 10
187.1477773876709
 20
15.06707153265682
 30
0.0
 10
187.1537566781749
 20
15.02564658018648
 30
0.0
 10
187.1520311050801
 20
14.97651677966694
 30
0.0
 10
187.1521500122971
 20
14.94854428447607
 30
0.0
 10
187.1521871691833
 20
14.93980288195949
 30
0.0
 11
185.985770496161
 21
15.75844135397704
 31
0.0
 11
186.0099436128282
 21
15.75844135397704
 31
0.0
 11
186.0703764044964
 21
15.75844135397704
 31
0.0
 11
186.1489390336649
 21
15.75844135397704
 31
0.0
 11
186.2275016628334
 21
15.75844135397704
 31
0.0
 11
186.2879344545015
 21
15.75844135397704
 31
0.0
 11
186.3121075711688
 21
15.75844135397704
 31
0.0
 11
186.3121075711688
 21
15.78541612620062
 31
0.0
 11
186.3121075711688
 21
15.85498264404038
 31
0.0
 11
186.3121075711688
 21
15.95010420924985
 31
0.0
 11
186.3121075711688
 21
16.05374412358255
 31
0.0
 11
186.3121075711688
 21
16.14886568879202
 31
0.0
 11
186.3121075711688
 21
16.21843220663178
 31
0.0
 11
186.3121075711688
 21
16.24540697885536
 31
0.0
 11
186.3360407604893
 21
16.243732131078
 31
0.0
 11
186.3931122119459
 21
16.23973826330121
 31
0.0
 11
186.4612297507811
 21
16.23497138885795
 31
0.0
 11
186.5183012022377
 21
16.23097752108117
 31
0.0
 11
186.5422343915582
 21
16.22930267330381
 31
0.0
 11
186.527497273123
 21
16.20556293372639
 31
0.0
 11
186.4886640249977
 21
16.19183767331312
 31
0.0
 11
186.4886640249977
 21
16.15973424225119
 31
0.0
 11
186.4886640249977
 21
16.07947566459636
 31
0.0
 11
186.4886640249977
 21
15.97513951364508
 31
0.0
 11
186.4886640249977
 21
15.8708033626938
 31
0.0
 11
186.4886640249977
 21
15.79054478503897
 31
0.0
 11
186.4886640249977
 21
15.75844135397704
 31
0.0
 11
186.5211207110825
 21
15.75844135397704
 31
0.0
 11
186.6048247962486
 21
15.75844135397704
 31
0.0
 11
186.7192773208635
 21
15.75844135397704
 31
0.0
 11
186.8439793252947
 21
15.75844135397704
 31
0.0
 11
186.9584318499095
 21
15.75844135397704
 31
0.0
 11
187.0421359350757
 21
15.75844135397704
 31
0.0
 11
187.0745926211605
 21
15.75844135397704
 31
0.0
 11
187.0745926211605
 21
15.7321056660496
 31
0.0
 11
187.0745926211605
 21
15.67416715260923
 31
0.0
 11
187.0745926211605
 21
15.61622863916887
 31
0.0
 11
187.0745926211605
 21
15.58989295124143
 31
0.0
 11
187.0421359350757
 21
15.58989295124143
 31
0.0
 11
186.9584318499095
 21
15.58989295124143
 31
0.0
 11
186.8439793252947
 21
15.58989295124143
 31
0.0
 11
186.7192773208635
 21
15.58989295124143
 31
0.0
 11
186.6048247962486
 21
15.58989295124143
 31
0.0
 11
186.5211207110825
 21
15.58989295124143
 31
0.0
 11
186.4886640249977
 21
15.58989295124143
 31
0.0
 11
186.4886640249977
 21
15.56321863152021
 31
0.0
 11
186.4886640249977
 21
15.49442696487074
 31
0.0
 11
186.4886640249977
 21
15.40036489006433
 31
0.0
 11
186.4886640249977
 21
15.29787934587226
 31
0.0
 11
186.4886640249977
 21
15.20381727106585
 31
0.0
 11
186.4886640249977
 21
15.13502560441638
 31
0.0
 11
186.4886640249977
 21
15.10835128469516
 31
0.0
 11
186.5171747850994
 21
15.10835128469516
 31
0.0
 11
186.5923395162767
 21
15.10835128469516
 31
0.0
 11
186.6986068948377
 21
15.10835128469516
 31
0.0
 11
186.8204255970905
 21
15.10835128469516
 31
0.0
 11
186.9422442993433
 21
15.10835128469516
 31
0.0
 11
187.0485116779043
 21
15.10835128469516
 31
0.0
 11
187.1236764090816
 21
15.10835128469516
 31
0.0
 11
187.1521871691833
 21
15.10835128469516
 31
0.0
 11
187.1521871691833
 21
15.08201559676771
 31
0.0
 11
187.1521871691833
 21
15.02407708332733
 31
0.0
 11
187.1521871691833
 21
14.96613856988694
 31
0.0
 11
187.1521871691833
 21
14.93980288195949
 31
0.0
  0
SPLINE
  5
AA
102
{ACAD_REACTORS
330
C7
102
}
330
48
100
AcDbEntity
  8
_U_30EC_U_30A4_U_30E4_U_30FC_1
  6
Continuous
 62
     2
100
AcDbSpline
210
0.0
220
0.0
230
1.0
 70
     8
 71
     3
 72
    62
 73
    58
 74
    56
 42
0.000000001
 43
0.0000000001
 44
0.00000001
 40
0.0
 40
0.0
 40
0.0
 40
0.0
 40
0.0598250028308485
 40
0.2024846486897047
 40
0.3727558389220178
 40
0.5154154847934933
 40
0.5752404975784202
 40
0.933232677548608
 40
1.29045176283934
 40
1.602077253145738
 40
1.699931634111996
 40
1.799359756424964
 40
2.270120149656966
 40
2.804661928461401
 40
2.882342287383111
 40
3.076543185718961
 40
3.329004354835421
 40
3.581465524568246
 40
3.775666424543527
 40
3.853346784558147
 40
3.899120679594921
 40
3.984129341791862
 40
4.02990323681721
 40
4.105797496059365
 40
4.295533144152325
 40
4.54218948661156
 40
4.788845828875509
 40
4.978581476409889
 40
5.054475735244132
 40
5.621734664339158
 40
6.130867242037174
 40
6.225249780948401
 40
6.318913039727106
 40
6.663579954558699
 40
7.047498900224531
 40
7.435230791575428
 40
7.49894390666784
 40
7.650875181209777
 40
7.832212509001259
 40
7.984143783696645
 40
8.047856898902772
 40
8.091554632732278
 40
8.172707566963936
 40
8.216405300767658
 40
8.289021782160543
 40
8.462184160756888
 40
8.668861838005053
 40
8.842024215263617
 40
8.914640695474812
 40
8.989881580861017
 40
9.155411528826924
 40
9.32094147774371
 40
9.39618235248696
 40
9.45470901114345
 40
9.58346766017047
 40
9.712226309012692
 40
9.770752957989174
 40
9.770752957989174
 40
9.770752957989174
 40
9.770752957989174
 10
187.1521871691833
 20
14.93980288195949
 30
0.0
 10
187.1322348171623
 20
14.93980875568671
 30
0.0
 10
187.0647037716465
 20
14.93982863806156
 30
0.0
 10
186.9410612161788
 20
14.93949362520324
 30
0.0
 10
186.7863180150057
 20
14.94107673750511
 30
0.0
 10
186.6697349482481
 20
14.93686078860494
 30
0.0
 10
186.4550942634241
 20
14.95215205331625
 30
0.0
 10
186.8518948407229
 20
14.59198721286192
 30
0.0
 10
186.8945656069268
 20
14.37510503397165
 30
0.0
 10
187.3189162146611
 20
14.19325062511447
 30
0.0
 10
187.1439821496075
 20
14.08985196568069
 30
0.0
 10
187.0194523925083
 20
13.87831523212733
 30
0.0
 10
186.7666277235944
 20
14.34806081001559
 30
0.0
 10
186.4797602893627
 20
14.9951151698452
 30
0.0
 10
186.4906335926662
 20
14.68782672154693
 30
0.0
 10
186.488289277796
 20
14.52288616971777
 30
0.0
 10
186.4861096126412
 20
14.28879670711693
 30
0.0
 10
186.4980774396348
 20
14.04498072421783
 30
0.0
 10
186.4687984740632
 20
13.89855796860984
 30
0.0
 10
186.511452262547
 20
13.75113490174537
 30
0.0
 10
186.4239814005641
 20
13.7668579730622
 30
0.0
 10
186.3768527606745
 20
13.76694303543454
 30
0.0
 10
186.2898973207714
 20
13.75109425482909
 30
0.0
 10
186.3313474021724
 20
13.89527771422762
 30
0.0
 10
186.3029875004286
 20
14.03855052698455
 30
0.0
 10
186.31459737753
 20
14.27674947365264
 30
0.0
 10
186.3124175648273
 20
14.50517235240345
 30
0.0
 10
186.3103111127995
 20
14.66705729375994
 30
0.0
 10
186.3208035438323
 20
14.98153709333751
 30
0.0
 10
186.0128963252894
 20
14.29229470872437
 30
0.0
 10
185.7055258267457
 20
13.8147675024305
 30
0.0
 10
185.5851367066275
 20
14.03741112637426
 30
0.0
 10
185.4074607910723
 20
14.15011034955567
 30
0.0
 10
185.8853326362895
 20
14.3254814346546
 30
0.0
 10
185.9353959057207
 20
14.56091929252029
 30
0.0
 10
186.3583799621718
 20
14.95322989344607
 30
0.0
 10
186.127675427354
 20
14.93655307029065
 30
0.0
 10
186.0049685859341
 20
14.94269518948769
 30
0.0
 10
185.8325483095662
 20
14.93312822699573
 30
0.0
 10
185.721322469445
 20
14.95448818489665
 30
0.0
 10
185.6025779627448
 20
14.92136265357419
 30
0.0
 10
185.6183169706687
 20
15.00203900606883
 30
0.0
 10
185.6178550933762
 20
15.04645414290853
 30
0.0
 10
185.6027881889932
 20
15.12967081778532
 30
0.0
 10
185.7372380935444
 20
15.09062651983881
 30
0.0
 10
185.8619755545747
 20
15.11739729328421
 30
0.0
 10
186.0628755237281
 20
15.10063949044051
 30
0.0
 10
186.1921540949354
 20
15.12204225913002
 30
0.0
 10
186.3328419928296
 20
15.0886877885342
 30
0.0
 10
186.2980927452617
 20
15.22651875785066
 30
0.0
 10
186.3222185666713
 20
15.3496325734948
 30
0.0
 10
186.2967086182393
 20
15.47024055670333
 30
0.0
 10
186.3333251146686
 20
15.60539865141492
 30
0.0
 10
186.221141702777
 20
15.58094545781889
 30
0.0
 10
186.1280356457138
 20
15.59307749842021
 30
0.0
 10
186.0191547579821
 20
15.58957630069993
 30
0.0
 10
185.9569697640965
 20
15.58981755951601
 30
0.0
 10
185.9375369557247
 20
15.58989295124143
 30
0.0
 11
187.1521871691833
 21
14.93980288195949
 31
0.0
 11
187.0923621563982
 21
14.93980288195949
 31
0.0
 11
186.949702510526
 21
14.93980288195949
 31
0.0
 11
186.7794313202914
 21
14.93980288195949
 31
0.0
 11
186.6367716744192
 21
14.93980288195949
 31
0.0
 11
186.5769466616341
 21
14.93980288195949
 31
0.0
 11
186.7679960754843
 21
14.6370512796689
 31
0.0
 11
186.994127278563
 21
14.36051890576684
 31
0.0
 11
187.2244526173372
 21
14.15061253493457
 31
0.0
 11
187.1521596330705
 21
14.08466403668716
 31
0.0
 11
187.0879364402643
 21
14.0087605905256
 31
0.0
 11
186.7732818215559
 21
14.35891458349363
 31
0.0
 11
186.4886640249977
 21
14.811382951436
 31
0.0
 11
186.4886640249977
 21
14.73370259137312
 31
0.0
 11
186.4886640249977
 21
14.53950169121592
 31
0.0
 11
186.4886640249977
 21
14.28704052101156
 31
0.0
 11
186.4886640249977
 21
14.0345793508072
 31
0.0
 11
186.4886640249977
 21
13.84037845065
 31
0.0
 11
186.4886640249977
 21
13.76269809058712
 31
0.0
 11
186.4428901295606
 21
13.76269809058712
 31
0.0
 11
186.3578814666059
 21
13.76269809058712
 31
0.0
 11
186.3121075711688
 21
13.76269809058712
 31
0.0
 11
186.3121075711688
 21
13.8385923498274
 31
0.0
 11
186.3121075711688
 21
14.02832799792811
 31
0.0
 11
186.3121075711688
 21
14.27498434045903
 31
0.0
 11
186.3121075711688
 21
14.52164068298995
 31
0.0
 11
186.3121075711688
 21
14.71137633109065
 31
0.0
 11
186.3121075711688
 21
14.78727059033094
 31
0.0
 11
185.9987626399267
 21
14.31440946197693
 31
0.0
 11
185.6352328662149
 21
13.95795177109381
 31
0.0
 11
185.5773927461628
 21
14.03253450545021
 31
0.0
 11
185.5094852305342
 21
14.09704322939243
 31
0.0
 11
185.775072189832
 21
14.31672219795889
 31
0.0
 11
186.0233764972062
 21
14.60953395971697
 31
0.0
 11
186.226498280526
 21
14.93980288195949
 31
0.0
 11
186.1627851652721
 21
14.93980288195949
 31
0.0
 11
186.0108538904359
 21
14.93980288195949
 31
0.0
 11
185.8295165624056
 21
14.93980288195949
 31
0.0
 11
185.6775852875694
 21
14.93980288195949
 31
0.0
 11
185.6138721723155
 21
14.93980288195949
 31
0.0
 11
185.6138721723155
 21
14.98350061600207
 31
0.0
 11
185.6138721723155
 21
15.06465355065258
 31
0.0
 11
185.6138721723155
 21
15.10835128469516
 31
0.0
 11
185.6864886537962
 21
15.10835128469516
 31
0.0
 11
185.8596510327119
 21
15.10835128469516
 31
0.0
 11
186.0663287107725
 21
15.10835128469516
 31
0.0
 11
186.2394910896881
 21
15.10835128469516
 31
0.0
 11
186.3121075711688
 21
15.10835128469516
 31
0.0
 11
186.3121075711688
 21
15.18359217009301
 31
0.0
 11
186.3121075711688
 21
15.34912211796829
 31
0.0
 11
186.3121075711688
 21
15.51465206584358
 31
0.0
 11
186.3121075711688
 21
15.58989295124143
 31
0.0
 11
186.2535809125057
 21
15.58989295124143
 31
0.0
 11
186.1248222634468
 21
15.58989295124143
 31
0.0
 11
185.9960636143879
 21
15.58989295124143
 31
0.0
 11
185.9375369557247
 21
15.58989295124143
 31
0.0
  0
SPLINE
  5
AB
102
{ACAD_REACTORS
330
C8
102
}
330
48
100
AcDbEntity
  8
_U_30EC_U_30A4_U_30E4_U_30FC_1
  6
Continuous
 62
     2
100
AcDbSpline
210
0.0
220
0.0
230
1.0
 70
    11
 71
     3
 72
   124
 73
   120
 74
   118
 42
0.000000001
 43
0.0000000001
 44
0.00000001
 40
0.0
 40
0.0
 40
0.0
 40
0.0
 40
0.0278187229624226
 40
0.1011590162383985
 40
0.2048470170590239
 40
0.3237088716558961
 40
0.4425707262522
 40
0.5462587270699263
 40
0.6195990203312082
 40
0.647417752257866
 40
0.6750060736115242
 40
0.7357003855242812
 40
0.7963946998054563
 40
0.8239830245571873
 40
0.8540933811103251
 40
0.9373396629409363
 40
1.063094687343246
 40
1.220731268638084
 40
1.399622220914758
 40
1.589140358637771
 40
1.778658496423852
 40
1.957549448940548
 40
2.115186030873141
 40
2.240941056914473
 40
2.324187341760543
 40
2.354297700109393
 40
2.381886024671901
 40
2.442580338710493
 40
2.503274652750517
 40
2.530862977314627
 40
2.56098394927858
 40
2.640393784452926
 40
2.752662861759149
 40
2.881361560118138
 40
3.010060258455185
 40
3.122329335705389
 40
3.201739170817945
 40
3.231860142753335
 40
3.264298024030389
 40
3.352343701778261
 40
3.482095226868782
 40
3.639650650173039
 40
3.811108022565494
 40
3.982565394928
 40
4.140120818152579
 40
4.269872343141286
 40
4.357918020802347
 40
4.390355902043976
 40
4.423256253992546
 40
4.508104530073038
 40
4.624121560636806
 40
4.750528176031534
 40
4.86654520660201
 40
4.951393482691967
 40
4.984293834645368
 40
5.011450833242285
 40
5.071196230152075
 40
5.130941627057154
 40
5.158098625648821
 40
5.190998977601484
 40
5.275847253689309
 40
5.391864284256772
 40
5.518270899648289
 40
5.634287930209299
 40
5.719136206287973
 40
5.752036558235889
 40
5.782130946282915
 40
5.862783906229089
 40
5.979550131774956
 40
6.117984316640363
 40
6.263641154587908
 40
6.402075339414114
 40
6.518841564907908
 40
6.59949452481549
 40
6.629588912848727
 40
6.654403028226303
 40
6.71357514948807
 40
6.784199939329416
 40
6.843372060493518
 40
6.868186175802736
 40
6.896246243201831
 40
6.939586233758201
 40
6.967846564564828
 40
7.043584251089767
 40
7.153234334451625
 40
7.283231855734375
 40
7.420011856035408
 40
7.55000937657976
 40
7.65965945883516
 40
7.735397144417153
 40
7.763657474851325
 40
7.796409728010982
 40
7.880876065096256
 40
7.996370852465642
 40
8.122208446418536
 40
8.23770322479913
 40
8.322169562010853
 40
8.354921815205838
 40
8.38207881330762
 40
8.44182420920693
 40
8.501569605240084
 40
8.528726603485664
 40
8.561478856695684
 40
8.645945193877735
 40
8.761439980865275
 40
8.887277580764417
 40
9.002772362000938
 40
9.08723869666113
 40
9.119990949235612
 40
9.15242883061331
 40
9.240474508638526
 40
9.370226034149473
 40
9.527781457984355
 40
9.699238830981344
 40
9.870696203978532
 40
10.02825162781395
 40
10.15800315332557
 40
10.24604883135112
 40
10.27848670378514
 40
10.27848670378514
 40
10.27848670378514
 40
10.27848670378514
 10
195.3821827564384
 20
14.01410517385757
 30
0.0
 10
195.3914554737524
 20
14.01410498511274
 30
0.0
 10
195.4251744536861
 20
14.01410430876714
 30
0.0
 10
195.4934706812466
 20
14.01411807243305
 30
0.0
 10
195.592014171158
 20
14.01403224219544
 30
0.0
 10
195.7062066464812
 20
14.0144175561225
 30
0.0
 10
195.8185894417072
 20
14.01300835897545
 30
0.0
 10
195.9214376600117
 20
14.01719117422243
 30
0.0
 10
195.980683987485
 20
14.00823089251982
 30
0.0
 10
196.0371265937033
 20
14.0216443452606
 30
0.0
 10
196.0246255586956
 20
13.9708719861336
 30
0.0
 10
196.0329549635704
 20
13.92589320939067
 30
0.0
 10
196.024817084112
 20
13.88056752990487
 30
0.0
 10
196.0370529214458
 20
13.82931932408465
 30
0.0
 10
195.9747773490334
 20
13.84447955365274
 30
0.0
 10
195.9060513026869
 20
13.83359750710742
 30
0.0
 10
195.7782756749592
 20
13.83911304747971
 30
0.0
 10
195.6262984511644
 20
13.83700851253698
 30
0.0
 10
195.4502695972523
 20
13.83771002588473
 30
0.0
 10
195.2644431934288
 20
13.8374523753129
 30
0.0
 10
195.0786167437176
 20
13.83771005144602
 30
0.0
 10
194.9025880142169
 20
13.8370084184773
 30
0.0
 10
194.7506104154195
 20
13.83911332229988
 30
0.0
 10
194.6228357664555
 20
13.83359680767639
 30
0.0
 10
194.5541077836582
 20
13.84448077125941
 30
0.0
 10
194.4918349042883
 20
13.82931786684208
 30
0.0
 10
194.5040616290019
 20
13.88057510805171
 30
0.0
 10
194.4960004462597
 20
13.92582473272424
 30
0.0
 10
194.5040675809893
 20
13.97106357955323
 30
0.0
 10
194.4918238487084
 20
14.02234176909958
 30
0.0
 10
194.5525017120699
 20
14.00749577363135
 30
0.0
 10
194.6162810745737
 20
14.01756448170735
 30
0.0
 10
194.7277314353503
 20
14.01294644212
 30
0.0
 10
194.8497533443824
 20
14.01413328905469
 30
0.0
 10
194.9719538137824
 20
14.01515863900635
 30
0.0
 10
195.0829794287392
 20
14.01092475623402
 30
0.0
 10
195.1476517413959
 20
14.02018584521739
 30
0.0
 10
195.2091162810502
 20
14.00604423049682
 30
0.0
 10
195.1930065601338
 20
14.07235527884516
 30
0.0
 10
195.2042980327359
 20
14.14447790121976
 30
0.0
 10
195.1987400822561
 20
14.27513760888285
 30
0.0
 10
195.2008035061691
 20
14.42607323708241
 30
0.0
 10
195.2000167127295
 20
14.59335873107885
 30
0.0
 10
195.2007845215629
 20
14.76061110332302
 30
0.0
 10
195.1988038785628
 20
14.91163289269912
 30
0.0
 10
195.2041306156621
 20
15.04206069552994
 30
0.0
 10
195.1933101388426
 20
15.11465442605898
 30
0.0
 10
195.2090326429876
 20
15.18150469436797
 30
0.0
 10
195.1432708132492
 20
15.16580512490823
 30
0.0
 10
195.0756367830764
 20
15.17609243083994
 30
0.0
 10
194.9615885293811
 20
15.1711378684712
 30
0.0
 10
194.8451242674903
 20
15.17414128030474
 30
0.0
 10
194.7306554121478
 20
15.16880303143388
 30
0.0
 10
194.6640324657814
 20
15.18001268074824
 30
0.0
 10
194.5990769715186
 20
15.1634913266501
 30
0.0
 10
194.610798975871
 20
15.21473720477058
 30
0.0
 10
194.6032830189122
 20
15.25950333784091
 30
0.0
 10
194.6107989878836
 20
15.30426944897961
 30
0.0
 10
194.5990769505348
 20
15.3555153612974
 30
0.0
 10
194.6640326339201
 20
15.33899381766816
 30
0.0
 10
194.7306533339821
 20
15.35020571373943
 30
0.0
 10
194.8451352858065
 20
15.34485436710665
 30
0.0
 10
194.9615454436963
 20
15.34791188771117
 30
0.0
 10
195.0757660174641
 20
15.34278499010708
 30
0.0
 10
195.1430150439228
 20
15.35345733355599
 30
0.0
 10
195.2083325941439
 20
15.33742082669076
 30
0.0
 10
195.1941391448553
 20
15.39949685750054
 30
0.0
 10
195.2036059462996
 20
15.46586761628762
 30
0.0
 10
195.1990269004085
 20
15.58239972741966
 30
0.0
 10
195.2007696555949
 20
15.71426685022376
 30
0.0
 10
195.1997551495392
 20
15.85615960150273
 30
0.0
 10
195.2017191344372
 20
15.9876905070258
 30
0.0
 10
195.1964668553852
 20
16.10524577283002
 30
0.0
 10
195.2073408763474
 20
16.16947789001584
 30
0.0
 10
195.1919536641855
 20
16.23108802545047
 30
0.0
 10
195.2407591537801
 20
16.21702407382111
 30
0.0
 10
195.2853995564727
 20
16.21954742075314
 30
0.0
 10
195.3538643946743
 20
16.21512797401709
 30
0.0
 10
195.3959106169104
 20
16.20613025544036
 30
0.0
 10
195.4487544758776
 20
16.21411714866509
 30
0.0
 10
195.4207035002015
 20
16.17113917611675
 30
0.0
 10
195.3749142248595
 20
16.18259552043836
 30
0.0
 10
195.3869539073265
 20
16.12173520005136
 30
0.0
 10
195.3796086070643
 20
16.05769299468773
 30
0.0
 10
195.3831195826162
 20
15.94909368863911
 30
0.0
 10
195.3819806760175
 20
15.82494319144753
 30
0.0
 10
195.3819174780263
 20
15.69189719829878
 30
0.0
 10
195.3832872966868
 20
15.56797381249555
 30
0.0
 10
195.3791638801314
 20
15.45868337849339
 30
0.0
 10
195.3877763103565
 20
15.3960858009417
 30
0.0
 10
195.3746757454402
 20
15.33740133296365
 30
0.0
 10
195.4393884328199
 20
15.35362113810902
 30
0.0
 10
195.5060405953157
 20
15.34270260383311
 30
0.0
 10
195.6198779541103
 20
15.34793740173756
 30
0.0
 10
195.7357259122098
 20
15.34485547516913
 30
0.0
 10
195.8496924263281
 20
15.35018259812512
 30
0.0
 10
195.91603410181
 20
15.33904208166543
 30
0.0
 10
195.980718852548
 20
15.35546979593177
 30
0.0
 10
195.9689820772724
 20
15.30425925210051
 30
0.0
 10
195.9765168063041
 20
15.25950334121
 30
0.0
 10
195.9689820992259
 20
15.21474739010027
 30
0.0
 10
195.9807188140738
 20
15.1635369087104
 30
0.0
 10
195.9160344075253
 20
15.17996427794218
 30
0.0
 10
195.8496886430826
 20
15.16882784447269
 30
0.0
 10
195.7357459487013
 20
15.17413115893119
 30
0.0
 10
195.6197995623055
 20
15.17114764593543
 30
0.0
 10
195.5062756882124
 20
15.17606892268392
 30
0.0
 10
195.4389231318805
 20
15.16585087513518
 30
0.0
 10
195.3734285122496
 20
15.18145996138815
 30
0.0
 10
195.3891713619218
 20
15.1146385182741
 30
0.0
 10
195.3783275998215
 20
15.04207057815878
 30
0.0
 10
195.3836581629792
 20
14.91162247614416
 30
0.0
 10
195.3817136151856
 20
14.76064558185225
 30
0.0
 10
195.3823133683215
 20
14.59322243934158
 30
0.0
 10
195.3821506559605
 20
14.42656176118371
 30
0.0
 10
195.3821895488136
 20
14.27360142921636
 30
0.0
 10
195.38218164131
 20
14.14849178985705
 30
0.0
 10
195.3821828382745
 20
14.06507890991419
 30
0.0
 10
195.3821827716209
 20
14.02491778281976
 30
0.0
 10
195.3821827564384
 20
14.01410517385757
 30
0.0
 11
195.3821827564384
 21
14.01410517385757
 31
0.0
 11
195.4100014883675
 21
14.01410517385757
 31
0.0
 11
195.4833417816353
 21
14.01410517385757
 31
0.0
 11
195.5870297824623
 21
14.01410517385757
 31
0.0
 11
195.7058916370687
 21
14.01410517385757
 31
0.0
 11
195.8247534916752
 21
14.01410517385757
 31
0.0
 11
195.9284414925021
 21
14.01410517385757
 31
0.0
 11
196.0017817857699
 21
14.01410517385757
 31
0.0
 11
196.0296005176991
 21
14.01410517385757
 31
0.0
 11
196.0296005176991
 21
13.98651684921169
 31
0.0
 11
196.0296005176991
 21
13.92582253499076
 31
0.0
 11
196.0296005176991
 21
13.86512822076984
 31
0.0
 11
196.0296005176991
 21
13.83753989612396
 31
0.0
 11
195.9994901593494
 21
13.83753989612396
 31
0.0
 11
195.9162438745005
 21
13.83753989612396
 31
0.0
 11
195.7904888484522
 21
13.83753989612396
 31
0.0
 11
195.6328522665042
 21
13.83753989612396
 31
0.0
 11
195.4539613139565
 21
13.83753989612396
 31
0.0
 11
195.2644431761089
 21
13.83753989612396
 31
0.0
 11
195.0749250382614
 21
13.83753989612396
 31
0.0
 11
194.8960340857137
 21
13.83753989612396
 31
0.0
 11
194.7383975037657
 21
13.83753989612396
 31
0.0
 11
194.6126424777173
 21
13.83753989612396
 31
0.0
 11
194.5293961928684
 21
13.83753989612396
 31
0.0
 11
194.4992858345188
 21
13.83753989612396
 31
0.0
 11
194.4992858345188
 21
13.86512822076984
 31
0.0
 11
194.4992858345188
 21
13.92582253499077
 31
0.0
 11
194.4992858345188
 21
13.98651684921169
 31
0.0
 11
194.4992858345188
 21
14.01410517385757
 31
0.0
 11
194.5294068064948
 21
14.01410517385757
 31
0.0
 11
194.6088166417041
 21
14.01410517385757
 31
0.0
 11
194.7210857190691
 21
14.01410517385757
 31
0.0
 11
194.8497844175118
 21
14.01410517385757
 31
0.0
 11
194.9784831159546
 21
14.01410517385757
 31
0.0
 11
195.0907521933196
 21
14.01410517385757
 31
0.0
 11
195.1701620285289
 21
14.01410517385757
 31
0.0
 11
195.2002830005049
 21
14.01410517385757
 31
0.0
 11
195.2002830005049
 21
14.04654305523835
 31
0.0
 11
195.2002830005049
 21
14.1345887332719
 31
0.0
 11
195.2002830005049
 21
14.26434025879502
 31
0.0
 11
195.2002830005049
 21
14.42189568264453
 31
0.0
 11
195.2002830005049
 21
14.59335305565723
 31
0.0
 11
195.2002830005049
 21
14.76481042866993
 31
0.0
 11
195.2002830005049
 21
14.92236585251944
 31
0.0
 11
195.2002830005049
 21
15.05211737804256
 31
0.0
 11
195.2002830005049
 21
15.14016305607611
 31
0.0
 11
195.2002830005049
 21
15.17260093745689
 31
0.0
 11
195.1673826485529
 21
15.17260093745689
 31
0.0
 11
195.0825343724663
 21
15.17260093745689
 31
0.0
 11
194.9665173418989
 21
15.17260093745689
 31
0.0
 11
194.8401107265045
 21
15.17260093745689
 31
0.0
 11
194.7240936959371
 21
15.17260093745689
 31
0.0
 11
194.6392454198505
 21
15.17260093745689
 31
0.0
 11
194.6063450678985
 21
15.17260093745689
 31
0.0
 11
194.6063450678985
 21
15.19975793614802
 31
0.0
 11
194.6063450678985
 21
15.2595033332685
 31
0.0
 11
194.6063450678985
 21
15.31924873038897
 31
0.0
 11
194.6063450678985
 21
15.3464057290801
 31
0.0
 11
194.6392454198505
 21
15.3464057290801
 31
0.0
 11
194.7240936959371
 21
15.3464057290801
 31
0.0
 11
194.8401107265045
 21
15.3464057290801
 31
0.0
 11
194.9665173418989
 21
15.3464057290801
 31
0.0
 11
195.0825343724663
 21
15.3464057290801
 31
0.0
 11
195.1673826485529
 21
15.3464057290801
 31
0.0
 11
195.2002830005049
 21
15.3464057290801
 31
0.0
 11
195.2002830005049
 21
15.3765001173137
 31
0.0
 11
195.2002830005049
 21
15.45715307777974
 31
0.0
 11
195.2002830005049
 21
15.57391930412609
 31
0.0
 11
195.2002830005049
 21
15.71235349000063
 31
0.0
 11
195.2002830005049
 21
15.85801032905124
 31
0.0
 11
195.2002830005049
 21
15.99644451492578
 31
0.0
 11
195.2002830005049
 21
16.11321074127214
 31
0.0
 11
195.2002830005049
 21
16.19386370173817
 31
0.0
 11
195.2002830005049
 21
16.22395808997177
 31
0.0
 11
195.2250405288619
 21
16.22228324219442
 31
0.0
 11
195.284077711867
 21
16.21828937441765
 31
0.0
 11
195.3545414464215
 21
16.21352249997441
 31
0.0
 11
195.4135786294266
 21
16.20952863219765
 31
0.0
 11
195.4383361577836
 21
16.20785378442029
 31
0.0
 11
195.4233067224031
 21
16.1841581420651
 31
0.0
 11
195.3821827564384
 21
16.17047697887404
 31
0.0
 11
195.3821827564384
 21
16.14221664794832
 31
0.0
 11
195.3821827564384
 21
16.0664789610674
 31
0.0
 11
195.3821827564384
 21
15.95682887707561
 31
0.0
 11
195.3821827564384
 21
15.82683135481731
 31
0.0
 11
195.3821827564384
 21
15.69005135313683
 31
0.0
 11
195.3821827564384
 21
15.56005383087853
 31
0.0
 11
195.3821827564384
 21
15.45040374688674
 31
0.0
 11
195.3821827564384
 21
15.37466606000582
 31
0.0
 11
195.3821827564384
 21
15.3464057290801
 31
0.0
 11
195.4149350096116
 21
15.3464057290801
 31
0.0
 11
195.4994013467423
 21
15.3464057290801
 31
0.0
 11
195.6148961342477
 21
15.3464057290801
 31
0.0
 11
195.7407337385446
 21
15.3464057290801
 31
0.0
 11
195.8562285260499
 21
15.3464057290801
 31
0.0
 11
195.9406948631807
 21
15.3464057290801
 31
0.0
 11
195.9734471163539
 21
15.3464057290801
 31
0.0
 11
195.9734471163539
 21
15.31924873038897
 31
0.0
 11
195.9734471163539
 21
15.2595033332685
 31
0.0
 11
195.9734471163539
 21
15.19975793614802
 31
0.0
 11
195.9734471163539
 21
15.17260093745689
 31
0.0
 11
195.9406948631807
 21
15.17260093745689
 31
0.0
 11
195.85622852605
 21
15.17260093745689
 31
0.0
 11
195.7407337385446
 21
15.17260093745689
 31
0.0
 11
195.6148961342477
 21
15.17260093745689
 31
0.0
 11
195.4994013467423
 21
15.17260093745689
 31
0.0
 11
195.4149350096116
 21
15.17260093745689
 31
0.0
 11
195.3821827564384
 21
15.17260093745689
 31
0.0
 11
195.3821827564384
 21
15.14016305607611
 31
0.0
 11
195.3821827564384
 21
15.05211737804256
 31
0.0
 11
195.3821827564384
 21
14.92236585251944
 31
0.0
 11
195.3821827564384
 21
14.76481042866993
 31
0.0
 11
195.3821827564384
 21
14.59335305565723
 31
0.0
 11
195.3821827564384
 21
14.42189568264453
 31
0.0
 11
195.3821827564384
 21
14.26434025879503
 31
0.0
 11
195.3821827564384
 21
14.1345887332719
 31
0.0
 11
195.3821827564384
 21
14.04654305523835
 31
0.0
 11
195.3821827564384
 21
14.01410517385757
 31
0.0
  0
SPLINE
  5
AC
102
{ACAD_REACTORS
330
C9
102
}
330
48
100
AcDbEntity
  8
_U_30EC_U_30A4_U_30E4_U_30FC_1
  6
Continuous
 62
     2
100
AcDbSpline
210
0.0
220
0.0
230
1.0
 70
    11
 71
     3
 72
   131
 73
   127
 74
   125
 42
0.000000001
 43
0.0000000001
 44
0.00000001
 40
0.0
 40
0.0
 40
0.0
 40
0.0
 40
0.0195577029825925
 40
0.0426490537460531
 40
0.2863607575855325
 40
0.5344948436188437
 40
0.7842238845572166
 40
0.8737315789466137
 40
0.9803832810311663
 40
1.092842274516914
 40
1.19976114665667
 40
1.289788768186394
 40
1.351573580786082
 40
1.370727117561326
 40
1.416400936017741
 40
1.470914848355869
 40
1.51658866679166
 40
1.535742203552742
 40
1.634216592293089
 40
1.760283341174924
 40
1.897966686682054
 40
2.031216387368902
 40
2.049689751137895
 40
2.101115601646832
 40
2.179502577739949
 40
2.278859318314067
 40
2.393194462258724
 40
2.516516648383838
 40
2.642834515405967
 40
2.766156701983472
 40
2.880491846754587
 40
2.979848588358629
 40
3.058235565443807
 40
3.109661416668963
 40
3.128134780704138
 40
3.146783742386455
 40
3.191254343315288
 40
3.24433215731589
 40
3.288802758225765
 40
3.307451719895036
 40
3.327717853844648
 40
3.383747753580008
 40
3.468388665924401
 40
3.574487837698708
 40
3.69489251572881
 40
3.822449946851948
 40
3.950007377920338
 40
4.07041205580043
 40
4.176511227367985
 40
4.261152139501432
 40
4.317182039076624
 40
4.337448172964544
 40
4.620011002696131
 40
4.885096638397396
 40
4.945373043518194
 40
5.014107710488532
 40
5.070481727651909
 40
5.319246955636387
 40
5.58481216450588
 40
5.859000912056752
 40
6.133746937541916
 40
6.40173221296872
 40
6.420736683995339
 40
6.472845717450933
 40
6.550702743893917
 40
6.646951193874126
 40
6.75423449793045
 40
6.865196086587257
 40
6.972479390357715
 40
7.068727839771905
 40
7.146584865450914
 40
7.198693898189144
 40
7.217698368905284
 40
7.234950401630763
 40
7.276089864269809
 40
7.325191803515923
 40
7.366331266090312
 40
7.383583298769664
 40
7.402779163492069
 40
7.453386443254472
 40
7.524934666445502
 40
7.606953361405842
 40
7.688972056429022
 40
7.760520279784273
 40
7.811127559734543
 40
7.830323424546164
 40
7.847844055299794
 40
7.894799345666835
 40
7.962779392744523
 40
8.043374293560571
 40
8.128174145149478
 40
8.208769044817283
 40
8.276749090376983
 40
8.323704379669541
 40
8.341225010056275
 40
8.358497614800452
 40
8.401679126686657
 40
8.457815092185687
 40
8.513951057728148
 40
8.557132569708076
 40
8.574405174505118
 40
8.6023406686165
 40
8.643455660540122
 40
8.66322527196679
 40
8.715345156564437
 40
8.789031889628772
 40
8.873502045520501
 40
8.957972194324125
 40
9.031658925568015
 40
9.083778811234707
 40
9.103548423003168
 40
9.119550083123706
 40
9.160817522380007
 40
9.217244429110373
 40
9.278724491644859
 40
9.335151398295643
 40
9.376418837357939
 40
9.392420497300726
 40
9.401196302734945
 40
9.41749422938442
 40
9.426270027749693
 40
9.440875075477726
 40
9.475702496998908
 40
9.517270709866072
 40
9.552098131994242
 40
9.566703169884452
 40
9.566703169884452
 40
9.566703169884452
 40
9.566703169884452
 10
194.6170254148479
 20
15.67015871511026
 30
0.0
 10
194.6134345093371
 20
15.66453690702159
 30
0.0
 10
194.6056039123624
 20
15.65227754419113
 30
0.0
 10
194.5129968974553
 20
15.61601916040954
 30
0.0
 10
194.4887622233247
 20
15.40148444212715
 30
0.0
 10
194.3858709845939
 20
15.2219728450971
 30
0.0
 10
194.1220492364307
 20
15.03615573798148
 30
0.0
 10
194.284547156918
 20
14.95959336566079
 30
0.0
 10
194.3607225760839
 20
14.89856693195442
 30
0.0
 10
194.4492171072759
 20
14.83515804544759
 30
0.0
 10
194.5389930233111
 20
14.77525634219559
 30
0.0
 10
194.5883817636047
 20
14.72102154849209
 30
0.0
 10
194.6745708157383
 20
14.69286240541833
 30
0.0
 10
194.641126067423
 20
14.65713309652813
 30
0.0
 10
194.6214671166311
 20
14.62550387991906
 30
0.0
 10
194.5919888217883
 20
14.58475872796069
 30
0.0
 10
194.5688989446032
 20
14.55504663489644
 30
0.0
 10
194.5380205968358
 20
14.50211422668494
 30
0.0
 10
194.4729193365741
 20
14.62740334938901
 30
0.0
 10
194.3796000122416
 20
14.68213900233936
 30
0.0
 10
194.2950636285138
 20
14.73916423939339
 30
0.0
 10
194.1722498125742
 20
14.89675287427525
 30
0.0
 10
194.1764450847301
 20
14.82035806766836
 30
0.0
 10
194.1751478652677
 20
14.77361280161296
 30
0.0
 10
194.1758126448077
 20
14.69584785812601
 30
0.0
 10
194.1755549986956
 20
14.59902068324423
 30
0.0
 10
194.1756431239922
 20
14.48650279078809
 30
0.0
 10
194.1756077302282
 20
14.36524085945699
 30
0.0
 10
194.1756511758278
 20
14.24086897858961
 30
0.0
 10
194.1755199942405
 20
14.11967683631335
 30
0.0
 10
194.1759477562047
 20
14.00691148919743
 30
0.0
 10
194.174667820231
 20
13.91082913768744
 30
0.0
 10
194.1779759851044
 20
13.83113826468699
 30
0.0
 10
194.1715197740085
 20
13.78815175788783
 30
0.0
 10
194.1806208705556
 20
13.74955432372042
 30
0.0
 10
194.1447910339934
 20
13.75810887724069
 30
0.0
 10
194.1115223815253
 20
13.75342519985446
 30
0.0
 10
194.0604562576041
 20
13.75351298759783
 30
0.0
 10
194.0269723972814
 20
13.7579443028382
 30
0.0
 10
193.9907585408754
 20
13.74960793842508
 30
0.0
 10
194.0009782568666
 20
13.79145277179283
 30
0.0
 10
193.9936487887774
 20
13.83778560820173
 30
0.0
 10
193.9973633136104
 20
13.92374831106013
 30
0.0
 10
193.9959480554897
 20
14.02605142704848
 30
0.0
 10
193.9964105554639
 20
14.14453223931511
 30
0.0
 10
193.9962773686231
 20
14.26957683153355
 30
0.0
 10
193.9963015910046
 20
14.39475828107048
 30
0.0
 10
193.9963354925552
 20
14.51286645379057
 30
0.0
 10
193.9962060293133
 20
14.61628748709514
 30
0.0
 10
193.9965507549082
 20
14.69932036153666
 30
0.0
 10
193.9958698278691
 20
14.75143368521241
 30
0.0
 10
193.9994586600625
 20
14.87912907821361
 30
0.0
 10
193.7826171386437
 20
14.58048716819619
 30
0.0
 10
193.6021354921952
 20
14.35263981511513
 30
0.0
 10
193.5490322295613
 20
14.49373443289816
 30
0.0
 10
193.5200429133149
 20
14.54325767560939
 30
0.0
 10
193.4196648062822
 20
14.64641779790107
 30
0.0
 10
193.7405127723262
 20
14.72695035023779
 30
0.0
 10
193.868989700543
 20
14.91066283036433
 30
0.0
 10
194.090645432536
 20
15.1193199577176
 30
0.0
 10
194.1770224894069
 20
15.29339211228343
 30
0.0
 10
194.4549394229075
 20
15.56967051342512
 30
0.0
 10
194.3346247839285
 20
15.56534559551113
 30
0.0
 10
194.2863197351349
 20
15.56614856202552
 30
0.0
 10
194.2102377454906
 20
15.56574582146583
 30
0.0
 10
194.116701000975
 20
15.56590275611608
 30
0.0
 10
194.0117594788557
 20
15.56582502576223
 30
0.0
 10
193.9033887738718
 20
15.56595464378553
 30
0.0
 10
193.7981454235897
 20
15.56554393490691
 30
0.0
 10
193.7056237819413
 20
15.5668207367159
 30
0.0
 10
193.6268130800707
 20
15.56340766534849
 30
0.0
 10
193.5839674565379
 20
15.57023350036319
 30
0.0
 10
193.5449499586515
 20
15.56065064201123
 30
0.0
 10
193.5526365271864
 20
15.59420779565542
 30
0.0
 10
193.5485464404312
 20
15.62523550322232
 30
0.0
 10
193.5485531368814
 20
15.672365292709
 30
0.0
 10
193.5526239724911
 20
15.70340941646778
 30
0.0
 10
193.5449495574583
 20
15.73701861635903
 30
0.0
 10
193.5834819405495
 20
15.72748410420872
 30
0.0
 10
193.6241228014479
 20
15.73397435498071
 30
0.0
 10
193.6951471850463
 20
15.73100150650254
 30
0.0
 10
193.7729318149634
 20
15.73174761399158
 30
0.0
 10
193.8507292246474
 20
15.73247814044525
 30
0.0
 10
193.9217232089908
 20
15.7295423551416
 30
0.0
 10
193.9624279791821
 20
15.73595468772952
 30
0.0
 10
194.000985348991
 20
15.72650524176004
 30
0.0
 10
193.9927342754929
 20
15.76264692158784
 30
0.0
 10
193.9982346669358
 20
15.80129837613227
 30
0.0
 10
193.9955754206164
 20
15.86913528561838
 30
0.0
 10
193.9965815471534
 20
15.9459164153874
 30
0.0
 10
193.996017801832
 20
16.02849393582757
 30
0.0
 10
193.9970714526593
 20
16.10517329229878
 30
0.0
 10
193.9942675863131
 20
16.17331990776699
 30
0.0
 10
194.0000702721305
 20
16.21132399809347
 30
0.0
 10
193.9915654551159
 20
16.24758448077646
 30
0.0
 10
194.0255610233125
 20
16.23755723771852
 30
0.0
 10
194.05945756831
 20
16.24073266813706
 30
0.0
 10
194.1126669060347
 20
16.23508965640609
 30
0.0
 10
194.1660768574484
 20
16.23434774436425
 30
0.0
 10
194.1995914649492
 20
16.22819223482981
 30
0.0
 10
194.238808618304
 20
16.23346029773592
 30
0.0
 10
194.2120263698492
 20
16.19253380793486
 30
0.0
 10
194.1708111001724
 20
16.20371204538114
 30
0.0
 10
194.1782641540873
 20
16.15867056192124
 30
0.0
 10
194.1742227952184
 20
16.11412278028144
 30
0.0
 10
194.176171404964
 20
16.04223572621703
 30
0.0
 10
194.1752364849758
 20
15.96168630588771
 30
0.0
 10
194.176510719003
 20
15.88173995404994
 30
0.0
 10
194.1732043793863
 20
15.80841837083183
 30
0.0
 10
194.1802106179961
 20
15.76688643002568
 30
0.0
 10
194.1701440380126
 20
15.72752418568113
 30
0.0
 10
194.2029814803921
 20
15.73468063430981
 30
0.0
 10
194.236457729648
 20
15.73027243137945
 30
0.0
 10
194.2915053476019
 20
15.73217943347897
 30
0.0
 10
194.3489502595314
 20
15.73185366407288
 30
0.0
 10
194.4023026248309
 20
15.73106308733081
 30
0.0
 10
194.4398540896639
 20
15.73313959118074
 30
0.0
 10
194.4623172523237
 20
15.73022338167109
 30
0.0
 10
194.4751678073731
 20
15.73572552644056
 30
0.0
 10
194.4858255685888
 20
15.7380111819779
 30
0.0
 10
194.4986635650144
 20
15.74494972588053
 30
0.0
 10
194.514599103307
 20
15.72853046313672
 30
0.0
 10
194.5410623920891
 20
15.71709122319447
 30
0.0
 10
194.5726805253758
 20
15.6964468783519
 30
0.0
 10
194.5987255892151
 20
15.68116869628293
 30
0.0
 10
194.6128517723973
 20
15.67266976323183
 30
0.0
 10
194.6170254148479
 20
15.67015871511026
 30
0.0
 11
194.6170254148479
 21
15.67015871511026
 31
0.0
 11
194.6049990002244
 21
15.65473571164187
 31
0.0
 11
194.5848961795566
 21
15.64337406233916
 31
0.0
 11
194.4778986355815
 21
15.42440620231159
 31
0.0
 11
194.3477039934325
 21
15.21317201512161
 31
0.0
 11
194.1996540366072
 21
15.01206059027479
 31
0.0
 11
194.2734958253736
 21
14.96147384935379
 31
0.0
 11
194.3605664311801
 21
14.89988411653738
 31
0.0
 11
194.4518003750405
 21
14.83413160594425
 31
0.0
 11
194.5381321779688
 21
14.77105653169304
 31
0.0
 11
194.6104963609788
 21
14.71749910790242
 31
0.0
 11
194.6598274450844
 21
14.68029954869105
 31
0.0
 11
194.6486940702214
 21
14.66471410869495
 31
0.0
 11
194.6221452532404
 21
14.62754882870424
 31
0.0
 11
194.5904579555534
 21
14.58319026871533
 31
0.0
 11
194.5639091385724
 21
14.54602498872462
 31
0.0
 11
194.5527757637094
 21
14.53043954872852
 31
0.0
 11
194.4807013362948
 21
14.59754008690617
 31
0.0
 11
194.3852856985382
 21
14.67993354174668
 31
0.0
 11
194.279326415217
 21
14.76785017366916
 31
0.0
 11
194.175621051109
 21
14.85152024309267
 31
0.0
 11
194.175621051109
 21
14.83304687900863
 31
0.0
 11
194.175621051109
 21
14.78162102763955
 31
0.0
 11
194.175621051109
 21
14.70323405030999
 31
0.0
 11
194.175621051109
 21
14.60387730834448
 31
0.0
 11
194.175621051109
 21
14.4895421630676
 31
0.0
 11
194.175621051109
 21
14.36621997580389
 31
0.0
 11
194.175621051109
 21
14.2399021078779
 31
0.0
 11
194.175621051109
 21
14.11657992061418
 31
0.0
 11
194.175621051109
 21
14.0022447753373
 31
0.0
 11
194.175621051109
 21
13.9028880333718
 31
0.0
 11
194.175621051109
 21
13.82450105604223
 31
0.0
 11
194.175621051109
 21
13.77307520467315
 31
0.0
 11
194.175621051109
 21
13.75460184058911
 31
0.0
 11
194.1569720893626
 21
13.75460184058911
 31
0.0
 11
194.112501488275
 21
13.75460184058911
 31
0.0
 11
194.0594236740737
 21
13.75460184058911
 31
0.0
 11
194.014953072986
 21
13.75460184058911
 31
0.0
 11
193.9963041112396
 21
13.75460184058911
 31
0.0
 11
193.9963041112396
 21
13.77486797460218
 31
0.0
 11
193.9963041112396
 21
13.83089787452066
 31
0.0
 11
193.9963041112396
 21
13.91553878716346
 31
0.0
 11
193.9963041112396
 21
14.02163795934952
 31
0.0
 11
193.9963041112396
 21
14.14204263789774
 31
0.0
 11
193.9963041112396
 21
14.26960006962704
 31
0.0
 11
193.9963041112396
 21
14.39715750135635
 31
0.0
 11
193.9963041112396
 21
14.51756217990457
 31
0.0
 11
193.9963041112396
 21
14.62366135209063
 31
0.0
 11
193.9963041112396
 21
14.70830226473343
 31
0.0
 11
193.9963041112396
 21
14.76433216465191
 31
0.0
 11
193.9963041112396
 21
14.78459829866498
 31
0.0
 11
193.7883272849482
 21
14.59331998274056
 31
0.0
 11
193.5763486358426
 21
14.43414885430811
 31
0.0
 11
193.5495629014484
 21
14.48814671952094
 31
0.0
 11
193.5138765415025
 21
14.54689140572025
 31
0.0
 11
193.4799697494125
 21
14.59192871537975
 31
0.0
 11
193.6830287742319
 21
14.73563387201052
 31
0.0
 11
193.8818531958261
 21
14.91168423529987
 31
0.0
 11
194.0677041444179
 21
15.11327514524949
 31
0.0
 11
194.2318427502304
 21
15.33360194186108
 31
0.0
 11
194.3655301434865
 21
15.56585996513634
 31
0.0
 11
194.3465256724482
 21
15.56585996513634
 31
0.0
 11
194.2944166389563
 21
15.56585996513634
 31
0.0
 11
194.2165596124448
 21
15.56585996513634
 31
0.0
 11
194.1203111623479
 21
15.56585996513634
 31
0.0
 11
194.0130278580997
 21
15.56585996513634
 31
0.0
 11
193.9020662691345
 21
15.56585996513634
 31
0.0
 11
193.7947829648864
 21
15.56585996513634
 31
0.0
 11
193.6985345147895
 21
15.56585996513634
 31
0.0
 11
193.620677488278
 21
15.56585996513634
 31
0.0
 11
193.568568454786
 21
15.56585996513634
 31
0.0
 11
193.5495639837478
 21
15.56585996513634
 31
0.0
 11
193.5495639837478
 21
15.58311199790981
 31
0.0
 11
193.5495639837478
 21
15.62425146067731
 31
0.0
 11
193.5495639837478
 21
15.67335340010949
 31
0.0
 11
193.5495639837478
 21
15.71449286287698
 31
0.0
 11
193.5495639837478
 21
15.73174489565045
 31
0.0
 11
193.568759848601
 21
15.73174489565045
 31
0.0
 11
193.6193671286684
 21
15.73174489565045
 31
0.0
 11
193.690915352212
 21
15.73174489565045
 31
0.0
 11
193.7729340474937
 21
15.73174489565045
 31
0.0
 11
193.8549527427754
 21
15.73174489565045
 31
0.0
 11
193.926500966319
 21
15.73174489565045
 31
0.0
 11
193.9771082463865
 21
15.73174489565045
 31
0.0
 11
193.9963041112396
 21
15.73174489565045
 31
0.0
 11
193.9963041112396
 21
15.74926552655218
 31
0.0
 11
193.9963041112396
 21
15.79622081736882
 31
0.0
 11
193.9963041112396
 21
15.86420086526753
 31
0.0
 11
193.9963041112396
 21
15.94479576741549
 31
0.0
 11
193.9963041112396
 21
16.02959562097986
 31
0.0
 11
193.9963041112396
 21
16.11019052312782
 31
0.0
 11
193.9963041112396
 21
16.17817057102653
 31
0.0
 11
193.9963041112396
 21
16.22512586184317
 31
0.0
 11
193.9963041112396
 21
16.2426464927449
 31
0.0
 11
194.0135484112112
 21
16.24165806167519
 31
0.0
 11
194.0566591611402
 21
16.23918698400091
 31
0.0
 11
194.1127031360478
 21
16.23597458302435
 31
0.0
 11
194.1687471109555
 21
16.2327621820478
 31
0.0
 11
194.2118578608844
 21
16.23029110437352
 31
0.0
 11
194.229102160856
 21
16.22930267330381
 31
0.0
 11
194.2143774674852
 21
16.20556293372639
 31
0.0
 11
194.175621051109
 21
16.19183767331312
 31
0.0
 11
194.175621051109
 21
16.17206806177293
 31
0.0
 11
194.175621051109
 21
16.11994817680333
 31
0.0
 11
194.175621051109
 21
16.04626144288079
 31
0.0
 11
194.175621051109
 21
15.96179128448179
 31
0.0
 11
194.175621051109
 21
15.87732112608278
 31
0.0
 11
194.175621051109
 21
15.80363439216024
 31
0.0
 11
194.175621051109
 21
15.75151450719064
 31
0.0
 11
194.175621051109
 21
15.73174489565045
 31
0.0
 11
194.1916227112935
 21
15.73174489565045
 31
0.0
 11
194.232890150717
 21
15.73174489565045
 31
0.0
 11
194.2893170576837
 21
15.73174489565045
 31
0.0
 11
194.3507971204981
 21
15.73174489565045
 31
0.0
 11
194.4072240274648
 21
15.73174489565045
 31
0.0
 11
194.4484914668882
 21
15.73174489565045
 31
0.0
 11
194.4644931270728
 21
15.73174489565045
 31
0.0
 11
194.4728206422924
 21
15.73451387455921
 31
0.0
 11
194.4882860277004
 21
15.73965626396118
 31
0.0
 11
194.49661354292
 21
15.74242524286994
 31
0.0
 11
194.5091363776005
 21
15.73490952398293
 31
0.0
 11
194.5389985218386
 21
15.71698742509853
 31
0.0
 11
194.5746404359293
 21
15.69559653288167
 31
0.0
 11
194.6045025801674
 21
15.67767443399727
 31
0.0
 11
194.6170254148479
 21
15.67015871511026
 31
0.0
  0
SPLINE
  5
AD
102
{ACAD_REACTORS
330
CA
102
}
330
48
100
AcDbEntity
  8
_U_30EC_U_30A4_U_30E4_U_30FC_1
  6
Continuous
 62
     2
100
AcDbSpline
210
0.0
220
0.0
230
1.0
 70
    11
 71
     3
 72
    91
 73
    87
 74
    85
 42
0.000000001
 43
0.0000000001
 44
0.00000001
 40
0.0
 40
0.0
 40
0.0
 40
0.0
 40
0.0267532254356684
 40
0.0856103386464066
 40
0.144467452199655
 40
0.1712206856618426
 40
0.2039416005642447
 40
0.2955601971652395
 40
0.4362601844616829
 40
0.6162252844507161
 40
0.8256392189704893
 40
1.054685709844402
 40
1.293548478893522
 40
1.532411247938266
 40
1.761457738799531
 40
1.970871673298499
 40
2.150836773256695
 40
2.291536760495556
 40
2.383155356836634
 40
2.415876284101283
 40
2.442629517487926
 40
2.501486630949052
 40
2.560343744424197
 40
2.587096977826469
 40
2.617068194440896
 40
2.699247336756037
 40
2.822032643466321
 40
2.973822353257851
 40
3.143014704823293
 40
3.318007936879844
 40
3.487200288186705
 40
3.638989997548186
 40
3.761775303794685
 40
3.843954445753019
 40
3.873925662229715
 40
3.890812773500423
 40
3.907699884771575
 40
3.937960767857202
 40
3.980983618142208
 40
4.199085915228363
 40
4.439444339237143
 40
4.677588241260787
 40
5.050698317837673
 40
5.448212454763031
 40
5.855291218044584
 40
6.138575438885261
 40
6.417434507584079
 40
6.444551104393738
 40
6.504207617363014
 40
6.563864130314339
 40
6.590980727103908
 40
6.848609460381315
 40
7.109611990668274
 40
7.352910904445955
 40
7.557830220705339
 40
7.587518925913234
 40
7.652834077375656
 40
7.718149228845617
 40
7.747837934061899
 40
7.854880190300893
 40
7.97651125740343
 40
8.369487896592233
 40
8.757514959223554
 40
9.126072419331017
 40
9.46063938039208
 40
9.746695593035763
 40
9.777569943118552
 40
9.807050320931731
 40
9.830377336128866
 40
9.886003295435943
 40
9.952395569429859
 40
10.00802152870622
 40
10.03134854388214
 40
10.2135695100959
 40
10.42203479292867
 40
10.66154556731062
 40
10.91693789564304
 40
11.15832906556565
 40
11.1898267459662
 40
11.27286608520407
 40
11.39026653033352
 40
11.52484752840886
 40
11.65942852648442
 40
11.77682897161483
 40
11.8598683108568
 40
11.89136598230425
 40
11.89136598230425
 40
11.89136598230425
 40
11.89136598230425
 10
190.7027885008197
 20
14.70699600701772
 30
0.0
 10
190.7028237765289
 20
14.71587847311985
 30
0.0
 10
190.7029366710797
 20
14.74430237047346
 30
0.0
 10
190.7012984568489
 20
14.79409639169802
 30
0.0
 10
190.7069750292911
 20
14.83657564478154
 30
0.0
 10
190.6956928731708
 20
14.88730154856846
 30
0.0
 10
190.7632296979033
 20
14.87012900740108
 30
0.0
 10
190.8388029210701
 20
14.88290227165995
 30
0.0
 10
190.9828357056002
 20
14.87629729457381
 30
0.0
 10
191.1569419185427
 20
14.87888462206465
 30
0.0
 10
191.3639599611005
 20
14.87800591955552
 30
0.0
 10
191.5894688172378
 20
14.87828207920026
 30
0.0
 10
191.8251162293406
 20
14.87818339658661
 30
0.0
 10
192.0607640531349
 20
14.87828184412767
 30
0.0
 10
192.2862717580627
 20
14.87800678190788
 30
0.0
 10
192.4932934632806
 20
14.87888186270734
 30
0.0
 10
192.6673888915289
 20
14.87630522678446
 30
0.0
 10
192.8114492071986
 20
14.88288290449212
 30
0.0
 10
192.8869691915293
 20
14.87016243405603
 30
0.0
 10
192.9545776037031
 20
14.88726400191686
 30
0.0
 10
192.9430840140676
 20
14.8367478580294
 30
0.0
 10
192.9505104581734
 20
14.79253252226501
 30
0.0
 10
192.9428838927986
 20
14.7486796650361
 30
0.0
 10
192.9546489459426
 20
14.69878374479327
 30
0.0
 10
192.8930788491984
 20
14.71393227712512
 30
0.0
 10
192.8256791738672
 20
14.70310665350673
 30
0.0
 10
192.7013004056223
 20
14.70852031626236
 30
0.0
 10
192.5554428236572
 20
14.70649205390785
 30
0.0
 10
192.3893576440086
 20
14.70715777578387
 30
0.0
 10
192.2188412621725
 20
14.70689643521242
 30
0.0
 10
192.051979085539
 20
14.70721553391094
 30
0.0
 10
191.9087346827106
 20
14.70635302590762
 30
0.0
 10
191.7773313869835
 20
14.70863300482988
 30
0.0
 10
191.7239859134658
 20
14.70407704374202
 30
0.0
 10
191.6485188456913
 20
14.70999914992877
 30
0.0
 10
191.6769075779233
 20
14.70094169343353
 30
0.0
 10
191.7033652409543
 20
14.69725912268928
 30
0.0
 10
191.6633522907702
 20
14.66654271968276
 30
0.0
 10
191.571366369187
 20
14.67667591174629
 30
0.0
 10
191.543939620707
 20
14.43032502247787
 30
0.0
 10
191.4478793967234
 20
14.27499558764373
 30
0.0
 10
191.1917277964475
 20
13.94525417931568
 30
0.0
 10
191.7627537732763
 20
14.0843002221045
 30
0.0
 10
192.0173656320517
 20
14.08291779973362
 30
0.0
 10
192.6279647048618
 20
13.99790569242087
 30
0.0
 10
192.3340698578084
 20
14.29685417558203
 30
0.0
 10
192.0133304286517
 20
14.44330856901774
 30
0.0
 10
192.1313543360434
 20
14.50025540818287
 30
0.0
 10
192.1724716466261
 20
14.52420099873348
 30
0.0
 10
192.2156812394411
 20
14.54599758811229
 30
0.0
 10
192.3174574094451
 20
14.60928721253908
 30
0.0
 10
192.4328867625247
 20
14.35147151408778
 30
0.0
 10
192.6329591642278
 20
14.21616041113683
 30
0.0
 10
192.7269077387228
 20
14.03792795138879
 30
0.0
 10
192.9558829746394
 20
13.87997821027054
 30
0.0
 10
192.8596031846708
 20
13.82915972576298
 30
0.0
 10
192.816795976378
 20
13.79881292523052
 30
0.0
 10
192.771824352878
 20
13.7746613028146
 30
0.0
 10
192.7121720925215
 20
13.72552146747565
 30
0.0
 10
192.6789731061325
 20
13.85997475673607
 30
0.0
 10
192.5582013350796
 20
14.01594265286584
 30
0.0
 10
192.1970976005979
 20
13.88569928059555
 30
0.0
 10
191.8385061955541
 20
13.90224694409483
 30
0.0
 10
191.457092045008
 20
13.89331229351863
 30
0.0
 10
191.1703455282891
 20
13.82882671672409
 30
0.0
 10
190.8592055599717
 20
13.94230668192818
 30
0.0
 10
190.8268737818789
 20
13.83122259927765
 30
0.0
 10
190.7896178253317
 20
13.8119631385001
 30
0.0
 10
190.7865737632754
 20
13.85874784087295
 30
0.0
 10
190.7679892860607
 20
13.89806853919135
 30
0.0
 10
190.7512436616778
 20
13.95765983478232
 30
0.0
 10
190.7383730915754
 20
14.00201969871284
 30
0.0
 10
190.7042327806428
 20
14.09106331120202
 30
0.0
 10
190.9482714457754
 20
14.0218104294377
 30
0.0
 10
191.1441394486671
 20
14.00030369057746
 30
0.0
 10
191.2395426381277
 20
14.28226484478462
 30
0.0
 10
191.2945135769598
 20
14.44363045421122
 30
0.0
 10
191.5159619357155
 20
14.71391177589735
 30
0.0
 10
191.3849239381218
 20
14.70548446853735
 30
0.0
 10
191.3110026555855
 20
14.70779008496969
 30
0.0
 10
191.1977459876244
 20
14.70671378321658
 30
0.0
 10
191.0694251807485
 20
14.7070763907651
 30
0.0
 10
190.9404252030416
 20
14.70697724466085
 30
0.0
 10
190.8287840946292
 20
14.70699932712572
 30
0.0
 10
190.7514663970028
 20
14.7069957918967
 30
0.0
 10
190.7132876532011
 20
14.70699595845081
 30
0.0
 10
190.7027885008197
 20
14.70699600701772
 30
0.0
 11
190.7027885008197
 21
14.70699600701772
 31
0.0
 11
190.7027885008197
 21
14.73374924051797
 31
0.0
 11
190.7027885008197
 21
14.79260635421853
 31
0.0
 11
190.7027885008197
 21
14.85146346791909
 31
0.0
 11
190.7027885008197
 21
14.87821670141934
 31
0.0
 11
190.735509428099
 21
14.87821670141934
 31
0.0
 11
190.827128024481
 21
14.87821670141934
 31
0.0
 11
190.967828011782
 21
14.87821670141934
 31
0.0
 11
191.1477931118181
 21
14.87821670141934
 31
0.0
 11
191.3572070464055
 21
14.87821670141934
 31
0.0
 11
191.5862535373605
 21
14.87821670141934
 31
0.0
 11
191.8251163064994
 21
14.87821670141934
 31
0.0
 11
192.0639790756382
 21
14.87821670141934
 31
0.0
 11
192.2930255665932
 21
14.87821670141934
 31
0.0
 11
192.5024395011806
 21
14.87821670141934
 31
0.0
 11
192.6824046012168
 21
14.87821670141934
 31
0.0
 11
192.8231045885177
 21
14.87821670141934
 31
0.0
 11
192.9147231848997
 21
14.87821670141934
 31
0.0
 11
192.947444112179
 21
14.87821670141934
 31
0.0
 11
192.947444112179
 21
14.85146346791909
 31
0.0
 11
192.947444112179
 21
14.79260635421853
 31
0.0
 11
192.947444112179
 21
14.73374924051797
 31
0.0
 11
192.947444112179
 21
14.70699600701772
 31
0.0
 11
192.9174728954758
 21
14.70699600701772
 31
0.0
 11
192.8352937529027
 21
14.70699600701772
 31
0.0
 11
192.7125084457641
 21
14.70699600701772
 31
0.0
 11
192.5607187353643
 21
14.70699600701772
 31
0.0
 11
192.3915263830079
 21
14.70699600701772
 31
0.0
 11
192.2165331499992
 21
14.70699600701772
 31
0.0
 11
192.0473407976427
 21
14.70699600701772
 31
0.0
 11
191.8955510872429
 21
14.70699600701772
 31
0.0
 11
191.7727657801043
 21
14.70699600701772
 31
0.0
 11
191.6905866375311
 21
14.70699600701772
 31
0.0
 11
191.660615420828
 21
14.70699600701772
 31
0.0
 11
191.6766359412526
 21
14.70165583340794
 31
0.0
 11
191.6926564616772
 21
14.69631565979815
 31
0.0
 11
191.6706155681421
 21
14.67558114591442
 31
0.0
 11
191.6284861855364
 21
14.66685871536109
 31
0.0
 11
191.5365235541378
 21
14.46909247312656
 31
0.0
 11
191.4279078521764
 21
14.25467511978508
 31
0.0
 11
191.3127500824808
 21
14.04622559051619
 31
0.0
 11
191.6857366675021
 21
14.05582441253028
 31
0.0
 11
192.0830700036151
 21
14.06781232404994
 31
0.0
 11
192.4899342191146
 21
14.08102711828533
 31
0.0
 11
192.2983119496979
 21
14.2896676130248
 31
0.0
 11
192.0966752013699
 21
14.48229420151831
 31
0.0
 11
192.120494779475
 21
14.49525327269564
 31
0.0
 11
192.1728978513062
 21
14.52376322928576
 31
0.0
 11
192.2253009231374
 21
14.55227318587587
 31
0.0
 11
192.2491205012425
 21
14.5652322570532
 31
0.0
 11
192.4387101558627
 21
14.39079508370267
 31
0.0
 11
192.6200310940436
 21
14.20305846374091
 31
0.0
 11
192.7777729231148
 21
14.01782380992436
 31
0.0
 11
192.8966252504059
 21
13.85089253500949
 31
0.0
 11
192.8715408217924
 21
13.83501202286068
 31
0.0
 11
192.8163550788427
 21
13.80007489613331
 31
0.0
 11
192.7611693358929
 21
13.76513776940595
 31
0.0
 11
192.7360849072794
 21
13.74925725725714
 31
0.0
 11
192.6775518151613
 21
13.83887824681809
 31
0.0
 11
192.6050015078458
 21
13.93650288221033
 31
0.0
 11
192.2125412924096
 21
13.91636286943759
 31
0.0
 11
191.8249474069561
 21
13.89803302999773
 31
0.0
 11
191.4567378976213
 21
13.88202178722395
 31
0.0
 11
191.1224308105413
 21
13.86883756444946
 31
0.0
 11
190.8365441918519
 21
13.85898878500749
 31
0.0
 11
190.8211862321741
 21
13.83220523466694
 31
0.0
 11
190.7937434290546
 21
13.82143559057244
 31
0.0
 11
190.7867927192319
 21
13.84370299445576
 31
0.0
 11
190.7702179496548
 21
13.89680218833138
 31
0.0
 11
190.7504351601596
 21
13.96017864553776
 31
0.0
 11
190.7338603905825
 21
14.01327783941338
 31
0.0
 11
190.7269096807598
 21
14.0355452432967
 31
0.0
 11
190.9091199859153
 21
14.03751638912952
 31
0.0
 11
191.1174975848588
 21
14.04356211829472
 31
0.0
 11
191.2303203127216
 21
14.25483550301553
 31
0.0
 11
191.3407936722036
 21
14.48509813155879
 31
0.0
 11
191.4358254265628
 21
14.70699600701772
 31
0.0
 11
191.4043277461598
 21
14.70699600701772
 31
0.0
 11
191.3212884069154
 21
14.70699600701772
 31
0.0
 11
191.2038879617769
 21
14.70699600701772
 31
0.0
 11
191.0693069636912
 21
14.70699600701772
 31
0.0
 11
190.9347259656056
 21
14.70699600701772
 31
0.0
 11
190.8173255204671
 21
14.70699600701772
 31
0.0
 11
190.7342861812227
 21
14.70699600701772
 31
0.0
 11
190.7027885008197
 21
14.70699600701772
 31
0.0
  0
SPLINE
  5
AE
102
{ACAD_REACTORS
330
CB
102
}
330
48
100
AcDbEntity
  8
_U_30EC_U_30A4_U_30E4_U_30FC_1
  6
Continuous
 62
     2
100
AcDbSpline
210
0.0
220
0.0
230
1.0
 70
    11
 71
     3
 72
    35
 73
    31
 74
    29
 42
0.000000001
 43
0.0000000001
 44
0.00000001
 40
0.0
 40
0.0
 40
0.0
 40
0.0
 40
0.03352310366207
 40
0.0713218571712119
 40
0.4278866681486752
 40
0.8116865841963762
 40
1.198190238000012
 40
1.561379546812692
 40
1.659983174622055
 40
1.759315573807232
 40
2.132719617231064
 40
2.525233363588791
 40
2.910815397779681
 40
3.265244364303312
 40
3.592606723582002
 40
3.964386154603951
 40
4.359942131737774
 40
4.758154118639285
 40
4.843846538699887
 40
4.93665006554322
 40
5.256616602537327
 40
5.581707404416064
 40
5.89971915830816
 40
6.198363494280745
 40
6.466301046615797
 40
6.493895311537119
 40
6.559697020196912
 40
6.638234543442486
 40
6.704036252154268
 40
6.731630508423045
 40
6.731630508423045
 40
6.731630508423045
 40
6.731630508423045
 10
191.973601056867
 20
16.23463843719134
 30
0.0
 10
191.967600609779
 20
16.22480690542323
 30
0.0
 10
191.9548344099157
 20
16.20388988579797
 30
0.0
 10
191.794936200656
 20
16.1712712653269
 30
0.0
 10
192.2322025842335
 20
15.88206680336697
 30
0.0
 10
192.4345394828263
 20
15.6804113835844
 30
0.0
 10
192.6819564267974
 20
15.43749387603272
 30
0.0
 10
193.1831513624607
 20
15.36047662757777
 30
0.0
 10
193.0125562198971
 20
15.21876939174653
 30
0.0
 10
192.93832994632
 20
15.01710366209114
 30
0.0
 10
192.6131432248189
 20
15.36956287174723
 30
0.0
 10
192.3277741670665
 20
15.53175212559563
 30
0.0
 10
192.0337604077658
 20
15.73687130053047
 30
0.0
 10
191.8084452691135
 20
16.21827488595456
 30
0.0
 10
191.5993085055522
 20
15.7534304660922
 30
0.0
 10
191.3207873674835
 20
15.54350952252911
 30
0.0
 10
191.037138317721
 20
15.37424456359986
 30
0.0
 10
190.7078639527832
 20
15.00142360907932
 30
0.0
 10
190.6277012318225
 20
15.19708014459002
 30
0.0
 10
190.4759724909745
 20
15.32491104190592
 30
0.0
 10
190.9083395826796
 20
15.40454031765935
 30
0.0
 10
191.0962565329767
 20
15.60026634915472
 30
0.0
 10
191.3468477420504
 20
15.81632996916754
 30
0.0
 10
191.5714350470161
 20
15.98190992300059
 30
0.0
 10
191.6259775409713
 20
16.26133964636827
 30
0.0
 10
191.7494661029012
 20
16.24737950408078
 30
0.0
 10
191.8060273344521
 20
16.24521268867647
 30
0.0
 10
191.8761870984945
 20
16.2404685988136
 30
0.0
 10
191.9333414022107
 20
16.23709429350542
 30
0.0
 10
191.964419032084
 20
16.23519854711119
 30
0.0
 10
191.973601056867
 20
16.23463843719134
 30
0.0
 11
191.973601056867
 21
16.23463843719134
 31
0.0
 11
191.9525319069885
 21
16.20856374969784
 31
0.0
 11
191.9174464559426
 21
16.19450114553468
 31
0.0
 11
192.1512374769095
 21
15.92527961131381
 31
0.0
 11
192.4414585957567
 21
15.67413407969259
 31
0.0
 11
192.7612797483684
 21
15.45710987618783
 31
0.0
 11
193.083870870629
 21
15.29025232631636
 31
0.0
 11
193.0213299868077
 21
15.21402035584928
 31
0.0
 11
192.9688035818975
 21
15.12971197913424
 31
0.0
 11
192.6436279095814
 21
15.31326404831579
 31
0.0
 11
192.3237227768437
 21
15.54070139743427
 31
0.0
 11
192.0354200158608
 21
15.79673855123309
 31
0.0
 11
191.8050514588095
 21
16.06609003445566
 31
0.0
 11
191.5995531719517
 21
15.81126348721035
 31
0.0
 11
191.3288301341536
 21
15.55645182277755
 31
0.0
 11
191.0119538423247
 21
15.31969466354855
 31
0.0
 11
190.6679957933742
 21
15.11903163191465
 31
0.0
 11
190.6218855341339
 21
15.19126067703553
 31
0.0
 11
190.5636970460349
 21
15.26355586798965
 31
0.0
 11
190.8433040489016
 21
15.41911456961743
 31
0.0
 11
191.1093004621155
 21
15.60601009790404
 31
0.0
 11
191.3499997459747
 21
15.81384496285208
 31
0.0
 11
191.5537153607775
 21
16.03222167446415
 31
0.0
 11
191.7087607668219
 21
16.25074274274287
 31
0.0
 11
191.7363041569866
 21
16.24906789496551
 31
0.0
 11
191.8019845489178
 21
16.24507402718873
 31
0.0
 11
191.8803772747711
 21
16.24030715274548
 31
0.0
 11
191.9460576667023
 21
16.2363132849687
 31
0.0
 11
191.973601056867
 21
16.23463843719134
 31
0.0
  0
SPLINE
  5
AF
102
{ACAD_REACTORS
330
CC
102
}
330
48
100
AcDbEntity
  8
_U_30EC_U_30A4_U_30E4_U_30FC_1
  6
Continuous
 62
     2
100
AcDbSpline
210
0.0
220
0.0
230
1.0
 70
    11
 71
     3
 72
    15
 73
    11
 74
     9
 42
0.000000001
 43
0.0000000001
 44
0.00000001
 40
0.0
 40
0.0
 40
0.0
 40
0.0
 40
0.2785535985096802
 40
0.5215624748198895
 40
0.6076917376040969
 40
0.6938210001741947
 40
0.9405019146455419
 40
1.22169140348921
 40
1.300471877081155
 40
1.379252341684968
 40
1.379252341684968
 40
1.379252341684968
 40
1.379252341684968
 10
189.5681493631
 20
16.22930267330381
 30
0.0
 10
189.6296017794178
 20
16.17691646592716
 30
0.0
 10
189.7446649974115
 20
16.07882876798225
 30
0.0
 10
190.0397348497245
 20
15.92889785897218
 30
0.0
 10
189.9025147631857
 20
15.84343227515015
 30
0.0
 10
189.8041227843778
 20
15.71085785201554
 30
0.0
 10
189.7130033590651
 20
16.01616985781424
 30
0.0
 10
189.3636839480655
 20
16.07967869465373
 30
0.0
 10
189.511925837657
 20
16.17896509880878
 30
0.0
 10
189.5494081874237
 20
16.21252348402383
 30
0.0
 10
189.5681493631
 20
16.22930267330381
 30
0.0
 11
189.5681493631
 21
16.22930267330381
 31
0.0
 11
189.7919222440597
 21
16.06341774278972
 31
0.0
 11
189.9695046306384
 21
15.89753281227564
 31
0.0
 11
189.9066308127979
 21
15.83866743034592
 31
0.0
 11
189.8437569949575
 21
15.77980204841619
 31
0.0
 11
189.6688535117725
 21
15.95375677059491
 31
0.0
 11
189.447825685614
 21
16.12757920110701
 31
0.0
 11
189.507987524357
 21
16.17844093720541
 31
0.0
 11
189.5681493631
 21
16.22930267330381
 31
0.0
  0
SPLINE
  5
B0
102
{ACAD_REACTORS
330
CD
102
}
330
48
100
AcDbEntity
  8
_U_30EC_U_30A4_U_30E4_U_30FC_1
  6
Continuous
 62
     2
100
AcDbSpline
210
0.0
220
0.0
230
1.0
 70
    11
 71
     3
 72
    75
 73
    71
 74
    69
 42
0.000000001
 43
0.0000000001
 44
0.00000001
 40
0.0
 40
0.0
 40
0.0
 40
0.0
 40
0.0342546099129691
 40
0.1245622414432346
 40
0.2522385480897536
 40
0.398599192294068
 40
0.5449598364980839
 40
0.6726361431438834
 40
0.7629437746736978
 40
0.797198393529799
 40
1.101723623449636
 40
1.408591244036586
 40
1.433332471690294
 40
1.487763172450097
 40
1.542193873081936
 40
1.566935100592488
 40
1.923523931821799
 40
2.271755704953627
 40
2.590579755100897
 40
2.858943305581211
 40
2.889120339309205
 40
2.918305855191123
 40
2.941366645531244
 40
2.996357760973145
 40
3.061992318140708
 40
3.116983433626901
 40
3.140044223997579
 40
3.411273122936584
 40
3.732441619741278
 40
3.761068217532975
 40
3.837787499630537
 40
3.948858699126174
 40
4.080541049104549
 40
4.219093782625932
 40
4.350776132722481
 40
4.461847332405815
 40
4.538566614678545
 40
4.567193212544791
 40
4.594907573999049
 40
4.666381453557617
 40
4.764111044011227
 40
4.87059253812603
 40
4.968322128642481
 40
5.039796008287195
 40
5.067510369784626
 40
5.09426360318584
 40
5.153120716668481
 40
5.211977830150931
 40
5.238731063551938
 40
5.272290535139205
 40
5.363380529445009
 40
5.497618415781715
 40
5.660621563453929
 40
5.83800734174963
 40
6.01539311991101
 40
6.178396267038607
 40
6.312634151842587
 40
6.403724143059576
 40
6.437283612672672
 40
6.46403684626129
 40
6.52289396000491
 40
6.581751071484178
 40
6.608504301591126
 40
6.637253941281274
 40
6.711397748903154
 40
6.812778057283738
 40
6.923237199249514
 40
7.02461750762413
 40
7.098761315207811
 40
7.127510946007761
 40
7.127510946007761
 40
7.127510946007761
 40
7.127510946007761
 10
188.4418622390565
 20
14.95849128473263
 30
0.0
 10
188.4418622819707
 20
14.94707313408719
 30
0.0
 10
188.441862448113
 20
14.90555257842628
 30
0.0
 10
188.4418593081787
 20
14.8214692200377
 30
0.0
 10
188.4418788279802
 20
14.70004497322327
 30
0.0
 10
188.4417912187738
 20
14.55980494047446
 30
0.0
 10
188.4421116235231
 20
14.42006556794575
 30
0.0
 10
188.4411605909741
 20
14.29745038894928
 30
0.0
 10
188.4431978595969
 20
14.21587074438042
 30
0.0
 10
188.4349433178746
 20
14.06271267077697
 30
0.0
 10
188.7430797940902
 20
14.2256023605472
 30
0.0
 10
189.0350645173735
 20
14.39482938688
 30
0.0
 10
189.0408354448708
 20
14.25973235781911
 30
0.0
 10
189.045547171989
 20
14.21617221160443
 30
0.0
 10
189.0482535411919
 20
14.17211249350544
 30
0.0
 10
189.0672545672959
 20
14.02272590363132
 30
0.0
 10
188.6583942247304
 20
14.08681172241261
 30
0.0
 10
188.3793710348832
 20
13.97296341411017
 30
0.0
 10
188.1018081587167
 20
13.87364095811136
 30
0.0
 10
187.80998371844
 20
13.91630687596363
 30
0.0
 10
187.7869144678658
 20
13.8132167974454
 30
0.0
 10
187.7537474383333
 20
13.7869109124447
 30
0.0
 10
187.7480653962739
 20
13.83455309036305
 30
0.0
 10
187.7284214559045
 20
13.8718033611507
 30
0.0
 10
187.7095089485623
 20
13.93007387847562
 30
0.0
 10
187.6942849867706
 20
13.97385201007803
 30
0.0
 10
187.6477246372938
 20
14.08759421046315
 30
0.0
 10
187.9890897312448
 20
14.05576301120044
 30
0.0
 10
188.267964936739
 20
14.02161435106479
 30
0.0
 10
188.2617753034907
 20
14.16913976479651
 30
0.0
 10
188.2630935452775
 20
14.24013150908833
 30
0.0
 10
188.262483168995
 20
14.34719767958661
 30
0.0
 10
188.2625871570725
 20
14.47398529785997
 30
0.0
 10
188.2629987964057
 20
14.6084924349605
 30
0.0
 10
188.261390784197
 20
14.73395549951183
 30
0.0
 10
188.2659902567927
 20
14.84505246719117
 30
0.0
 10
188.256418650221
 20
14.90761886800686
 30
0.0
 10
188.2704001783692
 20
14.96595388295001
 30
0.0
 10
188.2147384386705
 20
14.95289710582236
 30
0.0
 10
188.1575655197822
 20
14.96136307749497
 30
0.0
 10
188.0616048925648
 20
14.95729976080635
 30
0.0
 10
187.9633767522822
 20
14.95970889852474
 30
0.0
 10
187.867258245756
 20
14.95551600613386
 30
0.0
 10
187.8104648525812
 20
14.96429346441162
 30
0.0
 10
187.7550356873385
 20
14.95094936850121
 30
0.0
 10
187.7670679427918
 20
15.00036910959256
 30
0.0
 10
187.7592003173938
 20
15.04393988030395
 30
0.0
 10
187.766629556383
 20
15.08830469118525
 30
0.0
 10
187.7551930564144
 20
15.13902297763992
 30
0.0
 10
187.8232102370134
 20
15.12162460757743
 30
0.0
 10
187.8968496879747
 20
15.13417450237189
 30
0.0
 10
188.0325064058211
 20
15.12799677011096
 30
0.0
 10
188.1884909024526
 20
15.13029203093085
 30
0.0
 10
188.3615926358144
 20
15.1294096826253
 30
0.0
 10
188.5346942964182
 20
15.13029207142408
 30
0.0
 10
188.6906789811218
 20
15.1279966295555
 30
0.0
 10
188.8263351889798
 20
15.13417486262431
 30
0.0
 10
188.8999756705653
 20
15.12162394218335
 30
0.0
 10
188.9679914174724
 20
15.13902373012143
 30
0.0
 10
188.9565590885923
 20
15.08830130414555
 30
0.0
 10
188.9639539458297
 20
15.04397060811107
 30
0.0
 10
188.9562039912272
 20
15.00028307550195
 30
0.0
 10
188.9681203741877
 20
14.95063590098476
 30
0.0
 10
188.9108170223618
 20
14.96461411338424
 30
0.0
 10
188.8520145789773
 20
14.95539755673253
 30
0.0
 10
188.75252936332
 20
14.95952268164928
 30
0.0
 10
188.6494280098349
 20
14.95822760025886
 30
0.0
 10
188.5537846354575
 20
14.9585407707764
 30
0.0
 10
188.4857467971616
 20
14.95848776697144
 30
0.0
 10
188.4514462213444
 20
14.95849051871655
 30
0.0
 10
188.4418622390565
 20
14.95849128473263
 30
0.0
 11
188.4418622390565
 21
14.95849128473263
 31
0.0
 11
188.4418622390565
 21
14.92423666587184
 31
0.0
 11
188.4418622390565
 21
14.83392903432974
 31
0.0
 11
188.4418622390565
 21
14.70625272766678
 31
0.0
 11
188.4418622390565
 21
14.55989208344339
 31
0.0
 11
188.4418622390565
 21
14.41353143921999
 31
0.0
 11
188.4418622390565
 21
14.28585513255703
 31
0.0
 11
188.4418622390565
 21
14.19554750101493
 31
0.0
 11
188.4418622390565
 21
14.16129288215414
 31
0.0
 11
188.7391932644568
 21
14.22709475713768
 31
0.0
 11
189.0384623627245
 21
14.29496038212072
 31
0.0
 11
189.0405487124976
 21
14.27030727882827
 31
0.0
 11
189.0451386819987
 21
14.21607045158489
 31
0.0
 11
189.0497286514997
 21
14.16183362434151
 31
0.0
 11
189.0518150012729
 21
14.13718052104906
 31
0.0
 11
188.7056396889241
 21
14.05163370140897
 31
0.0
 11
188.3669653138839
 21
13.970608776299
 31
0.0
 11
188.0563731516688
 21
13.89862764024928
 31
0.0
 11
187.7944444777955
 21
13.8402121877899
 31
0.0
 11
187.7817515029292
 21
13.81283442738012
 31
0.0
 11
187.7569794787514
 21
13.79740260446735
 31
0.0
 11
187.7491867589502
 21
13.81910683390636
 31
0.0
 11
187.7306041194242
 21
13.87086307333786
 31
0.0
 11
187.70842483999
 21
13.93263664943351
 31
0.0
 11
187.689842200464
 21
13.984392888865
 31
0.0
 11
187.6820494806628
 21
14.00609711830401
 31
0.0
 11
187.9482776335932
 21
14.05794001759665
 31
0.0
 11
188.262633493629
 21
14.1237396877191
 31
0.0
 11
188.262633493629
 21
14.15236628569624
 31
0.0
 11
188.262633493629
 21
14.22908556827499
 31
0.0
 11
188.262633493629
 21
14.34015676842631
 31
0.0
 11
188.262633493629
 21
14.47183911912117
 31
0.0
 11
188.262633493629
 21
14.61039185333055
 31
0.0
 11
188.262633493629
 21
14.74207420402542
 31
0.0
 11
188.262633493629
 21
14.85314540417674
 31
0.0
 11
188.262633493629
 21
14.92986468675549
 31
0.0
 11
188.262633493629
 21
14.95849128473263
 31
0.0
 11
188.2349191321109
 21
14.95849128473263
 31
0.0
 11
188.1634452524064
 21
14.95849128473263
 31
0.0
 11
188.0657156617901
 21
14.95849128473263
 31
0.0
 11
187.9592341675365
 21
14.95849128473263
 31
0.0
 11
187.8615045769201
 21
14.95849128473263
 31
0.0
 11
187.7900306972156
 21
14.95849128473263
 31
0.0
 11
187.7623163356976
 21
14.95849128473263
 31
0.0
 11
187.7623163356976
 21
14.98524451823288
 31
0.0
 11
187.7623163356976
 21
15.04410163193344
 31
0.0
 11
187.7623163356976
 21
15.10295874563399
 31
0.0
 11
187.7623163356976
 21
15.12971197913424
 31
0.0
 11
187.7958758072876
 21
15.12971197913424
 31
0.0
 11
187.8869658016031
 21
15.12971197913424
 31
0.0
 11
188.021203687963
 21
15.12971197913424
 31
0.0
 11
188.1842068356856
 21
15.12971197913424
 31
0.0
 11
188.3615926140897
 21
15.12971197913424
 31
0.0
 11
188.5389783924938
 21
15.12971197913424
 31
0.0
 11
188.7019815402165
 21
15.12971197913424
 31
0.0
 11
188.8362194265763
 21
15.12971197913424
 31
0.0
 11
188.9273094208919
 21
15.12971197913424
 31
0.0
 11
188.9608688924819
 21
15.12971197913424
 31
0.0
 11
188.9608688924819
 21
15.10295874563399
 31
0.0
 11
188.9608688924819
 21
15.04410163193343
 31
0.0
 11
188.9608688924819
 21
14.98524451823288
 31
0.0
 11
188.9608688924819
 21
14.95849128473263
 31
0.0
 11
188.9321192527878
 21
14.95849128473263
 31
0.0
 11
188.8579754451555
 21
14.95849128473263
 31
0.0
 11
188.7565951367605
 21
14.95849128473263
 31
0.0
 11
188.6461359947778
 21
14.95849128473263
 31
0.0
 11
188.5447556863828
 21
14.95849128473263
 31
0.0
 11
188.4706118787506
 21
14.95849128473263
 31
0.0
 11
188.4418622390565
 21
14.95849128473263
 31
0.0
  0
SPLINE
  5
B1
102
{ACAD_REACTORS
330
CE
102
}
330
48
100
AcDbEntity
  8
_U_30EC_U_30A4_U_30E4_U_30FC_1
  6
Continuous
 62
     2
100
AcDbSpline
210
0.0
220
0.0
230
1.0
 70
    11
 71
     3
 72
    91
 73
    87
 74
    85
 42
0.000000001
 43
0.0000000001
 44
0.00000001
 40
0.0
 40
0.0
 40
0.0
 40
0.0
 40
0.0345987051695434
 40
0.1258134969461085
 40
0.2547723404888703
 40
0.4026032099153841
 40
0.5504340793416704
 40
0.679392922883608
 40
0.770607714657132
 40
0.8052064287780925
 40
1.124852390615279
 40
1.427402236308876
 40
1.706356627453514
 40
1.95554141787518
 40
2.169485938566322
 40
2.344350786664776
 40
2.480568411561905
 40
2.5904405574289
 40
2.649189927151103
 40
2.749320643306318
 40
2.912632739880018
 40
3.147745656000211
 40
3.244827496385154
 40
3.338490056946795
 40
3.583815413207211
 40
3.761423943238569
 40
3.886956104362744
 40
3.985855451886929
 40
4.091766255337785
 40
4.250186473811978
 40
4.422734315084645
 40
4.628285684838722
 40
4.872093227758565
 40
5.152549652145683
 40
5.464967135837653
 40
5.803201477852572
 40
6.160362988814044
 40
6.193449448276128
 40
6.284170385501782
 40
6.419718138764623
 40
6.587285046385902
 40
6.774063446723788
 40
6.967245678113771
 40
7.154024078817785
 40
7.321590987026142
 40
7.457138740890501
 40
7.547859678556237
 40
7.580946138182797
 40
7.608533084714849
 40
7.669224367077825
 40
7.729915649430041
 40
7.757502595950093
 40
7.790278062553575
 40
7.880146277431044
 40
8.01441996318048
 40
8.180411842398009
 40
8.365434637679478
 40
8.55680107162275
 40
8.741823866830863
 40
8.90781574591643
 40
9.042089431507556
 40
9.131957646249681
 40
9.164733112797258
 40
9.41542506314019
 40
9.667986180958662
 40
9.694169807462801
 40
9.756607686047733
 40
9.83113031532254
 40
9.893568193899947
 40
9.919751820398764
 40
9.95096796469058
 40
9.996421631210742
 40
10.22087981037463
 40
10.44341866197552
 40
10.47847970788865
 40
10.57091337438765
 40
10.70159545461246
 40
10.85140174170374
 40
11.00120802880496
 40
11.13189010907402
 40
11.22432377583027
 40
11.25938480938976
 40
11.28697175596164
 40
11.34766303835938
 40
11.40835432042089
 40
11.43594125892123
 40
11.43594125892123
 40
11.43594125892123
 40
11.43594125892123
 10
190.081811433329
 20
15.55242795125076
 30
0.0
 10
190.0702785844942
 20
15.55242790287915
 30
0.0
 10
190.0283409444999
 20
15.55242773704162
 30
0.0
 10
189.9434129719027
 20
15.55243125800908
 30
0.0
 10
189.8207688553129
 20
15.55240926435877
 30
0.0
 10
189.6791206916994
 20
15.55250801177053
 30
0.0
 10
189.537975369849
 20
15.55214686232419
 30
0.0
 10
189.4141351317905
 20
15.55321883609088
 30
0.0
 10
189.3317217825382
 20
15.55092249091267
 30
0.0
 10
189.1727791229693
 20
15.56048569373419
 30
0.0
 10
189.3503402353376
 20
15.19785394311369
 30
0.0
 10
189.3379739205453
 20
14.95243127723113
 30
0.0
 10
189.4064519473866
 20
14.66862501324835
 30
0.0
 10
189.4693024320971
 20
14.43250999939034
 30
0.0
 10
189.5452253431729
 20
14.23326740396129
 30
0.0
 10
189.6303189577017
 20
14.07745347451375
 30
0.0
 10
189.7244607592935
 20
13.97657857781392
 30
0.0
 10
189.8282648207727
 20
13.92465852638966
 30
0.0
 10
189.9125872030775
 20
13.97606484379615
 30
0.0
 10
189.9351322179452
 20
14.09144544037517
 30
0.0
 10
189.9745730975372
 20
14.21885149702382
 30
0.0
 10
189.9202919734942
 20
14.53622328086755
 30
0.0
 10
190.0451218072473
 20
14.38982180140903
 30
0.0
 10
190.2019291513604
 20
14.35795300331174
 30
0.0
 10
190.0947720007058
 20
14.12421357767627
 30
0.0
 10
190.0808711209868
 20
13.95972776583656
 30
0.0
 10
190.0234709467226
 20
13.83130869122483
 30
0.0
 10
189.933502014501
 20
13.76018802352828
 30
0.0
 10
189.8095274657878
 20
13.74432324142253
 30
0.0
 10
189.6634273196861
 20
13.77993797554173
 30
0.0
 10
189.5243894320285
 20
13.90000570500275
 30
0.0
 10
189.4102003962145
 20
14.07435682550321
 30
0.0
 10
189.3146141301486
 20
14.29946603111239
 30
0.0
 10
189.2318652572627
 20
14.56388246006441
 30
0.0
 10
189.1807179256412
 20
14.88187933098543
 30
0.0
 10
189.0770189207338
 20
15.15543728488911
 30
0.0
 10
189.2042841208521
 20
15.56005818612867
 30
0.0
 10
189.0357890623019
 20
15.55112367849677
 30
0.0
 10
188.9511995787077
 20
15.55315961418362
 30
0.0
 10
188.8189876387628
 20
15.55213937388405
 30
0.0
 10
188.6560505094104
 20
15.55253230318428
 30
0.0
 10
188.4733759170534
 20
15.55235696313368
 30
0.0
 10
188.2847057373383
 20
15.55260105307467
 30
0.0
 10
188.101446902019
 20
15.55185657906235
 30
0.0
 10
187.9404746832719
 20
15.55416360522425
 30
0.0
 10
187.8029808335276
 20
15.54799804883661
 30
0.0
 10
187.7289590372312
 20
15.5603283845821
 30
0.0
 10
187.6613215186857
 20
15.54329323723555
 30
0.0
 10
187.6732373719271
 20
15.59524438447527
 30
0.0
 10
187.6655677285694
 20
15.64071424966527
 30
0.0
 10
187.6732592225117
 20
15.68614453703704
 30
0.0
 10
187.6613141797762
 20
15.73802395984569
 30
0.0
 10
187.7283588305868
 20
15.72119143490262
 30
0.0
 10
187.8017375665677
 20
15.73335409092669
 30
0.0
 10
187.9379128305272
 20
15.72727231074956
 30
0.0
 10
188.0973811801514
 20
15.72954834315056
 30
0.0
 10
188.2789173085836
 20
15.7288123399896
 30
0.0
 10
188.465803486218
 20
15.72905954196131
 30
0.0
 10
188.6468012316836
 20
15.72886400799251
 30
0.0
 10
188.8080802578879
 20
15.72932234714837
 30
0.0
 10
188.9393882124887
 20
15.72812673751203
 30
0.0
 10
189.0225051322597
 20
15.73051347319741
 30
0.0
 10
189.1556236547815
 20
15.72230605725462
 30
0.0
 10
189.064589350266
 20
15.97752868952653
 30
0.0
 10
188.978963307442
 20
16.24164358328246
 30
0.0
 10
189.0990589003456
 20
16.22904442969165
 30
0.0
 10
189.1514264948544
 20
16.22694235763075
 30
0.0
 10
189.2214497569715
 20
16.22535399889657
 30
0.0
 10
189.2671922337817
 20
16.21602567538113
 30
0.0
 10
189.3220812646933
 20
16.22545966915427
 30
0.0
 10
189.2963574785682
 20
16.17733028655168
 30
0.0
 10
189.1825397571452
 20
16.18266829744178
 30
0.0
 10
189.3159346621136
 20
15.95449174576772
 30
0.0
 10
189.1943658735471
 20
15.72156856595921
 30
0.0
 10
189.3223188769413
 20
15.73087258884437
 30
0.0
 10
189.4049048406461
 20
15.72801001754678
 30
0.0
 10
189.5307214850824
 20
15.729234374123
 30
0.0
 10
189.6741469838059
 20
15.72932431888963
 30
0.0
 10
189.8157420951728
 20
15.72746163183851
 30
0.0
 10
189.9459127249968
 20
15.7333307593716
 30
0.0
 10
190.0193452286192
 20
15.72070340823202
 30
0.0
 10
190.0891112922097
 20
15.73877563110411
 30
0.0
 10
190.0775772605397
 20
15.68612850546324
 30
0.0
 10
190.0833184346683
 20
15.64221317686545
 30
0.0
 10
190.0816615770912
 20
15.59089982676549
 30
0.0
 10
190.081775756167
 20
15.56158792021633
 30
0.0
 10
190.081811433329
 20
15.55242795125076
 30
0.0
 11
190.081811433329
 21
15.55242795125076
 31
0.0
 11
190.0472127192052
 21
15.55242795125076
 31
0.0
 11
189.9559979274242
 21
15.55242795125076
 31
0.0
 11
189.8270390838718
 21
15.55242795125076
 31
0.0
 11
189.6792082144337
 21
15.55242795125076
 31
0.0
 11
189.5313773449955
 21
15.55242795125076
 31
0.0
 11
189.4024185014431
 21
15.55242795125076
 31
0.0
 11
189.3112037096621
 21
15.55242795125076
 31
0.0
 11
189.2766049955383
 21
15.55242795125076
 31
0.0
 11
189.3083140497694
 21
15.2343586493012
 31
0.0
 11
189.3527866656866
 21
14.93509522788079
 31
0.0
 11
189.4092389118321
 21
14.66191269512575
 31
0.0
 11
189.4768868567479
 21
14.42208605917227
 31
0.0
 11
189.5549465689762
 21
14.22289032815654
 31
0.0
 11
189.6426341170592
 21
14.07160051021477
 31
0.0
 11
189.7391655695389
 21
13.97549161348317
 31
0.0
 11
189.8437569949575
 21
13.94183864609792
 31
0.0
 11
189.8943077302786
 21
13.97177376978835
 31
0.0
 11
189.9310588991552
 21
14.06491619815047
 31
0.0
 11
189.9562640977528
 21
14.22627151712055
 31
0.0
 11
189.9721769222368
 21
14.46084531263482
 31
0.0
 11
190.0494082682584
 21
14.40202182306617
 31
0.0
 11
190.1327184184386
 21
14.35921885432689
 31
0.0
 11
190.1066365811218
 21
14.1152838866101
 31
0.0
 11
190.0673317805106
 21
13.94207902887562
 31
0.0
 11
190.0105702596766
 21
13.83011272445918
 31
0.0
 11
189.9321182616911
 21
13.76989341669645
 31
0.0
 11
189.8277420296257
 21
13.75192954892317
 31
0.0
 11
189.6738595065098
 21
13.78957440012361
 31
0.0
 11
189.5388902376748
 21
13.89707348877403
 31
0.0
 11
189.4221739916164
 21
14.06627361744808
 31
0.0
 11
189.32305053683
 21
14.28902158871943
 31
0.0
 11
189.2408596418114
 21
14.55716420516172
 31
0.0
 11
189.174941075056
 21
14.86254826934859
 31
0.0
 11
189.1246346050594
 21
15.19702058385372
 31
0.0
 11
189.0892800003172
 21
15.55242795125076
 31
0.0
 11
189.0561935405844
 21
15.55242795125076
 31
0.0
 11
188.9654726026075
 21
15.55242795125076
 31
0.0
 11
188.8299248482186
 21
15.55242795125076
 31
0.0
 11
188.6623579392495
 21
15.55242795125076
 31
0.0
 11
188.4755795375324
 21
15.55242795125076
 31
0.0
 11
188.2823973048993
 21
15.55242795125076
 31
0.0
 11
188.0956189031822
 21
15.55242795125076
 31
0.0
 11
187.9280519942132
 21
15.55242795125076
 31
0.0
 11
187.7925042398242
 21
15.55242795125076
 31
0.0
 11
187.7017833018473
 21
15.55242795125076
 31
0.0
 11
187.6686968421146
 21
15.55242795125076
 31
0.0
 11
187.6686968421146
 21
15.58001489785845
 31
0.0
 11
187.6686968421146
 21
15.64070618039536
 31
0.0
 11
187.6686968421146
 21
15.70139746293227
 31
0.0
 11
187.6686968421146
 21
15.72898440953996
 31
0.0
 11
187.7014723087632
 21
15.72898440953996
 31
0.0
 11
187.7913405237674
 21
15.72898440953996
 31
0.0
 11
187.9256142097149
 21
15.72898440953996
 31
0.0
 11
188.0916060891933
 21
15.72898440953996
 31
0.0
 11
188.2766288847902
 21
15.72898440953996
 31
0.0
 11
188.4679953190933
 21
15.72898440953996
 31
0.0
 11
188.6530181146902
 21
15.72898440953996
 31
0.0
 11
188.8190099941686
 21
15.72898440953996
 31
0.0
 11
188.9532836801161
 21
15.72898440953996
 31
0.0
 11
189.0431518951203
 21
15.72898440953996
 31
0.0
 11
189.0759273617689
 21
15.72898440953996
 31
0.0
 11
189.0659183950104
 21
15.97947647544957
 31
0.0
 11
189.0599112510664
 21
16.23196614552531
 31
0.0
 11
189.086057587066
 21
16.23056921608122
 31
0.0
 11
189.148406542142
 21
16.22723807663761
 31
0.0
 11
189.22282303691
 21
16.22326220052749
 31
0.0
 11
189.2851719919859
 21
16.21993106108388
 31
0.0
 11
189.3113183279855
 21
16.21853413163979
 31
0.0
 11
189.298293111304
 21
16.19016528616079
 31
0.0
 11
189.2551649266405
 21
16.17581274276164
 31
0.0
 11
189.2574991961821
 21
15.95136670115108
 31
0.0
 11
189.2658452735903
 21
15.72898440953996
 31
0.0
 11
189.3009063195165
 21
15.72898440953996
 31
0.0
 11
189.3933399860495
 21
15.72898440953996
 31
0.0
 11
189.5240220663201
 21
15.72898440953996
 31
0.0
 11
189.6738283534596
 21
15.72898440953996
 31
0.0
 11
189.8236346405992
 21
15.72898440953996
 31
0.0
 11
189.9543167208698
 21
15.72898440953996
 31
0.0
 11
190.0467503874027
 21
15.72898440953996
 31
0.0
 11
190.081811433329
 21
15.72898440953996
 31
0.0
 11
190.081811433329
 21
15.70139746293227
 31
0.0
 11
190.081811433329
 21
15.64070618039536
 31
0.0
 11
190.081811433329
 21
15.58001489785845
 31
0.0
 11
190.081811433329
 21
15.55242795125076
 31
0.0
  0
SPLINE
  5
B2
102
{ACAD_REACTORS
330
CF
102
}
330
48
100
AcDbEntity
  8
_U_30EC_U_30A4_U_30E4_U_30FC_1
  6
Continuous
 62
     2
100
AcDbSpline
210
0.0
220
0.0
230
1.0
 70
    11
 71
     3
 72
   118
 73
   114
 74
   112
 42
0.000000001
 43
0.0000000001
 44
0.00000001
 40
0.0
 40
0.0
 40
0.0
 40
0.0
 40
0.105470816297341
 40
0.2466098270052049
 40
0.3965912874591522
 40
0.5285525069754398
 40
0.6156245055642608
 40
0.6431434105797766
 40
0.7036850037986485
 40
0.7642265984504911
 40
0.7917455052355229
 40
0.9287404319990348
 40
1.106572819088105
 40
1.287544879681145
 40
1.317578308030664
 40
1.399928030857301
 40
1.522968204800077
 40
1.6750729865907
 40
1.844616533180777
 40
2.019973001638843
 40
2.189516548880158
 40
2.341621331585496
 40
2.464661506320636
 40
2.547011229647199
 40
2.577044658168163
 40
2.603797890893206
 40
2.662655002908893
 40
2.721512114949676
 40
2.748265347702827
 40
2.774215307344904
 40
2.845959313407234
 40
2.954338556588431
 40
3.090194227585608
 40
3.244367517100572
 40
3.40769961584433
 40
3.571031714539477
 40
3.725205003920153
 40
3.861060674729651
 40
3.969439917716344
 40
4.041183923629018
 40
4.06713388321301
 40
4.311886746012181
 40
4.547897258335546
 40
4.764747083044013
 40
4.952749679951805
 40
5.045772974195921
 40
5.137862019645025
 40
5.330543169793056
 40
5.553448265244047
 40
5.795083855888201
 40
6.043293412177283
 40
6.285761695541221
 40
6.313902908752733
 40
6.384255941793323
 40
6.475714884766911
 40
6.567173827758945
 40
6.637526860839723
 40
6.665668074074087
 40
6.692018920328061
 40
6.749990782071134
 40
6.807962643790508
 40
6.834313490017982
 40
6.856393084245261
 40
6.913335195649913
 40
6.991194817302548
 40
7.076026942283781
 40
7.153886563725329
 40
7.210828674844882
 40
7.232908268931218
 40
7.258199334923739
 40
7.324875781592389
 40
7.419142481925046
 40
7.527204308841985
 40
7.635266135230563
 40
7.729532834168549
 40
7.796209279292872
 40
7.821500344594818
 40
7.844652988850917
 40
7.899863140541667
 40
7.965759128053834
 40
8.020969279771146
 40
8.044121924046612
 40
8.069356610160739
 40
8.109134395441565
 40
8.132238100191277
 40
8.193147867786639
 40
8.27926167887681
 40
8.377977512674024
 40
8.476693347146805
 40
8.562807160411856
 40
8.623716930826642
 40
8.646820636853594
 40
8.671988793774407
 40
8.734909185828347
 40
8.81670569518906
 40
8.89850220481566
 40
8.96142259737815
 40
8.986590754551262
 40
9.01294160073342
 40
9.070913462380508
 40
9.128885324082004
 40
9.155236170325328
 40
9.18040432792937
 40
9.243324721948472
 40
9.325121234212265
 40
9.406917746637948
 40
9.469838141978432
 40
9.495006288271206
 40
9.517811184379347
 40
9.572192090487349
 40
9.637098333281577
 40
9.691479239515777
 40
9.714284125643816
 40
9.714284125643816
 40
9.714284125643816
 40
9.714284125643816
 10
185.2874469028653
 20
15.26889163187718
 30
0.0
 10
185.3090990569037
 20
15.2411186924281
 30
0.0
 10
185.3597257109473
 20
15.17618054561234
 30
0.0
 10
185.4349383202592
 20
15.06891060312897
 30
0.0
 10
185.5248482274347
 20
14.95377438266625
 30
0.0
 10
185.5709169676674
 20
14.85357045748319
 30
0.0
 10
185.6655825294656
 20
14.78434006814945
 30
0.0
 10
185.6204439320413
 20
14.73771639678272
 30
0.0
 10
185.5947047785791
 20
14.69660308866039
 30
0.0
 10
185.5645196708014
 20
14.66065971727939
 30
0.0
 10
185.5193684730562
 20
14.58579782596091
 30
0.0
 10
185.4710504458563
 20
14.80782524253605
 30
0.0
 10
185.3968539713074
 20
14.8451067733771
 30
0.0
 10
185.2836047324606
 20
15.11610202130603
 30
0.0
 10
185.2885133578169
 20
15.0009532844623
 30
0.0
 10
185.2868486556306
 20
14.92836675781628
 30
0.0
 10
185.2876830076713
 20
14.80625588483987
 30
0.0
 10
185.2873609540264
 20
14.65913800810461
 30
0.0
 10
185.2875076912456
 20
14.49307063956558
 30
0.0
 10
185.2872950092722
 20
14.32187554608602
 30
0.0
 10
185.2879497252034
 20
14.15552828635499
 30
0.0
 10
185.2859192461139
 20
14.00935173055694
 30
0.0
 10
185.291346039993
 20
13.8847104747461
 30
0.0
 10
185.2804930868708
 20
13.81718656540627
 30
0.0
 10
185.2956739155555
 20
13.75549061417023
 30
0.0
 10
185.2457895108134
 20
13.76727503897002
 30
0.0
 10
185.2017150342523
 20
13.7594382277997
 30
0.0
 10
185.1582371630201
 20
13.76760441372702
 30
0.0
 10
185.1092346786489
 20
13.75538056738469
 30
0.0
 10
185.1218731234826
 20
13.80960667249313
 30
0.0
 10
185.113018296845
 20
13.86936918907557
 30
0.0
 10
185.1175058770314
 20
13.9792202904437
 30
0.0
 10
185.1157960135992
 20
14.11029975405678
 30
0.0
 10
185.1163550915987
 20
14.26198011444328
 30
0.0
 10
185.1161928768694
 20
14.42211074929953
 30
0.0
 10
185.1162269924675
 20
14.58236865674565
 30
0.0
 10
185.1162514960128
 20
14.73370247520439
 30
0.0
 10
185.1161453543226
 20
14.865821563386
 30
0.0
 10
185.1164299141932
 20
14.97294802533192
 30
0.0
 10
185.1158675547569
 20
15.03808619579473
 30
0.0
 10
185.1180765083689
 20
15.16618957858674
 30
0.0
 10
185.0319435998604
 20
14.79097610391574
 30
0.0
 10
184.9555140818501
 20
14.63918193123393
 30
0.0
 10
184.8660040767834
 20
14.47766206446309
 30
0.0
 10
184.7640413217327
 20
14.2047184882017
 30
0.0
 10
184.718797649104
 20
14.36717346596512
 30
0.0
 10
184.6102355941671
 20
14.45605432058118
 30
0.0
 10
184.7995791751753
 20
14.6054979496141
 30
0.0
 10
184.85653405457
 20
14.79749136974924
 30
0.0
 10
184.9717520993353
 20
15.02899622906757
 30
0.0
 10
184.9940151630133
 20
15.2179725975906
 30
0.0
 10
185.177190515214
 20
15.49454089325931
 30
0.0
 10
185.0538033597553
 20
15.48698978832093
 30
0.0
 10
184.9925684166834
 20
15.48856772366117
 30
0.0
 10
184.9081999617065
 20
15.48882592573672
 30
0.0
 10
184.8204235085967
 20
15.48544845751204
 30
0.0
 10
184.7656768696123
 20
15.49394814982019
 30
0.0
 10
184.7104703026025
 20
15.48048561049787
 30
0.0
 10
184.7222823035536
 20
15.52931442126762
 30
0.0
 10
184.7142496151794
 20
15.57269004896708
 30
0.0
 10
184.7228186104679
 20
15.61509438309572
 30
0.0
 10
184.7102943409157
 20
15.66267796552118
 30
0.0
 10
184.7555101538736
 20
15.65267212995109
 30
0.0
 10
184.8014815562725
 20
15.65894105174061
 30
0.0
 10
184.877722204771
 20
15.65593561405872
 30
0.0
 10
184.9561296131995
 20
15.65770448278541
 30
0.0
 10
185.0323992648934
 20
15.65464793981659
 30
0.0
 10
185.0783009459475
 20
15.66103971376176
 30
0.0
 10
185.12317339654
 20
15.65093822978896
 30
0.0
 10
185.1105552275635
 20
15.70157201581898
 30
0.0
 10
185.1191936582707
 20
15.7550126188207
 30
0.0
 10
185.1152361595445
 20
15.8486325513168
 30
0.0
 10
185.1162325068335
 20
15.95112606688924
 30
0.0
 10
185.1171927413074
 20
16.05353270248163
 30
0.0
 10
185.1133211458006
 20
16.14735929609321
 30
0.0
 10
185.1217789814365
 20
16.20036542840353
 30
0.0
 10
185.1093075932836
 20
16.25211435651189
 30
0.0
 10
185.1542106389851
 20
16.23850747226757
 30
0.0
 10
185.1955083836773
 20
16.24100480320586
 30
0.0
 10
185.2595344281051
 20
16.23648060574487
 30
0.0
 10
185.2986111148787
 20
16.22781003043309
 30
0.0
 10
185.3476543498743
 20
16.23515102070686
 30
0.0
 10
185.322508003059
 20
16.19602896051757
 30
0.0
 10
185.2815901333723
 20
16.20563842455809
 30
0.0
 10
185.2910109616604
 20
16.15540148169778
 30
0.0
 10
185.2855647318746
 20
16.10385945639489
 30
0.0
 10
185.2881699601803
 20
16.01959707584519
 30
0.0
 10
185.2870102202154
 20
15.92559135583408
 30
0.0
 10
185.2883591064232
 20
15.83196865395525
 30
0.0
 10
185.2849970101508
 20
15.74679517552222
 30
0.0
 10
185.2920959917769
 20
15.69716856072044
 30
0.0
 10
185.2812569154545
 20
15.64993694969989
 30
0.0
 10
185.3304010225246
 20
15.66201674936852
 30
0.0
 10
185.3794877630147
 20
15.65447393363011
 30
0.0
 10
185.4573714280642
 20
15.65686070361433
 30
0.0
 10
185.5350365172896
 20
15.65899381905415
 30
0.0
 10
185.5845393931356
 20
15.65193391922455
 30
0.0
 10
185.634459475064
 20
15.66360151936214
 30
0.0
 10
185.6223198516882
 20
15.61540235371392
 30
0.0
 10
185.6305838229144
 20
15.57249219801235
 30
0.0
 10
185.6223198650785
 20
15.52958201851384
 30
0.0
 10
185.6344594549855
 20
15.48138288754864
 30
0.0
 10
185.5845395158747
 20
15.4930503447151
 30
0.0
 10
185.5350350651204
 20
15.48599202435044
 30
0.0
 10
185.4573784382972
 20
15.48811665228602
 30
0.0
 10
185.379464386576
 20
15.49053389365759
 30
0.0
 10
185.3304500352717
 20
15.48291848194484
 30
0.0
 10
185.2813246108943
 20
15.49507952557591
 30
0.0
 10
185.2915559988571
 20
15.45073013424157
 30
0.0
 10
185.2856677678053
 20
15.4092543620291
 30
0.0
 10
185.2878788305568
 20
15.34915394315302
 30
0.0
 10
185.2874109346146
 20
15.30225782762887
 30
0.0
 10
185.2874386992913
 20
15.27650146418195
 30
0.0
 10
185.2874469028653
 20
15.26889163187718
 30
0.0
 11
185.2874469028653
 21
15.26889163187718
 31
0.0
 11
185.3516977534484
 21
15.18524999634255
 31
0.0
 11
185.4348258835499
 21
15.0711888974822
 31
0.0
 11
185.5216831568896
 21
14.94891767195723
 31
0.0
 11
185.5971214371873
 21
14.84064565642876
 31
0.0
 11
185.6459925881627
 21
14.7685821875579
 31
0.0
 11
185.6296821285094
 21
14.74641782124399
 31
0.0
 11
185.5937991172721
 21
14.69765621535339
 31
0.0
 11
185.5579161060347
 21
14.64889460946279
 31
0.0
 11
185.5416056463814
 21
14.62673024314888
 31
0.0
 11
185.4763067109447
 21
14.74716139023812
 31
0.0
 11
185.3848434243235
 21
14.89966983670207
 31
0.0
 11
185.2874469028653
 21
15.05219788193143
 31
0.0
 11
185.2874469028653
 21
15.02216445328254
 31
0.0
 11
185.2874469028653
 21
14.93981472956784
 31
0.0
 11
185.2874469028653
 21
14.81677455413529
 31
0.0
 11
185.2874469028653
 21
14.66466977033284
 31
0.0
 11
185.2874469028653
 21
14.49512622150846
 31
0.0
 11
185.2874469028653
 21
14.3197697510101
 31
0.0
 11
185.2874469028653
 21
14.15022620218571
 31
0.0
 11
185.2874469028653
 21
13.99812141838326
 31
0.0
 11
185.2874469028653
 21
13.87508124295071
 31
0.0
 11
185.2874469028653
 21
13.79273151923601
 31
0.0
 11
185.2874469028653
 21
13.76269809058712
 31
0.0
 11
185.2606936700409
 21
13.76269809058712
 31
0.0
 11
185.2018365578272
 21
13.76269809058712
 31
0.0
 11
185.1429794456135
 21
13.76269809058712
 31
0.0
 11
185.1162262127891
 21
13.76269809058712
 31
0.0
 11
185.1162262127891
 21
13.7886480503125
 31
0.0
 11
185.1162262127891
 21
13.86039205661208
 31
0.0
 11
185.1162262127891
 21
13.96877130017101
 31
0.0
 11
185.1162262127891
 21
14.10462697167447
 31
0.0
 11
185.1162262127891
 21
14.25880026180761
 31
0.0
 11
185.1162262127891
 21
14.42213236125558
 31
0.0
 11
185.1162262127891
 21
14.58546446070356
 31
0.0
 11
185.1162262127891
 21
14.73963775083669
 31
0.0
 11
185.1162262127891
 21
14.87549342234015
 31
0.0
 11
185.1162262127891
 21
14.98387266589908
 31
0.0
 11
185.1162262127891
 21
15.05561667219866
 31
0.0
 11
185.1162262127891
 21
15.08156663192404
 31
0.0
 11
185.0379865861723
 21
14.84965603302372
 31
0.0
 11
184.9497110789304
 21
14.63077616328678
 31
0.0
 11
184.8544106930046
 21
14.43598991333546
 31
0.0
 11
184.7550964303357
 21
14.27636017379201
 31
0.0
 11
184.7109198342407
 21
14.35822446196598
 31
0.0
 11
184.6588057383481
 21
14.43414885430811
 31
0.0
 11
184.76273025903
 21
14.59640087926757
 31
0.0
 11
184.8629319864735
 21
14.7955146542178
 31
0.0
 11
184.9550446607902
 21
15.01890447916195
 31
0.0
 11
185.0347020220913
 21
15.25398465410318
 31
0.0
 11
185.0975378104881
 21
15.48816947904464
 31
0.0
 11
185.0693965972143
 21
15.48816947904464
 31
0.0
 11
184.9990435640298
 21
15.48816947904464
 31
0.0
 11
184.9075846208899
 21
15.48816947904464
 31
0.0
 11
184.81612567775
 21
15.48816947904464
 31
0.0
 11
184.7457726445655
 21
15.48816947904464
 31
0.0
 11
184.7176314312917
 21
15.48816947904464
 31
0.0
 11
184.7176314312917
 21
15.51452032539221
 31
0.0
 11
184.7176314312917
 21
15.57249218735688
 31
0.0
 11
184.7176314312917
 21
15.63046404932155
 31
0.0
 11
184.7176314312917
 21
15.65681489566912
 31
0.0
 11
184.739711025602
 21
15.65681489566912
 31
0.0
 11
184.7966531372445
 21
15.65681489566912
 31
0.0
 11
184.8745127592863
 21
15.65681489566912
 31
0.0
 11
184.9593448847945
 21
15.65681489566912
 31
0.0
 11
185.0372045068362
 21
15.65681489566912
 31
0.0
 11
185.0941466184787
 21
15.65681489566912
 31
0.0
 11
185.1162262127891
 21
15.65681489566912
 31
0.0
 11
185.1162262127891
 21
15.68210596174353
 31
0.0
 11
185.1162262127891
 21
15.74878240866697
 31
0.0
 11
185.1162262127891
 21
15.84304910948977
 31
0.0
 11
185.1162262127891
 21
15.95111093726224
 31
0.0
 11
185.1162262127891
 21
16.05917276503471
 31
0.0
 11
185.1162262127891
 21
16.15343946585751
 31
0.0
 11
185.1162262127891
 21
16.22011591278095
 31
0.0
 11
185.1162262127891
 21
16.24540697885536
 31
0.0
 11
185.1393181988666
 21
16.243732131078
 31
0.0
 11
185.1943837041285
 21
16.23973826330122
 31
0.0
 11
185.2601070491185
 21
16.23497138885796
 31
0.0
 11
185.3151725543804
 21
16.23097752108117
 31
0.0
 11
185.3382645404579
 21
16.22930267330381
 31
0.0
 11
185.3249012644362
 21
16.2078967792119
 31
0.0
 11
185.2874469028653
 21
16.19450114553468
 31
0.0
 11
185.2874469028653
 21
16.17139743948577
 31
0.0
 11
185.2874469028653
 21
16.11048766899319
 31
0.0
 11
185.2874469028653
 21
16.02437385553815
 31
0.0
 11
185.2874469028653
 21
15.9256580206019
 31
0.0
 11
185.2874469028653
 21
15.82694218566565
 31
0.0
 11
185.2874469028653
 21
15.74082837221061
 31
0.0
 11
185.2874469028653
 21
15.67991860171803
 31
0.0
 11
185.2874469028653
 21
15.65681489566912
 31
0.0
 11
185.3126150604809
 21
15.65681489566912
 31
0.0
 11
185.3755354545199
 21
15.65681489566912
 31
0.0
 11
185.4573319667706
 21
15.65681489566912
 31
0.0
 11
185.5391284790213
 21
15.65681489566912
 31
0.0
 11
185.6020488730603
 21
15.65681489566912
 31
0.0
 11
185.6272170306759
 21
15.65681489566912
 31
0.0
 11
185.6272170306759
 21
15.63046404932154
 31
0.0
 11
185.6272170306759
 21
15.57249218735688
 31
0.0
 11
185.6272170306759
 21
15.51452032539222
 31
0.0
 11
185.6272170306759
 21
15.48816947904464
 31
0.0
 11
185.6020488730603
 21
15.48816947904464
 31
0.0
 11
185.5391284790213
 21
15.48816947904464
 31
0.0
 11
185.4573319667706
 21
15.48816947904464
 31
0.0
 11
185.3755354545199
 21
15.48816947904464
 31
0.0
 11
185.3126150604809
 21
15.48816947904464
 31
0.0
 11
185.2874469028653
 21
15.48816947904464
 31
0.0
 11
185.2874469028653
 21
15.46536458293923
 31
0.0
 11
185.2874469028653
 21
15.41098367684169
 31
0.0
 11
185.2874469028653
 21
15.34607743408013
 31
0.0
 11
185.2874469028653
 21
15.2916965279826
 31
0.0
 11
185.2874469028653
 21
15.26889163187718
 31
0.0
  0
SPLINE
  5
B3
102
{ACAD_REACTORS
330
D0
102
}
330
48
100
AcDbEntity
  8
_U_30EC_U_30A4_U_30E4_U_30FC_1
  6
Continuous
 62
     2
100
AcDbSpline
210
0.0
220
0.0
230
1.0
 70
    11
 71
     3
 72
    47
 73
    43
 74
    41
 42
0.000000001
 43
0.0000000001
 44
0.00000001
 40
0.0
 40
0.0
 40
0.0
 40
0.0
 40
0.2207912809957272
 40
0.4459404186303132
 40
0.490238719045907
 40
0.5327473892722038
 40
0.574226045122507
 40
0.6155432630559794
 40
0.6568164066315281
 40
0.6982511618780475
 40
0.7407663929316435
 40
0.7851366743175344
 40
1.010288833836334
 40
1.231080507002193
 40
1.451765243652413
 40
1.676638205891697
 40
1.720461045359666
 40
1.830018144043532
 40
1.972442372353163
 40
2.114866600677532
 40
2.224423699395157
 40
2.268246538883398
 40
2.493628801207238
 40
2.715602830286639
 40
2.934211330706387
 40
3.149502369855385
 40
3.231387784851031
 40
3.31823187385418
 40
3.405143198198139
 40
3.486970301720491
 40
3.702258172493936
 40
3.920866283534162
 40
4.142839325931954
 40
4.368221903865424
 40
4.412044743359904
 40
4.52160184209592
 40
4.6640260704524
 40
4.806450298809108
 40
4.9160073975468
 40
4.959830237043124
 40
5.184703515847153
 40
5.405387250767522
 40
5.405387250767522
 40
5.405387250767522
 40
5.405387250767522
 10
182.6507427258646
 20
15.73406440953871
 30
0.0
 10
182.6568139420004
 20
15.79758482501209
 30
0.0
 10
182.6690762107244
 20
15.92587938689626
 30
0.0
 10
182.5604706879414
 20
16.20166220174077
 30
0.0
 10
182.6761985896604
 20
16.17188133432053
 30
0.0
 10
182.7171842509017
 20
16.16765556262819
 30
0.0
 10
182.7591205797518
 20
16.16310446389607
 30
0.0
 10
182.8004196625711
 20
16.16201982929484
 30
0.0
 10
182.8417032115556
 20
16.16310338195228
 30
0.0
 10
182.8836148270647
 20
16.1676611271134
 30
0.0
 10
182.9245983549019
 20
16.17187430209729
 30
0.0
 10
183.040492284349
 20
16.20177611317533
 30
0.0
 10
182.9295652727457
 20
15.92339806609891
 30
0.0
 10
182.9574856365268
 20
15.74283140824952
 30
0.0
 10
182.9404267346971
 20
15.50961042346471
 30
0.0
 10
182.9414637282104
 20
15.34906622543146
 30
0.0
 10
182.9414099399405
 20
15.22284817558722
 30
0.0
 10
182.9414277372482
 20
15.12428963336241
 30
0.0
 10
182.9414188581081
 20
14.99280702442963
 30
0.0
 10
182.9414263928034
 20
14.8613284496865
 30
0.0
 10
182.9414129405129
 20
14.7627622269409
 30
0.0
 10
182.9414531717494
 20
14.63639735624152
 30
0.0
 10
182.9406746403818
 20
14.47482068822869
 30
0.0
 10
182.9565958319268
 20
14.24361821892914
 30
0.0
 10
182.9333468885408
 20
14.05874351972001
 30
0.0
 10
183.0360183444367
 20
13.78935602770053
 30
0.0
 10
182.8820238362837
 20
13.82660112685818
 30
0.0
 10
182.8004129802833
 20
13.82137994680533
 30
0.0
 10
182.7188192292582
 20
13.8266062037835
 30
0.0
 10
182.5648513666844
 20
13.78937069885387
 30
0.0
 10
182.6674183421918
 20
14.0587512986288
 30
0.0
 10
182.6442045316089
 20
14.24361585325414
 30
0.0
 10
182.6600444655139
 20
14.47482218565638
 30
0.0
 10
182.6593296313428
 20
14.63639712308503
 30
0.0
 10
182.6593664569907
 20
14.7627623121052
 30
0.0
 10
182.6593549000271
 20
14.86132756635982
 30
0.0
 10
182.6593575019214
 20
14.99281127417219
 30
0.0
 10
182.659364853178
 20
15.124275480312
 30
0.0
 10
182.6593442541352
 20
15.22287786275326
 30
0.0
 10
182.6594082192028
 20
15.34896149354426
 30
0.0
 10
182.658173394759
 20
15.51210091383771
 30
0.0
 10
182.6532040396746
 20
15.66054183777549
 30
0.0
 10
182.6507427258646
 20
15.73406440953871
 30
0.0
 11
182.6507427258646
 21
15.73406440953871
 31
0.0
 11
182.641732820038
 21
15.95467178795577
 31
0.0
 11
182.6318769706147
 21
16.17960510387179
 31
0.0
 11
182.6756985840802
 21
16.17312391463728
 31
0.0
 11
182.7178400934216
 21
16.16754892331923
 31
0.0
 11
182.7591371409791
 21
16.1636716750563
 31
0.0
 11
182.8004341885365
 21
16.16238072887607
 31
0.0
 11
182.8416871388731
 21
16.16367167505631
 31
0.0
 11
182.8829400892098
 21
16.16754892331923
 31
0.0
 11
182.9250882131343
 21
16.17312391463728
 31
0.0
 11
182.9689825870146
 21
16.17960510387179
 31
0.0
 11
182.9590577693892
 21
15.95467178795577
 31
0.0
 11
182.9500384208311
 21
15.73406440953871
 31
0.0
 11
182.9435638463436
 21
15.51347467001054
 31
0.0
 11
182.9414218238287
 21
15.28861190965007
 31
0.0
 11
182.9414218238287
 21
15.24478907015486
 31
0.0
 11
182.9414218238287
 21
15.13523197141682
 31
0.0
 11
182.9414218238287
 21
14.99280774305737
 31
0.0
 11
182.9414218238287
 21
14.85038351469792
 31
0.0
 11
182.9414218238287
 21
14.74082641595989
 31
0.0
 11
182.9414218238287
 21
14.69700357646467
 31
0.0
 11
182.9435638463436
 21
14.47163149318765
 31
0.0
 11
182.9500384208311
 21
14.24975190990979
 31
0.0
 11
182.9590577693892
 21
14.03132954885328
 31
0.0
 11
182.9689825870146
 21
13.81626739612926
 31
0.0
 11
182.8872616168771
 21
13.82145433189185
 31
0.0
 11
182.8004341885365
 21
13.82315538223861
 31
0.0
 11
182.7135395119339
 21
13.82145433189185
 31
0.0
 11
182.6318769706147
 21
13.81626739612926
 31
0.0
 11
182.641732820038
 21
14.03132954885328
 31
0.0
 11
182.6507427258646
 21
14.24975190990979
 31
0.0
 11
182.6571833838799
 21
14.47163149318765
 31
0.0
 11
182.6593583588024
 21
14.69700357646467
 31
0.0
 11
182.6593583588024
 21
14.74082641595988
 31
0.0
 11
182.6593583588024
 21
14.85038351469792
 31
0.0
 11
182.6593583588024
 21
14.99280774305737
 31
0.0
 11
182.6593583588024
 21
15.13523197141682
 31
0.0
 11
182.6593583588024
 21
15.24478907015486
 31
0.0
 11
182.6593583588024
 21
15.28861190965007
 31
0.0
 11
182.6571833838799
 21
15.51347467001054
 31
0.0
 11
182.6507427258646
 21
15.73406440953871
 31
0.0
  0
SPLINE
  5
B4
102
{ACAD_REACTORS
330
D1
102
}
330
48
100
AcDbEntity
  8
_U_30EC_U_30A4_U_30E4_U_30FC_1
  6
Continuous
 62
     2
100
AcDbSpline
210
0.0
220
0.0
230
1.0
 70
    11
 71
     3
 72
   110
 73
   106
 74
   104
 42
0.000000001
 43
0.0000000001
 44
0.00000001
 40
0.0
 40
0.0
 40
0.0
 40
0.0
 40
0.2203406257277661
 40
0.4407808782838055
 40
0.5952494494614466
 40
0.7488431659393042
 40
0.902358183130874
 40
1.056801968670401
 40
1.210736449099873
 40
1.363041386539779
 40
1.515315729683094
 40
1.669377239147988
 40
1.721611652756459
 40
1.773199502942844
 40
1.8249337932099
 40
1.877110426487872
 40
1.982682281206608
 40
2.078781667087445
 40
2.17280964082211
 40
2.271937807378735
 40
2.378349933379213
 40
2.494131557736288
 40
2.626681683943478
 40
2.783145050795877
 40
2.890701232940747
 40
2.993130312454648
 40
3.099869730691621
 40
3.22023781669111
 40
3.352695482737405
 40
3.481732806389651
 40
3.593499473690183
 40
3.674323013331706
 40
3.817951711952684
 40
3.946167120793767
 40
4.061405053453424
 40
4.166480796003093
 40
4.262478775059159
 40
4.350736673551086
 40
4.433071991253915
 40
4.511216293814574
 40
4.564262454117899
 40
4.618474415571527
 40
4.670128488754117
 40
4.722296879126331
 40
4.819540945314257
 40
4.931194984128057
 40
5.049996040257727
 40
5.168643755415358
 40
5.283970811762569
 40
5.392260784910395
 40
5.486512254876413
 40
5.559178233949869
 40
5.591425852853533
 40
5.626215969637917
 40
5.667155838674455
 40
5.717449290214253
 40
5.738402360944868
 40
5.784499116553837
 40
5.83059587216481
 40
5.851548942897669
 40
5.873019280661783
 40
5.924217778408325
 40
5.985325662817704
 40
6.036524160567721
 40
6.057994498334249
 40
6.236847789607506
 40
6.381409928945684
 40
6.493190424178704
 40
6.574067534230513
 40
6.691018086205579
 40
6.814881554220525
 40
6.944307823240393
 40
7.07126671606613
 40
7.19348860446189
 40
7.309042773128174
 40
7.41400720317077
 40
7.505140441886556
 40
7.531150360599719
 40
7.559221645322297
 40
7.587202218920963
 40
7.612569159499167
 40
7.662550809481046
 40
7.702878875764182
 40
7.857328205230997
 40
8.010799568088613
 40
8.165256399657592
 40
8.322232698714016
 40
8.479564855016646
 40
8.635216230290906
 40
8.790882550925767
 40
8.948305154947304
 40
9.168271839032995
 40
9.387358980987262
 40
9.608047961033506
 40
9.832914234792707
 40
9.858338694963043
 40
9.925366817230051
 40
10.02013071422763
 40
10.12876249859002
 40
10.23739428295252
 40
10.33215817995194
 40
10.39918630222397
 40
10.42461076239787
 40
10.64992019336947
 40
10.87188524531192
 40
10.87188524531192
 40
10.87188524531192
 40
10.87188524531192
 10
179.9057788376618
 20
15.7392326039819
 30
0.0
 10
179.9092864933542
 20
15.80616462073804
 30
0.0
 10
179.9163033987663
 20
15.94005891915858
 30
0.0
 10
179.8198027599073
 20
16.22548554971468
 30
0.0
 10
180.0510134726109
 20
16.16284386190283
 30
0.0
 10
180.1919290057157
 20
16.17001554055989
 30
0.0
 10
180.3490417757588
 20
16.16235883078244
 30
0.0
 10
180.5025913427288
 20
16.1625275228304
 30
0.0
 10
180.6545104935082
 20
16.16182040535433
 30
0.0
 10
180.8142214813231
 20
16.17210158351637
 30
0.0
 10
180.9408972601119
 20
16.1549651108075
 30
0.0
 10
181.1370821122079
 20
16.22727260107146
 30
0.0
 10
181.1034395279079
 20
16.12640699080116
 30
0.0
 10
181.1052011317184
 20
16.0761925394767
 30
0.0
 10
181.1027342073459
 20
16.02712335586466
 30
0.0
 10
181.134707696601
 20
15.94063490846997
 30
0.0
 10
181.0010399903256
 20
15.98997438608338
 30
0.0
 10
180.9172208688056
 20
15.98430634314167
 30
0.0
 10
180.8173861139325
 20
15.99465516706298
 30
0.0
 10
180.7186576720146
 20
16.00086450411087
 30
0.0
 10
180.6121532771111
 20
16.00697763816776
 30
0.0
 10
180.491051169806
 20
16.01588883484586
 30
0.0
 10
180.3703381502454
 20
16.00521605912381
 30
0.0
 10
180.1812553843438
 20
16.06468503080366
 30
0.0
 10
180.2129028505312
 20
15.90558320077539
 30
0.0
 10
180.1995563316833
 20
15.80839128339903
 30
0.0
 10
180.1974958426451
 20
15.69634065110102
 30
0.0
 10
180.195818804467
 20
15.5769968562935
 30
0.0
 10
180.1973336794233
 20
15.4503259215511
 30
0.0
 10
180.1956582478671
 20
15.32301588016117
 30
0.0
 10
180.2058844271658
 20
15.22451566404463
 30
0.0
 10
180.1779006596582
 20
15.08388702625628
 30
0.0
 10
180.3508029999305
 20
15.13989551134095
 30
0.0
 10
180.4645020202773
 20
15.12719951478497
 30
0.0
 10
180.584015167224
 20
15.13448377051255
 30
0.0
 10
180.6888491425073
 20
15.13878017056755
 30
0.0
 10
180.7843084898612
 20
15.14330568258977
 30
0.0
 10
180.8763823507033
 20
15.15149201146198
 30
0.0
 10
180.9476551782439
 20
15.14643850638112
 30
0.0
 10
181.0544931705687
 20
15.18536425031674
 30
0.0
 10
181.0226603598036
 20
15.10517122005879
 30
0.0
 10
181.026616450393
 20
15.05562936846033
 30
0.0
 10
181.0234502392013
 20
15.00557478039817
 30
0.0
 10
181.0550791490586
 20
14.9212884761202
 30
0.0
 10
180.9210133677692
 20
14.97425365495155
 30
0.0
 10
180.8292322793201
 20
14.96540080890442
 30
0.0
 10
180.7079729189603
 20
14.97570049965154
 30
0.0
 10
180.5914113119771
 20
14.97748911767502
 30
0.0
 10
180.4783375745879
 20
14.97787017109694
 30
0.0
 10
180.3679246308471
 20
14.98415449472178
 30
0.0
 10
180.289812406784
 20
14.97189133255363
 30
0.0
 10
180.1913625833644
 20
15.00453887616127
 30
0.0
 10
180.2012355173561
 20
14.94769748054205
 30
0.0
 10
180.1973923244404
 20
14.91392130557982
 30
0.0
 10
180.1966789884268
 20
14.87119604709411
 30
0.0
 10
180.1963369642976
 20
14.83401607262153
 30
0.0
 10
180.1963834255345
 20
14.7948723737077
 30
0.0
 10
180.1963649429927
 20
14.75716849497686
 30
0.0
 10
180.1963703431806
 20
14.71944955232402
 30
0.0
 10
180.1963697214201
 20
14.6899432474515
 30
0.0
 10
180.1963698151545
 20
14.65873577699301
 30
0.0
 10
180.1963704287921
 20
14.61414424908085
 30
0.0
 10
180.1963671499336
 20
14.5596395650885
 30
0.0
 10
180.1963759623481
 20
14.51505540201448
 30
0.0
 10
180.1963359653417
 20
14.43117808585739
 30
0.0
 10
180.1976024270255
 20
14.31737520677678
 30
0.0
 10
180.1950274117843
 20
14.16830395933709
 30
0.0
 10
180.206500938172
 20
14.06597203813905
 30
0.0
 10
180.1823506222264
 20
13.93338903885835
 30
0.0
 10
180.3332993946477
 20
13.97895732272021
 30
0.0
 10
180.4428436671556
 20
13.96427012162349
 30
0.0
 10
180.5733970473921
 20
13.96920435125063
 30
0.0
 10
180.6990312209514
 20
13.97257705323359
 30
0.0
 10
180.8188730625602
 20
13.97711497498773
 30
0.0
 10
180.9391362611427
 20
13.99048536182005
 30
0.0
 10
181.0222761663515
 20
13.98068712782595
 30
0.0
 10
181.1456080421076
 20
14.0412621462332
 30
0.0
 10
181.1244269203957
 20
13.98532460134021
 30
0.0
 10
181.1235950270118
 20
13.95939249372345
 30
0.0
 10
181.121896370756
 20
13.93197256190939
 30
0.0
 10
181.121797488883
 20
13.89738195206385
 30
0.0
 10
181.1203659301331
 20
13.86050408220767
 30
0.0
 10
181.153280419219
 20
13.76846841021805
 30
0.0
 10
180.9551306988108
 20
13.84132015974831
 30
0.0
 10
180.8300548294891
 20
13.81825726508604
 30
0.0
 10
180.6673071295157
 20
13.82454021985785
 30
0.0
 10
180.5129366450002
 20
13.82260943909925
 30
0.0
 10
180.3566670436944
 20
13.82393762599267
 30
0.0
 10
180.1970544465282
 20
13.8205987248786
 30
0.0
 10
180.0540326342237
 20
13.8326579572824
 30
0.0
 10
179.8197144881629
 20
13.76952001976918
 30
0.0
 10
179.9173810751198
 20
14.05620527466317
 30
0.0
 10
179.9006868780058
 20
14.24988308142659
 30
0.0
 10
179.9146296709686
 20
14.47848242880294
 30
0.0
 10
179.9142987846632
 20
14.63384593955048
 30
0.0
 10
179.9143078119264
 20
14.73966336444125
 30
0.0
 10
179.9143055876316
 20
14.80205784124214
 30
0.0
 10
179.9143065551889
 20
14.89220425248325
 30
0.0
 10
179.9143065473262
 20
14.99621167157437
 30
0.0
 10
179.9143053861104
 20
15.10022131375295
 30
0.0
 10
179.9143090971503
 20
15.19036243688766
 30
0.0
 10
179.9143011051052
 20
15.25276803097214
 30
0.0
 10
179.9143334275018
 20
15.35868835961118
 30
0.0
 10
179.913144078832
 20
15.5162671654474
 30
0.0
 10
179.9082216489256
 20
15.66528219822065
 30
0.0
 10
179.9057788376618
 20
15.7392326039819
 30
0.0
 11
179.9057788376618
 21
15.7392326039819
 31
0.0
 11
179.8966918223741
 21
15.95938578101017
 31
0.0
 11
179.8868249573134
 21
16.17960510387179
 31
0.0
 11
180.04115751414
 21
16.17312391463728
 31
0.0
 11
180.1946500189047
 21
16.16754892331923
 31
0.0
 11
180.3481160653367
 21
16.1636716750563
 31
0.0
 11
180.502554455494
 21
16.16238072887607
 31
0.0
 11
180.6564835227474
 21
16.16367167505631
 31
0.0
 11
180.8087391004601
 21
16.16754892331923
 31
0.0
 11
180.9609113551074
 21
16.17312391463728
 31
0.0
 11
181.1148364762483
 21
16.17960510387179
 31
0.0
 11
181.1070811703125
 21
16.12794961777358
 31
0.0
 11
181.1044991623592
 21
16.07642642334204
 31
0.0
 11
181.1070811703124
 21
16.02475660564659
 31
0.0
 11
181.1148364762483
 21
15.97315954836783
 31
0.0
 11
181.0094874054411
 21
15.98001446156057
 31
0.0
 11
180.913637570006
 21
15.98693552058657
 31
0.0
 11
180.8198593171904
 21
15.99378381919598
 31
0.0
 11
180.7209679915882
 21
16.0006321178054
 31
0.0
 11
180.6147532199924
 21
16.00710999974823
 31
0.0
 11
180.4991060528039
 21
16.01268829835794
 31
0.0
 11
180.3666126447258
 21
16.01656554662087
 31
0.0
 11
180.2101546018424
 21
16.01785649280112
 31
0.0
 11
180.2062663293722
 21
15.91037061609185
 31
0.0
 11
180.20153800484
 21
15.80805072896463
 31
0.0
 11
180.197660756675
 21
15.70138175329687
 31
0.0
 11
180.1963698105272
 21
15.5810205901325
 31
0.0
 11
180.1967799146836
 21
15.44856355891564
 31
0.0
 11
180.1980896021503
 21
15.31953288186455
 31
0.0
 11
180.199407457705
 21
15.20777398432308
 31
0.0
 11
180.199819115366
 21
15.12695149302383
 31
0.0
 11
180.3434452935875
 21
15.12780256941249
 31
0.0
 11
180.4716343930759
 21
15.13039989580076
 31
0.0
 11
180.5868078221796
 21
15.13425509545254
 31
0.0
 11
180.6917756312221
 21
15.13901649302076
 31
0.0
 11
180.7876346289422
 21
15.14418027774175
 31
0.0
 11
180.8757413374194
 21
15.14934406246266
 31
0.0
 11
180.9578881438497
 21
15.15491243919738
 31
0.0
 11
181.0357692335572
 21
15.16132086801523
 31
0.0
 11
181.0280180445186
 21
15.10884407115336
 31
0.0
 11
181.0254328449317
 21
15.05469378470856
 31
0.0
 11
181.0280180445186
 21
15.00310444444366
 31
0.0
 11
181.0357692335572
 21
14.95151510417881
 31
0.0
 11
180.9389813454015
 21
14.96092324653756
 31
0.0
 11
180.8275950722016
 21
14.96865128473012
 31
0.0
 11
180.7089261429373
 21
14.97425273438145
 31
0.0
 11
180.5903167449213
 21
14.97726788195011
 31
0.0
 11
180.4750025117521
 21
14.97898767361638
 31
0.0
 11
180.36672619507
 21
14.98070746528256
 31
0.0
 11
180.2724839317709
 21
14.98202486979616
 31
0.0
 11
180.199819115366
 21
14.98243607639328
 31
0.0
 11
180.199407457705
 21
14.9501910850819
 31
0.0
 11
180.1980896021503
 21
14.91542593752116
 31
0.0
 11
180.1967799146836
 21
14.87450702260084
 31
0.0
 11
180.1963698105272
 21
14.82421524309952
 31
0.0
 11
180.1963698105272
 21
14.80326217235822
 31
0.0
 11
180.1963698105272
 21
14.75716541672736
 31
0.0
 11
180.1963698105272
 21
14.71106866109651
 31
0.0
 11
180.1963698105272
 21
14.69011559035521
 31
0.0
 11
180.1963698105272
 21
14.6686452525828
 31
0.0
 11
180.1963698105272
 21
14.61744675481784
 31
0.0
 11
180.1963698105272
 21
14.55633887038868
 31
0.0
 11
180.1963698105272
 21
14.50514037262371
 31
0.0
 11
180.1963698105272
 21
14.4836700348513
 31
0.0
 11
180.1967799146836
 21
14.30481721371547
 31
0.0
 11
180.1980896021503
 21
14.16026100715441
 31
0.0
 11
180.2002868589709
 21
14.04850210961289
 31
0.0
 11
180.2032586986986
 21
13.96767961831365
 31
0.0
 11
180.3202092517448
 21
13.96767961831365
 31
0.0
 11
180.4440727208747
 21
13.96767961831365
 31
0.0
 11
180.5734925526422
 21
13.96897056449389
 31
0.0
 11
180.7003922282245
 21
13.97284781275681
 31
0.0
 11
180.8224658067974
 21
13.97886708358865
 31
0.0
 11
180.9377587499464
 21
13.98663260442002
 31
0.0
 11
181.0421754573519
 21
13.99734161483401
 31
0.0
 11
181.1320599255449
 21
14.01237656274692
 31
0.0
 11
181.1264254031192
 21
13.98698427976715
 31
0.0
 11
181.1234433285424
 21
13.95907184053802
 31
0.0
 11
181.1221339881201
 21
13.93112191867001
 31
0.0
 11
181.1217235369196
 21
13.90575829888472
 31
0.0
 11
181.1243087365065
 21
13.85584355063325
 31
0.0
 11
181.1320599255449
 21
13.81626739612926
 31
0.0
 11
180.9776977178345
 21
13.82145433189185
 31
0.0
 11
180.8242357818766
 21
13.82315538223861
 31
0.0
 11
180.6697789496484
 21
13.82315538223861
 31
0.0
 11
180.5128026496768
 21
13.82315538223861
 31
0.0
 11
180.3554704921537
 21
13.82315538223861
 31
0.0
 11
180.199819115366
 21
13.82315538223861
 31
0.0
 11
180.0441620874242
 21
13.82145433189185
 31
0.0
 11
179.8868249573134
 21
13.81626739612926
 31
0.0
 11
179.8966918223741
 21
14.03601267385209
 31
0.0
 11
179.9057788376618
 21
14.2549112849085
 31
0.0
 11
179.9121721518401
 21
14.47550763902002
 31
0.0
 11
179.914306345501
 21
14.70036378479714
 31
0.0
 11
179.914306345501
 21
14.72578824496874
 31
0.0
 11
179.914306345501
 21
14.79281636723931
 31
0.0
 11
179.914306345501
 21
14.88758026424252
 31
0.0
 11
179.914306345501
 21
14.99621204861207
 31
0.0
 11
179.914306345501
 21
15.10484383298161
 31
0.0
 11
179.914306345501
 21
15.19960772998483
 31
0.0
 11
179.914306345501
 21
15.26663585225539
 31
0.0
 11
179.914306345501
 21
15.29206031242699
 31
0.0
 11
179.9121721518401
 21
15.51735963528734
 31
0.0
 11
179.9057788376618
 21
15.7392326039819
 31
0.0
  0
SPLINE
  5
B5
102
{ACAD_REACTORS
330
D2
102
}
330
48
100
AcDbEntity
  8
_U_30EC_U_30A4_U_30E4_U_30FC_1
  6
Continuous
 62
     2
100
AcDbSpline
210
0.0
220
0.0
230
1.0
 70
    11
 71
     3
 72
    95
 73
    91
 74
    89
 42
0.000000001
 43
0.0000000001
 44
0.00000001
 40
0.0
 40
0.0
 40
0.0
 40
0.0
 40
0.6550406656911754
 40
1.308087289032016
 40
1.420803739835879
 40
1.566130759770884
 40
1.757067341888544
 40
2.006513545026543
 40
2.08732826312164
 40
2.185328872295714
 40
2.294612454748457
 40
2.40893638053489
 40
2.526802767798643
 40
2.646360524615681
 40
2.762535723971668
 40
2.870057342870243
 40
2.96688344843173
 40
3.050803243518363
 40
3.115818222436688
 40
3.156030057150331
 40
3.213914225080233
 40
3.276689026450633
 40
3.34296032098141
 40
3.40423066715066
 40
3.453822809493478
 40
3.532499827188526
 40
3.634775188507272
 40
3.754909333008261
 40
3.889736761660762
 40
4.03576960217533
 40
4.187256681197715
 40
4.338733685676062
 40
4.488478734676218
 40
4.634708317831685
 40
4.771493189921379
 40
4.892686571561309
 40
5.199775528944552
 40
5.460353566929735
 40
5.667603142345621
 40
5.814722905404593
 40
5.828990806219919
 40
5.855488336304588
 40
5.86975623711892
 40
6.18979650776292
 40
6.531890469873114
 40
6.883053637017087
 40
7.230512024911591
 40
7.566966656764704
 40
7.885203559707525
 40
8.172887439719348
 40
8.418011594062861
 40
8.443926721190783
 40
8.51076047061327
 40
8.60214539379578
 40
8.701714041647222
 40
8.793098965075451
 40
8.859932715058024
 40
8.885847842603674
 40
9.242301256612885
 40
9.589275455016843
 40
9.921808543164243
 40
10.23479624298476
 40
10.299681508892
 40
10.35323493887786
 40
10.40154625355168
 40
10.46482922477843
 40
10.55973900668424
 40
10.69239545985637
 40
10.84920353475691
 40
11.01626328594799
 40
11.18672024367463
 40
11.3537258257723
 40
11.50257442292446
 40
11.61866495023309
 40
11.71329869152894
 40
11.82511050573926
 40
11.94464880845734
 40
12.06929242642526
 40
12.19707290435195
 40
12.32562632860547
 40
12.45034565331298
 40
12.56646595170347
 40
12.67099007414653
 40
12.76077625936802
 40
12.82703233506713
 40
12.8742913278601
 40
12.8983199032335
 40
12.92234847860038
 40
13.53984767410337
 40
14.18294284359379
 40
14.18294284359379
 40
14.18294284359379
 40
14.18294284359379
 10
177.3067935648022
 20
14.70898038201723
 30
0.0
 10
177.1752019758552
 20
14.82265058603231
 30
0.0
 10
176.912419380273
 20
15.04964496316158
 30
0.0
 10
176.3997393441019
 20
15.89214462956287
 30
0.0
 10
176.4106654595363
 20
15.53423377577019
 30
0.0
 10
176.4041226527992
 20
15.39267392272131
 30
0.0
 10
176.4028026631773
 20
15.1942130529928
 30
0.0
 10
176.4018117602539
 20
15.02150296045982
 30
0.0
 10
176.4024101751975
 20
14.87865373257578
 30
0.0
 10
176.4038994301881
 20
14.78265005413356
 30
0.0
 10
176.4055683588473
 20
14.6754550326314
 30
0.0
 10
176.4071934954619
 20
14.56164211517581
 30
0.0
 10
176.4092429501686
 20
14.44441572604588
 30
0.0
 10
176.4123165501926
 20
14.32656411232969
 30
0.0
 10
176.4156339697044
 20
14.2122808732062
 30
0.0
 10
176.4193605340281
 20
14.10521401867276
 30
0.0
 10
176.4217338161424
 20
14.01007408766921
 30
0.0
 10
176.4278718888359
 20
13.92558557205695
 30
0.0
 10
176.4239784495946
 20
13.86923087298141
 30
0.0
 10
176.4455230443079
 20
13.79825022472354
 30
0.0
 10
176.3680940058618
 20
13.82902677604484
 30
0.0
 10
176.3116353240192
 20
13.82011242517612
 30
0.0
 10
176.2540495896808
 20
13.82896218398275
 30
0.0
 10
176.1690163478473
 20
13.79738225225943
 30
0.0
 10
176.2009714146384
 20
13.88095155992189
 30
0.0
 10
176.1990705282539
 20
13.94882608968308
 30
0.0
 10
176.2107960047301
 20
14.05233256764418
 30
0.0
 10
176.2164241053
 20
14.17002125616693
 30
0.0
 10
176.2237902178942
 20
14.30388609164423
 30
0.0
 10
176.232075970161
 20
14.44764152872632
 30
0.0
 10
176.2398851897428
 20
14.59714022843444
 30
0.0
 10
176.2457571222657
 20
14.74792549402078
 30
0.0
 10
176.2503667817969
 20
14.89699943878437
 30
0.0
 10
176.2542632117544
 20
15.04122913163021
 30
0.0
 10
176.2570715126564
 20
15.17583905213017
 30
0.0
 10
176.2576698755023
 20
15.36469614347354
 30
0.0
 10
176.2616023867151
 20
15.58975494313153
 30
0.0
 10
176.2442175378498
 20
15.86367091125706
 30
0.0
 10
176.2850417342584
 20
16.02787112098597
 30
0.0
 10
176.1995153256001
 20
16.22749661465095
 30
0.0
 10
176.2660558907689
 20
16.22385458403978
 30
0.0
 10
176.2838724273231
 20
16.22413447160853
 30
0.0
 10
176.4056801797502
 20
16.22632927398613
 30
0.0
 10
176.5080770335464
 20
15.94675118721513
 30
0.0
 10
176.7580021509356
 20
15.74563008536002
 30
0.0
 10
176.9870035331111
 20
15.47792614987913
 30
0.0
 10
177.2245151213109
 20
15.22646413862378
 30
0.0
 10
177.4486090740774
 20
14.98969974061358
 30
0.0
 10
177.675071628301
 20
14.73218692583078
 30
0.0
 10
177.8325687886515
 20
14.61649335056924
 30
0.0
 10
178.0472129612676
 20
14.27997152538796
 30
0.0
 10
178.0422645974619
 20
14.40464754091603
 30
0.0
 10
178.0433931602548
 20
14.46327691935737
 30
0.0
 10
178.0428877841516
 20
14.55043662371977
 30
0.0
 10
178.0430475158114
 20
14.64416143182872
 30
0.0
 10
178.043005489132
 20
14.73018971297035
 30
0.0
 10
178.0430202040374
 20
14.79153891945496
 30
0.0
 10
178.0429706255983
 20
14.94135231520991
 30
0.0
 10
178.0458811522812
 20
15.17989612510105
 30
0.0
 10
178.0259521041162
 20
15.54486509868699
 30
0.0
 10
178.0750433936248
 20
15.80799631993416
 30
0.0
 10
177.9177951509179
 20
16.2192890494775
 30
0.0
 10
178.0762112872422
 20
16.16398282551749
 30
0.0
 10
178.131168047863
 20
16.16199686500175
 30
0.0
 10
178.1827887766742
 20
16.16264778248253
 30
0.0
 10
178.2713198965366
 20
16.20369527738245
 30
0.0
 10
178.2204898303169
 20
16.05696326622987
 30
0.0
 10
178.2313389930285
 20
15.95019971954432
 30
0.0
 10
178.2166036994847
 20
15.79085705414112
 30
0.0
 10
178.2099976446206
 20
15.62853061652872
 30
0.0
 10
178.2014961399916
 20
15.45992521892394
 30
0.0
 10
178.19432272022
 20
15.2981481470354
 30
0.0
 10
178.188906321539
 20
15.15422331457931
 30
0.0
 10
178.1871713967649
 20
15.03437493466925
 30
0.0
 10
178.1875440672319
 20
14.92686101590514
 30
0.0
 10
178.1873656126264
 20
14.81820024645586
 30
0.0
 10
178.187701086314
 20
14.6995357016553
 30
0.0
 10
178.1890040622184
 20
14.5755516351274
 30
0.0
 10
178.1908887351575
 20
14.44858294171104
 30
0.0
 10
178.1925004454852
 20
14.32153861551031
 30
0.0
 10
178.1941403137431
 20
14.19854884492176
 30
0.0
 10
178.1962570745751
 20
14.08300931383758
 30
0.0
 10
178.1963848422365
 20
13.98090903955836
 30
0.0
 10
178.2006514396555
 20
13.89009848838155
 30
0.0
 10
178.190844008529
 20
13.83213621208786
 30
0.0
 10
178.211847477169
 20
13.76517130132029
 30
0.0
 10
178.1725639739898
 20
13.77291153966689
 30
0.0
 10
177.9595307117746
 20
13.75755254145191
 30
0.0
 10
177.7636297943187
 20
14.3140305809447
 30
0.0
 10
177.4611197631544
 20
14.57556035348509
 30
0.0
 10
177.3067935648022
 20
14.70898038201723
 30
0.0
 11
177.3067935648022
 21
14.70898038201723
 31
0.0
 11
176.8595529338511
 21
15.18757635411976
 31
0.0
 11
176.4124049070643
 21
15.66352649288969
 31
0.0
 11
176.4089664262494
 21
15.55086249986232
 31
0.0
 11
176.4055610183501
 21
15.40557538184309
 31
0.0
 11
176.4029636920275
 21
15.21465645827967
 31
0.0
 11
176.4021126156604
 21
14.96521170139756
 31
0.0
 11
176.402523923029
 21
14.88439802954279
 31
0.0
 11
176.4038420329817
 21
14.7864062847756
 31
0.0
 11
176.4055192267718
 21
14.67713557299738
 31
0.0
 11
176.4072367127519
 21
14.56282454872039
 31
0.0
 11
176.4094007838773
 21
14.44497802965265
 31
0.0
 11
176.4124049070643
 21
14.32545802100199
 31
0.0
 11
176.4158359733139
 21
14.20933349846155
 31
0.0
 11
176.4192928929999
 21
14.10186746550228
 31
0.0
 11
176.4227085253088
 21
14.00510162351264
 31
0.0
 11
176.4261896983794
 21
13.92125406276973
 31
0.0
 11
176.4296006184313
 21
13.85632862007759
 31
0.0
 11
176.4330776843149
 21
13.81626739612926
 31
0.0
 11
176.3754263821572
 21
13.82145433189185
 31
0.0
 11
176.312674631831
 21
13.82315538223861
 31
0.0
 11
176.2464251717157
 21
13.82145433189185
 31
0.0
 11
176.1853747739676
 21
13.81626739612926
 31
0.0
 11
176.1926772737814
 21
13.86531894125589
 31
0.0
 11
176.2008793569055
 21
13.94356725720854
 31
0.0
 11
176.2090098822349
 21
14.04551893253029
 31
0.0
 11
176.2163406441398
 21
14.16542920159751
 31
0.0
 11
176.2236358280422
 21
14.30005912343889
 31
0.0
 11
176.2318444255596
 21
14.44586107652745
 31
0.0
 11
176.2395504149466
 21
14.59715203135072
 31
0.0
 11
176.2455763002093
 21
14.74850913200734
 31
0.0
 11
176.2503046247416
 21
14.89817951391435
 31
0.0
 11
176.2541928972121
 21
15.04435739582221
 31
0.0
 11
176.2567527408966
 21
15.18111831592696
 31
0.0
 11
176.2576324804575
 21
15.30230850686889
 31
0.0
 11
176.2571926106771
 21
15.60939715262544
 31
0.0
 11
176.2559126888348
 21
15.86997204839364
 31
0.0
 11
176.2528658717893
 21
16.07719922716125
 31
0.0
 11
176.2473049112764
 21
16.22421385386061
 31
0.0
 11
176.261572812147
 21
16.22421385386061
 31
0.0
 11
176.2880703423353
 21
16.22421385386061
 31
0.0
 11
176.3023382432059
 21
16.22421385386061
 31
0.0
 11
176.5194743650278
 21
15.98910179662773
 31
0.0
 11
176.751274412308
 21
15.73751281231561
 31
0.0
 11
176.989481601884
 21
15.47949555543569
 31
0.0
 11
177.2260074557522
 21
15.22497079855489
 31
0.0
 11
177.4555698717706
 21
14.97899759549137
 31
0.0
 11
177.6731797360104
 21
14.74678934034107
 31
0.0
 11
177.8713724913708
 21
14.53826680567099
 31
0.0
 11
178.0430143099087
 21
14.36326697932589
 31
0.0
 11
178.0430143099087
 21
14.38918210687043
 31
0.0
 11
178.0430143099087
 21
14.45601585685371
 31
0.0
 11
178.0430143099087
 21
14.54740078030025
 31
0.0
 11
178.0430143099087
 21
14.64696942823453
 31
0.0
 11
178.0430143099087
 21
14.73835435168106
 31
0.0
 11
178.0430143099087
 21
14.80518810166435
 31
0.0
 11
178.0430143099087
 21
14.83110322920889
 31
0.0
 11
178.041723363761
 21
15.18755430550867
 31
0.0
 11
178.0378461155959
 21
15.53450684014415
 31
0.0
 11
178.0296197790003
 21
15.86693815950551
 31
0.0
 11
178.0154535467228
 21
16.17960510387179
 31
0.0
 11
178.079035124962
 21
16.16666367158334
 31
0.0
 11
178.1324170159612
 21
16.16238072887607
 31
0.0
 11
178.1805381084834
 21
16.16666367158334
 31
0.0
 11
178.2424836798198
 21
16.17960510387179
 31
0.0
 11
178.2351216487575
 21
16.084981284451
 31
0.0
 11
178.2269790968819
 21
15.95257496503963
 31
0.0
 11
178.2183705364005
 21
15.79600336785655
 31
0.0
 11
178.2097547223216
 21
15.62916593734269
 31
0.0
 11
178.201618785029
 21
15.45890325509359
 31
0.0
 11
178.1942501393836
 21
15.29206031242699
 31
0.0
 11
178.1891406931522
 21
15.14329943572809
 31
0.0
 11
178.1874503478905
 21
15.02722121527101
 31
0.0
 11
178.1874503478905
 21
14.93258747397518
 31
0.0
 11
178.1874503478905
 21
14.82077565976707
 31
0.0
 11
178.1878461204497
 21
14.70123801222749
 31
0.0
 11
178.1890819450708
 21
14.57660052093918
 31
0.0
 11
178.1908392193318
 21
14.44883212687391
 31
0.0
 11
178.1925303477609
 21
14.32028982655879
 31
0.0
 11
178.1942876220216
 21
14.19558288214554
 31
0.0
 11
178.1959787504505
 21
14.07947489606348
 31
0.0
 11
178.1972884379173
 21
13.97495896727017
 31
0.0
 11
178.1976985420736
 21
13.88517371555651
 31
0.0
 11
178.1976985420736
 21
13.81891763918415
 31
0.0
 11
178.1976985420736
 21
13.77165864614042
 31
0.0
 11
178.1736699662977
 21
13.77165864614042
 31
0.0
 11
178.1496413905218
 21
13.77165864614042
 31
0.0
 11
177.7410729200424
 21
14.2346673526219
 31
0.0
 11
177.3067935648022
 21
14.70898038201723
 31
0.0
  0
SPLINE
  5
B6
102
{ACAD_REACTORS
330
D3
102
}
330
48
100
AcDbEntity
  8
_U_30EC_U_30A4_U_30E4_U_30FC_1
  6
Continuous
 62
     2
100
AcDbSpline
210
0.0
220
0.0
230
1.0
 70
    11
 71
     3
 72
    25
 73
    21
 74
    19
 42
0.000000001
 43
0.0000000001
 44
0.00000001
 40
0.0
 40
0.0
 40
0.0
 40
0.0
 40
0.0911479969064537
 40
0.1858117896204953
 40
0.2804128399735061
 40
0.3715889190714796
 40
0.4679080494218142
 40
0.5642683809229232
 40
0.6605683222644995
 40
0.756965301581026
 40
0.8561348172522744
 40
1.092615965104304
 40
1.374867658141898
 40
1.61134881201159
 40
1.710518328425249
 40
1.809403163726557
 40
2.045205463294081
 40
2.32664691762213
 40
2.562449217190604
 40
2.661334043833912
 40
2.661334043833912
 40
2.661334043833912
 40
2.661334043833912
 10
173.26837005672
 20
14.88614538197292
 30
0.0
 10
173.2987525917923
 20
14.88598079714554
 30
0.0
 10
173.3606895889112
 20
14.88564528689922
 30
0.0
 10
173.4541356960331
 20
14.88269055451999
 30
0.0
 10
173.5475095236358
 20
14.87977752877149
 30
0.0
 10
173.6417760753477
 20
14.87894201643416
 30
0.0
 10
173.7354964790968
 20
14.87996644658046
 30
0.0
 10
173.8352040303205
 20
14.8791697747097
 30
0.0
 10
173.9188949546313
 20
14.88921410235219
 30
0.0
 10
174.0637996315046
 20
14.86234617674165
 30
0.0
 10
173.9396132444801
 20
15.03665530280049
 30
0.0
 10
173.8965867286283
 20
15.19651711006092
 30
0.0
 10
173.7808922142209
 20
15.45518458550212
 30
0.0
 10
173.7017565431258
 20
15.5923105286186
 30
0.0
 10
173.6431576621817
 20
15.80937033134077
 30
0.0
 10
173.5864803939439
 20
15.59266134213426
 30
0.0
 10
173.5052809900477
 20
15.45327012438239
 30
0.0
 10
173.4063701281489
 20
15.20406969370192
 30
0.0
 10
173.3253625094259
 20
15.01925830226075
 30
0.0
 10
173.2813683325839
 20
14.91650446856117
 30
0.0
 10
173.26837005672
 20
14.88614538197292
 30
0.0
 11
173.26837005672
 21
14.88614538197292
 31
0.0
 11
173.3595137737821
 21
14.8852612326676
 31
0.0
 11
173.4541428297582
 21
14.88269697919598
 31
0.0
 11
173.5487082179707
 21
14.88009965280777
 31
0.0
 11
173.6398803250197
 21
14.87924857641909
 31
0.0
 11
173.7361985777706
 21
14.8796597830162
 31
0.0
 11
173.8325499034377
 21
14.8809771875297
 31
0.0
 11
173.9288262638287
 21
14.88310818579312
 31
0.0
 11
174.0251753846344
 21
14.88614538197292
 31
0.0
 11
173.9854633323142
 21
14.9770164219502
 31
0.0
 11
173.8907653613969
 21
15.19370890189602
 31
0.0
 11
173.7777387509471
 21
15.45234186183135
 31
0.0
 11
173.6830407800298
 21
15.66903434177717
 31
0.0
 11
173.6433287277096
 21
15.75990538175445
 31
0.0
 11
173.6043330259267
 21
15.66903434177717
 31
0.0
 11
173.5113432755213
 21
15.45234186183135
 31
0.0
 11
173.4003555089083
 21
15.19370890189602
 31
0.0
 11
173.3073657585029
 21
14.9770164219502
 31
0.0
 11
173.26837005672
 21
14.88614538197292
 31
0.0
  0
SPLINE
  5
B7
102
{ACAD_REACTORS
330
D3
102
}
330
48
100
AcDbEntity
  8
_U_30EC_U_30A4_U_30E4_U_30FC_1
  6
Continuous
 62
     2
100
AcDbSpline
210
0.0
220
0.0
230
1.0
 70
    11
 71
     3
 72
    57
 73
    53
 74
    51
 42
0.000000001
 43
0.0000000001
 44
0.00000001
 40
0.0
 40
0.0
 40
0.0
 40
0.0
 40
0.0471632082809523
 40
0.0914861054631871
 40
0.1357762519702106
 40
0.1826527001610685
 40
0.2295203288572594
 40
0.2737751972221616
 40
0.3181310461543071
 40
0.365260719839852
 40
0.4571007286314684
 40
0.5671851029165473
 40
0.689462328386856
 40
0.8181758272546018
 40
0.9510087229274067
 40
1.085852229674052
 40
1.218126164475301
 40
1.34354513114238
 40
1.454537202956768
 40
1.567187607530806
 40
1.680710966642424
 40
1.794226869736874
 40
1.900009184247617
 40
2.004085860447953
 40
2.108162674451813
 40
2.2140001501553
 40
2.496038577352165
 40
2.762350745479268
 40
2.997275353279405
 40
3.185110082137723
 40
3.246407890063951
 40
3.312607550212681
 40
3.378877742711612
 40
3.440140399651439
 40
4.100501696006437
 40
4.754913085563467
 40
5.411331693423901
 40
6.077890432568703
 40
6.110575292670982
 40
6.143260152775762
 40
6.367989363395129
 40
6.610525374951541
 40
6.863389136467298
 40
7.119380025547599
 40
7.376036605091065
 40
7.631164770966294
 40
7.876722425456416
 40
8.104953735855918
 40
8.312916685924302
 40
8.497730294941286
 40
8.65101898431384
 40
8.764738853624578
 40
8.764738853624578
 40
8.764738853624578
 40
8.764738853624578
 10
174.7922649500514
 20
13.81626739612926
 30
0.0
 10
174.7766616726932
 20
13.81826231079077
 30
0.0
 10
174.7463947960303
 20
13.82213201360298
 30
0.0
 10
174.7010994202253
 20
13.82341984967267
 30
0.0
 10
174.655955312935
 20
13.8230868355405
 30
0.0
 10
174.60990171234
 20
13.82314658674223
 30
0.0
 10
174.5640496172097
 20
13.8232581365
 30
0.0
 10
174.5183711648165
 20
13.82277833456589
 30
0.0
 10
174.4750811541609
 20
13.8246110961872
 30
0.0
 10
174.4039947951514
 20
13.80049556814655
 30
0.0
 10
174.4057477261441
 20
13.9218469397725
 30
0.0
 10
174.358619637057
 20
14.00726239751231
 30
0.0
 10
174.3191478251761
 20
14.12486929345134
 30
0.0
 10
174.2706635532646
 20
14.2423275254044
 30
0.0
 10
174.2201017402523
 20
14.36405935761508
 30
0.0
 10
174.1718634610478
 20
14.49075967862465
 30
0.0
 10
174.1135232947596
 20
14.59933687784952
 30
0.0
 10
174.0980892667262
 20
14.75620657134407
 30
0.0
 10
173.9566586330637
 20
14.72373446548322
 30
0.0
 10
173.8508397414905
 20
14.73512888682178
 30
0.0
 10
173.7358569725222
 20
14.73392591514614
 30
0.0
 10
173.6253142252141
 20
14.73506945347407
 30
0.0
 10
173.5176583522783
 20
14.73418350037526
 30
0.0
 10
173.4121322529243
 20
14.73416602390517
 30
0.0
 10
173.3109192682013
 20
14.72714032472415
 30
0.0
 10
173.1266804827754
 20
14.75135859859864
 30
0.0
 10
173.1157393685411
 20
14.44741691121889
 30
0.0
 10
173.0087691634751
 20
14.22353177253394
 30
0.0
 10
172.9098148604348
 20
14.03895314292498
 30
0.0
 10
172.9225090524008
 20
13.79530204804204
 30
0.0
 10
172.8050091716398
 20
13.82508046753197
 30
0.0
 10
172.7422055868311
 20
13.82258089509601
 30
0.0
 10
172.6785872093401
 20
13.82344075102805
 30
0.0
 10
172.3946014194076
 20
13.7809803994194
 30
0.0
 10
173.0251638499382
 20
14.50081952444788
 30
0.0
 10
173.108764528907
 20
15.0127653943573
 30
0.0
 10
173.4929252789341
 20
15.53353743550042
 30
0.0
 10
173.4777208288563
 20
16.23519626253213
 30
0.0
 10
173.7239265722698
 20
16.22345633081256
 30
0.0
 10
173.8256346157562
 20
16.23225004452772
 30
0.0
 10
173.8249752035818
 20
15.98059650730344
 30
0.0
 10
173.9428317155829
 20
15.79818020733959
 30
0.0
 10
174.0315515260486
 20
15.55563740662864
 30
0.0
 10
174.132229248526
 20
15.32340030530129
 30
0.0
 10
174.2311142712244
 20
15.0867464456691
 30
0.0
 10
174.329967699067
 20
14.85461739170093
 30
0.0
 10
174.4256166390928
 20
14.63122222788791
 30
0.0
 10
174.515990457327
 20
14.42272549049309
 30
0.0
 10
174.5989944568191
 20
14.23308448529323
 30
0.0
 10
174.6726088582799
 20
14.06663106068098
 30
0.0
 10
174.7342815895547
 20
13.92917699626097
 30
0.0
 10
174.7749458885604
 20
13.84999239430032
 30
0.0
 10
174.7922649500514
 20
13.81626739612926
 30
0.0
 11
174.7922649500514
 21
13.81626739612926
 31
0.0
 11
174.7453878317448
 21
13.82145433189185
 31
0.0
 11
174.7010975896126
 21
13.82315538223861
 31
0.0
 11
174.656807443173
 21
13.82315538223861
 31
0.0
 11
174.609930994716
 21
13.82315538223861
 31
0.0
 11
174.5630633657034
 21
13.82315538223861
 31
0.0
 11
174.5188084970408
 21
13.82315538223861
 31
0.0
 11
174.4744852776855
 21
13.82145433189185
 31
0.0
 11
174.4276419021444
 21
13.81626739612926
 31
0.0
 11
174.3992532136325
 21
13.90360966173244
 31
0.0
 11
174.3622721815898
 21
14.00729656274818
 31
0.0
 11
174.3188386236701
 21
14.12159987001126
 31
0.0
 11
174.2711055866937
 21
14.24113531268969
 31
0.0
 11
174.2208160133237
 21
14.36408057307564
 31
0.0
 11
174.1696467003933
 21
14.48883822929445
 31
0.0
 11
174.1197531801327
 21
14.61134141502771
 31
0.0
 11
174.0733119111842
 21
14.72784517367916
 31
0.0
 11
173.962361190759
 21
14.73087465284505
 31
0.0
 11
173.849730922509
 21
14.73300454867789
 31
0.0
 11
173.736215206945
 21
14.73432195319139
 31
0.0
 11
173.62270004768
 21
14.73473315978851
 31
0.0
 11
173.5169185312816
 21
14.73432195319139
 31
0.0
 11
173.4128501919225
 21
14.73300454867789
 31
0.0
 11
173.3087951724045
 21
14.73087465284505
 31
0.0
 11
173.2030010615597
 21
14.72784517367916
 31
0.0
 11
173.0980914750139
 21
14.4660443751335
 31
0.0
 11
173.0034868690332
 21
14.2171023265846
 31
0.0
 11
172.9252231210299
 21
13.99559756969556
 31
0.0
 11
172.8693431224556
 21
13.81626739612926
 31
0.0
 11
172.8082651639443
 21
13.82145433189185
 31
0.0
 11
172.7420873618131
 21
13.82315538223861
 31
0.0
 11
172.6758390041283
 21
13.82145433189185
 31
0.0
 11
172.6147963233939
 21
13.81626739612926
 31
0.0
 11
172.8899684951931
 21
14.41656508695141
 31
0.0
 11
173.158294573417
 21
15.01343642360774
 31
0.0
 11
173.4240277350405
 21
15.61366245644381
 31
0.0
 11
173.6914740737034
 21
16.22421385386061
 31
0.0
 11
173.7241589339807
 21
16.22421385386061
 31
0.0
 11
173.756843794258
 21
16.22421385386061
 31
0.0
 11
173.8428300681058
 21
16.01658539037083
 31
0.0
 11
173.935728581361
 21
15.79254614563516
 31
0.0
 11
174.0328714521464
 21
15.55908663180468
 31
0.0
 11
174.1317936458032
 21
15.32298128464144
 31
0.0
 11
174.2315341249927
 21
15.08649780379783
 31
0.0
 11
174.3313071129354
 21
14.85168781253709
 31
0.0
 11
174.428060825745
 21
14.62599492196849
 31
0.0
 11
174.5188084970408
 21
14.41658052097918
 31
0.0
 11
174.6022150834547
 21
14.22607611130459
 31
0.0
 11
174.6770293263378
 21
14.05708232662467
 31
0.0
 11
174.7410729186604
 21
13.91781337700667
 31
0.0
 11
174.7922649500514
 21
13.81626739612926
 31
0.0
  0
SPLINE
  5
B8
102
{ACAD_REACTORS
330
D4
102
}
330
48
100
AcDbEntity
  8
_U_30EC_U_30A4_U_30E4_U_30FC_1
  6
Continuous
 62
     2
100
AcDbSpline
210
0.0
220
0.0
230
1.0
 70
    11
 71
     3
 72
    99
 73
    95
 74
    93
 42
0.000000001
 43
0.0000000001
 44
0.00000001
 40
0.0
 40
0.0
 40
0.0
 40
0.0
 40
0.0796417172272992
 40
0.1621768542356514
 40
0.2486489160958168
 40
0.3404969668525126
 40
0.4381912511165432
 40
0.5434463660245448
 40
0.6518115192847478
 40
0.7530190937887317
 40
0.8492196919725364
 40
0.9419290312998598
 40
1.034249663570065
 40
1.129078600620229
 40
1.226697027573269
 40
1.327220425421734
 40
1.470572134938055
 40
1.59548986337128
 40
1.7199341253484
 40
1.850576620127487
 40
1.989059629987326
 40
2.134139054226891
 40
2.280698007207207
 40
2.424529739039479
 40
2.565929576985843
 40
2.70823926077354
 40
2.861717887443659
 40
3.045168540347362
 40
3.183798301138602
 40
3.314813961455467
 40
3.442083470447294
 40
3.569912708372901
 40
3.702177512509345
 40
3.842307559659533
 40
3.992872223245911
 40
4.156750662218356
 40
4.310981861107577
 40
4.445859909322595
 40
4.572393936131587
 40
4.701656719781987
 40
4.768279086008477
 40
4.835960697898427
 40
4.912788918729361
 40
5.006285208481555
 40
5.026909478751688
 40
5.047533749021309
 40
5.101808031471355
 40
5.162325165538676
 40
5.226919745996001
 40
5.294231806596801
 40
5.364544852554967
 40
5.438319055468015
 40
5.517877651324377
 40
5.607647714861632
 40
5.700449642544479
 40
5.788251142364319
 40
5.872714706039876
 40
5.955167292575372
 40
6.037192395190502
 40
6.120669181469215
 40
6.206848616686456
 40
6.296680855416867
 40
6.442558392872696
 40
6.568190371608353
 40
6.692904567360507
 40
6.824220446557263
 40
6.963121850329524
 40
7.107843738851306
 40
7.253431663907397
 40
7.395187468036821
 40
7.533140753237872
 40
7.670550457175359
 40
7.816236511769365
 40
7.987691657359322
 40
8.142277421969364
 40
8.2936626154151
 40
8.442962460879379
 40
8.591598316185413
 40
8.74367899236186
 40
8.903725323699268
 40
9.076307008890616
 40
9.26557860468067
 40
9.459203795360787
 40
9.6176198102736
 40
9.753609671362009
 40
9.87487330000416
 40
9.95452018497785
 40
10.02416413719254
 40
10.09769764405452
 40
10.1890995592498
 40
10.20974586420142
 40
10.23039218263385
 40
10.3005710188127
 40
10.37632012987546
 40
10.37632012987546
 40
10.37632012987546
 40
10.37632012987546
 10
170.1465954835851
 20
14.13795663215993
 30
0.0
 10
170.1632217851219
 20
14.11720608845313
 30
0.0
 10
170.1970784206578
 20
14.07495111711903
 30
0.0
 10
170.2599822541036
 20
14.02029811392071
 30
0.0
 10
170.3332500940394
 20
13.9729902512105
 30
0.0
 10
170.4175969238636
 20
13.93527231437934
 30
0.0
 10
170.5132240615461
 20
13.91040619731951
 30
0.0
 10
170.6171853775347
 20
13.90309559345937
 30
0.0
 10
170.7224020220406
 20
13.91142322794053
 30
0.0
 10
170.8206626371334
 20
13.94149179651525
 30
0.0
 10
170.9058986427549
 20
13.98848822971878
 30
0.0
 10
170.9779220206103
 20
14.04952991250854
 30
0.0
 10
171.0350917709097
 20
14.12412969578583
 30
0.0
 10
171.076786874744
 20
14.21002464660172
 30
0.0
 10
171.1026952846292
 20
14.30485850432211
 30
0.0
 10
171.1118037332654
 20
14.41854979038366
 30
0.0
 10
171.0986864796487
 20
14.54332587770779
 30
0.0
 10
171.0325330334414
 20
14.66014719171887
 30
0.0
 10
170.936937091957
 20
14.74512539577378
 30
0.0
 10
170.8249681022369
 20
14.81416684459155
 30
0.0
 10
170.699365958327
 20
14.8720414204589
 30
0.0
 10
170.5656691620857
 20
14.92373723284341
 30
0.0
 10
170.4313122818832
 20
14.9789909239718
 30
0.0
 10
170.3051983986877
 20
15.04939770641649
 30
0.0
 10
170.1926579987536
 20
15.13785540731249
 30
0.0
 10
170.0969963064458
 20
15.24981067868472
 30
0.0
 10
170.0334157151826
 20
15.39949910101383
 30
0.0
 10
170.0200706505016
 20
15.55932794385141
 30
0.0
 10
170.0320510987449
 20
15.71048405306845
 30
0.0
 10
170.0712298928841
 20
15.83809244591537
 30
0.0
 10
170.1354987750911
 20
15.95080874030841
 30
0.0
 10
170.223820499974
 20
16.04648609268691
 30
0.0
 10
170.3338091207628
 20
16.12354214985751
 30
0.0
 10
170.4632284401265
 20
16.18151396936275
 30
0.0
 10
170.6111838967794
 20
16.21739177588823
 30
0.0
 10
170.7682069455488
 20
16.22746719050562
 30
0.0
 10
170.9174940466431
 20
16.2186363776259
 30
0.0
 10
171.0596253614171
 20
16.19074899340352
 30
0.0
 10
171.1595922609626
 20
16.13413314701138
 30
0.0
 10
171.3125074736185
 20
16.08674602105506
 30
0.0
 10
171.2455131717169
 20
16.00197553001184
 30
0.0
 10
171.229647912027
 20
15.93438901873483
 30
0.0
 10
171.1978750531296
 20
15.86926092793189
 30
0.0
 10
171.2150202209573
 20
15.7672345325695
 30
0.0
 10
171.1666427208232
 20
15.77493211681901
 30
0.0
 10
171.1315789440766
 20
15.76806771724804
 30
0.0
 10
171.1296697985719
 20
15.83263831158199
 30
0.0
 10
171.0985692931988
 20
15.87825639621392
 30
0.0
 10
171.0664551628455
 20
15.9356103662845
 30
0.0
 10
171.0208038475169
 20
15.98540462692564
 30
0.0
 10
170.9658508218388
 20
16.02994813718993
 30
0.0
 10
170.9010841173008
 20
16.06763988836551
 30
0.0
 10
170.8232377310598
 20
16.09283375791351
 30
0.0
 10
170.7355160553353
 20
16.09931230998111
 30
0.0
 10
170.6452903277807
 20
16.09235709285604
 30
0.0
 10
170.5594594694066
 20
16.06909190460926
 30
0.0
 10
170.4828343638597
 20
16.03131644107543
 30
0.0
 10
170.4165265636202
 20
15.98051641089569
 30
0.0
 10
170.3622560536965
 20
15.91731143407212
 30
0.0
 10
170.3224925345459
 20
15.84276455710365
 30
0.0
 10
170.2976775510589
 20
15.75917313997763
 30
0.0
 10
170.2892124262871
 20
15.65192948382284
 30
0.0
 10
170.3019697987105
 20
15.52965457267562
 30
0.0
 10
170.3681548409272
 20
15.41149724291203
 30
0.0
 10
170.4640977399833
 20
15.32606325709532
 30
0.0
 10
170.5757914963183
 20
15.25583362306718
 30
0.0
 10
170.7010863668703
 20
15.19659162305303
 30
0.0
 10
170.8349823941449
 20
15.14616708086134
 30
0.0
 10
170.968993033315
 20
15.0932251698438
 30
0.0
 10
171.0950885316916
 20
15.02750170625174
 30
0.0
 10
171.2076216638418
 20
14.94480352537321
 30
0.0
 10
171.3031370284233
 20
14.83996006310074
 30
0.0
 10
171.3672706486963
 20
14.69937117251569
 30
0.0
 10
171.3811103725278
 20
14.54065409451591
 30
0.0
 10
171.3673954712229
 20
14.38153155217876
 30
0.0
 10
171.3244739153985
 20
14.23483828819207
 30
0.0
 10
171.2545906329066
 20
14.10119796587143
 30
0.0
 10
171.157459221383
 20
13.9853238769929
 30
0.0
 10
171.0347806023658
 20
13.89089981770086
 30
0.0
 10
170.8874408413168
 20
13.82179270651982
 30
0.0
 10
170.7177132497125
 20
13.77953210858852
 30
0.0
 10
170.5317404979598
 20
13.76781736230409
 30
0.0
 10
170.3528955926183
 20
13.77809486683437
 30
0.0
 10
170.1881733753744
 20
13.81966573769155
 30
0.0
 10
170.0834410841057
 20
13.88797642883938
 30
0.0
 10
169.9350960790366
 20
13.93675219032106
 30
0.0
 10
169.9980378194729
 20
14.02976591290842
 30
0.0
 10
170.0072274430061
 20
14.1029653624828
 30
0.0
 10
170.0303711301232
 20
14.16936294501346
 30
0.0
 10
170.0034588335318
 20
14.26974809527581
 30
0.0
 10
170.052133895634
 20
14.26234033517378
 30
0.0
 10
170.0916530580698
 20
14.26894063620894
 30
0.0
 10
170.0996204944703
 20
14.19078703218934
 30
0.0
 10
170.1305436967923
 20
14.15600927375856
 30
0.0
 10
170.1465954835851
 20
14.13795663215993
 30
0.0
 11
170.1465954835851
 21
14.13795663215993
 31
0.0
 11
170.1982038075865
 21
14.07729869814736
 31
0.0
 11
170.2601105501336
 21
14.0227129516332
 31
0.0
 11
170.3327764009803
 21
13.97583980928383
 31
0.0
 11
170.4166468655844
 21
13.93839906276537
 31
0.0
 11
170.5112210732411
 21
13.91390636311877
 31
0.0
 11
170.6161603327166
 21
13.90575829888472
 31
0.0
 11
170.7240739497552
 21
13.91564048638222
 31
0.0
 11
170.8208419941617
 21
13.94528704887481
 31
0.0
 11
170.9050776083319
 21
13.99175118948818
 31
0.0
 11
170.9756144207687
 21
14.05191413218149
 31
0.0
 11
171.031944210998
 21
14.12505819466319
 31
0.0
 11
171.0736690016004
 21
14.21021434047521
 31
0.0
 11
171.0994680808033
 21
14.30436190989612
 31
0.0
 11
171.1080824729447
 21
14.40451552098219
 31
0.0
 11
171.0878517703357
 21
14.54643250879397
 31
0.0
 11
171.0272522666731
 21
14.65566684036386
 31
0.0
 11
170.9364971286286
 21
14.74081306430094
 31
0.0
 11
170.826010188474
 21
14.81052746532515
 31
0.0
 11
170.7008523531255
 21
14.86979854169921
 31
0.0
 11
170.5662951950999
 21
14.92404253474119
 31
0.0
 11
170.4316884277008
 21
14.98201274306003
 31
0.0
 11
170.3065802017259
 21
15.05297399304232
 31
0.0
 11
170.1960276098281
 21
15.14113315968694
 31
0.0
 11
170.1053381235266
 21
15.25080295132617
 31
0.0
 11
170.0447055469485
 21
15.39179720476315
 31
0.0
 11
170.0245079172554
 21
15.57413260402313
 31
0.0
 11
170.0374030471348
 21
15.71216131926641
 31
0.0
 11
170.0761016659392
 21
15.83733128451289
 31
0.0
 11
170.1393141731507
 21
15.94779262129083
 31
0.0
 11
170.2257499954545
 21
16.04196885390621
 31
0.0
 11
170.3336492808963
 21
16.1184654077065
 31
0.0
 11
170.4613526283329
 21
16.17615670109486
 31
0.0
 11
170.6075393259923
 21
16.21220066809973
 31
0.0
 11
170.7709768565451
 21
16.22421385386061
 31
0.0
 11
170.924891843129
 21
16.21434269066864
 31
0.0
 11
171.0564887242608
 21
16.18477329831497
 31
0.0
 11
171.1725636344941
 21
16.13439993895252
 31
0.0
 11
171.2800792741123
 21
16.06264163167877
 31
0.0
 11
171.2516994050445
 21
16.00236624106886
 31
0.0
 11
171.2284855254284
 21
15.93879017337646
 31
0.0
 11
171.2078381040801
 21
15.86478841992268
 31
0.0
 11
171.1871840681488
 21
15.77360197897326
 31
0.0
 11
171.1665597978416
 21
15.77360197897326
 31
0.0
 11
171.1459355275343
 21
15.77360197897326
 31
0.0
 11
171.1256706495791
 21
15.82395108486346
 31
0.0
 11
171.0994658759421
 21
15.87850045116928
 31
0.0
 11
171.0650468924451
 21
15.93316116296114
 31
0.0
 11
171.0203554612938
 21
15.98349593725411
 31
0.0
 11
170.9657333359511
 21
16.02777175321528
 31
0.0
 11
170.9016722004327
 21
16.06436142334501
 31
0.0
 11
170.8259682961141
 21
16.08882545979727
 31
0.0
 11
170.736572204645
 21
16.09701100667022
 31
0.0
 11
170.6440937174208
 21
16.08926973931101
 31
0.0
 11
170.5594072091645
 21
16.06609003445566
 31
0.0
 11
170.4837024488841
 21
16.02863495634008
 31
0.0
 11
170.4183754766517
 21
15.97832774281101
 31
0.0
 11
170.3650487887665
 21
15.91600293379878
 31
0.0
 11
170.3254809233902
 21
15.84249947895606
 31
0.0
 11
170.3009523754712
 21
15.7598844355739
 31
0.0
 11
170.2927954104109
 21
15.67042329844352
 31
0.0
 11
170.3130095765618
 21
15.52595308146573
 31
0.0
 11
170.373625616682
 21
15.41591177072935
 31
0.0
 11
170.4643479320759
 21
15.33033670130631
 31
0.0
 11
170.5748676948814
 21
15.25941954854624
 31
0.0
 11
170.700008993772
 21
15.19914305550578
 31
0.0
 11
170.8345826882554
 21
15.14590447913022
 31
0.0
 11
170.9691729191968
 21
15.09039489581073
 31
0.0
 11
171.0942976816298
 21
15.02377281249409
 31
0.0
 11
171.2048009079771
 21
14.94118863716749
 31
0.0
 11
171.2955397598289
 21
14.83800003476272
 31
0.0
 11
171.3561557999489
 21
14.70552315979584
 31
0.0
 11
171.3763699660998
 21
14.53526378483839
 31
0.0
 11
171.3621839747998
 21
14.38133030397411
 31
0.0
 11
171.3196087009194
 21
14.23605531269097
 31
0.0
 11
171.2499752884266
 21
14.10398854189067
 31
0.0
 11
171.1544992078714
 21
13.99007218775246
 31
0.0
 11
171.0341060772625
 21
13.89715272597017
 31
0.0
 11
170.8896160201847
 21
13.8283235766818
 31
0.0
 11
170.7223519532714
 21
13.78581275203967
 31
0.0
 11
170.5336103348227
 21
13.77165864614042
 31
0.0
 11
170.3405031726389
 21
13.78581275203967
 31
0.0
 11
170.1878975900912
 21
13.8283235766818
 31
0.0
 11
170.0661897942203
 21
13.88899033013889
 31
0.0
 11
169.9660261826364
 21
13.95734322942737
 31
0.0
 11
169.992232058704
 21
14.03255545163076
 31
0.0
 11
170.0090121537619
 21
14.10014767383613
 31
0.0
 11
170.0206196447853
 21
14.17275926235961
 31
0.0
 11
170.031360625414
 21
14.26352788212859
 31
0.0
 11
170.0520069443317
 21
14.26352788212859
 31
0.0
 11
170.0726532632493
 21
14.26352788212859
 31
0.0
 11
170.104891639163
 21
14.20119204881083
 31
0.0
 11
170.1465954835851
 21
14.13795663215993
 31
0.0
  0
LWPOLYLINE
  5
B9
102
{ACAD_REACTORS
330
C6
102
}
330
48
100
AcDbEntity
  8
_U_30EC_U_30A4_U_30E4_U_30FC_1
  6
Continuous
 62
     2
100
AcDbPolyline
 90
        5
 70
     1
 43
0.0
 10
192.4578138032672
 20
15.39722336795624
 10
192.4578138032672
 20
15.22875434022056
 10
191.1602971697032
 20
15.22875434022056
 10
191.1602971697032
 20
15.39722336795624
 10
192.4578138032672
 20
15.39722336795624
  0
MTEXT
  5
BB
330
48
100
AcDbEntity
  8
1
 62
     2
100
AcDbMText
 10
32.50000000000006
 20
282.0000000000003
 30
0.0
 40
5.0
 41
0.0
 71
     5
 72
     1
  1
図番
  7
CONVERTER_11
 73
     1
 44
0.45454545454545
  0
MTEXT
  5
BC
330
48
100
AcDbEntity
  8
1
 62
     2
100
AcDbMText
 10
29.00000000000006
 20
34.0
 30
0.0
 40
3.5
 41
0.0
 71
     5
 72
     1
  1
備考
  7
CONVERTER_11
 73
     1
 44
0.45454545454545
  0
MTEXT
  5
BD
330
48
100
AcDbEntity
  8
1
 62
     2
100
AcDbMText
 10
29.00000000000006
 20
22.75
 30
0.0
 40
3.5
 41
0.0
 71
     5
 72
     1
  1
品名
  7
CONVERTER_11
 73
     1
 44
0.72727272727273
  0
MTEXT
  5
BE
330
48
100
AcDbEntity
  8
1
 62
     2
100
AcDbMText
 10
29.00000000000006
 20
14.25
 30
0.0
 40
3.5
 41
0.0
 71
     5
 72
     1
  1
品番
  7
CONVERTER_11
 73
     1
 44
0.72727272727273
  0
MTEXT
  5
BF
330
48
100
AcDbEntity
  8
1
 62
     2
100
AcDbMText
 10
101.5000000000001
 20
25.0
 30
0.0
 40
3.0
 41
0.0
 71
     5
 72
     1
  1
承認
  7
CONVERTER_11
 73
     1
 44
0.59090909090909
  0
MTEXT
  5
C0
330
48
100
AcDbEntity
  8
1
 62
     2
100
AcDbMText
 10
175.0000000000001
 20
23.5
 30
0.0
 40
3.5
 41
0.0
 71
     5
 72
     1
  1
第三角法
  7
CONVERTER_11
 73
     1
 44
0.54545454545455
  0
MTEXT
  5
C1
330
48
100
AcDbEntity
  8
1
 62
     2
100
AcDbMText
 10
118.5000000000001
 20
25.0
 30
0.0
 40
3.0
 41
0.0
 71
     5
 72
     1
  1
検図
  7
CONVERTER_11
 73
     1
 44
0.59090909090909
  0
MTEXT
  5
C2
330
48
100
AcDbEntity
  8
1
 62
     2
100
AcDbMText
 10
152.5000000000001
 20
25.0
 30
0.0
 40
3.0
 41
0.0
 71
     5
 72
     1
  1
設計
  7
CONVERTER_11
 73
     1
 44
0.59090909090909
  0
MTEXT
  5
C3
330
48
100
AcDbEntity
  8
1
 62
     2
100
AcDbMText
 10
135.5000000000001
 20
25.0
 30
0.0
 40
3.0
 41
0.0
 71
     5
 72
     1
  1
製図
  7
CONVERTER_11
 73
     1
 44
0.59090909090909
  0
MTEXT
  5
C4
330
48
100
AcDbEntity
  8
1
 62
     2
100
AcDbMText
 10
89.50000000000006
 20
24.0
 30
0.0
 40
3.5
 41
0.0
 71
     5
 72
     1
  1
尺度
  7
CONVERTER_11
 73
     1
 44
0.54545454545455
  0
MTEXT
  5
C5
330
48
100
AcDbEntity
  8
1
 62
   250
100
AcDbMText
 10
25.00000000000006
 20
5.0
 30
0.0
 40
3.5
 41
0.0
 71
     4
 72
     1
  1
備考欄の文字列 原点位置=4
  7
CONVERTER_11
 73
     1
 44
0.54545454545455
  0
HATCH
  5
C6
330
48
100
AcDbEntity
  8
1
  6
Continuous
 62
     2
100
AcDbHatch
 10
0.0
 20
0.0
 30
0.0
210
0.0
220
0.0
230
1.0
  2
CUSTOM0
 70
     0
 71
     1
 91
        1
 92
        1
 93
        4
 72
     1
 10
192.4578138032672
 20
15.39722336795624
 11
192.4578138032672
 21
15.22875434022056
 72
     1
 10
192.4578138032672
 20
15.22875434022056
 11
191.1602971697032
 21
15.22875434022056
 72
     1
 10
191.1602971697032
 20
15.22875434022056
 11
191.1602971697032
 21
15.39722336795624
 72
     1
 10
191.1602971697032
 20
15.39722336795624
 11
192.4578138032672
 21
15.39722336795624
 97
        1
330
B9
 75
     1
 76
     2
 52
45.0
 41
0.1
 77
     0
 78
     1
 53
45.0
 43
0.0
 44
0.0
 45
-0.282842712474619
 46
0.0
 79
     0
 98
        1
 10
0.0
 20
0.0
  0
HATCH
  5
C7
330
48
100
AcDbEntity
  8
1
  6
Continuous
 62
     2
100
AcDbHatch
 10
0.0
 20
0.0
 30
0.0
210
0.0
220
0.0
230
1.0
  2
CUSTOM1
 70
     0
 71
     1
 91
        1
 92
        1
 93
        3
 72
     4
 94
        3
 73
     0
 74
     0
 95
       24
 96
       20
 40
0.0
 40
0.0
 40
0.0
 40
0.0
 40
0.2211075008753739
 40
0.4273218586245375
 40
0.5080174679239171
 40
0.5914835907870544
 40
0.8143265690192968
 40
1.054651302686604
 40
1.295452694023195
 40
1.518109231328849
 40
1.540864321905464
 40
1.595126460622724
 40
1.659890947896038
 40
1.714153085187423
 40
1.736908174961695
 40
1.7649511007354
 40
1.801562291220962
 40
1.95391442454366
 40
2.126104167379727
 40
2.126104167379727
 40
2.126104167379727
 40
2.126104167379727
 10
185.937536955689
 20
15.58989295113015
 10
185.9112579081813
 20
15.53097628234373
 10
185.8604698894427
 20
15.41711139679256
 10
185.8131784839112
 20
15.14441958233112
 10
185.7043482802619
 20
15.24445482575457
 10
185.5514800279637
 20
15.27118593367324
 10
185.7686155181199
 20
15.48518135017633
 10
185.7838483674382
 20
15.70332117782487
 10
185.8906889492
 20
15.88451579066425
 10
185.8305380947081
 20
16.16913226311401
 10
185.9334317395402
 20
16.1411408922245
 10
185.9779933468151
 20
16.13243251602299
 10
186.0380842395397
 20
16.12139654183353
 10
186.075661958744
 20
16.10767523055561
 10
186.1252466928606
 20
16.10756076160221
 10
186.0930158919326
 20
16.07306592398625
 10
186.0171802221883
 20
16.08404104537961
 10
186.0429447159693
 20
15.89858969582451
 10
186.0055896763851
 20
15.80702313549589
 10
185.985770496161
 20
15.75844135397704
 72
     4
 94
        3
 73
     0
 74
     0
 95
       70
 96
       66
 40
0.0
 40
0.0
 40
0.0
 40
0.0
 40
0.0241731073021472
 40
0.0846058988987297
 40
0.1631685280353284
 40
0.2417311571789756
 40
0.3021639488292751
 40
0.3263370654895825
 40
0.3533118254249165
 40
0.4228783438922431
 40
0.5179999095313758
 40
0.6216398239466422
 40
0.7167613891500096
 40
0.7863279069650254
 40
0.8133026791762227
 40
0.8372943998772064
 40
0.8945054261372977
 40
0.9627895541962747
 40
1.020000580349084
 40
1.043992300975183
 40
1.071934345522919
 40
1.113121768772929
 40
1.145225199332254
 40
1.225483775412792
 40
1.329819923771504
 40
1.434156071994398
 40
1.514414647795819
 40
1.546518078208427
 40
1.578974764260229
 40
1.662678849314167
 40
1.777131373668416
 40
1.901833377474807
 40
2.016285900500597
 40
2.099989982527964
 40
2.132446666570322
 40
2.158782354486046
 40
2.216720867907835
 40
2.274659381334256
 40
2.300995069256192
 40
2.333451754066164
 40
2.417155836543845
 40
2.531608358985284
 40
2.656310362283779
 40
2.770762886388912
 40
2.854466971340077
 40
2.886923657363884
 40
2.913597976833316
 40
2.982389642875122
 40
3.076451716946986
 40
3.178937260458598
 40
3.272999334740003
 40
3.341791001059224
 40
3.368465320663537
 40
3.396976080738758
 40
3.472140811845966
 40
3.578408190308656
 40
3.700226892456064
 40
3.822045594634281
 40
3.928312973256359
 40
4.003477705314756
 40
4.031988456866822
 40
4.05832414479762
 40
4.116262658236781
 40
4.174201171400579
 40
4.200536849608513
 40
4.200536849608513
 40
4.200536849608513
 40
4.200536849608513
 10
185.985770496161
 20
15.75844135397704
 10
185.993825954468
 20
15.75844359811685
 10
186.0220200663242
 20
15.75845146032797
 10
186.0765534803674
 20
15.7583075482837
 10
186.1482891808604
 20
15.75909120499896
 10
186.2236240137063
 20
15.7562757046381
 10
186.2713052366439
 20
15.76298403400956
 10
186.3195071245617
 20
15.75197563692431
 10
186.3062571799875
 20
15.80546402997032
 10
186.3151093964539
 20
15.86049583543091
 10
186.3108698036287
 20
15.95419908726108
 10
186.3133483481281
 20
16.04959482218531
 10
186.3090938706062
 20
16.14356821983387
 10
186.3179818665847
 20
16.19795062438012
 10
186.3046977409946
 20
16.2523399769146
 10
186.351411927711
 20
16.23842216335359
 10
186.3943254545738
 20
16.24103877374043
 10
186.4605443456685
 20
16.23648422450754
 10
186.5013342271799
 20
16.22778162134162
 10
186.5525145690819
 20
16.23531799890195
 10
186.5253720487201
 20
16.19349970223284
 10
186.4803096055708
 20
16.20284992072597
 10
186.4942065045051
 20
16.13841207371837
 10
186.4858414431655
 20
16.07378219627398
 10
186.4903632178399
 20
15.97529141193887
 10
186.4854741311169
 20
15.8759593284257
 10
186.4950258992081
 20
15.81293115552966
 10
186.4799761455202
 20
15.74964011499787
 10
186.5449159457208
 20
15.76515072944267
 10
186.6116246399498
 20
15.75499387697812
 10
186.7241435470827
 20
15.75988800099366
 10
186.8390235448954
 20
15.75691204732783
 10
186.9519871999748
 20
15.7622166418499
 10
187.0176267597679
 20
15.75107306472088
 10
187.0816276691054
 20
15.76744532319856
 10
187.070314288919
 20
15.71761689905274
 10
187.077533987151
 20
15.67416715212121
 10
187.070314261127
 20
15.63071745587443
 10
187.0816277175994
 20
15.58088895196875
 10
187.0176263598972
 20
15.59726166091361
 10
186.951992124046
 20
15.58611271661587
 10
186.8389974317331
 20
15.59144857206852
 10
186.7242456548644
 20
15.58834345663821
 10
186.6113183686862
 20
15.59364894682587
 10
186.5455220903585
 20
15.58257300019592
 10
186.4816097975359
 20
15.59887597847617
 10
186.4936015165127
 20
15.5442352439574
 10
186.4862104613006
 20
15.48854295047841
 10
186.4892684841984
 20
15.39649689140569
 10
186.4893422785684
 20
15.301791098731
 10
186.4860313578361
 20
15.20952782902264
 10
186.4939505989904
 20
15.15435768736139
 10
186.4815076611618
 20
15.10058169100135
 10
186.5389116551633
 20
15.1145376886278
 10
186.5994708140383
 20
15.10511457884226
 10
186.7048680855081
 20
15.10942885928703
 10
186.8204294070623
 20
15.1083550461203
 10
186.9359688877797
 20
15.10725965900994
 10
187.0414181130841
 20
15.11162525770631
 10
187.1018680471804
 20
15.10209426030669
 10
187.159283773911
 20
15.11617289606378
 10
187.1477773876709
 20
15.06707153265682
 10
187.1537566781749
 20
15.02564658018648
 10
187.1520311050801
 20
14.97651677966694
 10
187.1521500122971
 20
14.94854428447607
 10
187.1521871691833
 20
14.93980288195949
 72
     4
 94
        3
 73
     0
 74
     0
 95
       62
 96
       58
 40
0.0
 40
0.0
 40
0.0
 40
0.0
 40
0.0598250028308485
 40
0.2024846486897047
 40
0.3727558389220178
 40
0.5154154847934933
 40
0.5752404975784202
 40
0.933232677548608
 40
1.29045176283934
 40
1.602077253145738
 40
1.699931634111996
 40
1.799359756424964
 40
2.270120149656966
 40
2.804661928461401
 40
2.882342287383111
 40
3.076543185718961
 40
3.329004354835421
 40
3.581465524568246
 40
3.775666424543527
 40
3.853346784558147
 40
3.899120679594921
 40
3.984129341791862
 40
4.02990323681721
 40
4.105797496059365
 40
4.295533144152325
 40
4.54218948661156
 40
4.788845828875509
 40
4.978581476409889
 40
5.054475735244132
 40
5.621734664339158
 40
6.130867242037174
 40
6.225249780948401
 40
6.318913039727106
 40
6.663579954558699
 40
7.047498900224531
 40
7.435230791575428
 40
7.49894390666784
 40
7.650875181209777
 40
7.832212509001259
 40
7.984143783696645
 40
8.047856898902772
 40
8.091554632732278
 40
8.172707566963936
 40
8.216405300767658
 40
8.289021782160543
 40
8.462184160756888
 40
8.668861838005053
 40
8.842024215263617
 40
8.914640695474812
 40
8.989881580861017
 40
9.155411528826924
 40
9.32094147774371
 40
9.39618235248696
 40
9.45470901114345
 40
9.58346766017047
 40
9.712226309012692
 40
9.770752957989174
 40
9.770752957989174
 40
9.770752957989174
 40
9.770752957989174
 10
187.1521871691833
 20
14.93980288195949
 10
187.1322348171623
 20
14.93980875568671
 10
187.0647037716465
 20
14.93982863806156
 10
186.9410612161788
 20
14.93949362520324
 10
186.7863180150057
 20
14.94107673750511
 10
186.6697349482481
 20
14.93686078860494
 10
186.4550942634241
 20
14.95215205331625
 10
186.8518948407229
 20
14.59198721286192
 10
186.8945656069268
 20
14.37510503397165
 10
187.3189162146611
 20
14.19325062511447
 10
187.1439821496075
 20
14.08985196568069
 10
187.0194523925083
 20
13.87831523212733
 10
186.7666277235944
 20
14.34806081001559
 10
186.4797602893627
 20
14.9951151698452
 10
186.4906335926662
 20
14.68782672154693
 10
186.488289277796
 20
14.52288616971777
 10
186.4861096126412
 20
14.28879670711693
 10
186.4980774396348
 20
14.04498072421783
 10
186.4687984740632
 20
13.89855796860984
 10
186.511452262547
 20
13.75113490174537
 10
186.4239814005641
 20
13.7668579730622
 10
186.3768527606745
 20
13.76694303543454
 10
186.2898973207714
 20
13.75109425482909
 10
186.3313474021724
 20
13.89527771422762
 10
186.3029875004286
 20
14.03855052698455
 10
186.31459737753
 20
14.27674947365264
 10
186.3124175648273
 20
14.50517235240345
 10
186.3103111127995
 20
14.66705729375994
 10
186.3208035438323
 20
14.98153709333751
 10
186.0128963252894
 20
14.29229470872437
 10
185.7055258267457
 20
13.8147675024305
 10
185.5851367066275
 20
14.03741112637426
 10
185.4074607910723
 20
14.15011034955567
 10
185.8853326362895
 20
14.3254814346546
 10
185.9353959057207
 20
14.56091929252029
 10
186.3583799621718
 20
14.95322989344607
 10
186.127675427354
 20
14.93655307029065
 10
186.0049685859341
 20
14.94269518948769
 10
185.8325483095662
 20
14.93312822699573
 10
185.721322469445
 20
14.95448818489665
 10
185.6025779627448
 20
14.92136265357419
 10
185.6183169706687
 20
15.00203900606883
 10
185.6178550933762
 20
15.04645414290853
 10
185.6027881889932
 20
15.12967081778532
 10
185.7372380935444
 20
15.09062651983881
 10
185.8619755545747
 20
15.11739729328421
 10
186.0628755237281
 20
15.10063949044051
 10
186.1921540949354
 20
15.12204225913002
 10
186.3328419928296
 20
15.0886877885342
 10
186.2980927452617
 20
15.22651875785066
 10
186.3222185666713
 20
15.3496325734948
 10
186.2967086182393
 20
15.47024055670333
 10
186.3333251146686
 20
15.60539865141492
 10
186.221141702777
 20
15.58094545781889
 10
186.1280356457138
 20
15.59307749842021
 10
186.0191547579821
 20
15.58957630069993
 10
185.9569697640965
 20
15.58981755951601
 10
185.9375369557247
 20
15.58989295124143
 97
        3
330
AA
330
A8
330
A9
 75
     1
 76
     2
 52
45.0
 41
0.1
 77
     0
 78
     1
 53
45.0
 43
0.0
 44
0.0
 45
-0.282842712474619
 46
0.0
 79
     0
 98
        1
 10
0.0
 20
0.0
  0
HATCH
  5
C8
330
48
100
AcDbEntity
  8
1
  6
Continuous
 62
     2
100
AcDbHatch
 10
0.0
 20
0.0
 30
0.0
210
0.0
220
0.0
230
1.0
  2
CUSTOM2
 70
     0
 71
     1
 91
        1
 92
        1
 93
        1
 72
     4
 94
        3
 73
     0
 74
     0
 95
      124
 96
      120
 40
0.0
 40
0.0
 40
0.0
 40
0.0
 40
0.0278187229624226
 40
0.1011590162383985
 40
0.2048470170590239
 40
0.3237088716558961
 40
0.4425707262522
 40
0.5462587270699263
 40
0.6195990203312082
 40
0.647417752257866
 40
0.6750060736115242
 40
0.7357003855242812
 40
0.7963946998054563
 40
0.8239830245571873
 40
0.8540933811103251
 40
0.9373396629409363
 40
1.063094687343246
 40
1.220731268638084
 40
1.399622220914758
 40
1.589140358637771
 40
1.778658496423852
 40
1.957549448940548
 40
2.115186030873141
 40
2.240941056914473
 40
2.324187341760543
 40
2.354297700109393
 40
2.381886024671901
 40
2.442580338710493
 40
2.503274652750517
 40
2.530862977314627
 40
2.56098394927858
 40
2.640393784452926
 40
2.752662861759149
 40
2.881361560118138
 40
3.010060258455185
 40
3.122329335705389
 40
3.201739170817945
 40
3.231860142753335
 40
3.264298024030389
 40
3.352343701778261
 40
3.482095226868782
 40
3.639650650173039
 40
3.811108022565494
 40
3.982565394928
 40
4.140120818152579
 40
4.269872343141286
 40
4.357918020802347
 40
4.390355902043976
 40
4.423256253992546
 40
4.508104530073038
 40
4.624121560636806
 40
4.750528176031534
 40
4.86654520660201
 40
4.951393482691967
 40
4.984293834645368
 40
5.011450833242285
 40
5.071196230152075
 40
5.130941627057154
 40
5.158098625648821
 40
5.190998977601484
 40
5.275847253689309
 40
5.391864284256772
 40
5.518270899648289
 40
5.634287930209299
 40
5.719136206287973
 40
5.752036558235889
 40
5.782130946282915
 40
5.862783906229089
 40
5.979550131774956
 40
6.117984316640363
 40
6.263641154587908
 40
6.402075339414114
 40
6.518841564907908
 40
6.59949452481549
 40
6.629588912848727
 40
6.654403028226303
 40
6.71357514948807
 40
6.784199939329416
 40
6.843372060493518
 40
6.868186175802736
 40
6.896246243201831
 40
6.939586233758201
 40
6.967846564564828
 40
7.043584251089767
 40
7.153234334451625
 40
7.283231855734375
 40
7.420011856035408
 40
7.55000937657976
 40
7.65965945883516
 40
7.735397144417153
 40
7.763657474851325
 40
7.796409728010982
 40
7.880876065096256
 40
7.996370852465642
 40
8.122208446418536
 40
8.23770322479913
 40
8.322169562010853
 40
8.354921815205838
 40
8.38207881330762
 40
8.44182420920693
 40
8.501569605240084
 40
8.528726603485664
 40
8.561478856695684
 40
8.645945193877735
 40
8.761439980865275
 40
8.887277580764417
 40
9.002772362000938
 40
9.08723869666113
 40
9.119990949235612
 40
9.15242883061331
 40
9.240474508638526
 40
9.370226034149473
 40
9.527781457984355
 40
9.699238830981344
 40
9.870696203978532
 40
10.02825162781395
 40
10.15800315332557
 40
10.24604883135112
 40
10.27848670378514
 40
10.27848670378514
 40
10.27848670378514
 40
10.27848670378514
 10
195.3821827564384
 20
14.01410517385757
 10
195.3914554737524
 20
14.01410498511274
 10
195.4251744536861
 20
14.01410430876714
 10
195.4934706812466
 20
14.01411807243305
 10
195.592014171158
 20
14.01403224219544
 10
195.7062066464812
 20
14.0144175561225
 10
195.8185894417072
 20
14.01300835897545
 10
195.9214376600117
 20
14.01719117422243
 10
195.980683987485
 20
14.00823089251982
 10
196.0371265937033
 20
14.0216443452606
 10
196.0246255586956
 20
13.9708719861336
 10
196.0329549635704
 20
13.92589320939067
 10
196.024817084112
 20
13.88056752990487
 10
196.0370529214458
 20
13.82931932408465
 10
195.9747773490334
 20
13.84447955365274
 10
195.9060513026869
 20
13.83359750710742
 10
195.7782756749592
 20
13.83911304747971
 10
195.6262984511644
 20
13.83700851253698
 10
195.4502695972523
 20
13.83771002588473
 10
195.2644431934288
 20
13.8374523753129
 10
195.0786167437176
 20
13.83771005144602
 10
194.9025880142169
 20
13.8370084184773
 10
194.7506104154195
 20
13.83911332229988
 10
194.6228357664555
 20
13.83359680767639
 10
194.5541077836582
 20
13.84448077125941
 10
194.4918349042883
 20
13.82931786684208
 10
194.5040616290019
 20
13.88057510805171
 10
194.4960004462597
 20
13.92582473272424
 10
194.5040675809893
 20
13.97106357955323
 10
194.4918238487084
 20
14.02234176909958
 10
194.5525017120699
 20
14.00749577363135
 10
194.6162810745737
 20
14.01756448170735
 10
194.7277314353503
 20
14.01294644212
 10
194.8497533443824
 20
14.01413328905469
 10
194.9719538137824
 20
14.01515863900635
 10
195.0829794287392
 20
14.01092475623402
 10
195.1476517413959
 20
14.02018584521739
 10
195.2091162810502
 20
14.00604423049682
 10
195.1930065601338
 20
14.07235527884516
 10
195.2042980327359
 20
14.14447790121976
 10
195.1987400822561
 20
14.27513760888285
 10
195.2008035061691
 20
14.42607323708241
 10
195.2000167127295
 20
14.59335873107885
 10
195.2007845215629
 20
14.76061110332302
 10
195.1988038785628
 20
14.91163289269912
 10
195.2041306156621
 20
15.04206069552994
 10
195.1933101388426
 20
15.11465442605898
 10
195.2090326429876
 20
15.18150469436797
 10
195.1432708132492
 20
15.16580512490823
 10
195.0756367830764
 20
15.17609243083994
 10
194.9615885293811
 20
15.1711378684712
 10
194.8451242674903
 20
15.17414128030474
 10
194.7306554121478
 20
15.16880303143388
 10
194.6640324657814
 20
15.18001268074824
 10
194.5990769715186
 20
15.1634913266501
 10
194.610798975871
 20
15.21473720477058
 10
194.6032830189122
 20
15.25950333784091
 10
194.6107989878836
 20
15.30426944897961
 10
194.5990769505348
 20
15.3555153612974
 10
194.6640326339201
 20
15.33899381766816
 10
194.7306533339821
 20
15.35020571373943
 10
194.8451352858065
 20
15.34485436710665
 10
194.9615454436963
 20
15.34791188771117
 10
195.0757660174641
 20
15.34278499010708
 10
195.1430150439228
 20
15.35345733355599
 10
195.2083325941439
 20
15.33742082669076
 10
195.1941391448553
 20
15.39949685750054
 10
195.2036059462996
 20
15.46586761628762
 10
195.1990269004085
 20
15.58239972741966
 10
195.2007696555949
 20
15.71426685022376
 10
195.1997551495392
 20
15.85615960150273
 10
195.2017191344372
 20
15.9876905070258
 10
195.1964668553852
 20
16.10524577283002
 10
195.2073408763474
 20
16.16947789001584
 10
195.1919536641855
 20
16.23108802545047
 10
195.2407591537801
 20
16.21702407382111
 10
195.2853995564727
 20
16.21954742075314
 10
195.3538643946743
 20
16.21512797401709
 10
195.3959106169104
 20
16.20613025544036
 10
195.4487544758776
 20
16.21411714866509
 10
195.4207035002015
 20
16.17113917611675
 10
195.3749142248595
 20
16.18259552043836
 10
195.3869539073265
 20
16.12173520005136
 10
195.3796086070643
 20
16.05769299468773
 10
195.3831195826162
 20
15.94909368863911
 10
195.3819806760175
 20
15.82494319144753
 10
195.3819174780263
 20
15.69189719829878
 10
195.3832872966868
 20
15.56797381249555
 10
195.3791638801314
 20
15.45868337849339
 10
195.3877763103565
 20
15.3960858009417
 10
195.3746757454402
 20
15.33740133296365
 10
195.4393884328199
 20
15.35362113810902
 10
195.5060405953157
 20
15.34270260383311
 10
195.6198779541103
 20
15.34793740173756
 10
195.7357259122098
 20
15.34485547516913
 10
195.8496924263281
 20
15.35018259812512
 10
195.91603410181
 20
15.33904208166543
 10
195.980718852548
 20
15.35546979593177
 10
195.9689820772724
 20
15.30425925210051
 10
195.9765168063041
 20
15.25950334121
 10
195.9689820992259
 20
15.21474739010027
 10
195.9807188140738
 20
15.1635369087104
 10
195.9160344075253
 20
15.17996427794218
 10
195.8496886430826
 20
15.16882784447269
 10
195.7357459487013
 20
15.17413115893119
 10
195.6197995623055
 20
15.17114764593543
 10
195.5062756882124
 20
15.17606892268392
 10
195.4389231318805
 20
15.16585087513518
 10
195.3734285122496
 20
15.18145996138815
 10
195.3891713619218
 20
15.1146385182741
 10
195.3783275998215
 20
15.04207057815878
 10
195.3836581629792
 20
14.91162247614416
 10
195.3817136151856
 20
14.76064558185225
 10
195.3823133683215
 20
14.59322243934158
 10
195.3821506559605
 20
14.42656176118371
 10
195.3821895488136
 20
14.27360142921636
 10
195.38218164131
 20
14.14849178985705
 10
195.3821828382745
 20
14.06507890991419
 10
195.3821827716209
 20
14.02491778281976
 10
195.3821827564384
 20
14.01410517385757
 97
        1
330
AB
 75
     1
 76
     2
 52
45.0
 41
0.1
 77
     0
 78
     1
 53
45.0
 43
0.0
 44
0.0
 45
-0.282842712474619
 46
0.0
 79
     0
 98
        1
 10
0.0
 20
0.0
  0
HATCH
  5
C9
330
48
100
AcDbEntity
  8
1
  6
Continuous
 62
     2
100
AcDbHatch
 10
0.0
 20
0.0
 30
0.0
210
0.0
220
0.0
230
1.0
  2
CUSTOM3
 70
     0
 71
     1
 91
        1
 92
        1
 93
        1
 72
     4
 94
        3
 73
     0
 74
     0
 95
      131
 96
      127
 40
0.0
 40
0.0
 40
0.0
 40
0.0
 40
0.0195577029825925
 40
0.0426490537460531
 40
0.2863607575855325
 40
0.5344948436188437
 40
0.7842238845572166
 40
0.8737315789466137
 40
0.9803832810311663
 40
1.092842274516914
 40
1.19976114665667
 40
1.289788768186394
 40
1.351573580786082
 40
1.370727117561326
 40
1.416400936017741
 40
1.470914848355869
 40
1.51658866679166
 40
1.535742203552742
 40
1.634216592293089
 40
1.760283341174924
 40
1.897966686682054
 40
2.031216387368902
 40
2.049689751137895
 40
2.101115601646832
 40
2.179502577739949
 40
2.278859318314067
 40
2.393194462258724
 40
2.516516648383838
 40
2.642834515405967
 40
2.766156701983472
 40
2.880491846754587
 40
2.979848588358629
 40
3.058235565443807
 40
3.109661416668963
 40
3.128134780704138
 40
3.146783742386455
 40
3.191254343315288
 40
3.24433215731589
 40
3.288802758225765
 40
3.307451719895036
 40
3.327717853844648
 40
3.383747753580008
 40
3.468388665924401
 40
3.574487837698708
 40
3.69489251572881
 40
3.822449946851948
 40
3.950007377920338
 40
4.07041205580043
 40
4.176511227367985
 40
4.261152139501432
 40
4.317182039076624
 40
4.337448172964544
 40
4.620011002696131
 40
4.885096638397396
 40
4.945373043518194
 40
5.014107710488532
 40
5.070481727651909
 40
5.319246955636387
 40
5.58481216450588
 40
5.859000912056752
 40
6.133746937541916
 40
6.40173221296872
 40
6.420736683995339
 40
6.472845717450933
 40
6.550702743893917
 40
6.646951193874126
 40
6.75423449793045
 40
6.865196086587257
 40
6.972479390357715
 40
7.068727839771905
 40
7.146584865450914
 40
7.198693898189144
 40
7.217698368905284
 40
7.234950401630763
 40
7.276089864269809
 40
7.325191803515923
 40
7.366331266090312
 40
7.383583298769664
 40
7.402779163492069
 40
7.453386443254472
 40
7.524934666445502
 40
7.606953361405842
 40
7.688972056429022
 40
7.760520279784273
 40
7.811127559734543
 40
7.830323424546164
 40
7.847844055299794
 40
7.894799345666835
 40
7.962779392744523
 40
8.043374293560571
 40
8.128174145149478
 40
8.208769044817283
 40
8.276749090376983
 40
8.323704379669541
 40
8.341225010056275
 40
8.358497614800452
 40
8.401679126686657
 40
8.457815092185687
 40
8.513951057728148
 40
8.557132569708076
 40
8.574405174505118
 40
8.6023406686165
 40
8.643455660540122
 40
8.66322527196679
 40
8.715345156564437
 40
8.789031889628772
 40
8.873502045520501
 40
8.957972194324125
 40
9.031658925568015
 40
9.083778811234707
 40
9.103548423003168
 40
9.119550083123706
 40
9.160817522380007
 40
9.217244429110373
 40
9.278724491644859
 40
9.335151398295643
 40
9.376418837357939
 40
9.392420497300726
 40
9.401196302734945
 40
9.41749422938442
 40
9.426270027749693
 40
9.440875075477726
 40
9.475702496998908
 40
9.517270709866072
 40
9.552098131994242
 40
9.566703169884452
 40
9.566703169884452
 40
9.566703169884452
 40
9.566703169884452
 10
194.6170254148479
 20
15.67015871511026
 10
194.6134345093371
 20
15.66453690702159
 10
194.6056039123624
 20
15.65227754419113
 10
194.5129968974553
 20
15.61601916040954
 10
194.4887622233247
 20
15.40148444212715
 10
194.3858709845939
 20
15.2219728450971
 10
194.1220492364307
 20
15.03615573798148
 10
194.284547156918
 20
14.95959336566079
 10
194.3607225760839
 20
14.89856693195442
 10
194.4492171072759
 20
14.83515804544759
 10
194.5389930233111
 20
14.77525634219559
 10
194.5883817636047
 20
14.72102154849209
 10
194.6745708157383
 20
14.69286240541833
 10
194.641126067423
 20
14.65713309652813
 10
194.6214671166311
 20
14.62550387991906
 10
194.5919888217883
 20
14.58475872796069
 10
194.5688989446032
 20
14.55504663489644
 10
194.5380205968358
 20
14.50211422668494
 10
194.4729193365741
 20
14.62740334938901
 10
194.3796000122416
 20
14.68213900233936
 10
194.2950636285138
 20
14.73916423939339
 10
194.1722498125742
 20
14.89675287427525
 10
194.1764450847301
 20
14.82035806766836
 10
194.1751478652677
 20
14.77361280161296
 10
194.1758126448077
 20
14.69584785812601
 10
194.1755549986956
 20
14.59902068324423
 10
194.1756431239922
 20
14.48650279078809
 10
194.1756077302282
 20
14.36524085945699
 10
194.1756511758278
 20
14.24086897858961
 10
194.1755199942405
 20
14.11967683631335
 10
194.1759477562047
 20
14.00691148919743
 10
194.174667820231
 20
13.91082913768744
 10
194.1779759851044
 20
13.83113826468699
 10
194.1715197740085
 20
13.78815175788783
 10
194.1806208705556
 20
13.74955432372042
 10
194.1447910339934
 20
13.75810887724069
 10
194.1115223815253
 20
13.75342519985446
 10
194.0604562576041
 20
13.75351298759783
 10
194.0269723972814
 20
13.7579443028382
 10
193.9907585408754
 20
13.74960793842508
 10
194.0009782568666
 20
13.79145277179283
 10
193.9936487887774
 20
13.83778560820173
 10
193.9973633136104
 20
13.92374831106013
 10
193.9959480554897
 20
14.02605142704848
 10
193.9964105554639
 20
14.14453223931511
 10
193.9962773686231
 20
14.26957683153355
 10
193.9963015910046
 20
14.39475828107048
 10
193.9963354925552
 20
14.51286645379057
 10
193.9962060293133
 20
14.61628748709514
 10
193.9965507549082
 20
14.69932036153666
 10
193.9958698278691
 20
14.75143368521241
 10
193.9994586600625
 20
14.87912907821361
 10
193.7826171386437
 20
14.58048716819619
 10
193.6021354921952
 20
14.35263981511513
 10
193.5490322295613
 20
14.49373443289816
 10
193.5200429133149
 20
14.54325767560939
 10
193.4196648062822
 20
14.64641779790107
 10
193.7405127723262
 20
14.72695035023779
 10
193.868989700543
 20
14.91066283036433
 10
194.090645432536
 20
15.1193199577176
 10
194.1770224894069
 20
15.29339211228343
 10
194.4549394229075
 20
15.56967051342512
 10
194.3346247839285
 20
15.56534559551113
 10
194.2863197351349
 20
15.56614856202552
 10
194.2102377454906
 20
15.56574582146583
 10
194.116701000975
 20
15.56590275611608
 10
194.0117594788557
 20
15.56582502576223
 10
193.9033887738718
 20
15.56595464378553
 10
193.7981454235897
 20
15.56554393490691
 10
193.7056237819413
 20
15.5668207367159
 10
193.6268130800707
 20
15.56340766534849
 10
193.5839674565379
 20
15.57023350036319
 10
193.5449499586515
 20
15.56065064201123
 10
193.5526365271864
 20
15.59420779565542
 10
193.5485464404312
 20
15.62523550322232
 10
193.5485531368814
 20
15.672365292709
 10
193.5526239724911
 20
15.70340941646778
 10
193.5449495574583
 20
15.73701861635903
 10
193.5834819405495
 20
15.72748410420872
 10
193.6241228014479
 20
15.73397435498071
 10
193.6951471850463
 20
15.73100150650254
 10
193.7729318149634
 20
15.73174761399158
 10
193.8507292246474
 20
15.73247814044525
 10
193.9217232089908
 20
15.7295423551416
 10
193.9624279791821
 20
15.73595468772952
 10
194.000985348991
 20
15.72650524176004
 10
193.9927342754929
 20
15.76264692158784
 10
193.9982346669358
 20
15.80129837613227
 10
193.9955754206164
 20
15.86913528561838
 10
193.9965815471534
 20
15.9459164153874
 10
193.996017801832
 20
16.02849393582757
 10
193.9970714526593
 20
16.10517329229878
 10
193.9942675863131
 20
16.17331990776699
 10
194.0000702721305
 20
16.21132399809347
 10
193.9915654551159
 20
16.24758448077646
 10
194.0255610233125
 20
16.23755723771852
 10
194.05945756831
 20
16.24073266813706
 10
194.1126669060347
 20
16.23508965640609
 10
194.1660768574484
 20
16.23434774436425
 10
194.1995914649492
 20
16.22819223482981
 10
194.238808618304
 20
16.23346029773592
 10
194.2120263698492
 20
16.19253380793486
 10
194.1708111001724
 20
16.20371204538114
 10
194.1782641540873
 20
16.15867056192124
 10
194.1742227952184
 20
16.11412278028144
 10
194.176171404964
 20
16.04223572621703
 10
194.1752364849758
 20
15.96168630588771
 10
194.176510719003
 20
15.88173995404994
 10
194.1732043793863
 20
15.80841837083183
 10
194.1802106179961
 20
15.76688643002568
 10
194.1701440380126
 20
15.72752418568113
 10
194.2029814803921
 20
15.73468063430981
 10
194.236457729648
 20
15.73027243137945
 10
194.2915053476019
 20
15.73217943347897
 10
194.3489502595314
 20
15.73185366407288
 10
194.4023026248309
 20
15.73106308733081
 10
194.4398540896639
 20
15.73313959118074
 10
194.4623172523237
 20
15.73022338167109
 10
194.4751678073731
 20
15.73572552644056
 10
194.4858255685888
 20
15.7380111819779
 10
194.4986635650144
 20
15.74494972588053
 10
194.514599103307
 20
15.72853046313672
 10
194.5410623920891
 20
15.71709122319447
 10
194.5726805253758
 20
15.6964468783519
 10
194.5987255892151
 20
15.68116869628293
 10
194.6128517723973
 20
15.67266976323183
 10
194.6170254148479
 20
15.67015871511026
 97
        1
330
AC
 75
     1
 76
     2
 52
45.0
 41
0.1
 77
     0
 78
     1
 53
45.0
 43
0.0
 44
0.0
 45
-0.282842712474619
 46
0.0
 79
     0
 98
        1
 10
0.0
 20
0.0
  0
HATCH
  5
CA
330
48
100
AcDbEntity
  8
1
  6
Continuous
 62
     2
100
AcDbHatch
 10
0.0
 20
0.0
 30
0.0
210
0.0
220
0.0
230
1.0
  2
CUSTOM4
 70
     0
 71
     1
 91
        1
 92
        1
 93
        1
 72
     4
 94
        3
 73
     0
 74
     0
 95
       91
 96
       87
 40
0.0
 40
0.0
 40
0.0
 40
0.0
 40
0.0267532254356684
 40
0.0856103386464066
 40
0.144467452199655
 40
0.1712206856618426
 40
0.2039416005642447
 40
0.2955601971652395
 40
0.4362601844616829
 40
0.6162252844507161
 40
0.8256392189704893
 40
1.054685709844402
 40
1.293548478893522
 40
1.532411247938266
 40
1.761457738799531
 40
1.970871673298499
 40
2.150836773256695
 40
2.291536760495556
 40
2.383155356836634
 40
2.415876284101283
 40
2.442629517487926
 40
2.501486630949052
 40
2.560343744424197
 40
2.587096977826469
 40
2.617068194440896
 40
2.699247336756037
 40
2.822032643466321
 40
2.973822353257851
 40
3.143014704823293
 40
3.318007936879844
 40
3.487200288186705
 40
3.638989997548186
 40
3.761775303794685
 40
3.843954445753019
 40
3.873925662229715
 40
3.890812773500423
 40
3.907699884771575
 40
3.937960767857202
 40
3.980983618142208
 40
4.199085915228363
 40
4.439444339237143
 40
4.677588241260787
 40
5.050698317837673
 40
5.448212454763031
 40
5.855291218044584
 40
6.138575438885261
 40
6.417434507584079
 40
6.444551104393738
 40
6.504207617363014
 40
6.563864130314339
 40
6.590980727103908
 40
6.848609460381315
 40
7.109611990668274
 40
7.352910904445955
 40
7.557830220705339
 40
7.587518925913234
 40
7.652834077375656
 40
7.718149228845617
 40
7.747837934061899
 40
7.854880190300893
 40
7.97651125740343
 40
8.369487896592233
 40
8.757514959223554
 40
9.126072419331017
 40
9.46063938039208
 40
9.746695593035763
 40
9.777569943118552
 40
9.807050320931731
 40
9.830377336128866
 40
9.886003295435943
 40
9.952395569429859
 40
10.00802152870622
 40
10.03134854388214
 40
10.2135695100959
 40
10.42203479292867
 40
10.66154556731062
 40
10.91693789564304
 40
11.15832906556565
 40
11.1898267459662
 40
11.27286608520407
 40
11.39026653033352
 40
11.52484752840886
 40
11.65942852648442
 40
11.77682897161483
 40
11.8598683108568
 40
11.89136598230425
 40
11.89136598230425
 40
11.89136598230425
 40
11.89136598230425
 10
190.7027885008197
 20
14.70699600701772
 10
190.7028237765289
 20
14.71587847311985
 10
190.7029366710797
 20
14.74430237047346
 10
190.7012984568489
 20
14.79409639169802
 10
190.7069750292911
 20
14.83657564478154
 10
190.6956928731708
 20
14.88730154856846
 10
190.7632296979033
 20
14.87012900740108
 10
190.8388029210701
 20
14.88290227165995
 10
190.9828357056002
 20
14.87629729457381
 10
191.1569419185427
 20
14.87888462206465
 10
191.3639599611005
 20
14.87800591955552
 10
191.5894688172378
 20
14.87828207920026
 10
191.8251162293406
 20
14.87818339658661
 10
192.0607640531349
 20
14.87828184412767
 10
192.2862717580627
 20
14.87800678190788
 10
192.4932934632806
 20
14.87888186270734
 10
192.6673888915289
 20
14.87630522678446
 10
192.8114492071986
 20
14.88288290449212
 10
192.8869691915293
 20
14.87016243405603
 10
192.9545776037031
 20
14.88726400191686
 10
192.9430840140676
 20
14.8367478580294
 10
192.9505104581734
 20
14.79253252226501
 10
192.9428838927986
 20
14.7486796650361
 10
192.9546489459426
 20
14.69878374479327
 10
192.8930788491984
 20
14.71393227712512
 10
192.8256791738672
 20
14.70310665350673
 10
192.7013004056223
 20
14.70852031626236
 10
192.5554428236572
 20
14.70649205390785
 10
192.3893576440086
 20
14.70715777578387
 10
192.2188412621725
 20
14.70689643521242
 10
192.051979085539
 20
14.70721553391094
 10
191.9087346827106
 20
14.70635302590762
 10
191.7773313869835
 20
14.70863300482988
 10
191.7239859134658
 20
14.70407704374202
 10
191.6485188456913
 20
14.70999914992877
 10
191.6769075779233
 20
14.70094169343353
 10
191.7033652409543
 20
14.69725912268928
 10
191.6633522907702
 20
14.66654271968276
 10
191.571366369187
 20
14.67667591174629
 10
191.543939620707
 20
14.43032502247787
 10
191.4478793967234
 20
14.27499558764373
 10
191.1917277964475
 20
13.94525417931568
 10
191.7627537732763
 20
14.0843002221045
 10
192.0173656320517
 20
14.08291779973362
 10
192.6279647048618
 20
13.99790569242087
 10
192.3340698578084
 20
14.29685417558203
 10
192.0133304286517
 20
14.44330856901774
 10
192.1313543360434
 20
14.50025540818287
 10
192.1724716466261
 20
14.52420099873348
 10
192.2156812394411
 20
14.54599758811229
 10
192.3174574094451
 20
14.60928721253908
 10
192.4328867625247
 20
14.35147151408778
 10
192.6329591642278
 20
14.21616041113683
 10
192.7269077387228
 20
14.03792795138879
 10
192.9558829746394
 20
13.87997821027054
 10
192.8596031846708
 20
13.82915972576298
 10
192.816795976378
 20
13.79881292523052
 10
192.771824352878
 20
13.7746613028146
 10
192.7121720925215
 20
13.72552146747565
 10
192.6789731061325
 20
13.85997475673607
 10
192.5582013350796
 20
14.01594265286584
 10
192.1970976005979
 20
13.88569928059555
 10
191.8385061955541
 20
13.90224694409483
 10
191.457092045008
 20
13.89331229351863
 10
191.1703455282891
 20
13.82882671672409
 10
190.8592055599717
 20
13.94230668192818
 10
190.8268737818789
 20
13.83122259927765
 10
190.7896178253317
 20
13.8119631385001
 10
190.7865737632754
 20
13.85874784087295
 10
190.7679892860607
 20
13.89806853919135
 10
190.7512436616778
 20
13.95765983478232
 10
190.7383730915754
 20
14.00201969871284
 10
190.7042327806428
 20
14.09106331120202
 10
190.9482714457754
 20
14.0218104294377
 10
191.1441394486671
 20
14.00030369057746
 10
191.2395426381277
 20
14.28226484478462
 10
191.2945135769598
 20
14.44363045421122
 10
191.5159619357155
 20
14.71391177589735
 10
191.3849239381218
 20
14.70548446853735
 10
191.3110026555855
 20
14.70779008496969
 10
191.1977459876244
 20
14.70671378321658
 10
191.0694251807485
 20
14.7070763907651
 10
190.9404252030416
 20
14.70697724466085
 10
190.8287840946292
 20
14.70699932712572
 10
190.7514663970028
 20
14.7069957918967
 10
190.7132876532011
 20
14.70699595845081
 10
190.7027885008197
 20
14.70699600701772
 97
        1
330
AD
 75
     1
 76
     2
 52
45.0
 41
0.1
 77
     0
 78
     1
 53
45.0
 43
0.0
 44
0.0
 45
-0.282842712474619
 46
0.0
 79
     0
 98
        1
 10
0.0
 20
0.0
  0
HATCH
  5
CB
330
48
100
AcDbEntity
  8
1
  6
Continuous
 62
     2
100
AcDbHatch
 10
0.0
 20
0.0
 30
0.0
210
0.0
220
0.0
230
1.0
  2
CUSTOM5
 70
     0
 71
     1
 91
        1
 92
        1
 93
        1
 72
     4
 94
        3
 73
     0
 74
     0
 95
       35
 96
       31
 40
0.0
 40
0.0
 40
0.0
 40
0.0
 40
0.03352310366207
 40
0.0713218571712119
 40
0.4278866681486752
 40
0.8116865841963762
 40
1.198190238000012
 40
1.561379546812692
 40
1.659983174622055
 40
1.759315573807232
 40
2.132719617231064
 40
2.525233363588791
 40
2.910815397779681
 40
3.265244364303312
 40
3.592606723582002
 40
3.964386154603951
 40
4.359942131737774
 40
4.758154118639285
 40
4.843846538699887
 40
4.93665006554322
 40
5.256616602537327
 40
5.581707404416064
 40
5.89971915830816
 40
6.198363494280745
 40
6.466301046615797
 40
6.493895311537119
 40
6.559697020196912
 40
6.638234543442486
 40
6.704036252154268
 40
6.731630508423045
 40
6.731630508423045
 40
6.731630508423045
 40
6.731630508423045
 10
191.973601056867
 20
16.23463843719134
 10
191.967600609779
 20
16.22480690542323
 10
191.9548344099157
 20
16.20388988579797
 10
191.794936200656
 20
16.1712712653269
 10
192.2322025842335
 20
15.88206680336697
 10
192.4345394828263
 20
15.6804113835844
 10
192.6819564267974
 20
15.43749387603272
 10
193.1831513624607
 20
15.36047662757777
 10
193.0125562198971
 20
15.21876939174653
 10
192.93832994632
 20
15.01710366209114
 10
192.6131432248189
 20
15.36956287174723
 10
192.3277741670665
 20
15.53175212559563
 10
192.0337604077658
 20
15.73687130053047
 10
191.8084452691135
 20
16.21827488595456
 10
191.5993085055522
 20
15.7534304660922
 10
191.3207873674835
 20
15.54350952252911
 10
191.037138317721
 20
15.37424456359986
 10
190.7078639527832
 20
15.00142360907932
 10
190.6277012318225
 20
15.19708014459002
 10
190.4759724909745
 20
15.32491104190592
 10
190.9083395826796
 20
15.40454031765935
 10
191.0962565329767
 20
15.60026634915472
 10
191.3468477420504
 20
15.81632996916754
 10
191.5714350470161
 20
15.98190992300059
 10
191.6259775409713
 20
16.26133964636827
 10
191.7494661029012
 20
16.24737950408078
 10
191.8060273344521
 20
16.24521268867647
 10
191.8761870984945
 20
16.2404685988136
 10
191.9333414022107
 20
16.23709429350542
 10
191.964419032084
 20
16.23519854711119
 10
191.973601056867
 20
16.23463843719134
 97
        1
330
AE
 75
     1
 76
     2
 52
45.0
 41
0.1
 77
     0
 78
     1
 53
45.0
 43
0.0
 44
0.0
 45
-0.282842712474619
 46
0.0
 79
     0
 98
        1
 10
0.0
 20
0.0
  0
HATCH
  5
CC
330
48
100
AcDbEntity
  8
1
  6
Continuous
 62
     2
100
AcDbHatch
 10
0.0
 20
0.0
 30
0.0
210
0.0
220
0.0
230
1.0
  2
CUSTOM6
 70
     0
 71
     1
 91
        1
 92
        1
 93
        1
 72
     4
 94
        3
 73
     0
 74
     0
 95
       15
 96
       11
 40
0.0
 40
0.0
 40
0.0
 40
0.0
 40
0.2785535985096802
 40
0.5215624748198895
 40
0.6076917376040969
 40
0.6938210001741947
 40
0.9405019146455419
 40
1.22169140348921
 40
1.300471877081155
 40
1.379252341684968
 40
1.379252341684968
 40
1.379252341684968
 40
1.379252341684968
 10
189.5681493631
 20
16.22930267330381
 10
189.6296017794178
 20
16.17691646592716
 10
189.7446649974115
 20
16.07882876798225
 10
190.0397348497245
 20
15.92889785897218
 10
189.9025147631857
 20
15.84343227515015
 10
189.8041227843778
 20
15.71085785201554
 10
189.7130033590651
 20
16.01616985781424
 10
189.3636839480655
 20
16.07967869465373
 10
189.511925837657
 20
16.17896509880878
 10
189.5494081874237
 20
16.21252348402383
 10
189.5681493631
 20
16.22930267330381
 97
        1
330
AF
 75
     1
 76
     2
 52
45.0
 41
0.1
 77
     0
 78
     1
 53
45.0
 43
0.0
 44
0.0
 45
-0.282842712474619
 46
0.0
 79
     0
 98
        1
 10
0.0
 20
0.0
  0
HATCH
  5
CD
330
48
100
AcDbEntity
  8
1
  6
Continuous
 62
     2
100
AcDbHatch
 10
0.0
 20
0.0
 30
0.0
210
0.0
220
0.0
230
1.0
  2
CUSTOM7
 70
     0
 71
     1
 91
        1
 92
        1
 93
        1
 72
     4
 94
        3
 73
     0
 74
     0
 95
       75
 96
       71
 40
0.0
 40
0.0
 40
0.0
 40
0.0
 40
0.0342546099129691
 40
0.1245622414432346
 40
0.2522385480897536
 40
0.398599192294068
 40
0.5449598364980839
 40
0.6726361431438834
 40
0.7629437746736978
 40
0.797198393529799
 40
1.101723623449636
 40
1.408591244036586
 40
1.433332471690294
 40
1.487763172450097
 40
1.542193873081936
 40
1.566935100592488
 40
1.923523931821799
 40
2.271755704953627
 40
2.590579755100897
 40
2.858943305581211
 40
2.889120339309205
 40
2.918305855191123
 40
2.941366645531244
 40
2.996357760973145
 40
3.061992318140708
 40
3.116983433626901
 40
3.140044223997579
 40
3.411273122936584
 40
3.732441619741278
 40
3.761068217532975
 40
3.837787499630537
 40
3.948858699126174
 40
4.080541049104549
 40
4.219093782625932
 40
4.350776132722481
 40
4.461847332405815
 40
4.538566614678545
 40
4.567193212544791
 40
4.594907573999049
 40
4.666381453557617
 40
4.764111044011227
 40
4.87059253812603
 40
4.968322128642481
 40
5.039796008287195
 40
5.067510369784626
 40
5.09426360318584
 40
5.153120716668481
 40
5.211977830150931
 40
5.238731063551938
 40
5.272290535139205
 40
5.363380529445009
 40
5.497618415781715
 40
5.660621563453929
 40
5.83800734174963
 40
6.01539311991101
 40
6.178396267038607
 40
6.312634151842587
 40
6.403724143059576
 40
6.437283612672672
 40
6.46403684626129
 40
6.52289396000491
 40
6.581751071484178
 40
6.608504301591126
 40
6.637253941281274
 40
6.711397748903154
 40
6.812778057283738
 40
6.923237199249514
 40
7.02461750762413
 40
7.098761315207811
 40
7.127510946007761
 40
7.127510946007761
 40
7.127510946007761
 40
7.127510946007761
 10
188.4418622390565
 20
14.95849128473263
 10
188.4418622819707
 20
14.94707313408719
 10
188.441862448113
 20
14.90555257842628
 10
188.4418593081787
 20
14.8214692200377
 10
188.4418788279802
 20
14.70004497322327
 10
188.4417912187738
 20
14.55980494047446
 10
188.4421116235231
 20
14.42006556794575
 10
188.4411605909741
 20
14.29745038894928
 10
188.4431978595969
 20
14.21587074438042
 10
188.4349433178746
 20
14.06271267077697
 10
188.7430797940902
 20
14.2256023605472
 10
189.0350645173735
 20
14.39482938688
 10
189.0408354448708
 20
14.25973235781911
 10
189.045547171989
 20
14.21617221160443
 10
189.0482535411919
 20
14.17211249350544
 10
189.0672545672959
 20
14.02272590363132
 10
188.6583942247304
 20
14.08681172241261
 10
188.3793710348832
 20
13.97296341411017
 10
188.1018081587167
 20
13.87364095811136
 10
187.80998371844
 20
13.91630687596363
 10
187.7869144678658
 20
13.8132167974454
 10
187.7537474383333
 20
13.7869109124447
 10
187.7480653962739
 20
13.83455309036305
 10
187.7284214559045
 20
13.8718033611507
 10
187.7095089485623
 20
13.93007387847562
 10
187.6942849867706
 20
13.97385201007803
 10
187.6477246372938
 20
14.08759421046315
 10
187.9890897312448
 20
14.05576301120044
 10
188.267964936739
 20
14.02161435106479
 10
188.2617753034907
 20
14.16913976479651
 10
188.2630935452775
 20
14.24013150908833
 10
188.262483168995
 20
14.34719767958661
 10
188.2625871570725
 20
14.47398529785997
 10
188.2629987964057
 20
14.6084924349605
 10
188.261390784197
 20
14.73395549951183
 10
188.2659902567927
 20
14.84505246719117
 10
188.256418650221
 20
14.90761886800686
 10
188.2704001783692
 20
14.96595388295001
 10
188.2147384386705
 20
14.95289710582236
 10
188.1575655197822
 20
14.96136307749497
 10
188.0616048925648
 20
14.95729976080635
 10
187.9633767522822
 20
14.95970889852474
 10
187.867258245756
 20
14.95551600613386
 10
187.8104648525812
 20
14.96429346441162
 10
187.7550356873385
 20
14.95094936850121
 10
187.7670679427918
 20
15.00036910959256
 10
187.7592003173938
 20
15.04393988030395
 10
187.766629556383
 20
15.08830469118525
 10
187.7551930564144
 20
15.13902297763992
 10
187.8232102370134
 20
15.12162460757743
 10
187.8968496879747
 20
15.13417450237189
 10
188.0325064058211
 20
15.12799677011096
 10
188.1884909024526
 20
15.13029203093085
 10
188.3615926358144
 20
15.1294096826253
 10
188.5346942964182
 20
15.13029207142408
 10
188.6906789811218
 20
15.1279966295555
 10
188.8263351889798
 20
15.13417486262431
 10
188.8999756705653
 20
15.12162394218335
 10
188.9679914174724
 20
15.13902373012143
 10
188.9565590885923
 20
15.08830130414555
 10
188.9639539458297
 20
15.04397060811107
 10
188.9562039912272
 20
15.00028307550195
 10
188.9681203741877
 20
14.95063590098476
 10
188.9108170223618
 20
14.96461411338424
 10
188.8520145789773
 20
14.95539755673253
 10
188.75252936332
 20
14.95952268164928
 10
188.6494280098349
 20
14.95822760025886
 10
188.5537846354575
 20
14.9585407707764
 10
188.4857467971616
 20
14.95848776697144
 10
188.4514462213444
 20
14.95849051871655
 10
188.4418622390565
 20
14.95849128473263
 97
        1
330
B0
 75
     1
 76
     2
 52
45.0
 41
0.1
 77
     0
 78
     1
 53
45.0
 43
0.0
 44
0.0
 45
-0.282842712474619
 46
0.0
 79
     0
 98
        1
 10
0.0
 20
0.0
  0
HATCH
  5
CE
330
48
100
AcDbEntity
  8
1
  6
Continuous
 62
     2
100
AcDbHatch
 10
0.0
 20
0.0
 30
0.0
210
0.0
220
0.0
230
1.0
  2
CUSTOM8
 70
     0
 71
     1
 91
        1
 92
        1
 93
        1
 72
     4
 94
        3
 73
     0
 74
     0
 95
       91
 96
       87
 40
0.0
 40
0.0
 40
0.0
 40
0.0
 40
0.0345987051695434
 40
0.1258134969461085
 40
0.2547723404888703
 40
0.4026032099153841
 40
0.5504340793416704
 40
0.679392922883608
 40
0.770607714657132
 40
0.8052064287780925
 40
1.124852390615279
 40
1.427402236308876
 40
1.706356627453514
 40
1.95554141787518
 40
2.169485938566322
 40
2.344350786664776
 40
2.480568411561905
 40
2.5904405574289
 40
2.649189927151103
 40
2.749320643306318
 40
2.912632739880018
 40
3.147745656000211
 40
3.244827496385154
 40
3.338490056946795
 40
3.583815413207211
 40
3.761423943238569
 40
3.886956104362744
 40
3.985855451886929
 40
4.091766255337785
 40
4.250186473811978
 40
4.422734315084645
 40
4.628285684838722
 40
4.872093227758565
 40
5.152549652145683
 40
5.464967135837653
 40
5.803201477852572
 40
6.160362988814044
 40
6.193449448276128
 40
6.284170385501782
 40
6.419718138764623
 40
6.587285046385902
 40
6.774063446723788
 40
6.967245678113771
 40
7.154024078817785
 40
7.321590987026142
 40
7.457138740890501
 40
7.547859678556237
 40
7.580946138182797
 40
7.608533084714849
 40
7.669224367077825
 40
7.729915649430041
 40
7.757502595950093
 40
7.790278062553575
 40
7.880146277431044
 40
8.01441996318048
 40
8.180411842398009
 40
8.365434637679478
 40
8.55680107162275
 40
8.741823866830863
 40
8.90781574591643
 40
9.042089431507556
 40
9.131957646249681
 40
9.164733112797258
 40
9.41542506314019
 40
9.667986180958662
 40
9.694169807462801
 40
9.756607686047733
 40
9.83113031532254
 40
9.893568193899947
 40
9.919751820398764
 40
9.95096796469058
 40
9.996421631210742
 40
10.22087981037463
 40
10.44341866197552
 40
10.47847970788865
 40
10.57091337438765
 40
10.70159545461246
 40
10.85140174170374
 40
11.00120802880496
 40
11.13189010907402
 40
11.22432377583027
 40
11.25938480938976
 40
11.28697175596164
 40
11.34766303835938
 40
11.40835432042089
 40
11.43594125892123
 40
11.43594125892123
 40
11.43594125892123
 40
11.43594125892123
 10
190.081811433329
 20
15.55242795125076
 10
190.0702785844942
 20
15.55242790287915
 10
190.0283409444999
 20
15.55242773704162
 10
189.9434129719027
 20
15.55243125800908
 10
189.8207688553129
 20
15.55240926435877
 10
189.6791206916994
 20
15.55250801177053
 10
189.537975369849
 20
15.55214686232419
 10
189.4141351317905
 20
15.55321883609088
 10
189.3317217825382
 20
15.55092249091267
 10
189.1727791229693
 20
15.56048569373419
 10
189.3503402353376
 20
15.19785394311369
 10
189.3379739205453
 20
14.95243127723113
 10
189.4064519473866
 20
14.66862501324835
 10
189.4693024320971
 20
14.43250999939034
 10
189.5452253431729
 20
14.23326740396129
 10
189.6303189577017
 20
14.07745347451375
 10
189.7244607592935
 20
13.97657857781392
 10
189.8282648207727
 20
13.92465852638966
 10
189.9125872030775
 20
13.97606484379615
 10
189.9351322179452
 20
14.09144544037517
 10
189.9745730975372
 20
14.21885149702382
 10
189.9202919734942
 20
14.53622328086755
 10
190.0451218072473
 20
14.38982180140903
 10
190.2019291513604
 20
14.35795300331174
 10
190.0947720007058
 20
14.12421357767627
 10
190.0808711209868
 20
13.95972776583656
 10
190.0234709467226
 20
13.83130869122483
 10
189.933502014501
 20
13.76018802352828
 10
189.8095274657878
 20
13.74432324142253
 10
189.6634273196861
 20
13.77993797554173
 10
189.5243894320285
 20
13.90000570500275
 10
189.4102003962145
 20
14.07435682550321
 10
189.3146141301486
 20
14.29946603111239
 10
189.2318652572627
 20
14.56388246006441
 10
189.1807179256412
 20
14.88187933098543
 10
189.0770189207338
 20
15.15543728488911
 10
189.2042841208521
 20
15.56005818612867
 10
189.0357890623019
 20
15.55112367849677
 10
188.9511995787077
 20
15.55315961418362
 10
188.8189876387628
 20
15.55213937388405
 10
188.6560505094104
 20
15.55253230318428
 10
188.4733759170534
 20
15.55235696313368
 10
188.2847057373383
 20
15.55260105307467
 10
188.101446902019
 20
15.55185657906235
 10
187.9404746832719
 20
15.55416360522425
 10
187.8029808335276
 20
15.54799804883661
 10
187.7289590372312
 20
15.5603283845821
 10
187.6613215186857
 20
15.54329323723555
 10
187.6732373719271
 20
15.59524438447527
 10
187.6655677285694
 20
15.64071424966527
 10
187.6732592225117
 20
15.68614453703704
 10
187.6613141797762
 20
15.73802395984569
 10
187.7283588305868
 20
15.72119143490262
 10
187.8017375665677
 20
15.73335409092669
 10
187.9379128305272
 20
15.72727231074956
 10
188.0973811801514
 20
15.72954834315056
 10
188.2789173085836
 20
15.7288123399896
 10
188.465803486218
 20
15.72905954196131
 10
188.6468012316836
 20
15.72886400799251
 10
188.8080802578879
 20
15.72932234714837
 10
188.9393882124887
 20
15.72812673751203
 10
189.0225051322597
 20
15.73051347319741
 10
189.1556236547815
 20
15.72230605725462
 10
189.064589350266
 20
15.97752868952653
 10
188.978963307442
 20
16.24164358328246
 10
189.0990589003456
 20
16.22904442969165
 10
189.1514264948544
 20
16.22694235763075
 10
189.2214497569715
 20
16.22535399889657
 10
189.2671922337817
 20
16.21602567538113
 10
189.3220812646933
 20
16.22545966915427
 10
189.2963574785682
 20
16.17733028655168
 10
189.1825397571452
 20
16.18266829744178
 10
189.3159346621136
 20
15.95449174576772
 10
189.1943658735471
 20
15.72156856595921
 10
189.3223188769413
 20
15.73087258884437
 10
189.4049048406461
 20
15.72801001754678
 10
189.5307214850824
 20
15.729234374123
 10
189.6741469838059
 20
15.72932431888963
 10
189.8157420951728
 20
15.72746163183851
 10
189.9459127249968
 20
15.7333307593716
 10
190.0193452286192
 20
15.72070340823202
 10
190.0891112922097
 20
15.73877563110411
 10
190.0775772605397
 20
15.68612850546324
 10
190.0833184346683
 20
15.64221317686545
 10
190.0816615770912
 20
15.59089982676549
 10
190.081775756167
 20
15.56158792021633
 10
190.081811433329
 20
15.55242795125076
 97
        1
330
B1
 75
     1
 76
     2
 52
45.0
 41
0.1
 77
     0
 78
     1
 53
45.0
 43
0.0
 44
0.0
 45
-0.282842712474619
 46
0.0
 79
     0
 98
        1
 10
0.0
 20
0.0
  0
HATCH
  5
CF
330
48
100
AcDbEntity
  8
1
  6
Continuous
 62
     2
100
AcDbHatch
 10
0.0
 20
0.0
 30
0.0
210
0.0
220
0.0
230
1.0
  2
CUSTOM9
 70
     0
 71
     1
 91
        1
 92
        1
 93
        1
 72
     4
 94
        3
 73
     0
 74
     0
 95
      118
 96
      114
 40
0.0
 40
0.0
 40
0.0
 40
0.0
 40
0.105470816297341
 40
0.2466098270052049
 40
0.3965912874591522
 40
0.5285525069754398
 40
0.6156245055642608
 40
0.6431434105797766
 40
0.7036850037986485
 40
0.7642265984504911
 40
0.7917455052355229
 40
0.9287404319990348
 40
1.106572819088105
 40
1.287544879681145
 40
1.317578308030664
 40
1.399928030857301
 40
1.522968204800077
 40
1.6750729865907
 40
1.844616533180777
 40
2.019973001638843
 40
2.189516548880158
 40
2.341621331585496
 40
2.464661506320636
 40
2.547011229647199
 40
2.577044658168163
 40
2.603797890893206
 40
2.662655002908893
 40
2.721512114949676
 40
2.748265347702827
 40
2.774215307344904
 40
2.845959313407234
 40
2.954338556588431
 40
3.090194227585608
 40
3.244367517100572
 40
3.40769961584433
 40
3.571031714539477
 40
3.725205003920153
 40
3.861060674729651
 40
3.969439917716344
 40
4.041183923629018
 40
4.06713388321301
 40
4.311886746012181
 40
4.547897258335546
 40
4.764747083044013
 40
4.952749679951805
 40
5.045772974195921
 40
5.137862019645025
 40
5.330543169793056
 40
5.553448265244047
 40
5.795083855888201
 40
6.043293412177283
 40
6.285761695541221
 40
6.313902908752733
 40
6.384255941793323
 40
6.475714884766911
 40
6.567173827758945
 40
6.637526860839723
 40
6.665668074074087
 40
6.692018920328061
 40
6.749990782071134
 40
6.807962643790508
 40
6.834313490017982
 40
6.856393084245261
 40
6.913335195649913
 40
6.991194817302548
 40
7.076026942283781
 40
7.153886563725329
 40
7.210828674844882
 40
7.232908268931218
 40
7.258199334923739
 40
7.324875781592389
 40
7.419142481925046
 40
7.527204308841985
 40
7.635266135230563
 40
7.729532834168549
 40
7.796209279292872
 40
7.821500344594818
 40
7.844652988850917
 40
7.899863140541667
 40
7.965759128053834
 40
8.020969279771146
 40
8.044121924046612
 40
8.069356610160739
 40
8.109134395441565
 40
8.132238100191277
 40
8.193147867786639
 40
8.27926167887681
 40
8.377977512674024
 40
8.476693347146805
 40
8.562807160411856
 40
8.623716930826642
 40
8.646820636853594
 40
8.671988793774407
 40
8.734909185828347
 40
8.81670569518906
 40
8.89850220481566
 40
8.96142259737815
 40
8.986590754551262
 40
9.01294160073342
 40
9.070913462380508
 40
9.128885324082004
 40
9.155236170325328
 40
9.18040432792937
 40
9.243324721948472
 40
9.325121234212265
 40
9.406917746637948
 40
9.469838141978432
 40
9.495006288271206
 40
9.517811184379347
 40
9.572192090487349
 40
9.637098333281577
 40
9.691479239515777
 40
9.714284125643816
 40
9.714284125643816
 40
9.714284125643816
 40
9.714284125643816
 10
185.2874469028653
 20
15.26889163187718
 10
185.3090990569037
 20
15.2411186924281
 10
185.3597257109473
 20
15.17618054561234
 10
185.4349383202592
 20
15.06891060312897
 10
185.5248482274347
 20
14.95377438266625
 10
185.5709169676674
 20
14.85357045748319
 10
185.6655825294656
 20
14.78434006814945
 10
185.6204439320413
 20
14.73771639678272
 10
185.5947047785791
 20
14.69660308866039
 10
185.5645196708014
 20
14.66065971727939
 10
185.5193684730562
 20
14.58579782596091
 10
185.4710504458563
 20
14.80782524253605
 10
185.3968539713074
 20
14.8451067733771
 10
185.2836047324606
 20
15.11610202130603
 10
185.2885133578169
 20
15.0009532844623
 10
185.2868486556306
 20
14.92836675781628
 10
185.2876830076713
 20
14.80625588483987
 10
185.2873609540264
 20
14.65913800810461
 10
185.2875076912456
 20
14.49307063956558
 10
185.2872950092722
 20
14.32187554608602
 10
185.2879497252034
 20
14.15552828635499
 10
185.2859192461139
 20
14.00935173055694
 10
185.291346039993
 20
13.8847104747461
 10
185.2804930868708
 20
13.81718656540627
 10
185.2956739155555
 20
13.75549061417023
 10
185.2457895108134
 20
13.76727503897002
 10
185.2017150342523
 20
13.7594382277997
 10
185.1582371630201
 20
13.76760441372702
 10
185.1092346786489
 20
13.75538056738469
 10
185.1218731234826
 20
13.80960667249313
 10
185.113018296845
 20
13.86936918907557
 10
185.1175058770314
 20
13.9792202904437
 10
185.1157960135992
 20
14.11029975405678
 10
185.1163550915987
 20
14.26198011444328
 10
185.1161928768694
 20
14.42211074929953
 10
185.1162269924675
 20
14.58236865674565
 10
185.1162514960128
 20
14.73370247520439
 10
185.1161453543226
 20
14.865821563386
 10
185.1164299141932
 20
14.97294802533192
 10
185.1158675547569
 20
15.03808619579473
 10
185.1180765083689
 20
15.16618957858674
 10
185.0319435998604
 20
14.79097610391574
 10
184.9555140818501
 20
14.63918193123393
 10
184.8660040767834
 20
14.47766206446309
 10
184.7640413217327
 20
14.2047184882017
 10
184.718797649104
 20
14.36717346596512
 10
184.6102355941671
 20
14.45605432058118
 10
184.7995791751753
 20
14.6054979496141
 10
184.85653405457
 20
14.79749136974924
 10
184.9717520993353
 20
15.02899622906757
 10
184.9940151630133
 20
15.2179725975906
 10
185.177190515214
 20
15.49454089325931
 10
185.0538033597553
 20
15.48698978832093
 10
184.9925684166834
 20
15.48856772366117
 10
184.9081999617065
 20
15.48882592573672
 10
184.8204235085967
 20
15.48544845751204
 10
184.7656768696123
 20
15.49394814982019
 10
184.7104703026025
 20
15.48048561049787
 10
184.7222823035536
 20
15.52931442126762
 10
184.7142496151794
 20
15.57269004896708
 10
184.7228186104679
 20
15.61509438309572
 10
184.7102943409157
 20
15.66267796552118
 10
184.7555101538736
 20
15.65267212995109
 10
184.8014815562725
 20
15.65894105174061
 10
184.877722204771
 20
15.65593561405872
 10
184.9561296131995
 20
15.65770448278541
 10
185.0323992648934
 20
15.65464793981659
 10
185.0783009459475
 20
15.66103971376176
 10
185.12317339654
 20
15.65093822978896
 10
185.1105552275635
 20
15.70157201581898
 10
185.1191936582707
 20
15.7550126188207
 10
185.1152361595445
 20
15.8486325513168
 10
185.1162325068335
 20
15.95112606688924
 10
185.1171927413074
 20
16.05353270248163
 10
185.1133211458006
 20
16.14735929609321
 10
185.1217789814365
 20
16.20036542840353
 10
185.1093075932836
 20
16.25211435651189
 10
185.1542106389851
 20
16.23850747226757
 10
185.1955083836773
 20
16.24100480320586
 10
185.2595344281051
 20
16.23648060574487
 10
185.2986111148787
 20
16.22781003043309
 10
185.3476543498743
 20
16.23515102070686
 10
185.322508003059
 20
16.19602896051757
 10
185.2815901333723
 20
16.20563842455809
 10
185.2910109616604
 20
16.15540148169778
 10
185.2855647318746
 20
16.10385945639489
 10
185.2881699601803
 20
16.01959707584519
 10
185.2870102202154
 20
15.92559135583408
 10
185.2883591064232
 20
15.83196865395525
 10
185.2849970101508
 20
15.74679517552222
 10
185.2920959917769
 20
15.69716856072044
 10
185.2812569154545
 20
15.64993694969989
 10
185.3304010225246
 20
15.66201674936852
 10
185.3794877630147
 20
15.65447393363011
 10
185.4573714280642
 20
15.65686070361433
 10
185.5350365172896
 20
15.65899381905415
 10
185.5845393931356
 20
15.65193391922455
 10
185.634459475064
 20
15.66360151936214
 10
185.6223198516882
 20
15.61540235371392
 10
185.6305838229144
 20
15.57249219801235
 10
185.6223198650785
 20
15.52958201851384
 10
185.6344594549855
 20
15.48138288754864
 10
185.5845395158747
 20
15.4930503447151
 10
185.5350350651204
 20
15.48599202435044
 10
185.4573784382972
 20
15.48811665228602
 10
185.379464386576
 20
15.49053389365759
 10
185.3304500352717
 20
15.48291848194484
 10
185.2813246108943
 20
15.49507952557591
 10
185.2915559988571
 20
15.45073013424157
 10
185.2856677678053
 20
15.4092543620291
 10
185.2878788305568
 20
15.34915394315302
 10
185.2874109346146
 20
15.30225782762887
 10
185.2874386992913
 20
15.27650146418195
 10
185.2874469028653
 20
15.26889163187718
 97
        1
330
B2
 75
     1
 76
     2
 52
45.0
 41
0.1
 77
     0
 78
     1
 53
45.0
 43
0.0
 44
0.0
 45
-0.282842712474619
 46
0.0
 79
     0
 98
        1
 10
0.0
 20
0.0
  0
HATCH
  5
D0
330
48
100
AcDbEntity
  8
1
  6
Continuous
 62
     2
100
AcDbHatch
 10
0.0
 20
0.0
 30
0.0
210
0.0
220
0.0
230
1.0
  2
CUSTOM10
 70
     0
 71
     1
 91
        1
 92
        1
 93
        1
 72
     4
 94
        3
 73
     0
 74
     0
 95
       47
 96
       43
 40
0.0
 40
0.0
 40
0.0
 40
0.0
 40
0.2207912809957272
 40
0.4459404186303132
 40
0.490238719045907
 40
0.5327473892722038
 40
0.574226045122507
 40
0.6155432630559794
 40
0.6568164066315281
 40
0.6982511618780475
 40
0.7407663929316435
 40
0.7851366743175344
 40
1.010288833836334
 40
1.231080507002193
 40
1.451765243652413
 40
1.676638205891697
 40
1.720461045359666
 40
1.830018144043532
 40
1.972442372353163
 40
2.114866600677532
 40
2.224423699395157
 40
2.268246538883398
 40
2.493628801207238
 40
2.715602830286639
 40
2.934211330706387
 40
3.149502369855385
 40
3.231387784851031
 40
3.31823187385418
 40
3.405143198198139
 40
3.486970301720491
 40
3.702258172493936
 40
3.920866283534162
 40
4.142839325931954
 40
4.368221903865424
 40
4.412044743359904
 40
4.52160184209592
 40
4.6640260704524
 40
4.806450298809108
 40
4.9160073975468
 40
4.959830237043124
 40
5.184703515847153
 40
5.405387250767522
 40
5.405387250767522
 40
5.405387250767522
 40
5.405387250767522
 10
182.6507427258646
 20
15.73406440953871
 10
182.6568139420004
 20
15.79758482501209
 10
182.6690762107244
 20
15.92587938689626
 10
182.5604706879414
 20
16.20166220174077
 10
182.6761985896604
 20
16.17188133432053
 10
182.7171842509017
 20
16.16765556262819
 10
182.7591205797518
 20
16.16310446389607
 10
182.8004196625711
 20
16.16201982929484
 10
182.8417032115556
 20
16.16310338195228
 10
182.8836148270647
 20
16.1676611271134
 10
182.9245983549019
 20
16.17187430209729
 10
183.040492284349
 20
16.20177611317533
 10
182.9295652727457
 20
15.92339806609891
 10
182.9574856365268
 20
15.74283140824952
 10
182.9404267346971
 20
15.50961042346471
 10
182.9414637282104
 20
15.34906622543146
 10
182.9414099399405
 20
15.22284817558722
 10
182.9414277372482
 20
15.12428963336241
 10
182.9414188581081
 20
14.99280702442963
 10
182.9414263928034
 20
14.8613284496865
 10
182.9414129405129
 20
14.7627622269409
 10
182.9414531717494
 20
14.63639735624152
 10
182.9406746403818
 20
14.47482068822869
 10
182.9565958319268
 20
14.24361821892914
 10
182.9333468885408
 20
14.05874351972001
 10
183.0360183444367
 20
13.78935602770053
 10
182.8820238362837
 20
13.82660112685818
 10
182.8004129802833
 20
13.82137994680533
 10
182.7188192292582
 20
13.8266062037835
 10
182.5648513666844
 20
13.78937069885387
 10
182.6674183421918
 20
14.0587512986288
 10
182.6442045316089
 20
14.24361585325414
 10
182.6600444655139
 20
14.47482218565638
 10
182.6593296313428
 20
14.63639712308503
 10
182.6593664569907
 20
14.7627623121052
 10
182.6593549000271
 20
14.86132756635982
 10
182.6593575019214
 20
14.99281127417219
 10
182.659364853178
 20
15.124275480312
 10
182.6593442541352
 20
15.22287786275326
 10
182.6594082192028
 20
15.34896149354426
 10
182.658173394759
 20
15.51210091383771
 10
182.6532040396746
 20
15.66054183777549
 10
182.6507427258646
 20
15.73406440953871
 97
        1
330
B3
 75
     1
 76
     2
 52
45.0
 41
0.1
 77
     0
 78
     1
 53
45.0
 43
0.0
 44
0.0
 45
-0.282842712474619
 46
0.0
 79
     0
 98
        1
 10
0.0
 20
0.0
  0
HATCH
  5
D1
330
48
100
AcDbEntity
  8
1
  6
Continuous
 62
     2
100
AcDbHatch
 10
0.0
 20
0.0
 30
0.0
210
0.0
220
0.0
230
1.0
  2
CUSTOM11
 70
     0
 71
     1
 91
        1
 92
        1
 93
        1
 72
     4
 94
        3
 73
     0
 74
     0
 95
      110
 96
      106
 40
0.0
 40
0.0
 40
0.0
 40
0.0
 40
0.2203406257277661
 40
0.4407808782838055
 40
0.5952494494614466
 40
0.7488431659393042
 40
0.902358183130874
 40
1.056801968670401
 40
1.210736449099873
 40
1.363041386539779
 40
1.515315729683094
 40
1.669377239147988
 40
1.721611652756459
 40
1.773199502942844
 40
1.8249337932099
 40
1.877110426487872
 40
1.982682281206608
 40
2.078781667087445
 40
2.17280964082211
 40
2.271937807378735
 40
2.378349933379213
 40
2.494131557736288
 40
2.626681683943478
 40
2.783145050795877
 40
2.890701232940747
 40
2.993130312454648
 40
3.099869730691621
 40
3.22023781669111
 40
3.352695482737405
 40
3.481732806389651
 40
3.593499473690183
 40
3.674323013331706
 40
3.817951711952684
 40
3.946167120793767
 40
4.061405053453424
 40
4.166480796003093
 40
4.262478775059159
 40
4.350736673551086
 40
4.433071991253915
 40
4.511216293814574
 40
4.564262454117899
 40
4.618474415571527
 40
4.670128488754117
 40
4.722296879126331
 40
4.819540945314257
 40
4.931194984128057
 40
5.049996040257727
 40
5.168643755415358
 40
5.283970811762569
 40
5.392260784910395
 40
5.486512254876413
 40
5.559178233949869
 40
5.591425852853533
 40
5.626215969637917
 40
5.667155838674455
 40
5.717449290214253
 40
5.738402360944868
 40
5.784499116553837
 40
5.83059587216481
 40
5.851548942897669
 40
5.873019280661783
 40
5.924217778408325
 40
5.985325662817704
 40
6.036524160567721
 40
6.057994498334249
 40
6.236847789607506
 40
6.381409928945684
 40
6.493190424178704
 40
6.574067534230513
 40
6.691018086205579
 40
6.814881554220525
 40
6.944307823240393
 40
7.07126671606613
 40
7.19348860446189
 40
7.309042773128174
 40
7.41400720317077
 40
7.505140441886556
 40
7.531150360599719
 40
7.559221645322297
 40
7.587202218920963
 40
7.612569159499167
 40
7.662550809481046
 40
7.702878875764182
 40
7.857328205230997
 40
8.010799568088613
 40
8.165256399657592
 40
8.322232698714016
 40
8.479564855016646
 40
8.635216230290906
 40
8.790882550925767
 40
8.948305154947304
 40
9.168271839032995
 40
9.387358980987262
 40
9.608047961033506
 40
9.832914234792707
 40
9.858338694963043
 40
9.925366817230051
 40
10.02013071422763
 40
10.12876249859002
 40
10.23739428295252
 40
10.33215817995194
 40
10.39918630222397
 40
10.42461076239787
 40
10.64992019336947
 40
10.87188524531192
 40
10.87188524531192
 40
10.87188524531192
 40
10.87188524531192
 10
179.9057788376618
 20
15.7392326039819
 10
179.9092864933542
 20
15.80616462073804
 10
179.9163033987663
 20
15.94005891915858
 10
179.8198027599073
 20
16.22548554971468
 10
180.0510134726109
 20
16.16284386190283
 10
180.1919290057157
 20
16.17001554055989
 10
180.3490417757588
 20
16.16235883078244
 10
180.5025913427288
 20
16.1625275228304
 10
180.6545104935082
 20
16.16182040535433
 10
180.8142214813231
 20
16.17210158351637
 10
180.9408972601119
 20
16.1549651108075
 10
181.1370821122079
 20
16.22727260107146
 10
181.1034395279079
 20
16.12640699080116
 10
181.1052011317184
 20
16.0761925394767
 10
181.1027342073459
 20
16.02712335586466
 10
181.134707696601
 20
15.94063490846997
 10
181.0010399903256
 20
15.98997438608338
 10
180.9172208688056
 20
15.98430634314167
 10
180.8173861139325
 20
15.99465516706298
 10
180.7186576720146
 20
16.00086450411087
 10
180.6121532771111
 20
16.00697763816776
 10
180.491051169806
 20
16.01588883484586
 10
180.3703381502454
 20
16.00521605912381
 10
180.1812553843438
 20
16.06468503080366
 10
180.2129028505312
 20
15.90558320077539
 10
180.1995563316833
 20
15.80839128339903
 10
180.1974958426451
 20
15.69634065110102
 10
180.195818804467
 20
15.5769968562935
 10
180.1973336794233
 20
15.4503259215511
 10
180.1956582478671
 20
15.32301588016117
 10
180.2058844271658
 20
15.22451566404463
 10
180.1779006596582
 20
15.08388702625628
 10
180.3508029999305
 20
15.13989551134095
 10
180.4645020202773
 20
15.12719951478497
 10
180.584015167224
 20
15.13448377051255
 10
180.6888491425073
 20
15.13878017056755
 10
180.7843084898612
 20
15.14330568258977
 10
180.8763823507033
 20
15.15149201146198
 10
180.9476551782439
 20
15.14643850638112
 10
181.0544931705687
 20
15.18536425031674
 10
181.0226603598036
 20
15.10517122005879
 10
181.026616450393
 20
15.05562936846033
 10
181.0234502392013
 20
15.00557478039817
 10
181.0550791490586
 20
14.9212884761202
 10
180.9210133677692
 20
14.97425365495155
 10
180.8292322793201
 20
14.96540080890442
 10
180.7079729189603
 20
14.97570049965154
 10
180.5914113119771
 20
14.97748911767502
 10
180.4783375745879
 20
14.97787017109694
 10
180.3679246308471
 20
14.98415449472178
 10
180.289812406784
 20
14.97189133255363
 10
180.1913625833644
 20
15.00453887616127
 10
180.2012355173561
 20
14.94769748054205
 10
180.1973923244404
 20
14.91392130557982
 10
180.1966789884268
 20
14.87119604709411
 10
180.1963369642976
 20
14.83401607262153
 10
180.1963834255345
 20
14.7948723737077
 10
180.1963649429927
 20
14.75716849497686
 10
180.1963703431806
 20
14.71944955232402
 10
180.1963697214201
 20
14.6899432474515
 10
180.1963698151545
 20
14.65873577699301
 10
180.1963704287921
 20
14.61414424908085
 10
180.1963671499336
 20
14.5596395650885
 10
180.1963759623481
 20
14.51505540201448
 10
180.1963359653417
 20
14.43117808585739
 10
180.1976024270255
 20
14.31737520677678
 10
180.1950274117843
 20
14.16830395933709
 10
180.206500938172
 20
14.06597203813905
 10
180.1823506222264
 20
13.93338903885835
 10
180.3332993946477
 20
13.97895732272021
 10
180.4428436671556
 20
13.96427012162349
 10
180.5733970473921
 20
13.96920435125063
 10
180.6990312209514
 20
13.97257705323359
 10
180.8188730625602
 20
13.97711497498773
 10
180.9391362611427
 20
13.99048536182005
 10
181.0222761663515
 20
13.98068712782595
 10
181.1456080421076
 20
14.0412621462332
 10
181.1244269203957
 20
13.98532460134021
 10
181.1235950270118
 20
13.95939249372345
 10
181.121896370756
 20
13.93197256190939
 10
181.121797488883
 20
13.89738195206385
 10
181.1203659301331
 20
13.86050408220767
 10
181.153280419219
 20
13.76846841021805
 10
180.9551306988108
 20
13.84132015974831
 10
180.8300548294891
 20
13.81825726508604
 10
180.6673071295157
 20
13.82454021985785
 10
180.5129366450002
 20
13.82260943909925
 10
180.3566670436944
 20
13.82393762599267
 10
180.1970544465282
 20
13.8205987248786
 10
180.0540326342237
 20
13.8326579572824
 10
179.8197144881629
 20
13.76952001976918
 10
179.9173810751198
 20
14.05620527466317
 10
179.9006868780058
 20
14.24988308142659
 10
179.9146296709686
 20
14.47848242880294
 10
179.9142987846632
 20
14.63384593955048
 10
179.9143078119264
 20
14.73966336444125
 10
179.9143055876316
 20
14.80205784124214
 10
179.9143065551889
 20
14.89220425248325
 10
179.9143065473262
 20
14.99621167157437
 10
179.9143053861104
 20
15.10022131375295
 10
179.9143090971503
 20
15.19036243688766
 10
179.9143011051052
 20
15.25276803097214
 10
179.9143334275018
 20
15.35868835961118
 10
179.913144078832
 20
15.5162671654474
 10
179.9082216489256
 20
15.66528219822065
 10
179.9057788376618
 20
15.7392326039819
 97
        1
330
B4
 75
     1
 76
     2
 52
45.0
 41
0.1
 77
     0
 78
     1
 53
45.0
 43
0.0
 44
0.0
 45
-0.282842712474619
 46
0.0
 79
     0
 98
        1
 10
0.0
 20
0.0
  0
HATCH
  5
D2
330
48
100
AcDbEntity
  8
1
  6
Continuous
 62
     2
100
AcDbHatch
 10
0.0
 20
0.0
 30
0.0
210
0.0
220
0.0
230
1.0
  2
CUSTOM12
 70
     0
 71
     1
 91
        1
 92
        1
 93
        1
 72
     4
 94
        3
 73
     0
 74
     0
 95
       95
 96
       91
 40
0.0
 40
0.0
 40
0.0
 40
0.0
 40
0.6550406656911754
 40
1.308087289032016
 40
1.420803739835879
 40
1.566130759770884
 40
1.757067341888544
 40
2.006513545026543
 40
2.08732826312164
 40
2.185328872295714
 40
2.294612454748457
 40
2.40893638053489
 40
2.526802767798643
 40
2.646360524615681
 40
2.762535723971668
 40
2.870057342870243
 40
2.96688344843173
 40
3.050803243518363
 40
3.115818222436688
 40
3.156030057150331
 40
3.213914225080233
 40
3.276689026450633
 40
3.34296032098141
 40
3.40423066715066
 40
3.453822809493478
 40
3.532499827188526
 40
3.634775188507272
 40
3.754909333008261
 40
3.889736761660762
 40
4.03576960217533
 40
4.187256681197715
 40
4.338733685676062
 40
4.488478734676218
 40
4.634708317831685
 40
4.771493189921379
 40
4.892686571561309
 40
5.199775528944552
 40
5.460353566929735
 40
5.667603142345621
 40
5.814722905404593
 40
5.828990806219919
 40
5.855488336304588
 40
5.86975623711892
 40
6.18979650776292
 40
6.531890469873114
 40
6.883053637017087
 40
7.230512024911591
 40
7.566966656764704
 40
7.885203559707525
 40
8.172887439719348
 40
8.418011594062861
 40
8.443926721190783
 40
8.51076047061327
 40
8.60214539379578
 40
8.701714041647222
 40
8.793098965075451
 40
8.859932715058024
 40
8.885847842603674
 40
9.242301256612885
 40
9.589275455016843
 40
9.921808543164243
 40
10.23479624298476
 40
10.299681508892
 40
10.35323493887786
 40
10.40154625355168
 40
10.46482922477843
 40
10.55973900668424
 40
10.69239545985637
 40
10.84920353475691
 40
11.01626328594799
 40
11.18672024367463
 40
11.3537258257723
 40
11.50257442292446
 40
11.61866495023309
 40
11.71329869152894
 40
11.82511050573926
 40
11.94464880845734
 40
12.06929242642526
 40
12.19707290435195
 40
12.32562632860547
 40
12.45034565331298
 40
12.56646595170347
 40
12.67099007414653
 40
12.76077625936802
 40
12.82703233506713
 40
12.8742913278601
 40
12.8983199032335
 40
12.92234847860038
 40
13.53984767410337
 40
14.18294284359379
 40
14.18294284359379
 40
14.18294284359379
 40
14.18294284359379
 10
177.3067935648022
 20
14.70898038201723
 10
177.1752019758552
 20
14.82265058603231
 10
176.912419380273
 20
15.04964496316158
 10
176.3997393441019
 20
15.89214462956287
 10
176.4106654595363
 20
15.53423377577019
 10
176.4041226527992
 20
15.39267392272131
 10
176.4028026631773
 20
15.1942130529928
 10
176.4018117602539
 20
15.02150296045982
 10
176.4024101751975
 20
14.87865373257578
 10
176.4038994301881
 20
14.78265005413356
 10
176.4055683588473
 20
14.6754550326314
 10
176.4071934954619
 20
14.56164211517581
 10
176.4092429501686
 20
14.44441572604588
 10
176.4123165501926
 20
14.32656411232969
 10
176.4156339697044
 20
14.2122808732062
 10
176.4193605340281
 20
14.10521401867276
 10
176.4217338161424
 20
14.01007408766921
 10
176.4278718888359
 20
13.92558557205695
 10
176.4239784495946
 20
13.86923087298141
 10
176.4455230443079
 20
13.79825022472354
 10
176.3680940058618
 20
13.82902677604484
 10
176.3116353240192
 20
13.82011242517612
 10
176.2540495896808
 20
13.82896218398275
 10
176.1690163478473
 20
13.79738225225943
 10
176.2009714146384
 20
13.88095155992189
 10
176.1990705282539
 20
13.94882608968308
 10
176.2107960047301
 20
14.05233256764418
 10
176.2164241053
 20
14.17002125616693
 10
176.2237902178942
 20
14.30388609164423
 10
176.232075970161
 20
14.44764152872632
 10
176.2398851897428
 20
14.59714022843444
 10
176.2457571222657
 20
14.74792549402078
 10
176.2503667817969
 20
14.89699943878437
 10
176.2542632117544
 20
15.04122913163021
 10
176.2570715126564
 20
15.17583905213017
 10
176.2576698755023
 20
15.36469614347354
 10
176.2616023867151
 20
15.58975494313153
 10
176.2442175378498
 20
15.86367091125706
 10
176.2850417342584
 20
16.02787112098597
 10
176.1995153256001
 20
16.22749661465095
 10
176.2660558907689
 20
16.22385458403978
 10
176.2838724273231
 20
16.22413447160853
 10
176.4056801797502
 20
16.22632927398613
 10
176.5080770335464
 20
15.94675118721513
 10
176.7580021509356
 20
15.74563008536002
 10
176.9870035331111
 20
15.47792614987913
 10
177.2245151213109
 20
15.22646413862378
 10
177.4486090740774
 20
14.98969974061358
 10
177.675071628301
 20
14.73218692583078
 10
177.8325687886515
 20
14.61649335056924
 10
178.0472129612676
 20
14.27997152538796
 10
178.0422645974619
 20
14.40464754091603
 10
178.0433931602548
 20
14.46327691935737
 10
178.0428877841516
 20
14.55043662371977
 10
178.0430475158114
 20
14.64416143182872
 10
178.043005489132
 20
14.73018971297035
 10
178.0430202040374
 20
14.79153891945496
 10
178.0429706255983
 20
14.94135231520991
 10
178.0458811522812
 20
15.17989612510105
 10
178.0259521041162
 20
15.54486509868699
 10
178.0750433936248
 20
15.80799631993416
 10
177.9177951509179
 20
16.2192890494775
 10
178.0762112872422
 20
16.16398282551749
 10
178.131168047863
 20
16.16199686500175
 10
178.1827887766742
 20
16.16264778248253
 10
178.2713198965366
 20
16.20369527738245
 10
178.2204898303169
 20
16.05696326622987
 10
178.2313389930285
 20
15.95019971954432
 10
178.2166036994847
 20
15.79085705414112
 10
178.2099976446206
 20
15.62853061652872
 10
178.2014961399916
 20
15.45992521892394
 10
178.19432272022
 20
15.2981481470354
 10
178.188906321539
 20
15.15422331457931
 10
178.1871713967649
 20
15.03437493466925
 10
178.1875440672319
 20
14.92686101590514
 10
178.1873656126264
 20
14.81820024645586
 10
178.187701086314
 20
14.6995357016553
 10
178.1890040622184
 20
14.5755516351274
 10
178.1908887351575
 20
14.44858294171104
 10
178.1925004454852
 20
14.32153861551031
 10
178.1941403137431
 20
14.19854884492176
 10
178.1962570745751
 20
14.08300931383758
 10
178.1963848422365
 20
13.98090903955836
 10
178.2006514396555
 20
13.89009848838155
 10
178.190844008529
 20
13.83213621208786
 10
178.211847477169
 20
13.76517130132029
 10
178.1725639739898
 20
13.77291153966689
 10
177.9595307117746
 20
13.75755254145191
 10
177.7636297943187
 20
14.3140305809447
 10
177.4611197631544
 20
14.57556035348509
 10
177.3067935648022
 20
14.70898038201723
 97
        1
330
B5
 75
     1
 76
     2
 52
45.0
 41
0.1
 77
     0
 78
     1
 53
45.0
 43
0.0
 44
0.0
 45
-0.282842712474619
 46
0.0
 79
     0
 98
        1
 10
0.0
 20
0.0
  0
HATCH
  5
D3
330
48
100
AcDbEntity
  8
1
  6
Continuous
 62
     2
100
AcDbHatch
 10
0.0
 20
0.0
 30
0.0
210
0.0
220
0.0
230
1.0
  2
CUSTOM13
 70
     0
 71
     1
 91
        2
 92
        1
 93
        1
 72
     4
 94
        3
 73
     0
 74
     0
 95
       57
 96
       53
 40
0.0
 40
0.0
 40
0.0
 40
0.0
 40
0.0471632082809523
 40
0.0914861054631871
 40
0.1357762519702106
 40
0.1826527001610685
 40
0.2295203288572594
 40
0.2737751972221616
 40
0.3181310461543071
 40
0.365260719839852
 40
0.4571007286314684
 40
0.5671851029165473
 40
0.689462328386856
 40
0.8181758272546018
 40
0.9510087229274067
 40
1.085852229674052
 40
1.218126164475301
 40
1.34354513114238
 40
1.454537202956768
 40
1.567187607530806
 40
1.680710966642424
 40
1.794226869736874
 40
1.900009184247617
 40
2.004085860447953
 40
2.108162674451813
 40
2.2140001501553
 40
2.496038577352165
 40
2.762350745479268
 40
2.997275353279405
 40
3.185110082137723
 40
3.246407890063951
 40
3.312607550212681
 40
3.378877742711612
 40
3.440140399651439
 40
4.100501696006437
 40
4.754913085563467
 40
5.411331693423901
 40
6.077890432568703
 40
6.110575292670982
 40
6.143260152775762
 40
6.367989363395129
 40
6.610525374951541
 40
6.863389136467298
 40
7.119380025547599
 40
7.376036605091065
 40
7.631164770966294
 40
7.876722425456416
 40
8.104953735855918
 40
8.312916685924302
 40
8.497730294941286
 40
8.65101898431384
 40
8.764738853624578
 40
8.764738853624578
 40
8.764738853624578
 40
8.764738853624578
 10
174.7922649500514
 20
13.81626739612926
 10
174.7766616726932
 20
13.81826231079077
 10
174.7463947960303
 20
13.82213201360298
 10
174.7010994202253
 20
13.82341984967267
 10
174.655955312935
 20
13.8230868355405
 10
174.60990171234
 20
13.82314658674223
 10
174.5640496172097
 20
13.8232581365
 10
174.5183711648165
 20
13.82277833456589
 10
174.4750811541609
 20
13.8246110961872
 10
174.4039947951514
 20
13.80049556814655
 10
174.4057477261441
 20
13.9218469397725
 10
174.358619637057
 20
14.00726239751231
 10
174.3191478251761
 20
14.12486929345134
 10
174.2706635532646
 20
14.2423275254044
 10
174.2201017402523
 20
14.36405935761508
 10
174.1718634610478
 20
14.49075967862465
 10
174.1135232947596
 20
14.59933687784952
 10
174.0980892667262
 20
14.75620657134407
 10
173.9566586330637
 20
14.72373446548322
 10
173.8508397414905
 20
14.73512888682178
 10
173.7358569725222
 20
14.73392591514614
 10
173.6253142252141
 20
14.73506945347407
 10
173.5176583522783
 20
14.73418350037526
 10
173.4121322529243
 20
14.73416602390517
 10
173.3109192682013
 20
14.72714032472415
 10
173.1266804827754
 20
14.75135859859864
 10
173.1157393685411
 20
14.44741691121889
 10
173.0087691634751
 20
14.22353177253394
 10
172.9098148604348
 20
14.03895314292498
 10
172.9225090524008
 20
13.79530204804204
 10
172.8050091716398
 20
13.82508046753197
 10
172.7422055868311
 20
13.82258089509601
 10
172.6785872093401
 20
13.82344075102805
 10
172.3946014194076
 20
13.7809803994194
 10
173.0251638499382
 20
14.50081952444788
 10
173.108764528907
 20
15.0127653943573
 10
173.4929252789341
 20
15.53353743550042
 10
173.4777208288563
 20
16.23519626253213
 10
173.7239265722698
 20
16.22345633081256
 10
173.8256346157562
 20
16.23225004452772
 10
173.8249752035818
 20
15.98059650730344
 10
173.9428317155829
 20
15.79818020733959
 10
174.0315515260486
 20
15.55563740662864
 10
174.132229248526
 20
15.32340030530129
 10
174.2311142712244
 20
15.0867464456691
 10
174.329967699067
 20
14.85461739170093
 10
174.4256166390928
 20
14.63122222788791
 10
174.515990457327
 20
14.42272549049309
 10
174.5989944568191
 20
14.23308448529323
 10
174.6726088582799
 20
14.06663106068098
 10
174.7342815895547
 20
13.92917699626097
 10
174.7749458885604
 20
13.84999239430032
 10
174.7922649500514
 20
13.81626739612926
 97
        1
330
B7
 92
       16
 93
        1
 72
     4
 94
        3
 73
     0
 74
     0
 95
       25
 96
       21
 40
0.0
 40
0.0
 40
0.0
 40
0.0
 40
0.0911479969064537
 40
0.1858117896204953
 40
0.2804128399735061
 40
0.3715889190714796
 40
0.4679080494218142
 40
0.5642683809229232
 40
0.6605683222644995
 40
0.756965301581026
 40
0.8561348172522744
 40
1.092615965104304
 40
1.374867658141898
 40
1.61134881201159
 40
1.710518328425249
 40
1.809403163726557
 40
2.045205463294081
 40
2.32664691762213
 40
2.562449217190604
 40
2.661334043833912
 40
2.661334043833912
 40
2.661334043833912
 40
2.661334043833912
 10
173.26837005672
 20
14.88614538197292
 10
173.2987525917923
 20
14.88598079714554
 10
173.3606895889112
 20
14.88564528689922
 10
173.4541356960331
 20
14.88269055451999
 10
173.5475095236358
 20
14.87977752877149
 10
173.6417760753477
 20
14.87894201643416
 10
173.7354964790968
 20
14.87996644658046
 10
173.8352040303205
 20
14.8791697747097
 10
173.9188949546313
 20
14.88921410235219
 10
174.0637996315046
 20
14.86234617674165
 10
173.9396132444801
 20
15.03665530280049
 10
173.8965867286283
 20
15.19651711006092
 10
173.7808922142209
 20
15.45518458550212
 10
173.7017565431258
 20
15.5923105286186
 10
173.6431576621817
 20
15.80937033134077
 10
173.5864803939439
 20
15.59266134213426
 10
173.5052809900477
 20
15.45327012438239
 10
173.4063701281489
 20
15.20406969370192
 10
173.3253625094259
 20
15.01925830226075
 10
173.2813683325839
 20
14.91650446856117
 10
173.26837005672
 20
14.88614538197292
 97
        1
330
B6
 75
     1
 76
     2
 52
45.0
 41
0.1
 77
     0
 78
     1
 53
45.0
 43
0.0
 44
0.0
 45
-0.282842712474619
 46
0.0
 79
     0
 98
        1
 10
0.0
 20
0.0
  0
HATCH
  5
D4
330
48
100
AcDbEntity
  8
1
  6
Continuous
 62
     2
100
AcDbHatch
 10
0.0
 20
0.0
 30
0.0
210
0.0
220
0.0
230
1.0
  2
CUSTOM14
 70
     0
 71
     1
 91
        1
 92
        1
 93
        1
 72
     4
 94
        3
 73
     0
 74
     0
 95
       99
 96
       95
 40
0.0
 40
0.0
 40
0.0
 40
0.0
 40
0.0796417172272992
 40
0.1621768542356514
 40
0.2486489160958168
 40
0.3404969668525126
 40
0.4381912511165432
 40
0.5434463660245448
 40
0.6518115192847478
 40
0.7530190937887317
 40
0.8492196919725364
 40
0.9419290312998598
 40
1.034249663570065
 40
1.129078600620229
 40
1.226697027573269
 40
1.327220425421734
 40
1.470572134938055
 40
1.59548986337128
 40
1.7199341253484
 40
1.850576620127487
 40
1.989059629987326
 40
2.134139054226891
 40
2.280698007207207
 40
2.424529739039479
 40
2.565929576985843
 40
2.70823926077354
 40
2.861717887443659
 40
3.045168540347362
 40
3.183798301138602
 40
3.314813961455467
 40
3.442083470447294
 40
3.569912708372901
 40
3.702177512509345
 40
3.842307559659533
 40
3.992872223245911
 40
4.156750662218356
 40
4.310981861107577
 40
4.445859909322595
 40
4.572393936131587
 40
4.701656719781987
 40
4.768279086008477
 40
4.835960697898427
 40
4.912788918729361
 40
5.006285208481555
 40
5.026909478751688
 40
5.047533749021309
 40
5.101808031471355
 40
5.162325165538676
 40
5.226919745996001
 40
5.294231806596801
 40
5.364544852554967
 40
5.438319055468015
 40
5.517877651324377
 40
5.607647714861632
 40
5.700449642544479
 40
5.788251142364319
 40
5.872714706039876
 40
5.955167292575372
 40
6.037192395190502
 40
6.120669181469215
 40
6.206848616686456
 40
6.296680855416867
 40
6.442558392872696
 40
6.568190371608353
 40
6.692904567360507
 40
6.824220446557263
 40
6.963121850329524
 40
7.107843738851306
 40
7.253431663907397
 40
7.395187468036821
 40
7.533140753237872
 40
7.670550457175359
 40
7.816236511769365
 40
7.987691657359322
 40
8.142277421969364
 40
8.2936626154151
 40
8.442962460879379
 40
8.591598316185413
 40
8.74367899236186
 40
8.903725323699268
 40
9.076307008890616
 40
9.26557860468067
 40
9.459203795360787
 40
9.6176198102736
 40
9.753609671362009
 40
9.87487330000416
 40
9.95452018497785
 40
10.02416413719254
 40
10.09769764405452
 40
10.1890995592498
 40
10.20974586420142
 40
10.23039218263385
 40
10.3005710188127
 40
10.37632012987546
 40
10.37632012987546
 40
10.37632012987546
 40
10.37632012987546
 10
170.1465954835851
 20
14.13795663215993
 10
170.1632217851219
 20
14.11720608845313
 10
170.1970784206578
 20
14.07495111711903
 10
170.2599822541036
 20
14.02029811392071
 10
170.3332500940394
 20
13.9729902512105
 10
170.4175969238636
 20
13.93527231437934
 10
170.5132240615461
 20
13.91040619731951
 10
170.6171853775347
 20
13.90309559345937
 10
170.7224020220406
 20
13.91142322794053
 10
170.8206626371334
 20
13.94149179651525
 10
170.9058986427549
 20
13.98848822971878
 10
170.9779220206103
 20
14.04952991250854
 10
171.0350917709097
 20
14.12412969578583
 10
171.076786874744
 20
14.21002464660172
 10
171.1026952846292
 20
14.30485850432211
 10
171.1118037332654
 20
14.41854979038366
 10
171.0986864796487
 20
14.54332587770779
 10
171.0325330334414
 20
14.66014719171887
 10
170.936937091957
 20
14.74512539577378
 10
170.8249681022369
 20
14.81416684459155
 10
170.699365958327
 20
14.8720414204589
 10
170.5656691620857
 20
14.92373723284341
 10
170.4313122818832
 20
14.9789909239718
 10
170.3051983986877
 20
15.04939770641649
 10
170.1926579987536
 20
15.13785540731249
 10
170.0969963064458
 20
15.24981067868472
 10
170.0334157151826
 20
15.39949910101383
 10
170.0200706505016
 20
15.55932794385141
 10
170.0320510987449
 20
15.71048405306845
 10
170.0712298928841
 20
15.83809244591537
 10
170.1354987750911
 20
15.95080874030841
 10
170.223820499974
 20
16.04648609268691
 10
170.3338091207628
 20
16.12354214985751
 10
170.4632284401265
 20
16.18151396936275
 10
170.6111838967794
 20
16.21739177588823
 10
170.7682069455488
 20
16.22746719050562
 10
170.9174940466431
 20
16.2186363776259
 10
171.0596253614171
 20
16.19074899340352
 10
171.1595922609626
 20
16.13413314701138
 10
171.3125074736185
 20
16.08674602105506
 10
171.2455131717169
 20
16.00197553001184
 10
171.229647912027
 20
15.93438901873483
 10
171.1978750531296
 20
15.86926092793189
 10
171.2150202209573
 20
15.7672345325695
 10
171.1666427208232
 20
15.77493211681901
 10
171.1315789440766
 20
15.76806771724804
 10
171.1296697985719
 20
15.83263831158199
 10
171.0985692931988
 20
15.87825639621392
 10
171.0664551628455
 20
15.9356103662845
 10
171.0208038475169
 20
15.98540462692564
 10
170.9658508218388
 20
16.02994813718993
 10
170.9010841173008
 20
16.06763988836551
 10
170.8232377310598
 20
16.09283375791351
 10
170.7355160553353
 20
16.09931230998111
 10
170.6452903277807
 20
16.09235709285604
 10
170.5594594694066
 20
16.06909190460926
 10
170.4828343638597
 20
16.03131644107543
 10
170.4165265636202
 20
15.98051641089569
 10
170.3622560536965
 20
15.91731143407212
 10
170.3224925345459
 20
15.84276455710365
 10
170.2976775510589
 20
15.75917313997763
 10
170.2892124262871
 20
15.65192948382284
 10
170.3019697987105
 20
15.52965457267562
 10
170.3681548409272
 20
15.41149724291203
 10
170.4640977399833
 20
15.32606325709532
 10
170.5757914963183
 20
15.25583362306718
 10
170.7010863668703
 20
15.19659162305303
 10
170.8349823941449
 20
15.14616708086134
 10
170.968993033315
 20
15.0932251698438
 10
171.0950885316916
 20
15.02750170625174
 10
171.2076216638418
 20
14.94480352537321
 10
171.3031370284233
 20
14.83996006310074
 10
171.3672706486963
 20
14.69937117251569
 10
171.3811103725278
 20
14.54065409451591
 10
171.3673954712229
 20
14.38153155217876
 10
171.3244739153985
 20
14.23483828819207
 10
171.2545906329066
 20
14.10119796587143
 10
171.157459221383
 20
13.9853238769929
 10
171.0347806023658
 20
13.89089981770086
 10
170.8874408413168
 20
13.82179270651982
 10
170.7177132497125
 20
13.77953210858852
 10
170.5317404979598
 20
13.76781736230409
 10
170.3528955926183
 20
13.77809486683437
 10
170.1881733753744
 20
13.81966573769155
 10
170.0834410841057
 20
13.88797642883938
 10
169.9350960790366
 20
13.93675219032106
 10
169.9980378194729
 20
14.02976591290842
 10
170.0072274430061
 20
14.1029653624828
 10
170.0303711301232
 20
14.16936294501346
 10
170.0034588335318
 20
14.26974809527581
 10
170.052133895634
 20
14.26234033517378
 10
170.0916530580698
 20
14.26894063620894
 10
170.0996204944703
 20
14.19078703218934
 10
170.1305436967923
 20
14.15600927375856
 10
170.1465954835851
 20
14.13795663215993
 97
        1
330
B8
 75
     1
 76
     2
 52
45.0
 41
0.1
 77
     0
 78
     1
 53
45.0
 43
0.0
 44
0.0
 45
-0.282842712474619
 46
0.0
 79
     0
 98
        1
 10
0.0
 20
0.0
  0
ENDBLK
  5
4A
330
48
100
AcDbEntity
  8
0
100
AcDbBlockEnd
  0
BLOCK
  5
4D
330
4B
100
AcDbEntity
  8
0
100
AcDbBlockBegin
  2
開示A4枠
 70
     0
 10
0.0
 20
0.0
 30
0.0
  3
開示A4枠
  1

  0
INSERT
  5
4C
330
4B
100
AcDbEntity
  8
1
100
AcDbBlockReference
  2
開示A4
 10
0.0
 20
0.0
 30
0.0
  0
ENDBLK
  5
4E
330
4B
100
AcDbEntity
  8
0
100
AcDbBlockEnd
  0
BLOCK
  5
50
330
4F
100
AcDbEntity
  8
0
100
AcDbBlockBegin
  2
84-26B
 70
     0
 10
421.7075300342615
 20
63.34602722909374
 30
0.0
  3
84-26B
  1

  0
LINE
  5
D5
330
4F
100
AcDbEntity
  8
1
  6
Continuous
 62
     7
100
AcDbLine
 10
159.7291342200507
 20
197.1305270820411
 30
0.0
 11
162.7291342200507
 21
196.6305270820411
 31
0.0
  0
LINE
  5
D6
330
4F
100
AcDbEntity
  8
1
  6
Continuous
 62
     7
100
AcDbLine
 10
119.8755631486935
 20
197.1305270820411
 30
0.0
 11
159.7291342200507
 21
197.1305270820411
 31
0.0
  0
LINE
  5
D7
330
4F
100
AcDbEntity
  8
1
  6
Continuous
 62
     7
100
AcDbLine
 10
159.7291342200507
 20
172.1305270820411
 30
0.0
 11
162.7291342200507
 21
172.6305270820411
 31
0.0
  0
LINE
  5
D8
330
4F
100
AcDbEntity
  8
1
  6
Continuous
 62
     7
100
AcDbLine
 10
119.8755631486935
 20
172.1305270820411
 30
0.0
 11
159.7291342200507
 21
172.1305270820411
 31
0.0
  0
LINE
  5
D9
330
4F
100
AcDbEntity
  8
1
  6
Continuous
 62
     7
100
AcDbLine
 10
162.7291342200507
 20
196.6305270820411
 30
0.0
 11
162.7291342200507
 21
172.6305270820411
 31
0.0
  0
LINE
  5
DA
330
4F
100
AcDbEntity
  8
1
  6
Continuous
 62
     7
100
AcDbLine
 10
159.7291342200507
 20
172.1305270820411
 30
0.0
 11
159.7291342200507
 21
197.1305270820411
 31
0.0
  0
LINE
  5
DB
330
4F
100
AcDbEntity
  8
1
  6
Continuous
 62
     7
100
AcDbLine
 10
159.7291342200507
 20
146.6305270820411
 30
0.0
 11
125.8821027720703
 21
146.6305270820411
 31
0.0
  0
LINE
  5
DC
330
4F
100
AcDbEntity
  8
1
  6
Continuous
 62
     7
100
AcDbLine
 10
117.2291342200507
 20
122.6305270820411
 30
0.0
 11
121.2291342200507
 21
122.6305270820411
 31
0.0
  0
LINE
  5
DD
330
4F
100
AcDbEntity
  8
1
  6
Continuous
 62
     7
100
AcDbLine
 10
162.7291342200507
 20
146.1305270820411
 30
0.0
 11
159.7291342200507
 21
146.6305270820411
 31
0.0
  0
LINE
  5
DE
330
4F
100
AcDbEntity
  8
1
  6
Continuous
 62
     7
100
AcDbLine
 10
162.7291342200507
 20
123.1305270820411
 30
0.0
 11
159.7291342200507
 21
122.6305270820411
 31
0.0
  0
LINE
  5
DF
330
4F
100
AcDbEntity
  8
1
  6
Continuous
 62
     7
100
AcDbLine
 10
122.2291342200507
 20
121.1305270820411
 30
0.0
 11
147.2291342200507
 21
121.1305270820411
 31
0.0
  0
LINE
  5
E0
330
4F
100
AcDbEntity
  8
1
  6
Continuous
 62
     7
100
AcDbLine
 10
147.2291342200507
 20
121.6305270820411
 30
0.0
 11
147.2291342200507
 21
121.1305270820411
 31
0.0
  0
LINE
  5
E1
330
4F
100
AcDbEntity
  8
1
  6
Continuous
 62
     7
100
AcDbLine
 10
159.7291342200507
 20
122.6305270820411
 30
0.0
 11
148.2291342200507
 21
122.6305270820411
 31
0.0
  0
LINE
  5
E2
330
4F
100
AcDbEntity
  8
1
  6
Continuous
 62
     7
100
AcDbLine
 10
122.2291342200507
 20
121.6305270820411
 30
0.0
 11
122.2291342200507
 21
121.1305270820411
 31
0.0
  0
LINE
  5
E3
330
4F
100
AcDbEntity
  8
1
  6
Continuous
 62
     7
100
AcDbLine
 10
113.1931079361948
 20
129.1674522336322
 30
0.0
 11
123.3460764882144
 21
145.2332031839381
 31
0.0
  0
LINE
  5
E4
330
4F
100
AcDbEntity
  8
1
  6
Continuous
 62
     7
100
AcDbLine
 10
112.7291342200507
 20
127.5647761317352
 30
0.0
 11
112.7291342200507
 21
127.1305270820411
 31
0.0
  0
LINE
  5
E5
330
4F
100
AcDbEntity
  8
1
  6
Continuous
 62
     7
100
AcDbLine
 10
162.7291342200507
 20
146.1305270820411
 30
0.0
 11
162.7291342200507
 21
123.1305270820411
 31
0.0
  0
LINE
  5
E6
330
4F
100
AcDbEntity
  8
1
  6
Continuous
 62
     7
100
AcDbLine
 10
76.97913422005071
 20
121.1305270820412
 30
0.0
 11
76.97913422005071
 21
128.9908516556826
 31
0.0
  0
LINE
  5
E7
330
4F
100
AcDbEntity
  8
1
  6
Continuous
 62
     7
100
AcDbLine
 10
52.4791342200507
 20
121.1305270820412
 30
0.0
 11
76.97913422005071
 21
121.1305270820412
 31
0.0
  0
LINE
  5
E8
330
4F
100
AcDbEntity
  8
1
  6
Continuous
 62
     7
100
AcDbLine
 10
52.4791342200507
 20
128.9908516556826
 30
0.0
 11
52.4791342200507
 21
121.1305270820412
 31
0.0
  0
LINE
  5
E9
330
4F
100
AcDbEntity
  8
1
  6
Continuous
 62
     7
100
AcDbLine
 10
76.94630614865822
 20
129.5628682915012
 30
0.0
 11
76.15362965584804
 21
136.4461653444242
 31
0.0
  0
LINE
  5
EA
330
4F
100
AcDbEntity
  8
1
  6
Continuous
 62
     7
100
AcDbLine
 10
53.30463878425341
 20
136.4461653444242
 30
0.0
 11
52.5119622914432
 21
129.5628682915012
 31
0.0
  0
LINE
  5
EB
330
4F
100
AcDbEntity
  8
1
  6
Continuous
 62
     7
100
AcDbLine
 10
159.7291342200507
 20
146.6305270820411
 30
0.0
 11
159.7291342200507
 21
122.6305270820411
 31
0.0
  0
ARC
  5
EC
330
4F
100
AcDbEntity
  8
1
  6
Continuous
 62
     7
100
AcDbCircle
 10
103.4240564924099
 20
184.6305270820411
 30
0.0
 40
20.66160863199539
100
AcDbArc
 50
329.4567321163196
 51
30.54326788368032
  0
ARC
  5
ED
330
4F
100
AcDbEntity
  8
1
  6
Continuous
 62
     7
100
AcDbCircle
 10
137.7291342200507
 20
184.6305270820411
 30
0.0
 40
25.0
100
AcDbArc
 50
180.0
 51
200.0051900881596
  0
ARC
  5
EE
330
4F
100
AcDbEntity
  8
1
  6
Continuous
 62
     7
100
AcDbCircle
 10
117.2291342200507
 20
127.1305270820411
 30
0.0
 40
4.5
100
AcDbArc
 50
180.0
 51
270.0
  0
ARC
  5
EF
330
4F
100
AcDbEntity
  8
1
  6
Continuous
 62
     7
100
AcDbCircle
 10
137.7291342200507
 20
184.6305270820411
 30
0.0
 40
24.99999999999997
100
AcDbArc
 50
159.9948099118404
 51
180.0
  0
ARC
  5
F0
330
4F
100
AcDbEntity
  8
1
  6
Continuous
 62
     7
100
AcDbCircle
 10
64.7291342200507
 20
147.6305270820411
 30
0.0
 40
24.99999999999995
100
AcDbArc
 50
248.7461908146403
 51
291.2538091853597
  0
ARC
  5
F1
330
4F
100
AcDbEntity
  8
1
  6
Continuous
 62
     7
100
AcDbCircle
 10
71.97913422005071
 20
128.9908516556826
 30
0.0
 40
5.000000000000116
100
AcDbArc
 50
291.2538091853592
 51
6.56921108019015
  0
ARC
  5
F2
330
4F
100
AcDbEntity
  8
1
  6
Continuous
 62
     7
100
AcDbCircle
 10
64.7291342200507
 20
135.1305270820411
 30
0.0
 40
11.50000000000003
100
AcDbArc
 50
6.56921108019181
 51
90.0
  0
ARC
  5
F3
330
4F
100
AcDbEntity
  8
1
  6
Continuous
 62
     7
100
AcDbCircle
 10
57.4791342200507
 20
128.9908516556826
 30
0.0
 40
4.999999999999963
100
AcDbArc
 50
173.4307889198099
 51
248.7461908146408
  0
ARC
  5
F4
330
4F
100
AcDbEntity
  8
1
  6
Continuous
 62
     7
100
AcDbCircle
 10
64.7291342200507
 20
135.1305270820411
 30
0.0
 40
11.5
100
AcDbArc
 50
90.0
 51
173.4307889198082
  0
ARC
  5
F5
330
4F
100
AcDbEntity
  8
1
  6
Continuous
 62
     7
100
AcDbCircle
 10
119.8755631486935
 20
178.1305270820411
 30
0.0
 40
5.999999999999902
100
AcDbArc
 50
200.0051900881601
 51
270.0
  0
ARC
  5
F6
330
4F
100
AcDbEntity
  8
1
  6
Continuous
 62
     7
100
AcDbCircle
 10
119.8755631486935
 20
191.1305270820411
 30
0.0
 40
6.0
100
AcDbArc
 50
90.0
 51
159.9948099118399
  0
ARC
  5
F7
330
4F
100
AcDbEntity
  8
1
  6
Continuous
 62
     7
100
AcDbCircle
 10
121.2291342200507
 20
121.6305270820411
 30
0.0
 40
1.0
100
AcDbArc
 50
0.0
 51
90.0
  0
ARC
  5
F8
330
4F
100
AcDbEntity
  8
1
  6
Continuous
 62
     7
100
AcDbCircle
 10
148.2291342200507
 20
121.6305270820411
 30
0.0
 40
1.0
100
AcDbArc
 50
90.0
 51
180.0
  0
ARC
  5
F9
330
4F
100
AcDbEntity
  8
1
  6
Continuous
 62
     7
100
AcDbCircle
 10
115.7291342200507
 20
127.5647761317352
 30
0.0
 40
2.99999999999994
100
AcDbArc
 50
147.7086070282273
 51
180.0
  0
ARC
  5
FA
330
4F
100
AcDbEntity
  8
1
  6
Continuous
 62
     7
100
AcDbCircle
 10
125.8821027720703
 20
143.6305270820411
 30
0.0
 40
3.0
100
AcDbArc
 50
90.0
 51
147.7086070282276
  0
ENDBLK
  5
51
330
4F
100
AcDbEntity
  8
0
100
AcDbBlockEnd
  0
BLOCK
  5
53
330
52
100
AcDbEntity
  8
0
100
AcDbBlockBegin
  2
30-44
 70
     0
 10
364.8498080433126
 20
130.8819956333393
 30
0.0
  3
30-44
  1

  0
LINE
  5
FB
330
52
100
AcDbEntity
  8
1
  6
Continuous
 62
     7
100
AcDbLine
 10
126.7291342200508
 20
108.6305270820411
 30
0.0
 11
134.7291342200507
 21
108.6305270820411
 31
0.0
  0
LINE
  5
FC
330
52
100
AcDbEntity
  8
1
  6
Continuous
 62
     7
100
AcDbLine
 10
122.2291342200508
 20
120.1305270820412
 30
0.0
 11
122.2291342200508
 21
112.1305270820411
 31
0.0
  0
LINE
  5
FD
330
52
100
AcDbEntity
  8
1
  6
Continuous
 62
     7
100
AcDbLine
 10
123.0219116851643
 20
109.3558059541437
 30
0.0
 11
122.2291342200508
 21
112.1305270820411
 31
0.0
  0
LINE
  5
FE
330
52
100
AcDbEntity
  8
1
  6
Continuous
 62
     7
100
AcDbLine
 10
123.9834356328051
 20
108.6305270820411
 30
0.0
 11
126.7291342200508
 21
108.6305270820411
 31
0.0
  0
LINE
  5
FF
330
52
100
AcDbEntity
  8
1
  6
Continuous
 62
     7
100
AcDbLine
 10
147.2291342200507
 20
112.1305270820411
 30
0.0
 11
147.2291342200507
 21
120.1305270820412
 31
0.0
  0
LINE
  5
100
330
52
100
AcDbEntity
  8
1
  6
Continuous
 62
     7
100
AcDbLine
 10
147.2291342200507
 20
112.1305270820411
 30
0.0
 11
146.4363567549372
 21
109.3558059541437
 31
0.0
  0
LINE
  5
101
330
52
100
AcDbEntity
  8
1
  6
Continuous
 62
     7
100
AcDbLine
 10
134.7291342200507
 20
108.6305270820411
 30
0.0
 11
145.4748328072963
 21
108.6305270820411
 31
0.0
  0
LINE
  5
102
330
52
100
AcDbEntity
  8
1
  6
Continuous
 62
     7
100
AcDbLine
 10
123.2291342200508
 20
121.1305270820412
 30
0.0
 11
146.2291342200507
 21
121.1305270820411
 31
0.0
  0
LINE
  5
103
330
52
100
AcDbEntity
  8
1
  6
Continuous
 62
     7
100
AcDbLine
 10
147.2291342200507
 20
112.1305270820411
 30
0.0
 11
122.2291342200508
 21
112.1305270820411
 31
0.0
  0
LINE
  5
104
330
52
100
AcDbEntity
  8
1
  6
Continuous
 62
     7
100
AcDbLine
 10
56.72913422005081
 20
108.6305270820411
 30
0.0
 11
64.7291342200507
 21
108.6305270820411
 31
0.0
  0
LINE
  5
105
330
52
100
AcDbEntity
  8
1
  6
Continuous
 62
     7
100
AcDbLine
 10
52.22913422005081
 20
120.1305270820412
 30
0.0
 11
52.22913422005081
 21
112.1305270820411
 31
0.0
  0
LINE
  5
106
330
52
100
AcDbEntity
  8
1
  6
Continuous
 62
     7
100
AcDbLine
 10
53.02191168516432
 20
109.3558059541437
 30
0.0
 11
52.22913422005081
 21
112.1305270820411
 31
0.0
  0
LINE
  5
107
330
52
100
AcDbEntity
  8
1
  6
Continuous
 62
     7
100
AcDbLine
 10
53.98343563280501
 20
108.6305270820411
 30
0.0
 11
56.72913422005081
 21
108.6305270820411
 31
0.0
  0
LINE
  5
108
330
52
100
AcDbEntity
  8
1
  6
Continuous
 62
     7
100
AcDbLine
 10
77.22913422005071
 20
112.1305270820411
 30
0.0
 11
77.22913422005071
 21
120.1305270820412
 31
0.0
  0
LINE
  5
109
330
52
100
AcDbEntity
  8
1
  6
Continuous
 62
     7
100
AcDbLine
 10
77.22913422005071
 20
112.1305270820411
 30
0.0
 11
76.43635675493721
 21
109.3558059541437
 31
0.0
  0
LINE
  5
10A
330
52
100
AcDbEntity
  8
1
  6
Continuous
 62
     7
100
AcDbLine
 10
64.7291342200507
 20
108.6305270820411
 30
0.0
 11
75.47483280729631
 21
108.6305270820411
 31
0.0
  0
LINE
  5
10B
330
52
100
AcDbEntity
  8
1
  6
Continuous
 62
     7
100
AcDbLine
 10
53.22913422005081
 20
121.1305270820412
 30
0.0
 11
76.22913422005071
 21
121.1305270820411
 31
0.0
  0
LINE
  5
10C
330
52
100
AcDbEntity
  8
1
  6
Continuous
 62
     7
100
AcDbLine
 10
77.22913422005071
 20
112.1305270820411
 30
0.0
 11
52.22913422005081
 21
112.1305270820411
 31
0.0
  0
ARC
  5
10D
330
52
100
AcDbEntity
  8
1
  6
Continuous
 62
     7
100
AcDbCircle
 10
123.2291342200508
 20
120.1305270820411
 30
0.0
 40
1.000000000000099
100
AcDbArc
 50
90.0
 51
179.9999999999943
  0
ARC
  5
10E
330
52
100
AcDbEntity
  8
1
  6
Continuous
 62
     7
100
AcDbCircle
 10
123.9834356328052
 20
109.6305270820411
 30
0.0
 40
1.000000000000077
100
AcDbArc
 50
195.9453959009225
 51
221.0356338544624
  0
ARC
  5
10F
330
52
100
AcDbEntity
  8
1
  6
Continuous
 62
     7
100
AcDbCircle
 10
123.9834356328052
 20
109.6305270820411
 30
0.0
 40
0.9999999999999996
100
AcDbArc
 50
221.0356338544624
 51
269.9999999999943
  0
ARC
  5
110
330
52
100
AcDbEntity
  8
1
  6
Continuous
 62
     7
100
AcDbCircle
 10
146.2291342200507
 20
120.1305270820411
 30
0.0
 40
1.0
100
AcDbArc
 50
0.0000000000057
 51
90.0
  0
ARC
  5
111
330
52
100
AcDbEntity
  8
1
  6
Continuous
 62
     7
100
AcDbCircle
 10
145.4748328072963
 20
109.6305270820411
 30
0.0
 40
0.9999999999999889
100
AcDbArc
 50
318.9643661455371
 51
344.0546040990775
  0
ARC
  5
112
330
52
100
AcDbEntity
  8
1
  6
Continuous
 62
     7
100
AcDbCircle
 10
145.4748328072963
 20
109.6305270820411
 30
0.0
 40
1.0
100
AcDbArc
 50
270.0
 51
318.9643661455371
  0
ARC
  5
113
330
52
100
AcDbEntity
  8
1
  6
Continuous
 62
     7
100
AcDbCircle
 10
53.22913422005081
 20
120.1305270820411
 30
0.0
 40
1.000000000000099
100
AcDbArc
 50
90.0
 51
179.9999999999943
  0
ARC
  5
114
330
52
100
AcDbEntity
  8
1
  6
Continuous
 62
     7
100
AcDbCircle
 10
53.9834356328052
 20
109.6305270820411
 30
0.0
 40
1.000000000000056
100
AcDbArc
 50
195.9453959009229
 51
221.0356338544629
  0
ARC
  5
115
330
52
100
AcDbEntity
  8
1
  6
Continuous
 62
     7
100
AcDbCircle
 10
53.9834356328052
 20
109.6305270820411
 30
0.0
 40
0.9999999999999889
100
AcDbArc
 50
221.0356338544629
 51
269.9999999999894
  0
ARC
  5
116
330
52
100
AcDbEntity
  8
1
  6
Continuous
 62
     7
100
AcDbCircle
 10
76.22913422005071
 20
120.1305270820411
 30
0.0
 40
1.0
100
AcDbArc
 50
0.0000000000057
 51
90.0
  0
ARC
  5
117
330
52
100
AcDbEntity
  8
1
  6
Continuous
 62
     7
100
AcDbCircle
 10
75.47483280729631
 20
109.6305270820411
 30
0.0
 40
0.9999999999999996
100
AcDbArc
 50
318.9643661455376
 51
344.0546040990775
  0
ARC
  5
118
330
52
100
AcDbEntity
  8
1
  6
Continuous
 62
     7
100
AcDbCircle
 10
75.47483280729631
 20
109.6305270820411
 30
0.0
 40
1.0
100
AcDbArc
 50
270.0
 51
318.9643661455376
  0
ENDBLK
  5
54
330
52
100
AcDbEntity
  8
0
100
AcDbBlockEnd
  0
BLOCK
  5
133
330
12C
100
AcDbEntity
  8
0
100
AcDbBlockBegin
  2
*D5
 70
     1
 10
0.0
 20
0.0
 30
0.0
  3
*D5
  1

  0
LINE
  5
12D
330
12C
100
AcDbEntity
  8
0
  6
Continuous
 62
     2
100
AcDbLine
 10
112.7291342200507
 20
208.1305270820411
 30
0.0
 11
162.7291342200507
 21
208.1305270820411
 31
0.0
  0
LINE
  5
12E
330
12C
100
AcDbEntity
  8
0
  6
Continuous
 62
     2
100
AcDbLine
 10
162.7291342200507
 20
196.6305270820411
 30
0.0
 11
162.7291342200507
 21
209.1305270820411
 31
0.0
  0
LINE
  5
12F
330
12C
100
AcDbEntity
  8
0
  6
Continuous
 62
     2
100
AcDbLine
 10
112.7291342200507
 20
184.6305270820411
 30
0.0
 11
112.7291342200507
 21
209.1305270820411
 31
0.0
  0
SOLID
  5
130
330
12C
100
AcDbEntity
  8
0
 62
     2
100
AcDbTrace
 10
116.2291342200507
 20
208.591310823597
 30
0.0
 11
116.2291342200507
 21
207.6697433404852
 31
0.0
 12
112.7291342200507
 22
208.1305270820411
 32
0.0
 13
112.7291342200507
 23
208.1305270820411
 33
0.0
  0
SOLID
  5
131
330
12C
100
AcDbEntity
  8
0
 62
     2
100
AcDbTrace
 10
159.2291342200507
 20
207.6697433404852
 30
0.0
 11
159.2291342200507
 21
208.591310823597
 31
0.0
 12
162.7291342200507
 22
208.1305270820411
 32
0.0
 13
162.7291342200507
 23
208.1305270820411
 33
0.0
  0
MTEXT
  5
132
330
12C
100
AcDbEntity
  8
0
 62
     7
100
AcDbMText
 10
135.0894443046749
 20
209.1305270820411
 30
0.0
 40
3.5
 41
0.0
 71
     7
 72
     1
  1
50
  7
CONVERTER_12
 11
0.9999999999970619
 21
2.424068405545306E-6
 31
0.0
 73
     1
 44
0.60024009603842
  0
ENDBLK
  5
134
330
12C
100
AcDbEntity
  8
0
100
AcDbBlockEnd
  0
BLOCK
  5
13E
330
137
100
AcDbEntity
  8
0
100
AcDbBlockBegin
  2
*D6
 70
     1
 10
0.0
 20
0.0
 30
0.0
  3
*D6
  1

  0
LINE
  5
138
330
137
100
AcDbEntity
  8
0
  6
Continuous
 62
     2
100
AcDbLine
 10
101.7291342200507
 20
197.1305270820411
 30
0.0
 11
101.7291342200507
 21
172.1305270820411
 31
0.0
  0
LINE
  5
139
330
137
100
AcDbEntity
  8
0
  6
Continuous
 62
     2
100
AcDbLine
 10
119.8755631486935
 20
172.1305270820411
 30
0.0
 11
100.7291342200507
 21
172.1305270820411
 31
0.0
  0
LINE
  5
13A
330
137
100
AcDbEntity
  8
0
  6
Continuous
 62
     2
100
AcDbLine
 10
119.8755631486935
 20
197.1305270820411
 30
0.0
 11
100.7291342200507
 21
197.1305270820411
 31
0.0
  0
SOLID
  5
13B
330
137
100
AcDbEntity
  8
0
 62
     2
100
AcDbTrace
 10
102.1899179616066
 20
193.6305270820411
 30
0.0
 11
101.2683504784948
 21
193.6305270820411
 31
0.0
 12
101.7291342200507
 22
197.1305270820411
 32
0.0
 13
101.7291342200507
 23
197.1305270820411
 33
0.0
  0
SOLID
  5
13C
330
137
100
AcDbEntity
  8
0
 62
     2
100
AcDbTrace
 10
101.2683504784948
 20
175.6305270820411
 30
0.0
 11
102.1899179616066
 21
175.6305270820411
 31
0.0
 12
101.7291342200507
 22
172.1305270820411
 32
0.0
 13
101.7291342200507
 23
172.1305270820411
 33
0.0
  0
MTEXT
  5
13D
330
137
100
AcDbEntity
  8
0
 62
     7
100
AcDbMText
 10
100.7291342200507
 20
182.0055270820411
 30
0.0
 40
3.5
 41
0.0
 71
     7
 72
     1
  1
25
  7
CONVERTER_12
 11
0.0
 21
1.0
 31
0.0
 73
     1
 44
0.60024009603842
  0
ENDBLK
  5
13F
330
137
100
AcDbEntity
  8
0
100
AcDbBlockEnd
  0
BLOCK
  5
149
330
142
100
AcDbEntity
  8
0
100
AcDbBlockBegin
  2
*D7
 70
     1
 10
0.0
 20
0.0
 30
0.0
  3
*D7
  1

  0
LINE
  5
143
330
142
100
AcDbEntity
  8
1
  6
Continuous
 62
     2
100
AcDbLine
 10
122.2291342200508
 20
99.6305270820411
 30
0.0
 11
147.2291342200507
 21
99.6305270820411
 31
0.0
  0
LINE
  5
144
330
142
100
AcDbEntity
  8
1
  6
Continuous
 62
     2
100
AcDbLine
 10
147.2291342200507
 20
112.1305270820411
 30
0.0
 11
147.2291342200507
 21
98.6305270820411
 31
0.0
  0
LINE
  5
145
330
142
100
AcDbEntity
  8
1
  6
Continuous
 62
     2
100
AcDbLine
 10
122.2291342200508
 20
112.1305270820411
 30
0.0
 11
122.2291342200508
 21
98.6305270820411
 31
0.0
  0
SOLID
  5
146
330
142
100
AcDbEntity
  8
1
 62
     2
100
AcDbTrace
 10
125.7291342200508
 20
100.091310823597
 30
0.0
 11
125.7291342200508
 21
99.16974334048521
 31
0.0
 12
122.2291342200508
 22
99.6305270820411
 32
0.0
 13
122.2291342200508
 23
99.6305270820411
 33
0.0
  0
SOLID
  5
147
330
142
100
AcDbEntity
  8
1
 62
     2
100
AcDbTrace
 10
143.7291342200507
 20
99.16974334048521
 30
0.0
 11
143.7291342200507
 21
100.091310823597
 31
0.0
 12
147.2291342200507
 22
99.6305270820411
 32
0.0
 13
147.2291342200507
 23
99.6305270820411
 33
0.0
  0
MTEXT
  5
148
330
142
100
AcDbEntity
  8
1
 62
     7
100
AcDbMText
 10
131.3341342200591
 20
100.6305201249648
 30
0.0
 40
3.5
 41
0.0
 71
     7
 72
     1
  1
\C7;{\Fgdt;n}\C7;25
  7
CONVERTER_12
 11
0.9999999999970619
 21
2.424068405545306E-6
 31
0.0
 73
     1
 44
0.60024009603842
  0
ENDBLK
  5
14A
330
142
100
AcDbEntity
  8
0
100
AcDbBlockEnd
  0
ENDSEC
  0
SECTION
  2
ENTITIES
  0
INSERT
  5
55
330
1F
100
AcDbEntity
  8
0
100
AcDbBlockReference
  2
開示A4枠
 10
0.0
 20
0.0
 30
0.0
  0
INSERT
  5
56
330
1F
100
AcDbEntity
  8
0
100
AcDbBlockReference
  2
84-26B
 10
421.7075300342615
 20
63.34602722909374
 30
0.0
  0
INSERT
  5
57
330
1F
100
AcDbEntity
  8
1
100
AcDbBlockReference
  2
30-44
 10
364.8498080433126
 20
130.8819956333393
 30
0.0
  0
LINE
  5
119
330
1F
100
AcDbEntity
  8
1
  6
DASH_CENTER
 62
     2
100
AcDbLine
 10
110.7291342200507
 20
134.6305270820411
 30
0.0
 11
169.1959757579004
 21
134.6305270820411
 31
0.0
  0
LINE
  5
11A
330
1F
100
AcDbEntity
  8
1
  6
DASH_CENTER
 62
     2
100
AcDbLine
 10
134.7291342200507
 20
148.6305270820411
 30
0.0
 11
134.7291342200507
 21
106.6305270820411
 31
0.0
  0
LINE
  5
11B
330
1F
100
AcDbEntity
  8
1
  6
DASH_CENTER
 62
     2
100
AcDbLine
 10
134.7291342200507
 20
199.1305270820411
 30
0.0
 11
134.7291342200507
 21
170.0461363672748
 31
0.0
  0
LINE
  5
11C
330
1F
100
AcDbEntity
  8
1
  6
DASH_CENTER
 62
     2
100
AcDbLine
 10
109.1381629970292
 20
184.6305270820411
 30
0.0
 11
168.7499853664717
 21
184.6305270820411
 31
0.0
  0
LINE
  5
11D
330
1F
100
AcDbEntity
  8
1
  6
DASH_CENTER
 62
     2
100
AcDbLine
 10
64.7291342200507
 20
148.6305270820411
 30
0.0
 11
64.7291342200507
 21
106.6305270820411
 31
0.0
  0
LINE
  5
11E
330
1F
100
AcDbEntity
  8
1
  6
DASH_CENTER
 62
     2
100
AcDbLine
 10
49.4791342200507
 20
134.6305270820411
 30
0.0
 11
79.97913422005071
 21
134.6305270820411
 31
0.0
  0
MTEXT
  5
120
330
1F
100
AcDbEntity
  8
1
 62
     7
100
AcDbMText
 10
157.5000000000001
 20
12.5
 30
0.0
 40
2.5
 41
0.0
 71
     5
 72
     1
  1
2
  7
CONVERTER_12
 73
     1
 44
0.7202881152461
  0
MTEXT
  5
121
330
1F
100
AcDbEntity
  8
1
 62
     7
100
AcDbMText
 10
151.7500000000001
 20
12.5
 30
0.0
 40
2.5
 41
0.0
 71
     5
 72
     1
  1
04
  7
CONVERTER_12
 73
     1
 44
0.7202881152461
  0
MTEXT
  5
122
330
1F
100
AcDbEntity
  8
1
 62
     7
100
AcDbMText
 10
140.5000000000001
 20
12.5
 30
0.0
 40
2.5
 41
0.0
 71
     5
 72
     1
  1
2
  7
CONVERTER_12
 73
     1
 44
0.7202881152461
  0
MTEXT
  5
123
330
1F
100
AcDbEntity
  8
1
 62
     7
100
AcDbMText
 10
134.7500000000001
 20
12.5
 30
0.0
 40
2.5
 41
0.0
 71
     5
 72
     1
  1
04
  7
CONVERTER_12
 73
     1
 44
0.7202881152461
  0
MTEXT
  5
124
330
1F
100
AcDbEntity
  8
1
 62
     7
100
AcDbMText
 10
123.5000000000001
 20
12.5
 30
0.0
 40
2.5
 41
0.0
 71
     5
 72
     1
  1
2
  7
CONVERTER_12
 73
     1
 44
0.7202881152461
  0
MTEXT
  5
125
330
1F
100
AcDbEntity
  8
1
 62
     7
100
AcDbMText
 10
117.7500000000001
 20
12.5
 30
0.0
 40
2.5
 41
0.0
 71
     5
 72
     1
  1
04
  7
CONVERTER_12
 73
     1
 44
0.7202881152461
  0
MTEXT
  5
126
330
1F
100
AcDbEntity
  8
1
 62
     7
100
AcDbMText
 10
100.7500000000001
 20
12.5
 30
0.0
 40
2.5
 41
0.0
 71
     5
 72
     1
  1
04
  7
CONVERTER_12
 73
     1
 44
0.7202881152461
  0
MTEXT
  5
127
330
1F
100
AcDbEntity
  8
1
 62
     7
100
AcDbMText
 10
106.5000000000001
 20
12.5
 30
0.0
 40
2.5
 41
0.0
 71
     5
 72
     1
  1
2
  7
CONVERTER_12
 73
     1
 44
0.7202881152461
  0
MTEXT
  5
128
330
1F
100
AcDbEntity
  8
1
 62
     7
100
AcDbMText
 10
85.25000000000006
 20
17.0
 30
0.0
 40
3.5
 41
0.0
 71
     5
 72
     1
  1
1
  7
CONVERTER_12
 73
     1
 44
0.7202881152461
  0
MTEXT
  5
129
330
1F
100
AcDbEntity
  8
1
 62
     7
100
AcDbMText
 10
57.00000000000006
 20
22.75000000000001
 30
0.0
 40
3.5
 41
0.0
 71
     5
 72
     1
  1
断熱キャップ
  7
CONVERTER_11
 73
     1
 44
0.54545454545455
  0
MTEXT
  5
12A
330
1F
100
AcDbEntity
  8
1
 62
     7
100
AcDbMText
 10
93.75000000000006
 20
17.0
 30
0.0
 40
3.5
 41
0.0
 71
     5
 72
     1
  1
1
  7
CONVERTER_12
 73
     1
 44
0.7202881152461
  0
MTEXT
  5
12B
330
1F
100
AcDbEntity
  8
1
 62
     7
100
AcDbMText
 10
57.00000000000006
 20
14.25
 30
0.0
 40
3.5
 41
0.0
 71
     5
 72
     1
  1
M50
  7
CONVERTER_12
 73
     1
 44
0.7202881152461
  0
DIMENSION
  5
136
330
1F
100
AcDbEntity
  8
0
100
AcDbDimension
  2
*D5
 10
112.7291342200507
 20
208.1305270820411
 30
0.0
 11
137.7144443046749
 21
210.8805270820411
 31
0.0
 70
    32
  1
<>
 71
     5
 42
-1.0
 53
0.00013888888889
  3
ME10_DIM_10
100
AcDbAlignedDimension
 13
162.7291342200507
 23
196.6305270820411
 33
0.0
 14
112.7291342200507
 24
184.6305270820411
 34
0.0
100
AcDbRotatedDimension
  0
DIMENSION
  5
141
330
1F
100
AcDbEntity
  8
0
100
AcDbDimension
  2
*D6
 10
101.7291342200507
 20
197.1305270820411
 30
0.0
 11
98.97913422005072
 21
184.6305270820411
 31
0.0
 70
    32
  1
<>
 71
     5
 42
-1.0
 53
90.0
  3
ME10_DIM_11
100
AcDbAlignedDimension
 13
119.8755631486935
 23
172.1305270820411
 33
0.0
 14
119.8755631486935
 24
197.1305270820411
 34
0.0
 50
90.0
100
AcDbRotatedDimension
  0
DIMENSION
  5
14C
330
1F
100
AcDbEntity
  8
1
100
AcDbDimension
  2
*D7
 10
122.2291342200508
 20
99.6305270820411
 30
0.0
 11
134.7291342200507
 21
102.3805270820411
 31
0.0
 70
    32
  1
<>
 71
     5
 42
-1.0
 53
0.00013888888889
  3
ME10_DIM_12
100
AcDbAlignedDimension
 13
147.2291342200507
 23
112.1305270820411
 33
0.0
 14
122.2291342200508
 24
112.1305270820411
 34
0.0
100
AcDbRotatedDimension
  0
ENDSEC
  0
SECTION
  2
OBJECTS
  0
DICTIONARY
  5
C
330
0
100
AcDbDictionary
281
     1
  3
ACAD_GROUP
350
D
  3
ACAD_LAYOUT
350
1A
  3
ACAD_MATERIAL
350
3B
  3
ACAD_MLEADERSTYLE
350
14F
  3
ACAD_MLINESTYLE
350
17
  3
ACAD_PLOTSETTINGS
350
19
  3
ACAD_PLOTSTYLENAME
350
E
  3
ACAD_VISUALSTYLE
350
2A
  3
AcDbVariableDictionary
350
14D
  0
DICTIONARY
  5
D
102
{ACAD_REACTORS
330
C
102
}
330
C
100
AcDbDictionary
281
     1
  0
DICTIONARY
  5
1A
102
{ACAD_REACTORS
330
C
102
}
330
C
100
AcDbDictionary
281
     1
  3
Layout1
350
1E
  3
Layout2
350
26
  3
Model
350
22
  0
DICTIONARY
  5
3B
102
{ACAD_REACTORS
330
C
102
}
330
C
100
AcDbDictionary
281
     1
  3
ByBlock
350
3D
  3
ByLayer
350
3C
  3
Global
350
3E
  0
DICTIONARY
  5
14F
102
{ACAD_REACTORS
330
C
102
}
330
C
100
AcDbDictionary
281
     1
  0
DICTIONARY
  5
17
102
{ACAD_REACTORS
330
C
102
}
330
C
100
AcDbDictionary
281
     1
  3
Standard
350
18
  0
DICTIONARY
  5
19
102
{ACAD_REACTORS
330
C
102
}
330
C
100
AcDbDictionary
281
     1
  0
ACDBDICTIONARYWDFLT
  5
E
102
{ACAD_REACTORS
330
C
102
}
330
C
100
AcDbDictionary
281
     1
  3
Normal
350
F
100
AcDbDictionaryWithDefault
340
F
  0
DICTIONARY
  5
2A
102
{ACAD_REACTORS
330
C
102
}
330
C
100
AcDbDictionary
281
     1
  3
2dWireframe
350
2F
  3
3D Hidden
350
31
  3
3dWireframe
350
30
  3
Basic
350
32
  3
Brighten
350
36
  3
ColorChange
350
3A
  3
Conceptual
350
34
  3
Dim
350
35
  3
Facepattern
350
39
  3
Flat
350
2B
  3
FlatWithEdges
350
2C
  3
Gouraud
350
2D
  3
GouraudWithEdges
350
2E
  3
Linepattern
350
38
  3
Realistic
350
33
  3
Thicken
350
37
  0
DICTIONARY
  5
14D
102
{ACAD_REACTORS
330
C
102
}
330
C
100
AcDbDictionary
281
     1
  3
DIMASSOC
350
150
  3
HIDETEXT
350
151
  0
LAYOUT
  5
1E
102
{ACAD_REACTORS
330
1A
102
}
330
1A
100
AcDbPlotSettings
  1

  2
none_device
  4

  6

 40
0.0
 41
0.0
 42
0.0
 43
0.0
 44
0.0
 45
0.0
 46
0.0
 47
0.0
 48
0.0
 49
0.0
140
0.0
141
0.0
142
1.0
143
1.0
 70
   688
 72
     0
 73
     0
 74
     5
  7

 75
    16
147
1.0
148
0.0
149
0.0
100
AcDbLayout
  1
Layout1
 70
     1
 71
     1
 10
0.0
 20
0.0
 11
12.0
 21
9.0
 12
0.0
 22
0.0
 32
0.0
 14
1.00000000000000E+20
 24
1.00000000000000E+20
 34
1.00000000000000E+20
 15
-1.00000000000000E+20
 25
-1.00000000000000E+20
 35
-1.00000000000000E+20
146
0.0
 13
0.0
 23
0.0
 33
0.0
 16
1.0
 26
0.0
 36
0.0
 17
0.0
 27
1.0
 37
0.0
 76
     0
330
1B
  0
LAYOUT
  5
26
102
{ACAD_REACTORS
330
1A
102
}
330
1A
100
AcDbPlotSettings
  1

  2
none_device
  4

  6

 40
0.0
 41
0.0
 42
0.0
 43
0.0
 44
0.0
 45
0.0
 46
0.0
 47
0.0
 48
0.0
 49
0.0
140
0.0
141
0.0
142
1.0
143
1.0
 70
   688
 72
     0
 73
     0
 74
     5
  7

 75
    16
147
1.0
148
0.0
149
0.0
100
AcDbLayout
  1
Layout2
 70
     1
 71
     2
 10
0.0
 20
0.0
 11
0.0
 21
0.0
 12
0.0
 22
0.0
 32
0.0
 14
0.0
 24
0.0
 34
0.0
 15
0.0
 25
0.0
 35
0.0
146
0.0
 13
0.0
 23
0.0
 33
0.0
 16
1.0
 26
0.0
 36
0.0
 17
0.0
 27
1.0
 37
0.0
 76
     0
330
23
  0
LAYOUT
  5
22
102
{ACAD_REACTORS
330
1A
102
}
330
1A
100
AcDbPlotSettings
  1

  2
none_device
  4

  6

 40
0.0
 41
0.0
 42
0.0
 43
0.0
 44
0.0
 45
0.0
 46
0.0
 47
0.0
 48
0.0
 49
0.0
140
0.0
141
0.0
142
1.0
143
1.0
 70
  1712
 72
     0
 73
     0
 74
     0
  7

 75
     0
147
1.0
148
0.0
149
0.0
100
AcDbLayout
  1
Model
 70
     1
 71
     0
 10
0.0
 20
0.0
 11
12.0
 21
9.0
 12
0.0
 22
0.0
 32
0.0
 14
0.0
 24
0.0
 34
0.0
 15
210.0000000000001
 25
297.0
 35
0.0
146
0.0
 13
0.0
 23
0.0
 33
0.0
 16
1.0
 26
0.0
 36
0.0
 17
0.0
 27
1.0
 37
0.0
 76
     0
330
1F
331
29
  0
MATERIAL
  5
3D
102
{ACAD_REACTORS
330
3B
102
}
102
{ACAD_XDICTIONARY
360
174
102
}
330
3B
100
AcDbMaterial
  1
ByBlock
  0
MATERIAL
  5
3C
102
{ACAD_REACTORS
330
3B
102
}
102
{ACAD_XDICTIONARY
360
172
102
}
330
3B
100
AcDbMaterial
  1
ByLayer
  0
MATERIAL
  5
3E
102
{ACAD_REACTORS
330
3B
102
}
102
{ACAD_XDICTIONARY
360
176
102
}
330
3B
100
AcDbMaterial
  1
Global
  0
MLINESTYLE
  5
18
102
{ACAD_REACTORS
330
17
102
}
330
17
100
AcDbMlineStyle
  2
Standard
 70
     0
  3

 62
   256
 51
90.0
 52
90.0
 71
     2
 49
0.5
 62
   256
  6
BYLAYER
 49
-0.5
 62
   256
  6
BYLAYER
  0
ACDBPLACEHOLDER
  5
F
102
{ACAD_REACTORS
330
E
102
}
330
E
  0
VISUALSTYLE
  5
2F
102
{ACAD_REACTORS
330
2A
102
}
102
{ACAD_XDICTIONARY
360
15A
102
}
330
2A
100
AcDbVisualStyle
  2
2dWireframe
 70
     4
 71
     0
 72
     2
 73
     0
 90
        0
 40
-0.6
 41
-30.0
 62
     5
 63
     7
 74
     1
 91
        4
 64
     7
 65
   257
 75
     1
175
     1
 42
1.0
 92
        0
 66
   257
 43
1.0
 76
     1
 77
     6
 78
     2
 67
     7
 79
     5
170
     0
171
     0
290
     0
174
     0
 93
        1
 44
0.0
173
     0
291
     0
 45
0.0
1001
ACAD
1000
AcDbSavedByObjectVersion
1070
     0
  0
VISUALSTYLE
  5
31
102
{ACAD_REACTORS
330
2A
102
}
102
{ACAD_XDICTIONARY
360
15E
102
}
330
2A
100
AcDbVisualStyle
  2
3D Hidden
 70
     6
 71
     1
 72
     2
 73
     2
 90
        0
 40
-0.6
 41
-30.0
 62
     5
 63
     7
 74
     2
 91
        2
 64
     7
 65
   257
 75
     2
175
     1
 42
40.0
 92
        0
 66
   257
 43
1.0
 76
     1
 77
     6
 78
     2
 67
     7
 79
     3
170
     0
171
     0
290
     0
174
     0
 93
        1
 44
0.0
173
     0
291
     0
 45
0.0
1001
ACAD
1000
AcDbSavedByObjectVersion
1070
     0
  0
VISUALSTYLE
  5
30
102
{ACAD_REACTORS
330
2A
102
}
102
{ACAD_XDICTIONARY
360
15C
102
}
330
2A
100
AcDbVisualStyle
  2
3dWireframe
 70
     5
 71
     0
 72
     2
 73
     0
 90
        0
 40
-0.6
 41
-30.0
 62
     5
 63
     7
 74
     1
 91
        4
 64
     7
 65
   257
 75
     1
175
     1
 42
1.0
 92
        0
 66
   257
 43
1.0
 76
     1
 77
     6
 78
     2
 67
     7
 79
     5
170
     0
171
     0
290
     0
174
     0
 93
        1
 44
0.0
173
     0
291
     0
 45
0.0
1001
ACAD
1000
AcDbSavedByObjectVersion
1070
     0
  0
VISUALSTYLE
  5
32
102
{ACAD_REACTORS
330
2A
102
}
102
{ACAD_XDICTIONARY
360
160
102
}
330
2A
100
AcDbVisualStyle
  2
Basic
 70
     7
 71
     1
 72
     0
 73
     1
 90
        0
 40
-0.6
 41
-30.0
 62
     5
 63
     7
 74
     0
 91
        4
 64
     7
 65
   257
 75
     1
175
     1
 42
1.0
 92
        8
 66
     7
 43
1.0
 76
     1
 77
     6
 78
     2
 67
     7
 79
     5
170
     0
171
     0
290
     0
174
     0
 93
        1
 44
0.0
173
     0
291
     1
 45
0.0
1001
ACAD
1000
AcDbSavedByObjectVersion
1070
     0
  0
VISUALSTYLE
  5
36
102
{ACAD_REACTORS
330
2A
102
}
102
{ACAD_XDICTIONARY
360
168
102
}
330
2A
100
AcDbVisualStyle
  2
Brighten
 70
    12
 71
     2
 72
     2
 73
     0
 90
        0
 40
-0.6
 41
-30.0
 62
     5
 63
     7
 74
     1
 91
        4
 64
     7
 65
   257
 75
     1
175
     1
 42
1.0
 92
        8
 66
     7
 43
1.0
 76
     1
 77
     6
 78
     2
 67
     7
 79
     5
170
     0
171
     0
290
     0
174
     0
 93
        1
 44
50.0
173
     0
291
     1
 45
0.0
1001
ACAD
1000
AcDbSavedByObjectVersion
1070
     0
  0
VISUALSTYLE
  5
3A
102
{ACAD_REACTORS
330
2A
102
}
102
{ACAD_XDICTIONARY
360
170
102
}
330
2A
100
AcDbVisualStyle
  2
ColorChange
 70
    16
 71
     2
 72
     2
 73
     3
 90
        0
 40
-0.6
 41
-30.0
 62
     5
 63
     8
 74
     1
 91
        4
 64
     7
 65
   257
 75
     1
175
     1
 42
1.0
 92
        8
 66
     8
 43
1.0
 76
     1
 77
     6
 78
     2
 67
     7
 79
     5
170
     0
171
     0
290
     0
174
     0
 93
        1
 44
0.0
173
     0
291
     1
 45
0.0
1001
ACAD
1000
AcDbSavedByObjectVersion
1070
     0
  0
VISUALSTYLE
  5
34
102
{ACAD_REACTORS
330
2A
102
}
102
{ACAD_XDICTIONARY
360
164
102
}
330
2A
100
AcDbVisualStyle
  2
Conceptual
 70
     9
 71
     3
 72
     2
 73
     0
 90
        0
 40
-0.6
 41
-30.0
 62
     5
 63
     7
 74
     2
 91
        2
 64
     7
 65
   257
 75
     1
175
     1
 42
40.0
 92
        8
 66
     7
 43
1.0
 76
     1
 77
     6
 78
     2
 67
     7
 79
     3
170
     0
171
     0
290
     0
174
     0
 93
        1
 44
0.0
173
     0
291
     0
 45
0.0
1001
ACAD
1000
AcDbSavedByObjectVersion
1070
     0
  0
VISUALSTYLE
  5
35
102
{ACAD_REACTORS
330
2A
102
}
102
{ACAD_XDICTIONARY
360
166
102
}
330
2A
100
AcDbVisualStyle
  2
Dim
 70
    11
 71
     2
 72
     2
 73
     0
 90
        0
 40
-0.6
 41
-30.0
 62
     5
 63
     7
 74
     1
 91
        4
 64
     7
 65
   257
 75
     1
175
     1
 42
1.0
 92
        8
 66
     7
 43
1.0
 76
     1
 77
     6
 78
     2
 67
     7
 79
     5
170
     0
171
     0
290
     0
174
     0
 93
        1
 44
-50.0
173
     0
291
     1
 45
0.0
1001
ACAD
1000
AcDbSavedByObjectVersion
1070
     0
  0
VISUALSTYLE
  5
39
102
{ACAD_REACTORS
330
2A
102
}
102
{ACAD_XDICTIONARY
360
16E
102
}
330
2A
100
AcDbVisualStyle
  2
Facepattern
 70
    15
 71
     2
 72
     2
 73
     0
 90
        0
 40
-0.6
 41
-30.0
 62
     5
 63
     7
 74
     1
 91
        4
 64
     7
 65
   257
 75
     1
175
     1
 42
1.0
 92
        8
 66
     7
 43
1.0
 76
     1
 77
     6
 78
     2
 67
     7
 79
     5
170
     0
171
     0
290
     0
174
     0
 93
        1
 44
0.0
173
     0
291
     1
 45
0.0
1001
ACAD
1000
AcDbSavedByObjectVersion
1070
     0
  0
VISUALSTYLE
  5
2B
102
{ACAD_REACTORS
330
2A
102
}
102
{ACAD_XDICTIONARY
360
152
102
}
330
2A
100
AcDbVisualStyle
  2
Flat
 70
     0
 71
     2
 72
     1
 73
     1
 90
        2
 40
-0.6
 41
30.0
 62
     5
 63
     7
 74
     0
 91
        4
 64
     7
 65
   257
 75
     1
175
     1
 42
1.0
 92
        8
 66
     7
 43
1.0
 76
     1
 77
     6
 78
     2
 67
     7
 79
     5
170
     0
171
     0
290
     0
174
     0
 93
       13
 44
0.0
173
     0
291
     1
 45
0.0
1001
ACAD
1000
AcDbSavedByObjectVersion
1070
     0
  0
VISUALSTYLE
  5
2C
102
{ACAD_REACTORS
330
2A
102
}
102
{ACAD_XDICTIONARY
360
154
102
}
330
2A
100
AcDbVisualStyle
  2
FlatWithEdges
 70
     1
 71
     2
 72
     1
 73
     1
 90
        2
 40
-0.6
 41
30.0
 62
     5
 63
     7
 74
     1
 91
        4
 64
     7
 65
   257
 75
     1
175
     1
 42
1.0
 92
        0
 66
   257
 43
1.0
 76
     1
 77
     6
 78
     2
 67
     7
 79
     5
170
     0
171
     0
290
     0
174
     0
 93
       13
 44
0.0
173
     0
291
     1
 45
0.0
1001
ACAD
1000
AcDbSavedByObjectVersion
1070
     0
  0
VISUALSTYLE
  5
2D
102
{ACAD_REACTORS
330
2A
102
}
102
{ACAD_XDICTIONARY
360
156
102
}
330
2A
100
AcDbVisualStyle
  2
Gouraud
 70
     2
 71
     2
 72
     2
 73
     1
 90
        2
 40
-0.6
 41
30.0
 62
     5
 63
     7
 74
     0
 91
        4
 64
     7
 65
   257
 75
     1
175
     1
 42
1.0
 92
        0
 66
     7
 43
1.0
 76
     1
 77
     6
 78
     2
 67
     7
 79
     5
170
     0
171
     0
290
     0
174
     0
 93
       13
 44
0.0
173
     0
291
     1
 45
0.0
1001
ACAD
1000
AcDbSavedByObjectVersion
1070
     0
  0
VISUALSTYLE
  5
2E
102
{ACAD_REACTORS
330
2A
102
}
102
{ACAD_XDICTIONARY
360
158
102
}
330
2A
100
AcDbVisualStyle
  2
GouraudWithEdges
 70
     3
 71
     2
 72
     2
 73
     1
 90
        2
 40
-0.6
 41
30.0
 62
     5
 63
     7
 74
     1
 91
        4
 64
     7
 65
   257
 75
     1
175
     1
 42
1.0
 92
        0
 66
   257
 43
1.0
 76
     1
 77
     6
 78
     2
 67
     7
 79
     5
170
     0
171
     0
290
     0
174
     0
 93
       13
 44
0.0
173
     0
291
     1
 45
0.0
1001
ACAD
1000
AcDbSavedByObjectVersion
1070
     0
  0
VISUALSTYLE
  5
38
102
{ACAD_REACTORS
330
2A
102
}
102
{ACAD_XDICTIONARY
360
16C
102
}
330
2A
100
AcDbVisualStyle
  2
Linepattern
 70
    14
 71
     2
 72
     2
 73
     0
 90
        0
 40
-0.6
 41
-30.0
 62
     5
 63
     7
 74
     1
 91
        4
 64
     7
 65
   257
 75
     7
175
     7
 42
1.0
 92
        8
 66
     7
 43
1.0
 76
     1
 77
     6
 78
     2
 67
     7
 79
     5
170
     0
171
     0
290
     0
174
     0
 93
        1
 44
0.0
173
     0
291
     1
 45
0.0
1001
ACAD
1000
AcDbSavedByObjectVersion
1070
     0
  0
VISUALSTYLE
  5
33
102
{ACAD_REACTORS
330
2A
102
}
102
{ACAD_XDICTIONARY
360
162
102
}
330
2A
100
AcDbVisualStyle
  2
Realistic
 70
     8
 71
     2
 72
     2
 73
     0
 90
        0
 40
-0.6
 41
-30.0
 62
     5
 63
     7
 74
     1
 91
        0
 64
     7
 65
   257
 75
     1
175
     1
 42
1.0
 92
        8
 66
     8
 43
1.0
 76
     1
 77
     6
 78
     2
 67
     7
 79
     5
170
     0
171
     0
290
     0
174
     0
 93
       13
 44
0.0
173
     0
291
     0
 45
0.0
1001
ACAD
1000
AcDbSavedByObjectVersion
1070
     0
  0
VISUALSTYLE
  5
37
102
{ACAD_REACTORS
330
2A
102
}
102
{ACAD_XDICTIONARY
360
16A
102
}
330
2A
100
AcDbVisualStyle
  2
Thicken
 70
    13
 71
     2
 72
     2
 73
     0
 90
        0
 40
-0.6
 41
-30.0
 62
     5
 63
     7
 74
     1
 91
        4
 64
     7
 65
   257
 75
     1
175
     1
 42
1.0
 92
       12
 66
     7
 43
1.0
 76
     1
 77
     6
 78
     2
 67
     7
 79
     5
170
     0
171
     0
290
     0
174
     0
 93
        1
 44
0.0
173
     0
291
     1
 45
0.0
1001
ACAD
1000
AcDbSavedByObjectVersion
1070
     0
  0
DICTIONARYVAR
  5
150
102
{ACAD_REACTORS
330
14D
102
}
330
14D
100
DictionaryVariables
280
     0
  1
2
  0
DICTIONARYVAR
  5
151
102
{ACAD_REACTORS
330
14D
102
}
330
14D
100
DictionaryVariables
280
     0
  1
1
  0
DICTIONARY
  5
174
330
3D
100
AcDbDictionary
280
     1
281
     1
  3
ACAD_XREC_ROUNDTRIP
360
175
  0
DICTIONARY
  5
172
330
3C
100
AcDbDictionary
280
     1
281
     1
  3
ACAD_XREC_ROUNDTRIP
360
173
  0
DICTIONARY
  5
176
330
3E
100
AcDbDictionary
280
     1
281
     1
  3
ACAD_XREC_ROUNDTRIP
360
177
  0
DICTIONARY
  5
15A
330
2F
100
AcDbDictionary
280
     1
281
     1
  3
ACAD_XREC_ROUNDTRIP
360
15B
  0
DICTIONARY
  5
15E
330
31
100
AcDbDictionary
280
     1
281
     1
  3
ACAD_XREC_ROUNDTRIP
360
15F
  0
DICTIONARY
  5
15C
330
30
100
AcDbDictionary
280
     1
281
     1
  3
ACAD_XREC_ROUNDTRIP
360
15D
  0
DICTIONARY
  5
160
330
32
100
AcDbDictionary
280
     1
281
     1
  3
ACAD_XREC_ROUNDTRIP
360
161
  0
DICTIONARY
  5
168
330
36
100
AcDbDictionary
280
     1
281
     1
  3
ACAD_XREC_ROUNDTRIP
360
169
  0
DICTIONARY
  5
170
330
3A
100
AcDbDictionary
280
     1
281
     1
  3
ACAD_XREC_ROUNDTRIP
360
171
  0
DICTIONARY
  5
164
330
34
100
AcDbDictionary
280
     1
281
     1
  3
ACAD_XREC_ROUNDTRIP
360
165
  0
DICTIONARY
  5
166
330
35
100
AcDbDictionary
280
     1
281
     1
  3
ACAD_XREC_ROUNDTRIP
360
167
  0
DICTIONARY
  5
16E
330
39
100
AcDbDictionary
280
     1
281
     1
  3
ACAD_XREC_ROUNDTRIP
360
16F
  0
DICTIONARY
  5
152
330
2B
100
AcDbDictionary
280
     1
281
     1
  3
ACAD_XREC_ROUNDTRIP
360
153
  0
DICTIONARY
  5
154
330
2C
100
AcDbDictionary
280
     1
281
     1
  3
ACAD_XREC_ROUNDTRIP
360
155
  0
DICTIONARY
  5
156
330
2D
100
AcDbDictionary
280
     1
281
     1
  3
ACAD_XREC_ROUNDTRIP
360
157
  0
DICTIONARY
  5
158
330
2E
100
AcDbDictionary
280
     1
281
     1
  3
ACAD_XREC_ROUNDTRIP
360
159
  0
DICTIONARY
  5
16C
330
38
100
AcDbDictionary
280
     1
281
     1
  3
ACAD_XREC_ROUNDTRIP
360
16D
  0
DICTIONARY
  5
162
330
33
100
AcDbDictionary
280
     1
281
     1
  3
ACAD_XREC_ROUNDTRIP
360
163
  0
DICTIONARY
  5
16A
330
37
100
AcDbDictionary
280
     1
281
     1
  3
ACAD_XREC_ROUNDTRIP
360
16B
  0
XRECORD
  5
175
102
{ACAD_REACTORS
330
174
102
}
330
174
100
AcDbXrecord
280
     1
102
MATERIAL
148
0.0
149
0.0
149
0.0
 93
        0
 94
      127
282
     0
 72
     1
 77
     1
171
     1
175
     1
179
     1
273
     0
  0
XRECORD
  5
173
102
{ACAD_REACTORS
330
172
102
}
330
172
100
AcDbXrecord
280
     1
102
MATERIAL
148
0.0
149
0.0
149
0.0
 93
        0
 94
      127
282
     0
 72
     1
 77
     1
171
     1
175
     1
179
     1
273
     0
  0
XRECORD
  5
177
102
{ACAD_REACTORS
330
176
102
}
330
176
100
AcDbXrecord
280
     1
102
MATERIAL
148
0.0
149
0.0
149
0.0
 93
        0
 94
      127
282
     0
 72
     1
 77
     1
171
     1
175
     1
179
     1
273
     0
  0
XRECORD
  5
15B
102
{ACAD_REACTORS
330
15A
102
}
330
15A
100
AcDbXrecord
280
     1
102
RTVSPropertyOp0
 70
     1
102
RTVSPropertyOp1
 70
     1
102
RTVSPropertyOp2
 70
     1
102
RTVSPropertyOp3
 70
     1
102
RTVSPropertyOp4
 70
     1
102
RTVSPropertyOp5
 70
     1
102
RTVSPropertyOp6
 70
     1
102
RTVSPropertyOp7
 70
     1
102
RTVSPropertyOp8
 70
     1
102
RTVSPropertyOp9
 70
     1
102
RTVSPropertyOp10
 70
     1
102
RTVSPropertyOp11
 70
     1
102
RTVSPropertyOp12
 70
     1
102
RTVSPropertyOp13
 70
     1
102
RTVSPropertyOp14
 70
     1
102
RTVSPropertyOp15
 70
     1
102
RTVSPropertyOp16
 70
     1
102
RTVSPropertyOp17
 70
     1
102
RTVSPropertyOp18
 70
     1
102
RTVSPropertyOp19
 70
     1
102
RTVSPropertyOp20
 70
     1
102
RTVSPropertyOp21
 70
     1
102
RTVSPropertyOp22
 70
     1
102
RTVSPropertyOp23
 70
     1
102
RTVSPropertyOp24
 70
     1
102
RTVSPropertyOp25
 70
     1
102
RTVSPropertyOp26
 70
     1
102
RTVSPropertyOp27
 70
     1
102
RTVSPropertyOp28
 70
     1
102
RTVSPropertyOp29
 70
     1
102
RTVSPropertyOp30
 70
     1
102
RTVSPropertyOp31
 70
     1
102
RTVSPropertyOp32
 70
     1
  0
XRECORD
  5
15F
102
{ACAD_REACTORS
330
15E
102
}
330
15E
100
AcDbXrecord
280
     1
102
RTVSPropertyOp0
 70
     1
102
RTVSPropertyOp1
 70
     1
102
RTVSPropertyOp2
 70
     1
102
RTVSPropertyOp3
 70
     1
102
RTVSPropertyOp4
 70
     1
102
RTVSPropertyOp5
 70
     1
102
RTVSPropertyOp6
 70
     1
102
RTVSPropertyOp7
 70
     1
102
RTVSPropertyOp8
 70
     1
102
RTVSPropertyOp9
 70
     1
102
RTVSPropertyOp10
 70
     1
102
RTVSPropertyOp11
 70
     1
102
RTVSPropertyOp12
 70
     1
102
RTVSPropertyOp13
 70
     1
102
RTVSPropertyOp14
 70
     1
102
RTVSPropertyOp15
 70
     1
102
RTVSPropertyOp16
 70
     1
102
RTVSPropertyOp17
 70
     1
102
RTVSPropertyOp18
 70
     1
102
RTVSPropertyOp19
 70
     1
102
RTVSPropertyOp20
 70
     1
102
RTVSPropertyOp21
 70
     1
102
RTVSPropertyOp22
 70
     1
102
RTVSPropertyOp23
 70
     1
102
RTVSPropertyOp24
 70
     1
102
RTVSPropertyOp25
 70
     1
102
RTVSPropertyOp26
 70
     1
102
RTVSPropertyOp27
 70
     1
102
RTVSPropertyOp28
 70
     1
102
RTVSPropertyOp29
 70
     1
102
RTVSPropertyOp30
 70
     1
102
RTVSPropertyOp31
 70
     1
102
RTVSPropertyOp32
 70
     1
  0
XRECORD
  5
15D
102
{ACAD_REACTORS
330
15C
102
}
330
15C
100
AcDbXrecord
280
     1
102
RTVSPropertyOp0
 70
     1
102
RTVSPropertyOp1
 70
     1
102
RTVSPropertyOp2
 70
     1
102
RTVSPropertyOp3
 70
     1
102
RTVSPropertyOp4
 70
     1
102
RTVSPropertyOp5
 70
     1
102
RTVSPropertyOp6
 70
     1
102
RTVSPropertyOp7
 70
     1
102
RTVSPropertyOp8
 70
     1
102
RTVSPropertyOp9
 70
     1
102
RTVSPropertyOp10
 70
     1
102
RTVSPropertyOp11
 70
     1
102
RTVSPropertyOp12
 70
     1
102
RTVSPropertyOp13
 70
     1
102
RTVSPropertyOp14
 70
     1
102
RTVSPropertyOp15
 70
     1
102
RTVSPropertyOp16
 70
     1
102
RTVSPropertyOp17
 70
     1
102
RTVSPropertyOp18
 70
     1
102
RTVSPropertyOp19
 70
     1
102
RTVSPropertyOp20
 70
     1
102
RTVSPropertyOp21
 70
     1
102
RTVSPropertyOp22
 70
     1
102
RTVSPropertyOp23
 70
     1
102
RTVSPropertyOp24
 70
     1
102
RTVSPropertyOp25
 70
     1
102
RTVSPropertyOp26
 70
     1
102
RTVSPropertyOp27
 70
     1
102
RTVSPropertyOp28
 70
     1
102
RTVSPropertyOp29
 70
     1
102
RTVSPropertyOp30
 70
     1
102
RTVSPropertyOp31
 70
     1
102
RTVSPropertyOp32
 70
     1
  0
XRECORD
  5
161
102
{ACAD_REACTORS
330
160
102
}
330
160
100
AcDbXrecord
280
     1
102
RTVSPropertyOp0
 70
     1
102
RTVSPropertyOp1
 70
     1
102
RTVSPropertyOp2
 70
     1
102
RTVSPropertyOp3
 70
     1
102
RTVSPropertyOp4
 70
     1
102
RTVSPropertyOp5
 70
     1
102
RTVSPropertyOp6
 70
     1
102
RTVSPropertyOp7
 70
     1
102
RTVSPropertyOp8
 70
     1
102
RTVSPropertyOp9
 70
     1
102
RTVSPropertyOp10
 70
     1
102
RTVSPropertyOp11
 70
     1
102
RTVSPropertyOp12
 70
     1
102
RTVSPropertyOp13
 70
     1
102
RTVSPropertyOp14
 70
     1
102
RTVSPropertyOp15
 70
     1
102
RTVSPropertyOp16
 70
     1
102
RTVSPropertyOp17
 70
     1
102
RTVSPropertyOp18
 70
     1
102
RTVSPropertyOp19
 70
     1
102
RTVSPropertyOp20
 70
     1
102
RTVSPropertyOp21
 70
     1
102
RTVSPropertyOp22
 70
     1
102
RTVSPropertyOp23
 70
     1
102
RTVSPropertyOp24
 70
     1
102
RTVSPropertyOp25
 70
     1
102
RTVSPropertyOp26
 70
     1
102
RTVSPropertyOp27
 70
     1
102
RTVSPropertyOp28
 70
     1
102
RTVSPropertyOp29
 70
     1
102
RTVSPropertyOp30
 70
     1
102
RTVSPropertyOp31
 70
     1
102
RTVSPropertyOp32
 70
     1
  0
XRECORD
  5
169
102
{ACAD_REACTORS
330
168
102
}
330
168
100
AcDbXrecord
280
     1
102
RTVSPropertyOp0
 70
     1
102
RTVSPropertyOp1
 70
     1
102
RTVSPropertyOp2
 70
     1
102
RTVSPropertyOp3
 70
     1
102
RTVSPropertyOp4
 70
     1
102
RTVSPropertyOp5
 70
     1
102
RTVSPropertyOp6
 70
     1
102
RTVSPropertyOp7
 70
     1
102
RTVSPropertyOp8
 70
     1
102
RTVSPropertyOp9
 70
     1
102
RTVSPropertyOp10
 70
     1
102
RTVSPropertyOp11
 70
     1
102
RTVSPropertyOp12
 70
     1
102
RTVSPropertyOp13
 70
     1
102
RTVSPropertyOp14
 70
     1
102
RTVSPropertyOp15
 70
     1
102
RTVSPropertyOp16
 70
     1
102
RTVSPropertyOp17
 70
     1
102
RTVSPropertyOp18
 70
     1
102
RTVSPropertyOp19
 70
     1
102
RTVSPropertyOp20
 70
     1
102
RTVSPropertyOp21
 70
     1
102
RTVSPropertyOp22
 70
     1
102
RTVSPropertyOp23
 70
     1
102
RTVSPropertyOp24
 70
     1
102
RTVSPropertyOp25
 70
     1
102
RTVSPropertyOp26
 70
     1
102
RTVSPropertyOp27
 70
     1
102
RTVSPropertyOp28
 70
     1
102
RTVSPropertyOp29
 70
     1
102
RTVSPropertyOp30
 70
     1
102
RTVSPropertyOp31
 70
     1
102
RTVSPropertyOp32
 70
     1
  0
XRECORD
  5
171
102
{ACAD_REACTORS
330
170
102
}
330
170
100
AcDbXrecord
280
     1
102
RTVSPropertyOp0
 70
     1
102
RTVSPropertyOp1
 70
     1
102
RTVSPropertyOp2
 70
     1
102
RTVSPropertyOp3
 70
     1
102
RTVSPropertyOp4
 70
     1
102
RTVSPropertyOp5
 70
     1
102
RTVSPropertyOp6
 70
     1
102
RTVSPropertyOp7
 70
     1
102
RTVSPropertyOp8
 70
     1
102
RTVSPropertyOp9
 70
     1
102
RTVSPropertyOp10
 70
     1
102
RTVSPropertyOp11
 70
     1
102
RTVSPropertyOp12
 70
     1
102
RTVSPropertyOp13
 70
     1
102
RTVSPropertyOp14
 70
     1
102
RTVSPropertyOp15
 70
     1
102
RTVSPropertyOp16
 70
     1
102
RTVSPropertyOp17
 70
     1
102
RTVSPropertyOp18
 70
     1
102
RTVSPropertyOp19
 70
     1
102
RTVSPropertyOp20
 70
     1
102
RTVSPropertyOp21
 70
     1
102
RTVSPropertyOp22
 70
     1
102
RTVSPropertyOp23
 70
     1
102
RTVSPropertyOp24
 70
     1
102
RTVSPropertyOp25
 70
     1
102
RTVSPropertyOp26
 70
     1
102
RTVSPropertyOp27
 70
     1
102
RTVSPropertyOp28
 70
     1
102
RTVSPropertyOp29
 70
     1
102
RTVSPropertyOp30
 70
     1
102
RTVSPropertyOp31
 70
     1
102
RTVSPropertyOp32
 70
     1
  0
XRECORD
  5
165
102
{ACAD_REACTORS
330
164
102
}
330
164
100
AcDbXrecord
280
     1
102
RTVSPropertyOp0
 70
     1
102
RTVSPropertyOp1
 70
     1
102
RTVSPropertyOp2
 70
     1
102
RTVSPropertyOp3
 70
     1
102
RTVSPropertyOp4
 70
     1
102
RTVSPropertyOp5
 70
     1
102
RTVSPropertyOp6
 70
     1
102
RTVSPropertyOp7
 70
     1
102
RTVSPropertyOp8
 70
     1
102
RTVSPropertyOp9
 70
     1
102
RTVSPropertyOp10
 70
     1
102
RTVSPropertyOp11
 70
     1
102
RTVSPropertyOp12
 70
     1
102
RTVSPropertyOp13
 70
     1
102
RTVSPropertyOp14
 70
     1
102
RTVSPropertyOp15
 70
     1
102
RTVSPropertyOp16
 70
     1
102
RTVSPropertyOp17
 70
     1
102
RTVSPropertyOp18
 70
     1
102
RTVSPropertyOp19
 70
     1
102
RTVSPropertyOp20
 70
     1
102
RTVSPropertyOp21
 70
     1
102
RTVSPropertyOp22
 70
     1
102
RTVSPropertyOp23
 70
     1
102
RTVSPropertyOp24
 70
     1
102
RTVSPropertyOp25
 70
     1
102
RTVSPropertyOp26
 70
     1
102
RTVSPropertyOp27
 70
     1
102
RTVSPropertyOp28
 70
     1
102
RTVSPropertyOp29
 70
     1
102
RTVSPropertyOp30
 70
     1
102
RTVSPropertyOp31
 70
     1
102
RTVSPropertyOp32
 70
     1
  0
XRECORD
  5
167
102
{ACAD_REACTORS
330
166
102
}
330
166
100
AcDbXrecord
280
     1
102
RTVSPropertyOp0
 70
     1
102
RTVSPropertyOp1
 70
     1
102
RTVSPropertyOp2
 70
     1
102
RTVSPropertyOp3
 70
     1
102
RTVSPropertyOp4
 70
     1
102
RTVSPropertyOp5
 70
     1
102
RTVSPropertyOp6
 70
     1
102
RTVSPropertyOp7
 70
     1
102
RTVSPropertyOp8
 70
     1
102
RTVSPropertyOp9
 70
     1
102
RTVSPropertyOp10
 70
     1
102
RTVSPropertyOp11
 70
     1
102
RTVSPropertyOp12
 70
     1
102
RTVSPropertyOp13
 70
     1
102
RTVSPropertyOp14
 70
     1
102
RTVSPropertyOp15
 70
     1
102
RTVSPropertyOp16
 70
     1
102
RTVSPropertyOp17
 70
     1
102
RTVSPropertyOp18
 70
     1
102
RTVSPropertyOp19
 70
     1
102
RTVSPropertyOp20
 70
     1
102
RTVSPropertyOp21
 70
     1
102
RTVSPropertyOp22
 70
     1
102
RTVSPropertyOp23
 70
     1
102
RTVSPropertyOp24
 70
     1
102
RTVSPropertyOp25
 70
     1
102
RTVSPropertyOp26
 70
     1
102
RTVSPropertyOp27
 70
     1
102
RTVSPropertyOp28
 70
     1
102
RTVSPropertyOp29
 70
     1
102
RTVSPropertyOp30
 70
     1
102
RTVSPropertyOp31
 70
     1
102
RTVSPropertyOp32
 70
     1
  0
XRECORD
  5
16F
102
{ACAD_REACTORS
330
16E
102
}
330
16E
100
AcDbXrecord
280
     1
102
RTVSPropertyOp0
 70
     1
102
RTVSPropertyOp1
 70
     1
102
RTVSPropertyOp2
 70
     1
102
RTVSPropertyOp3
 70
     1
102
RTVSPropertyOp4
 70
     1
102
RTVSPropertyOp5
 70
     1
102
RTVSPropertyOp6
 70
     1
102
RTVSPropertyOp7
 70
     1
102
RTVSPropertyOp8
 70
     1
102
RTVSPropertyOp9
 70
     1
102
RTVSPropertyOp10
 70
     1
102
RTVSPropertyOp11
 70
     1
102
RTVSPropertyOp12
 70
     1
102
RTVSPropertyOp13
 70
     1
102
RTVSPropertyOp14
 70
     1
102
RTVSPropertyOp15
 70
     1
102
RTVSPropertyOp16
 70
     1
102
RTVSPropertyOp17
 70
     1
102
RTVSPropertyOp18
 70
     1
102
RTVSPropertyOp19
 70
     1
102
RTVSPropertyOp20
 70
     1
102
RTVSPropertyOp21
 70
     1
102
RTVSPropertyOp22
 70
     1
102
RTVSPropertyOp23
 70
     1
102
RTVSPropertyOp24
 70
     1
102
RTVSPropertyOp25
 70
     1
102
RTVSPropertyOp26
 70
     1
102
RTVSPropertyOp27
 70
     1
102
RTVSPropertyOp28
 70
     1
102
RTVSPropertyOp29
 70
     1
102
RTVSPropertyOp30
 70
     1
102
RTVSPropertyOp31
 70
     1
102
RTVSPropertyOp32
 70
     1
  0
XRECORD
  5
153
102
{ACAD_REACTORS
330
152
102
}
330
152
100
AcDbXrecord
280
     1
102
RTVSPropertyOp0
 70
     1
102
RTVSPropertyOp1
 70
     1
102
RTVSPropertyOp2
 70
     1
102
RTVSPropertyOp3
 70
     1
102
RTVSPropertyOp4
 70
     1
102
RTVSPropertyOp5
 70
     1
102
RTVSPropertyOp6
 70
     1
102
RTVSPropertyOp7
 70
     1
102
RTVSPropertyOp8
 70
     1
102
RTVSPropertyOp9
 70
     1
102
RTVSPropertyOp10
 70
     1
102
RTVSPropertyOp11
 70
     1
102
RTVSPropertyOp12
 70
     1
102
RTVSPropertyOp13
 70
     1
102
RTVSPropertyOp14
 70
     1
102
RTVSPropertyOp15
 70
     1
102
RTVSPropertyOp16
 70
     1
102
RTVSPropertyOp17
 70
     1
102
RTVSPropertyOp18
 70
     1
102
RTVSPropertyOp19
 70
     1
102
RTVSPropertyOp20
 70
     1
102
RTVSPropertyOp21
 70
     1
102
RTVSPropertyOp22
 70
     1
102
RTVSPropertyOp23
 70
     1
102
RTVSPropertyOp24
 70
     1
102
RTVSPropertyOp25
 70
     1
102
RTVSPropertyOp26
 70
     1
102
RTVSPropertyOp27
 70
     1
102
RTVSPropertyOp28
 70
     1
102
RTVSPropertyOp29
 70
     1
102
RTVSPropertyOp30
 70
     1
102
RTVSPropertyOp31
 70
     1
102
RTVSPropertyOp32
 70
     1
  0
XRECORD
  5
155
102
{ACAD_REACTORS
330
154
102
}
330
154
100
AcDbXrecord
280
     1
102
RTVSPropertyOp0
 70
     1
102
RTVSPropertyOp1
 70
     1
102
RTVSPropertyOp2
 70
     1
102
RTVSPropertyOp3
 70
     1
102
RTVSPropertyOp4
 70
     1
102
RTVSPropertyOp5
 70
     1
102
RTVSPropertyOp6
 70
     1
102
RTVSPropertyOp7
 70
     1
102
RTVSPropertyOp8
 70
     1
102
RTVSPropertyOp9
 70
     1
102
RTVSPropertyOp10
 70
     1
102
RTVSPropertyOp11
 70
     1
102
RTVSPropertyOp12
 70
     1
102
RTVSPropertyOp13
 70
     1
102
RTVSPropertyOp14
 70
     1
102
RTVSPropertyOp15
 70
     1
102
RTVSPropertyOp16
 70
     1
102
RTVSPropertyOp17
 70
     1
102
RTVSPropertyOp18
 70
     1
102
RTVSPropertyOp19
 70
     1
102
RTVSPropertyOp20
 70
     1
102
RTVSPropertyOp21
 70
     1
102
RTVSPropertyOp22
 70
     1
102
RTVSPropertyOp23
 70
     1
102
RTVSPropertyOp24
 70
     1
102
RTVSPropertyOp25
 70
     1
102
RTVSPropertyOp26
 70
     1
102
RTVSPropertyOp27
 70
     1
102
RTVSPropertyOp28
 70
     1
102
RTVSPropertyOp29
 70
     1
102
RTVSPropertyOp30
 70
     1
102
RTVSPropertyOp31
 70
     1
102
RTVSPropertyOp32
 70
     1
  0
XRECORD
  5
157
102
{ACAD_REACTORS
330
156
102
}
330
156
100
AcDbXrecord
280
     1
102
RTVSPropertyOp0
 70
     1
102
RTVSPropertyOp1
 70
     1
102
RTVSPropertyOp2
 70
     1
102
RTVSPropertyOp3
 70
     1
102
RTVSPropertyOp4
 70
     1
102
RTVSPropertyOp5
 70
     1
102
RTVSPropertyOp6
 70
     1
102
RTVSPropertyOp7
 70
     1
102
RTVSPropertyOp8
 70
     1
102
RTVSPropertyOp9
 70
     1
102
RTVSPropertyOp10
 70
     1
102
RTVSPropertyOp11
 70
     1
102
RTVSPropertyOp12
 70
     1
102
RTVSPropertyOp13
 70
     1
102
RTVSPropertyOp14
 70
     1
102
RTVSPropertyOp15
 70
     1
102
RTVSPropertyOp16
 70
     1
102
RTVSPropertyOp17
 70
     1
102
RTVSPropertyOp18
 70
     1
102
RTVSPropertyOp19
 70
     1
102
RTVSPropertyOp20
 70
     1
102
RTVSPropertyOp21
 70
     1
102
RTVSPropertyOp22
 70
     1
102
RTVSPropertyOp23
 70
     1
102
RTVSPropertyOp24
 70
     1
102
RTVSPropertyOp25
 70
     1
102
RTVSPropertyOp26
 70
     1
102
RTVSPropertyOp27
 70
     1
102
RTVSPropertyOp28
 70
     1
102
RTVSPropertyOp29
 70
     1
102
RTVSPropertyOp30
 70
     1
102
RTVSPropertyOp31
 70
     1
102
RTVSPropertyOp32
 70
     1
  0
XRECORD
  5
159
102
{ACAD_REACTORS
330
158
102
}
330
158
100
AcDbXrecord
280
     1
102
RTVSPropertyOp0
 70
     1
102
RTVSPropertyOp1
 70
     1
102
RTVSPropertyOp2
 70
     1
102
RTVSPropertyOp3
 70
     1
102
RTVSPropertyOp4
 70
     1
102
RTVSPropertyOp5
 70
     1
102
RTVSPropertyOp6
 70
     1
102
RTVSPropertyOp7
 70
     1
102
RTVSPropertyOp8
 70
     1
102
RTVSPropertyOp9
 70
     1
102
RTVSPropertyOp10
 70
     1
102
RTVSPropertyOp11
 70
     1
102
RTVSPropertyOp12
 70
     1
102
RTVSPropertyOp13
 70
     1
102
RTVSPropertyOp14
 70
     1
102
RTVSPropertyOp15
 70
     1
102
RTVSPropertyOp16
 70
     1
102
RTVSPropertyOp17
 70
     1
102
RTVSPropertyOp18
 70
     1
102
RTVSPropertyOp19
 70
     1
102
RTVSPropertyOp20
 70
     1
102
RTVSPropertyOp21
 70
     1
102
RTVSPropertyOp22
 70
     1
102
RTVSPropertyOp23
 70
     1
102
RTVSPropertyOp24
 70
     1
102
RTVSPropertyOp25
 70
     1
102
RTVSPropertyOp26
 70
     1
102
RTVSPropertyOp27
 70
     1
102
RTVSPropertyOp28
 70
     1
102
RTVSPropertyOp29
 70
     1
102
RTVSPropertyOp30
 70
     1
102
RTVSPropertyOp31
 70
     1
102
RTVSPropertyOp32
 70
     1
  0
XRECORD
  5
16D
102
{ACAD_REACTORS
330
16C
102
}
330
16C
100
AcDbXrecord
280
     1
102
RTVSPropertyOp0
 70
     1
102
RTVSPropertyOp1
 70
     1
102
RTVSPropertyOp2
 70
     1
102
RTVSPropertyOp3
 70
     1
102
RTVSPropertyOp4
 70
     1
102
RTVSPropertyOp5
 70
     1
102
RTVSPropertyOp6
 70
     1
102
RTVSPropertyOp7
 70
     1
102
RTVSPropertyOp8
 70
     1
102
RTVSPropertyOp9
 70
     1
102
RTVSPropertyOp10
 70
     1
102
RTVSPropertyOp11
 70
     1
102
RTVSPropertyOp12
 70
     1
102
RTVSPropertyOp13
 70
     1
102
RTVSPropertyOp14
 70
     1
102
RTVSPropertyOp15
 70
     1
102
RTVSPropertyOp16
 70
     1
102
RTVSPropertyOp17
 70
     1
102
RTVSPropertyOp18
 70
     1
102
RTVSPropertyOp19
 70
     1
102
RTVSPropertyOp20
 70
     1
102
RTVSPropertyOp21
 70
     1
102
RTVSPropertyOp22
 70
     1
102
RTVSPropertyOp23
 70
     1
102
RTVSPropertyOp24
 70
     1
102
RTVSPropertyOp25
 70
     1
102
RTVSPropertyOp26
 70
     1
102
RTVSPropertyOp27
 70
     1
102
RTVSPropertyOp28
 70
     1
102
RTVSPropertyOp29
 70
     1
102
RTVSPropertyOp30
 70
     1
102
RTVSPropertyOp31
 70
     1
102
RTVSPropertyOp32
 70
     1
  0
XRECORD
  5
163
102
{ACAD_REACTORS
330
162
102
}
330
162
100
AcDbXrecord
280
     1
102
RTVSPropertyOp0
 70
     1
102
RTVSPropertyOp1
 70
     1
102
RTVSPropertyOp2
 70
     1
102
RTVSPropertyOp3
 70
     1
102
RTVSPropertyOp4
 70
     1
102
RTVSPropertyOp5
 70
     1
102
RTVSPropertyOp6
 70
     1
102
RTVSPropertyOp7
 70
     1
102
RTVSPropertyOp8
 70
     1
102
RTVSPropertyOp9
 70
     1
102
RTVSPropertyOp10
 70
     1
102
RTVSPropertyOp11
 70
     1
102
RTVSPropertyOp12
 70
     1
102
RTVSPropertyOp13
 70
     1
102
RTVSPropertyOp14
 70
     1
102
RTVSPropertyOp15
 70
     1
102
RTVSPropertyOp16
 70
     1
102
RTVSPropertyOp17
 70
     1
102
RTVSPropertyOp18
 70
     1
102
RTVSPropertyOp19
 70
     1
102
RTVSPropertyOp20
 70
     1
102
RTVSPropertyOp21
 70
     1
102
RTVSPropertyOp22
 70
     1
102
RTVSPropertyOp23
 70
     1
102
RTVSPropertyOp24
 70
     1
102
RTVSPropertyOp25
 70
     1
102
RTVSPropertyOp26
 70
     1
102
RTVSPropertyOp27
 70
     1
102
RTVSPropertyOp28
 70
     1
102
RTVSPropertyOp29
 70
     1
102
RTVSPropertyOp30
 70
     1
102
RTVSPropertyOp31
 70
     1
102
RTVSPropertyOp32
 70
     1
  0
XRECORD
  5
16B
102
{ACAD_REACTORS
330
16A
102
}
330
16A
100
AcDbXrecord
280
     1
102
RTVSPropertyOp0
 70
     1
102
RTVSPropertyOp1
 70
     1
102
RTVSPropertyOp2
 70
     1
102
RTVSPropertyOp3
 70
     1
102
RTVSPropertyOp4
 70
     1
102
RTVSPropertyOp5
 70
     1
102
RTVSPropertyOp6
 70
     1
102
RTVSPropertyOp7
 70
     1
102
RTVSPropertyOp8
 70
     1
102
RTVSPropertyOp9
 70
     1
102
RTVSPropertyOp10
 70
     1
102
RTVSPropertyOp11
 70
     1
102
RTVSPropertyOp12
 70
     1
102
RTVSPropertyOp13
 70
     1
102
RTVSPropertyOp14
 70
     1
102
RTVSPropertyOp15
 70
     1
102
RTVSPropertyOp16
 70
     1
102
RTVSPropertyOp17
 70
     1
102
RTVSPropertyOp18
 70
     1
102
RTVSPropertyOp19
 70
     1
102
RTVSPropertyOp20
 70
     1
102
RTVSPropertyOp21
 70
     1
102
RTVSPropertyOp22
 70
     1
102
RTVSPropertyOp23
 70
     1
102
RTVSPropertyOp24
 70
     1
102
RTVSPropertyOp25
 70
     1
102
RTVSPropertyOp26
 70
     1
102
RTVSPropertyOp27
 70
     1
102
RTVSPropertyOp28
 70
     1
102
RTVSPropertyOp29
 70
     1
102
RTVSPropertyOp30
 70
     1
102
RTVSPropertyOp31
 70
     1
102
RTVSPropertyOp32
 70
     1
  0
ENDSEC
  0
EOF
