  0
SECTION
  2
HEADER
  9
$ACADVER
  1
AC1015
  9
$ACADMAINTVER
 70
     6
  9
$DWGCODEPAGE
  3
ANSI_932
  9
$INSBASE
 10
0.0
 20
0.0
 30
0.0
  9
$EXTMIN
 10
0.0
 20
0.0
 30
0.0
  9
$EXTMAX
 10
210.0
 20
297.0
 30
0.0
  9
$LIMMIN
 10
0.0
 20
0.0
  9
$LIMMAX
 10
12.0
 20
9.0
  9
$ORTHOMODE
 70
     0
  9
$REGENMODE
 70
     1
  9
$FILLMODE
 70
     1
  9
$QTEXTMODE
 70
     0
  9
$MIRRTEXT
 70
     1
  9
$LTSCALE
 40
1.0
  9
$ATTMODE
 70
     1
  9
$TEXTSIZE
 40
0.2
  9
$TRACEWID
 40
0.05
  9
$TEXTSTYLE
  7
Standard
  9
$CLAYER
  8
0
  9
$CELTYPE
  6
ByLayer
  9
$CECOLOR
 62
   256
  9
$CELTSCALE
 40
1.0
  9
$DISPSILH
 70
     0
  9
$DIMSCALE
 40
1.0
  9
$DIMASZ
 40
0.18
  9
$DIMEXO
 40
0.0625
  9
$DIMDLI
 40
0.38
  9
$DIMRND
 40
0.0
  9
$DIMDLE
 40
0.0
  9
$DIMEXE
 40
0.18
  9
$DIMTP
 40
0.0
  9
$DIMTM
 40
0.0
  9
$DIMTXT
 40
0.18
  9
$DIMCEN
 40
0.09
  9
$DIMTSZ
 40
0.0
  9
$DIMTOL
 70
     0
  9
$DIMLIM
 70
     0
  9
$DIMTIH
 70
     1
  9
$DIMTOH
 70
     1
  9
$DIMSE1
 70
     0
  9
$DIMSE2
 70
     0
  9
$DIMTAD
 70
     0
  9
$DIMZIN
 70
     0
  9
$DIMBLK
  1

  9
$DIMASO
 70
     1
  9
$DIMSHO
 70
     1
  9
$DIMPOST
  1

  9
$DIMAPOST
  1

  9
$DIMALT
 70
     0
  9
$DIMALTD
 70
     2
  9
$DIMALTF
 40
25.4
  9
$DIMLFAC
 40
1.0
  9
$DIMTOFL
 70
     0
  9
$DIMTVP
 40
0.0
  9
$DIMTIX
 70
     0
  9
$DIMSOXD
 70
     0
  9
$DIMSAH
 70
     0
  9
$DIMBLK1
  1

  9
$DIMBLK2
  1

  9
$DIMSTYLE
  2
Standard
  9
$DIMCLRD
 70
     0
  9
$DIMCLRE
 70
     0
  9
$DIMCLRT
 70
     0
  9
$DIMTFAC
 40
1.0
  9
$DIMGAP
 40
0.09
  9
$DIMJUST
 70
     0
  9
$DIMSD1
 70
     0
  9
$DIMSD2
 70
     0
  9
$DIMTOLJ
 70
     1
  9
$DIMTZIN
 70
     0
  9
$DIMALTZ
 70
     0
  9
$DIMALTTZ
 70
     0
  9
$DIMUPT
 70
     0
  9
$DIMDEC
 70
     4
  9
$DIMTDEC
 70
     4
  9
$DIMALTU
 70
     2
  9
$DIMALTTD
 70
     2
  9
$DIMTXSTY
  7
Standard
  9
$DIMAUNIT
 70
     0
  9
$DIMADEC
 70
     0
  9
$DIMALTRND
 40
0.0
  9
$DIMAZIN
 70
     0
  9
$DIMDSEP
 70
    46
  9
$DIMATFIT
 70
     3
  9
$DIMFRAC
 70
     0
  9
$DIMLDRBLK
  1

  9
$DIMLUNIT
 70
     2
  9
$DIMLWD
 70
    -2
  9
$DIMLWE
 70
    -2
  9
$DIMTMOVE
 70
     0
  9
$LUNITS
 70
     2
  9
$LUPREC
 70
     4
  9
$SKETCHINC
 40
0.1
  9
$FILLETRAD
 40
0.5
  9
$AUNITS
 70
     0
  9
$AUPREC
 70
     0
  9
$MENU
  1
.
  9
$ELEVATION
 40
0.0
  9
$PELEVATION
 40
0.0
  9
$THICKNESS
 40
0.0
  9
$LIMCHECK
 70
     0
  9
$CHAMFERA
 40
0.5
  9
$CHAMFERB
 40
0.5
  9
$CHAMFERC
 40
1.0
  9
$CHAMFERD
 40
0.0
  9
$SKPOLY
 70
     0
  9
$TDCREATE
 40
2459774.465337512
  9
$TDUCREATE
 40
2459774.090337512
  9
$TDUPDATE
 40
2459774.465338958
  9
$TDUUPDATE
 40
2459774.090338958
  9
$TDINDWG
 40
0.0000000116
  9
$TDUSRTIMER
 40
0.0000000116
  9
$USRTIMER
 70
     1
  9
$ANGBASE
 50
0.0
  9
$ANGDIR
 70
     0
  9
$PDMODE
 70
     0
  9
$PDSIZE
 40
0.0
  9
$PLINEWID
 40
0.0
  9
$SPLFRAME
 70
     0
  9
$SPLINETYPE
 70
     6
  9
$SPLINESEGS
 70
     8
  9
$HANDSEED
  5
17B
  9
$SURFTAB1
 70
     6
  9
$SURFTAB2
 70
     6
  9
$SURFTYPE
 70
     6
  9
$SURFU
 70
     6
  9
$SURFV
 70
     6
  9
$UCSBASE
  2

  9
$UCSNAME
  2

  9
$UCSORG
 10
0.0
 20
0.0
 30
0.0
  9
$UCSXDIR
 10
1.0
 20
0.0
 30
0.0
  9
$UCSYDIR
 10
0.0
 20
1.0
 30
0.0
  9
$UCSORTHOREF
  2

  9
$UCSORTHOVIEW
 70
     0
  9
$UCSORGTOP
 10
0.0
 20
0.0
 30
0.0
  9
$UCSORGBOTTOM
 10
0.0
 20
0.0
 30
0.0
  9
$UCSORGLEFT
 10
0.0
 20
0.0
 30
0.0
  9
$UCSORGRIGHT
 10
0.0
 20
0.0
 30
0.0
  9
$UCSORGFRONT
 10
0.0
 20
0.0
 30
0.0
  9
$UCSORGBACK
 10
0.0
 20
0.0
 30
0.0
  9
$PUCSBASE
  2

  9
$PUCSNAME
  2

  9
$PUCSORG
 10
0.0
 20
0.0
 30
0.0
  9
$PUCSXDIR
 10
1.0
 20
0.0
 30
0.0
  9
$PUCSYDIR
 10
0.0
 20
1.0
 30
0.0
  9
$PUCSORTHOREF
  2

  9
$PUCSORTHOVIEW
 70
     0
  9
$PUCSORGTOP
 10
0.0
 20
0.0
 30
0.0
  9
$PUCSORGBOTTOM
 10
0.0
 20
0.0
 30
0.0
  9
$PUCSORGLEFT
 10
0.0
 20
0.0
 30
0.0
  9
$PUCSORGRIGHT
 10
0.0
 20
0.0
 30
0.0
  9
$PUCSORGFRONT
 10
0.0
 20
0.0
 30
0.0
  9
$PUCSORGBACK
 10
0.0
 20
0.0
 30
0.0
  9
$USERI1
 70
     0
  9
$USERI2
 70
     0
  9
$USERI3
 70
     0
  9
$USERI4
 70
     0
  9
$USERI5
 70
     0
  9
$USERR1
 40
18.1
  9
$USERR2
 40
0.0
  9
$USERR3
 40
0.0
  9
$USERR4
 40
0.0
  9
$USERR5
 40
0.0
  9
$WORLDVIEW
 70
     1
  9
$SHADEDGE
 70
     3
  9
$SHADEDIF
 70
    70
  9
$TILEMODE
 70
     1
  9
$MAXACTVP
 70
    64
  9
$PINSBASE
 10
0.0
 20
0.0
 30
0.0
  9
$PLIMCHECK
 70
     0
  9
$PEXTMIN
 10
1.00000000000000E+20
 20
1.00000000000000E+20
 30
1.00000000000000E+20
  9
$PEXTMAX
 10
-1.00000000000000E+20
 20
-1.00000000000000E+20
 30
-1.00000000000000E+20
  9
$PLIMMIN
 10
0.0
 20
0.0
  9
$PLIMMAX
 10
12.0
 20
9.0
  9
$UNITMODE
 70
     0
  9
$VISRETAIN
 70
     1
  9
$PLINEGEN
 70
     0
  9
$PSLTSCALE
 70
     1
  9
$TREEDEPTH
 70
  3020
  9
$CMLSTYLE
  2
Standard
  9
$CMLJUST
 70
     0
  9
$CMLSCALE
 40
1.0
  9
$PROXYGRAPHICS
 70
     1
  9
$MEASUREMENT
 70
     1
  9
$CELWEIGHT
370
    -1
  9
$ENDCAPS
280
     0
  9
$JOINSTYLE
280
     0
  9
$LWDISPLAY
290
     0
  9
$INSUNITS
 70
     4
  9
$HYPERLINKBASE
  1

  9
$STYLESHEET
  1

  9
$XEDIT
290
     1
  9
$CEPSNTYPE
380
     0
  9
$PSTYLEMODE
290
     1
  9
$FINGERPRINTGUID
  2
{1B6B53EF-8675-4F94-9DCA-BF2050C9BC2F}
  9
$VERSIONGUID
  2
{FAEB1C32-E019-11D5-929B-00C0DF256EC4}
  9
$EXTNAMES
290
     1
  9
$PSVPSCALE
 40
0.0
  9
$OLESTARTUP
290
     0
  0
ENDSEC
  0
SECTION
  2
CLASSES
  0
CLASS
  1
ACDBDICTIONARYWDFLT
  2
AcDbDictionaryWithDefault
  3
ObjectDBX Classes
 90
        0
280
     0
281
     0
  0
CLASS
  1
VISUALSTYLE
  2
AcDbVisualStyle
  3
ObjectDBX Classes
 90
     4095
280
     0
281
     0
  0
CLASS
  1
MATERIAL
  2
AcDbMaterial
  3
ObjectDBX Classes
 90
     1153
280
     0
281
     0
  0
CLASS
  1
DICTIONARYVAR
  2
AcDbDictionaryVar
  3
ObjectDBX Classes
 90
        0
280
     0
281
     0
  0
CLASS
  1
ACDBPLACEHOLDER
  2
AcDbPlaceHolder
  3
ObjectDBX Classes
 90
        0
280
     0
281
     0
  0
CLASS
  1
LAYOUT
  2
AcDbLayout
  3
ObjectDBX Classes
 90
        0
280
     0
281
     0
  0
ENDSEC
  0
SECTION
  2
TABLES
  0
TABLE
  2
VPORT
  5
8
330
0
100
AcDbSymbolTable
 70
     1
  0
VPORT
  5
29
330
8
100
AcDbSymbolTableRecord
100
AcDbViewportTableRecord
  2
*Active
 70
     0
 10
0.0
 20
0.0
 11
1.0
 21
1.0
 12
105.0
 22
148.5
 13
0.0
 23
0.0
 14
0.5
 24
0.5
 15
0.5
 25
0.5
 16
0.0
 26
0.0
 36
1.0
 17
0.0
 27
0.0
 37
0.0
 40
326.7
 41
1.60267857142857
 42
50.0
 43
0.0
 44
0.0
 50
0.0
 51
0.0
 71
     0
 72
   100
 73
     1
 74
     3
 75
     0
 76
     0
 77
     0
 78
     0
281
     0
 65
     1
110
0.0
120
0.0
130
0.0
111
1.0
121
0.0
131
0.0
112
0.0
122
1.0
132
0.0
 79
     0
146
0.0
  0
ENDTAB
  0
TABLE
  2
LTYPE
  5
5
330
0
100
AcDbSymbolTable
 70
     8
  0
LTYPE
  5
14
330
5
100
AcDbSymbolTableRecord
100
AcDbLinetypeTableRecord
  2
ByBlock
 70
     0
  3

 72
    65
 73
     0
 40
0.0
  0
LTYPE
  5
15
330
5
100
AcDbSymbolTableRecord
100
AcDbLinetypeTableRecord
  2
ByLayer
 70
     0
  3

 72
    65
 73
     0
 40
0.0
  0
LTYPE
  5
16
330
5
100
AcDbSymbolTableRecord
100
AcDbLinetypeTableRecord
  2
Continuous
 70
     0
  3
Solid line
 72
    65
 73
     0
 40
0.0
  0
LTYPE
  5
3F
330
5
100
AcDbSymbolTableRecord
100
AcDbLinetypeTableRecord
  2
DASHED
 70
     0
  3
Dashed
 72
    65
 73
     2
 40
15.0
 49
7.0
 74
     0
 49
-8.0
 74
     0
  0
LTYPE
  5
40
330
5
100
AcDbSymbolTableRecord
100
AcDbLinetypeTableRecord
  2
DOTTED
 70
     0
  3
Dotted
 72
    65
 73
     2
 40
1.0
 49
0.0
 74
     0
 49
-1.0
 74
     0
  0
LTYPE
  5
41
330
5
100
AcDbSymbolTableRecord
100
AcDbLinetypeTableRecord
  2
DOT_CENTER
 70
     0
  3
Dot_Center
 72
    65
 73
     4
 40
14.0
 49
12.0
 74
     0
 49
-1.0
 74
     0
 49
0.0
 74
     0
 49
-1.0
 74
     0
  0
LTYPE
  5
42
330
5
100
AcDbSymbolTableRecord
100
AcDbLinetypeTableRecord
  2
LONG_DASHED
 70
     0
  3
Long_Dashed
 72
    65
 73
     2
 40
15.0
 49
10.0
 74
     0
 49
-5.0
 74
     0
  0
LTYPE
  5
43
330
5
100
AcDbSymbolTableRecord
100
AcDbLinetypeTableRecord
  2
DASH_CENTER
 70
     0
  3
Dash_Center
 72
    65
 73
     4
 40
14.0
 49
11.0
 74
     0
 49
-1.0
 74
     0
 49
1.0
 74
     0
 49
-1.0
 74
     0
  0
LTYPE
  5
44
330
5
100
AcDbSymbolTableRecord
100
AcDbLinetypeTableRecord
  2
PHANTOM
 70
     0
  3
Phantom
 72
    65
 73
     6
 40
13.0
 49
10.0
 74
     0
 49
-1.0
 74
     0
 49
0.0
 74
     0
 49
-1.0
 74
     0
 49
0.0
 74
     0
 49
-1.0
 74
     0
  0
LTYPE
  5
45
330
5
100
AcDbSymbolTableRecord
100
AcDbLinetypeTableRecord
  2
CENTER_DASH_DASH
 70
     0
  3
Center_Dash_Dash
 72
    65
 73
     6
 40
14.0
 49
9.0
 74
     0
 49
-1.0
 74
     0
 49
1.0
 74
     0
 49
-1.0
 74
     0
 49
1.0
 74
     0
 49
-1.0
 74
     0
  0
ENDTAB
  0
TABLE
  2
LAYER
  5
2
330
0
100
AcDbSymbolTable
 70
     3
  0
LAYER
  5
10
330
2
100
AcDbSymbolTableRecord
100
AcDbLayerTableRecord
  2
0
 70
     0
 62
     7
  6
Continuous
370
    -3
390
F
  0
LAYER
  5
46
330
2
100
AcDbSymbolTableRecord
100
AcDbLayerTableRecord
  2
1
 70
     0
 62
     7
  6
Continuous
370
    -3
390
F
  0
LAYER
  5
47
330
2
100
AcDbSymbolTableRecord
100
AcDbLayerTableRecord
  2
_U_30EC_U_30A4_U_30E4_U_30FC_1
 70
     0
 62
     7
  6
Continuous
370
    -3
390
F
  0
ENDTAB
  0
TABLE
  2
STYLE
  5
3
330
0
100
AcDbSymbolTable
 70
     3
  0
STYLE
  5
11
330
3
100
AcDbSymbolTableRecord
100
AcDbTextStyleTableRecord
  2
Standard
 70
     0
 40
0.0
 41
1.0
 50
0.0
 71
     0
 42
0.2
  3
txt
  4

  0
STYLE
  5
B6
330
3
100
AcDbSymbolTableRecord
100
AcDbTextStyleTableRecord
  2
CONVERTER_11
 70
     0
 40
0.0
 41
0.89
 50
0.0
 71
     0
 42
0.2
  3
MS Mincho.ttf
  4

1001
ACAD
1000
MS Mincho
1071
    32785
  0
STYLE
  5
116
330
3
100
AcDbSymbolTableRecord
100
AcDbTextStyleTableRecord
  2
CONVERTER_12
 70
     0
 40
0.0
 41
0.9
 50
0.0
 71
     0
 42
0.2
  3
txt.shx
  4

  0
ENDTAB
  0
TABLE
  2
VIEW
  5
6
330
0
100
AcDbSymbolTable
 70
     0
  0
ENDTAB
  0
TABLE
  2
UCS
  5
7
330
0
100
AcDbSymbolTable
 70
     0
  0
ENDTAB
  0
TABLE
  2
APPID
  5
9
330
0
100
AcDbSymbolTable
 70
     1
  0
APPID
  5
12
330
9
100
AcDbSymbolTableRecord
100
AcDbRegAppTableRecord
  2
ACAD
 70
     0
  0
ENDTAB
  0
TABLE
  2
DIMSTYLE
  5
A
330
0
100
AcDbSymbolTable
 70
     5
100
AcDbDimStyleTable
  0
DIMSTYLE
105
27
330
A
100
AcDbSymbolTableRecord
100
AcDbDimStyleTableRecord
  2
Standard
 70
     0
178
     0
340
11
  0
DIMSTYLE
105
12D
102
{ACAD_REACTORS
330
12E
102
}
330
A
100
AcDbSymbolTableRecord
100
AcDbDimStyleTableRecord
  2
ME10_DIM_10
 70
     0
  3
{\Fgdt;n}<>
 41
3.5
 42
0.0
 44
1.0
 73
     0
 74
     0
 77
     1
 78
     8
140
3.5
147
1.0
172
     1
173
     1
174
     1
175
     1
176
     2
177
     2
271
     2
178
     7
271
     2
340
116
  0
DIMSTYLE
105
138
102
{ACAD_REACTORS
330
139
102
}
330
A
100
AcDbSymbolTableRecord
100
AcDbDimStyleTableRecord
  2
ME10_DIM_11
 70
     0
  3
{\Fgdt;n}<>
 41
3.5
 42
0.0
 44
1.0
 73
     0
 74
     0
 77
     1
 78
     8
140
3.5
147
1.0
172
     1
173
     1
174
     1
175
     1
176
     2
177
     2
271
     2
178
     7
271
     2
340
116
  0
DIMSTYLE
105
143
102
{ACAD_REACTORS
330
144
102
}
330
A
100
AcDbSymbolTableRecord
100
AcDbDimStyleTableRecord
  2
ME10_DIM_12
 70
     0
 41
3.5
 42
0.0
 44
1.0
 73
     0
 74
     0
 77
     1
 78
     8
140
3.5
147
1.0
172
     1
173
     1
174
     1
175
     1
176
     2
177
     2
271
     2
178
     7
271
     2
340
116
  0
DIMSTYLE
105
14E
102
{ACAD_REACTORS
330
14F
102
}
330
A
100
AcDbSymbolTableRecord
100
AcDbDimStyleTableRecord
  2
ME10_DIM_13
 70
     0
 41
3.5
 42
0.0
 44
1.0
 73
     0
 74
     0
 77
     1
 78
     8
140
3.5
147
1.0
172
     1
173
     1
174
     1
175
     1
176
     2
177
     2
271
     2
178
     7
271
     2
340
116
  0
ENDTAB
  0
TABLE
  2
BLOCK_RECORD
  5
1
330
0
100
AcDbSymbolTable
 70
     8
  0
BLOCK_RECORD
  5
1F
330
1
100
AcDbSymbolTableRecord
100
AcDbBlockTableRecord
  2
*Model_Space
340
22
  0
BLOCK_RECORD
  5
1B
330
1
100
AcDbSymbolTableRecord
100
AcDbBlockTableRecord
  2
*Paper_Space
340
1E
  0
BLOCK_RECORD
  5
23
330
1
100
AcDbSymbolTableRecord
100
AcDbBlockTableRecord
  2
*Paper_Space0
340
26
  0
BLOCK_RECORD
  5
48
330
1
100
AcDbSymbolTableRecord
100
AcDbBlockTableRecord
  2
開示A4
340
0
102
{BLKREFS
331
4C
102
}
  0
BLOCK_RECORD
  5
4B
330
1
100
AcDbSymbolTableRecord
100
AcDbBlockTableRecord
  2
開示A4枠
340
0
102
{BLKREFS
331
52
102
}
  0
BLOCK_RECORD
  5
4F
330
1
100
AcDbSymbolTableRecord
100
AcDbBlockTableRecord
  2
M70M-1
340
0
102
{BLKREFS
331
53
102
}
  0
BLOCK_RECORD
  5
124
330
1
100
AcDbSymbolTableRecord
100
AcDbBlockTableRecord
  2
*D4
340
0
  0
BLOCK_RECORD
  5
12F
330
1
100
AcDbSymbolTableRecord
100
AcDbBlockTableRecord
  2
*D5
340
0
  0
BLOCK_RECORD
  5
13A
330
1
100
AcDbSymbolTableRecord
100
AcDbBlockTableRecord
  2
*D6
340
0
  0
BLOCK_RECORD
  5
145
330
1
100
AcDbSymbolTableRecord
100
AcDbBlockTableRecord
  2
*D7
340
0
  0
ENDTAB
  0
ENDSEC
  0
SECTION
  2
BLOCKS
  0
BLOCK
  5
20
330
1F
100
AcDbEntity
  8
0
100
AcDbBlockBegin
  2
*Model_Space
 70
     0
 10
0.0
 20
0.0
 30
0.0
  3
*Model_Space
  1

  0
ENDBLK
  5
21
330
1F
100
AcDbEntity
  8
0
100
AcDbBlockEnd
  0
BLOCK
  5
1C
330
1B
100
AcDbEntity
 67
     1
  8
0
100
AcDbBlockBegin
  2
*Paper_Space
 70
     0
 10
0.0
 20
0.0
 30
0.0
  3
*Paper_Space
  1

  0
ENDBLK
  5
1D
330
1B
100
AcDbEntity
 67
     1
  8
0
100
AcDbBlockEnd
  0
BLOCK
  5
24
330
23
100
AcDbEntity
  8
0
100
AcDbBlockBegin
  2
*Paper_Space0
 70
     0
 10
0.0
 20
0.0
 30
0.0
  3
*Paper_Space0
  1

  0
ENDBLK
  5
25
330
23
100
AcDbEntity
  8
0
100
AcDbBlockEnd
  0
BLOCK
  5
49
330
48
100
AcDbEntity
  8
0
100
AcDbBlockBegin
  2
開示A4
 70
     0
 10
0.0
 20
0.0
 30
0.0
  3
開示A4
  1

  0
POINT
  5
54
330
48
100
AcDbEntity
  8
1
 62
     4
100
AcDbPoint
 10
34.0
 20
34.0
 30
0.0
  0
POINT
  5
55
330
48
100
AcDbEntity
  8
1
 62
     4
100
AcDbPoint
 10
57.0
 20
12.25
 30
0.0
  0
POINT
  5
56
330
48
100
AcDbEntity
  8
1
 62
     4
100
AcDbPoint
 10
57.0
 20
20.75
 30
0.0
  0
POINT
  5
57
330
48
100
AcDbEntity
  8
1
 62
     4
100
AcDbPoint
 10
57.0
 20
24.75
 30
0.0
  0
POINT
  5
58
330
48
100
AcDbEntity
  8
1
 62
     4
100
AcDbPoint
 10
57.0
 20
16.25
 30
0.0
  0
POINT
  5
59
330
48
100
AcDbEntity
  8
1
 62
     4
100
AcDbPoint
 10
157.5
 20
19.0
 30
0.0
  0
POINT
  5
5A
330
48
100
AcDbEntity
  8
1
 62
     4
100
AcDbPoint
 10
47.5
 20
282.0
 30
0.0
  0
POINT
  5
5B
330
48
100
AcDbEntity
  8
1
 62
     4
100
AcDbPoint
 10
57.0
 20
22.75
 30
0.0
  0
POINT
  5
5C
330
48
100
AcDbEntity
  8
1
 62
     4
100
AcDbPoint
 10
57.0
 20
14.25
 30
0.0
  0
POINT
  5
5D
330
48
100
AcDbEntity
  8
1
 62
     4
100
AcDbPoint
 10
157.5
 20
12.5
 30
0.0
  0
POINT
  5
5E
330
48
100
AcDbEntity
  8
1
 62
     4
100
AcDbPoint
 10
163.25
 20
12.5
 30
0.0
  0
POINT
  5
5F
330
48
100
AcDbEntity
  8
1
 62
     4
100
AcDbPoint
 10
151.75
 20
12.5
 30
0.0
  0
POINT
  5
60
330
48
100
AcDbEntity
  8
1
 62
     4
100
AcDbPoint
 10
134.75
 20
12.5
 30
0.0
  0
POINT
  5
61
330
48
100
AcDbEntity
  8
1
 62
     4
100
AcDbPoint
 10
146.25
 20
12.5
 30
0.0
  0
POINT
  5
62
330
48
100
AcDbEntity
  8
1
 62
     4
100
AcDbPoint
 10
140.5
 20
12.5
 30
0.0
  0
POINT
  5
63
330
48
100
AcDbEntity
  8
1
 62
     4
100
AcDbPoint
 10
140.5
 20
19.0
 30
0.0
  0
POINT
  5
64
330
48
100
AcDbEntity
  8
1
 62
     4
100
AcDbPoint
 10
117.75
 20
12.5
 30
0.0
  0
POINT
  5
65
330
48
100
AcDbEntity
  8
1
 62
     4
100
AcDbPoint
 10
129.25
 20
12.5
 30
0.0
  0
POINT
  5
66
330
48
100
AcDbEntity
  8
1
 62
     4
100
AcDbPoint
 10
123.5
 20
12.5
 30
0.0
  0
POINT
  5
67
330
48
100
AcDbEntity
  8
1
 62
     4
100
AcDbPoint
 10
123.5
 20
19.0
 30
0.0
  0
POINT
  5
68
330
48
100
AcDbEntity
  8
1
 62
     4
100
AcDbPoint
 10
100.75
 20
12.5
 30
0.0
  0
POINT
  5
69
330
48
100
AcDbEntity
  8
1
 62
     4
100
AcDbPoint
 10
112.25
 20
12.5
 30
0.0
  0
POINT
  5
6A
330
48
100
AcDbEntity
  8
1
 62
     4
100
AcDbPoint
 10
106.5
 20
12.5
 30
0.0
  0
POINT
  5
6B
330
48
100
AcDbEntity
  8
1
 62
     4
100
AcDbPoint
 10
106.5
 20
19.0
 30
0.0
  0
POINT
  5
6C
330
48
100
AcDbEntity
  8
1
 62
     4
100
AcDbPoint
 10
85.25
 20
17.0
 30
0.0
  0
POINT
  5
6D
330
48
100
AcDbEntity
  8
1
 62
     4
100
AcDbPoint
 10
93.75
 20
17.0
 30
0.0
  0
POINT
  5
6E
330
48
100
AcDbEntity
  8
1
 62
     4
100
AcDbPoint
 10
183.0
 20
15.0
 30
0.0
  0
LINE
  5
6F
330
48
100
AcDbEntity
  8
1
  6
Continuous
 62
     2
100
AcDbLine
 10
81.0
 20
27.0
 30
0.0
 11
81.0
 21
10.0
 31
0.0
  0
LINE
  5
70
330
48
100
AcDbEntity
  8
1
  6
DOT_CENTER
 62
     2
100
AcDbLine
 10
187.0
 20
26.5
 30
0.0
 11
187.0
 21
20.5
 31
0.0
  0
LINE
  5
71
330
48
100
AcDbEntity
  8
1
  6
DOT_CENTER
 62
     2
100
AcDbLine
 10
184.0
 20
23.5
 30
0.0
 11
197.0
 21
23.5
 31
0.0
  0
LINE
  5
72
330
48
100
AcDbEntity
  8
1
  6
Continuous
 62
     7
100
AcDbLine
 10
196.0
 20
21.5
 30
0.0
 11
191.0
 21
22.30000000000018
 31
0.0
  0
LINE
  5
73
330
48
100
AcDbEntity
  8
1
  6
Continuous
 62
     7
100
AcDbLine
 10
196.0
 20
25.5
 30
0.0
 11
196.0
 21
21.5
 31
0.0
  0
LINE
  5
74
330
48
100
AcDbEntity
  8
1
  6
Continuous
 62
     7
100
AcDbLine
 10
191.0
 20
24.69999999999982
 30
0.0
 11
196.0
 21
25.5
 31
0.0
  0
LINE
  5
75
330
48
100
AcDbEntity
  8
1
  6
Continuous
 62
     7
100
AcDbLine
 10
191.0
 20
24.69999999999982
 30
0.0
 11
191.0
 21
22.30000000000018
 31
0.0
  0
LINE
  5
76
330
48
100
AcDbEntity
  8
1
  6
Continuous
 62
     2
100
AcDbLine
 10
33.0
 20
27.0
 30
0.0
 11
33.0
 21
10.0
 31
0.0
  0
LINE
  5
77
330
48
100
AcDbEntity
  8
1
  6
Continuous
 62
     2
100
AcDbLine
 10
25.0
 20
18.5
 30
0.0
 11
81.0
 21
18.5
 31
0.0
  0
LINE
  5
78
330
48
100
AcDbEntity
  8
1
  6
Continuous
 62
     7
100
AcDbLine
 10
200.0
 20
287.0
 30
0.0
 11
105.0
 21
287.0
 31
0.0
  0
LINE
  5
79
330
48
100
AcDbEntity
  8
1
  6
Continuous
 62
     7
100
AcDbLine
 10
200.0
 20
10.0
 30
0.0
 11
200.0
 21
148.5
 31
0.0
  0
LINE
  5
7A
330
48
100
AcDbEntity
  8
1
  6
Continuous
 62
     7
100
AcDbLine
 10
25.0
 20
10.0
 30
0.0
 11
105.0
 21
10.0
 31
0.0
  0
LINE
  5
7B
330
48
100
AcDbEntity
  8
1
  6
PHANTOM
 62
     4
100
AcDbLine
 10
0.0
 20
297.0
 30
0.0
 11
0.0
 21
0.0
 31
0.0
  0
LINE
  5
7C
330
48
100
AcDbEntity
  8
1
  6
PHANTOM
 62
     4
100
AcDbLine
 10
210.0
 20
297.0
 30
0.0
 11
0.0
 21
297.0
 31
0.0
  0
LINE
  5
7D
330
48
100
AcDbEntity
  8
1
  6
PHANTOM
 62
     4
100
AcDbLine
 10
210.0
 20
0.0
 30
0.0
 11
210.0
 21
297.0
 31
0.0
  0
LINE
  5
7E
330
48
100
AcDbEntity
  8
1
  6
PHANTOM
 62
     4
100
AcDbLine
 10
0.0
 20
0.0
 30
0.0
 11
210.0
 21
0.0
 31
0.0
  0
LINE
  5
7F
330
48
100
AcDbEntity
  8
1
  6
Continuous
 62
     7
100
AcDbLine
 10
25.0
 20
41.0
 30
0.0
 11
200.0
 21
41.0
 31
0.0
  0
LINE
  5
80
330
48
100
AcDbEntity
  8
1
  6
Continuous
 62
     7
100
AcDbLine
 10
200.0
 20
27.0
 30
0.0
 11
25.0
 21
27.0
 31
0.0
  0
LINE
  5
81
330
48
100
AcDbEntity
  8
1
  6
Continuous
 62
     2
100
AcDbLine
 10
33.0
 20
41.0
 30
0.0
 11
33.0
 21
27.0
 31
0.0
  0
LINE
  5
82
330
48
100
AcDbEntity
  8
1
  6
Continuous
 62
     2
100
AcDbLine
 10
55.0
 20
287.0
 30
0.0
 11
55.0
 21
277.0
 31
0.0
  0
LINE
  5
83
330
48
100
AcDbEntity
  8
1
  6
Continuous
 62
     2
100
AcDbLine
 10
40.0
 20
287.0
 30
0.0
 11
40.0
 21
277.0
 31
0.0
  0
LINE
  5
84
330
48
100
AcDbEntity
  8
1
  6
Continuous
 62
     7
100
AcDbLine
 10
25.0
 20
10.0
 30
0.0
 11
25.0
 21
148.5
 31
0.0
  0
LINE
  5
85
330
48
100
AcDbEntity
  8
1
  6
Continuous
 62
     2
100
AcDbLine
 10
55.0
 20
277.0
 30
0.0
 11
25.0
 21
277.0
 31
0.0
  0
LINE
  5
86
330
48
100
AcDbEntity
  8
1
  6
Continuous
 62
     2
100
AcDbLine
 10
166.0
 20
27.0
 30
0.0
 11
166.0
 21
10.0
 31
0.0
  0
LINE
  5
87
330
48
100
AcDbEntity
  8
1
  6
Continuous
 62
     2
100
AcDbLine
 10
132.0
 20
27.0
 30
0.0
 11
132.0
 21
10.0
 31
0.0
  0
LINE
  5
88
330
48
100
AcDbEntity
  8
1
  6
Continuous
 62
     2
100
AcDbLine
 10
149.0
 20
27.0
 30
0.0
 11
149.0
 21
10.0
 31
0.0
  0
LINE
  5
89
330
48
100
AcDbEntity
  8
1
  6
Continuous
 62
     2
100
AcDbLine
 10
115.0
 20
27.0
 30
0.0
 11
115.0
 21
10.0
 31
0.0
  0
LINE
  5
8A
330
48
100
AcDbEntity
  8
1
  6
Continuous
 62
     2
100
AcDbLine
 10
98.0
 20
27.0
 30
0.0
 11
98.0
 21
10.0
 31
0.0
  0
LINE
  5
8B
330
48
100
AcDbEntity
  8
1
  6
Continuous
 62
     2
100
AcDbLine
 10
166.0
 20
20.0
 30
0.0
 11
200.0
 21
20.0
 31
0.0
  0
LINE
  5
8C
330
48
100
AcDbEntity
  8
1
  6
Continuous
 62
     2
100
AcDbLine
 10
105.0
 20
287.0
 30
0.0
 11
105.0
 21
292.0
 31
0.0
  0
LINE
  5
8D
330
48
100
AcDbEntity
  8
1
  6
Continuous
 62
     7
100
AcDbLine
 10
105.0
 20
287.0
 30
0.0
 11
25.0
 21
287.0
 31
0.0
  0
LINE
  5
8E
330
48
100
AcDbEntity
  8
1
  6
Continuous
 62
     2
100
AcDbLine
 10
25.0
 20
148.5
 30
0.0
 11
20.0
 21
148.5
 31
0.0
  0
LINE
  5
8F
330
48
100
AcDbEntity
  8
1
  6
Continuous
 62
     7
100
AcDbLine
 10
25.0
 20
148.5
 30
0.0
 11
25.0
 21
287.0
 31
0.0
  0
LINE
  5
90
330
48
100
AcDbEntity
  8
1
  6
Continuous
 62
     2
100
AcDbLine
 10
200.0
 20
148.5
 30
0.0
 11
205.0
 21
148.5
 31
0.0
  0
LINE
  5
91
330
48
100
AcDbEntity
  8
1
  6
Continuous
 62
     7
100
AcDbLine
 10
200.0
 20
148.5
 30
0.0
 11
200.0
 21
287.0
 31
0.0
  0
LINE
  5
92
330
48
100
AcDbEntity
  8
1
  6
Continuous
 62
     2
100
AcDbLine
 10
105.0
 20
10.0
 30
0.0
 11
105.0
 21
5.0
 31
0.0
  0
LINE
  5
93
330
48
100
AcDbEntity
  8
1
  6
Continuous
 62
     7
100
AcDbLine
 10
105.0
 20
10.0
 30
0.0
 11
200.0
 21
10.0
 31
0.0
  0
CIRCLE
  5
98
330
48
100
AcDbEntity
  8
1
  6
DOT_CENTER
 62
     7
100
AcDbCircle
 10
89.5
 20
18.0
 30
0.0
 40
0.0999999999999091
  0
CIRCLE
  5
99
330
48
100
AcDbEntity
  8
1
  6
DOT_CENTER
 62
     7
100
AcDbCircle
 10
89.5
 20
16.0
 30
0.0
 40
0.0999999999999091
  0
CIRCLE
  5
9A
330
48
100
AcDbEntity
  8
1
  6
Continuous
 62
     7
100
AcDbCircle
 10
187.0
 20
23.5
 30
0.0
 40
2.0
  0
CIRCLE
  5
9B
330
48
100
AcDbEntity
  8
1
  6
Continuous
 62
     7
100
AcDbCircle
 10
187.0
 20
23.5
 30
0.0
 40
1.19999999999979
  0
CIRCLE
  5
9C
330
48
100
AcDbEntity
  8
1
  6
Continuous
 62
     7
100
AcDbCircle
 10
154.5
 20
12.5
 30
0.0
 40
0.2999999999996987
  0
CIRCLE
  5
9D
330
48
100
AcDbEntity
  8
1
  6
Continuous
 62
     7
100
AcDbCircle
 10
160.5
 20
12.5
 30
0.0
 40
0.2999999999996987
  0
CIRCLE
  5
9E
330
48
100
AcDbEntity
  8
1
  6
Continuous
 62
     7
100
AcDbCircle
 10
143.5
 20
12.5
 30
0.0
 40
0.2999999999996987
  0
CIRCLE
  5
9F
330
48
100
AcDbEntity
  8
1
  6
Continuous
 62
     7
100
AcDbCircle
 10
137.5
 20
12.5
 30
0.0
 40
0.2999999999996987
  0
CIRCLE
  5
A0
330
48
100
AcDbEntity
  8
1
  6
Continuous
 62
     7
100
AcDbCircle
 10
126.5
 20
12.5
 30
0.0
 40
0.2999999999996987
  0
CIRCLE
  5
A1
330
48
100
AcDbEntity
  8
1
  6
Continuous
 62
     7
100
AcDbCircle
 10
120.5
 20
12.5
 30
0.0
 40
0.2999999999996987
  0
CIRCLE
  5
A2
330
48
100
AcDbEntity
  8
1
  6
Continuous
 62
     7
100
AcDbCircle
 10
109.5
 20
12.5
 30
0.0
 40
0.2999999999996987
  0
CIRCLE
  5
A3
330
48
100
AcDbEntity
  8
1
  6
Continuous
 62
     7
100
AcDbCircle
 10
103.5
 20
12.5
 30
0.0
 40
0.2999999999996987
  0
SPLINE
  5
A4
102
{ACAD_REACTORS
330
C2
102
}
330
48
100
AcDbEntity
  8
_U_30EC_U_30A4_U_30E4_U_30FC_1
  6
Continuous
 62
     2
100
AcDbSpline
210
0.0
220
0.0
230
1.0
 70
    11
 71
     3
 72
    99
 73
    95
 74
    93
 42
0.000000001
 43
0.0000000001
 44
0.00000001
 40
0.0
 40
0.0
 40
0.0
 40
0.0
 40
0.0796417172277258
 40
0.1621768542362096
 40
0.2486489160961733
 40
0.3404969668531597
 40
0.438191251117265
 40
0.5434463660251565
 40
0.651811519285258
 40
0.7530190937894334
 40
0.8492196919730735
 40
0.9419290313002529
 40
1.034249663570775
 40
1.129078600620798
 40
1.226697027573849
 40
1.327220425422316
 40
1.470572134938521
 40
1.595489863371656
 40
1.719934125348733
 40
1.850576620128489
 40
1.989059629987927
 40
2.134139054227525
 40
2.280698007207516
 40
2.42452973904006
 40
2.565929576986437
 40
2.70823926077398
 40
2.861717887443885
 40
3.045168540347754
 40
3.18379830113899
 40
3.31481396145675
 40
3.442083470447264
 40
3.569912708373264
 40
3.702177512509438
 40
3.842307559659565
 40
3.992872223245688
 40
4.156750662218507
 40
4.310981861107473
 40
4.445859909322665
 40
4.572393936131555
 40
4.70165671978152
 40
4.768279086008282
 40
4.83596069789812
 40
4.912788918728748
 40
5.006285208480777
 40
5.026909478751166
 40
5.047533749021043
 40
5.101808031470817
 40
5.162325165537896
 40
5.226919745994745
 40
5.294231806595615
 40
5.364544852553927
 40
5.438319055466903
 40
5.517877651323534
 40
5.607647714861181
 40
5.700449642543836
 40
5.788251142363151
 40
5.872714706038982
 40
5.955167292574314
 40
6.037192395189972
 40
6.120669181469048
 40
6.20684861668581
 40
6.296680855415955
 40
6.44255839287211
 40
6.568190371607566
 40
6.692904567359701
 40
6.824220446556835
 40
6.96312185032912
 40
7.10784373885137
 40
7.253431663907172
 40
7.395187468036498
 40
7.533140753237273
 40
7.670550457174961
 40
7.816236511768524
 40
7.98769165735887
 40
8.142277421969009
 40
8.293662615414647
 40
8.442962460878384
 40
8.591598316185356
 40
8.743678992361085
 40
8.903725323698172
 40
9.076307008890211
 40
9.265578604679812
 40
9.459203795359759
 40
9.61761981027319
 40
9.753609671361556
 40
9.874873300003934
 40
9.954520184977893
 40
10.02416413719295
 40
10.09769764405497
 40
10.18909955925019
 40
10.20974586420161
 40
10.23039218263384
 40
10.30057101881271
 40
10.37632012987558
 40
10.37632012987558
 40
10.37632012987558
 40
10.37632012987558
 10
170.1465954835849
 20
14.13795663216024
 30
0.0
 10
170.1632217851217
 20
14.11720608845324
 30
0.0
 10
170.1970784206576
 20
14.07495111711886
 30
0.0
 10
170.2599822541042
 20
14.02029811392124
 30
0.0
 10
170.3332500940393
 20
13.97299025121002
 30
0.0
 10
170.4175969238643
 20
13.93527231438014
 30
0.0
 10
170.5132240615463
 20
13.91040619731894
 30
0.0
 10
170.617185377535
 20
13.90309559345908
 30
0.0
 10
170.7224020220409
 20
13.91142322794029
 30
0.0
 10
170.8206626371336
 20
13.94149179651534
 30
0.0
 10
170.905898642755
 20
13.98848822971883
 30
0.0
 10
170.977922020611
 20
14.04952991250802
 30
0.0
 10
171.0350917709094
 20
14.12412969578611
 30
0.0
 10
171.0767868747438
 20
14.21002464660197
 30
0.0
 10
171.102695284629
 20
14.30485850432233
 30
0.0
 10
171.1118037332655
 20
14.41854979038379
 30
0.0
 10
171.0986864796489
 20
14.54332587770801
 30
0.0
 10
171.0325330334408
 20
14.66014719171851
 30
0.0
 10
170.936937091957
 20
14.74512539577413
 30
0.0
 10
170.8249681022372
 20
14.81416684459282
 30
0.0
 10
170.6993659583267
 20
14.87204142045895
 30
0.0
 10
170.565669162086
 20
14.92373723284403
 30
0.0
 10
170.431312281883
 20
14.97899092397155
 30
0.0
 10
170.305198398688
 20
15.04939770641687
 30
0.0
 10
170.1926579987532
 20
15.13785540731228
 30
0.0
 10
170.0969963064466
 20
15.24981067868522
 30
0.0
 10
170.0334157151826
 20
15.39949910101387
 30
0.0
 10
170.0200706505024
 20
15.55932794385164
 30
0.0
 10
170.0320510987453
 20
15.71048405306891
 30
0.0
 10
170.0712298928834
 20
15.83809244591612
 30
0.0
 10
170.135498775091
 20
15.95080874030894
 30
0.0
 10
170.2238204999745
 20
16.04648609268612
 30
0.0
 10
170.3338091207625
 20
16.12354214985792
 30
0.0
 10
170.4632284401267
 20
16.18151396936187
 30
0.0
 10
170.6111838967791
 20
16.2173917758888
 30
0.0
 10
170.7682069455485
 20
16.2274671905053
 30
0.0
 10
170.917494046643
 20
16.21863637762554
 30
0.0
 10
171.0596253614171
 20
16.19074899340393
 30
0.0
 10
171.1595922609623
 20
16.13413314701117
 30
0.0
 10
171.3125074736178
 20
16.08674602105537
 30
0.0
 10
171.2455131717169
 20
16.00197553001174
 30
0.0
 10
171.2296479120276
 20
15.93438901873461
 30
0.0
 10
171.19787505313
 20
15.86926092793189
 30
0.0
 10
171.2150202209572
 20
15.76723453256976
 30
0.0
 10
171.1666427208229
 20
15.77493211681939
 30
0.0
 10
171.1315789440762
 20
15.76806771724831
 30
0.0
 10
171.1296697985715
 20
15.83263831158203
 30
0.0
 10
171.0985692931986
 20
15.87825639621375
 30
0.0
 10
171.0664551628458
 20
15.93561036628439
 30
0.0
 10
171.020803847517
 20
15.98540462692524
 30
0.0
 10
170.965850821839
 20
16.02994813718992
 30
0.0
 10
170.901084117301
 20
16.06763988836542
 30
0.0
 10
170.8232377310599
 20
16.09283375791394
 30
0.0
 10
170.7355160553352
 20
16.0993123099808
 30
0.0
 10
170.6452903277806
 20
16.09235709285596
 30
0.0
 10
170.5594594694068
 20
16.06909190460873
 30
0.0
 10
170.4828343638594
 20
16.03131644107642
 30
0.0
 10
170.4165265636202
 20
15.98051641089577
 30
0.0
 10
170.362256053696
 20
15.91731143407232
 30
0.0
 10
170.3224925345459
 20
15.84276455710347
 30
0.0
 10
170.2976775510586
 20
15.75917313997768
 30
0.0
 10
170.2892124262868
 20
15.651929483823
 30
0.0
 10
170.3019697987104
 20
15.52965457267585
 30
0.0
 10
170.368154840927
 20
15.41149724291222
 30
0.0
 10
170.4640977399829
 20
15.32606325709502
 30
0.0
 10
170.5757914963191
 20
15.25583362306877
 30
0.0
 10
170.7010863668705
 20
15.19659162305283
 30
0.0
 10
170.8349823941453
 20
15.14616708086118
 30
0.0
 10
170.9689930333154
 20
15.0932251698437
 30
0.0
 10
171.0950885316917
 20
15.02750170625157
 30
0.0
 10
171.2076216638419
 20
14.94480352537307
 30
0.0
 10
171.3031370284231
 20
14.8399600631006
 30
0.0
 10
171.3672706486964
 20
14.69937117251564
 30
0.0
 10
171.3811103725281
 20
14.54065409451584
 30
0.0
 10
171.3673954712227
 20
14.38153155217852
 30
0.0
 10
171.3244739153977
 20
14.23483828819233
 30
0.0
 10
171.2545906329066
 20
14.10119796587109
 30
0.0
 10
171.1574592213826
 20
13.98532387699298
 30
0.0
 10
171.0347806023657
 20
13.89089981770065
 30
0.0
 10
170.8874408413166
 20
13.82179270652025
 30
0.0
 10
170.7177132497125
 20
13.77953210858813
 30
0.0
 10
170.5317404979597
 20
13.76781736230394
 30
0.0
 10
170.3528955926183
 20
13.77809486683392
 30
0.0
 10
170.1881733753744
 20
13.81966573769202
 30
0.0
 10
170.0834410841052
 20
13.88797642883932
 30
0.0
 10
169.9350960790356
 20
13.93675219032109
 30
0.0
 10
169.9980378194729
 20
14.02976591290853
 30
0.0
 10
170.0072274430059
 20
14.10296536248313
 30
0.0
 10
170.0303711301235
 20
14.16936294501384
 30
0.0
 10
170.0034588335317
 20
14.26974809527612
 30
0.0
 10
170.0521338956338
 20
14.2623403351742
 30
0.0
 10
170.0916530580694
 20
14.26894063620925
 30
0.0
 10
170.0996204944706
 20
14.19078703219004
 30
0.0
 10
170.1305436967922
 20
14.15600927375901
 30
0.0
 10
170.1465954835849
 20
14.13795663216024
 30
0.0
 11
170.1465954835849
 21
14.13795663216024
 31
0.0
 11
170.1982038075865
 21
14.07729869814727
 31
0.0
 11
170.260110550134
 21
14.02271295163337
 31
0.0
 11
170.3327764009803
 21
13.9758398092838
 31
0.0
 11
170.4166468655849
 21
13.93839906276571
 31
0.0
 11
170.5112210732415
 21
13.91390636311848
 31
0.0
 11
170.6161603327169
 21
13.90575829888439
 31
0.0
 11
170.7240739497554
 21
13.91564048638202
 31
0.0
 11
170.820841994162
 21
13.94528704887489
 31
0.0
 11
170.9050776083321
 21
13.99175118948813
 31
0.0
 11
170.975614420769
 21
14.05191413218108
 31
0.0
 11
171.031944210998
 21
14.12505819466344
 31
0.0
 11
171.0736690016001
 21
14.21021434047543
 31
0.0
 11
171.099468080803
 21
14.30436190989633
 31
0.0
 11
171.1080824729447
 21
14.40451552098239
 31
0.0
 11
171.0878517703358
 21
14.54643250879405
 31
0.0
 11
171.0272522666728
 21
14.65566684036367
 31
0.0
 11
170.9364971286288
 21
14.74081306430117
 31
0.0
 11
170.8260101884739
 21
14.81052746532623
 31
0.0
 11
170.7008523531255
 21
14.86979854169954
 31
0.0
 11
170.5662951950999
 21
14.9240425347416
 31
0.0
 11
170.4316884277009
 21
14.98201274305995
 31
0.0
 11
170.3065802017259
 21
15.05297399304254
 31
0.0
 11
170.1960276098279
 21
15.141133159687
 31
0.0
 11
170.105338123527
 21
15.25080295132648
 31
0.0
 11
170.0447055469488
 21
15.39179720476318
 31
0.0
 11
170.024507917256
 21
15.57413260402336
 31
0.0
 11
170.037403047135
 21
15.71216131926667
 31
0.0
 11
170.076101665939
 21
15.83733128451422
 31
0.0
 11
170.1393141731503
 21
15.94779262129077
 31
0.0
 11
170.2257499954549
 21
16.04196885390593
 31
0.0
 11
170.3336492808962
 21
16.11846540770648
 31
0.0
 11
170.4613526283329
 21
16.17615670109444
 31
0.0
 11
170.6075393259919
 21
16.21220066809985
 31
0.0
 11
170.7709768565451
 21
16.22421385386042
 31
0.0
 11
170.9248918431288
 21
16.21434269066845
 31
0.0
 11
171.0564887242608
 21
16.18477329831512
 31
0.0
 11
171.1725636344939
 21
16.13439993895247
 31
0.0
 11
171.2800792741118
 21
16.06264163167907
 31
0.0
 11
171.2516994050444
 21
16.00236624106867
 31
0.0
 11
171.2284855254288
 21
15.93879017337622
 31
0.0
 11
171.2078381040804
 21
15.86478841992278
 31
0.0
 11
171.1871840681488
 21
15.7736019789736
 31
0.0
 11
171.1665597978413
 21
15.7736019789736
 31
0.0
 11
171.1459355275338
 21
15.7736019789736
 31
0.0
 11
171.1256706495788
 21
15.82395108486355
 31
0.0
 11
171.0994658759419
 21
15.8785004511692
 31
0.0
 11
171.0650468924454
 21
15.9331611629608
 31
0.0
 11
171.020355461294
 21
15.98349593725379
 31
0.0
 11
170.9657333359514
 21
16.02777175321523
 31
0.0
 11
170.901672200433
 21
16.06436142334496
 31
0.0
 11
170.8259682961142
 21
16.08882545979748
 31
0.0
 11
170.7365722046447
 21
16.09701100667007
 31
0.0
 11
170.6440937174207
 21
16.08926973931079
 31
0.0
 11
170.5594072091649
 21
16.06609003445556
 31
0.0
 11
170.4837024488838
 21
16.02863495634062
 31
0.0
 11
170.4183754766518
 21
15.97832774281142
 31
0.0
 11
170.3650487887662
 21
15.91600293379884
 31
0.0
 11
170.3254809233899
 21
15.84249947895569
 31
0.0
 11
170.300952375471
 21
15.759884435574
 31
0.0
 11
170.2927954104107
 21
15.67042329844389
 31
0.0
 11
170.3130095765617
 21
15.52595308146578
 31
0.0
 11
170.3736256166817
 21
15.41591177072951
 31
0.0
 11
170.4643479320756
 21
15.33033670130647
 31
0.0
 11
170.574867694882
 21
15.25941954854716
 31
0.0
 11
170.7000089937723
 21
15.19914305550594
 31
0.0
 11
170.834582688256
 21
15.14590447912997
 31
0.0
 11
170.9691729191972
 21
15.09039489581062
 31
0.0
 11
171.09429768163
 21
15.02377281249392
 31
0.0
 11
171.2048009079771
 21
14.94118863716744
 31
0.0
 11
171.2955397598289
 21
14.83800003476245
 31
0.0
 11
171.3561557999489
 21
14.70552315979603
 31
0.0
 11
171.3763699660999
 21
14.53526378483821
 31
0.0
 11
171.3621839747996
 21
14.38133030397387
 31
0.0
 11
171.3196087009187
 21
14.23605531269095
 31
0.0
 11
171.2499752884266
 21
14.10398854189089
 31
0.0
 11
171.1544992078707
 21
13.99007218775205
 31
0.0
 11
171.0341060772624
 21
13.89715272597016
 31
0.0
 11
170.8896160201848
 21
13.82832357668212
 31
0.0
 11
170.722351953271
 21
13.78581275203942
 31
0.0
 11
170.5336103348227
 21
13.77165864614017
 31
0.0
 11
170.340503172639
 21
13.78581275203942
 31
0.0
 11
170.1878975900909
 21
13.82832357668212
 31
0.0
 11
170.0661897942199
 21
13.88899033013888
 31
0.0
 11
169.9660261826357
 21
13.95734322942735
 31
0.0
 11
169.9922320587037
 21
14.03255545163086
 31
0.0
 11
170.0090121537619
 21
14.10014767383655
 31
0.0
 11
170.0206196447854
 21
14.17275926236005
 31
0.0
 11
170.031360625414
 21
14.26352788212898
 31
0.0
 11
170.0520069443315
 21
14.26352788212898
 31
0.0
 11
170.0726532632489
 21
14.26352788212898
 31
0.0
 11
170.104891639163
 21
14.20119204881144
 31
0.0
 11
170.1465954835849
 21
14.13795663216024
 31
0.0
  0
SPLINE
  5
A5
102
{ACAD_REACTORS
330
C3
102
}
330
48
100
AcDbEntity
  8
_U_30EC_U_30A4_U_30E4_U_30FC_1
  6
Continuous
 62
     2
100
AcDbSpline
210
0.0
220
0.0
230
1.0
 70
    11
 71
     3
 72
    57
 73
    53
 74
    51
 42
0.000000001
 43
0.0000000001
 44
0.00000001
 40
0.0
 40
0.0
 40
0.0
 40
0.0
 40
0.0471632082814805
 40
0.09148610546446
 40
0.135776251971171
 40
0.1826527001618299
 40
0.2295203288577934
 40
0.2737751972226103
 40
0.3181310461547053
 40
0.3652607198399592
 40
0.4571007286313229
 40
0.5671851029159881
 40
0.6894623283867674
 40
0.818175827254638
 40
0.9510087229279062
 40
1.085852229674266
 40
1.218126164475491
 40
1.343545131143378
 40
1.454537202957258
 40
1.567187607531292
 40
1.680710966643054
 40
1.794226869737674
 40
1.900009184248075
 40
2.004085860447844
 40
2.108162674451899
 40
2.214000150155559
 40
2.496038577353198
 40
2.762350745480715
 40
2.997275353280753
 40
3.18511008213852
 40
3.246407890065003
 40
3.312607550213965
 40
3.378877742712956
 40
3.440140399652584
 40
4.100501696007435
 40
4.754913085563765
 40
5.411331693424825
 40
6.077890432569466
 40
6.110575292671432
 40
6.143260152775928
 40
6.367989363395026
 40
6.610525374951457
 40
6.863389136467418
 40
7.119380025547871
 40
7.376036605091288
 40
7.631164770966288
 40
7.876722425456526
 40
8.104953735855684
 40
8.312916685924504
 40
8.4977302949417
 40
8.651018984313843
 40
8.76473885362454
 40
8.76473885362454
 40
8.76473885362454
 40
8.76473885362454
 10
174.792264950052
 20
13.81626739612966
 30
0.0
 10
174.7766616726935
 20
13.81826231079101
 30
0.0
 10
174.7463947960302
 20
13.82213201360292
 30
0.0
 10
174.701099420225
 20
13.82341984967297
 30
0.0
 10
174.6559553129345
 20
13.8230868355407
 30
0.0
 10
174.6099017123398
 20
13.82314658674246
 30
0.0
 10
174.5640496172097
 20
13.8232581365002
 30
0.0
 10
174.5183711648166
 20
13.82277833456621
 30
0.0
 10
174.475081154161
 20
13.82461109618711
 30
0.0
 10
174.403994795152
 20
13.80049556814732
 30
0.0
 10
174.4057477261443
 20
13.92184693977235
 30
0.0
 10
174.358619637057
 20
14.00726239751222
 30
0.0
 10
174.3191478251762
 20
14.12486929345124
 30
0.0
 10
174.270663553265
 20
14.24232752540485
 30
0.0
 10
174.2201017402519
 20
14.36405935761532
 30
0.0
 10
174.1718634610476
 20
14.49075967862507
 30
0.0
 10
174.1135232947591
 20
14.59933687784983
 30
0.0
 10
174.098089266726
 20
14.7562065713453
 30
0.0
 10
173.9566586330635
 20
14.72373446548309
 30
0.0
 10
173.8508397414904
 20
14.73512888682175
 30
0.0
 10
173.7358569725221
 20
14.73392591514619
 30
0.0
 10
173.6253142252139
 20
14.73506945347395
 30
0.0
 10
173.5176583522784
 20
14.7341835003753
 30
0.0
 10
173.4121322529246
 20
14.73416602390512
 30
0.0
 10
173.3109192682017
 20
14.72714032472402
 30
0.0
 10
173.1266804827754
 20
14.75135859860061
 30
0.0
 10
173.115739368541
 20
14.44741691121892
 30
0.0
 10
173.0087691634746
 20
14.22353177253432
 30
0.0
 10
172.9098148604347
 20
14.03895314292479
 30
0.0
 10
172.9225090524011
 20
13.79530204804288
 30
0.0
 10
172.8050091716399
 20
13.82508046753187
 30
0.0
 10
172.7422055868311
 20
13.82258089509642
 30
0.0
 10
172.67858720934
 20
13.82344075102795
 30
0.0
 10
172.3946014194075
 20
13.7809803994215
 30
0.0
 10
173.025163849938
 20
14.50081952444718
 30
0.0
 10
173.108764528907
 20
15.01276539435738
 30
0.0
 10
173.4929252789332
 20
15.53353743550051
 30
0.0
 10
173.4777208288569
 20
16.2351962625318
 30
0.0
 10
173.7239265722699
 20
16.22345633081238
 30
0.0
 10
173.825634615756
 20
16.23225004452745
 30
0.0
 10
173.824975203582
 20
15.98059650730356
 30
0.0
 10
173.9428317155827
 20
15.79818020733958
 30
0.0
 10
174.0315515260484
 20
15.55563740662857
 30
0.0
 10
174.1322292485258
 20
15.32340030530102
 30
0.0
 10
174.2311142712245
 20
15.08674644566908
 30
0.0
 10
174.3299676990679
 20
14.85461739170128
 30
0.0
 10
174.4256166390926
 20
14.63122222788798
 30
0.0
 10
174.5159904573275
 20
14.4227254904933
 30
0.0
 10
174.5989944568189
 20
14.23308448529309
 30
0.0
 10
174.6726088582801
 20
14.06663106068087
 30
0.0
 10
174.7342815895548
 20
13.92917699626097
 30
0.0
 10
174.7749458885609
 20
13.84999239430064
 30
0.0
 10
174.792264950052
 20
13.81626739612966
 30
0.0
 11
174.792264950052
 21
13.81626739612966
 31
0.0
 11
174.7453878317448
 21
13.82145433189191
 31
0.0
 11
174.7010975896119
 21
13.82315538223884
 31
0.0
 11
174.6568074431726
 21
13.82315538223884
 31
0.0
 11
174.6099309947158
 21
13.82315538223884
 31
0.0
 11
174.5630633657034
 21
13.82315538223884
 31
0.0
 11
174.5188084970409
 21
13.82315538223884
 31
0.0
 11
174.4744852776856
 21
13.82145433189191
 31
0.0
 11
174.4276419021448
 21
13.81626739612966
 31
0.0
 11
174.3992532136328
 21
13.9036096617325
 31
0.0
 11
174.36227218159
 21
14.0072965627478
 31
0.0
 11
174.3188386236702
 21
14.12159987001132
 31
0.0
 11
174.2711055866939
 21
14.24113531268995
 31
0.0
 11
174.2208160133234
 21
14.36408057307619
 31
0.0
 11
174.1696467003931
 21
14.48883822929474
 31
0.0
 11
174.1197531801324
 21
14.61134141502794
 31
0.0
 11
174.0733119111837
 21
14.72784517368018
 31
0.0
 11
173.962361190759
 21
14.73087465284516
 31
0.0
 11
173.849730922509
 21
14.73300454867785
 31
0.0
 11
173.7362152069448
 21
14.7343219531914
 31
0.0
 11
173.6227000476797
 21
14.73473315978845
 31
0.0
 11
173.5169185312816
 21
14.7343219531914
 31
0.0
 11
173.4128501919231
 21
14.73300454867785
 31
0.0
 11
173.3087951724049
 21
14.73087465284516
 31
0.0
 11
173.2030010615599
 21
14.72784517368018
 31
0.0
 11
173.0980914750137
 21
14.46604437513383
 31
0.0
 11
173.0034868690327
 21
14.21710232658461
 31
0.0
 11
172.9252231210298
 21
13.99559756969552
 31
0.0
 11
172.869343122456
 21
13.81626739612966
 31
0.0
 11
172.8082651639444
 21
13.82145433189191
 31
0.0
 11
172.742087361813
 21
13.82315538223884
 31
0.0
 11
172.6758390041281
 21
13.82145433189191
 31
0.0
 11
172.6147963233939
 21
13.81626739612966
 31
0.0
 11
172.889968495193
 21
14.41656508695166
 31
0.0
 11
173.1582945734167
 21
15.01343642360735
 31
0.0
 11
173.4240277350402
 21
15.6136624564441
 31
0.0
 11
173.6914740737038
 21
16.22421385386042
 31
0.0
 11
173.7241589339808
 21
16.22421385386042
 31
0.0
 11
173.7568437942578
 21
16.22421385386042
 31
0.0
 11
173.8428300681057
 21
16.016585390371
 31
0.0
 11
173.9357285813608
 21
15.79254614563524
 31
0.0
 11
174.0328714521463
 21
15.55908663180457
 31
0.0
 11
174.1317936458031
 21
15.32298128464117
 31
0.0
 11
174.231534124993
 21
15.08649780379778
 31
0.0
 11
174.331307112936
 21
14.85168781253742
 31
0.0
 11
174.4280608257451
 21
14.62599492196853
 31
0.0
 11
174.5188084970409
 21
14.41658052097955
 31
0.0
 11
174.6022150834547
 21
14.22607611130445
 31
0.0
 11
174.677029326338
 21
14.05708232662437
 31
0.0
 11
174.7410729186606
 21
13.91781337700684
 31
0.0
 11
174.792264950052
 21
13.81626739612966
 31
0.0
  0
SPLINE
  5
A6
102
{ACAD_REACTORS
330
C3
102
}
330
48
100
AcDbEntity
  8
_U_30EC_U_30A4_U_30E4_U_30FC_1
  6
Continuous
 62
     2
100
AcDbSpline
210
0.0
220
0.0
230
1.0
 70
    11
 71
     3
 72
    25
 73
    21
 74
    19
 42
0.000000001
 43
0.0000000001
 44
0.00000001
 40
0.0
 40
0.0
 40
0.0
 40
0.0
 40
0.0911479969062262
 40
0.1858117896202842
 40
0.2804128399736746
 40
0.3715889190716778
 40
0.4679080494219268
 40
0.5642683809233208
 40
0.6605683222643923
 40
0.7569653015803429
 40
0.8561348172516141
 40
1.09261596510365
 40
1.374867658141272
 40
1.611348812011003
 40
1.710518328424663
 40
1.809403163726059
 40
2.045205463293742
 40
2.326646917621995
 40
2.562449217190649
 40
2.661334043834035
 40
2.661334043834035
 40
2.661334043834035
 40
2.661334043834035
 10
173.26837005672
 20
14.88614538197271
 30
0.0
 10
173.2987525917922
 20
14.88598079714528
 30
0.0
 10
173.360689588911
 20
14.88564528689885
 30
0.0
 10
173.4541356960331
 20
14.88269055452051
 30
0.0
 10
173.5475095236358
 20
14.87977752877125
 30
0.0
 10
173.6417760753479
 20
14.8789420164339
 30
0.0
 10
173.7354964790969
 20
14.87996644658013
 30
0.0
 10
173.8352040303207
 20
14.87916977470931
 30
0.0
 10
173.9188949546313
 20
14.88921410235237
 30
0.0
 10
174.0637996315039
 20
14.86234617674148
 30
0.0
 10
173.9396132444795
 20
15.0366553028005
 30
0.0
 10
173.896586728628
 20
15.19651711006087
 30
0.0
 10
173.780892214221
 20
15.45518458550232
 30
0.0
 10
173.701756543126
 20
15.59231052861888
 30
0.0
 10
173.6431576621821
 20
15.80937033134118
 30
0.0
 10
173.5864803939442
 20
15.59266134213452
 30
0.0
 10
173.505280990048
 20
15.45327012438256
 30
0.0
 10
173.4063701281491
 20
15.20406969370192
 30
0.0
 10
173.325362509426
 20
15.01925830226063
 30
0.0
 10
173.2813683325839
 20
14.91650446856097
 30
0.0
 10
173.26837005672
 20
14.88614538197271
 30
0.0
 11
173.26837005672
 21
14.88614538197271
 31
0.0
 11
173.3595137737818
 21
14.8852612326674
 31
0.0
 11
173.454142829758
 21
14.88269697919623
 31
0.0
 11
173.5487082179709
 21
14.88009965280764
 31
0.0
 11
173.6398803250199
 21
14.87924857641883
 31
0.0
 11
173.7361985777707
 21
14.87965978301588
 31
0.0
 11
173.8325499034381
 21
14.88097718752943
 31
0.0
 11
173.9288262638286
 21
14.88310818579316
 31
0.0
 11
174.0251753846337
 21
14.88614538197271
 31
0.0
 11
173.9854633323136
 21
14.97701642195005
 31
0.0
 11
173.8907653613966
 21
15.19370890189602
 31
0.0
 11
173.7777387509472
 21
15.45234186183153
 31
0.0
 11
173.6830407800301
 21
15.66903434177749
 31
0.0
 11
173.64332872771
 21
15.75990538175483
 31
0.0
 11
173.604333025927
 21
15.66903434177749
 31
0.0
 11
173.5113432755215
 21
15.45234186183152
 31
0.0
 11
173.4003555089085
 21
15.19370890189602
 31
0.0
 11
173.307365758503
 21
14.97701642195005
 31
0.0
 11
173.26837005672
 21
14.88614538197271
 31
0.0
  0
SPLINE
  5
A7
102
{ACAD_REACTORS
330
C4
102
}
330
48
100
AcDbEntity
  8
_U_30EC_U_30A4_U_30E4_U_30FC_1
  6
Continuous
 62
     2
100
AcDbSpline
210
0.0
220
0.0
230
1.0
 70
    11
 71
     3
 72
    95
 73
    91
 74
    89
 42
0.000000001
 43
0.0000000001
 44
0.00000001
 40
0.0
 40
0.0
 40
0.0
 40
0.0
 40
0.6550406656909784
 40
1.308087289032394
 40
1.420803739836561
 40
1.56613075977172
 40
1.757067341889078
 40
2.006513545027297
 40
2.087328263122075
 40
2.185328872296306
 40
2.294612454748914
 40
2.408936380535426
 40
2.526802767798925
 40
2.646360524615116
 40
2.762535723972119
 40
2.870057342870756
 40
2.966883448432125
 40
3.05080324351924
 40
3.115818222437299
 40
3.156030057150607
 40
3.213914225080593
 40
3.276689026451083
 40
3.342960320981864
 40
3.404230667150575
 40
3.453822809492981
 40
3.532499827188375
 40
3.63477518850671
 40
3.754909333007567
 40
3.889736761660366
 40
4.035769602175098
 40
4.187256681197226
 40
4.3387336856759
 40
4.488478734675889
 40
4.634708317830782
 40
4.771493189920795
 40
4.892686571560796
 40
5.199775528943988
 40
5.460353566929248
 40
5.667603142345177
 40
5.814722905403821
 40
5.828990806219119
 40
5.855488336303646
 40
5.869756237117921
 40
6.189796507761448
 40
6.531890469871564
 40
6.883053637015604
 40
7.23051202491034
 40
7.566966656763466
 40
7.885203559705957
 40
8.172887439717655
 40
8.418011594061584
 40
8.44392672118948
 40
8.510760470611908
 40
8.602145393794334
 40
8.701714041645682
 40
8.79309896507383
 40
8.85993271505634
 40
8.885847842601965
 40
9.242301256611402
 40
9.589275455015187
 40
9.921808543163165
 40
10.23479624298343
 40
10.29968150889095
 40
10.35323493887643
 40
10.40154625355035
 40
10.46482922477741
 40
10.55973900668327
 40
10.69239545985485
 40
10.84920353475608
 40
11.0162632859469
 40
11.18672024367392
 40
11.35372582577167
 40
11.50257442292353
 40
11.61866495023094
 40
11.71329869152796
 40
11.82511050573869
 40
11.94464880845608
 40
12.06929242642463
 40
12.19707290435094
 40
12.32562632860431
 40
12.45034565331156
 40
12.56646595170262
 40
12.67099007414574
 40
12.76077625936714
 40
12.82703233506639
 40
12.87429132785941
 40
12.89831990323238
 40
12.92234847859881
 40
13.53984767410221
 40
14.18294284359274
 40
14.18294284359274
 40
14.18294284359274
 40
14.18294284359274
 10
177.3067935648019
 20
14.70898038201722
 30
0.0
 10
177.1752019758551
 20
14.8226505860323
 30
0.0
 10
176.9124193802731
 20
15.04964496316172
 30
0.0
 10
176.3997393441002
 20
15.89214462956349
 30
0.0
 10
176.4106654595365
 20
15.53423377577021
 30
0.0
 10
176.4041226527989
 20
15.39267392272133
 30
0.0
 10
176.4028026631776
 20
15.19421305299277
 30
0.0
 10
176.4018117602543
 20
15.02150296045992
 30
0.0
 10
176.4024101751979
 20
14.87865373257587
 30
0.0
 10
176.4038994301887
 20
14.78265005413376
 30
0.0
 10
176.4055683588473
 20
14.67545503263155
 30
0.0
 10
176.4071934954618
 20
14.56164211517606
 30
0.0
 10
176.4092429501689
 20
14.44441572604648
 30
0.0
 10
176.4123165501917
 20
14.32656411233028
 30
0.0
 10
176.4156339697048
 20
14.21228087320675
 30
0.0
 10
176.4193605340276
 20
14.10521401867297
 30
0.0
 10
176.4217338161428
 20
14.0100740876693
 30
0.0
 10
176.4278718888366
 20
13.92558557205705
 30
0.0
 10
176.4239784495946
 20
13.8692308729814
 30
0.0
 10
176.4455230443078
 20
13.79825022472401
 30
0.0
 10
176.3680940058617
 20
13.82902677604472
 30
0.0
 10
176.311635324019
 20
13.82011242517652
 30
0.0
 10
176.2540495896807
 20
13.82896218398263
 30
0.0
 10
176.169016347848
 20
13.79738225226008
 30
0.0
 10
176.200971414638
 20
13.88095155992223
 30
0.0
 10
176.199070528253
 20
13.94882608968333
 30
0.0
 10
176.2107960047302
 20
14.05233256764424
 30
0.0
 10
176.2164241053003
 20
14.17002125616693
 30
0.0
 10
176.2237902178942
 20
14.30388609164433
 30
0.0
 10
176.2320759701614
 20
14.44764152872649
 30
0.0
 10
176.2398851897424
 20
14.59714022843471
 30
0.0
 10
176.2457571222666
 20
14.74792549402098
 30
0.0
 10
176.2503667817971
 20
14.89699943878444
 30
0.0
 10
176.2542632117542
 20
15.04122913163016
 30
0.0
 10
176.2570715126558
 20
15.17583905213007
 30
0.0
 10
176.2576698755017
 20
15.36469614347354
 30
0.0
 10
176.2616023867141
 20
15.58975494313157
 30
0.0
 10
176.2442175378505
 20
15.86367091125715
 30
0.0
 10
176.2850417342581
 20
16.02787112098595
 30
0.0
 10
176.1995153256008
 20
16.22749661465075
 30
0.0
 10
176.2660558907693
 20
16.22385458403959
 30
0.0
 10
176.2838724273234
 20
16.22413447160834
 30
0.0
 10
176.4056801797501
 20
16.22632927398594
 30
0.0
 10
176.5080770335457
 20
15.94675118721459
 30
0.0
 10
176.7580021509356
 20
15.74563008536033
 30
0.0
 10
176.987003533111
 20
15.47792614987927
 30
0.0
 10
177.2245151213107
 20
15.22646413862353
 30
0.0
 10
177.4486090740776
 20
14.98969974061394
 30
0.0
 10
177.6750716283001
 20
14.73218692583022
 30
0.0
 10
177.8325687886518
 20
14.61649335056981
 30
0.0
 10
178.0472129612677
 20
14.27997152538792
 30
0.0
 10
178.042264597462
 20
14.4046475409161
 30
0.0
 10
178.0433931602549
 20
14.46327691935739
 30
0.0
 10
178.0428877841518
 20
14.5504366237197
 30
0.0
 10
178.0430475158115
 20
14.64416143182857
 30
0.0
 10
178.0430054891321
 20
14.73018971297012
 30
0.0
 10
178.0430202040374
 20
14.79153891945467
 30
0.0
 10
178.0429706255987
 20
14.94135231520969
 30
0.0
 10
178.0458811522814
 20
15.1798961251008
 30
0.0
 10
178.0259521041163
 20
15.544865098687
 30
0.0
 10
178.075043393625
 20
15.80799631993402
 30
0.0
 10
177.917795150918
 20
16.21928904947787
 30
0.0
 10
178.0762112872421
 20
16.16398282551737
 30
0.0
 10
178.1311680478629
 20
16.16199686500184
 30
0.0
 10
178.182788776674
 20
16.16264778248235
 30
0.0
 10
178.271319896537
 20
16.20369527738267
 30
0.0
 10
178.2204898303165
 20
16.05696326623018
 30
0.0
 10
178.231338993029
 20
15.95019971954447
 30
0.0
 10
178.2166036994846
 20
15.79085705414132
 30
0.0
 10
178.2099976446212
 20
15.62853061652862
 30
0.0
 10
178.2014961399917
 20
15.45992521892379
 30
0.0
 10
178.1943227202202
 20
15.29814814703519
 30
0.0
 10
178.1889063215389
 20
15.1542233145796
 30
0.0
 10
178.1871713967641
 20
15.03437493466966
 30
0.0
 10
178.1875440672313
 20
14.92686101590543
 30
0.0
 10
178.1873656126256
 20
14.81820024645586
 30
0.0
 10
178.1877010863135
 20
14.69953570165517
 30
0.0
 10
178.1890040622187
 20
14.57555163512744
 30
0.0
 10
178.1908887351573
 20
14.44858294171103
 30
0.0
 10
178.1925004454854
 20
14.32153861551058
 30
0.0
 10
178.1941403137429
 20
14.19854884492197
 30
0.0
 10
178.1962570745762
 20
14.08300931383767
 30
0.0
 10
178.1963848422359
 20
13.98090903955827
 30
0.0
 10
178.2006514396548
 20
13.8900984883814
 30
0.0
 10
178.1908440085283
 20
13.83213621208775
 30
0.0
 10
178.2118474771684
 20
13.76517130132017
 30
0.0
 10
178.1725639739895
 20
13.7729115396666
 30
0.0
 10
177.9595307117745
 20
13.75755254145189
 30
0.0
 10
177.7636297943188
 20
14.31403058094469
 30
0.0
 10
177.4611197631544
 20
14.57556035348511
 30
0.0
 10
177.3067935648019
 20
14.70898038201722
 30
0.0
 11
177.3067935648019
 21
14.70898038201722
 31
0.0
 11
176.859552933851
 21
15.18757635411964
 31
0.0
 11
176.4124049070638
 21
15.66352649289001
 31
0.0
 11
176.4089664262494
 21
15.55086249986232
 31
0.0
 11
176.40556101835
 21
15.40557538184294
 31
0.0
 11
176.4029636920277
 21
15.21465645827982
 31
0.0
 11
176.4021126156608
 21
14.96521170139749
 31
0.0
 11
176.4025239230294
 21
14.88439802954303
 31
0.0
 11
176.4038420329821
 21
14.78640628477569
 31
0.0
 11
176.405519226772
 21
14.6771355729976
 31
0.0
 11
176.4072367127519
 21
14.56282454872053
 31
0.0
 11
176.4094007838773
 21
14.44497802965304
 31
0.0
 11
176.4124049070638
 21
14.32545802100322
 31
0.0
 11
176.4158359733139
 21
14.20933349846178
 31
0.0
 11
176.4192928929997
 21
14.10186746550244
 31
0.0
 11
176.4227085253092
 21
14.00510162351293
 31
0.0
 11
176.4261896983799
 21
13.92125406276955
 31
0.0
 11
176.4296006184313
 21
13.85632862007765
 31
0.0
 11
176.4330776843149
 21
13.81626739612966
 31
0.0
 11
176.3754263821571
 21
13.82145433189191
 31
0.0
 11
176.3126746318308
 21
13.82315538223884
 31
0.0
 11
176.2464251717155
 21
13.82145433189191
 31
0.0
 11
176.1853747739679
 21
13.81626739612966
 31
0.0
 11
176.1926772737811
 21
13.86531894125596
 31
0.0
 11
176.2008793569048
 21
13.943567257209
 31
0.0
 11
176.2090098822348
 21
14.04551893253029
 31
0.0
 11
176.21634064414
 21
14.16542920159736
 31
0.0
 11
176.2236358280423
 21
14.30005912343904
 31
0.0
 11
176.2318444255598
 21
14.44586107652776
 31
0.0
 11
176.2395504149466
 21
14.59715203135079
 31
0.0
 11
176.2455763002099
 21
14.74850913200771
 31
0.0
 11
176.2503046247419
 21
14.89817951391456
 31
0.0
 11
176.2541928972119
 21
15.04435739582186
 31
0.0
 11
176.2567527408959
 21
15.18111831592694
 31
0.0
 11
176.2576324804568
 21
15.30230850686894
 31
0.0
 11
176.2571926106764
 21
15.60939715262543
 31
0.0
 11
176.255912688835
 21
15.86997204839372
 31
0.0
 11
176.2528658717893
 21
16.07719922716137
 31
0.0
 11
176.2473049112768
 21
16.22421385386042
 31
0.0
 11
176.2615728121474
 21
16.22421385386042
 31
0.0
 11
176.2880703423355
 21
16.22421385386042
 31
0.0
 11
176.3023382432061
 21
16.22421385386042
 31
0.0
 11
176.5194743650273
 21
15.98910179662755
 31
0.0
 11
176.7512744123078
 21
15.7375128123158
 31
0.0
 11
176.9894816018839
 21
15.47949555543584
 31
0.0
 11
177.2260074557521
 21
15.22497079855475
 31
0.0
 11
177.4555698717707
 21
14.97899759549137
 31
0.0
 11
177.6731797360098
 21
14.74678934034091
 31
0.0
 11
177.8713724913707
 21
14.53826680567147
 31
0.0
 11
178.0430143099088
 21
14.363266979326
 31
0.0
 11
178.0430143099088
 21
14.38918210687051
 31
0.0
 11
178.0430143099088
 21
14.45601585685374
 31
0.0
 11
178.0430143099088
 21
14.54740078030019
 31
0.0
 11
178.0430143099088
 21
14.64696942823438
 31
0.0
 11
178.0430143099088
 21
14.73835435168083
 31
0.0
 11
178.0430143099088
 21
14.80518810166405
 31
0.0
 11
178.0430143099088
 21
14.83110322920857
 31
0.0
 11
178.0417233637612
 21
15.18755430550857
 31
0.0
 11
178.037846115596
 21
15.53450684014388
 31
0.0
 11
178.0296197790004
 21
15.86693815950582
 31
0.0
 11
178.0154535467227
 21
16.17960510387184
 31
0.0
 11
178.0790351249621
 21
16.16666367158325
 31
0.0
 11
178.132417015961
 21
16.16238072887609
 31
0.0
 11
178.1805381084833
 21
16.16666367158325
 31
0.0
 11
178.24248367982
 21
16.17960510387184
 31
0.0
 11
178.2351216487573
 21
16.08498128445104
 31
0.0
 11
178.2269790968821
 21
15.95257496504019
 31
0.0
 11
178.2183705364005
 21
15.79600336785643
 31
0.0
 11
178.209754722322
 21
15.62916593734281
 31
0.0
 11
178.2016187850292
 21
15.45890325509333
 31
0.0
 11
178.1942501393837
 21
15.29206031242666
 31
0.0
 11
178.189140693152
 21
15.14329943572807
 31
0.0
 11
178.1874503478898
 21
15.02722121527222
 31
0.0
 11
178.1874503478898
 21
14.93258747397521
 31
0.0
 11
178.1874503478898
 21
14.8207756597667
 31
0.0
 11
178.1878461204493
 21
14.70123801222781
 31
0.0
 11
178.1890819450709
 21
14.57660052093888
 31
0.0
 11
178.1908392193317
 21
14.44883212687398
 31
0.0
 11
178.192530347761
 21
14.32028982655902
 31
0.0
 11
178.1942876220216
 21
14.19558288214603
 31
0.0
 11
178.1959787504511
 21
14.0794748960634
 31
0.0
 11
178.1972884379169
 21
13.97495896727003
 31
0.0
 11
178.1976985420729
 21
13.88517371555645
 31
0.0
 11
178.1976985420729
 21
13.81891763918395
 31
0.0
 11
178.1976985420729
 21
13.77165864614017
 31
0.0
 11
178.1736699662974
 21
13.77165864614017
 31
0.0
 11
178.149641390522
 21
13.77165864614017
 31
0.0
 11
177.7410729200423
 21
14.23466735262195
 31
0.0
 11
177.3067935648019
 21
14.70898038201722
 31
0.0
  0
SPLINE
  5
A8
102
{ACAD_REACTORS
330
C5
102
}
330
48
100
AcDbEntity
  8
_U_30EC_U_30A4_U_30E4_U_30FC_1
  6
Continuous
 62
     2
100
AcDbSpline
210
0.0
220
0.0
230
1.0
 70
    11
 71
     3
 72
   110
 73
   106
 74
   104
 42
0.000000001
 43
0.0000000001
 44
0.00000001
 40
0.0
 40
0.0
 40
0.0
 40
0.0
 40
0.2203406257279572
 40
0.4407808782840419
 40
0.5952494494612557
 40
0.7488431659395373
 40
0.9023581831305162
 40
1.056801968669957
 40
1.210736449099314
 40
1.363041386539624
 40
1.515315729682795
 40
1.669377239148426
 40
1.721611652756524
 40
1.773199502943355
 40
1.824933793210689
 40
1.877110426488289
 40
1.982682281207921
 40
2.078781667088516
 40
2.172809640823321
 40
2.271937807380264
 40
2.37834993338031
 40
2.494131557737081
 40
2.626681683944164
 40
2.783145050796278
 40
2.890701232941258
 40
2.993130312455382
 40
3.099869730691991
 40
3.220237816691375
 40
3.352695482737557
 40
3.481732806389816
 40
3.593499473690214
 40
3.674323013332208
 40
3.817951711953528
 40
3.946167120794589
 40
4.061405053454026
 40
4.16648079600359
 40
4.262478775059341
 40
4.350736673551184
 40
4.433071991254647
 40
4.511216293815211
 40
4.564262454118989
 40
4.618474415572543
 40
4.670128488755086
 40
4.722296879127242
 40
4.819540945315131
 40
4.931194984129487
 40
5.049996040258524
 40
5.168643755415485
 40
5.283970811763238
 40
5.392260784911123
 40
5.486512254877059
 40
5.559178233950911
 40
5.591425852854099
 40
5.626215969639152
 40
5.667155838675568
 40
5.717449290215375
 40
5.738402360945975
 40
5.784499116554918
 40
5.830595872165863
 40
5.85154894289871
 40
5.873019280662802
 40
5.924217778409294
 40
5.985325662818611
 40
6.036524160568574
 40
6.057994498335082
 40
6.236847789608555
 40
6.381409928947005
 40
6.493190424179724
 40
6.574067534231257
 40
6.691018086205868
 40
6.81488155422107
 40
6.944307823240794
 40
7.071266716065857
 40
7.193488604462237
 40
7.309042773127954
 40
7.41400720317094
 40
7.505140441887016
 40
7.531150360600017
 40
7.559221645322845
 40
7.587202218921429
 40
7.612569159499937
 40
7.662550809481701
 40
7.702878875764196
 40
7.857328205231056
 40
8.010799568088647
 40
8.165256399657768
 40
8.322232698714135
 40
8.479564855016907
 40
8.635216230291338
 40
8.790882550925831
 40
8.948305154947017
 40
9.168271839032348
 40
9.387358980987262
 40
9.608047961033071
 40
9.832914234792304
 40
9.858338694962612
 40
9.925366817229547
 40
10.02013071422703
 40
10.1287624985893
 40
10.23739428295168
 40
10.332158179951
 40
10.39918630222296
 40
10.42461076239682
 40
10.64992019336875
 40
10.871885245311
 40
10.871885245311
 40
10.871885245311
 40
10.871885245311
 10
179.9057788376617
 20
15.73923260398169
 30
0.0
 10
179.909286493354
 20
15.80616462073787
 30
0.0
 10
179.9163033987662
 20
15.94005891915847
 30
0.0
 10
179.8198027599078
 20
16.22548554971461
 30
0.0
 10
180.0510134726112
 20
16.16284386190283
 30
0.0
 10
180.1919290057157
 20
16.17001554056016
 30
0.0
 10
180.3490417757589
 20
16.1623588307822
 30
0.0
 10
180.5025913427285
 20
16.16252752283055
 30
0.0
 10
180.6545104935079
 20
16.16182040535409
 30
0.0
 10
180.8142214813231
 20
16.17210158351662
 30
0.0
 10
180.9408972601117
 20
16.15496511080759
 30
0.0
 10
181.1370821122092
 20
16.22727260107163
 30
0.0
 10
181.1034395279077
 20
16.12640699080144
 30
0.0
 10
181.1052011317182
 20
16.07619253947685
 30
0.0
 10
181.1027342073456
 20
16.02712335586466
 30
0.0
 10
181.1347076966021
 20
15.94063490847008
 30
0.0
 10
181.0010399903255
 20
15.98997438608354
 30
0.0
 10
180.9172208688055
 20
15.9843063431413
 30
0.0
 10
180.8173861139322
 20
15.99465516706391
 30
0.0
 10
180.7186576720143
 20
16.00086450411169
 30
0.0
 10
180.612153277111
 20
16.0069776381679
 30
0.0
 10
180.4910511698062
 20
16.01588883484544
 30
0.0
 10
180.3703381502456
 20
16.00521605912402
 30
0.0
 10
180.1812553843449
 20
16.06468503080337
 30
0.0
 10
180.2129028505306
 20
15.90558320077515
 30
0.0
 10
180.1995563316837
 20
15.80839128339877
 30
0.0
 10
180.1974958426447
 20
15.69634065110088
 30
0.0
 10
180.1958188044667
 20
15.57699685629354
 30
0.0
 10
180.1973336794234
 20
15.45032592155121
 30
0.0
 10
180.195658247867
 20
15.32301588016135
 30
0.0
 10
180.2058844271654
 20
15.22451566404471
 30
0.0
 10
180.1779006596578
 20
15.08388702625596
 30
0.0
 10
180.3508029999304
 20
15.13989551134084
 30
0.0
 10
180.4645020202771
 20
15.12719951478518
 30
0.0
 10
180.5840151672239
 20
15.13448377051323
 30
0.0
 10
180.6888491425069
 20
15.13878017056746
 30
0.0
 10
180.7843084898608
 20
15.14330568258971
 30
0.0
 10
180.8763823507028
 20
15.15149201146219
 30
0.0
 10
180.9476551782437
 20
15.14643850638044
 30
0.0
 10
181.0544931705683
 20
15.18536425031721
 30
0.0
 10
181.0226603598039
 20
15.1051712200587
 30
0.0
 10
181.0266164503931
 20
15.0556293684602
 30
0.0
 10
181.0234502392016
 20
15.0055747803981
 30
0.0
 10
181.0550791490581
 20
14.92128847612012
 30
0.0
 10
180.9210133677689
 20
14.97425365495142
 30
0.0
 10
180.8292322793197
 20
14.96540080890436
 30
0.0
 10
180.7079729189602
 20
14.97570049965239
 30
0.0
 10
180.5914113119774
 20
14.9774891176746
 30
0.0
 10
180.4783375745881
 20
14.97787017109693
 30
0.0
 10
180.3679246308472
 20
14.98415449472172
 30
0.0
 10
180.2898124067839
 20
14.97189133255426
 30
0.0
 10
180.1913625833644
 20
15.00453887616129
 30
0.0
 10
180.2012355173555
 20
14.94769748054211
 30
0.0
 10
180.1973923244403
 20
14.91392130557984
 30
0.0
 10
180.196678988427
 20
14.87119604709394
 30
0.0
 10
180.1963369642971
 20
14.83401607262141
 30
0.0
 10
180.1963834255343
 20
14.7948723737076
 30
0.0
 10
180.1963649429924
 20
14.75716849497677
 30
0.0
 10
180.1963703431803
 20
14.71944955232396
 30
0.0
 10
180.1963697214198
 20
14.68994324745145
 30
0.0
 10
180.1963698151542
 20
14.65873577699299
 30
0.0
 10
180.1963704287918
 20
14.61414424908087
 30
0.0
 10
180.1963671499335
 20
14.55963956508859
 30
0.0
 10
180.1963759623478
 20
14.51505540201461
 30
0.0
 10
180.1963359653415
 20
14.43117808585747
 30
0.0
 10
180.1976024270256
 20
14.3173752067767
 30
0.0
 10
180.1950274117842
 20
14.16830395933694
 30
0.0
 10
180.2065009381714
 20
14.06597203813898
 30
0.0
 10
180.1823506222272
 20
13.93338903885878
 30
0.0
 10
180.3332993946476
 20
13.97895732272048
 30
0.0
 10
180.4428436671557
 20
13.96427012162384
 30
0.0
 10
180.5733970473918
 20
13.96920435125057
 30
0.0
 10
180.6990312209512
 20
13.9725770532343
 30
0.0
 10
180.8188730625597
 20
13.97711497498747
 30
0.0
 10
180.9391362611423
 20
13.99048536182199
 30
0.0
 10
181.0222761663511
 20
13.98068712782552
 30
0.0
 10
181.1456080421081
 20
14.04126214623307
 30
0.0
 10
181.1244269203954
 20
13.98532460134023
 30
0.0
 10
181.1235950270107
 20
13.95939249372351
 30
0.0
 10
181.1218963707562
 20
13.93197256190922
 30
0.0
 10
181.1217974888834
 20
13.89738195206366
 30
0.0
 10
181.1203659301333
 20
13.86050408220761
 30
0.0
 10
181.1532804192189
 20
13.76846841021843
 30
0.0
 10
180.9551306988109
 20
13.84132015974824
 30
0.0
 10
180.8300548294892
 20
13.81825726508635
 30
0.0
 10
180.6673071295157
 20
13.82454021985805
 30
0.0
 10
180.5129366450001
 20
13.82260943909949
 30
0.0
 10
180.3566670436942
 20
13.82393762599287
 30
0.0
 10
180.1970544465281
 20
13.82059872487893
 30
0.0
 10
180.0540326342237
 20
13.83265795728226
 30
0.0
 10
179.8197144881635
 20
13.76952001976987
 30
0.0
 10
179.9173810751196
 20
14.05620527466359
 30
0.0
 10
179.9006868780058
 20
14.24988308142696
 30
0.0
 10
179.9146296709683
 20
14.47848242880337
 30
0.0
 10
179.9142987846631
 20
14.63384593955076
 30
0.0
 10
179.9143078119262
 20
14.73966336444152
 30
0.0
 10
179.9143055876314
 20
14.80205784124233
 30
0.0
 10
179.9143065551887
 20
14.89220425248336
 30
0.0
 10
179.914306547326
 20
14.99621167157436
 30
0.0
 10
179.9143053861102
 20
15.10022131375283
 30
0.0
 10
179.9143090971501
 20
15.19036243688744
 30
0.0
 10
179.914301105105
 20
15.25276803097186
 30
0.0
 10
179.9143334275016
 20
15.35868835961096
 30
0.0
 10
179.9131440788317
 20
15.51626716544721
 30
0.0
 10
179.9082216489255
 20
15.66528219822052
 30
0.0
 10
179.9057788376617
 20
15.73923260398169
 30
0.0
 11
179.9057788376617
 21
15.73923260398169
 31
0.0
 11
179.896691822374
 21
15.95938578101016
 31
0.0
 11
179.8868249573138
 21
16.17960510387184
 31
0.0
 11
180.04115751414
 21
16.17312391463736
 31
0.0
 11
180.1946500189051
 21
16.16754892331937
 31
0.0
 11
180.3481160653365
 21
16.16367167505621
 31
0.0
 11
180.5025544554937
 21
16.16238072887609
 31
0.0
 11
180.656483522747
 21
16.16367167505621
 31
0.0
 11
180.8087391004601
 21
16.16754892331937
 31
0.0
 11
180.9609113551073
 21
16.17312391463736
 31
0.0
 11
181.1148364762489
 21
16.17960510387184
 31
0.0
 11
181.1070811703124
 21
16.12794961777411
 31
0.0
 11
181.1044991623589
 21
16.07642642334213
 31
0.0
 11
181.1070811703124
 21
16.02475660564642
 31
0.0
 11
181.1148364762489
 21
15.97315954836813
 31
0.0
 11
181.0094874054408
 21
15.9800144615607
 31
0.0
 11
180.9136375700059
 21
15.98693552058649
 31
0.0
 11
180.8198593171902
 21
15.99378381919667
 31
0.0
 11
180.7209679915877
 21
16.00063211780616
 31
0.0
 11
180.6147532199923
 21
16.00710999974842
 31
0.0
 11
180.4991060528041
 21
16.01268829835772
 31
0.0
 11
180.3666126447262
 21
16.01656554662088
 31
0.0
 11
180.210154601843
 21
16.017856492801
 31
0.0
 11
180.2062663293719
 21
15.91037061609165
 31
0.0
 11
180.2015380048401
 21
15.80805072896419
 31
0.0
 11
180.1976607566748
 21
15.7013817532968
 31
0.0
 11
180.1963698105269
 21
15.58102059013254
 31
0.0
 11
180.1967799146836
 21
15.4485635589158
 31
0.0
 11
180.1980896021501
 21
15.31953288186469
 31
0.0
 11
180.1994074577046
 21
15.20777398432335
 31
0.0
 11
180.1998191153657
 21
15.12695149302363
 31
0.0
 11
180.3434452935875
 21
15.12780256941244
 31
0.0
 11
180.4716343930759
 21
15.13039989580102
 31
0.0
 11
180.5868078221794
 21
15.134255095453
 31
0.0
 11
180.6917756312218
 21
15.13901649302079
 31
0.0
 11
180.7876346289416
 21
15.14418027774173
 31
0.0
 11
180.8757413374187
 21
15.14934406246266
 31
0.0
 11
180.9578881438496
 21
15.15491243919712
 31
0.0
 11
181.035769233557
 21
15.16132086801554
 31
0.0
 11
181.0280180445188
 21
15.10884407115316
 31
0.0
 11
181.0254328449319
 21
15.05469378470843
 31
0.0
 11
181.0280180445188
 21
15.00310444444358
 31
0.0
 11
181.035769233557
 21
14.95151510417873
 31
0.0
 11
180.9389813454013
 21
14.96092324653739
 31
0.0
 11
180.8275950722009
 21
14.96865128473019
 31
0.0
 11
180.7089261429373
 21
14.97425273438194
 31
0.0
 11
180.5903167449219
 21
14.97726788194996
 31
0.0
 11
180.4750025117522
 21
14.9789876736163
 31
0.0
 11
180.36672619507
 21
14.98070746528265
 31
0.0
 11
180.2724839317709
 21
14.98202486979653
 31
0.0
 11
180.1998191153657
 21
14.98243607639324
 31
0.0
 11
180.1994074577045
 21
14.95019108508234
 31
0.0
 11
180.1980896021501
 21
14.91542593752092
 31
0.0
 11
180.1967799146836
 21
14.87450702260071
 31
0.0
 11
180.1963698105269
 21
14.82421524309939
 31
0.0
 11
180.1963698105269
 21
14.8032621723581
 31
0.0
 11
180.1963698105269
 21
14.75716541672728
 31
0.0
 11
180.1963698105269
 21
14.71106866109645
 31
0.0
 11
180.1963698105269
 21
14.69011559035516
 31
0.0
 11
180.1963698105269
 21
14.66864525258278
 31
0.0
 11
180.1963698105269
 21
14.61744675481786
 31
0.0
 11
180.1963698105269
 21
14.55633887038876
 31
0.0
 11
180.1963698105269
 21
14.50514037262385
 31
0.0
 11
180.1963698105269
 21
14.48367003485146
 31
0.0
 11
180.1967799146836
 21
14.30481721371541
 31
0.0
 11
180.1980896021501
 21
14.16026100715408
 31
0.0
 11
180.2002868589706
 21
14.04850210961286
 31
0.0
 11
180.2032586986989
 21
13.96767961831392
 31
0.0
 11
180.3202092517446
 21
13.96767961831392
 31
0.0
 11
180.4440727208748
 21
13.96767961831392
 31
0.0
 11
180.5734925526422
 21
13.96897056449404
 31
0.0
 11
180.7003922282238
 21
13.97284781275721
 31
0.0
 11
180.8224658067973
 21
13.97886708358897
 31
0.0
 11
180.9377587499457
 21
13.98663260442118
 31
0.0
 11
181.0421754573517
 21
13.997341614834
 31
0.0
 11
181.132059925545
 21
14.0123765627468
 31
0.0
 11
181.1264254031188
 21
13.98698427976729
 31
0.0
 11
181.1234433285417
 21
13.95907184053795
 31
0.0
 11
181.1221339881201
 21
13.93112191866999
 31
0.0
 11
181.1217235369199
 21
13.90575829888439
 31
0.0
 11
181.1243087365068
 21
13.85584355063304
 31
0.0
 11
181.132059925545
 21
13.81626739612966
 31
0.0
 11
180.9776977178345
 21
13.82145433189191
 31
0.0
 11
180.8242357818767
 21
13.82315538223884
 31
0.0
 11
180.6697789496483
 21
13.82315538223884
 31
0.0
 11
180.5128026496768
 21
13.82315538223884
 31
0.0
 11
180.3554704921535
 21
13.82315538223884
 31
0.0
 11
180.1998191153657
 21
13.82315538223884
 31
0.0
 11
180.0441620874242
 21
13.82145433189191
 31
0.0
 11
179.8868249573138
 21
13.81626739612966
 31
0.0
 11
179.896691822374
 21
14.03601267385215
 31
0.0
 11
179.9057788376617
 21
14.25491128490921
 31
0.0
 11
179.9121721518399
 21
14.47550763902029
 31
0.0
 11
179.9143063455008
 21
14.70036378479745
 31
0.0
 11
179.9143063455008
 21
14.72578824496902
 31
0.0
 11
179.9143063455008
 21
14.79281636723951
 31
0.0
 11
179.9143063455008
 21
14.88758026424263
 31
0.0
 11
179.9143063455008
 21
14.99621204861205
 31
0.0
 11
179.9143063455008
 21
15.10484383298148
 31
0.0
 11
179.9143063455008
 21
15.1996077299846
 31
0.0
 11
179.9143063455008
 21
15.26663585225509
 31
0.0
 11
179.9143063455008
 21
15.29206031242666
 31
0.0
 11
179.9121721518399
 21
15.51735963528733
 31
0.0
 11
179.9057788376617
 21
15.73923260398169
 31
0.0
  0
SPLINE
  5
A9
102
{ACAD_REACTORS
330
C6
102
}
330
48
100
AcDbEntity
  8
_U_30EC_U_30A4_U_30E4_U_30FC_1
  6
Continuous
 62
     2
100
AcDbSpline
210
0.0
220
0.0
230
1.0
 70
    11
 71
     3
 72
    47
 73
    43
 74
    41
 42
0.000000001
 43
0.0000000001
 44
0.00000001
 40
0.0
 40
0.0
 40
0.0
 40
0.0
 40
0.2207912809960565
 40
0.4459404186306244
 40
0.4902387190457075
 40
0.5327473892715178
 40
0.5742260451228329
 40
0.6155432630566995
 40
0.656816406631591
 40
0.6982511618783873
 40
0.7407663929317504
 40
0.7851366743180583
 40
1.010288833836878
 40
1.231080507003092
 40
1.451765243653042
 40
1.676638205892193
 40
1.720461045360061
 40
1.830018144043669
 40
1.972442372352964
 40
2.114866600676997
 40
2.224423699394364
 40
2.268246538882503
 40
2.493628801207652
 40
2.715602830287299
 40
2.934211330706791
 40
3.149502369855603
 40
3.231387784851568
 40
3.31823187385418
 40
3.405143198198711
 40
3.486970301720871
 40
3.702258172494093
 40
3.920866283534034
 40
4.142839325932099
 40
4.368221903866884
 40
4.412044743361262
 40
4.521601842097017
 40
4.664026070453163
 40
4.806450298809535
 40
4.916007397546972
 40
4.959830237043192
 40
5.184703515847096
 40
5.40538725076722
 40
5.40538725076722
 40
5.40538725076722
 40
5.40538725076722
 10
182.6507427258639
 20
15.73406440953841
 30
0.0
 10
182.6568139419998
 20
15.79758482501186
 30
0.0
 10
182.6690762107241
 20
15.92587938689603
 30
0.0
 10
182.5604706879417
 20
16.2016622017408
 30
0.0
 10
182.6761985896601
 20
16.17188133432061
 30
0.0
 10
182.7171842509013
 20
16.16765556262834
 30
0.0
 10
182.7591205797518
 20
16.16310446389587
 30
0.0
 10
182.8004196625713
 20
16.16201982929498
 30
0.0
 10
182.8417032115558
 20
16.16310338195207
 30
0.0
 10
182.8836148270648
 20
16.16766112711363
 30
0.0
 10
182.9245983549022
 20
16.1718743020974
 30
0.0
 10
183.0404922843494
 20
16.20177611317536
 30
0.0
 10
182.9295652727457
 20
15.92339806609889
 30
0.0
 10
182.9574856365266
 20
15.74283140824939
 30
0.0
 10
182.9404267346967
 20
15.50961042346465
 30
0.0
 10
182.9414637282106
 20
15.34906622543155
 30
0.0
 10
182.9414099399407
 20
15.22284817558747
 30
0.0
 10
182.9414277372484
 20
15.1242896333629
 30
0.0
 10
182.9414188581083
 20
14.99280702443042
 30
0.0
 10
182.9414263928036
 20
14.8613284496876
 30
0.0
 10
182.9414129405131
 20
14.76276222694224
 30
0.0
 10
182.9414531717495
 20
14.63639735624253
 30
0.0
 10
182.9406746403814
 20
14.47482068822922
 30
0.0
 10
182.9565958319266
 20
14.24361821892927
 30
0.0
 10
182.9333468885409
 20
14.05874351971997
 30
0.0
 10
183.036018344437
 20
13.78935602770124
 30
0.0
 10
182.882023836284
 20
13.82660112685802
 30
0.0
 10
182.8004129802834
 20
13.82137994680573
 30
0.0
 10
182.7188192292587
 20
13.82660620378343
 30
0.0
 10
182.5648513666846
 20
13.78937069885471
 30
0.0
 10
182.6674183421916
 20
14.0587512986288
 30
0.0
 10
182.6442045316077
 20
14.24361585325429
 30
0.0
 10
182.6600444655145
 20
14.4748221856569
 30
0.0
 10
182.6593296313432
 20
14.63639712308604
 30
0.0
 10
182.6593664569911
 20
14.76276231210654
 30
0.0
 10
182.6593549000275
 20
14.86132756636092
 30
0.0
 10
182.6593575019218
 20
14.99281127417299
 30
0.0
 10
182.6593648531784
 20
15.12427548031248
 30
0.0
 10
182.6593442541356
 20
15.22287786275351
 30
0.0
 10
182.6594082192032
 20
15.34896149354435
 30
0.0
 10
182.6581733947596
 20
15.51210091383766
 30
0.0
 10
182.6532040396742
 20
15.66054183777528
 30
0.0
 10
182.6507427258639
 20
15.73406440953841
 30
0.0
 11
182.6507427258639
 21
15.73406440953841
 31
0.0
 11
182.6417328200378
 21
15.95467178795582
 31
0.0
 11
182.6318769706149
 21
16.17960510387184
 31
0.0
 11
182.6756985840799
 21
16.17312391463736
 31
0.0
 11
182.7178400934208
 21
16.16754892331937
 31
0.0
 11
182.7591371409793
 21
16.16367167505621
 31
0.0
 11
182.8004341885371
 21
16.16238072887609
 31
0.0
 11
182.841687138873
 21
16.16367167505621
 31
0.0
 11
182.88294008921
 21
16.16754892331937
 31
0.0
 11
182.9250882131343
 21
16.17312391463736
 31
0.0
 11
182.968982587015
 21
16.17960510387184
 31
0.0
 11
182.9590577693892
 21
15.95467178795582
 31
0.0
 11
182.9500384208309
 21
15.73406440953841
 31
0.0
 11
182.9435638463434
 21
15.51347467001051
 31
0.0
 11
182.9414218238289
 21
15.28861190965017
 31
0.0
 11
182.9414218238289
 21
15.24478907015506
 31
0.0
 11
182.9414218238289
 21
15.13523197141728
 31
0.0
 11
182.9414218238289
 21
14.99280774305817
 31
0.0
 11
182.9414218238289
 21
14.85038351469905
 31
0.0
 11
182.9414218238289
 21
14.74082641596127
 31
0.0
 11
182.9414218238289
 21
14.69700357646616
 31
0.0
 11
182.9435638463434
 21
14.47163149318783
 31
0.0
 11
182.9500384208309
 21
14.24975190990972
 31
0.0
 11
182.9590577693892
 21
14.03132954885348
 31
0.0
 11
182.968982587015
 21
13.81626739612966
 31
0.0
 11
182.8872616168772
 21
13.82145433189191
 31
0.0
 11
182.8004341885371
 21
13.82315538223884
 31
0.0
 11
182.713539511934
 21
13.82145433189191
 31
0.0
 11
182.6318769706149
 21
13.81626739612966
 31
0.0
 11
182.6417328200378
 21
14.03132954885348
 31
0.0
 11
182.6507427258639
 21
14.24975190990972
 31
0.0
 11
182.6571833838801
 21
14.47163149318783
 31
0.0
 11
182.6593583588028
 21
14.69700357646616
 31
0.0
 11
182.6593583588028
 21
14.74082641596127
 31
0.0
 11
182.6593583588028
 21
14.85038351469905
 31
0.0
 11
182.6593583588028
 21
14.99280774305817
 31
0.0
 11
182.6593583588028
 21
15.13523197141728
 31
0.0
 11
182.6593583588028
 21
15.24478907015506
 31
0.0
 11
182.6593583588028
 21
15.28861190965017
 31
0.0
 11
182.6571833838801
 21
15.51347467001051
 31
0.0
 11
182.6507427258639
 21
15.73406440953841
 31
0.0
  0
SPLINE
  5
AA
102
{ACAD_REACTORS
330
C7
102
}
330
48
100
AcDbEntity
  8
_U_30EC_U_30A4_U_30E4_U_30FC_1
  6
Continuous
 62
     2
100
AcDbSpline
210
0.0
220
0.0
230
1.0
 70
    11
 71
     3
 72
   118
 73
   114
 74
   112
 42
0.000000001
 43
0.0000000001
 44
0.00000001
 40
0.0
 40
0.0
 40
0.0
 40
0.0
 40
0.1054708162976234
 40
0.2466098270056351
 40
0.396591287459669
 40
0.5285525069760663
 40
0.6156245055651507
 40
0.6431434105805928
 40
0.7036850037992749
 40
0.7642265984509109
 40
0.791745505235869
 40
0.9287404319999187
 40
1.106572819089097
 40
1.287544879682149
 40
1.317578308031672
 40
1.399928030858321
 40
1.522968204801115
 40
1.675072986591757
 40
1.844616533181859
 40
2.01997300163995
 40
2.189516548881288
 40
2.341621331586646
 40
2.464661506321803
 40
2.547011229648378
 40
2.577044658169347
 40
2.603797890894304
 40
2.66265500290982
 40
2.721512114950433
 40
2.748265347703499
 40
2.774215307345576
 40
2.84595931340791
 40
2.954338556589116
 40
3.0901942275863
 40
3.244367517101268
 40
3.407699615845036
 40
3.571031714540192
 40
3.725205003920876
 40
3.861060674730382
 40
3.96943991771708
 40
4.041183923629758
 40
4.067133883213751
 40
4.311886746013047
 40
4.547897258336421
 40
4.764747083044699
 40
4.95274967995204
 40
5.045772974196016
 40
5.137862019644814
 40
5.330543169792942
 40
5.553448265244104
 40
5.795083855888457
 40
6.043293412177629
 40
6.285761695541517
 40
6.313902908753001
 40
6.384255941793562
 40
6.475714884767093
 40
6.567173827759099
 40
6.63752686083982
 40
6.665668074074183
 40
6.692018920328195
 40
6.749990782071347
 40
6.807962643790797
 40
6.834313490018308
 40
6.856393084245559
 40
6.913335195650154
 40
6.991194817302789
 40
7.076026942284022
 40
7.153886563725484
 40
7.210828674845009
 40
7.232908268931345
 40
7.258199334923859
 40
7.324875781592491
 40
7.419142481925123
 40
7.527204308842038
 40
7.635266135230589
 40
7.72953283416855
 40
7.796209279292855
 40
7.821500344594794
 40
7.844652988850892
 40
7.899863140541725
 40
7.965759128053944
 40
8.02096927977128
 40
8.044121924046774
 40
8.069356610161346
 40
8.1091343954426
 40
8.132238100192298
 40
8.19314786778761
 40
8.279261678877718
 40
8.377977512674853
 40
8.476693347147561
 40
8.562807160412547
 40
8.623716930827284
 40
8.646820636854219
 40
8.671988793775117
 40
8.734909185829142
 40
8.816705695190027
 40
8.898502204816797
 40
8.961422597379428
 40
8.986590754552598
 40
9.012941600734791
 40
9.070913462381958
 40
9.128885324083534
 40
9.155236170326893
 40
9.180404327930992
 40
9.243324721950236
 40
9.3251212342142
 40
9.406917746640024
 40
9.46983814198065
 40
9.495006288273482
 40
9.517811184381594
 40
9.572192090489526
 40
9.637098333283673
 40
9.691479239517804
 40
9.714284125645813
 40
9.714284125645813
 40
9.714284125645813
 40
9.714284125645813
 10
185.2874469028648
 20
15.26889163187752
 30
0.0
 10
185.3090990569033
 20
15.24111869242835
 30
0.0
 10
185.3597257109469
 20
15.17618054561246
 30
0.0
 10
185.4349383202589
 20
15.06891060312896
 30
0.0
 10
185.5248482274345
 20
14.95377438266616
 30
0.0
 10
185.5709169676672
 20
14.85357045748294
 30
0.0
 10
185.6655825294656
 20
14.78434006814916
 30
0.0
 10
185.6204439320414
 20
14.7377163967824
 30
0.0
 10
185.5947047785793
 20
14.69660308866018
 30
0.0
 10
185.5645196708017
 20
14.6606597172792
 30
0.0
 10
185.5193684730567
 20
14.58579782596071
 30
0.0
 10
185.4710504458563
 20
14.80782524253625
 30
0.0
 10
185.3968539713073
 20
14.84510677337744
 30
0.0
 10
185.2836047324602
 20
15.11610202130612
 30
0.0
 10
185.2885133578164
 20
15.00095328446239
 30
0.0
 10
185.2868486556301
 20
14.92836675781636
 30
0.0
 10
185.2876830076709
 20
14.80625588483994
 30
0.0
 10
185.287360954026
 20
14.65913800810466
 30
0.0
 10
185.287507691245
 20
14.49307063956559
 30
0.0
 10
185.2872950092717
 20
14.32187554608602
 30
0.0
 10
185.2879497252029
 20
14.15552828635496
 30
0.0
 10
185.2859192461133
 20
14.00935173055689
 30
0.0
 10
185.2913460399925
 20
13.88471047474604
 30
0.0
 10
185.2804930868703
 20
13.81718656540621
 30
0.0
 10
185.2956739155549
 20
13.75549061417017
 30
0.0
 10
185.245789510813
 20
13.76727503896992
 30
0.0
 10
185.2017150342519
 20
13.75943822779962
 30
0.0
 10
185.15823716302
 20
13.76760441372693
 30
0.0
 10
185.1092346786489
 20
13.75538056738463
 30
0.0
 10
185.1218731234825
 20
13.80960667249306
 30
0.0
 10
185.113018296845
 20
13.8693691890755
 30
0.0
 10
185.1175058770314
 20
13.97922029044363
 30
0.0
 10
185.1157960135992
 20
14.11029975405672
 30
0.0
 10
185.1163550915987
 20
14.26198011444322
 30
0.0
 10
185.1161928768694
 20
14.42211074929948
 30
0.0
 10
185.1162269924675
 20
14.58236865674562
 30
0.0
 10
185.1162514960128
 20
14.73370247520436
 30
0.0
 10
185.1161453543226
 20
14.86582156338598
 30
0.0
 10
185.1164299141932
 20
14.97294802533191
 30
0.0
 10
185.1158675547568
 20
15.03808619579471
 30
0.0
 10
185.1180765083691
 20
15.16618957858677
 30
0.0
 10
185.0319435998604
 20
14.79097610391556
 30
0.0
 10
184.9555140818501
 20
14.63918193123387
 30
0.0
 10
184.8660040767831
 20
14.47766206446323
 30
0.0
 10
184.7640413217331
 20
14.20471848820243
 30
0.0
 10
184.7187976491038
 20
14.36717346596513
 30
0.0
 10
184.6102355941667
 20
14.45605432058081
 30
0.0
 10
184.7995791751752
 20
14.60549794961392
 30
0.0
 10
184.8565340545699
 20
14.79749136974911
 30
0.0
 10
184.9717520993353
 20
15.02899622906754
 30
0.0
 10
184.9940151630137
 20
15.21797259759062
 30
0.0
 10
185.1771905152137
 20
15.49454089325934
 30
0.0
 10
185.0538033597554
 20
15.486989788321
 30
0.0
 10
184.9925684166834
 20
15.48856772366123
 30
0.0
 10
184.9081999617066
 20
15.48882592573678
 30
0.0
 10
184.8204235085967
 20
15.4854484575121
 30
0.0
 10
184.7656768696126
 20
15.49394814982025
 30
0.0
 10
184.7104703026027
 20
15.48048561049793
 30
0.0
 10
184.7222823035538
 20
15.52931442126774
 30
0.0
 10
184.7142496151797
 20
15.57269004896725
 30
0.0
 10
184.7228186104681
 20
15.61509438309596
 30
0.0
 10
184.7102943409159
 20
15.66267796552146
 30
0.0
 10
184.7555101538737
 20
15.65267212995139
 30
0.0
 10
184.8014815562726
 20
15.6589410517409
 30
0.0
 10
184.8777222047712
 20
15.65593561405901
 30
0.0
 10
184.9561296131995
 20
15.6577044827857
 30
0.0
 10
185.0323992648934
 20
15.65464793981689
 30
0.0
 10
185.0783009459475
 20
15.66103971376205
 30
0.0
 10
185.1231733965401
 20
15.65093822978925
 30
0.0
 10
185.1105552275635
 20
15.70157201581926
 30
0.0
 10
185.1191936582708
 20
15.75501261882097
 30
0.0
 10
185.1152361595443
 20
15.84863255131703
 30
0.0
 10
185.1162325068336
 20
15.95112606688945
 30
0.0
 10
185.1171927413074
 20
16.05353270248182
 30
0.0
 10
185.1133211458006
 20
16.14735929609337
 30
0.0
 10
185.1217789814366
 20
16.20036542840369
 30
0.0
 10
185.1093075932836
 20
16.25211435651202
 30
0.0
 10
185.1542106389851
 20
16.23850747226772
 30
0.0
 10
185.1955083836773
 20
16.24100480320606
 30
0.0
 10
185.2595344281052
 20
16.2364806057451
 30
0.0
 10
185.298611114879
 20
16.22781003043341
 30
0.0
 10
185.3476543498747
 20
16.23515102070716
 30
0.0
 10
185.322508003059
 20
16.19602896051738
 30
0.0
 10
185.2815901333718
 20
16.20563842455811
 30
0.0
 10
185.2910109616599
 20
16.1554014816977
 30
0.0
 10
185.2855647318741
 20
16.10385945639483
 30
0.0
 10
185.2881699601798
 20
16.01959707584521
 30
0.0
 10
185.2870102202149
 20
15.92559135583416
 30
0.0
 10
185.2883591064225
 20
15.83196865395541
 30
0.0
 10
185.2849970101504
 20
15.74679517552245
 30
0.0
 10
185.2920959917763
 20
15.69716856072069
 30
0.0
 10
185.2812569154541
 20
15.64993694970015
 30
0.0
 10
185.3304010225241
 20
15.66201674936882
 30
0.0
 10
185.3794877630144
 20
15.65447393363039
 30
0.0
 10
185.4573714280639
 20
15.65686070361461
 30
0.0
 10
185.5350365172897
 20
15.65899381905444
 30
0.0
 10
185.5845393931356
 20
15.65193391922482
 30
0.0
 10
185.6344594750642
 20
15.66360151936244
 30
0.0
 10
185.6223198516883
 20
15.61540235371416
 30
0.0
 10
185.6305838229146
 20
15.57249219801252
 30
0.0
 10
185.6223198650786
 20
15.52958201851395
 30
0.0
 10
185.6344594549857
 20
15.48138288754868
 30
0.0
 10
185.5845395158748
 20
15.49305034471517
 30
0.0
 10
185.5350350651203
 20
15.4859920243505
 30
0.0
 10
185.4573784382971
 20
15.48811665228608
 30
0.0
 10
185.3794643865757
 20
15.49053389365766
 30
0.0
 10
185.3304500352712
 20
15.48291848194489
 30
0.0
 10
185.2813246108938
 20
15.49507952557599
 30
0.0
 10
185.2915559988566
 20
15.45073013424169
 30
0.0
 10
185.2856677678047
 20
15.40925436202925
 30
0.0
 10
185.2878788305563
 20
15.34915394315325
 30
0.0
 10
185.2874109346141
 20
15.30225782762917
 30
0.0
 10
185.2874386992908
 20
15.27650146418228
 30
0.0
 10
185.2874469028648
 20
15.26889163187752
 30
0.0
 11
185.2874469028648
 21
15.26889163187752
 31
0.0
 11
185.3516977534481
 21
15.18524999634264
 31
0.0
 11
185.4348258835496
 21
15.07118889748217
 31
0.0
 11
185.5216831568894
 21
14.94891767195713
 31
0.0
 11
185.5971214371871
 21
14.84064565642857
 31
0.0
 11
185.6459925881627
 21
14.76858218755751
 31
0.0
 11
185.6296821285094
 21
14.74641782124365
 31
0.0
 11
185.5937991172723
 21
14.69765621535316
 31
0.0
 11
185.5579161060352
 21
14.64889460946267
 31
0.0
 11
185.5416056463819
 21
14.62673024314881
 31
0.0
 11
185.4763067109447
 21
14.7471613902384
 31
0.0
 11
185.3848434243233
 21
14.89966983670237
 31
0.0
 11
185.2874469028648
 21
15.05219788193153
 31
0.0
 11
185.2874469028648
 21
15.02216445328263
 31
0.0
 11
185.2874469028648
 21
14.93981472956792
 31
0.0
 11
185.2874469028648
 21
14.81677455413535
 31
0.0
 11
185.2874469028648
 21
14.66466977033289
 31
0.0
 11
185.2874469028648
 21
14.49512622150848
 31
0.0
 11
185.2874469028648
 21
14.31976975101009
 31
0.0
 11
185.2874469028648
 21
14.15022620218569
 31
0.0
 11
185.2874469028648
 21
13.99812141838322
 31
0.0
 11
185.2874469028648
 21
13.87508124295065
 31
0.0
 11
185.2874469028648
 21
13.79273151923594
 31
0.0
 11
185.2874469028648
 21
13.76269809058704
 31
0.0
 11
185.2606936700405
 21
13.76269809058704
 31
0.0
 11
185.2018365578269
 21
13.76269809058704
 31
0.0
 11
185.1429794456134
 21
13.76269809058704
 31
0.0
 11
185.1162262127891
 21
13.76269809058704
 31
0.0
 11
185.1162262127891
 21
13.78864805031242
 31
0.0
 11
185.1162262127891
 21
13.860392056612
 31
0.0
 11
185.1162262127891
 21
13.96877130017095
 31
0.0
 11
185.1162262127891
 21
14.10462697167441
 31
0.0
 11
185.1162262127891
 21
14.25880026180755
 31
0.0
 11
185.1162262127891
 21
14.42213236125554
 31
0.0
 11
185.1162262127891
 21
14.58546446070352
 31
0.0
 11
185.1162262127891
 21
14.73963775083666
 31
0.0
 11
185.1162262127891
 21
14.87549342234012
 31
0.0
 11
185.1162262127891
 21
14.98387266589907
 31
0.0
 11
185.1162262127891
 21
15.05561667219865
 31
0.0
 11
185.1162262127891
 21
15.08156663192403
 31
0.0
 11
185.0379865861723
 21
14.84965603302355
 31
0.0
 11
184.9497110789304
 21
14.63077616328667
 31
0.0
 11
184.8544106930045
 21
14.43598991333558
 31
0.0
 11
184.7550964303359
 21
14.27636017379246
 31
0.0
 11
184.7109198342405
 21
14.35822446196607
 31
0.0
 11
184.6588057383478
 21
14.43414885430775
 31
0.0
 11
184.7627302590297
 21
14.59640087926731
 31
0.0
 11
184.8629319864734
 21
14.79551465421767
 31
0.0
 11
184.9550446607902
 21
15.01890447916196
 31
0.0
 11
185.0347020220914
 21
15.25398465410327
 31
0.0
 11
185.0975378104881
 21
15.4881694790447
 31
0.0
 11
185.0693965972143
 21
15.4881694790447
 31
0.0
 11
184.9990435640298
 21
15.4881694790447
 31
0.0
 11
184.90758462089
 21
15.4881694790447
 31
0.0
 11
184.8161256777502
 21
15.4881694790447
 31
0.0
 11
184.7457726445657
 21
15.4881694790447
 31
0.0
 11
184.7176314312919
 21
15.4881694790447
 31
0.0
 11
184.7176314312919
 21
15.51452032539231
 31
0.0
 11
184.7176314312919
 21
15.57249218735705
 31
0.0
 11
184.7176314312919
 21
15.6304640493218
 31
0.0
 11
184.7176314312919
 21
15.65681489566941
 31
0.0
 11
184.7397110256022
 21
15.65681489566941
 31
0.0
 11
184.7966531372446
 21
15.65681489566941
 31
0.0
 11
184.8745127592864
 21
15.65681489566941
 31
0.0
 11
184.9593448847946
 21
15.65681489566941
 31
0.0
 11
185.0372045068363
 21
15.65681489566941
 31
0.0
 11
185.0941466184787
 21
15.65681489566941
 31
0.0
 11
185.1162262127891
 21
15.65681489566941
 31
0.0
 11
185.1162262127891
 21
15.68210596174381
 31
0.0
 11
185.1162262127891
 21
15.74878240866724
 31
0.0
 11
185.1162262127891
 21
15.84304910949001
 31
0.0
 11
185.1162262127891
 21
15.95111093726245
 31
0.0
 11
185.1162262127891
 21
16.0591727650349
 31
0.0
 11
185.1162262127891
 21
16.15343946585767
 31
0.0
 11
185.1162262127891
 21
16.2201159127811
 31
0.0
 11
185.1162262127891
 21
16.2454069788555
 31
0.0
 11
185.1393181988666
 21
16.24373213107815
 31
0.0
 11
185.1943837041286
 21
16.23973826330141
 31
0.0
 11
185.2601070491186
 21
16.23497138885821
 31
0.0
 11
185.3151725543805
 21
16.23097752108146
 31
0.0
 11
185.3382645404581
 21
16.22930267330412
 31
0.0
 11
185.3249012644361
 21
16.20789677921186
 31
0.0
 11
185.2874469028648
 21
16.19450114553456
 31
0.0
 11
185.2874469028648
 21
16.17139743948566
 31
0.0
 11
185.2874469028648
 21
16.11048766899313
 31
0.0
 11
185.2874469028648
 21
16.02437385553816
 31
0.0
 11
185.2874469028648
 21
15.92565802060198
 31
0.0
 11
185.2874469028648
 21
15.8269421856658
 31
0.0
 11
185.2874469028648
 21
15.74082837221084
 31
0.0
 11
185.2874469028648
 21
15.6799186017183
 31
0.0
 11
185.2874469028648
 21
15.65681489566941
 31
0.0
 11
185.3126150604804
 21
15.65681489566941
 31
0.0
 11
185.3755354545196
 21
15.65681489566941
 31
0.0
 11
185.4573319667704
 21
15.65681489566941
 31
0.0
 11
185.5391284790213
 21
15.65681489566941
 31
0.0
 11
185.6020488730604
 21
15.65681489566941
 31
0.0
 11
185.6272170306761
 21
15.65681489566941
 31
0.0
 11
185.6272170306761
 21
15.6304640493218
 31
0.0
 11
185.6272170306761
 21
15.57249218735705
 31
0.0
 11
185.6272170306761
 21
15.51452032539231
 31
0.0
 11
185.6272170306761
 21
15.4881694790447
 31
0.0
 11
185.6020488730604
 21
15.4881694790447
 31
0.0
 11
185.5391284790213
 21
15.4881694790447
 31
0.0
 11
185.4573319667704
 21
15.4881694790447
 31
0.0
 11
185.3755354545196
 21
15.4881694790447
 31
0.0
 11
185.3126150604804
 21
15.4881694790447
 31
0.0
 11
185.2874469028648
 21
15.4881694790447
 31
0.0
 11
185.2874469028648
 21
15.46536458293931
 31
0.0
 11
185.2874469028648
 21
15.41098367684185
 31
0.0
 11
185.2874469028648
 21
15.34607743408037
 31
0.0
 11
185.2874469028648
 21
15.29169652798291
 31
0.0
 11
185.2874469028648
 21
15.26889163187752
 31
0.0
  0
SPLINE
  5
AB
102
{ACAD_REACTORS
330
C8
102
}
330
48
100
AcDbEntity
  8
_U_30EC_U_30A4_U_30E4_U_30FC_1
  6
Continuous
 62
     2
100
AcDbSpline
210
0.0
220
0.0
230
1.0
 70
    11
 71
     3
 72
    91
 73
    87
 74
    85
 42
0.000000001
 43
0.0000000001
 44
0.00000001
 40
0.0
 40
0.0
 40
0.0
 40
0.0
 40
0.0345987051695434
 40
0.1258134969461653
 40
0.2547723404889271
 40
0.4026032099154409
 40
0.5504340793417273
 40
0.6793929228836932
 40
0.7706077146571888
 40
0.8052064287781777
 40
1.124852390615471
 40
1.427402236309189
 40
1.70635662745397
 40
1.955541417875778
 40
2.16948593856704
 40
2.344350786665594
 40
2.480568411562862
 40
2.590440557429945
 40
2.649189927152188
 40
2.749320643307509
 40
2.912632739881323
 40
3.147745656001519
 40
3.244827496386183
 40
3.33849005694725
 40
3.583815413207873
 40
3.761423943239334
 40
3.886956104363497
 40
3.985855451887558
 40
4.091766255338306
 40
4.25018647381245
 40
4.422734315085115
 40
4.628285684839257
 40
4.8720932277592
 40
5.152549652146418
 40
5.464967135838511
 40
5.803201477853524
 40
6.160362988815048
 40
6.193449448277074
 40
6.2841703855027
 40
6.419718138765542
 40
6.587285046386735
 40
6.774063446724592
 40
6.96724567811449
 40
7.154024078818447
 40
7.321590987026748
 40
7.457138740891078
 40
7.547859678556757
 40
7.580946138183317
 40
7.608533084715522
 40
7.669224367078836
 40
7.72991564943139
 40
7.757502595951594
 40
7.790278062555047
 40
7.880146277432517
 40
8.01441996318195
 40
8.18041184239948
 40
8.365434637680892
 40
8.556801071624136
 40
8.74182386683222
 40
8.907815745917759
 40
9.042089431508856
 40
9.131957646250981
 40
9.164733112798558
 40
9.415425063140583
 40
9.667986180958296
 40
9.694169807462545
 40
9.756607686047753
 40
9.83113031532292
 40
9.893568193900633
 40
9.91975182039956
 40
9.950967964691548
 40
9.996421631211254
 40
10.22087981037538
 40
10.44341866197513
 40
10.47847970788822
 40
10.57091337438714
 40
10.70159545461177
 40
10.85140174170291
 40
11.001208028804
 40
11.13189010907294
 40
11.2243237758291
 40
11.25938480938854
 40
11.28697175596057
 40
11.34766303835865
 40
11.40835432042049
 40
11.43594125892099
 40
11.43594125892099
 40
11.43594125892099
 40
11.43594125892099
 10
190.0818114333288
 20
15.55242795125105
 30
0.0
 10
190.070278584494
 20
15.55242790287944
 30
0.0
 10
190.0283409444997
 20
15.55242773704192
 30
0.0
 10
189.9434129719024
 20
15.55243125800937
 30
0.0
 10
189.8207688553127
 20
15.55240926435906
 30
0.0
 10
189.6791206916992
 20
15.55250801177082
 30
0.0
 10
189.5379753698489
 20
15.55214686232448
 30
0.0
 10
189.4141351317901
 20
15.55321883609116
 30
0.0
 10
189.331721782538
 20
15.55092249091297
 30
0.0
 10
189.1727791229688
 20
15.56048569373446
 30
0.0
 10
189.3503402353375
 20
15.19785394311386
 30
0.0
 10
189.3379739205452
 20
14.9524312772312
 30
0.0
 10
189.4064519473865
 20
14.6686250132483
 30
0.0
 10
189.4693024320971
 20
14.43250999939018
 30
0.0
 10
189.545225343173
 20
14.23326740396103
 30
0.0
 10
189.6303189577018
 20
14.07745347451336
 30
0.0
 10
189.7244607592939
 20
13.97657857781354
 30
0.0
 10
189.8282648207731
 20
13.92465852638919
 30
0.0
 10
189.9125872030778
 20
13.97606484379583
 30
0.0
 10
189.9351322179455
 20
14.091445440375
 30
0.0
 10
189.9745730975373
 20
14.2188514970237
 30
0.0
 10
189.9202919734942
 20
14.53622328086735
 30
0.0
 10
190.0451218072473
 20
14.38982180140941
 30
0.0
 10
190.2019291513596
 20
14.35795300331147
 30
0.0
 10
190.0947720007051
 20
14.12421357767632
 30
0.0
 10
190.0808711209863
 20
13.95972776583644
 30
0.0
 10
190.0234709467225
 20
13.83130869122462
 30
0.0
 10
189.9335020145009
 20
13.76018802352792
 30
0.0
 10
189.8095274657879
 20
13.74432324142218
 30
0.0
 10
189.6634273196863
 20
13.77993797554141
 30
0.0
 10
189.5243894320287
 20
13.90000570500253
 30
0.0
 10
189.4102003962147
 20
14.07435682550308
 30
0.0
 10
189.3146141301489
 20
14.29946603111235
 30
0.0
 10
189.231865257263
 20
14.56388246006449
 30
0.0
 10
189.1807179256414
 20
14.8818793309856
 30
0.0
 10
189.0770189207339
 20
15.15543728488933
 30
0.0
 10
189.2042841208521
 20
15.56005818612894
 30
0.0
 10
189.0357890623019
 20
15.55112367849706
 30
0.0
 10
188.9511995787078
 20
15.55315961418391
 30
0.0
 10
188.8189876387628
 20
15.55213937388434
 30
0.0
 10
188.6560505094106
 20
15.55253230318457
 30
0.0
 10
188.4733759170535
 20
15.55235696313397
 30
0.0
 10
188.2847057373385
 20
15.55260105307496
 30
0.0
 10
188.1014469020193
 20
15.55185657906265
 30
0.0
 10
187.9404746832721
 20
15.55416360522453
 30
0.0
 10
187.8029808335279
 20
15.54799804883691
 30
0.0
 10
187.7289590372316
 20
15.56032838458237
 30
0.0
 10
187.6613215186861
 20
15.54329323723584
 30
0.0
 10
187.6732373719274
 20
15.59524438447581
 30
0.0
 10
187.6655677285699
 20
15.64071424966605
 30
0.0
 10
187.673259222512
 20
15.68614453703806
 30
0.0
 10
187.6613141797765
 20
15.73802395984694
 30
0.0
 10
187.7283588305872
 20
15.72119143490391
 30
0.0
 10
187.8017375665681
 20
15.73335409092795
 30
0.0
 10
187.9379128305277
 20
15.72727231075083
 30
0.0
 10
188.0973811801516
 20
15.72954834315183
 30
0.0
 10
188.278917308584
 20
15.72881233999087
 30
0.0
 10
188.4658034862182
 20
15.72905954196258
 30
0.0
 10
188.646801231684
 20
15.72886400799379
 30
0.0
 10
188.8080802578881
 20
15.72932234714964
 30
0.0
 10
188.9393882124891
 20
15.72812673751331
 30
0.0
 10
189.0225051322599
 20
15.73051347319868
 30
0.0
 10
189.1556236547814
 20
15.72230605725588
 30
0.0
 10
189.064589350266
 20
15.97752868952707
 30
0.0
 10
188.9789633074417
 20
16.24164358328186
 30
0.0
 10
189.0990589003451
 20
16.2290444296913
 30
0.0
 10
189.1514264948542
 20
16.22694235763053
 30
0.0
 10
189.2214497569718
 20
16.22535399889648
 30
0.0
 10
189.2671922337821
 20
16.21602567538115
 30
0.0
 10
189.322081264694
 20
16.2254596691544
 30
0.0
 10
189.2963574785684
 20
16.17733028655202
 30
0.0
 10
189.1825397571461
 20
16.18266829744198
 30
0.0
 10
189.3159346621134
 20
15.95449174576842
 30
0.0
 10
189.1943658735481
 20
15.7215685659605
 30
0.0
 10
189.3223188769419
 20
15.73087258884564
 30
0.0
 10
189.4049048406466
 20
15.72801001754805
 30
0.0
 10
189.5307214850828
 20
15.72923437412428
 30
0.0
 10
189.6741469838061
 20
15.72932431889089
 30
0.0
 10
189.8157420951729
 20
15.72746163183979
 30
0.0
 10
189.9459127249968
 20
15.73333075937286
 30
0.0
 10
190.019345228619
 20
15.72070340823332
 30
0.0
 10
190.0891112922096
 20
15.73877563110536
 30
0.0
 10
190.0775772605394
 20
15.68612850546426
 30
0.0
 10
190.0833184346681
 20
15.64221317686625
 30
0.0
 10
190.081661577091
 20
15.59089982676598
 30
0.0
 10
190.0817757561669
 20
15.56158792021668
 30
0.0
 10
190.0818114333288
 20
15.55242795125105
 30
0.0
 11
190.0818114333288
 21
15.55242795125105
 31
0.0
 11
190.047212719205
 21
15.55242795125105
 31
0.0
 11
189.955997927424
 21
15.55242795125105
 31
0.0
 11
189.8270390838715
 21
15.55242795125105
 31
0.0
 11
189.6792082144334
 21
15.55242795125105
 31
0.0
 11
189.5313773449953
 21
15.55242795125105
 31
0.0
 11
189.4024185014428
 21
15.55242795125105
 31
0.0
 11
189.3112037096618
 21
15.55242795125105
 31
0.0
 11
189.276604995538
 21
15.55242795125105
 31
0.0
 11
189.3083140497692
 21
15.23435864930138
 31
0.0
 11
189.3527866656865
 21
14.93509522788087
 31
0.0
 11
189.409238911832
 21
14.6619126951257
 31
0.0
 11
189.4768868567479
 21
14.4220860591721
 31
0.0
 11
189.5549465689763
 21
14.22289032815627
 31
0.0
 11
189.6426341170593
 21
14.07160051021442
 31
0.0
 11
189.7391655695392
 21
13.97549161348276
 31
0.0
 11
189.8437569949579
 21
13.94183864609749
 31
0.0
 11
189.894307730279
 21
13.971773769788
 31
0.0
 11
189.9310588991555
 21
14.06491619815028
 31
0.0
 11
189.9562640977529
 21
14.22627151712049
 31
0.0
 11
189.9721769222369
 21
14.46084531263477
 31
0.0
 11
190.0494082682583
 21
14.40202182306632
 31
0.0
 11
190.1327184184379
 21
14.35921885432708
 31
0.0
 11
190.1066365811212
 21
14.11528388661007
 31
0.0
 11
190.0673317805102
 21
13.94207902887545
 31
0.0
 11
190.0105702596763
 21
13.8301127244589
 31
0.0
 11
189.9321182616911
 21
13.76989341669612
 31
0.0
 11
189.8277420296258
 21
13.75192954892282
 31
0.0
 11
189.6738595065099
 21
13.78957440012329
 31
0.0
 11
189.538890237675
 21
13.89707348877377
 31
0.0
 11
189.4221739916166
 21
14.06627361744793
 31
0.0
 11
189.3230505368303
 21
14.28902158871938
 31
0.0
 11
189.2408596418116
 21
14.55716420516178
 31
0.0
 11
189.1749410750562
 21
14.86254826934877
 31
0.0
 11
189.1246346050594
 21
15.19702058385398
 31
0.0
 11
189.0892800003171
 21
15.55242795125105
 31
0.0
 11
189.0561935405844
 21
15.55242795125105
 31
0.0
 11
188.9654726026075
 21
15.55242795125105
 31
0.0
 11
188.8299248482186
 21
15.55242795125105
 31
0.0
 11
188.6623579392496
 21
15.55242795125105
 31
0.0
 11
188.4755795375326
 21
15.55242795125105
 31
0.0
 11
188.2823973048995
 21
15.55242795125105
 31
0.0
 11
188.0956189031825
 21
15.55242795125105
 31
0.0
 11
187.9280519942135
 21
15.55242795125105
 31
0.0
 11
187.7925042398246
 21
15.55242795125105
 31
0.0
 11
187.7017833018477
 21
15.55242795125105
 31
0.0
 11
187.668696842115
 21
15.55242795125105
 31
0.0
 11
187.668696842115
 21
15.58001489785889
 31
0.0
 11
187.668696842115
 21
15.64070618039614
 31
0.0
 11
187.668696842115
 21
15.70139746293339
 31
0.0
 11
187.668696842115
 21
15.72898440954123
 31
0.0
 11
187.7014723087636
 21
15.72898440954123
 31
0.0
 11
187.7913405237678
 21
15.72898440954123
 31
0.0
 11
187.9256142097152
 21
15.72898440954123
 31
0.0
 11
188.0916060891936
 21
15.72898440954123
 31
0.0
 11
188.2766288847905
 21
15.72898440954123
 31
0.0
 11
188.4679953190935
 21
15.72898440954123
 31
0.0
 11
188.6530181146905
 21
15.72898440954123
 31
0.0
 11
188.8190099941688
 21
15.72898440954123
 31
0.0
 11
188.9532836801163
 21
15.72898440954123
 31
0.0
 11
189.0431518951205
 21
15.72898440954123
 31
0.0
 11
189.0759273617691
 21
15.72898440954123
 31
0.0
 11
189.0659183950104
 21
15.97947647544993
 31
0.0
 11
189.0599112510658
 21
16.23196614552489
 31
0.0
 11
189.0860575870655
 21
16.23056921608085
 31
0.0
 11
189.1484065421418
 21
16.22723807663737
 31
0.0
 11
189.2228230369102
 21
16.22326220052742
 31
0.0
 11
189.2851719919864
 21
16.21993106108394
 31
0.0
 11
189.3113183279861
 21
16.2185341316399
 31
0.0
 11
189.2982931113042
 21
16.19016528616089
 31
0.0
 11
189.2551649266411
 21
16.17581274276199
 31
0.0
 11
189.2574991961824
 21
15.95136670115119
 31
0.0
 11
189.2658452735909
 21
15.72898440954123
 31
0.0
 11
189.3009063195171
 21
15.72898440954123
 31
0.0
 11
189.39333998605
 21
15.72898440954123
 31
0.0
 11
189.5240220663205
 21
15.72898440954123
 31
0.0
 11
189.6738283534598
 21
15.72898440954123
 31
0.0
 11
189.8236346405992
 21
15.72898440954123
 31
0.0
 11
189.9543167208698
 21
15.72898440954123
 31
0.0
 11
190.0467503874026
 21
15.72898440954123
 31
0.0
 11
190.0818114333288
 21
15.72898440954123
 31
0.0
 11
190.0818114333288
 21
15.70139746293339
 31
0.0
 11
190.0818114333288
 21
15.64070618039614
 31
0.0
 11
190.0818114333288
 21
15.58001489785889
 31
0.0
 11
190.0818114333288
 21
15.55242795125105
 31
0.0
  0
SPLINE
  5
AC
102
{ACAD_REACTORS
330
C9
102
}
330
48
100
AcDbEntity
  8
_U_30EC_U_30A4_U_30E4_U_30FC_1
  6
Continuous
 62
     2
100
AcDbSpline
210
0.0
220
0.0
230
1.0
 70
    11
 71
     3
 72
    75
 73
    71
 74
    69
 42
0.000000001
 43
0.0000000001
 44
0.00000001
 40
0.0
 40
0.0
 40
0.0
 40
0.0
 40
0.0342546099129496
 40
0.1245622414431636
 40
0.2522385480896079
 40
0.3985991922938371
 40
0.5449598364977677
 40
0.6726361431434944
 40
0.7629437746732537
 40
0.7971983935293372
 40
1.101723623449954
 40
1.4085912440374
 40
1.433332471691078
 40
1.487763172450819
 40
1.542193873082593
 40
1.566935100593117
 40
1.923523931822626
 40
2.271755704954614
 40
2.590579755101855
 40
2.858943305581705
 40
2.889120339309744
 40
2.91830585519111
 40
2.9413666455312
 40
2.99635776097302
 40
3.061992318140499
 40
3.11698343362661
 40
3.140044223997267
 40
3.411273122936113
 40
3.73244161974089
 40
3.761068217532558
 40
3.837787499630038
 40
3.948858699125558
 40
4.080541049103796
 40
4.21909378262503
 40
4.350776132721442
 40
4.461847332404656
 40
4.538566614677308
 40
4.567193212543523
 40
4.594907573997753
 40
4.666381453556235
 40
4.764111044009788
 40
4.870592538124535
 40
4.968322128640872
 40
5.039796008285529
 40
5.067510369782959
 40
5.094263603184396
 40
5.153120716667519
 40
5.211977830150453
 40
5.238731063551682
 40
5.272290535138949
 40
5.363380529444725
 40
5.497618415781345
 40
5.660621563453502
 40
5.838007341749146
 40
6.015393119910441
 40
6.17839626703801
 40
6.312634151841876
 40
6.403724143058866
 40
6.437283612671933
 40
6.464036846260771
 40
6.522893960004876
 40
6.581751071484629
 40
6.608504301591798
 40
6.637253941281974
 40
6.71139774890391
 40
6.812778057284636
 40
6.923237199250498
 40
7.024617507625284
 40
7.098761315209051
 40
7.127510946009029
 40
7.127510946009029
 40
7.127510946009029
 40
7.127510946009029
 10
188.4418622390558
 20
14.95849128473219
 30
0.0
 10
188.4418622819701
 20
14.94707313408676
 30
0.0
 10
188.4418624481121
 20
14.90555257842586
 30
0.0
 10
188.4418593081781
 20
14.82146922003735
 30
0.0
 10
188.4418788279794
 20
14.70004497322298
 30
0.0
 10
188.4417912187731
 20
14.55980494047426
 30
0.0
 10
188.4421116235224
 20
14.42006556794562
 30
0.0
 10
188.4411605909734
 20
14.29745038894922
 30
0.0
 10
188.4431978595961
 20
14.2158707443804
 30
0.0
 10
188.4349433178739
 20
14.06271267077673
 30
0.0
 10
188.7430797940901
 20
14.22560236054713
 30
0.0
 10
189.0350645173743
 20
14.39482938688022
 30
0.0
 10
189.0408354448713
 20
14.25973235781916
 30
0.0
 10
189.0455471719895
 20
14.21617221160453
 30
0.0
 10
189.0482535411922
 20
14.17211249350558
 30
0.0
 10
189.0672545672958
 20
14.02272590363138
 30
0.0
 10
188.6583942247305
 20
14.08681172241266
 30
0.0
 10
188.3793710348833
 20
13.97296341411013
 30
0.0
 10
188.1018081587159
 20
13.87364095811192
 30
0.0
 10
187.8099837184418
 20
13.91630687596275
 30
0.0
 10
187.7869144678658
 20
13.81321679744566
 30
0.0
 10
187.7537474383338
 20
13.7869109124451
 30
0.0
 10
187.7480653962744
 20
13.8345530903633
 30
0.0
 10
187.7284214559049
 20
13.87180336115078
 30
0.0
 10
187.7095089485626
 20
13.93007387847561
 30
0.0
 10
187.694284986771
 20
13.97385201007795
 30
0.0
 10
187.6477246372934
 20
14.08759421046281
 30
0.0
 10
187.9890897312454
 20
14.05576301120079
 30
0.0
 10
188.2679649367387
 20
14.02161435106517
 30
0.0
 10
188.2617753034908
 20
14.16913976479691
 30
0.0
 10
188.2630935452775
 20
14.24013150908864
 30
0.0
 10
188.262483168995
 20
14.34719767958682
 30
0.0
 10
188.2625871570726
 20
14.47398529786004
 30
0.0
 10
188.2629987964057
 20
14.60849243496043
 30
0.0
 10
188.261390784197
 20
14.73395549951163
 30
0.0
 10
188.2659902567926
 20
14.84505246719084
 30
0.0
 10
188.2564186502211
 20
14.90761886800649
 30
0.0
 10
188.2704001783692
 20
14.96595388294955
 30
0.0
 10
188.2147384386706
 20
14.95289710582193
 30
0.0
 10
188.1575655197823
 20
14.96136307749453
 30
0.0
 10
188.061604892565
 20
14.95729976080591
 30
0.0
 10
187.9633767522825
 20
14.95970889852429
 30
0.0
 10
187.8672582457563
 20
14.95551600613344
 30
0.0
 10
187.8104648525816
 20
14.96429346441115
 30
0.0
 10
187.7550356873388
 20
14.95094936850078
 30
0.0
 10
187.7670679427922
 20
15.00036910959248
 30
0.0
 10
187.7592003173942
 20
15.04393988030422
 30
0.0
 10
187.7666295563834
 20
15.08830469118585
 30
0.0
 10
187.7551930564148
 20
15.13902297764088
 30
0.0
 10
187.8232102370137
 20
15.12162460757843
 30
0.0
 10
187.8968496879751
 20
15.13417450237284
 30
0.0
 10
188.0325064058214
 20
15.12799677011194
 30
0.0
 10
188.1884909024528
 20
15.13029203093181
 30
0.0
 10
188.3615926358145
 20
15.12940968262627
 30
0.0
 10
188.5346942964183
 20
15.13029207142505
 30
0.0
 10
188.6906789811217
 20
15.12799662955648
 30
0.0
 10
188.8263351889798
 20
15.13417486262527
 30
0.0
 10
188.8999756705653
 20
15.12162394218435
 30
0.0
 10
188.9679914174724
 20
15.13902373012238
 30
0.0
 10
188.9565590885922
 20
15.08830130414616
 30
0.0
 10
188.9639539458298
 20
15.04397060811134
 30
0.0
 10
188.956203991227
 20
15.00028307550187
 30
0.0
 10
188.9681203741877
 20
14.95063590098431
 30
0.0
 10
188.9108170223617
 20
14.96461411338379
 30
0.0
 10
188.8520145789771
 20
14.95539755673209
 30
0.0
 10
188.7525293633198
 20
14.95952268164884
 30
0.0
 10
188.6494280098346
 20
14.95822760025843
 30
0.0
 10
188.5537846354568
 20
14.95854077077595
 30
0.0
 10
188.4857467971612
 20
14.958487766971
 30
0.0
 10
188.4514462213437
 20
14.95849051871611
 30
0.0
 10
188.4418622390558
 20
14.95849128473219
 30
0.0
 11
188.4418622390558
 21
14.95849128473219
 31
0.0
 11
188.4418622390558
 21
14.92423666587142
 31
0.0
 11
188.4418622390558
 21
14.83392903432937
 31
0.0
 11
188.4418622390558
 21
14.70625272766648
 31
0.0
 11
188.4418622390558
 21
14.55989208344318
 31
0.0
 11
188.4418622390558
 21
14.41353143921987
 31
0.0
 11
188.4418622390558
 21
14.28585513255698
 31
0.0
 11
188.4418622390558
 21
14.19554750101494
 31
0.0
 11
188.4418622390558
 21
14.16129288215416
 31
0.0
 11
188.7391932644569
 21
14.22709475713771
 31
0.0
 11
189.0384623627251
 21
14.29496038212074
 31
0.0
 11
189.0405487124982
 21
14.27030727882832
 31
0.0
 11
189.0451386819991
 21
14.21607045158498
 31
0.0
 11
189.0497286515
 21
14.16183362434165
 31
0.0
 11
189.0518150012731
 21
14.13718052104923
 31
0.0
 11
188.7056396889241
 21
14.051633701409
 31
0.0
 11
188.3669653138837
 21
13.97060877629906
 31
0.0
 11
188.0563731516687
 21
13.89862764024934
 31
0.0
 11
187.7944444777959
 21
13.8402121877898
 31
0.0
 11
187.7817515029292
 21
13.81283442738016
 31
0.0
 11
187.7569794787519
 21
13.79740260446761
 31
0.0
 11
187.7491867589507
 21
13.81910683390658
 31
0.0
 11
187.7306041194246
 21
13.87086307333797
 31
0.0
 11
187.7084248399903
 21
13.93263664943349
 31
0.0
 11
187.6898422004643
 21
13.98439288886487
 31
0.0
 11
187.682049480663
 21
14.00609711830384
 31
0.0
 11
187.9482776335932
 21
14.05794001759682
 31
0.0
 11
188.262633493629
 21
14.12373968771954
 31
0.0
 11
188.262633493629
 21
14.15236628569665
 31
0.0
 11
188.262633493629
 21
14.22908556827532
 31
0.0
 11
188.262633493629
 21
14.34015676842652
 31
0.0
 11
188.262633493629
 21
14.47183911912125
 31
0.0
 11
188.262633493629
 21
14.61039185333048
 31
0.0
 11
188.262633493629
 21
14.74207420402521
 31
0.0
 11
188.262633493629
 21
14.85314540417641
 31
0.0
 11
188.262633493629
 21
14.92986468675508
 31
0.0
 11
188.262633493629
 21
14.95849128473219
 31
0.0
 11
188.234919132111
 21
14.95849128473219
 31
0.0
 11
188.1634452524065
 21
14.95849128473219
 31
0.0
 11
188.0657156617903
 21
14.95849128473219
 31
0.0
 11
187.9592341675367
 21
14.95849128473219
 31
0.0
 11
187.8615045769205
 21
14.95849128473219
 31
0.0
 11
187.790030697216
 21
14.95849128473219
 31
0.0
 11
187.762316335698
 21
14.95849128473219
 31
0.0
 11
187.762316335698
 21
14.98524451823266
 31
0.0
 11
187.762316335698
 21
15.0441016319337
 31
0.0
 11
187.762316335698
 21
15.10295874563474
 31
0.0
 11
187.762316335698
 21
15.12971197913521
 31
0.0
 11
187.795875807288
 21
15.12971197913521
 31
0.0
 11
187.8869658016035
 21
15.12971197913521
 31
0.0
 11
188.0212036879633
 21
15.12971197913521
 31
0.0
 11
188.1842068356859
 21
15.12971197913521
 31
0.0
 11
188.3615926140899
 21
15.12971197913521
 31
0.0
 11
188.5389783924939
 21
15.12971197913521
 31
0.0
 11
188.7019815402165
 21
15.12971197913521
 31
0.0
 11
188.8362194265763
 21
15.12971197913521
 31
0.0
 11
188.9273094208919
 21
15.12971197913521
 31
0.0
 11
188.9608688924818
 21
15.12971197913521
 31
0.0
 11
188.9608688924818
 21
15.10295874563474
 31
0.0
 11
188.9608688924818
 21
15.0441016319337
 31
0.0
 11
188.9608688924818
 21
14.98524451823266
 31
0.0
 11
188.9608688924818
 21
14.95849128473219
 31
0.0
 11
188.9321192527877
 21
14.95849128473219
 31
0.0
 11
188.8579754451554
 21
14.95849128473219
 31
0.0
 11
188.7565951367602
 21
14.95849128473219
 31
0.0
 11
188.6461359947774
 21
14.95849128473219
 31
0.0
 11
188.5447556863822
 21
14.95849128473219
 31
0.0
 11
188.4706118787499
 21
14.95849128473219
 31
0.0
 11
188.4418622390558
 21
14.95849128473219
 31
0.0
  0
SPLINE
  5
AD
102
{ACAD_REACTORS
330
CA
102
}
330
48
100
AcDbEntity
  8
_U_30EC_U_30A4_U_30E4_U_30FC_1
  6
Continuous
 62
     2
100
AcDbSpline
210
0.0
220
0.0
230
1.0
 70
    11
 71
     3
 72
    15
 73
    11
 74
     9
 42
0.000000001
 43
0.0000000001
 44
0.00000001
 40
0.0
 40
0.0
 40
0.0
 40
0.0
 40
0.2785535985094267
 40
0.5215624748195061
 40
0.607691737603543
 40
0.69382100017353
 40
0.9405019146454294
 40
1.221691403489085
 40
1.300471877080945
 40
1.379252341684678
 40
1.379252341684678
 40
1.379252341684678
 40
1.379252341684678
 10
189.5681493631
 20
16.22930267330412
 30
0.0
 10
189.629601779418
 20
16.17691646592763
 30
0.0
 10
189.7446649974118
 20
16.07882876798301
 30
0.0
 10
190.0397348497235
 20
15.92889785897288
 30
0.0
 10
189.9025147631857
 20
15.84343227515024
 30
0.0
 10
189.8041227843784
 20
15.71085785201506
 30
0.0
 10
189.7130033590648
 20
16.01616985781409
 30
0.0
 10
189.3636839480656
 20
16.07967869465418
 30
0.0
 10
189.5119258376571
 20
16.17896509880915
 30
0.0
 10
189.5494081874237
 20
16.21252348402415
 30
0.0
 10
189.5681493631
 20
16.22930267330412
 30
0.0
 11
189.5681493631
 21
16.22930267330412
 31
0.0
 11
189.7919222440597
 21
16.06341774279042
 31
0.0
 11
189.9695046306379
 21
15.89753281227604
 31
0.0
 11
189.9066308127979
 21
15.83866743034605
 31
0.0
 11
189.8437569949579
 21
15.77980204841606
 31
0.0
 11
189.6688535117723
 21
15.95375677059496
 31
0.0
 11
189.4478256856141
 21
16.12757920110744
 31
0.0
 11
189.507987524357
 21
16.17844093720578
 31
0.0
 11
189.5681493631
 21
16.22930267330412
 31
0.0
  0
SPLINE
  5
AE
102
{ACAD_REACTORS
330
CB
102
}
330
48
100
AcDbEntity
  8
_U_30EC_U_30A4_U_30E4_U_30FC_1
  6
Continuous
 62
     2
100
AcDbSpline
210
0.0
220
0.0
230
1.0
 70
    11
 71
     3
 72
    35
 73
    31
 74
    29
 42
0.000000001
 43
0.0000000001
 44
0.00000001
 40
0.0
 40
0.0
 40
0.0
 40
0.0
 40
0.0335231036627798
 40
0.0713218571723466
 40
0.4278866681499655
 40
0.8116865841978511
 40
1.198190238001529
 40
1.561379546813834
 40
1.659983174623012
 40
1.75931557380711
 40
2.132719617231126
 40
2.525233363588756
 40
2.910815397779449
 40
3.265244364302857
 40
3.592606723581619
 40
3.964386154603573
 40
4.359942131737517
 40
4.758154118639427
 40
4.843846538700196
 40
4.936650065543228
 40
5.256616602537389
 40
5.581707404416109
 40
5.899719158308168
 40
6.198363494280635
 40
6.466301046615564
 40
6.493895311536822
 40
6.559697020196627
 40
6.638234543442155
 40
6.704036252153892
 40
6.731630508422663
 40
6.731630508422663
 40
6.731630508422663
 40
6.731630508422663
 10
191.9736010568668
 20
16.23463843719219
 30
0.0
 10
191.9676006097788
 20
16.22480690542374
 30
0.0
 10
191.9548344099157
 20
16.20388988579791
 30
0.0
 10
191.7949362006548
 20
16.17127126532705
 30
0.0
 10
192.2322025842337
 20
15.8820668033671
 30
0.0
 10
192.4345394828262
 20
15.68041138358466
 30
0.0
 10
192.6819564267976
 20
15.43749387603279
 30
0.0
 10
193.1831513624597
 20
15.36047662757831
 30
0.0
 10
193.0125562198976
 20
15.21876939174658
 30
0.0
 10
192.93832994632
 20
15.01710366209245
 30
0.0
 10
192.6131432248191
 20
15.36956287174748
 30
0.0
 10
192.3277741670664
 20
15.53175212559563
 30
0.0
 10
192.0337604077657
 20
15.73687130053026
 30
0.0
 10
191.8084452691139
 20
16.21827488595442
 30
0.0
 10
191.5993085055522
 20
15.75343046609233
 30
0.0
 10
191.3207873674835
 20
15.5435095225291
 30
0.0
 10
191.0371383177213
 20
15.37424456359992
 30
0.0
 10
190.7078639527822
 20
15.00142360907839
 30
0.0
 10
190.6277012318228
 20
15.19708014459011
 30
0.0
 10
190.4759724909744
 20
15.32491104190557
 30
0.0
 10
190.9083395826797
 20
15.40454031765947
 30
0.0
 10
191.0962565329766
 20
15.60026634915478
 30
0.0
 10
191.3468477420504
 20
15.81632996916748
 30
0.0
 10
191.5714350470161
 20
15.98190992300067
 30
0.0
 10
191.6259775409714
 20
16.26133964636771
 30
0.0
 10
191.749466102901
 20
16.24737950408074
 30
0.0
 10
191.806027334452
 20
16.24521268867666
 30
0.0
 10
191.8761870984944
 20
16.24046859881406
 30
0.0
 10
191.9333414022104
 20
16.2370942935061
 30
0.0
 10
191.9644190320838
 20
16.235198547112
 30
0.0
 10
191.9736010568668
 20
16.23463843719219
 30
0.0
 11
191.9736010568668
 21
16.23463843719219
 31
0.0
 11
191.9525319069882
 21
16.20856374969787
 31
0.0
 11
191.9174464559419
 21
16.19450114553456
 31
0.0
 11
192.1512374769093
 21
15.92527961131393
 31
0.0
 11
192.4414585957568
 21
15.67413407969275
 31
0.0
 11
192.7612797483685
 21
15.45710987618796
 31
0.0
 11
193.0838708706287
 21
15.29025232631648
 31
0.0
 11
193.0213299868079
 21
15.21402035584924
 31
0.0
 11
192.9688035818981
 21
15.12971197913521
 31
0.0
 11
192.6436279095815
 21
15.31326404831623
 31
0.0
 11
192.3237227768436
 21
15.5407013974343
 31
0.0
 11
192.0354200158608
 21
15.79673855123292
 31
0.0
 11
191.8050514588099
 21
16.06609003445556
 31
0.0
 11
191.5995531719518
 21
15.81126348721041
 31
0.0
 11
191.3288301341537
 21
15.5564518227776
 31
0.0
 11
191.0119538423248
 21
15.31969466354847
 31
0.0
 11
190.6679957933739
 21
15.11903163191437
 31
0.0
 11
190.6218855341339
 21
15.19126067703564
 31
0.0
 11
190.563697046035
 21
15.26355586798945
 31
0.0
 11
190.8433040489016
 21
15.41911456961745
 31
0.0
 11
191.1093004621155
 21
15.60601009790411
 31
0.0
 11
191.3499997459747
 21
15.81384496285209
 31
0.0
 11
191.5537153607774
 21
16.03222167446405
 31
0.0
 11
191.7087607668218
 21
16.25074274274266
 31
0.0
 11
191.7363041569864
 21
16.24906789496541
 31
0.0
 11
191.8019845489177
 21
16.2450740271889
 31
0.0
 11
191.880377274771
 21
16.24030715274596
 31
0.0
 11
191.9460576667021
 21
16.23631328496944
 31
0.0
 11
191.9736010568668
 21
16.23463843719219
 31
0.0
  0
SPLINE
  5
AF
102
{ACAD_REACTORS
330
CC
102
}
330
48
100
AcDbEntity
  8
_U_30EC_U_30A4_U_30E4_U_30FC_1
  6
Continuous
 62
     2
100
AcDbSpline
210
0.0
220
0.0
230
1.0
 70
    11
 71
     3
 72
    91
 73
    87
 74
    85
 42
0.000000001
 43
0.0000000001
 44
0.00000001
 40
0.0
 40
0.0
 40
0.0
 40
0.0
 40
0.0267532254357448
 40
0.0856103386466518
 40
0.1444674522000688
 40
0.1712206856623328
 40
0.2039416005647066
 40
0.2955601971657014
 40
0.4362601844621164
 40
0.6162252844511211
 40
0.8256392189707806
 40
1.054685709844693
 40
1.293548478893728
 40
1.532411247938387
 40
1.761457738799595
 40
1.970871673298506
 40
2.150836773256645
 40
2.291536760495478
 40
2.383155356836556
 40
2.415876284101176
 40
2.442629517487894
 40
2.501486630949191
 40
2.560343744424503
 40
2.587096977826852
 40
2.617068194441251
 40
2.699247336756392
 40
2.822032643466676
 40
2.973822353258178
 40
3.143014704823591
 40
3.318007936880142
 40
3.487200288186947
 40
3.638989997548427
 40
3.761775303794898
 40
3.843954445753204
 40
3.8739256622299
 40
3.890812773500413
 40
3.907699884771397
 40
3.937960767857136
 40
3.980983618142409
 40
4.199085915228382
 40
4.439444339237258
 40
4.677588241260923
 40
5.05069831783756
 40
5.448212454762981
 40
5.855291218043936
 40
6.138575438883912
 40
6.417434507582467
 40
6.444551104392167
 40
6.504207617361581
 40
6.563864130312994
 40
6.590980727102606
 40
6.848609460379749
 40
7.10961199066663
 40
7.352910904444245
 40
7.557830220703543
 40
7.587518925911386
 40
7.652834077373695
 40
7.718149228843498
 40
7.747837934059751
 40
7.854880190297234
 40
7.976511257399991
 40
8.369487896589076
 40
8.757514959220526
 40
9.126072419328022
 40
9.46063938038897
 40
9.74669559303248
 40
9.7775699431152
 40
9.807050320928452
 40
9.830377336125634
 40
9.886003295432845
 40
9.952395569426916
 40
10.00802152870342
 40
10.03134854387939
 40
10.21356951009292
 40
10.42203479292584
 40
10.66154556730782
 40
10.91693789564034
 40
11.15832906556234
 40
11.18982674596292
 40
11.27286608520073
 40
11.39026653033012
 40
11.52484752840546
 40
11.65942852648102
 40
11.77682897161138
 40
11.85986831085332
 40
11.89136598230077
 40
11.89136598230077
 40
11.89136598230077
 40
11.89136598230077
 10
190.7027885008201
 20
14.70699600701755
 30
0.0
 10
190.7028237765293
 20
14.71587847311971
 30
0.0
 10
190.70293667108
 20
14.7443023704734
 30
0.0
 10
190.7012984568493
 20
14.7940963916981
 30
0.0
 10
190.7069750292916
 20
14.83657564478173
 30
0.0
 10
190.6956928731711
 20
14.88730154856877
 30
0.0
 10
190.7632296979037
 20
14.87012900740141
 30
0.0
 10
190.8388029210705
 20
14.88290227166026
 30
0.0
 10
190.9828357056005
 20
14.87629729457413
 30
0.0
 10
191.1569419185431
 20
14.87888462206497
 30
0.0
 10
191.3639599611006
 20
14.87800591955583
 30
0.0
 10
191.589468817238
 20
14.87828207920058
 30
0.0
 10
191.8251162293408
 20
14.87818339658694
 30
0.0
 10
192.0607640531349
 20
14.87828184412798
 30
0.0
 10
192.2862717580627
 20
14.8780067819082
 30
0.0
 10
192.4932934632805
 20
14.87888186270766
 30
0.0
 10
192.6673888915287
 20
14.87630522678478
 30
0.0
 10
192.8114492071984
 20
14.88288290449243
 30
0.0
 10
192.8869691915293
 20
14.87016243405637
 30
0.0
 10
192.9545776037029
 20
14.88726400191717
 30
0.0
 10
192.9430840140674
 20
14.83674785802959
 30
0.0
 10
192.9505104581731
 20
14.79253252226508
 30
0.0
 10
192.9428838927985
 20
14.74867966503605
 30
0.0
 10
192.9546489459424
 20
14.69878374479311
 30
0.0
 10
192.8930788491982
 20
14.71393227712494
 30
0.0
 10
192.825679173867
 20
14.70310665350657
 30
0.0
 10
192.7013004056221
 20
14.70852031626219
 30
0.0
 10
192.555442823657
 20
14.70649205390768
 30
0.0
 10
192.3893576440086
 20
14.7071577757837
 30
0.0
 10
192.2188412621725
 20
14.70689643521225
 30
0.0
 10
192.0519790855388
 20
14.70721553391076
 30
0.0
 10
191.9087346827106
 20
14.70635302590746
 30
0.0
 10
191.7773313869834
 20
14.70863300482966
 30
0.0
 10
191.7239859134659
 20
14.70407704374194
 30
0.0
 10
191.6485188456913
 20
14.7099991499285
 30
0.0
 10
191.6769075779233
 20
14.70094169343364
 30
0.0
 10
191.7033652409541
 20
14.69725912268975
 30
0.0
 10
191.6633522907701
 20
14.66654271968267
 30
0.0
 10
191.5713663691868
 20
14.67667591174579
 30
0.0
 10
191.5439396207071
 20
14.43032502247766
 30
0.0
 10
191.4478793967232
 20
14.2749955876436
 30
0.0
 10
191.1917277964476
 20
13.94525417931532
 30
0.0
 10
191.7627537732761
 20
14.08430022210449
 30
0.0
 10
192.0173656320513
 20
14.08291779973388
 30
0.0
 10
192.6279647048606
 20
13.99790569242096
 30
0.0
 10
192.3340698578081
 20
14.29685417558194
 30
0.0
 10
192.0133304286521
 20
14.44330856901745
 30
0.0
 10
192.1313543360437
 20
14.50025540818264
 30
0.0
 10
192.1724716466264
 20
14.52420099873329
 30
0.0
 10
192.2156812394416
 20
14.54599758811218
 30
0.0
 10
192.3174574094452
 20
14.60928721253902
 30
0.0
 10
192.4328867625248
 20
14.35147151408757
 30
0.0
 10
192.6329591642277
 20
14.21616041113667
 30
0.0
 10
192.7269077387225
 20
14.03792795138905
 30
0.0
 10
192.9558829746397
 20
13.87997821027022
 30
0.0
 10
192.8596031846709
 20
13.82915972576362
 30
0.0
 10
192.8167959763778
 20
13.79881292523168
 30
0.0
 10
192.7718243528776
 20
13.77466130281619
 30
0.0
 10
192.7121720925211
 20
13.72552146747827
 30
0.0
 10
192.6789731061315
 20
13.85997475673657
 30
0.0
 10
192.5582013350805
 20
14.01594265286756
 30
0.0
 10
192.1970976005974
 20
13.88569928059555
 30
0.0
 10
191.8385061955539
 20
13.90224694409497
 30
0.0
 10
191.4570920450076
 20
13.89331229351861
 30
0.0
 10
191.1703455282891
 20
13.82882671672407
 30
0.0
 10
190.859205559971
 20
13.94230668192827
 30
0.0
 10
190.8268737818789
 20
13.83122259927773
 30
0.0
 10
190.789617825332
 20
13.81196313849957
 30
0.0
 10
190.7865737632756
 20
13.85874784087271
 30
0.0
 10
190.7679892860609
 20
13.8980685391911
 30
0.0
 10
190.751243661678
 20
13.95765983478229
 30
0.0
 10
190.7383730915755
 20
14.00201969871287
 30
0.0
 10
190.7042327806432
 20
14.09106331120214
 30
0.0
 10
190.9482714457754
 20
14.02181042943756
 30
0.0
 10
191.1441394486673
 20
14.00030369057791
 30
0.0
 10
191.2395426381275
 20
14.2822648447852
 30
0.0
 10
191.2945135769593
 20
14.44363045421175
 30
0.0
 10
191.5159619357158
 20
14.71391177589722
 30
0.0
 10
191.3849239381219
 20
14.70548446853717
 30
0.0
 10
191.3110026555858
 20
14.70779008496953
 30
0.0
 10
191.1977459876247
 20
14.7067137832164
 30
0.0
 10
191.0694251807489
 20
14.70707639076493
 30
0.0
 10
190.9404252030419
 20
14.70697724466068
 30
0.0
 10
190.8287840946296
 20
14.70699932712555
 30
0.0
 10
190.7514663970031
 20
14.70699579189653
 30
0.0
 10
190.7132876532015
 20
14.70699595845064
 30
0.0
 10
190.7027885008201
 20
14.70699600701755
 30
0.0
 11
190.7027885008201
 21
14.70699600701755
 31
0.0
 11
190.7027885008201
 21
14.73374924051788
 31
0.0
 11
190.7027885008201
 21
14.79260635421861
 31
0.0
 11
190.7027885008201
 21
14.85146346791933
 31
0.0
 11
190.7027885008201
 21
14.87821670141966
 31
0.0
 11
190.7355094280994
 21
14.87821670141966
 31
0.0
 11
190.8271280244814
 21
14.87821670141966
 31
0.0
 11
190.9678280117823
 21
14.87821670141966
 31
0.0
 11
191.1477931118184
 21
14.87821670141966
 31
0.0
 11
191.3572070464057
 21
14.87821670141966
 31
0.0
 11
191.5862535373607
 21
14.87821670141966
 31
0.0
 11
191.8251163064995
 21
14.87821670141966
 31
0.0
 11
192.0639790756382
 21
14.87821670141966
 31
0.0
 11
192.2930255665932
 21
14.87821670141966
 31
0.0
 11
192.5024395011806
 21
14.87821670141966
 31
0.0
 11
192.6824046012166
 21
14.87821670141966
 31
0.0
 11
192.8231045885175
 21
14.87821670141966
 31
0.0
 11
192.9147231848995
 21
14.87821670141966
 31
0.0
 11
192.9474441121788
 21
14.87821670141966
 31
0.0
 11
192.9474441121788
 21
14.85146346791933
 31
0.0
 11
192.9474441121788
 21
14.79260635421861
 31
0.0
 11
192.9474441121788
 21
14.73374924051788
 31
0.0
 11
192.9474441121788
 21
14.70699600701755
 31
0.0
 11
192.9174728954757
 21
14.70699600701755
 31
0.0
 11
192.8352937529026
 21
14.70699600701755
 31
0.0
 11
192.7125084457639
 21
14.70699600701755
 31
0.0
 11
192.5607187353642
 21
14.70699600701755
 31
0.0
 11
192.3915263830077
 21
14.70699600701755
 31
0.0
 11
192.2165331499991
 21
14.70699600701755
 31
0.0
 11
192.0473407976427
 21
14.70699600701755
 31
0.0
 11
191.8955510872429
 21
14.70699600701755
 31
0.0
 11
191.7727657801043
 21
14.70699600701755
 31
0.0
 11
191.6905866375311
 21
14.70699600701755
 31
0.0
 11
191.660615420828
 21
14.70699600701755
 31
0.0
 11
191.6766359412525
 21
14.70165583340804
 31
0.0
 11
191.692656461677
 21
14.69631565979853
 31
0.0
 11
191.670615568142
 21
14.67558114591452
 31
0.0
 11
191.6284861855361
 21
14.66685871536083
 31
0.0
 11
191.5365235541378
 21
14.46909247312636
 31
0.0
 11
191.4279078521762
 21
14.25467511978487
 31
0.0
 11
191.3127500824808
 21
14.04622559051586
 31
0.0
 11
191.6857366675018
 21
14.05582441253022
 31
0.0
 11
192.0830700036149
 21
14.06781232405009
 31
0.0
 11
192.4899342191138
 21
14.08102711828542
 31
0.0
 11
192.2983119496978
 21
14.28966761302456
 31
0.0
 11
192.0966752013701
 21
14.48229420151802
 31
0.0
 11
192.1204947794752
 21
14.49525327269538
 31
0.0
 11
192.1728978513065
 21
14.52376322928558
 31
0.0
 11
192.2253009231378
 21
14.55227318587578
 31
0.0
 11
192.2491205012429
 21
14.56523225705314
 31
0.0
 11
192.4387101558627
 21
14.39079508370257
 31
0.0
 11
192.6200310940435
 21
14.20305846374083
 31
0.0
 11
192.7777729231147
 21
14.01782380992439
 31
0.0
 11
192.896625250406
 21
13.85089253500973
 31
0.0
 11
192.8715408217924
 21
13.8350120228612
 31
0.0
 11
192.8163550788424
 21
13.80007489613445
 31
0.0
 11
192.7611693358924
 21
13.76513776940769
 31
0.0
 11
192.7360849072788
 21
13.74925725725916
 31
0.0
 11
192.6775518151609
 21
13.83887824681847
 31
0.0
 11
192.6050015078458
 21
13.93650288221124
 31
0.0
 11
192.2125412924093
 21
13.91636286943797
 31
0.0
 11
191.8249474069557
 21
13.89803302999782
 31
0.0
 11
191.4567378976209
 21
13.88202178722394
 31
0.0
 11
191.122430810541
 21
13.86883756444948
 31
0.0
 11
190.8365441918518
 21
13.85898878500757
 31
0.0
 11
190.8211862321742
 21
13.83220523466696
 31
0.0
 11
190.7937434290548
 21
13.82143559057204
 31
0.0
 11
190.7867927192322
 21
13.84370299445542
 31
0.0
 11
190.7702179496551
 21
13.89680218833117
 31
0.0
 11
190.7504351601598
 21
13.96017864553771
 31
0.0
 11
190.7338603905827
 21
14.01327783941346
 31
0.0
 11
190.72690968076
 21
14.03554524329684
 31
0.0
 11
190.9091199859153
 21
14.03751638912957
 31
0.0
 11
191.1174975848589
 21
14.04356211829509
 31
0.0
 11
191.2303203127215
 21
14.25483550301609
 31
0.0
 11
191.3407936722035
 21
14.48509813155943
 31
0.0
 11
191.435825426563
 21
14.70699600701755
 31
0.0
 11
191.40432774616
 21
14.70699600701755
 31
0.0
 11
191.3212884069157
 21
14.70699600701755
 31
0.0
 11
191.2038879617772
 21
14.70699600701755
 31
0.0
 11
191.0693069636916
 21
14.70699600701755
 31
0.0
 11
190.9347259656059
 21
14.70699600701755
 31
0.0
 11
190.8173255204674
 21
14.70699600701755
 31
0.0
 11
190.7342861812231
 21
14.70699600701755
 31
0.0
 11
190.7027885008201
 21
14.70699600701755
 31
0.0
  0
SPLINE
  5
B0
102
{ACAD_REACTORS
330
CD
102
}
330
48
100
AcDbEntity
  8
_U_30EC_U_30A4_U_30E4_U_30FC_1
  6
Continuous
 62
     2
100
AcDbSpline
210
0.0
220
0.0
230
1.0
 70
    11
 71
     3
 72
   131
 73
   127
 74
   125
 42
0.000000001
 43
0.0000000001
 44
0.00000001
 40
0.0
 40
0.0
 40
0.0
 40
0.0
 40
0.0195577029823279
 40
0.0426490537458923
 40
0.2863607575852941
 40
0.5344948436185752
 40
0.7842238845571646
 40
0.8737315789468174
 40
0.9803832810315027
 40
1.092842274517326
 40
1.199761146657086
 40
1.28978876818682
 40
1.351573580786554
 40
1.370727117561825
 40
1.416400936018347
 40
1.470914848356605
 40
1.516588666792491
 40
1.535742203553632
 40
1.634216592293663
 40
1.760283341175358
 40
1.897966686682353
 40
2.031216387368889
 40
2.049689751137881
 40
2.101115601646812
 40
2.179502577739921
 40
2.278859318314026
 40
2.393194462258673
 40
2.516516648383774
 40
2.642834515405889
 40
2.76615670198338
 40
2.880491846754482
 40
2.979848588358514
 40
3.058235565443682
 40
3.109661416668833
 40
3.128134780704007
 40
3.146783742386238
 40
3.191254343314929
 40
3.24433215731536
 40
3.288802758225065
 40
3.307451719894279
 40
3.327717853843882
 40
3.383747753579218
 40
3.468388665923571
 40
3.57448783769783
 40
3.694892515727881
 40
3.822449946850962
 40
3.950007377919295
 40
4.070412055799336
 40
4.176511227366841
 40
4.261152139500249
 40
4.317182039075417
 40
4.337448172963329
 40
4.620011002694615
 40
4.885096638397065
 40
4.9453730435182
 40
5.014107710488704
 40
5.070481727652288
 40
5.31924695563695
 40
5.584812164506417
 40
5.859000912057237
 40
6.133746937542384
 40
6.401732212969233
 40
6.420736683995853
 40
6.472845717451503
 40
6.550702743894516
 40
6.646951193874782
 40
6.754234497931191
 40
6.865196086587997
 40
6.972479390358569
 40
7.068727839772788
 40
7.146584865451854
 40
7.19869389819014
 40
7.217698368906281
 40
7.234950401631756
 40
7.276089864270781
 40
7.325191803516874
 40
7.366331266091243
 40
7.383583298770589
 40
7.402779163492995
 40
7.453386443255511
 40
7.524934666446627
 40
7.606953361407052
 40
7.688972056430345
 40
7.760520279785681
 40
7.811127559736037
 40
7.830323424547687
 40
7.847844055301326
 40
7.894799345668395
 40
7.96277939274612
 40
8.043374293562216
 40
8.12817414515117
 40
8.208769044819022
 40
8.276749090378765
 40
8.323704379671355
 40
8.341225010058096
 40
8.358497614802186
 40
8.401679126688245
 40
8.457815092187156
 40
8.513951057729413
 40
8.557132569709195
 40
8.574405174506207
 40
8.602340668617696
 40
8.643455660541504
 40
8.663225271968182
 40
8.715345156565837
 40
8.789031889630197
 40
8.873502045521949
 40
8.957972194325595
 40
9.031658925569507
 40
9.083778811236213
 40
9.10354842300468
 40
9.119550083125217
 40
9.16081752238152
 40
9.217244429111885
 40
9.278724491646399
 40
9.335151398297155
 40
9.37641883735945
 40
9.392420497302238
 40
9.401196302736492
 40
9.417494229386062
 40
9.42627002775137
 40
9.44087507547939
 40
9.475702497000622
 40
9.51727070986782
 40
9.55209813199604
 40
9.566703169886235
 40
9.566703169886235
 40
9.566703169886235
 40
9.566703169886235
 10
194.6170254148478
 20
15.67015871511012
 30
0.0
 10
194.613434509337
 20
15.66453690702154
 30
0.0
 10
194.6056039123625
 20
15.6522775441912
 30
0.0
 10
194.5129968974557
 20
15.61601916040767
 30
0.0
 10
194.4887622233248
 20
15.40148444212752
 30
0.0
 10
194.3858709845942
 20
15.22197284509667
 30
0.0
 10
194.1220492364297
 20
15.0361557379813
 30
0.0
 10
194.284547156918
 20
14.95959336566098
 30
0.0
 10
194.3607225760839
 20
14.89856693195458
 30
0.0
 10
194.4492171072761
 20
14.8351580454478
 30
0.0
 10
194.5389930233113
 20
14.77525634219579
 30
0.0
 10
194.5883817636049
 20
14.72102154849232
 30
0.0
 10
194.6745708157388
 20
14.69286240541869
 30
0.0
 10
194.6411260674232
 20
14.65713309652855
 30
0.0
 10
194.6214671166312
 20
14.62550387991957
 30
0.0
 10
194.5919888217879
 20
14.58475872796127
 30
0.0
 10
194.5688989446028
 20
14.55504663489705
 30
0.0
 10
194.5380205968349
 20
14.50211422668582
 30
0.0
 10
194.4729193365737
 20
14.62740334938936
 30
0.0
 10
194.3796000122413
 20
14.68213900233983
 30
0.0
 10
194.2950636285138
 20
14.73916423939383
 30
0.0
 10
194.172249812574
 20
14.89675287427508
 30
0.0
 10
194.1764450847301
 20
14.82035806766834
 30
0.0
 10
194.1751478652677
 20
14.77361280161293
 30
0.0
 10
194.1758126448075
 20
14.695847858126
 30
0.0
 10
194.1755549986955
 20
14.59902068324422
 30
0.0
 10
194.1756431239921
 20
14.4865027907881
 30
0.0
 10
194.1756077302279
 20
14.36524085945701
 30
0.0
 10
194.1756511758279
 20
14.24086897858964
 30
0.0
 10
194.1755199942404
 20
14.11967683631341
 30
0.0
 10
194.1759477562045
 20
14.00691148919749
 30
0.0
 10
194.174667820231
 20
13.91082913768751
 30
0.0
 10
194.1779759851042
 20
13.83113826468707
 30
0.0
 10
194.1715197740085
 20
13.78815175788793
 30
0.0
 10
194.1806208705555
 20
13.74955432372053
 30
0.0
 10
194.1447910339935
 20
13.75810887724076
 30
0.0
 10
194.1115223815253
 20
13.75342519985455
 30
0.0
 10
194.0604562576045
 20
13.75351298759793
 30
0.0
 10
194.0269723972818
 20
13.75794430283827
 30
0.0
 10
193.990758540876
 20
13.74960793842518
 30
0.0
 10
194.0009782568672
 20
13.79145277179291
 30
0.0
 10
193.9936487887779
 20
13.83778560820178
 30
0.0
 10
193.9973633136109
 20
13.92374831106014
 30
0.0
 10
193.9959480554901
 20
14.02605142704845
 30
0.0
 10
193.9964105554644
 20
14.14453223931502
 30
0.0
 10
193.9962773686237
 20
14.26957683153341
 30
0.0
 10
193.996301591005
 20
14.39475828107029
 30
0.0
 10
193.9963354925558
 20
14.51286645379032
 30
0.0
 10
193.9962060293138
 20
14.61628748709485
 30
0.0
 10
193.9965507549086
 20
14.69932036153632
 30
0.0
 10
193.9958698278697
 20
14.75143368521207
 30
0.0
 10
193.9994586600628
 20
14.8791290782131
 30
0.0
 10
193.7826171386434
 20
14.58048716819643
 30
0.0
 10
193.6021354921941
 20
14.35263981511411
 30
0.0
 10
193.5490322295609
 20
14.49373443289826
 30
0.0
 10
193.5200429133145
 20
14.54325767560979
 30
0.0
 10
193.4196648062812
 20
14.64641779790132
 30
0.0
 10
193.7405127723257
 20
14.72695035023815
 30
0.0
 10
193.8689897005425
 20
14.91066283036459
 30
0.0
 10
194.0906454325357
 20
15.11931995771772
 30
0.0
 10
194.1770224894067
 20
15.29339211228344
 30
0.0
 10
194.454939422908
 20
15.56967051342483
 30
0.0
 10
194.3346247839288
 20
15.56534559551082
 30
0.0
 10
194.2863197351354
 20
15.56614856202523
 30
0.0
 10
194.2102377454908
 20
15.56574582146552
 30
0.0
 10
194.1167010009753
 20
15.56590275611578
 30
0.0
 10
194.0117594788559
 20
15.56582502576192
 30
0.0
 10
193.903388773872
 20
15.56595464378524
 30
0.0
 10
193.7981454235897
 20
15.5655439349066
 30
0.0
 10
193.7056237819413
 20
15.5668207367156
 30
0.0
 10
193.6268130800707
 20
15.56340766534818
 30
0.0
 10
193.5839674565379
 20
15.5702335003629
 30
0.0
 10
193.5449499586514
 20
15.56065064201092
 30
0.0
 10
193.5526365271863
 20
15.5942077956551
 30
0.0
 10
193.5485464404311
 20
15.625235503222
 30
0.0
 10
193.5485531368813
 20
15.67236529270865
 30
0.0
 10
193.5526239724911
 20
15.70340941646743
 30
0.0
 10
193.5449495574581
 20
15.73701861635865
 30
0.0
 10
193.5834819405495
 20
15.72748410420834
 30
0.0
 10
193.6241228014479
 20
15.73397435498033
 30
0.0
 10
193.6951471850465
 20
15.73100150650217
 30
0.0
 10
193.7729318149635
 20
15.7317476139912
 30
0.0
 10
193.8507292246479
 20
15.73247814044489
 30
0.0
 10
193.9217232089911
 20
15.72954235514122
 30
0.0
 10
193.9624279791827
 20
15.73595468772917
 30
0.0
 10
194.0009853489914
 20
15.72650524175965
 30
0.0
 10
193.9927342754935
 20
15.76264692158749
 30
0.0
 10
193.9982346669363
 20
15.80129837613193
 30
0.0
 10
193.9955754206169
 20
15.8691352856181
 30
0.0
 10
193.9965815471539
 20
15.94591641538715
 30
0.0
 10
193.9960178018324
 20
16.02849393582737
 30
0.0
 10
193.9970714526599
 20
16.10517329229862
 30
0.0
 10
193.9942675863135
 20
16.17331990776688
 30
0.0
 10
194.000070272131
 20
16.21132399809338
 30
0.0
 10
193.9915654551164
 20
16.24758448077636
 30
0.0
 10
194.0255610233131
 20
16.23755723771852
 30
0.0
 10
194.0594575683103
 20
16.24073266813708
 30
0.0
 10
194.1126669060349
 20
16.23508965640622
 30
0.0
 10
194.1660768574484
 20
16.23434774436445
 30
0.0
 10
194.199591464949
 20
16.22819223483007
 30
0.0
 10
194.2388086183039
 20
16.23346029773625
 30
0.0
 10
194.2120263698492
 20
16.19253380793484
 30
0.0
 10
194.1708111001722
 20
16.20371204538093
 30
0.0
 10
194.1782641540873
 20
16.15867056192101
 30
0.0
 10
194.1742227952183
 20
16.11412278028116
 30
0.0
 10
194.176171404964
 20
16.04223572621675
 30
0.0
 10
194.1752364849757
 20
15.9616863058874
 30
0.0
 10
194.1765107190029
 20
15.88173995404962
 30
0.0
 10
194.1732043793863
 20
15.80841837083148
 30
0.0
 10
194.180210617996
 20
15.76688643002531
 30
0.0
 10
194.1701440380124
 20
15.72752418568076
 30
0.0
 10
194.202981480392
 20
15.73468063430943
 30
0.0
 10
194.2364577296479
 20
15.73027243137907
 30
0.0
 10
194.2915053476017
 20
15.7321794334786
 30
0.0
 10
194.3489502595313
 20
15.73185366407252
 30
0.0
 10
194.4023026248309
 20
15.73106308733043
 30
0.0
 10
194.4398540896638
 20
15.73313959118042
 30
0.0
 10
194.4623172523236
 20
15.73022338167066
 30
0.0
 10
194.475167807373
 20
15.73572552644035
 30
0.0
 10
194.4858255685888
 20
15.73801118197779
 30
0.0
 10
194.4986635650143
 20
15.74494972588066
 30
0.0
 10
194.514599103307
 20
15.72853046313669
 30
0.0
 10
194.5410623920891
 20
15.71709122319451
 30
0.0
 10
194.5726805253756
 20
15.69644687835181
 30
0.0
 10
194.598725589215
 20
15.68116869628284
 30
0.0
 10
194.6128517723972
 20
15.67266976323169
 30
0.0
 10
194.6170254148478
 20
15.67015871511012
 30
0.0
 11
194.6170254148478
 21
15.67015871511012
 31
0.0
 11
194.6049990002244
 21
15.65473571164193
 31
0.0
 11
194.5848961795568
 21
15.64337406233881
 31
0.0
 11
194.4778986355817
 21
15.42440620231129
 31
0.0
 11
194.3477039934326
 21
15.21317201512145
 31
0.0
 11
194.1996540366067
 21
15.01206059027481
 31
0.0
 11
194.2734958253734
 21
14.96147384935389
 31
0.0
 11
194.3605664311801
 21
14.89988411653754
 31
0.0
 11
194.4518003750407
 21
14.83413160594443
 31
0.0
 11
194.538132177969
 21
14.77105653169326
 31
0.0
 11
194.6104963609791
 21
14.7174991079027
 31
0.0
 11
194.6598274450848
 21
14.68029954869144
 31
0.0
 11
194.6486940702217
 21
14.66471410869537
 31
0.0
 11
194.6221452532404
 21
14.62754882870473
 31
0.0
 11
194.5904579555531
 21
14.5831902687159
 31
0.0
 11
194.5639091385718
 21
14.54602498872526
 31
0.0
 11
194.5527757637087
 21
14.53043954872919
 31
0.0
 11
194.4807013362943
 21
14.59754008690662
 31
0.0
 11
194.3852856985378
 21
14.67993354174712
 31
0.0
 11
194.2793264152168
 21
14.76785017366952
 31
0.0
 11
194.1756210511089
 21
14.85152024309264
 31
0.0
 11
194.1756210511089
 21
14.8330468790086
 31
0.0
 11
194.1756210511089
 21
14.78162102763953
 31
0.0
 11
194.1756210511089
 21
14.70323405030997
 31
0.0
 11
194.1756210511089
 21
14.60387730834448
 31
0.0
 11
194.1756210511089
 21
14.48954216306761
 31
0.0
 11
194.1756210511089
 21
14.36621997580391
 31
0.0
 11
194.1756210511089
 21
14.23990210787793
 31
0.0
 11
194.1756210511089
 21
14.11657992061423
 31
0.0
 11
194.1756210511089
 21
14.00224477533736
 31
0.0
 11
194.1756210511089
 21
13.90288803337187
 31
0.0
 11
194.1756210511089
 21
13.82450105604231
 31
0.0
 11
194.1756210511089
 21
13.77307520467323
 31
0.0
 11
194.1756210511089
 21
13.7546018405892
 31
0.0
 11
194.1569720893626
 21
13.7546018405892
 31
0.0
 11
194.1125014882751
 21
13.7546018405892
 31
0.0
 11
194.0594236740739
 21
13.7546018405892
 31
0.0
 11
194.0149530729865
 21
13.7546018405892
 31
0.0
 11
193.9963041112401
 21
13.7546018405892
 31
0.0
 11
193.9963041112401
 21
13.77486797460226
 31
0.0
 11
193.9963041112401
 21
13.83089787452071
 31
0.0
 11
193.9963041112401
 21
13.91553878716348
 31
0.0
 11
193.9963041112401
 21
14.02163795934949
 31
0.0
 11
193.9963041112401
 21
14.14204263789766
 31
0.0
 11
193.9963041112401
 21
14.2696000696269
 31
0.0
 11
193.9963041112401
 21
14.39715750135615
 31
0.0
 11
193.9963041112401
 21
14.51756217990432
 31
0.0
 11
193.9963041112401
 21
14.62366135209033
 31
0.0
 11
193.9963041112401
 21
14.7083022647331
 31
0.0
 11
193.9963041112401
 21
14.76433216465155
 31
0.0
 11
193.9963041112401
 21
14.78459829866461
 31
0.0
 11
193.7883272849484
 21
14.59331998274104
 31
0.0
 11
193.5763486358419
 21
14.43414885430775
 31
0.0
 11
193.5495629014479
 21
14.48814671952106
 31
0.0
 11
193.513876541502
 21
14.54689140572059
 31
0.0
 11
193.4799697494118
 21
14.59192871538016
 31
0.0
 11
193.6830287742315
 21
14.73563387201089
 31
0.0
 11
193.8818531958257
 21
14.91168423530013
 31
0.0
 11
194.0677041444176
 21
15.1132751452496
 31
0.0
 11
194.2318427502303
 21
15.333601941861
 31
0.0
 11
194.3655301434869
 21
15.56585996513604
 31
0.0
 11
194.3465256724486
 21
15.56585996513604
 31
0.0
 11
194.2944166389566
 21
15.56585996513604
 31
0.0
 11
194.2165596124451
 21
15.56585996513604
 31
0.0
 11
194.1203111623481
 21
15.56585996513604
 31
0.0
 11
194.0130278580999
 21
15.56585996513604
 31
0.0
 11
193.9020662691347
 21
15.56585996513604
 31
0.0
 11
193.7947829648865
 21
15.56585996513604
 31
0.0
 11
193.6985345147895
 21
15.56585996513604
 31
0.0
 11
193.6206774882779
 21
15.56585996513604
 31
0.0
 11
193.5685684547859
 21
15.56585996513604
 31
0.0
 11
193.5495639837477
 21
15.56585996513604
 31
0.0
 11
193.5495639837477
 21
15.5831119979095
 31
0.0
 11
193.5495639837477
 21
15.62425146067698
 31
0.0
 11
193.5495639837477
 21
15.67335340010914
 31
0.0
 11
193.5495639837477
 21
15.71449286287662
 31
0.0
 11
193.5495639837477
 21
15.73174489565008
 31
0.0
 11
193.5687598486009
 21
15.73174489565008
 31
0.0
 11
193.6193671286684
 21
15.73174489565008
 31
0.0
 11
193.6909153522121
 21
15.73174489565008
 31
0.0
 11
193.7729340474939
 21
15.73174489565008
 31
0.0
 11
193.8549527427757
 21
15.73174489565008
 31
0.0
 11
193.9265009663194
 21
15.73174489565008
 31
0.0
 11
193.9771082463869
 21
15.73174489565008
 31
0.0
 11
193.9963041112401
 21
15.73174489565008
 31
0.0
 11
193.9963041112401
 21
15.74926552655182
 31
0.0
 11
193.9963041112401
 21
15.79622081736848
 31
0.0
 11
193.9963041112401
 21
15.86420086526724
 31
0.0
 11
193.9963041112401
 21
15.94479576741524
 31
0.0
 11
193.9963041112401
 21
16.02959562097966
 31
0.0
 11
193.9963041112401
 21
16.11019052312767
 31
0.0
 11
193.9963041112401
 21
16.17817057102642
 31
0.0
 11
193.9963041112401
 21
16.22512586184309
 31
0.0
 11
193.9963041112401
 21
16.24264649274483
 31
0.0
 11
194.0135484112116
 21
16.24165806167515
 31
0.0
 11
194.0566591611405
 21
16.23918698400094
 31
0.0
 11
194.112703136048
 21
16.23597458302447
 31
0.0
 11
194.1687471109555
 21
16.23276218204801
 31
0.0
 11
194.2118578608843
 21
16.2302911043738
 31
0.0
 11
194.2291021608558
 21
16.22930267330412
 31
0.0
 11
194.2143774674852
 21
16.20556293372647
 31
0.0
 11
194.1756210511089
 21
16.19183767331288
 31
0.0
 11
194.1756210511089
 21
16.17206806177268
 31
0.0
 11
194.1756210511089
 21
16.11994817680307
 31
0.0
 11
194.1756210511089
 21
16.04626144288051
 31
0.0
 11
194.1756210511089
 21
15.96179128448148
 31
0.0
 11
194.1756210511089
 21
15.87732112608245
 31
0.0
 11
194.1756210511089
 21
15.80363439215989
 31
0.0
 11
194.1756210511089
 21
15.75151450719028
 31
0.0
 11
194.1756210511089
 21
15.73174489565008
 31
0.0
 11
194.1916227112934
 21
15.73174489565008
 31
0.0
 11
194.2328901507169
 21
15.73174489565008
 31
0.0
 11
194.2893170576836
 21
15.73174489565008
 31
0.0
 11
194.350797120498
 21
15.73174489565008
 31
0.0
 11
194.4072240274647
 21
15.73174489565008
 31
0.0
 11
194.4484914668881
 21
15.73174489565008
 31
0.0
 11
194.4644931270727
 21
15.73174489565008
 31
0.0
 11
194.4728206422923
 21
15.73451387455895
 31
0.0
 11
194.4882860277003
 21
15.73965626396114
 31
0.0
 11
194.4966135429199
 21
15.74242524287001
 31
0.0
 11
194.5091363776004
 21
15.73490952398298
 31
0.0
 11
194.5389985218385
 21
15.71698742509853
 31
0.0
 11
194.5746404359292
 21
15.6955965328816
 31
0.0
 11
194.6045025801673
 21
15.67767443399715
 31
0.0
 11
194.6170254148478
 21
15.67015871511012
 31
0.0
  0
SPLINE
  5
B1
102
{ACAD_REACTORS
330
CE
102
}
330
48
100
AcDbEntity
  8
_U_30EC_U_30A4_U_30E4_U_30FC_1
  6
Continuous
 62
     2
100
AcDbSpline
210
0.0
220
0.0
230
1.0
 70
    11
 71
     3
 72
   124
 73
   120
 74
   118
 42
0.000000001
 43
0.0000000001
 44
0.00000001
 40
0.0
 40
0.0
 40
0.0
 40
0.0
 40
0.0278187229624226
 40
0.1011590162383133
 40
0.2048470170587681
 40
0.3237088716555266
 40
0.4425707262516315
 40
0.546258727069301
 40
0.6195990203304124
 40
0.6474177522570702
 40
0.675006073610501
 40
0.7357003855227535
 40
0.7963946998034277
 40
0.8239830245549313
 40
0.8540933811080407
 40
0.9373396629386519
 40
1.063094687340904
 40
1.220731268635743
 40
1.399622220912332
 40
1.589140358635259
 40
1.778658496421283
 40
1.957549448937894
 40
2.115186030870487
 40
2.240941056911763
 40
2.324187341757804
 40
2.354297700106653
 40
2.381886024668934
 40
2.442580338707024
 40
2.503274652746549
 40
2.530862977310428
 40
2.560983949274381
 40
2.640393784448698
 40
2.752662861754893
 40
2.881361560113853
 40
3.010060258450843
 40
3.12232933570099
 40
3.201739170813576
 40
3.231860142748936
 40
3.264298024026
 40
3.352343701773893
 40
3.482095226864446
 40
3.639650650168741
 40
3.811108022561236
 40
3.982565394923783
 40
4.140120818148401
 40
4.26987234313714
 40
4.357918020798222
 40
4.390355902039858
 40
4.4232562539884
 40
4.508104530068864
 40
4.624121560632518
 40
4.750528176027189
 40
4.866545206597579
 40
4.951393482687451
 40
4.984293834640853
 40
5.011450833237926
 40
5.071196230148058
 40
5.13094162705348
 40
5.158098625645306
 40
5.190998977597968
 40
5.275847253685709
 40
5.391864284253086
 40
5.518270899644546
 40
5.6342879302055
 40
5.719136206284117
 40
5.752036558231976
 40
5.782130946278948
 40
5.862783906224982
 40
5.97955013177065
 40
6.117984316635815
 40
6.263641154583108
 40
6.402075339409074
 40
6.518841564902668
 40
6.599494524810111
 40
6.629588912843295
 40
6.6544030282209
 40
6.71357514948275
 40
6.784199939324179
 40
6.843372060488337
 40
6.86818617579761
 40
6.896246243196376
 40
6.93958623375251
 40
6.967846564559099
 40
7.043584251083923
 40
7.153234334445618
 40
7.283231855728178
 40
7.420011856029007
 40
7.550009376573169
 40
7.659659458828407
 40
7.735397144410288
 40
7.763657474844417
 40
7.796409728004046
 40
7.880876065089207
 40
7.996370852458507
 40
8.12220844641126
 40
8.23770322479174
 40
8.322169562003378
 40
8.354921815198335
 40
8.382078813300273
 40
8.441824209199927
 40
8.501569605233422
 40
8.52872660347916
 40
8.561478856689181
 40
8.645945193871146
 40
8.761439980858572
 40
8.887277580757573
 40
9.002772361993951
 40
9.087238696654087
 40
9.119990949228512
 40
9.152428830606219
 40
9.240474508631456
 40
9.370226034142435
 40
9.527781457977357
 40
9.699238830974384
 40
9.870696203971615
 40
10.02825162780707
 40
10.15800315331872
 40
10.24604883134429
 40
10.27848670377832
 40
10.27848670377832
 40
10.27848670377832
 40
10.27848670377832
 10
195.3821827564389
 20
14.01410517385739
 30
0.0
 10
195.3914554737529
 20
14.01410498511256
 30
0.0
 10
195.4251744536865
 20
14.01410430876696
 30
0.0
 10
195.4934706812471
 20
14.01411807243286
 30
0.0
 10
195.5920141711583
 20
14.01403224219527
 30
0.0
 10
195.7062066464813
 20
14.01441755612233
 30
0.0
 10
195.8185894417072
 20
14.01300835897526
 30
0.0
 10
195.9214376600117
 20
14.01719117422226
 30
0.0
 10
195.9806839874847
 20
14.00823089251964
 30
0.0
 10
196.0371265937031
 20
14.02164434526043
 30
0.0
 10
196.0246255586953
 20
13.9708719861338
 30
0.0
 10
196.0329549635701
 20
13.92589320939121
 30
0.0
 10
196.0248170841118
 20
13.88056752990578
 30
0.0
 10
196.0370529214454
 20
13.82931932408592
 30
0.0
 10
195.9747773490332
 20
13.84447955365406
 30
0.0
 10
195.9060513026866
 20
13.83359750710868
 30
0.0
 10
195.778275674959
 20
13.839113047481
 30
0.0
 10
195.6262984511642
 20
13.83700851253825
 30
0.0
 10
195.4502695972523
 20
13.83771002588601
 30
0.0
 10
195.2644431934288
 20
13.83745237531418
 30
0.0
 10
195.0786167437176
 20
13.8377100514473
 30
0.0
 10
194.9025880142171
 20
13.83700841847858
 30
0.0
 10
194.7506104154196
 20
13.83911332230116
 30
0.0
 10
194.6228357664557
 20
13.83359680767765
 30
0.0
 10
194.5541077836583
 20
13.84448077126072
 30
0.0
 10
194.4918349042887
 20
13.82931786684335
 30
0.0
 10
194.504061629002
 20
13.88057510805261
 30
0.0
 10
194.4960004462599
 20
13.9258247327248
 30
0.0
 10
194.5040675809895
 20
13.97106357955342
 30
0.0
 10
194.4918238487086
 20
14.0223417690994
 30
0.0
 10
194.5525017120701
 20
14.00749577363115
 30
0.0
 10
194.6162810745737
 20
14.01756448170717
 30
0.0
 10
194.7277314353505
 20
14.01294644211981
 30
0.0
 10
194.8497533443825
 20
14.01413328905451
 30
0.0
 10
194.9719538137825
 20
14.01515863900616
 30
0.0
 10
195.0829794287393
 20
14.01092475623383
 30
0.0
 10
195.1476517413958
 20
14.0201858452172
 30
0.0
 10
195.2091162810503
 20
14.00604423049665
 30
0.0
 10
195.1930065601337
 20
14.072355278845
 30
0.0
 10
195.2042980327359
 20
14.14447790121961
 30
0.0
 10
195.1987400822561
 20
14.27513760888274
 30
0.0
 10
195.2008035061691
 20
14.42607323708232
 30
0.0
 10
195.2000167127295
 20
14.59335873107881
 30
0.0
 10
195.2007845215628
 20
14.76061110332302
 30
0.0
 10
195.1988038785629
 20
14.91163289269917
 30
0.0
 10
195.2041306156622
 20
15.04206069553001
 30
0.0
 10
195.1933101388425
 20
15.11465442605907
 30
0.0
 10
195.2090326429876
 20
15.18150469436805
 30
0.0
 10
195.1432708132492
 20
15.16580512490835
 30
0.0
 10
195.0756367830766
 20
15.17609243084004
 30
0.0
 10
194.9615885293812
 20
15.17113786847131
 30
0.0
 10
194.8451242674906
 20
15.17414128030483
 30
0.0
 10
194.7306554121481
 20
15.16880303143399
 30
0.0
 10
194.6640324657817
 20
15.18001268074831
 30
0.0
 10
194.599076971519
 20
15.1634913266502
 30
0.0
 10
194.6107989758714
 20
15.21473720477094
 30
0.0
 10
194.6032830189125
 20
15.2595033378415
 30
0.0
 10
194.6107989878842
 20
15.30426944898045
 30
0.0
 10
194.599076950535
 20
15.35551536129849
 30
0.0
 10
194.6640326339205
 20
15.33899381766928
 30
0.0
 10
194.7306533339825
 20
15.35020571374052
 30
0.0
 10
194.8451352858067
 20
15.34485436710774
 30
0.0
 10
194.9615454436965
 20
15.34791188771228
 30
0.0
 10
195.0757660174643
 20
15.34278499010818
 30
0.0
 10
195.1430150439227
 20
15.35345733355708
 30
0.0
 10
195.2083325941439
 20
15.33742082669188
 30
0.0
 10
195.1941391448553
 20
15.39949685750154
 30
0.0
 10
195.2036059462996
 20
15.46586761628852
 30
0.0
 10
195.1990269004086
 20
15.58239972742035
 30
0.0
 10
195.2007696555948
 20
15.71426685022422
 30
0.0
 10
195.1997551495393
 20
15.85615960150295
 30
0.0
 10
195.2017191344372
 20
15.98769050702579
 30
0.0
 10
195.1964668553852
 20
16.1052457728298
 30
0.0
 10
195.2073408763475
 20
16.16947789001553
 30
0.0
 10
195.1919536641854
 20
16.23108802545006
 30
0.0
 10
195.2407591537801
 20
16.21702407382069
 30
0.0
 10
195.2853995564727
 20
16.21954742075277
 30
0.0
 10
195.3538643946745
 20
16.21512797401673
 30
0.0
 10
195.3959106169105
 20
16.20613025544003
 30
0.0
 10
195.4487544758779
 20
16.21411714866473
 30
0.0
 10
195.4207035002013
 20
16.1711391761172
 30
0.0
 10
195.3749142248601
 20
16.18259552043806
 30
0.0
 10
195.386953907327
 20
16.12173520005138
 30
0.0
 10
195.3796086070648
 20
16.05769299468775
 30
0.0
 10
195.3831195826167
 20
15.94909368863933
 30
0.0
 10
195.381980676018
 20
15.82494319144791
 30
0.0
 10
195.3819174780268
 20
15.69189719829938
 30
0.0
 10
195.3832872966874
 20
15.56797381249632
 30
0.0
 10
195.3791638801319
 20
15.45868337849431
 30
0.0
 10
195.3877763103571
 20
15.39608580094272
 30
0.0
 10
195.3746757454407
 20
15.33740133296476
 30
0.0
 10
195.4393884328204
 20
15.35362113811012
 30
0.0
 10
195.5060405953159
 20
15.34270260383421
 30
0.0
 10
195.6198779541106
 20
15.34793740173866
 30
0.0
 10
195.7357259122099
 20
15.34485547517024
 30
0.0
 10
195.8496924263282
 20
15.35018259812621
 30
0.0
 10
195.9160341018099
 20
15.33904208166655
 30
0.0
 10
195.980718852548
 20
15.35546979593286
 30
0.0
 10
195.9689820772722
 20
15.30425925210134
 30
0.0
 10
195.9765168063041
 20
15.25950334121061
 30
0.0
 10
195.9689820992257
 20
15.21474739010062
 30
0.0
 10
195.9807188140737
 20
15.1635369087105
 30
0.0
 10
195.9160344075253
 20
15.17996427794226
 30
0.0
 10
195.8496886430825
 20
15.16882784447279
 30
0.0
 10
195.7357459487015
 20
15.17413115893128
 30
0.0
 10
195.6197995623058
 20
15.17114764593553
 30
0.0
 10
195.5062756882127
 20
15.17606892268401
 30
0.0
 10
195.4389231318809
 20
15.1658508751353
 30
0.0
 10
195.3734285122501
 20
15.18145996138823
 30
0.0
 10
195.3891713619224
 20
15.11463851827418
 30
0.0
 10
195.3783275998218
 20
15.04207057815884
 30
0.0
 10
195.3836581629798
 20
14.91162247614419
 30
0.0
 10
195.3817136151862
 20
14.76064558185225
 30
0.0
 10
195.3823133683219
 20
14.59322243934153
 30
0.0
 10
195.3821506559611
 20
14.42656176118363
 30
0.0
 10
195.3821895488141
 20
14.27360142921624
 30
0.0
 10
195.3821816413105
 20
14.1484917898569
 30
0.0
 10
195.3821828382752
 20
14.06507890991403
 30
0.0
 10
195.3821827716214
 20
14.02491778281958
 30
0.0
 10
195.3821827564389
 20
14.01410517385739
 30
0.0
 11
195.3821827564389
 21
14.01410517385739
 31
0.0
 11
195.410001488368
 21
14.01410517385739
 31
0.0
 11
195.4833417816358
 21
14.01410517385739
 31
0.0
 11
195.5870297824626
 21
14.01410517385739
 31
0.0
 11
195.7058916370689
 21
14.01410517385739
 31
0.0
 11
195.8247534916752
 21
14.01410517385739
 31
0.0
 11
195.928441492502
 21
14.01410517385739
 31
0.0
 11
196.0017817857697
 21
14.01410517385739
 31
0.0
 11
196.0296005176988
 21
14.01410517385739
 31
0.0
 11
196.0296005176988
 21
13.98651684921174
 31
0.0
 11
196.0296005176988
 21
13.92582253499132
 31
0.0
 11
196.0296005176988
 21
13.86512822077089
 31
0.0
 11
196.0296005176988
 21
13.83753989612524
 31
0.0
 11
195.9994901593492
 21
13.83753989612524
 31
0.0
 11
195.9162438745003
 21
13.83753989612524
 31
0.0
 11
195.790488848452
 21
13.83753989612524
 31
0.0
 11
195.632852266504
 21
13.83753989612524
 31
0.0
 11
195.4539613139564
 21
13.83753989612524
 31
0.0
 11
195.2644431761089
 21
13.83753989612524
 31
0.0
 11
195.0749250382614
 21
13.83753989612524
 31
0.0
 11
194.8960340857138
 21
13.83753989612524
 31
0.0
 11
194.7383975037658
 21
13.83753989612524
 31
0.0
 11
194.6126424777175
 21
13.83753989612524
 31
0.0
 11
194.5293961928686
 21
13.83753989612524
 31
0.0
 11
194.499285834519
 21
13.83753989612524
 31
0.0
 11
194.499285834519
 21
13.86512822077089
 31
0.0
 11
194.499285834519
 21
13.92582253499132
 31
0.0
 11
194.499285834519
 21
13.98651684921174
 31
0.0
 11
194.499285834519
 21
14.01410517385739
 31
0.0
 11
194.529406806495
 21
14.01410517385739
 31
0.0
 11
194.6088166417043
 21
14.01410517385739
 31
0.0
 11
194.7210857190692
 21
14.01410517385739
 31
0.0
 11
194.849784417512
 21
14.01410517385739
 31
0.0
 11
194.9784831159546
 21
14.01410517385739
 31
0.0
 11
195.0907521933196
 21
14.01410517385739
 31
0.0
 11
195.1701620285289
 21
14.01410517385739
 31
0.0
 11
195.2002830005049
 21
14.01410517385739
 31
0.0
 11
195.2002830005049
 21
14.04654305523818
 31
0.0
 11
195.2002830005049
 21
14.13458873327175
 31
0.0
 11
195.2002830005049
 21
14.2643402587949
 31
0.0
 11
195.2002830005049
 21
14.42189568264445
 31
0.0
 11
195.2002830005049
 21
14.59335305565719
 31
0.0
 11
195.2002830005049
 21
14.76481042866993
 31
0.0
 11
195.2002830005049
 21
14.92236585251948
 31
0.0
 11
195.2002830005049
 21
15.05211737804263
 31
0.0
 11
195.2002830005049
 21
15.1401630560762
 31
0.0
 11
195.2002830005049
 21
15.17260093745699
 31
0.0
 11
195.167382648553
 21
15.17260093745699
 31
0.0
 11
195.0825343724664
 21
15.17260093745699
 31
0.0
 11
194.9665173418991
 21
15.17260093745699
 31
0.0
 11
194.8401107265048
 21
15.17260093745699
 31
0.0
 11
194.7240936959374
 21
15.17260093745699
 31
0.0
 11
194.6392454198509
 21
15.17260093745699
 31
0.0
 11
194.6063450678989
 21
15.17260093745699
 31
0.0
 11
194.6063450678989
 21
15.19975793614827
 31
0.0
 11
194.6063450678989
 21
15.25950333326909
 31
0.0
 11
194.6063450678989
 21
15.31924873038992
 31
0.0
 11
194.6063450678989
 21
15.3464057290812
 31
0.0
 11
194.6392454198509
 21
15.3464057290812
 31
0.0
 11
194.7240936959374
 21
15.3464057290812
 31
0.0
 11
194.8401107265047
 21
15.3464057290812
 31
0.0
 11
194.966517341899
 21
15.3464057290812
 31
0.0
 11
195.0825343724664
 21
15.3464057290812
 31
0.0
 11
195.167382648553
 21
15.3464057290812
 31
0.0
 11
195.2002830005049
 21
15.3464057290812
 31
0.0
 11
195.2002830005049
 21
15.37650011731474
 31
0.0
 11
195.2002830005049
 21
15.45715307778064
 31
0.0
 11
195.2002830005049
 21
15.5739193041268
 31
0.0
 11
195.2002830005049
 21
15.7123534900011
 31
0.0
 11
195.2002830005049
 21
15.85801032905145
 31
0.0
 11
195.2002830005049
 21
15.99644451492576
 31
0.0
 11
195.2002830005049
 21
16.11321074127191
 31
0.0
 11
195.2002830005049
 21
16.19386370173781
 31
0.0
 11
195.2002830005049
 21
16.22395808997135
 31
0.0
 11
195.2250405288619
 21
16.22228324219401
 31
0.0
 11
195.2840777118671
 21
16.21828937441727
 31
0.0
 11
195.3545414464217
 21
16.21352249997406
 31
0.0
 11
195.4135786294269
 21
16.20952863219731
 31
0.0
 11
195.4383361577839
 21
16.20785378441997
 31
0.0
 11
195.4233067224033
 21
16.18415814206526
 31
0.0
 11
195.3821827564389
 21
16.17047697887392
 31
0.0
 11
195.3821827564389
 21
16.14221664794825
 31
0.0
 11
195.3821827564389
 21
16.06647896106743
 31
0.0
 11
195.3821827564389
 21
15.95682887707581
 31
0.0
 11
195.3821827564389
 21
15.8268313548177
 31
0.0
 11
195.3821827564389
 21
15.69005135313742
 31
0.0
 11
195.3821827564389
 21
15.56005383087931
 31
0.0
 11
195.3821827564389
 21
15.45040374688769
 31
0.0
 11
195.3821827564389
 21
15.37466606000688
 31
0.0
 11
195.3821827564389
 21
15.3464057290812
 31
0.0
 11
195.414935009612
 21
15.3464057290812
 31
0.0
 11
195.4994013467427
 21
15.3464057290812
 31
0.0
 11
195.614896134248
 21
15.3464057290812
 31
0.0
 11
195.7407337385447
 21
15.3464057290812
 31
0.0
 11
195.85622852605
 21
15.3464057290812
 31
0.0
 11
195.9406948631807
 21
15.3464057290812
 31
0.0
 11
195.9734471163538
 21
15.3464057290812
 31
0.0
 11
195.9734471163538
 21
15.31924873038992
 31
0.0
 11
195.9734471163538
 21
15.25950333326909
 31
0.0
 11
195.9734471163538
 21
15.19975793614827
 31
0.0
 11
195.9734471163538
 21
15.17260093745699
 31
0.0
 11
195.9406948631807
 21
15.17260093745699
 31
0.0
 11
195.85622852605
 21
15.17260093745699
 31
0.0
 11
195.7407337385447
 21
15.17260093745699
 31
0.0
 11
195.614896134248
 21
15.17260093745699
 31
0.0
 11
195.4994013467427
 21
15.17260093745699
 31
0.0
 11
195.414935009612
 21
15.17260093745699
 31
0.0
 11
195.3821827564389
 21
15.17260093745699
 31
0.0
 11
195.3821827564389
 21
15.1401630560762
 31
0.0
 11
195.3821827564389
 21
15.05211737804263
 31
0.0
 11
195.3821827564389
 21
14.92236585251948
 31
0.0
 11
195.3821827564389
 21
14.76481042866993
 31
0.0
 11
195.3821827564389
 21
14.59335305565719
 31
0.0
 11
195.3821827564389
 21
14.42189568264445
 31
0.0
 11
195.3821827564389
 21
14.2643402587949
 31
0.0
 11
195.3821827564389
 21
14.13458873327175
 31
0.0
 11
195.3821827564389
 21
14.04654305523818
 31
0.0
 11
195.3821827564389
 21
14.01410517385739
 31
0.0
  0
SPLINE
  5
B2
102
{ACAD_REACTORS
330
CF
102
}
330
48
100
AcDbEntity
  8
_U_30EC_U_30A4_U_30E4_U_30FC_1
  6
Continuous
 62
     2
100
AcDbSpline
210
0.0
220
0.0
230
1.0
 70
     8
 71
     3
 72
    62
 73
    58
 74
    56
 42
0.000000001
 43
0.0000000001
 44
0.00000001
 40
0.0
 40
0.0
 40
0.0
 40
0.0
 40
0.0598250028309337
 40
0.2024846486899889
 40
0.3727558389225294
 40
0.5154154847942038
 40
0.575240497579216
 40
0.9332326775492242
 40
1.290451762839965
 40
1.602077253146676
 40
1.699931634112517
 40
1.799359756424971
 40
2.270120149657773
 40
2.804661928461628
 40
2.882342287383339
 40
3.076543185719188
 40
3.329004354835647
 40
3.581465524568471
 40
3.775666424543753
 40
3.853346784558373
 40
3.899120679595204
 40
3.98412934179223
 40
4.029903236817636
 40
4.105797496059799
 40
4.295533144152784
 40
4.542189486612053
 40
4.788845828876032
 40
4.978581476410437
 40
5.054475735244689
 40
5.621734664339895
 40
6.130867242037858
 40
6.225249780949516
 40
6.318913039728428
 40
6.663579954560027
 40
7.047498900225827
 40
7.435230791577061
 40
7.498943906669388
 40
7.650875181211211
 40
7.832212509002523
 40
7.984143783697738
 40
8.04785689890381
 40
8.091554632733331
 40
8.172707566965016
 40
8.216405300768756
 40
8.289021782161612
 40
8.462184160757815
 40
8.66886183800581
 40
8.84202421526426
 40
8.914640695475399
 40
8.989881580861567
 40
9.155411528827392
 40
9.320941477744093
 40
9.396182352487306
 40
9.45470901114374
 40
9.583467660170617
 40
9.712226309012697
 40
9.770752957989123
 40
9.770752957989123
 40
9.770752957989123
 40
9.770752957989123
 10
187.1521871691839
 20
14.93980288195962
 30
0.0
 10
187.1322348171629
 20
14.93980875568683
 30
0.0
 10
187.0647037716471
 20
14.9398286380617
 30
0.0
 10
186.9410612161792
 20
14.93949362520337
 30
0.0
 10
186.7863180150058
 20
14.94107673750525
 30
0.0
 10
186.669734948248
 20
14.93686078860507
 30
0.0
 10
186.4550942634241
 20
14.9521520533164
 30
0.0
 10
186.8518948407226
 20
14.59198721286213
 30
0.0
 10
186.8945656069263
 20
14.3751050339718
 30
0.0
 10
187.3189162146608
 20
14.19325062511423
 30
0.0
 10
187.1439821496072
 20
14.08985196568067
 30
0.0
 10
187.0194523925095
 20
13.87831523212641
 30
0.0
 10
186.7666277235946
 20
14.348060810016
 30
0.0
 10
186.4797602893629
 20
14.99511516984491
 30
0.0
 10
186.4906335926663
 20
14.68782672154685
 30
0.0
 10
186.4882892777962
 20
14.52288616971769
 30
0.0
 10
186.4861096126414
 20
14.28879670711685
 30
0.0
 10
186.4980774396349
 20
14.04498072421775
 30
0.0
 10
186.4687984740634
 20
13.89855796860975
 30
0.0
 10
186.5114522625473
 20
13.75113490174528
 30
0.0
 10
186.4239814005641
 20
13.76685797306212
 30
0.0
 10
186.3768527606746
 20
13.76694303543447
 30
0.0
 10
186.2898973207714
 20
13.751094254829
 30
0.0
 10
186.3313474021725
 20
13.89527771422755
 30
0.0
 10
186.3029875004286
 20
14.03855052698451
 30
0.0
 10
186.31459737753
 20
14.27674947365263
 30
0.0
 10
186.3124175648273
 20
14.50517235240347
 30
0.0
 10
186.3103111127995
 20
14.66705729375997
 30
0.0
 10
186.3208035438323
 20
14.98153709333763
 30
0.0
 10
186.0128963252897
 20
14.29229470872402
 30
0.0
 10
185.7055258267458
 20
13.81476750243032
 30
0.0
 10
185.5851367066275
 20
14.03741112637429
 30
0.0
 10
185.4074607910717
 20
14.15011034955559
 30
0.0
 10
185.8853326362894
 20
14.32548143465434
 30
0.0
 10
185.9353959057206
 20
14.56091929252023
 30
0.0
 10
186.3583799621717
 20
14.95322989344618
 30
0.0
 10
186.127675427354
 20
14.93655307029078
 30
0.0
 10
186.0049685859342
 20
14.94269518948782
 30
0.0
 10
185.8325483095666
 20
14.93312822699587
 30
0.0
 10
185.7213224694453
 20
14.95448818489675
 30
0.0
 10
185.6025779627454
 20
14.92136265357434
 30
0.0
 10
185.6183169706691
 20
15.00203900606898
 30
0.0
 10
185.6178550933768
 20
15.04645414290869
 30
0.0
 10
185.6027881889937
 20
15.1296708177855
 30
0.0
 10
185.7372380935449
 20
15.09062651983904
 30
0.0
 10
185.8619755545751
 20
15.11739729328439
 30
0.0
 10
186.0628755237283
 20
15.10063949044071
 30
0.0
 10
186.1921540949356
 20
15.1220422591302
 30
0.0
 10
186.3328419928295
 20
15.0886877885344
 30
0.0
 10
186.2980927452617
 20
15.2265187578508
 30
0.0
 10
186.3222185666713
 20
15.34963257349487
 30
0.0
 10
186.2967086182393
 20
15.47024055670334
 30
0.0
 10
186.3333251146686
 20
15.60539865141486
 30
0.0
 10
186.2211417027771
 20
15.58094545781886
 30
0.0
 10
186.128035645714
 20
15.59307749842016
 30
0.0
 10
186.0191547579824
 20
15.58957630069987
 30
0.0
 10
185.9569697640969
 20
15.58981755951596
 30
0.0
 10
185.9375369557251
 20
15.58989295124138
 30
0.0
 11
187.1521871691839
 21
14.93980288195962
 31
0.0
 11
187.0923621563987
 21
14.93980288195962
 31
0.0
 11
186.9497025105263
 21
14.93980288195962
 31
0.0
 11
186.7794313202915
 21
14.93980288195962
 31
0.0
 11
186.6367716744191
 21
14.93980288195962
 31
0.0
 11
186.5769466616339
 21
14.93980288195962
 31
0.0
 11
186.767996075484
 21
14.63705127966915
 31
0.0
 11
186.9941272785626
 21
14.36051890576696
 31
0.0
 11
187.2244526173367
 21
14.15061253493423
 31
0.0
 11
187.1521596330703
 21
14.08466403668706
 31
0.0
 11
187.0879364402649
 21
14.00876059052553
 31
0.0
 11
186.773281821556
 21
14.3589145834942
 31
0.0
 11
186.4886640249979
 21
14.81138295143592
 31
0.0
 11
186.4886640249979
 21
14.73370259137304
 31
0.0
 11
186.4886640249979
 21
14.53950169121584
 31
0.0
 11
186.4886640249979
 21
14.28704052101148
 31
0.0
 11
186.4886640249979
 21
14.03457935080712
 31
0.0
 11
186.4886640249979
 21
13.84037845064992
 31
0.0
 11
186.4886640249979
 21
13.76269809058704
 31
0.0
 11
186.4428901295607
 21
13.76269809058704
 31
0.0
 11
186.357881466606
 21
13.76269809058704
 31
0.0
 11
186.3121075711688
 21
13.76269809058704
 31
0.0
 11
186.3121075711688
 21
13.83859234982733
 31
0.0
 11
186.3121075711688
 21
14.02832799792807
 31
0.0
 11
186.3121075711688
 21
14.27498434045902
 31
0.0
 11
186.3121075711688
 21
14.52164068298997
 31
0.0
 11
186.3121075711688
 21
14.7113763310907
 31
0.0
 11
186.3121075711688
 21
14.78727059033099
 31
0.0
 11
185.9987626399269
 21
14.31440946197665
 31
0.0
 11
185.6352328662151
 21
13.95795177109358
 31
0.0
 11
185.5773927461627
 21
14.03253450545026
 31
0.0
 11
185.5094852305338
 21
14.09704322939251
 31
0.0
 11
185.7750721898318
 21
14.31672219795871
 31
0.0
 11
186.0233764972059
 21
14.60953395971679
 31
0.0
 11
186.2264982805259
 21
14.93980288195962
 31
0.0
 11
186.1627851652721
 21
14.93980288195962
 31
0.0
 11
186.010853890436
 21
14.93980288195962
 31
0.0
 11
185.8295165624059
 21
14.93980288195962
 31
0.0
 11
185.6775852875699
 21
14.93980288195962
 31
0.0
 11
185.613872172316
 21
14.93980288195962
 31
0.0
 11
185.613872172316
 21
14.98350061600222
 31
0.0
 11
185.613872172316
 21
15.06465355065275
 31
0.0
 11
185.613872172316
 21
15.10835128469535
 31
0.0
 11
185.6864886537967
 21
15.10835128469535
 31
0.0
 11
185.8596510327122
 21
15.10835128469535
 31
0.0
 11
186.0663287107726
 21
15.10835128469535
 31
0.0
 11
186.2394910896881
 21
15.10835128469535
 31
0.0
 11
186.3121075711688
 21
15.10835128469535
 31
0.0
 11
186.3121075711688
 21
15.18359217009317
 31
0.0
 11
186.3121075711688
 21
15.34912211796837
 31
0.0
 11
186.3121075711688
 21
15.51465206584356
 31
0.0
 11
186.3121075711688
 21
15.58989295124138
 31
0.0
 11
186.2535809125058
 21
15.58989295124138
 31
0.0
 11
186.124822263447
 21
15.58989295124138
 31
0.0
 11
185.9960636143882
 21
15.58989295124138
 31
0.0
 11
185.9375369557251
 21
15.58989295124138
 31
0.0
  0
SPLINE
  5
B3
102
{ACAD_REACTORS
330
CF
102
}
330
48
100
AcDbEntity
  8
_U_30EC_U_30A4_U_30E4_U_30FC_1
  6
Continuous
 62
     2
100
AcDbSpline
210
0.0
220
0.0
230
1.0
 70
     8
 71
     3
 72
    70
 73
    66
 74
    64
 42
0.000000001
 43
0.0000000001
 44
0.00000001
 40
0.0
 40
0.0
 40
0.0
 40
0.0
 40
0.0241731073021472
 40
0.0846058988987297
 40
0.1631685280353284
 40
0.2417311571789756
 40
0.3021639488292751
 40
0.3263370654895825
 40
0.3533118254249201
 40
0.4228783438922573
 40
0.5179999095314006
 40
0.6216398239466884
 40
0.7167613891500594
 40
0.7863279069650894
 40
0.8133026791762902
 40
0.8372943998772446
 40
0.8945054261372759
 40
0.9627895541961644
 40
1.020000580348914
 40
1.043992300974955
 40
1.071934345523022
 40
1.113121768772443
 40
1.145225199331746
 40
1.225483775412224
 40
1.329819923770861
 40
1.434156071993677
 40
1.514414647795043
 40
1.546518078207628
 40
1.578974764259344
 40
1.662678849313226
 40
1.777131373667304
 40
1.901833377473439
 40
2.016285900499087
 40
2.099989982526312
 40
2.132446666568642
 40
2.158782354484384
 40
2.216720867906215
 40
2.274659381332679
 40
2.300995069254633
 40
2.333451754064576
 40
2.417155836542115
 40
2.531608358983384
 40
2.656310362281651
 40
2.770762886386642
 40
2.854466971337693
 40
2.886923657361443
 40
2.913597976830864
 40
2.982389642872631
 40
3.076451716944451
 40
3.178937260456012
 40
3.272999334737371
 40
3.341791001056558
 40
3.368465320660857
 40
3.396976080736106
 40
3.472140811843342
 40
3.578408190306117
 40
3.70022689245361
 40
3.822045594631856
 40
3.92831297325402
 40
4.003477705312473
 40
4.031988456864539
 40
4.058324144795346
 40
4.116262658234529
 40
4.174201171398348
 40
4.200536849606291
 40
4.200536849606291
 40
4.200536849606291
 40
4.200536849606291
 10
185.985770496161
 20
15.75844135397711
 30
0.0
 10
185.993825954468
 20
15.75844359811693
 30
0.0
 10
186.0220200663242
 20
15.75845146032804
 30
0.0
 10
186.0765534803674
 20
15.75830754828377
 30
0.0
 10
186.1482891808604
 20
15.75909120499903
 30
0.0
 10
186.2236240137063
 20
15.75627570463817
 30
0.0
 10
186.2713052366439
 20
15.76298403400962
 30
0.0
 10
186.3195071245618
 20
15.75197563692438
 30
0.0
 10
186.3062571799874
 20
15.80546402997039
 30
0.0
 10
186.3151093964539
 20
15.860495835431
 30
0.0
 10
186.3108698036287
 20
15.95419908726118
 30
0.0
 10
186.3133483481281
 20
16.04959482218543
 30
0.0
 10
186.3090938706061
 20
16.14356821983399
 30
0.0
 10
186.3179818665848
 20
16.19795062438025
 30
0.0
 10
186.3046977409946
 20
16.25233997691473
 30
0.0
 10
186.351411927711
 20
16.23842216335376
 30
0.0
 10
186.3943254545737
 20
16.24103877374064
 30
0.0
 10
186.4605443456684
 20
16.23648422450777
 30
0.0
 10
186.5013342271798
 20
16.22778162134195
 30
0.0
 10
186.5525145690817
 20
16.2353179989022
 30
0.0
 10
186.5253720487198
 20
16.1934997022333
 30
0.0
 10
186.4803096055711
 20
16.20284992072536
 30
0.0
 10
186.4942065045053
 20
16.13841207371825
 30
0.0
 10
186.4858414431657
 20
16.07378219627379
 30
0.0
 10
186.4903632178401
 20
15.97529141193879
 30
0.0
 10
186.485474131117
 20
15.87595932842568
 30
0.0
 10
186.4950258992084
 20
15.81293115552971
 30
0.0
 10
186.4799761455203
 20
15.74964011499796
 30
0.0
 10
186.544915945721
 20
15.76515072944274
 30
0.0
 10
186.6116246399498
 20
15.75499387697819
 30
0.0
 10
186.7241435470827
 20
15.75988800099373
 30
0.0
 10
186.8390235448951
 20
15.75691204732791
 30
0.0
 10
186.9519871999742
 20
15.76221664184995
 30
0.0
 10
187.0176267597672
 20
15.75107306472097
 30
0.0
 10
187.0816276691047
 20
15.76744532319863
 30
0.0
 10
187.0703142889183
 20
15.71761689905277
 30
0.0
 10
187.0775339871504
 20
15.67416715212123
 30
0.0
 10
187.0703142611262
 20
15.63071745587441
 30
0.0
 10
187.0816277175988
 20
15.58088895196871
 30
0.0
 10
187.0176263598967
 20
15.59726166091355
 30
0.0
 10
186.9519921240454
 20
15.58611271661583
 30
0.0
 10
186.8389974317328
 20
15.59144857206848
 30
0.0
 10
186.7242456548643
 20
15.58834345663816
 30
0.0
 10
186.6113183686862
 20
15.59364894682583
 30
0.0
 10
186.5455220903586
 20
15.58257300019588
 30
0.0
 10
186.4816097975361
 20
15.5988759784761
 30
0.0
 10
186.4936015165129
 20
15.54423524395738
 30
0.0
 10
186.4862104613008
 20
15.48854295047841
 30
0.0
 10
186.4892684841986
 20
15.39649689140574
 30
0.0
 10
186.4893422785686
 20
15.30179109873109
 30
0.0
 10
186.4860313578363
 20
15.20952782902278
 30
0.0
 10
186.4939505989906
 20
15.15435768736155
 30
0.0
 10
186.481507661162
 20
15.10058169100153
 30
0.0
 10
186.5389116551634
 20
15.11453768862799
 30
0.0
 10
186.5994708140386
 20
15.10511457884245
 30
0.0
 10
186.7048680855085
 20
15.10942885928722
 30
0.0
 10
186.8204294070626
 20
15.10835504612049
 30
0.0
 10
186.9359688877802
 20
15.10725965901013
 30
0.0
 10
187.0414181130847
 20
15.1116252577065
 30
0.0
 10
187.1018680471809
 20
15.10209426030689
 30
0.0
 10
187.1592837739116
 20
15.11617289606397
 30
0.0
 10
187.1477773876715
 20
15.06707153265699
 30
0.0
 10
187.1537566781755
 20
15.02564658018664
 30
0.0
 10
187.1520311050808
 20
14.97651677966709
 30
0.0
 10
187.1521500122978
 20
14.9485442844762
 30
0.0
 10
187.1521871691839
 20
14.93980288195962
 30
0.0
 11
185.985770496161
 21
15.75844135397711
 31
0.0
 11
186.0099436128282
 21
15.75844135397711
 31
0.0
 11
186.0703764044964
 21
15.75844135397711
 31
0.0
 11
186.1489390336649
 21
15.75844135397711
 31
0.0
 11
186.2275016628334
 21
15.75844135397711
 31
0.0
 11
186.2879344545015
 21
15.75844135397711
 31
0.0
 11
186.3121075711688
 21
15.75844135397711
 31
0.0
 11
186.3121075711688
 21
15.78541612620069
 31
0.0
 11
186.3121075711688
 21
15.85498264404047
 31
0.0
 11
186.3121075711688
 21
15.95010420924994
 31
0.0
 11
186.3121075711688
 21
16.05374412358267
 31
0.0
 11
186.3121075711688
 21
16.14886568879214
 31
0.0
 11
186.3121075711688
 21
16.21843220663191
 31
0.0
 11
186.3121075711688
 21
16.2454069788555
 31
0.0
 11
186.3360407604893
 21
16.24373213107815
 31
0.0
 11
186.3931122119458
 21
16.23973826330141
 31
0.0
 11
186.4612297507809
 21
16.2349713888582
 31
0.0
 11
186.5183012022375
 21
16.23097752108146
 31
0.0
 11
186.5422343915579
 21
16.22930267330412
 31
0.0
 11
186.5274972731225
 21
16.20556293372647
 31
0.0
 11
186.4886640249979
 21
16.19183767331288
 31
0.0
 11
186.4886640249978
 21
16.15973424225097
 31
0.0
 11
186.4886640249979
 21
16.0794756645962
 31
0.0
 11
186.4886640249979
 21
15.97513951364499
 31
0.0
 11
186.4886640249979
 21
15.87080336269379
 31
0.0
 11
186.4886640249979
 21
15.79054478503902
 31
0.0
 11
186.4886640249979
 21
15.75844135397711
 31
0.0
 11
186.5211207110826
 21
15.75844135397711
 31
0.0
 11
186.6048247962487
 21
15.75844135397711
 31
0.0
 11
186.7192773208634
 21
15.75844135397711
 31
0.0
 11
186.8439793252943
 21
15.75844135397711
 31
0.0
 11
186.958431849909
 21
15.75844135397711
 31
0.0
 11
187.042135935075
 21
15.75844135397711
 31
0.0
 11
187.0745926211598
 21
15.75844135397711
 31
0.0
 11
187.0745926211598
 21
15.73210566604965
 31
0.0
 11
187.0745926211598
 21
15.67416715260924
 31
0.0
 11
187.0745926211598
 21
15.61622863916884
 31
0.0
 11
187.0745926211598
 21
15.58989295124138
 31
0.0
 11
187.042135935075
 21
15.58989295124138
 31
0.0
 11
186.958431849909
 21
15.58989295124138
 31
0.0
 11
186.8439793252943
 21
15.58989295124138
 31
0.0
 11
186.7192773208634
 21
15.58989295124138
 31
0.0
 11
186.6048247962486
 21
15.58989295124138
 31
0.0
 11
186.5211207110826
 21
15.58989295124138
 31
0.0
 11
186.4886640249979
 21
15.58989295124138
 31
0.0
 11
186.4886640249979
 21
15.56321863152017
 31
0.0
 11
186.4886640249979
 21
15.49442696487074
 31
0.0
 11
186.4886640249979
 21
15.40036489006437
 31
0.0
 11
186.4886640249979
 21
15.29787934587236
 31
0.0
 11
186.4886640249979
 21
15.20381727106599
 31
0.0
 11
186.4886640249979
 21
15.13502560441656
 31
0.0
 11
186.4886640249979
 21
15.10835128469535
 31
0.0
 11
186.5171747850996
 21
15.10835128469535
 31
0.0
 11
186.592339516277
 21
15.10835128469535
 31
0.0
 11
186.698606894838
 21
15.10835128469535
 31
0.0
 11
186.8204255970909
 21
15.10835128469535
 31
0.0
 11
186.9422442993438
 21
15.10835128469535
 31
0.0
 11
187.0485116779048
 21
15.10835128469535
 31
0.0
 11
187.1236764090822
 21
15.10835128469535
 31
0.0
 11
187.1521871691839
 21
15.10835128469535
 31
0.0
 11
187.1521871691839
 21
15.08201559676789
 31
0.0
 11
187.1521871691839
 21
15.02407708332749
 31
0.0
 11
187.1521871691839
 21
14.96613856988708
 31
0.0
 11
187.1521871691839
 21
14.93980288195962
 31
0.0
  0
SPLINE
  5
B4
102
{ACAD_REACTORS
330
CF
102
}
330
48
100
AcDbEntity
  8
_U_30EC_U_30A4_U_30E4_U_30FC_1
  6
Continuous
 62
     2
100
AcDbSpline
210
0.0
220
0.0
230
1.0
 70
     8
 71
     3
 72
    24
 73
    20
 74
    18
 42
0.000000001
 43
0.0000000001
 44
0.00000001
 40
0.0
 40
0.0
 40
0.0
 40
0.0
 40
0.2211075008754411
 40
0.4273218586238151
 40
0.508017467922234
 40
0.5914835907854652
 40
0.8143265690175258
 40
1.054651302684824
 40
1.295452694021497
 40
1.518109231327222
 40
1.540864321903803
 40
1.59512646062105
 40
1.659890947894346
 40
1.714153085185633
 40
1.736908174959927
 40
1.764951100733709
 40
1.801562291219556
 40
1.953914424541767
 40
2.126104167377929
 40
2.126104167377929
 40
2.126104167377929
 40
2.126104167377929
 10
185.9375369556888
 20
15.58989295113042
 30
0.0
 10
185.9112579081812
 20
15.53097628234386
 30
0.0
 10
185.8604698894429
 20
15.41711139679264
 30
0.0
 10
185.8131784839106
 20
15.14441958233361
 30
0.0
 10
185.7043482802612
 20
15.24445482575457
 30
0.0
 10
185.5514800279636
 20
15.27118593367385
 30
0.0
 10
185.7686155181199
 20
15.48518135017628
 30
0.0
 10
185.7838483674381
 20
15.70332117782491
 30
0.0
 10
185.8906889492004
 20
15.88451579066429
 30
0.0
 10
185.8305380947077
 20
16.16913226311408
 30
0.0
 10
185.9334317395403
 20
16.14114089222469
 30
0.0
 10
185.977993346815
 20
16.13243251602324
 30
0.0
 10
186.0380842395397
 20
16.12139654183389
 30
0.0
 10
186.0756619587439
 20
16.10767523055597
 30
0.0
 10
186.1252466928606
 20
16.10756076160266
 30
0.0
 10
186.0930158919325
 20
16.07306592398652
 30
0.0
 10
186.0171802221884
 20
16.08404104537862
 30
0.0
 10
186.0429447159689
 20
15.89858969582489
 30
0.0
 10
186.0055896763849
 20
15.80702313549611
 30
0.0
 10
185.985770496161
 20
15.75844135397711
 30
0.0
 11
185.9375369556888
 21
15.58989295113042
 31
0.0
 11
185.8616471328552
 21
15.38221708318576
 31
0.0
 11
185.7717402238427
 21
15.19663392356324
 31
0.0
 11
185.7011493923108
 21
15.23573272563567
 31
0.0
 11
185.6245525192649
 21
15.26889163187752
 31
0.0
 11
185.7214026947455
 21
15.46958801203543
 31
0.0
 11
185.7994641467472
 21
15.69688163177022
 31
0.0
 11
185.8589716929722
 21
15.93021436608696
 31
0.0
 11
185.9001601511227
 21
16.14902808999068
 31
0.0
 11
185.9224183822215
 21
16.14429889221412
 31
0.0
 11
185.975495702534
 21
16.13302157443923
 31
0.0
 11
186.0388460525845
 21
16.11956154999825
 31
0.0
 11
186.091923372897
 21
16.10828423222336
 31
0.0
 11
186.1141816039958
 21
16.1035550344468
 31
0.0
 11
186.0964097157461
 21
16.08186250841038
 31
0.0
 11
186.060612299807
 21
16.07418628445339
 31
0.0
 11
186.0281953301479
 21
15.92532288171333
 31
0.0
 11
185.985770496161
 21
15.75844135397711
 31
0.0
  0
LWPOLYLINE
  5
B5
102
{ACAD_REACTORS
330
D0
102
}
330
48
100
AcDbEntity
  8
_U_30EC_U_30A4_U_30E4_U_30FC_1
  6
Continuous
 62
     2
100
AcDbPolyline
 90
        5
 70
     1
 43
0.0
 10
191.160297169703
 20
15.39722336795603
 10
192.4578138032671
 20
15.39722336795603
 10
192.4578138032671
 20
15.2287543402208
 10
191.160297169703
 20
15.2287543402208
 10
191.160297169703
 20
15.39722336795603
  0
MTEXT
  5
B7
330
48
100
AcDbEntity
  8
1
 62
   250
100
AcDbMText
 10
25.0
 20
5.0
 30
0.0
 40
3.5
 41
0.0
 71
     4
 72
     1
  1
備考欄の文字列 原点位置=4
  7
CONVERTER_11
 73
     1
 44
0.54545454545455
  0
MTEXT
  5
B8
330
48
100
AcDbEntity
  8
1
 62
     2
100
AcDbMText
 10
89.5
 20
24.0
 30
0.0
 40
3.5
 41
0.0
 71
     5
 72
     1
  1
尺度
  7
CONVERTER_11
 73
     1
 44
0.54545454545455
  0
MTEXT
  5
B9
330
48
100
AcDbEntity
  8
1
 62
     2
100
AcDbMText
 10
135.5
 20
25.0
 30
0.0
 40
3.0
 41
0.0
 71
     5
 72
     1
  1
製図
  7
CONVERTER_11
 73
     1
 44
0.59090909090909
  0
MTEXT
  5
BA
330
48
100
AcDbEntity
  8
1
 62
     2
100
AcDbMText
 10
152.5
 20
25.0
 30
0.0
 40
3.0
 41
0.0
 71
     5
 72
     1
  1
設計
  7
CONVERTER_11
 73
     1
 44
0.59090909090909
  0
MTEXT
  5
BB
330
48
100
AcDbEntity
  8
1
 62
     2
100
AcDbMText
 10
118.5
 20
25.0
 30
0.0
 40
3.0
 41
0.0
 71
     5
 72
     1
  1
検図
  7
CONVERTER_11
 73
     1
 44
0.59090909090909
  0
MTEXT
  5
BC
330
48
100
AcDbEntity
  8
1
 62
     2
100
AcDbMText
 10
175.0
 20
23.5
 30
0.0
 40
3.5
 41
0.0
 71
     5
 72
     1
  1
第三角法
  7
CONVERTER_11
 73
     1
 44
0.54545454545455
  0
MTEXT
  5
BD
330
48
100
AcDbEntity
  8
1
 62
     2
100
AcDbMText
 10
101.5
 20
25.0
 30
0.0
 40
3.0
 41
0.0
 71
     5
 72
     1
  1
承認
  7
CONVERTER_11
 73
     1
 44
0.59090909090909
  0
MTEXT
  5
BE
330
48
100
AcDbEntity
  8
1
 62
     2
100
AcDbMText
 10
29.0
 20
14.25
 30
0.0
 40
3.5
 41
0.0
 71
     5
 72
     1
  1
品番
  7
CONVERTER_11
 73
     1
 44
0.72727272727273
  0
MTEXT
  5
BF
330
48
100
AcDbEntity
  8
1
 62
     2
100
AcDbMText
 10
29.0
 20
22.75
 30
0.0
 40
3.5
 41
0.0
 71
     5
 72
     1
  1
品名
  7
CONVERTER_11
 73
     1
 44
0.72727272727273
  0
MTEXT
  5
C0
330
48
100
AcDbEntity
  8
1
 62
     2
100
AcDbMText
 10
29.0
 20
34.0
 30
0.0
 40
3.5
 41
0.0
 71
     5
 72
     1
  1
備考
  7
CONVERTER_11
 73
     1
 44
0.45454545454545
  0
MTEXT
  5
C1
330
48
100
AcDbEntity
  8
1
 62
     2
100
AcDbMText
 10
32.5
 20
282.0
 30
0.0
 40
5.0
 41
0.0
 71
     5
 72
     1
  1
図番
  7
CONVERTER_11
 73
     1
 44
0.45454545454545
  0
HATCH
  5
C2
330
48
100
AcDbEntity
  8
1
  6
Continuous
 62
     2
100
AcDbHatch
 10
0.0
 20
0.0
 30
0.0
210
0.0
220
0.0
230
1.0
  2
CUSTOM0
 70
     0
 71
     1
 91
        1
 92
        1
 93
        1
 72
     4
 94
        3
 73
     0
 74
     0
 95
       99
 96
       95
 40
0.0
 40
0.0
 40
0.0
 40
0.0
 40
0.0796417172277258
 40
0.1621768542362096
 40
0.2486489160961733
 40
0.3404969668531597
 40
0.438191251117265
 40
0.5434463660251565
 40
0.651811519285258
 40
0.7530190937894334
 40
0.8492196919730735
 40
0.9419290313002529
 40
1.034249663570775
 40
1.129078600620798
 40
1.226697027573849
 40
1.327220425422316
 40
1.470572134938521
 40
1.595489863371656
 40
1.719934125348733
 40
1.850576620128489
 40
1.989059629987927
 40
2.134139054227525
 40
2.280698007207516
 40
2.42452973904006
 40
2.565929576986437
 40
2.70823926077398
 40
2.861717887443885
 40
3.045168540347754
 40
3.18379830113899
 40
3.31481396145675
 40
3.442083470447264
 40
3.569912708373264
 40
3.702177512509438
 40
3.842307559659565
 40
3.992872223245688
 40
4.156750662218507
 40
4.310981861107473
 40
4.445859909322665
 40
4.572393936131555
 40
4.70165671978152
 40
4.768279086008282
 40
4.83596069789812
 40
4.912788918728748
 40
5.006285208480777
 40
5.026909478751166
 40
5.047533749021043
 40
5.101808031470817
 40
5.162325165537896
 40
5.226919745994745
 40
5.294231806595615
 40
5.364544852553927
 40
5.438319055466903
 40
5.517877651323534
 40
5.607647714861181
 40
5.700449642543836
 40
5.788251142363151
 40
5.872714706038982
 40
5.955167292574314
 40
6.037192395189972
 40
6.120669181469048
 40
6.20684861668581
 40
6.296680855415955
 40
6.44255839287211
 40
6.568190371607566
 40
6.692904567359701
 40
6.824220446556835
 40
6.96312185032912
 40
7.10784373885137
 40
7.253431663907172
 40
7.395187468036498
 40
7.533140753237273
 40
7.670550457174961
 40
7.816236511768524
 40
7.98769165735887
 40
8.142277421969009
 40
8.293662615414647
 40
8.442962460878384
 40
8.591598316185356
 40
8.743678992361085
 40
8.903725323698172
 40
9.076307008890211
 40
9.265578604679812
 40
9.459203795359759
 40
9.61761981027319
 40
9.753609671361556
 40
9.874873300003934
 40
9.954520184977893
 40
10.02416413719295
 40
10.09769764405497
 40
10.18909955925019
 40
10.20974586420161
 40
10.23039218263384
 40
10.30057101881271
 40
10.37632012987558
 40
10.37632012987558
 40
10.37632012987558
 40
10.37632012987558
 10
170.1465954835849
 20
14.13795663216024
 10
170.1632217851217
 20
14.11720608845324
 10
170.1970784206576
 20
14.07495111711886
 10
170.2599822541042
 20
14.02029811392124
 10
170.3332500940393
 20
13.97299025121002
 10
170.4175969238643
 20
13.93527231438014
 10
170.5132240615463
 20
13.91040619731894
 10
170.617185377535
 20
13.90309559345908
 10
170.7224020220409
 20
13.91142322794029
 10
170.8206626371336
 20
13.94149179651534
 10
170.905898642755
 20
13.98848822971883
 10
170.977922020611
 20
14.04952991250802
 10
171.0350917709094
 20
14.12412969578611
 10
171.0767868747438
 20
14.21002464660197
 10
171.102695284629
 20
14.30485850432233
 10
171.1118037332655
 20
14.41854979038379
 10
171.0986864796489
 20
14.54332587770801
 10
171.0325330334408
 20
14.66014719171851
 10
170.936937091957
 20
14.74512539577413
 10
170.8249681022372
 20
14.81416684459282
 10
170.6993659583267
 20
14.87204142045895
 10
170.565669162086
 20
14.92373723284403
 10
170.431312281883
 20
14.97899092397155
 10
170.305198398688
 20
15.04939770641687
 10
170.1926579987532
 20
15.13785540731228
 10
170.0969963064466
 20
15.24981067868522
 10
170.0334157151826
 20
15.39949910101387
 10
170.0200706505024
 20
15.55932794385164
 10
170.0320510987453
 20
15.71048405306891
 10
170.0712298928834
 20
15.83809244591612
 10
170.135498775091
 20
15.95080874030894
 10
170.2238204999745
 20
16.04648609268612
 10
170.3338091207625
 20
16.12354214985792
 10
170.4632284401267
 20
16.18151396936187
 10
170.6111838967791
 20
16.2173917758888
 10
170.7682069455485
 20
16.2274671905053
 10
170.917494046643
 20
16.21863637762554
 10
171.0596253614171
 20
16.19074899340393
 10
171.1595922609623
 20
16.13413314701117
 10
171.3125074736178
 20
16.08674602105537
 10
171.2455131717169
 20
16.00197553001174
 10
171.2296479120276
 20
15.93438901873461
 10
171.19787505313
 20
15.86926092793189
 10
171.2150202209572
 20
15.76723453256976
 10
171.1666427208229
 20
15.77493211681939
 10
171.1315789440762
 20
15.76806771724831
 10
171.1296697985715
 20
15.83263831158203
 10
171.0985692931986
 20
15.87825639621375
 10
171.0664551628458
 20
15.93561036628439
 10
171.020803847517
 20
15.98540462692524
 10
170.965850821839
 20
16.02994813718992
 10
170.901084117301
 20
16.06763988836542
 10
170.8232377310599
 20
16.09283375791394
 10
170.7355160553352
 20
16.0993123099808
 10
170.6452903277806
 20
16.09235709285596
 10
170.5594594694068
 20
16.06909190460873
 10
170.4828343638594
 20
16.03131644107642
 10
170.4165265636202
 20
15.98051641089577
 10
170.362256053696
 20
15.91731143407232
 10
170.3224925345459
 20
15.84276455710347
 10
170.2976775510586
 20
15.75917313997768
 10
170.2892124262868
 20
15.651929483823
 10
170.3019697987104
 20
15.52965457267585
 10
170.368154840927
 20
15.41149724291222
 10
170.4640977399829
 20
15.32606325709502
 10
170.5757914963191
 20
15.25583362306877
 10
170.7010863668705
 20
15.19659162305283
 10
170.8349823941453
 20
15.14616708086118
 10
170.9689930333154
 20
15.0932251698437
 10
171.0950885316917
 20
15.02750170625157
 10
171.2076216638419
 20
14.94480352537307
 10
171.3031370284231
 20
14.8399600631006
 10
171.3672706486964
 20
14.69937117251564
 10
171.3811103725281
 20
14.54065409451584
 10
171.3673954712227
 20
14.38153155217852
 10
171.3244739153977
 20
14.23483828819233
 10
171.2545906329066
 20
14.10119796587109
 10
171.1574592213826
 20
13.98532387699298
 10
171.0347806023657
 20
13.89089981770065
 10
170.8874408413166
 20
13.82179270652025
 10
170.7177132497125
 20
13.77953210858813
 10
170.5317404979597
 20
13.76781736230394
 10
170.3528955926183
 20
13.77809486683392
 10
170.1881733753744
 20
13.81966573769202
 10
170.0834410841052
 20
13.88797642883932
 10
169.9350960790356
 20
13.93675219032109
 10
169.9980378194729
 20
14.02976591290853
 10
170.0072274430059
 20
14.10296536248313
 10
170.0303711301235
 20
14.16936294501384
 10
170.0034588335317
 20
14.26974809527612
 10
170.0521338956338
 20
14.2623403351742
 10
170.0916530580694
 20
14.26894063620925
 10
170.0996204944706
 20
14.19078703219004
 10
170.1305436967922
 20
14.15600927375901
 10
170.1465954835849
 20
14.13795663216024
 97
        1
330
A4
 75
     1
 76
     2
 52
45.0
 41
0.1
 77
     0
 78
     1
 53
45.0
 43
0.0
 44
0.0
 45
-0.282842712474619
 46
0.0
 79
     0
 98
        1
 10
0.0
 20
0.0
  0
HATCH
  5
C3
330
48
100
AcDbEntity
  8
1
  6
Continuous
 62
     2
100
AcDbHatch
 10
0.0
 20
0.0
 30
0.0
210
0.0
220
0.0
230
1.0
  2
CUSTOM1
 70
     0
 71
     1
 91
        2
 92
        1
 93
        1
 72
     4
 94
        3
 73
     0
 74
     0
 95
       57
 96
       53
 40
0.0
 40
0.0
 40
0.0
 40
0.0
 40
0.0471632082814805
 40
0.09148610546446
 40
0.135776251971171
 40
0.1826527001618299
 40
0.2295203288577934
 40
0.2737751972226103
 40
0.3181310461547053
 40
0.3652607198399592
 40
0.4571007286313229
 40
0.5671851029159881
 40
0.6894623283867674
 40
0.818175827254638
 40
0.9510087229279062
 40
1.085852229674266
 40
1.218126164475491
 40
1.343545131143378
 40
1.454537202957258
 40
1.567187607531292
 40
1.680710966643054
 40
1.794226869737674
 40
1.900009184248075
 40
2.004085860447844
 40
2.108162674451899
 40
2.214000150155559
 40
2.496038577353198
 40
2.762350745480715
 40
2.997275353280753
 40
3.18511008213852
 40
3.246407890065003
 40
3.312607550213965
 40
3.378877742712956
 40
3.440140399652584
 40
4.100501696007435
 40
4.754913085563765
 40
5.411331693424825
 40
6.077890432569466
 40
6.110575292671432
 40
6.143260152775928
 40
6.367989363395026
 40
6.610525374951457
 40
6.863389136467418
 40
7.119380025547871
 40
7.376036605091288
 40
7.631164770966288
 40
7.876722425456526
 40
8.104953735855684
 40
8.312916685924504
 40
8.4977302949417
 40
8.651018984313843
 40
8.76473885362454
 40
8.76473885362454
 40
8.76473885362454
 40
8.76473885362454
 10
174.792264950052
 20
13.81626739612966
 10
174.7766616726935
 20
13.81826231079101
 10
174.7463947960302
 20
13.82213201360292
 10
174.701099420225
 20
13.82341984967297
 10
174.6559553129345
 20
13.8230868355407
 10
174.6099017123398
 20
13.82314658674246
 10
174.5640496172097
 20
13.8232581365002
 10
174.5183711648166
 20
13.82277833456621
 10
174.475081154161
 20
13.82461109618711
 10
174.403994795152
 20
13.80049556814732
 10
174.4057477261443
 20
13.92184693977235
 10
174.358619637057
 20
14.00726239751222
 10
174.3191478251762
 20
14.12486929345124
 10
174.270663553265
 20
14.24232752540485
 10
174.2201017402519
 20
14.36405935761532
 10
174.1718634610476
 20
14.49075967862507
 10
174.1135232947591
 20
14.59933687784983
 10
174.098089266726
 20
14.7562065713453
 10
173.9566586330635
 20
14.72373446548309
 10
173.8508397414904
 20
14.73512888682175
 10
173.7358569725221
 20
14.73392591514619
 10
173.6253142252139
 20
14.73506945347395
 10
173.5176583522784
 20
14.7341835003753
 10
173.4121322529246
 20
14.73416602390512
 10
173.3109192682017
 20
14.72714032472402
 10
173.1266804827754
 20
14.75135859860061
 10
173.115739368541
 20
14.44741691121892
 10
173.0087691634746
 20
14.22353177253432
 10
172.9098148604347
 20
14.03895314292479
 10
172.9225090524011
 20
13.79530204804288
 10
172.8050091716399
 20
13.82508046753187
 10
172.7422055868311
 20
13.82258089509642
 10
172.67858720934
 20
13.82344075102795
 10
172.3946014194075
 20
13.7809803994215
 10
173.025163849938
 20
14.50081952444718
 10
173.108764528907
 20
15.01276539435738
 10
173.4929252789332
 20
15.53353743550051
 10
173.4777208288569
 20
16.2351962625318
 10
173.7239265722699
 20
16.22345633081238
 10
173.825634615756
 20
16.23225004452745
 10
173.824975203582
 20
15.98059650730356
 10
173.9428317155827
 20
15.79818020733958
 10
174.0315515260484
 20
15.55563740662857
 10
174.1322292485258
 20
15.32340030530102
 10
174.2311142712245
 20
15.08674644566908
 10
174.3299676990679
 20
14.85461739170128
 10
174.4256166390926
 20
14.63122222788798
 10
174.5159904573275
 20
14.4227254904933
 10
174.5989944568189
 20
14.23308448529309
 10
174.6726088582801
 20
14.06663106068087
 10
174.7342815895548
 20
13.92917699626097
 10
174.7749458885609
 20
13.84999239430064
 10
174.792264950052
 20
13.81626739612966
 97
        1
330
A5
 92
       16
 93
        1
 72
     4
 94
        3
 73
     0
 74
     0
 95
       25
 96
       21
 40
0.0
 40
0.0
 40
0.0
 40
0.0
 40
0.0911479969062262
 40
0.1858117896202842
 40
0.2804128399736746
 40
0.3715889190716778
 40
0.4679080494219268
 40
0.5642683809233208
 40
0.6605683222643923
 40
0.7569653015803429
 40
0.8561348172516141
 40
1.09261596510365
 40
1.374867658141272
 40
1.611348812011003
 40
1.710518328424663
 40
1.809403163726059
 40
2.045205463293742
 40
2.326646917621995
 40
2.562449217190649
 40
2.661334043834035
 40
2.661334043834035
 40
2.661334043834035
 40
2.661334043834035
 10
173.26837005672
 20
14.88614538197271
 10
173.2987525917922
 20
14.88598079714528
 10
173.360689588911
 20
14.88564528689885
 10
173.4541356960331
 20
14.88269055452051
 10
173.5475095236358
 20
14.87977752877125
 10
173.6417760753479
 20
14.8789420164339
 10
173.7354964790969
 20
14.87996644658013
 10
173.8352040303207
 20
14.87916977470931
 10
173.9188949546313
 20
14.88921410235237
 10
174.0637996315039
 20
14.86234617674148
 10
173.9396132444795
 20
15.0366553028005
 10
173.896586728628
 20
15.19651711006087
 10
173.780892214221
 20
15.45518458550232
 10
173.701756543126
 20
15.59231052861888
 10
173.6431576621821
 20
15.80937033134118
 10
173.5864803939442
 20
15.59266134213452
 10
173.505280990048
 20
15.45327012438256
 10
173.4063701281491
 20
15.20406969370192
 10
173.325362509426
 20
15.01925830226063
 10
173.2813683325839
 20
14.91650446856097
 10
173.26837005672
 20
14.88614538197271
 97
        1
330
A6
 75
     1
 76
     2
 52
45.0
 41
0.1
 77
     0
 78
     1
 53
45.0
 43
0.0
 44
0.0
 45
-0.282842712474619
 46
0.0
 79
     0
 98
        1
 10
0.0
 20
0.0
  0
HATCH
  5
C4
330
48
100
AcDbEntity
  8
1
  6
Continuous
 62
     2
100
AcDbHatch
 10
0.0
 20
0.0
 30
0.0
210
0.0
220
0.0
230
1.0
  2
CUSTOM2
 70
     0
 71
     1
 91
        1
 92
        1
 93
        1
 72
     4
 94
        3
 73
     0
 74
     0
 95
       95
 96
       91
 40
0.0
 40
0.0
 40
0.0
 40
0.0
 40
0.6550406656909784
 40
1.308087289032394
 40
1.420803739836561
 40
1.56613075977172
 40
1.757067341889078
 40
2.006513545027297
 40
2.087328263122075
 40
2.185328872296306
 40
2.294612454748914
 40
2.408936380535426
 40
2.526802767798925
 40
2.646360524615116
 40
2.762535723972119
 40
2.870057342870756
 40
2.966883448432125
 40
3.05080324351924
 40
3.115818222437299
 40
3.156030057150607
 40
3.213914225080593
 40
3.276689026451083
 40
3.342960320981864
 40
3.404230667150575
 40
3.453822809492981
 40
3.532499827188375
 40
3.63477518850671
 40
3.754909333007567
 40
3.889736761660366
 40
4.035769602175098
 40
4.187256681197226
 40
4.3387336856759
 40
4.488478734675889
 40
4.634708317830782
 40
4.771493189920795
 40
4.892686571560796
 40
5.199775528943988
 40
5.460353566929248
 40
5.667603142345177
 40
5.814722905403821
 40
5.828990806219119
 40
5.855488336303646
 40
5.869756237117921
 40
6.189796507761448
 40
6.531890469871564
 40
6.883053637015604
 40
7.23051202491034
 40
7.566966656763466
 40
7.885203559705957
 40
8.172887439717655
 40
8.418011594061584
 40
8.44392672118948
 40
8.510760470611908
 40
8.602145393794334
 40
8.701714041645682
 40
8.79309896507383
 40
8.85993271505634
 40
8.885847842601965
 40
9.242301256611402
 40
9.589275455015187
 40
9.921808543163165
 40
10.23479624298343
 40
10.29968150889095
 40
10.35323493887643
 40
10.40154625355035
 40
10.46482922477741
 40
10.55973900668327
 40
10.69239545985485
 40
10.84920353475608
 40
11.0162632859469
 40
11.18672024367392
 40
11.35372582577167
 40
11.50257442292353
 40
11.61866495023094
 40
11.71329869152796
 40
11.82511050573869
 40
11.94464880845608
 40
12.06929242642463
 40
12.19707290435094
 40
12.32562632860431
 40
12.45034565331156
 40
12.56646595170262
 40
12.67099007414574
 40
12.76077625936714
 40
12.82703233506639
 40
12.87429132785941
 40
12.89831990323238
 40
12.92234847859881
 40
13.53984767410221
 40
14.18294284359274
 40
14.18294284359274
 40
14.18294284359274
 40
14.18294284359274
 10
177.3067935648019
 20
14.70898038201722
 10
177.1752019758551
 20
14.8226505860323
 10
176.9124193802731
 20
15.04964496316172
 10
176.3997393441002
 20
15.89214462956349
 10
176.4106654595365
 20
15.53423377577021
 10
176.4041226527989
 20
15.39267392272133
 10
176.4028026631776
 20
15.19421305299277
 10
176.4018117602543
 20
15.02150296045992
 10
176.4024101751979
 20
14.87865373257587
 10
176.4038994301887
 20
14.78265005413376
 10
176.4055683588473
 20
14.67545503263155
 10
176.4071934954618
 20
14.56164211517606
 10
176.4092429501689
 20
14.44441572604648
 10
176.4123165501917
 20
14.32656411233028
 10
176.4156339697048
 20
14.21228087320675
 10
176.4193605340276
 20
14.10521401867297
 10
176.4217338161428
 20
14.0100740876693
 10
176.4278718888366
 20
13.92558557205705
 10
176.4239784495946
 20
13.8692308729814
 10
176.4455230443078
 20
13.79825022472401
 10
176.3680940058617
 20
13.82902677604472
 10
176.311635324019
 20
13.82011242517652
 10
176.2540495896807
 20
13.82896218398263
 10
176.169016347848
 20
13.79738225226008
 10
176.200971414638
 20
13.88095155992223
 10
176.199070528253
 20
13.94882608968333
 10
176.2107960047302
 20
14.05233256764424
 10
176.2164241053003
 20
14.17002125616693
 10
176.2237902178942
 20
14.30388609164433
 10
176.2320759701614
 20
14.44764152872649
 10
176.2398851897424
 20
14.59714022843471
 10
176.2457571222666
 20
14.74792549402098
 10
176.2503667817971
 20
14.89699943878444
 10
176.2542632117542
 20
15.04122913163016
 10
176.2570715126558
 20
15.17583905213007
 10
176.2576698755017
 20
15.36469614347354
 10
176.2616023867141
 20
15.58975494313157
 10
176.2442175378505
 20
15.86367091125715
 10
176.2850417342581
 20
16.02787112098595
 10
176.1995153256008
 20
16.22749661465075
 10
176.2660558907693
 20
16.22385458403959
 10
176.2838724273234
 20
16.22413447160834
 10
176.4056801797501
 20
16.22632927398594
 10
176.5080770335457
 20
15.94675118721459
 10
176.7580021509356
 20
15.74563008536033
 10
176.987003533111
 20
15.47792614987927
 10
177.2245151213107
 20
15.22646413862353
 10
177.4486090740776
 20
14.98969974061394
 10
177.6750716283001
 20
14.73218692583022
 10
177.8325687886518
 20
14.61649335056981
 10
178.0472129612677
 20
14.27997152538792
 10
178.042264597462
 20
14.4046475409161
 10
178.0433931602549
 20
14.46327691935739
 10
178.0428877841518
 20
14.5504366237197
 10
178.0430475158115
 20
14.64416143182857
 10
178.0430054891321
 20
14.73018971297012
 10
178.0430202040374
 20
14.79153891945467
 10
178.0429706255987
 20
14.94135231520969
 10
178.0458811522814
 20
15.1798961251008
 10
178.0259521041163
 20
15.544865098687
 10
178.075043393625
 20
15.80799631993402
 10
177.917795150918
 20
16.21928904947787
 10
178.0762112872421
 20
16.16398282551737
 10
178.1311680478629
 20
16.16199686500184
 10
178.182788776674
 20
16.16264778248235
 10
178.271319896537
 20
16.20369527738267
 10
178.2204898303165
 20
16.05696326623018
 10
178.231338993029
 20
15.95019971954447
 10
178.2166036994846
 20
15.79085705414132
 10
178.2099976446212
 20
15.62853061652862
 10
178.2014961399917
 20
15.45992521892379
 10
178.1943227202202
 20
15.29814814703519
 10
178.1889063215389
 20
15.1542233145796
 10
178.1871713967641
 20
15.03437493466966
 10
178.1875440672313
 20
14.92686101590543
 10
178.1873656126256
 20
14.81820024645586
 10
178.1877010863135
 20
14.69953570165517
 10
178.1890040622187
 20
14.57555163512744
 10
178.1908887351573
 20
14.44858294171103
 10
178.1925004454854
 20
14.32153861551058
 10
178.1941403137429
 20
14.19854884492197
 10
178.1962570745762
 20
14.08300931383767
 10
178.1963848422359
 20
13.98090903955827
 10
178.2006514396548
 20
13.8900984883814
 10
178.1908440085283
 20
13.83213621208775
 10
178.2118474771684
 20
13.76517130132017
 10
178.1725639739895
 20
13.7729115396666
 10
177.9595307117745
 20
13.75755254145189
 10
177.7636297943188
 20
14.31403058094469
 10
177.4611197631544
 20
14.57556035348511
 10
177.3067935648019
 20
14.70898038201722
 97
        1
330
A7
 75
     1
 76
     2
 52
45.0
 41
0.1
 77
     0
 78
     1
 53
45.0
 43
0.0
 44
0.0
 45
-0.282842712474619
 46
0.0
 79
     0
 98
        1
 10
0.0
 20
0.0
  0
HATCH
  5
C5
330
48
100
AcDbEntity
  8
1
  6
Continuous
 62
     2
100
AcDbHatch
 10
0.0
 20
0.0
 30
0.0
210
0.0
220
0.0
230
1.0
  2
CUSTOM3
 70
     0
 71
     1
 91
        1
 92
        1
 93
        1
 72
     4
 94
        3
 73
     0
 74
     0
 95
      110
 96
      106
 40
0.0
 40
0.0
 40
0.0
 40
0.0
 40
0.2203406257279572
 40
0.4407808782840419
 40
0.5952494494612557
 40
0.7488431659395373
 40
0.9023581831305162
 40
1.056801968669957
 40
1.210736449099314
 40
1.363041386539624
 40
1.515315729682795
 40
1.669377239148426
 40
1.721611652756524
 40
1.773199502943355
 40
1.824933793210689
 40
1.877110426488289
 40
1.982682281207921
 40
2.078781667088516
 40
2.172809640823321
 40
2.271937807380264
 40
2.37834993338031
 40
2.494131557737081
 40
2.626681683944164
 40
2.783145050796278
 40
2.890701232941258
 40
2.993130312455382
 40
3.099869730691991
 40
3.220237816691375
 40
3.352695482737557
 40
3.481732806389816
 40
3.593499473690214
 40
3.674323013332208
 40
3.817951711953528
 40
3.946167120794589
 40
4.061405053454026
 40
4.16648079600359
 40
4.262478775059341
 40
4.350736673551184
 40
4.433071991254647
 40
4.511216293815211
 40
4.564262454118989
 40
4.618474415572543
 40
4.670128488755086
 40
4.722296879127242
 40
4.819540945315131
 40
4.931194984129487
 40
5.049996040258524
 40
5.168643755415485
 40
5.283970811763238
 40
5.392260784911123
 40
5.486512254877059
 40
5.559178233950911
 40
5.591425852854099
 40
5.626215969639152
 40
5.667155838675568
 40
5.717449290215375
 40
5.738402360945975
 40
5.784499116554918
 40
5.830595872165863
 40
5.85154894289871
 40
5.873019280662802
 40
5.924217778409294
 40
5.985325662818611
 40
6.036524160568574
 40
6.057994498335082
 40
6.236847789608555
 40
6.381409928947005
 40
6.493190424179724
 40
6.574067534231257
 40
6.691018086205868
 40
6.81488155422107
 40
6.944307823240794
 40
7.071266716065857
 40
7.193488604462237
 40
7.309042773127954
 40
7.41400720317094
 40
7.505140441887016
 40
7.531150360600017
 40
7.559221645322845
 40
7.587202218921429
 40
7.612569159499937
 40
7.662550809481701
 40
7.702878875764196
 40
7.857328205231056
 40
8.010799568088647
 40
8.165256399657768
 40
8.322232698714135
 40
8.479564855016907
 40
8.635216230291338
 40
8.790882550925831
 40
8.948305154947017
 40
9.168271839032348
 40
9.387358980987262
 40
9.608047961033071
 40
9.832914234792304
 40
9.858338694962612
 40
9.925366817229547
 40
10.02013071422703
 40
10.1287624985893
 40
10.23739428295168
 40
10.332158179951
 40
10.39918630222296
 40
10.42461076239682
 40
10.64992019336875
 40
10.871885245311
 40
10.871885245311
 40
10.871885245311
 40
10.871885245311
 10
179.9057788376617
 20
15.73923260398169
 10
179.909286493354
 20
15.80616462073787
 10
179.9163033987662
 20
15.94005891915847
 10
179.8198027599078
 20
16.22548554971461
 10
180.0510134726112
 20
16.16284386190283
 10
180.1919290057157
 20
16.17001554056016
 10
180.3490417757589
 20
16.1623588307822
 10
180.5025913427285
 20
16.16252752283055
 10
180.6545104935079
 20
16.16182040535409
 10
180.8142214813231
 20
16.17210158351662
 10
180.9408972601117
 20
16.15496511080759
 10
181.1370821122092
 20
16.22727260107163
 10
181.1034395279077
 20
16.12640699080144
 10
181.1052011317182
 20
16.07619253947685
 10
181.1027342073456
 20
16.02712335586466
 10
181.1347076966021
 20
15.94063490847008
 10
181.0010399903255
 20
15.98997438608354
 10
180.9172208688055
 20
15.9843063431413
 10
180.8173861139322
 20
15.99465516706391
 10
180.7186576720143
 20
16.00086450411169
 10
180.612153277111
 20
16.0069776381679
 10
180.4910511698062
 20
16.01588883484544
 10
180.3703381502456
 20
16.00521605912402
 10
180.1812553843449
 20
16.06468503080337
 10
180.2129028505306
 20
15.90558320077515
 10
180.1995563316837
 20
15.80839128339877
 10
180.1974958426447
 20
15.69634065110088
 10
180.1958188044667
 20
15.57699685629354
 10
180.1973336794234
 20
15.45032592155121
 10
180.195658247867
 20
15.32301588016135
 10
180.2058844271654
 20
15.22451566404471
 10
180.1779006596578
 20
15.08388702625596
 10
180.3508029999304
 20
15.13989551134084
 10
180.4645020202771
 20
15.12719951478518
 10
180.5840151672239
 20
15.13448377051323
 10
180.6888491425069
 20
15.13878017056746
 10
180.7843084898608
 20
15.14330568258971
 10
180.8763823507028
 20
15.15149201146219
 10
180.9476551782437
 20
15.14643850638044
 10
181.0544931705683
 20
15.18536425031721
 10
181.0226603598039
 20
15.1051712200587
 10
181.0266164503931
 20
15.0556293684602
 10
181.0234502392016
 20
15.0055747803981
 10
181.0550791490581
 20
14.92128847612012
 10
180.9210133677689
 20
14.97425365495142
 10
180.8292322793197
 20
14.96540080890436
 10
180.7079729189602
 20
14.97570049965239
 10
180.5914113119774
 20
14.9774891176746
 10
180.4783375745881
 20
14.97787017109693
 10
180.3679246308472
 20
14.98415449472172
 10
180.2898124067839
 20
14.97189133255426
 10
180.1913625833644
 20
15.00453887616129
 10
180.2012355173555
 20
14.94769748054211
 10
180.1973923244403
 20
14.91392130557984
 10
180.196678988427
 20
14.87119604709394
 10
180.1963369642971
 20
14.83401607262141
 10
180.1963834255343
 20
14.7948723737076
 10
180.1963649429924
 20
14.75716849497677
 10
180.1963703431803
 20
14.71944955232396
 10
180.1963697214198
 20
14.68994324745145
 10
180.1963698151542
 20
14.65873577699299
 10
180.1963704287918
 20
14.61414424908087
 10
180.1963671499335
 20
14.55963956508859
 10
180.1963759623478
 20
14.51505540201461
 10
180.1963359653415
 20
14.43117808585747
 10
180.1976024270256
 20
14.3173752067767
 10
180.1950274117842
 20
14.16830395933694
 10
180.2065009381714
 20
14.06597203813898
 10
180.1823506222272
 20
13.93338903885878
 10
180.3332993946476
 20
13.97895732272048
 10
180.4428436671557
 20
13.96427012162384
 10
180.5733970473918
 20
13.96920435125057
 10
180.6990312209512
 20
13.9725770532343
 10
180.8188730625597
 20
13.97711497498747
 10
180.9391362611423
 20
13.99048536182199
 10
181.0222761663511
 20
13.98068712782552
 10
181.1456080421081
 20
14.04126214623307
 10
181.1244269203954
 20
13.98532460134023
 10
181.1235950270107
 20
13.95939249372351
 10
181.1218963707562
 20
13.93197256190922
 10
181.1217974888834
 20
13.89738195206366
 10
181.1203659301333
 20
13.86050408220761
 10
181.1532804192189
 20
13.76846841021843
 10
180.9551306988109
 20
13.84132015974824
 10
180.8300548294892
 20
13.81825726508635
 10
180.6673071295157
 20
13.82454021985805
 10
180.5129366450001
 20
13.82260943909949
 10
180.3566670436942
 20
13.82393762599287
 10
180.1970544465281
 20
13.82059872487893
 10
180.0540326342237
 20
13.83265795728226
 10
179.8197144881635
 20
13.76952001976987
 10
179.9173810751196
 20
14.05620527466359
 10
179.9006868780058
 20
14.24988308142696
 10
179.9146296709683
 20
14.47848242880337
 10
179.9142987846631
 20
14.63384593955076
 10
179.9143078119262
 20
14.73966336444152
 10
179.9143055876314
 20
14.80205784124233
 10
179.9143065551887
 20
14.89220425248336
 10
179.914306547326
 20
14.99621167157436
 10
179.9143053861102
 20
15.10022131375283
 10
179.9143090971501
 20
15.19036243688744
 10
179.914301105105
 20
15.25276803097186
 10
179.9143334275016
 20
15.35868835961096
 10
179.9131440788317
 20
15.51626716544721
 10
179.9082216489255
 20
15.66528219822052
 10
179.9057788376617
 20
15.73923260398169
 97
        1
330
A8
 75
     1
 76
     2
 52
45.0
 41
0.1
 77
     0
 78
     1
 53
45.0
 43
0.0
 44
0.0
 45
-0.282842712474619
 46
0.0
 79
     0
 98
        1
 10
0.0
 20
0.0
  0
HATCH
  5
C6
330
48
100
AcDbEntity
  8
1
  6
Continuous
 62
     2
100
AcDbHatch
 10
0.0
 20
0.0
 30
0.0
210
0.0
220
0.0
230
1.0
  2
CUSTOM4
 70
     0
 71
     1
 91
        1
 92
        1
 93
        1
 72
     4
 94
        3
 73
     0
 74
     0
 95
       47
 96
       43
 40
0.0
 40
0.0
 40
0.0
 40
0.0
 40
0.2207912809960565
 40
0.4459404186306244
 40
0.4902387190457075
 40
0.5327473892715178
 40
0.5742260451228329
 40
0.6155432630566995
 40
0.656816406631591
 40
0.6982511618783873
 40
0.7407663929317504
 40
0.7851366743180583
 40
1.010288833836878
 40
1.231080507003092
 40
1.451765243653042
 40
1.676638205892193
 40
1.720461045360061
 40
1.830018144043669
 40
1.972442372352964
 40
2.114866600676997
 40
2.224423699394364
 40
2.268246538882503
 40
2.493628801207652
 40
2.715602830287299
 40
2.934211330706791
 40
3.149502369855603
 40
3.231387784851568
 40
3.31823187385418
 40
3.405143198198711
 40
3.486970301720871
 40
3.702258172494093
 40
3.920866283534034
 40
4.142839325932099
 40
4.368221903866884
 40
4.412044743361262
 40
4.521601842097017
 40
4.664026070453163
 40
4.806450298809535
 40
4.916007397546972
 40
4.959830237043192
 40
5.184703515847096
 40
5.40538725076722
 40
5.40538725076722
 40
5.40538725076722
 40
5.40538725076722
 10
182.6507427258639
 20
15.73406440953841
 10
182.6568139419998
 20
15.79758482501186
 10
182.6690762107241
 20
15.92587938689603
 10
182.5604706879417
 20
16.2016622017408
 10
182.6761985896601
 20
16.17188133432061
 10
182.7171842509013
 20
16.16765556262834
 10
182.7591205797518
 20
16.16310446389587
 10
182.8004196625713
 20
16.16201982929498
 10
182.8417032115558
 20
16.16310338195207
 10
182.8836148270648
 20
16.16766112711363
 10
182.9245983549022
 20
16.1718743020974
 10
183.0404922843494
 20
16.20177611317536
 10
182.9295652727457
 20
15.92339806609889
 10
182.9574856365266
 20
15.74283140824939
 10
182.9404267346967
 20
15.50961042346465
 10
182.9414637282106
 20
15.34906622543155
 10
182.9414099399407
 20
15.22284817558747
 10
182.9414277372484
 20
15.1242896333629
 10
182.9414188581083
 20
14.99280702443042
 10
182.9414263928036
 20
14.8613284496876
 10
182.9414129405131
 20
14.76276222694224
 10
182.9414531717495
 20
14.63639735624253
 10
182.9406746403814
 20
14.47482068822922
 10
182.9565958319266
 20
14.24361821892927
 10
182.9333468885409
 20
14.05874351971997
 10
183.036018344437
 20
13.78935602770124
 10
182.882023836284
 20
13.82660112685802
 10
182.8004129802834
 20
13.82137994680573
 10
182.7188192292587
 20
13.82660620378343
 10
182.5648513666846
 20
13.78937069885471
 10
182.6674183421916
 20
14.0587512986288
 10
182.6442045316077
 20
14.24361585325429
 10
182.6600444655145
 20
14.4748221856569
 10
182.6593296313432
 20
14.63639712308604
 10
182.6593664569911
 20
14.76276231210654
 10
182.6593549000275
 20
14.86132756636092
 10
182.6593575019218
 20
14.99281127417299
 10
182.6593648531784
 20
15.12427548031248
 10
182.6593442541356
 20
15.22287786275351
 10
182.6594082192032
 20
15.34896149354435
 10
182.6581733947596
 20
15.51210091383766
 10
182.6532040396742
 20
15.66054183777528
 10
182.6507427258639
 20
15.73406440953841
 97
        1
330
A9
 75
     1
 76
     2
 52
45.0
 41
0.1
 77
     0
 78
     1
 53
45.0
 43
0.0
 44
0.0
 45
-0.282842712474619
 46
0.0
 79
     0
 98
        1
 10
0.0
 20
0.0
  0
HATCH
  5
C7
330
48
100
AcDbEntity
  8
1
  6
Continuous
 62
     2
100
AcDbHatch
 10
0.0
 20
0.0
 30
0.0
210
0.0
220
0.0
230
1.0
  2
CUSTOM5
 70
     0
 71
     1
 91
        1
 92
        1
 93
        1
 72
     4
 94
        3
 73
     0
 74
     0
 95
      118
 96
      114
 40
0.0
 40
0.0
 40
0.0
 40
0.0
 40
0.1054708162976234
 40
0.2466098270056351
 40
0.396591287459669
 40
0.5285525069760663
 40
0.6156245055651507
 40
0.6431434105805928
 40
0.7036850037992749
 40
0.7642265984509109
 40
0.791745505235869
 40
0.9287404319999187
 40
1.106572819089097
 40
1.287544879682149
 40
1.317578308031672
 40
1.399928030858321
 40
1.522968204801115
 40
1.675072986591757
 40
1.844616533181859
 40
2.01997300163995
 40
2.189516548881288
 40
2.341621331586646
 40
2.464661506321803
 40
2.547011229648378
 40
2.577044658169347
 40
2.603797890894304
 40
2.66265500290982
 40
2.721512114950433
 40
2.748265347703499
 40
2.774215307345576
 40
2.84595931340791
 40
2.954338556589116
 40
3.0901942275863
 40
3.244367517101268
 40
3.407699615845036
 40
3.571031714540192
 40
3.725205003920876
 40
3.861060674730382
 40
3.96943991771708
 40
4.041183923629758
 40
4.067133883213751
 40
4.311886746013047
 40
4.547897258336421
 40
4.764747083044699
 40
4.95274967995204
 40
5.045772974196016
 40
5.137862019644814
 40
5.330543169792942
 40
5.553448265244104
 40
5.795083855888457
 40
6.043293412177629
 40
6.285761695541517
 40
6.313902908753001
 40
6.384255941793562
 40
6.475714884767093
 40
6.567173827759099
 40
6.63752686083982
 40
6.665668074074183
 40
6.692018920328195
 40
6.749990782071347
 40
6.807962643790797
 40
6.834313490018308
 40
6.856393084245559
 40
6.913335195650154
 40
6.991194817302789
 40
7.076026942284022
 40
7.153886563725484
 40
7.210828674845009
 40
7.232908268931345
 40
7.258199334923859
 40
7.324875781592491
 40
7.419142481925123
 40
7.527204308842038
 40
7.635266135230589
 40
7.72953283416855
 40
7.796209279292855
 40
7.821500344594794
 40
7.844652988850892
 40
7.899863140541725
 40
7.965759128053944
 40
8.02096927977128
 40
8.044121924046774
 40
8.069356610161346
 40
8.1091343954426
 40
8.132238100192298
 40
8.19314786778761
 40
8.279261678877718
 40
8.377977512674853
 40
8.476693347147561
 40
8.562807160412547
 40
8.623716930827284
 40
8.646820636854219
 40
8.671988793775117
 40
8.734909185829142
 40
8.816705695190027
 40
8.898502204816797
 40
8.961422597379428
 40
8.986590754552598
 40
9.012941600734791
 40
9.070913462381958
 40
9.128885324083534
 40
9.155236170326893
 40
9.180404327930992
 40
9.243324721950236
 40
9.3251212342142
 40
9.406917746640024
 40
9.46983814198065
 40
9.495006288273482
 40
9.517811184381594
 40
9.572192090489526
 40
9.637098333283673
 40
9.691479239517804
 40
9.714284125645813
 40
9.714284125645813
 40
9.714284125645813
 40
9.714284125645813
 10
185.2874469028648
 20
15.26889163187752
 10
185.3090990569033
 20
15.24111869242835
 10
185.3597257109469
 20
15.17618054561246
 10
185.4349383202589
 20
15.06891060312896
 10
185.5248482274345
 20
14.95377438266616
 10
185.5709169676672
 20
14.85357045748294
 10
185.6655825294656
 20
14.78434006814916
 10
185.6204439320414
 20
14.7377163967824
 10
185.5947047785793
 20
14.69660308866018
 10
185.5645196708017
 20
14.6606597172792
 10
185.5193684730567
 20
14.58579782596071
 10
185.4710504458563
 20
14.80782524253625
 10
185.3968539713073
 20
14.84510677337744
 10
185.2836047324602
 20
15.11610202130612
 10
185.2885133578164
 20
15.00095328446239
 10
185.2868486556301
 20
14.92836675781636
 10
185.2876830076709
 20
14.80625588483994
 10
185.287360954026
 20
14.65913800810466
 10
185.287507691245
 20
14.49307063956559
 10
185.2872950092717
 20
14.32187554608602
 10
185.2879497252029
 20
14.15552828635496
 10
185.2859192461133
 20
14.00935173055689
 10
185.2913460399925
 20
13.88471047474604
 10
185.2804930868703
 20
13.81718656540621
 10
185.2956739155549
 20
13.75549061417017
 10
185.245789510813
 20
13.76727503896992
 10
185.2017150342519
 20
13.75943822779962
 10
185.15823716302
 20
13.76760441372693
 10
185.1092346786489
 20
13.75538056738463
 10
185.1218731234825
 20
13.80960667249306
 10
185.113018296845
 20
13.8693691890755
 10
185.1175058770314
 20
13.97922029044363
 10
185.1157960135992
 20
14.11029975405672
 10
185.1163550915987
 20
14.26198011444322
 10
185.1161928768694
 20
14.42211074929948
 10
185.1162269924675
 20
14.58236865674562
 10
185.1162514960128
 20
14.73370247520436
 10
185.1161453543226
 20
14.86582156338598
 10
185.1164299141932
 20
14.97294802533191
 10
185.1158675547568
 20
15.03808619579471
 10
185.1180765083691
 20
15.16618957858677
 10
185.0319435998604
 20
14.79097610391556
 10
184.9555140818501
 20
14.63918193123387
 10
184.8660040767831
 20
14.47766206446323
 10
184.7640413217331
 20
14.20471848820243
 10
184.7187976491038
 20
14.36717346596513
 10
184.6102355941667
 20
14.45605432058081
 10
184.7995791751752
 20
14.60549794961392
 10
184.8565340545699
 20
14.79749136974911
 10
184.9717520993353
 20
15.02899622906754
 10
184.9940151630137
 20
15.21797259759062
 10
185.1771905152137
 20
15.49454089325934
 10
185.0538033597554
 20
15.486989788321
 10
184.9925684166834
 20
15.48856772366123
 10
184.9081999617066
 20
15.48882592573678
 10
184.8204235085967
 20
15.4854484575121
 10
184.7656768696126
 20
15.49394814982025
 10
184.7104703026027
 20
15.48048561049793
 10
184.7222823035538
 20
15.52931442126774
 10
184.7142496151797
 20
15.57269004896725
 10
184.7228186104681
 20
15.61509438309596
 10
184.7102943409159
 20
15.66267796552146
 10
184.7555101538737
 20
15.65267212995139
 10
184.8014815562726
 20
15.6589410517409
 10
184.8777222047712
 20
15.65593561405901
 10
184.9561296131995
 20
15.6577044827857
 10
185.0323992648934
 20
15.65464793981689
 10
185.0783009459475
 20
15.66103971376205
 10
185.1231733965401
 20
15.65093822978925
 10
185.1105552275635
 20
15.70157201581926
 10
185.1191936582708
 20
15.75501261882097
 10
185.1152361595443
 20
15.84863255131703
 10
185.1162325068336
 20
15.95112606688945
 10
185.1171927413074
 20
16.05353270248182
 10
185.1133211458006
 20
16.14735929609337
 10
185.1217789814366
 20
16.20036542840369
 10
185.1093075932836
 20
16.25211435651202
 10
185.1542106389851
 20
16.23850747226772
 10
185.1955083836773
 20
16.24100480320606
 10
185.2595344281052
 20
16.2364806057451
 10
185.298611114879
 20
16.22781003043341
 10
185.3476543498747
 20
16.23515102070716
 10
185.322508003059
 20
16.19602896051738
 10
185.2815901333718
 20
16.20563842455811
 10
185.2910109616599
 20
16.1554014816977
 10
185.2855647318741
 20
16.10385945639483
 10
185.2881699601798
 20
16.01959707584521
 10
185.2870102202149
 20
15.92559135583416
 10
185.2883591064225
 20
15.83196865395541
 10
185.2849970101504
 20
15.74679517552245
 10
185.2920959917763
 20
15.69716856072069
 10
185.2812569154541
 20
15.64993694970015
 10
185.3304010225241
 20
15.66201674936882
 10
185.3794877630144
 20
15.65447393363039
 10
185.4573714280639
 20
15.65686070361461
 10
185.5350365172897
 20
15.65899381905444
 10
185.5845393931356
 20
15.65193391922482
 10
185.6344594750642
 20
15.66360151936244
 10
185.6223198516883
 20
15.61540235371416
 10
185.6305838229146
 20
15.57249219801252
 10
185.6223198650786
 20
15.52958201851395
 10
185.6344594549857
 20
15.48138288754868
 10
185.5845395158748
 20
15.49305034471517
 10
185.5350350651203
 20
15.4859920243505
 10
185.4573784382971
 20
15.48811665228608
 10
185.3794643865757
 20
15.49053389365766
 10
185.3304500352712
 20
15.48291848194489
 10
185.2813246108938
 20
15.49507952557599
 10
185.2915559988566
 20
15.45073013424169
 10
185.2856677678047
 20
15.40925436202925
 10
185.2878788305563
 20
15.34915394315325
 10
185.2874109346141
 20
15.30225782762917
 10
185.2874386992908
 20
15.27650146418228
 10
185.2874469028648
 20
15.26889163187752
 97
        1
330
AA
 75
     1
 76
     2
 52
45.0
 41
0.1
 77
     0
 78
     1
 53
45.0
 43
0.0
 44
0.0
 45
-0.282842712474619
 46
0.0
 79
     0
 98
        1
 10
0.0
 20
0.0
  0
HATCH
  5
C8
330
48
100
AcDbEntity
  8
1
  6
Continuous
 62
     2
100
AcDbHatch
 10
0.0
 20
0.0
 30
0.0
210
0.0
220
0.0
230
1.0
  2
CUSTOM6
 70
     0
 71
     1
 91
        1
 92
        1
 93
        1
 72
     4
 94
        3
 73
     0
 74
     0
 95
       91
 96
       87
 40
0.0
 40
0.0
 40
0.0
 40
0.0
 40
0.0345987051695434
 40
0.1258134969461653
 40
0.2547723404889271
 40
0.4026032099154409
 40
0.5504340793417273
 40
0.6793929228836932
 40
0.7706077146571888
 40
0.8052064287781777
 40
1.124852390615471
 40
1.427402236309189
 40
1.70635662745397
 40
1.955541417875778
 40
2.16948593856704
 40
2.344350786665594
 40
2.480568411562862
 40
2.590440557429945
 40
2.649189927152188
 40
2.749320643307509
 40
2.912632739881323
 40
3.147745656001519
 40
3.244827496386183
 40
3.33849005694725
 40
3.583815413207873
 40
3.761423943239334
 40
3.886956104363497
 40
3.985855451887558
 40
4.091766255338306
 40
4.25018647381245
 40
4.422734315085115
 40
4.628285684839257
 40
4.8720932277592
 40
5.152549652146418
 40
5.464967135838511
 40
5.803201477853524
 40
6.160362988815048
 40
6.193449448277074
 40
6.2841703855027
 40
6.419718138765542
 40
6.587285046386735
 40
6.774063446724592
 40
6.96724567811449
 40
7.154024078818447
 40
7.321590987026748
 40
7.457138740891078
 40
7.547859678556757
 40
7.580946138183317
 40
7.608533084715522
 40
7.669224367078836
 40
7.72991564943139
 40
7.757502595951594
 40
7.790278062555047
 40
7.880146277432517
 40
8.01441996318195
 40
8.18041184239948
 40
8.365434637680892
 40
8.556801071624136
 40
8.74182386683222
 40
8.907815745917759
 40
9.042089431508856
 40
9.131957646250981
 40
9.164733112798558
 40
9.415425063140583
 40
9.667986180958296
 40
9.694169807462545
 40
9.756607686047753
 40
9.83113031532292
 40
9.893568193900633
 40
9.91975182039956
 40
9.950967964691548
 40
9.996421631211254
 40
10.22087981037538
 40
10.44341866197513
 40
10.47847970788822
 40
10.57091337438714
 40
10.70159545461177
 40
10.85140174170291
 40
11.001208028804
 40
11.13189010907294
 40
11.2243237758291
 40
11.25938480938854
 40
11.28697175596057
 40
11.34766303835865
 40
11.40835432042049
 40
11.43594125892099
 40
11.43594125892099
 40
11.43594125892099
 40
11.43594125892099
 10
190.0818114333288
 20
15.55242795125105
 10
190.070278584494
 20
15.55242790287944
 10
190.0283409444997
 20
15.55242773704192
 10
189.9434129719024
 20
15.55243125800937
 10
189.8207688553127
 20
15.55240926435906
 10
189.6791206916992
 20
15.55250801177082
 10
189.5379753698489
 20
15.55214686232448
 10
189.4141351317901
 20
15.55321883609116
 10
189.331721782538
 20
15.55092249091297
 10
189.1727791229688
 20
15.56048569373446
 10
189.3503402353375
 20
15.19785394311386
 10
189.3379739205452
 20
14.9524312772312
 10
189.4064519473865
 20
14.6686250132483
 10
189.4693024320971
 20
14.43250999939018
 10
189.545225343173
 20
14.23326740396103
 10
189.6303189577018
 20
14.07745347451336
 10
189.7244607592939
 20
13.97657857781354
 10
189.8282648207731
 20
13.92465852638919
 10
189.9125872030778
 20
13.97606484379583
 10
189.9351322179455
 20
14.091445440375
 10
189.9745730975373
 20
14.2188514970237
 10
189.9202919734942
 20
14.53622328086735
 10
190.0451218072473
 20
14.38982180140941
 10
190.2019291513596
 20
14.35795300331147
 10
190.0947720007051
 20
14.12421357767632
 10
190.0808711209863
 20
13.95972776583644
 10
190.0234709467225
 20
13.83130869122462
 10
189.9335020145009
 20
13.76018802352792
 10
189.8095274657879
 20
13.74432324142218
 10
189.6634273196863
 20
13.77993797554141
 10
189.5243894320287
 20
13.90000570500253
 10
189.4102003962147
 20
14.07435682550308
 10
189.3146141301489
 20
14.29946603111235
 10
189.231865257263
 20
14.56388246006449
 10
189.1807179256414
 20
14.8818793309856
 10
189.0770189207339
 20
15.15543728488933
 10
189.2042841208521
 20
15.56005818612894
 10
189.0357890623019
 20
15.55112367849706
 10
188.9511995787078
 20
15.55315961418391
 10
188.8189876387628
 20
15.55213937388434
 10
188.6560505094106
 20
15.55253230318457
 10
188.4733759170535
 20
15.55235696313397
 10
188.2847057373385
 20
15.55260105307496
 10
188.1014469020193
 20
15.55185657906265
 10
187.9404746832721
 20
15.55416360522453
 10
187.8029808335279
 20
15.54799804883691
 10
187.7289590372316
 20
15.56032838458237
 10
187.6613215186861
 20
15.54329323723584
 10
187.6732373719274
 20
15.59524438447581
 10
187.6655677285699
 20
15.64071424966605
 10
187.673259222512
 20
15.68614453703806
 10
187.6613141797765
 20
15.73802395984694
 10
187.7283588305872
 20
15.72119143490391
 10
187.8017375665681
 20
15.73335409092795
 10
187.9379128305277
 20
15.72727231075083
 10
188.0973811801516
 20
15.72954834315183
 10
188.278917308584
 20
15.72881233999087
 10
188.4658034862182
 20
15.72905954196258
 10
188.646801231684
 20
15.72886400799379
 10
188.8080802578881
 20
15.72932234714964
 10
188.9393882124891
 20
15.72812673751331
 10
189.0225051322599
 20
15.73051347319868
 10
189.1556236547814
 20
15.72230605725588
 10
189.064589350266
 20
15.97752868952707
 10
188.9789633074417
 20
16.24164358328186
 10
189.0990589003451
 20
16.2290444296913
 10
189.1514264948542
 20
16.22694235763053
 10
189.2214497569718
 20
16.22535399889648
 10
189.2671922337821
 20
16.21602567538115
 10
189.322081264694
 20
16.2254596691544
 10
189.2963574785684
 20
16.17733028655202
 10
189.1825397571461
 20
16.18266829744198
 10
189.3159346621134
 20
15.95449174576842
 10
189.1943658735481
 20
15.7215685659605
 10
189.3223188769419
 20
15.73087258884564
 10
189.4049048406466
 20
15.72801001754805
 10
189.5307214850828
 20
15.72923437412428
 10
189.6741469838061
 20
15.72932431889089
 10
189.8157420951729
 20
15.72746163183979
 10
189.9459127249968
 20
15.73333075937286
 10
190.019345228619
 20
15.72070340823332
 10
190.0891112922096
 20
15.73877563110536
 10
190.0775772605394
 20
15.68612850546426
 10
190.0833184346681
 20
15.64221317686625
 10
190.081661577091
 20
15.59089982676598
 10
190.0817757561669
 20
15.56158792021668
 10
190.0818114333288
 20
15.55242795125105
 97
        1
330
AB
 75
     1
 76
     2
 52
45.0
 41
0.1
 77
     0
 78
     1
 53
45.0
 43
0.0
 44
0.0
 45
-0.282842712474619
 46
0.0
 79
     0
 98
        1
 10
0.0
 20
0.0
  0
HATCH
  5
C9
330
48
100
AcDbEntity
  8
1
  6
Continuous
 62
     2
100
AcDbHatch
 10
0.0
 20
0.0
 30
0.0
210
0.0
220
0.0
230
1.0
  2
CUSTOM7
 70
     0
 71
     1
 91
        1
 92
        1
 93
        1
 72
     4
 94
        3
 73
     0
 74
     0
 95
       75
 96
       71
 40
0.0
 40
0.0
 40
0.0
 40
0.0
 40
0.0342546099129496
 40
0.1245622414431636
 40
0.2522385480896079
 40
0.3985991922938371
 40
0.5449598364977677
 40
0.6726361431434944
 40
0.7629437746732537
 40
0.7971983935293372
 40
1.101723623449954
 40
1.4085912440374
 40
1.433332471691078
 40
1.487763172450819
 40
1.542193873082593
 40
1.566935100593117
 40
1.923523931822626
 40
2.271755704954614
 40
2.590579755101855
 40
2.858943305581705
 40
2.889120339309744
 40
2.91830585519111
 40
2.9413666455312
 40
2.99635776097302
 40
3.061992318140499
 40
3.11698343362661
 40
3.140044223997267
 40
3.411273122936113
 40
3.73244161974089
 40
3.761068217532558
 40
3.837787499630038
 40
3.948858699125558
 40
4.080541049103796
 40
4.21909378262503
 40
4.350776132721442
 40
4.461847332404656
 40
4.538566614677308
 40
4.567193212543523
 40
4.594907573997753
 40
4.666381453556235
 40
4.764111044009788
 40
4.870592538124535
 40
4.968322128640872
 40
5.039796008285529
 40
5.067510369782959
 40
5.094263603184396
 40
5.153120716667519
 40
5.211977830150453
 40
5.238731063551682
 40
5.272290535138949
 40
5.363380529444725
 40
5.497618415781345
 40
5.660621563453502
 40
5.838007341749146
 40
6.015393119910441
 40
6.17839626703801
 40
6.312634151841876
 40
6.403724143058866
 40
6.437283612671933
 40
6.464036846260771
 40
6.522893960004876
 40
6.581751071484629
 40
6.608504301591798
 40
6.637253941281974
 40
6.71139774890391
 40
6.812778057284636
 40
6.923237199250498
 40
7.024617507625284
 40
7.098761315209051
 40
7.127510946009029
 40
7.127510946009029
 40
7.127510946009029
 40
7.127510946009029
 10
188.4418622390558
 20
14.95849128473219
 10
188.4418622819701
 20
14.94707313408676
 10
188.4418624481121
 20
14.90555257842586
 10
188.4418593081781
 20
14.82146922003735
 10
188.4418788279794
 20
14.70004497322298
 10
188.4417912187731
 20
14.55980494047426
 10
188.4421116235224
 20
14.42006556794562
 10
188.4411605909734
 20
14.29745038894922
 10
188.4431978595961
 20
14.2158707443804
 10
188.4349433178739
 20
14.06271267077673
 10
188.7430797940901
 20
14.22560236054713
 10
189.0350645173743
 20
14.39482938688022
 10
189.0408354448713
 20
14.25973235781916
 10
189.0455471719895
 20
14.21617221160453
 10
189.0482535411922
 20
14.17211249350558
 10
189.0672545672958
 20
14.02272590363138
 10
188.6583942247305
 20
14.08681172241266
 10
188.3793710348833
 20
13.97296341411013
 10
188.1018081587159
 20
13.87364095811192
 10
187.8099837184418
 20
13.91630687596275
 10
187.7869144678658
 20
13.81321679744566
 10
187.7537474383338
 20
13.7869109124451
 10
187.7480653962744
 20
13.8345530903633
 10
187.7284214559049
 20
13.87180336115078
 10
187.7095089485626
 20
13.93007387847561
 10
187.694284986771
 20
13.97385201007795
 10
187.6477246372934
 20
14.08759421046281
 10
187.9890897312454
 20
14.05576301120079
 10
188.2679649367387
 20
14.02161435106517
 10
188.2617753034908
 20
14.16913976479691
 10
188.2630935452775
 20
14.24013150908864
 10
188.262483168995
 20
14.34719767958682
 10
188.2625871570726
 20
14.47398529786004
 10
188.2629987964057
 20
14.60849243496043
 10
188.261390784197
 20
14.73395549951163
 10
188.2659902567926
 20
14.84505246719084
 10
188.2564186502211
 20
14.90761886800649
 10
188.2704001783692
 20
14.96595388294955
 10
188.2147384386706
 20
14.95289710582193
 10
188.1575655197823
 20
14.96136307749453
 10
188.061604892565
 20
14.95729976080591
 10
187.9633767522825
 20
14.95970889852429
 10
187.8672582457563
 20
14.95551600613344
 10
187.8104648525816
 20
14.96429346441115
 10
187.7550356873388
 20
14.95094936850078
 10
187.7670679427922
 20
15.00036910959248
 10
187.7592003173942
 20
15.04393988030422
 10
187.7666295563834
 20
15.08830469118585
 10
187.7551930564148
 20
15.13902297764088
 10
187.8232102370137
 20
15.12162460757843
 10
187.8968496879751
 20
15.13417450237284
 10
188.0325064058214
 20
15.12799677011194
 10
188.1884909024528
 20
15.13029203093181
 10
188.3615926358145
 20
15.12940968262627
 10
188.5346942964183
 20
15.13029207142505
 10
188.6906789811217
 20
15.12799662955648
 10
188.8263351889798
 20
15.13417486262527
 10
188.8999756705653
 20
15.12162394218435
 10
188.9679914174724
 20
15.13902373012238
 10
188.9565590885922
 20
15.08830130414616
 10
188.9639539458298
 20
15.04397060811134
 10
188.956203991227
 20
15.00028307550187
 10
188.9681203741877
 20
14.95063590098431
 10
188.9108170223617
 20
14.96461411338379
 10
188.8520145789771
 20
14.95539755673209
 10
188.7525293633198
 20
14.95952268164884
 10
188.6494280098346
 20
14.95822760025843
 10
188.5537846354568
 20
14.95854077077595
 10
188.4857467971612
 20
14.958487766971
 10
188.4514462213437
 20
14.95849051871611
 10
188.4418622390558
 20
14.95849128473219
 97
        1
330
AC
 75
     1
 76
     2
 52
45.0
 41
0.1
 77
     0
 78
     1
 53
45.0
 43
0.0
 44
0.0
 45
-0.282842712474619
 46
0.0
 79
     0
 98
        1
 10
0.0
 20
0.0
  0
HATCH
  5
CA
330
48
100
AcDbEntity
  8
1
  6
Continuous
 62
     2
100
AcDbHatch
 10
0.0
 20
0.0
 30
0.0
210
0.0
220
0.0
230
1.0
  2
CUSTOM8
 70
     0
 71
     1
 91
        1
 92
        1
 93
        1
 72
     4
 94
        3
 73
     0
 74
     0
 95
       15
 96
       11
 40
0.0
 40
0.0
 40
0.0
 40
0.0
 40
0.2785535985094267
 40
0.5215624748195061
 40
0.607691737603543
 40
0.69382100017353
 40
0.9405019146454294
 40
1.221691403489085
 40
1.300471877080945
 40
1.379252341684678
 40
1.379252341684678
 40
1.379252341684678
 40
1.379252341684678
 10
189.5681493631
 20
16.22930267330412
 10
189.629601779418
 20
16.17691646592763
 10
189.7446649974118
 20
16.07882876798301
 10
190.0397348497235
 20
15.92889785897288
 10
189.9025147631857
 20
15.84343227515024
 10
189.8041227843784
 20
15.71085785201506
 10
189.7130033590648
 20
16.01616985781409
 10
189.3636839480656
 20
16.07967869465418
 10
189.5119258376571
 20
16.17896509880915
 10
189.5494081874237
 20
16.21252348402415
 10
189.5681493631
 20
16.22930267330412
 97
        1
330
AD
 75
     1
 76
     2
 52
45.0
 41
0.1
 77
     0
 78
     1
 53
45.0
 43
0.0
 44
0.0
 45
-0.282842712474619
 46
0.0
 79
     0
 98
        1
 10
0.0
 20
0.0
  0
HATCH
  5
CB
330
48
100
AcDbEntity
  8
1
  6
Continuous
 62
     2
100
AcDbHatch
 10
0.0
 20
0.0
 30
0.0
210
0.0
220
0.0
230
1.0
  2
CUSTOM9
 70
     0
 71
     1
 91
        1
 92
        1
 93
        1
 72
     4
 94
        3
 73
     0
 74
     0
 95
       35
 96
       31
 40
0.0
 40
0.0
 40
0.0
 40
0.0
 40
0.0335231036627798
 40
0.0713218571723466
 40
0.4278866681499655
 40
0.8116865841978511
 40
1.198190238001529
 40
1.561379546813834
 40
1.659983174623012
 40
1.75931557380711
 40
2.132719617231126
 40
2.525233363588756
 40
2.910815397779449
 40
3.265244364302857
 40
3.592606723581619
 40
3.964386154603573
 40
4.359942131737517
 40
4.758154118639427
 40
4.843846538700196
 40
4.936650065543228
 40
5.256616602537389
 40
5.581707404416109
 40
5.899719158308168
 40
6.198363494280635
 40
6.466301046615564
 40
6.493895311536822
 40
6.559697020196627
 40
6.638234543442155
 40
6.704036252153892
 40
6.731630508422663
 40
6.731630508422663
 40
6.731630508422663
 40
6.731630508422663
 10
191.9736010568668
 20
16.23463843719219
 10
191.9676006097788
 20
16.22480690542374
 10
191.9548344099157
 20
16.20388988579791
 10
191.7949362006548
 20
16.17127126532705
 10
192.2322025842337
 20
15.8820668033671
 10
192.4345394828262
 20
15.68041138358466
 10
192.6819564267976
 20
15.43749387603279
 10
193.1831513624597
 20
15.36047662757831
 10
193.0125562198976
 20
15.21876939174658
 10
192.93832994632
 20
15.01710366209245
 10
192.6131432248191
 20
15.36956287174748
 10
192.3277741670664
 20
15.53175212559563
 10
192.0337604077657
 20
15.73687130053026
 10
191.8084452691139
 20
16.21827488595442
 10
191.5993085055522
 20
15.75343046609233
 10
191.3207873674835
 20
15.5435095225291
 10
191.0371383177213
 20
15.37424456359992
 10
190.7078639527822
 20
15.00142360907839
 10
190.6277012318228
 20
15.19708014459011
 10
190.4759724909744
 20
15.32491104190557
 10
190.9083395826797
 20
15.40454031765947
 10
191.0962565329766
 20
15.60026634915478
 10
191.3468477420504
 20
15.81632996916748
 10
191.5714350470161
 20
15.98190992300067
 10
191.6259775409714
 20
16.26133964636771
 10
191.749466102901
 20
16.24737950408074
 10
191.806027334452
 20
16.24521268867666
 10
191.8761870984944
 20
16.24046859881406
 10
191.9333414022104
 20
16.2370942935061
 10
191.9644190320838
 20
16.235198547112
 10
191.9736010568668
 20
16.23463843719219
 97
        1
330
AE
 75
     1
 76
     2
 52
45.0
 41
0.1
 77
     0
 78
     1
 53
45.0
 43
0.0
 44
0.0
 45
-0.282842712474619
 46
0.0
 79
     0
 98
        1
 10
0.0
 20
0.0
  0
HATCH
  5
CC
330
48
100
AcDbEntity
  8
1
  6
Continuous
 62
     2
100
AcDbHatch
 10
0.0
 20
0.0
 30
0.0
210
0.0
220
0.0
230
1.0
  2
CUSTOM10
 70
     0
 71
     1
 91
        1
 92
        1
 93
        1
 72
     4
 94
        3
 73
     0
 74
     0
 95
       91
 96
       87
 40
0.0
 40
0.0
 40
0.0
 40
0.0
 40
0.0267532254357448
 40
0.0856103386466518
 40
0.1444674522000688
 40
0.1712206856623328
 40
0.2039416005647066
 40
0.2955601971657014
 40
0.4362601844621164
 40
0.6162252844511211
 40
0.8256392189707806
 40
1.054685709844693
 40
1.293548478893728
 40
1.532411247938387
 40
1.761457738799595
 40
1.970871673298506
 40
2.150836773256645
 40
2.291536760495478
 40
2.383155356836556
 40
2.415876284101176
 40
2.442629517487894
 40
2.501486630949191
 40
2.560343744424503
 40
2.587096977826852
 40
2.617068194441251
 40
2.699247336756392
 40
2.822032643466676
 40
2.973822353258178
 40
3.143014704823591
 40
3.318007936880142
 40
3.487200288186947
 40
3.638989997548427
 40
3.761775303794898
 40
3.843954445753204
 40
3.8739256622299
 40
3.890812773500413
 40
3.907699884771397
 40
3.937960767857136
 40
3.980983618142409
 40
4.199085915228382
 40
4.439444339237258
 40
4.677588241260923
 40
5.05069831783756
 40
5.448212454762981
 40
5.855291218043936
 40
6.138575438883912
 40
6.417434507582467
 40
6.444551104392167
 40
6.504207617361581
 40
6.563864130312994
 40
6.590980727102606
 40
6.848609460379749
 40
7.10961199066663
 40
7.352910904444245
 40
7.557830220703543
 40
7.587518925911386
 40
7.652834077373695
 40
7.718149228843498
 40
7.747837934059751
 40
7.854880190297234
 40
7.976511257399991
 40
8.369487896589076
 40
8.757514959220526
 40
9.126072419328022
 40
9.46063938038897
 40
9.74669559303248
 40
9.7775699431152
 40
9.807050320928452
 40
9.830377336125634
 40
9.886003295432845
 40
9.952395569426916
 40
10.00802152870342
 40
10.03134854387939
 40
10.21356951009292
 40
10.42203479292584
 40
10.66154556730782
 40
10.91693789564034
 40
11.15832906556234
 40
11.18982674596292
 40
11.27286608520073
 40
11.39026653033012
 40
11.52484752840546
 40
11.65942852648102
 40
11.77682897161138
 40
11.85986831085332
 40
11.89136598230077
 40
11.89136598230077
 40
11.89136598230077
 40
11.89136598230077
 10
190.7027885008201
 20
14.70699600701755
 10
190.7028237765293
 20
14.71587847311971
 10
190.70293667108
 20
14.7443023704734
 10
190.7012984568493
 20
14.7940963916981
 10
190.7069750292916
 20
14.83657564478173
 10
190.6956928731711
 20
14.88730154856877
 10
190.7632296979037
 20
14.87012900740141
 10
190.8388029210705
 20
14.88290227166026
 10
190.9828357056005
 20
14.87629729457413
 10
191.1569419185431
 20
14.87888462206497
 10
191.3639599611006
 20
14.87800591955583
 10
191.589468817238
 20
14.87828207920058
 10
191.8251162293408
 20
14.87818339658694
 10
192.0607640531349
 20
14.87828184412798
 10
192.2862717580627
 20
14.8780067819082
 10
192.4932934632805
 20
14.87888186270766
 10
192.6673888915287
 20
14.87630522678478
 10
192.8114492071984
 20
14.88288290449243
 10
192.8869691915293
 20
14.87016243405637
 10
192.9545776037029
 20
14.88726400191717
 10
192.9430840140674
 20
14.83674785802959
 10
192.9505104581731
 20
14.79253252226508
 10
192.9428838927985
 20
14.74867966503605
 10
192.9546489459424
 20
14.69878374479311
 10
192.8930788491982
 20
14.71393227712494
 10
192.825679173867
 20
14.70310665350657
 10
192.7013004056221
 20
14.70852031626219
 10
192.555442823657
 20
14.70649205390768
 10
192.3893576440086
 20
14.7071577757837
 10
192.2188412621725
 20
14.70689643521225
 10
192.0519790855388
 20
14.70721553391076
 10
191.9087346827106
 20
14.70635302590746
 10
191.7773313869834
 20
14.70863300482966
 10
191.7239859134659
 20
14.70407704374194
 10
191.6485188456913
 20
14.7099991499285
 10
191.6769075779233
 20
14.70094169343364
 10
191.7033652409541
 20
14.69725912268975
 10
191.6633522907701
 20
14.66654271968267
 10
191.5713663691868
 20
14.67667591174579
 10
191.5439396207071
 20
14.43032502247766
 10
191.4478793967232
 20
14.2749955876436
 10
191.1917277964476
 20
13.94525417931532
 10
191.7627537732761
 20
14.08430022210449
 10
192.0173656320513
 20
14.08291779973388
 10
192.6279647048606
 20
13.99790569242096
 10
192.3340698578081
 20
14.29685417558194
 10
192.0133304286521
 20
14.44330856901745
 10
192.1313543360437
 20
14.50025540818264
 10
192.1724716466264
 20
14.52420099873329
 10
192.2156812394416
 20
14.54599758811218
 10
192.3174574094452
 20
14.60928721253902
 10
192.4328867625248
 20
14.35147151408757
 10
192.6329591642277
 20
14.21616041113667
 10
192.7269077387225
 20
14.03792795138905
 10
192.9558829746397
 20
13.87997821027022
 10
192.8596031846709
 20
13.82915972576362
 10
192.8167959763778
 20
13.79881292523168
 10
192.7718243528776
 20
13.77466130281619
 10
192.7121720925211
 20
13.72552146747827
 10
192.6789731061315
 20
13.85997475673657
 10
192.5582013350805
 20
14.01594265286756
 10
192.1970976005974
 20
13.88569928059555
 10
191.8385061955539
 20
13.90224694409497
 10
191.4570920450076
 20
13.89331229351861
 10
191.1703455282891
 20
13.82882671672407
 10
190.859205559971
 20
13.94230668192827
 10
190.8268737818789
 20
13.83122259927773
 10
190.789617825332
 20
13.81196313849957
 10
190.7865737632756
 20
13.85874784087271
 10
190.7679892860609
 20
13.8980685391911
 10
190.751243661678
 20
13.95765983478229
 10
190.7383730915755
 20
14.00201969871287
 10
190.7042327806432
 20
14.09106331120214
 10
190.9482714457754
 20
14.02181042943756
 10
191.1441394486673
 20
14.00030369057791
 10
191.2395426381275
 20
14.2822648447852
 10
191.2945135769593
 20
14.44363045421175
 10
191.5159619357158
 20
14.71391177589722
 10
191.3849239381219
 20
14.70548446853717
 10
191.3110026555858
 20
14.70779008496953
 10
191.1977459876247
 20
14.7067137832164
 10
191.0694251807489
 20
14.70707639076493
 10
190.9404252030419
 20
14.70697724466068
 10
190.8287840946296
 20
14.70699932712555
 10
190.7514663970031
 20
14.70699579189653
 10
190.7132876532015
 20
14.70699595845064
 10
190.7027885008201
 20
14.70699600701755
 97
        1
330
AF
 75
     1
 76
     2
 52
45.0
 41
0.1
 77
     0
 78
     1
 53
45.0
 43
0.0
 44
0.0
 45
-0.282842712474619
 46
0.0
 79
     0
 98
        1
 10
0.0
 20
0.0
  0
HATCH
  5
CD
330
48
100
AcDbEntity
  8
1
  6
Continuous
 62
     2
100
AcDbHatch
 10
0.0
 20
0.0
 30
0.0
210
0.0
220
0.0
230
1.0
  2
CUSTOM11
 70
     0
 71
     1
 91
        1
 92
        1
 93
        1
 72
     4
 94
        3
 73
     0
 74
     0
 95
      131
 96
      127
 40
0.0
 40
0.0
 40
0.0
 40
0.0
 40
0.0195577029823279
 40
0.0426490537458923
 40
0.2863607575852941
 40
0.5344948436185752
 40
0.7842238845571646
 40
0.8737315789468174
 40
0.9803832810315027
 40
1.092842274517326
 40
1.199761146657086
 40
1.28978876818682
 40
1.351573580786554
 40
1.370727117561825
 40
1.416400936018347
 40
1.470914848356605
 40
1.516588666792491
 40
1.535742203553632
 40
1.634216592293663
 40
1.760283341175358
 40
1.897966686682353
 40
2.031216387368889
 40
2.049689751137881
 40
2.101115601646812
 40
2.179502577739921
 40
2.278859318314026
 40
2.393194462258673
 40
2.516516648383774
 40
2.642834515405889
 40
2.76615670198338
 40
2.880491846754482
 40
2.979848588358514
 40
3.058235565443682
 40
3.109661416668833
 40
3.128134780704007
 40
3.146783742386238
 40
3.191254343314929
 40
3.24433215731536
 40
3.288802758225065
 40
3.307451719894279
 40
3.327717853843882
 40
3.383747753579218
 40
3.468388665923571
 40
3.57448783769783
 40
3.694892515727881
 40
3.822449946850962
 40
3.950007377919295
 40
4.070412055799336
 40
4.176511227366841
 40
4.261152139500249
 40
4.317182039075417
 40
4.337448172963329
 40
4.620011002694615
 40
4.885096638397065
 40
4.9453730435182
 40
5.014107710488704
 40
5.070481727652288
 40
5.31924695563695
 40
5.584812164506417
 40
5.859000912057237
 40
6.133746937542384
 40
6.401732212969233
 40
6.420736683995853
 40
6.472845717451503
 40
6.550702743894516
 40
6.646951193874782
 40
6.754234497931191
 40
6.865196086587997
 40
6.972479390358569
 40
7.068727839772788
 40
7.146584865451854
 40
7.19869389819014
 40
7.217698368906281
 40
7.234950401631756
 40
7.276089864270781
 40
7.325191803516874
 40
7.366331266091243
 40
7.383583298770589
 40
7.402779163492995
 40
7.453386443255511
 40
7.524934666446627
 40
7.606953361407052
 40
7.688972056430345
 40
7.760520279785681
 40
7.811127559736037
 40
7.830323424547687
 40
7.847844055301326
 40
7.894799345668395
 40
7.96277939274612
 40
8.043374293562216
 40
8.12817414515117
 40
8.208769044819022
 40
8.276749090378765
 40
8.323704379671355
 40
8.341225010058096
 40
8.358497614802186
 40
8.401679126688245
 40
8.457815092187156
 40
8.513951057729413
 40
8.557132569709195
 40
8.574405174506207
 40
8.602340668617696
 40
8.643455660541504
 40
8.663225271968182
 40
8.715345156565837
 40
8.789031889630197
 40
8.873502045521949
 40
8.957972194325595
 40
9.031658925569507
 40
9.083778811236213
 40
9.10354842300468
 40
9.119550083125217
 40
9.16081752238152
 40
9.217244429111885
 40
9.278724491646399
 40
9.335151398297155
 40
9.37641883735945
 40
9.392420497302238
 40
9.401196302736492
 40
9.417494229386062
 40
9.42627002775137
 40
9.44087507547939
 40
9.475702497000622
 40
9.51727070986782
 40
9.55209813199604
 40
9.566703169886235
 40
9.566703169886235
 40
9.566703169886235
 40
9.566703169886235
 10
194.6170254148478
 20
15.67015871511012
 10
194.613434509337
 20
15.66453690702154
 10
194.6056039123625
 20
15.6522775441912
 10
194.5129968974557
 20
15.61601916040767
 10
194.4887622233248
 20
15.40148444212752
 10
194.3858709845942
 20
15.22197284509667
 10
194.1220492364297
 20
15.0361557379813
 10
194.284547156918
 20
14.95959336566098
 10
194.3607225760839
 20
14.89856693195458
 10
194.4492171072761
 20
14.8351580454478
 10
194.5389930233113
 20
14.77525634219579
 10
194.5883817636049
 20
14.72102154849232
 10
194.6745708157388
 20
14.69286240541869
 10
194.6411260674232
 20
14.65713309652855
 10
194.6214671166312
 20
14.62550387991957
 10
194.5919888217879
 20
14.58475872796127
 10
194.5688989446028
 20
14.55504663489705
 10
194.5380205968349
 20
14.50211422668582
 10
194.4729193365737
 20
14.62740334938936
 10
194.3796000122413
 20
14.68213900233983
 10
194.2950636285138
 20
14.73916423939383
 10
194.172249812574
 20
14.89675287427508
 10
194.1764450847301
 20
14.82035806766834
 10
194.1751478652677
 20
14.77361280161293
 10
194.1758126448075
 20
14.695847858126
 10
194.1755549986955
 20
14.59902068324422
 10
194.1756431239921
 20
14.4865027907881
 10
194.1756077302279
 20
14.36524085945701
 10
194.1756511758279
 20
14.24086897858964
 10
194.1755199942404
 20
14.11967683631341
 10
194.1759477562045
 20
14.00691148919749
 10
194.174667820231
 20
13.91082913768751
 10
194.1779759851042
 20
13.83113826468707
 10
194.1715197740085
 20
13.78815175788793
 10
194.1806208705555
 20
13.74955432372053
 10
194.1447910339935
 20
13.75810887724076
 10
194.1115223815253
 20
13.75342519985455
 10
194.0604562576045
 20
13.75351298759793
 10
194.0269723972818
 20
13.75794430283827
 10
193.990758540876
 20
13.74960793842518
 10
194.0009782568672
 20
13.79145277179291
 10
193.9936487887779
 20
13.83778560820178
 10
193.9973633136109
 20
13.92374831106014
 10
193.9959480554901
 20
14.02605142704845
 10
193.9964105554644
 20
14.14453223931502
 10
193.9962773686237
 20
14.26957683153341
 10
193.996301591005
 20
14.39475828107029
 10
193.9963354925558
 20
14.51286645379032
 10
193.9962060293138
 20
14.61628748709485
 10
193.9965507549086
 20
14.69932036153632
 10
193.9958698278697
 20
14.75143368521207
 10
193.9994586600628
 20
14.8791290782131
 10
193.7826171386434
 20
14.58048716819643
 10
193.6021354921941
 20
14.35263981511411
 10
193.5490322295609
 20
14.49373443289826
 10
193.5200429133145
 20
14.54325767560979
 10
193.4196648062812
 20
14.64641779790132
 10
193.7405127723257
 20
14.72695035023815
 10
193.8689897005425
 20
14.91066283036459
 10
194.0906454325357
 20
15.11931995771772
 10
194.1770224894067
 20
15.29339211228344
 10
194.454939422908
 20
15.56967051342483
 10
194.3346247839288
 20
15.56534559551082
 10
194.2863197351354
 20
15.56614856202523
 10
194.2102377454908
 20
15.56574582146552
 10
194.1167010009753
 20
15.56590275611578
 10
194.0117594788559
 20
15.56582502576192
 10
193.903388773872
 20
15.56595464378524
 10
193.7981454235897
 20
15.5655439349066
 10
193.7056237819413
 20
15.5668207367156
 10
193.6268130800707
 20
15.56340766534818
 10
193.5839674565379
 20
15.5702335003629
 10
193.5449499586514
 20
15.56065064201092
 10
193.5526365271863
 20
15.5942077956551
 10
193.5485464404311
 20
15.625235503222
 10
193.5485531368813
 20
15.67236529270865
 10
193.5526239724911
 20
15.70340941646743
 10
193.5449495574581
 20
15.73701861635865
 10
193.5834819405495
 20
15.72748410420834
 10
193.6241228014479
 20
15.73397435498033
 10
193.6951471850465
 20
15.73100150650217
 10
193.7729318149635
 20
15.7317476139912
 10
193.8507292246479
 20
15.73247814044489
 10
193.9217232089911
 20
15.72954235514122
 10
193.9624279791827
 20
15.73595468772917
 10
194.0009853489914
 20
15.72650524175965
 10
193.9927342754935
 20
15.76264692158749
 10
193.9982346669363
 20
15.80129837613193
 10
193.9955754206169
 20
15.8691352856181
 10
193.9965815471539
 20
15.94591641538715
 10
193.9960178018324
 20
16.02849393582737
 10
193.9970714526599
 20
16.10517329229862
 10
193.9942675863135
 20
16.17331990776688
 10
194.000070272131
 20
16.21132399809338
 10
193.9915654551164
 20
16.24758448077636
 10
194.0255610233131
 20
16.23755723771852
 10
194.0594575683103
 20
16.24073266813708
 10
194.1126669060349
 20
16.23508965640622
 10
194.1660768574484
 20
16.23434774436445
 10
194.199591464949
 20
16.22819223483007
 10
194.2388086183039
 20
16.23346029773625
 10
194.2120263698492
 20
16.19253380793484
 10
194.1708111001722
 20
16.20371204538093
 10
194.1782641540873
 20
16.15867056192101
 10
194.1742227952183
 20
16.11412278028116
 10
194.176171404964
 20
16.04223572621675
 10
194.1752364849757
 20
15.9616863058874
 10
194.1765107190029
 20
15.88173995404962
 10
194.1732043793863
 20
15.80841837083148
 10
194.180210617996
 20
15.76688643002531
 10
194.1701440380124
 20
15.72752418568076
 10
194.202981480392
 20
15.73468063430943
 10
194.2364577296479
 20
15.73027243137907
 10
194.2915053476017
 20
15.7321794334786
 10
194.3489502595313
 20
15.73185366407252
 10
194.4023026248309
 20
15.73106308733043
 10
194.4398540896638
 20
15.73313959118042
 10
194.4623172523236
 20
15.73022338167066
 10
194.475167807373
 20
15.73572552644035
 10
194.4858255685888
 20
15.73801118197779
 10
194.4986635650143
 20
15.74494972588066
 10
194.514599103307
 20
15.72853046313669
 10
194.5410623920891
 20
15.71709122319451
 10
194.5726805253756
 20
15.69644687835181
 10
194.598725589215
 20
15.68116869628284
 10
194.6128517723972
 20
15.67266976323169
 10
194.6170254148478
 20
15.67015871511012
 97
        1
330
B0
 75
     1
 76
     2
 52
45.0
 41
0.1
 77
     0
 78
     1
 53
45.0
 43
0.0
 44
0.0
 45
-0.282842712474619
 46
0.0
 79
     0
 98
        1
 10
0.0
 20
0.0
  0
HATCH
  5
CE
330
48
100
AcDbEntity
  8
1
  6
Continuous
 62
     2
100
AcDbHatch
 10
0.0
 20
0.0
 30
0.0
210
0.0
220
0.0
230
1.0
  2
CUSTOM12
 70
     0
 71
     1
 91
        1
 92
        1
 93
        1
 72
     4
 94
        3
 73
     0
 74
     0
 95
      124
 96
      120
 40
0.0
 40
0.0
 40
0.0
 40
0.0
 40
0.0278187229624226
 40
0.1011590162383133
 40
0.2048470170587681
 40
0.3237088716555266
 40
0.4425707262516315
 40
0.546258727069301
 40
0.6195990203304124
 40
0.6474177522570702
 40
0.675006073610501
 40
0.7357003855227535
 40
0.7963946998034277
 40
0.8239830245549313
 40
0.8540933811080407
 40
0.9373396629386519
 40
1.063094687340904
 40
1.220731268635743
 40
1.399622220912332
 40
1.589140358635259
 40
1.778658496421283
 40
1.957549448937894
 40
2.115186030870487
 40
2.240941056911763
 40
2.324187341757804
 40
2.354297700106653
 40
2.381886024668934
 40
2.442580338707024
 40
2.503274652746549
 40
2.530862977310428
 40
2.560983949274381
 40
2.640393784448698
 40
2.752662861754893
 40
2.881361560113853
 40
3.010060258450843
 40
3.12232933570099
 40
3.201739170813576
 40
3.231860142748936
 40
3.264298024026
 40
3.352343701773893
 40
3.482095226864446
 40
3.639650650168741
 40
3.811108022561236
 40
3.982565394923783
 40
4.140120818148401
 40
4.26987234313714
 40
4.357918020798222
 40
4.390355902039858
 40
4.4232562539884
 40
4.508104530068864
 40
4.624121560632518
 40
4.750528176027189
 40
4.866545206597579
 40
4.951393482687451
 40
4.984293834640853
 40
5.011450833237926
 40
5.071196230148058
 40
5.13094162705348
 40
5.158098625645306
 40
5.190998977597968
 40
5.275847253685709
 40
5.391864284253086
 40
5.518270899644546
 40
5.6342879302055
 40
5.719136206284117
 40
5.752036558231976
 40
5.782130946278948
 40
5.862783906224982
 40
5.97955013177065
 40
6.117984316635815
 40
6.263641154583108
 40
6.402075339409074
 40
6.518841564902668
 40
6.599494524810111
 40
6.629588912843295
 40
6.6544030282209
 40
6.71357514948275
 40
6.784199939324179
 40
6.843372060488337
 40
6.86818617579761
 40
6.896246243196376
 40
6.93958623375251
 40
6.967846564559099
 40
7.043584251083923
 40
7.153234334445618
 40
7.283231855728178
 40
7.420011856029007
 40
7.550009376573169
 40
7.659659458828407
 40
7.735397144410288
 40
7.763657474844417
 40
7.796409728004046
 40
7.880876065089207
 40
7.996370852458507
 40
8.12220844641126
 40
8.23770322479174
 40
8.322169562003378
 40
8.354921815198335
 40
8.382078813300273
 40
8.441824209199927
 40
8.501569605233422
 40
8.52872660347916
 40
8.561478856689181
 40
8.645945193871146
 40
8.761439980858572
 40
8.887277580757573
 40
9.002772361993951
 40
9.087238696654087
 40
9.119990949228512
 40
9.152428830606219
 40
9.240474508631456
 40
9.370226034142435
 40
9.527781457977357
 40
9.699238830974384
 40
9.870696203971615
 40
10.02825162780707
 40
10.15800315331872
 40
10.24604883134429
 40
10.27848670377832
 40
10.27848670377832
 40
10.27848670377832
 40
10.27848670377832
 10
195.3821827564389
 20
14.01410517385739
 10
195.3914554737529
 20
14.01410498511256
 10
195.4251744536865
 20
14.01410430876696
 10
195.4934706812471
 20
14.01411807243286
 10
195.5920141711583
 20
14.01403224219527
 10
195.7062066464813
 20
14.01441755612233
 10
195.8185894417072
 20
14.01300835897526
 10
195.9214376600117
 20
14.01719117422226
 10
195.9806839874847
 20
14.00823089251964
 10
196.0371265937031
 20
14.02164434526043
 10
196.0246255586953
 20
13.9708719861338
 10
196.0329549635701
 20
13.92589320939121
 10
196.0248170841118
 20
13.88056752990578
 10
196.0370529214454
 20
13.82931932408592
 10
195.9747773490332
 20
13.84447955365406
 10
195.9060513026866
 20
13.83359750710868
 10
195.778275674959
 20
13.839113047481
 10
195.6262984511642
 20
13.83700851253825
 10
195.4502695972523
 20
13.83771002588601
 10
195.2644431934288
 20
13.83745237531418
 10
195.0786167437176
 20
13.8377100514473
 10
194.9025880142171
 20
13.83700841847858
 10
194.7506104154196
 20
13.83911332230116
 10
194.6228357664557
 20
13.83359680767765
 10
194.5541077836583
 20
13.84448077126072
 10
194.4918349042887
 20
13.82931786684335
 10
194.504061629002
 20
13.88057510805261
 10
194.4960004462599
 20
13.9258247327248
 10
194.5040675809895
 20
13.97106357955342
 10
194.4918238487086
 20
14.0223417690994
 10
194.5525017120701
 20
14.00749577363115
 10
194.6162810745737
 20
14.01756448170717
 10
194.7277314353505
 20
14.01294644211981
 10
194.8497533443825
 20
14.01413328905451
 10
194.9719538137825
 20
14.01515863900616
 10
195.0829794287393
 20
14.01092475623383
 10
195.1476517413958
 20
14.0201858452172
 10
195.2091162810503
 20
14.00604423049665
 10
195.1930065601337
 20
14.072355278845
 10
195.2042980327359
 20
14.14447790121961
 10
195.1987400822561
 20
14.27513760888274
 10
195.2008035061691
 20
14.42607323708232
 10
195.2000167127295
 20
14.59335873107881
 10
195.2007845215628
 20
14.76061110332302
 10
195.1988038785629
 20
14.91163289269917
 10
195.2041306156622
 20
15.04206069553001
 10
195.1933101388425
 20
15.11465442605907
 10
195.2090326429876
 20
15.18150469436805
 10
195.1432708132492
 20
15.16580512490835
 10
195.0756367830766
 20
15.17609243084004
 10
194.9615885293812
 20
15.17113786847131
 10
194.8451242674906
 20
15.17414128030483
 10
194.7306554121481
 20
15.16880303143399
 10
194.6640324657817
 20
15.18001268074831
 10
194.599076971519
 20
15.1634913266502
 10
194.6107989758714
 20
15.21473720477094
 10
194.6032830189125
 20
15.2595033378415
 10
194.6107989878842
 20
15.30426944898045
 10
194.599076950535
 20
15.35551536129849
 10
194.6640326339205
 20
15.33899381766928
 10
194.7306533339825
 20
15.35020571374052
 10
194.8451352858067
 20
15.34485436710774
 10
194.9615454436965
 20
15.34791188771228
 10
195.0757660174643
 20
15.34278499010818
 10
195.1430150439227
 20
15.35345733355708
 10
195.2083325941439
 20
15.33742082669188
 10
195.1941391448553
 20
15.39949685750154
 10
195.2036059462996
 20
15.46586761628852
 10
195.1990269004086
 20
15.58239972742035
 10
195.2007696555948
 20
15.71426685022422
 10
195.1997551495393
 20
15.85615960150295
 10
195.2017191344372
 20
15.98769050702579
 10
195.1964668553852
 20
16.1052457728298
 10
195.2073408763475
 20
16.16947789001553
 10
195.1919536641854
 20
16.23108802545006
 10
195.2407591537801
 20
16.21702407382069
 10
195.2853995564727
 20
16.21954742075277
 10
195.3538643946745
 20
16.21512797401673
 10
195.3959106169105
 20
16.20613025544003
 10
195.4487544758779
 20
16.21411714866473
 10
195.4207035002013
 20
16.1711391761172
 10
195.3749142248601
 20
16.18259552043806
 10
195.386953907327
 20
16.12173520005138
 10
195.3796086070648
 20
16.05769299468775
 10
195.3831195826167
 20
15.94909368863933
 10
195.381980676018
 20
15.82494319144791
 10
195.3819174780268
 20
15.69189719829938
 10
195.3832872966874
 20
15.56797381249632
 10
195.3791638801319
 20
15.45868337849431
 10
195.3877763103571
 20
15.39608580094272
 10
195.3746757454407
 20
15.33740133296476
 10
195.4393884328204
 20
15.35362113811012
 10
195.5060405953159
 20
15.34270260383421
 10
195.6198779541106
 20
15.34793740173866
 10
195.7357259122099
 20
15.34485547517024
 10
195.8496924263282
 20
15.35018259812621
 10
195.9160341018099
 20
15.33904208166655
 10
195.980718852548
 20
15.35546979593286
 10
195.9689820772722
 20
15.30425925210134
 10
195.9765168063041
 20
15.25950334121061
 10
195.9689820992257
 20
15.21474739010062
 10
195.9807188140737
 20
15.1635369087105
 10
195.9160344075253
 20
15.17996427794226
 10
195.8496886430825
 20
15.16882784447279
 10
195.7357459487015
 20
15.17413115893128
 10
195.6197995623058
 20
15.17114764593553
 10
195.5062756882127
 20
15.17606892268401
 10
195.4389231318809
 20
15.1658508751353
 10
195.3734285122501
 20
15.18145996138823
 10
195.3891713619224
 20
15.11463851827418
 10
195.3783275998218
 20
15.04207057815884
 10
195.3836581629798
 20
14.91162247614419
 10
195.3817136151862
 20
14.76064558185225
 10
195.3823133683219
 20
14.59322243934153
 10
195.3821506559611
 20
14.42656176118363
 10
195.3821895488141
 20
14.27360142921624
 10
195.3821816413105
 20
14.1484917898569
 10
195.3821828382752
 20
14.06507890991403
 10
195.3821827716214
 20
14.02491778281958
 10
195.3821827564389
 20
14.01410517385739
 97
        1
330
B1
 75
     1
 76
     2
 52
45.0
 41
0.1
 77
     0
 78
     1
 53
45.0
 43
0.0
 44
0.0
 45
-0.282842712474619
 46
0.0
 79
     0
 98
        1
 10
0.0
 20
0.0
  0
HATCH
  5
CF
330
48
100
AcDbEntity
  8
1
  6
Continuous
 62
     2
100
AcDbHatch
 10
0.0
 20
0.0
 30
0.0
210
0.0
220
0.0
230
1.0
  2
CUSTOM13
 70
     0
 71
     1
 91
        1
 92
        1
 93
        3
 72
     4
 94
        3
 73
     0
 74
     0
 95
       24
 96
       20
 40
0.0
 40
0.0
 40
0.0
 40
0.0
 40
0.2211075008754411
 40
0.4273218586238151
 40
0.508017467922234
 40
0.5914835907854652
 40
0.8143265690175258
 40
1.054651302684824
 40
1.295452694021497
 40
1.518109231327222
 40
1.540864321903803
 40
1.59512646062105
 40
1.659890947894346
 40
1.714153085185633
 40
1.736908174959927
 40
1.764951100733709
 40
1.801562291219556
 40
1.953914424541767
 40
2.126104167377929
 40
2.126104167377929
 40
2.126104167377929
 40
2.126104167377929
 10
185.9375369556888
 20
15.58989295113042
 10
185.9112579081812
 20
15.53097628234386
 10
185.8604698894429
 20
15.41711139679264
 10
185.8131784839106
 20
15.14441958233361
 10
185.7043482802612
 20
15.24445482575457
 10
185.5514800279636
 20
15.27118593367385
 10
185.7686155181199
 20
15.48518135017628
 10
185.7838483674381
 20
15.70332117782491
 10
185.8906889492004
 20
15.88451579066429
 10
185.8305380947077
 20
16.16913226311408
 10
185.9334317395403
 20
16.14114089222469
 10
185.977993346815
 20
16.13243251602324
 10
186.0380842395397
 20
16.12139654183389
 10
186.0756619587439
 20
16.10767523055597
 10
186.1252466928606
 20
16.10756076160266
 10
186.0930158919325
 20
16.07306592398652
 10
186.0171802221884
 20
16.08404104537862
 10
186.0429447159689
 20
15.89858969582489
 10
186.0055896763849
 20
15.80702313549611
 10
185.985770496161
 20
15.75844135397711
 72
     4
 94
        3
 73
     0
 74
     0
 95
       70
 96
       66
 40
0.0
 40
0.0
 40
0.0
 40
0.0
 40
0.0241731073021472
 40
0.0846058988987297
 40
0.1631685280353284
 40
0.2417311571789756
 40
0.3021639488292751
 40
0.3263370654895825
 40
0.3533118254249201
 40
0.4228783438922573
 40
0.5179999095314006
 40
0.6216398239466884
 40
0.7167613891500594
 40
0.7863279069650894
 40
0.8133026791762902
 40
0.8372943998772446
 40
0.8945054261372759
 40
0.9627895541961644
 40
1.020000580348914
 40
1.043992300974955
 40
1.071934345523022
 40
1.113121768772443
 40
1.145225199331746
 40
1.225483775412224
 40
1.329819923770861
 40
1.434156071993677
 40
1.514414647795043
 40
1.546518078207628
 40
1.578974764259344
 40
1.662678849313226
 40
1.777131373667304
 40
1.901833377473439
 40
2.016285900499087
 40
2.099989982526312
 40
2.132446666568642
 40
2.158782354484384
 40
2.216720867906215
 40
2.274659381332679
 40
2.300995069254633
 40
2.333451754064576
 40
2.417155836542115
 40
2.531608358983384
 40
2.656310362281651
 40
2.770762886386642
 40
2.854466971337693
 40
2.886923657361443
 40
2.913597976830864
 40
2.982389642872631
 40
3.076451716944451
 40
3.178937260456012
 40
3.272999334737371
 40
3.341791001056558
 40
3.368465320660857
 40
3.396976080736106
 40
3.472140811843342
 40
3.578408190306117
 40
3.70022689245361
 40
3.822045594631856
 40
3.92831297325402
 40
4.003477705312473
 40
4.031988456864539
 40
4.058324144795346
 40
4.116262658234529
 40
4.174201171398348
 40
4.200536849606291
 40
4.200536849606291
 40
4.200536849606291
 40
4.200536849606291
 10
185.985770496161
 20
15.75844135397711
 10
185.993825954468
 20
15.75844359811693
 10
186.0220200663242
 20
15.75845146032804
 10
186.0765534803674
 20
15.75830754828377
 10
186.1482891808604
 20
15.75909120499903
 10
186.2236240137063
 20
15.75627570463817
 10
186.2713052366439
 20
15.76298403400962
 10
186.3195071245618
 20
15.75197563692438
 10
186.3062571799874
 20
15.80546402997039
 10
186.3151093964539
 20
15.860495835431
 10
186.3108698036287
 20
15.95419908726118
 10
186.3133483481281
 20
16.04959482218543
 10
186.3090938706061
 20
16.14356821983399
 10
186.3179818665848
 20
16.19795062438025
 10
186.3046977409946
 20
16.25233997691473
 10
186.351411927711
 20
16.23842216335376
 10
186.3943254545737
 20
16.24103877374064
 10
186.4605443456684
 20
16.23648422450777
 10
186.5013342271798
 20
16.22778162134195
 10
186.5525145690817
 20
16.2353179989022
 10
186.5253720487198
 20
16.1934997022333
 10
186.4803096055711
 20
16.20284992072536
 10
186.4942065045053
 20
16.13841207371825
 10
186.4858414431657
 20
16.07378219627379
 10
186.4903632178401
 20
15.97529141193879
 10
186.485474131117
 20
15.87595932842568
 10
186.4950258992084
 20
15.81293115552971
 10
186.4799761455203
 20
15.74964011499796
 10
186.544915945721
 20
15.76515072944274
 10
186.6116246399498
 20
15.75499387697819
 10
186.7241435470827
 20
15.75988800099373
 10
186.8390235448951
 20
15.75691204732791
 10
186.9519871999742
 20
15.76221664184995
 10
187.0176267597672
 20
15.75107306472097
 10
187.0816276691047
 20
15.76744532319863
 10
187.0703142889183
 20
15.71761689905277
 10
187.0775339871504
 20
15.67416715212123
 10
187.0703142611262
 20
15.63071745587441
 10
187.0816277175988
 20
15.58088895196871
 10
187.0176263598967
 20
15.59726166091355
 10
186.9519921240454
 20
15.58611271661583
 10
186.8389974317328
 20
15.59144857206848
 10
186.7242456548643
 20
15.58834345663816
 10
186.6113183686862
 20
15.59364894682583
 10
186.5455220903586
 20
15.58257300019588
 10
186.4816097975361
 20
15.5988759784761
 10
186.4936015165129
 20
15.54423524395738
 10
186.4862104613008
 20
15.48854295047841
 10
186.4892684841986
 20
15.39649689140574
 10
186.4893422785686
 20
15.30179109873109
 10
186.4860313578363
 20
15.20952782902278
 10
186.4939505989906
 20
15.15435768736155
 10
186.481507661162
 20
15.10058169100153
 10
186.5389116551634
 20
15.11453768862799
 10
186.5994708140386
 20
15.10511457884245
 10
186.7048680855085
 20
15.10942885928722
 10
186.8204294070626
 20
15.10835504612049
 10
186.9359688877802
 20
15.10725965901013
 10
187.0414181130847
 20
15.1116252577065
 10
187.1018680471809
 20
15.10209426030689
 10
187.1592837739116
 20
15.11617289606397
 10
187.1477773876715
 20
15.06707153265699
 10
187.1537566781755
 20
15.02564658018664
 10
187.1520311050808
 20
14.97651677966709
 10
187.1521500122978
 20
14.9485442844762
 10
187.1521871691839
 20
14.93980288195962
 72
     4
 94
        3
 73
     0
 74
     0
 95
       62
 96
       58
 40
0.0
 40
0.0
 40
0.0
 40
0.0
 40
0.0598250028309337
 40
0.2024846486899889
 40
0.3727558389225294
 40
0.5154154847942038
 40
0.575240497579216
 40
0.9332326775492242
 40
1.290451762839965
 40
1.602077253146676
 40
1.699931634112517
 40
1.799359756424971
 40
2.270120149657773
 40
2.804661928461628
 40
2.882342287383339
 40
3.076543185719188
 40
3.329004354835647
 40
3.581465524568471
 40
3.775666424543753
 40
3.853346784558373
 40
3.899120679595204
 40
3.98412934179223
 40
4.029903236817636
 40
4.105797496059799
 40
4.295533144152784
 40
4.542189486612053
 40
4.788845828876032
 40
4.978581476410437
 40
5.054475735244689
 40
5.621734664339895
 40
6.130867242037858
 40
6.225249780949516
 40
6.318913039728428
 40
6.663579954560027
 40
7.047498900225827
 40
7.435230791577061
 40
7.498943906669388
 40
7.650875181211211
 40
7.832212509002523
 40
7.984143783697738
 40
8.04785689890381
 40
8.091554632733331
 40
8.172707566965016
 40
8.216405300768756
 40
8.289021782161612
 40
8.462184160757815
 40
8.66886183800581
 40
8.84202421526426
 40
8.914640695475399
 40
8.989881580861567
 40
9.155411528827392
 40
9.320941477744093
 40
9.396182352487306
 40
9.45470901114374
 40
9.583467660170617
 40
9.712226309012697
 40
9.770752957989123
 40
9.770752957989123
 40
9.770752957989123
 40
9.770752957989123
 10
187.1521871691839
 20
14.93980288195962
 10
187.1322348171629
 20
14.93980875568683
 10
187.0647037716471
 20
14.9398286380617
 10
186.9410612161792
 20
14.93949362520337
 10
186.7863180150058
 20
14.94107673750525
 10
186.669734948248
 20
14.93686078860507
 10
186.4550942634241
 20
14.9521520533164
 10
186.8518948407226
 20
14.59198721286213
 10
186.8945656069263
 20
14.3751050339718
 10
187.3189162146608
 20
14.19325062511423
 10
187.1439821496072
 20
14.08985196568067
 10
187.0194523925095
 20
13.87831523212641
 10
186.7666277235946
 20
14.348060810016
 10
186.4797602893629
 20
14.99511516984491
 10
186.4906335926663
 20
14.68782672154685
 10
186.4882892777962
 20
14.52288616971769
 10
186.4861096126414
 20
14.28879670711685
 10
186.4980774396349
 20
14.04498072421775
 10
186.4687984740634
 20
13.89855796860975
 10
186.5114522625473
 20
13.75113490174528
 10
186.4239814005641
 20
13.76685797306212
 10
186.3768527606746
 20
13.76694303543447
 10
186.2898973207714
 20
13.751094254829
 10
186.3313474021725
 20
13.89527771422755
 10
186.3029875004286
 20
14.03855052698451
 10
186.31459737753
 20
14.27674947365263
 10
186.3124175648273
 20
14.50517235240347
 10
186.3103111127995
 20
14.66705729375997
 10
186.3208035438323
 20
14.98153709333763
 10
186.0128963252897
 20
14.29229470872402
 10
185.7055258267458
 20
13.81476750243032
 10
185.5851367066275
 20
14.03741112637429
 10
185.4074607910717
 20
14.15011034955559
 10
185.8853326362894
 20
14.32548143465434
 10
185.9353959057206
 20
14.56091929252023
 10
186.3583799621717
 20
14.95322989344618
 10
186.127675427354
 20
14.93655307029078
 10
186.0049685859342
 20
14.94269518948782
 10
185.8325483095666
 20
14.93312822699587
 10
185.7213224694453
 20
14.95448818489675
 10
185.6025779627454
 20
14.92136265357434
 10
185.6183169706691
 20
15.00203900606898
 10
185.6178550933768
 20
15.04645414290869
 10
185.6027881889937
 20
15.1296708177855
 10
185.7372380935449
 20
15.09062651983904
 10
185.8619755545751
 20
15.11739729328439
 10
186.0628755237283
 20
15.10063949044071
 10
186.1921540949356
 20
15.1220422591302
 10
186.3328419928295
 20
15.0886877885344
 10
186.2980927452617
 20
15.2265187578508
 10
186.3222185666713
 20
15.34963257349487
 10
186.2967086182393
 20
15.47024055670334
 10
186.3333251146686
 20
15.60539865141486
 10
186.2211417027771
 20
15.58094545781886
 10
186.128035645714
 20
15.59307749842016
 10
186.0191547579824
 20
15.58957630069987
 10
185.9569697640969
 20
15.58981755951596
 10
185.9375369557251
 20
15.58989295124138
 97
        3
330
B3
330
B4
330
B2
 75
     1
 76
     2
 52
45.0
 41
0.1
 77
     0
 78
     1
 53
45.0
 43
0.0
 44
0.0
 45
-0.282842712474619
 46
0.0
 79
     0
 98
        1
 10
0.0
 20
0.0
  0
HATCH
  5
D0
330
48
100
AcDbEntity
  8
1
  6
Continuous
 62
     2
100
AcDbHatch
 10
0.0
 20
0.0
 30
0.0
210
0.0
220
0.0
230
1.0
  2
CUSTOM14
 70
     0
 71
     1
 91
        1
 92
        1
 93
        4
 72
     1
 10
192.4578138032671
 20
15.2287543402208
 11
191.160297169703
 21
15.2287543402208
 72
     1
 10
191.160297169703
 20
15.2287543402208
 11
191.160297169703
 21
15.39722336795603
 72
     1
 10
191.160297169703
 20
15.39722336795603
 11
192.4578138032671
 21
15.39722336795603
 72
     1
 10
192.4578138032671
 20
15.39722336795603
 11
192.4578138032671
 21
15.2287543402208
 97
        1
330
B5
 75
     1
 76
     2
 52
45.0
 41
0.1
 77
     0
 78
     1
 53
45.0
 43
0.0
 44
0.0
 45
-0.282842712474619
 46
0.0
 79
     0
 98
        1
 10
0.0
 20
0.0
  0
ENDBLK
  5
4A
330
48
100
AcDbEntity
  8
0
100
AcDbBlockEnd
  0
BLOCK
  5
4D
330
4B
100
AcDbEntity
  8
0
100
AcDbBlockBegin
  2
開示A4枠
 70
     0
 10
0.0
 20
0.0
 30
0.0
  3
開示A4枠
  1

  0
INSERT
  5
4C
330
4B
100
AcDbEntity
  8
1
100
AcDbBlockReference
  2
開示A4
 10
0.0
 20
0.0
 30
0.0
  0
ENDBLK
  5
4E
330
4B
100
AcDbEntity
  8
0
100
AcDbBlockEnd
  0
BLOCK
  5
50
330
4F
100
AcDbEntity
  8
0
100
AcDbBlockBegin
  2
M70M-1
 70
     0
 10
-2177.494567880868
 20
6070.745219059748
 30
0.0
  3
M70M-1
  1

  0
LINE
  5
D1
330
4F
100
AcDbEntity
  8
1
  6
DASH_CENTER
 62
     2
100
AcDbLine
 10
128.9173952612318
 20
100.4637073553995
 30
0.0
 11
118.3107935434359
 21
111.0703090731986
 31
0.0
  0
LINE
  5
D2
330
4F
100
AcDbEntity
  8
1
  6
DASH_CENTER
 62
     2
100
AcDbLine
 10
124.5807159892388
 20
116.5503866273939
 30
0.0
 11
112.8307159892388
 21
116.5503866273939
 31
0.0
  0
LINE
  5
D3
330
4F
100
AcDbEntity
  8
1
  6
DASH_CENTER
 62
     2
100
AcDbLine
 10
112.8307159892388
 20
116.5503866273939
 30
0.0
 11
83.3307159892388
 21
116.5503866273939
 31
0.0
  0
LINE
  5
D4
330
4F
100
AcDbEntity
  8
1
  6
DASH_CENTER
 62
     2
100
AcDbLine
 10
128.9173952612327
 20
132.6370658993874
 30
0.0
 11
118.310793543435
 21
122.0304641815892
 31
0.0
  0
LINE
  5
D5
330
4F
100
AcDbEntity
  8
1
  6
DASH_CENTER
 62
     2
100
AcDbLine
 10
112.8307159892388
 20
146.0503866273939
 30
0.0
 11
112.8307159892388
 21
116.5503866273939
 31
0.0
  0
LINE
  5
D6
330
4F
100
AcDbEntity
  8
1
  6
DASH_CENTER
 62
     2
100
AcDbLine
 10
107.350638435043
 20
122.0304641815901
 30
0.0
 11
96.74403671724485
 21
132.6370658993874
 31
0.0
  0
LINE
  5
D7
330
4F
100
AcDbEntity
  8
1
  6
DASH_CENTER
 62
     2
100
AcDbLine
 10
107.350638435043
 20
111.0703090731977
 30
0.0
 11
96.74403671724485
 21
100.4637073553995
 31
0.0
  0
LINE
  5
D8
330
4F
100
AcDbEntity
  8
1
  6
DASH_CENTER
 62
     2
100
AcDbLine
 10
131.5807159892397
 20
116.5503866273939
 30
0.0
 11
129.580715989237
 21
116.5503866273939
 31
0.0
  0
LINE
  5
D9
330
4F
100
AcDbEntity
  8
1
  6
DASH_CENTER
 62
     2
100
AcDbLine
 10
138.8307159892397
 20
116.5503866273939
 30
0.0
 11
133.5807159892397
 21
116.5503866273939
 31
0.0
  0
LINE
  5
DA
330
4F
100
AcDbEntity
  8
1
  6
Continuous
 62
     7
100
AcDbLine
 10
85.3307159892397
 20
201.6625213421166
 30
0.0
 11
85.3307159892397
 21
174.1625213421166
 31
0.0
  0
LINE
  5
DB
330
4F
100
AcDbEntity
  8
1
  6
Continuous
 62
     7
100
AcDbLine
 10
127.0807159892388
 20
212.6593452010302
 30
0.0
 11
99.33071502849998
 21
212.6593452010302
 31
0.0
  0
LINE
  5
DC
330
4F
100
AcDbEntity
  8
1
  6
Continuous
 62
     7
100
AcDbLine
 10
99.8307159892397
 20
212.6593452010302
 30
0.0
 11
99.33071502849998
 21
212.6593452010302
 31
0.0
  0
LINE
  5
DD
330
4F
100
AcDbEntity
  8
1
  6
Continuous
 62
     7
100
AcDbLine
 10
98.5807159892388
 20
215.6593452010302
 30
0.0
 11
99.32915550300277
 21
215.6593452010302
 31
0.0
  0
LINE
  5
DE
330
4F
100
AcDbEntity
  8
1
  6
Continuous
 62
     7
100
AcDbLine
 10
98.5807159892388
 20
215.6593452010302
 30
0.0
 11
99.32915550300277
 21
215.6593452010302
 31
0.0
  0
LINE
  5
DF
330
4F
100
AcDbEntity
  8
1
  6
Continuous
 62
     7
100
AcDbLine
 10
99.32915550300277
 20
215.6593452010302
 30
0.0
 11
127.0807159892388
 21
215.6593452010302
 31
0.0
  0
LINE
  5
E0
330
4F
100
AcDbEntity
  8
1
  6
Continuous
 62
     7
100
AcDbLine
 10
99.33071502849998
 20
212.6593452010302
 30
0.0
 11
98.5807159892397
 21
212.6593452010302
 31
0.0
  0
LINE
  5
E1
330
4F
100
AcDbEntity
  8
1
  6
Continuous
 62
     7
100
AcDbLine
 10
98.5807159892397
 20
201.6625213421166
 30
0.0
 11
127.0807159892388
 21
201.6625213421157
 31
0.0
  0
LINE
  5
E2
330
4F
100
AcDbEntity
  8
1
  6
Continuous
 62
     7
100
AcDbLine
 10
85.3307159892397
 20
201.6625213421166
 30
0.0
 11
85.3307159892397
 21
174.1625213421166
 31
0.0
  0
LINE
  5
E3
330
4F
100
AcDbEntity
  8
1
  6
Continuous
 62
     7
100
AcDbLine
 10
98.5807159892397
 20
201.6625213421166
 30
0.0
 11
85.3307159892397
 21
201.6625213421166
 31
0.0
  0
LINE
  5
E4
330
4F
100
AcDbEntity
  8
1
  6
Continuous
 62
     7
100
AcDbLine
 10
102.3307159892397
 20
217.1593452010302
 30
0.0
 11
98.5807159892388
 21
217.1593452010302
 31
0.0
  0
LINE
  5
E5
330
4F
100
AcDbEntity
  8
1
  6
Continuous
 62
     7
100
AcDbLine
 10
98.5807159892388
 20
217.1593452010302
 30
0.0
 11
98.5807159892388
 21
215.6593452010302
 31
0.0
  0
LINE
  5
E6
330
4F
100
AcDbEntity
  8
1
  6
Continuous
 62
     7
100
AcDbLine
 10
99.32915550300277
 20
215.6593452010302
 30
0.0
 11
99.8307159892397
 21
215.6593452010302
 31
0.0
  0
LINE
  5
E7
330
4F
100
AcDbEntity
  8
1
  6
Continuous
 62
     7
100
AcDbLine
 10
99.33071502849998
 20
212.6593452010302
 30
0.0
 11
98.5807159892397
 21
212.6593452010302
 31
0.0
  0
LINE
  5
E8
330
4F
100
AcDbEntity
  8
1
  6
Continuous
 62
     7
100
AcDbLine
 10
98.5807159892397
 20
212.6593452010302
 30
0.0
 11
98.5807159892397
 21
201.6625213421166
 31
0.0
  0
LINE
  5
E9
330
4F
100
AcDbEntity
  8
1
  6
Continuous
 62
     7
100
AcDbLine
 10
98.5807159892388
 20
217.1593452010302
 30
0.0
 11
123.3307159892388
 21
217.1593452010302
 31
0.0
  0
LINE
  5
EA
330
4F
100
AcDbEntity
  8
1
  6
Continuous
 62
     7
100
AcDbLine
 10
127.0807159892397
 20
217.1593452010284
 30
0.0
 11
123.3307159892388
 21
217.1593452010302
 31
0.0
  0
LINE
  5
EB
330
4F
100
AcDbEntity
  8
1
  6
Continuous
 62
     7
100
AcDbLine
 10
140.3307159892388
 20
174.1625213421157
 30
0.0
 11
138.8307159892397
 21
174.1625213421166
 31
0.0
  0
LINE
  5
EC
330
4F
100
AcDbEntity
  8
1
  6
Continuous
 62
     7
100
AcDbLine
 10
127.0807159892388
 20
215.6593452010302
 30
0.0
 11
127.0807159892397
 21
217.1593452010284
 31
0.0
  0
LINE
  5
ED
330
4F
100
AcDbEntity
  8
1
  6
Continuous
 62
     7
100
AcDbLine
 10
127.0807159892388
 20
212.6593452010302
 30
0.0
 11
125.8307159892388
 21
212.6593452010302
 31
0.0
  0
LINE
  5
EE
330
4F
100
AcDbEntity
  8
1
  6
Continuous
 62
     7
100
AcDbLine
 10
98.5807159892388
 20
217.1593452010302
 30
0.0
 11
98.5807159892388
 21
215.6593452010302
 31
0.0
  0
LINE
  5
EF
330
4F
100
AcDbEntity
  8
1
  6
Continuous
 62
     7
100
AcDbLine
 10
127.0807159892388
 20
201.6625213421157
 30
0.0
 11
127.0807159892388
 21
212.6593452010302
 31
0.0
  0
LINE
  5
F0
330
4F
100
AcDbEntity
  8
1
  6
Continuous
 62
     7
100
AcDbLine
 10
140.3307159892388
 20
201.6625213421166
 30
0.0
 11
127.0807159892388
 21
201.6625213421157
 31
0.0
  0
LINE
  5
F1
330
4F
100
AcDbEntity
  8
1
  6
Continuous
 62
     7
100
AcDbLine
 10
140.3307159892388
 20
174.1625213421157
 30
0.0
 11
140.3307159892388
 21
201.6625213421166
 31
0.0
  0
LINE
  5
F2
330
4F
100
AcDbEntity
  8
1
  6
Continuous
 62
     7
100
AcDbLine
 10
133.5807159892397
 20
172.1625213421166
 30
0.0
 11
138.8307159892397
 21
172.1625213421166
 31
0.0
  0
LINE
  5
F3
330
4F
100
AcDbEntity
  8
1
  6
Continuous
 62
     7
100
AcDbLine
 10
140.3307159892388
 20
173.6625213421157
 30
0.0
 11
140.3307159892388
 21
174.1625213421157
 31
0.0
  0
LINE
  5
F4
330
4F
100
AcDbEntity
  8
1
  6
Continuous
 62
     7
100
AcDbLine
 10
138.8307159892397
 20
172.1625213421166
 30
0.0
 11
140.3307159892388
 21
173.6625213421157
 31
0.0
  0
LINE
  5
F5
330
4F
100
AcDbEntity
  8
1
  6
Continuous
 62
     7
100
AcDbLine
 10
85.3307159892397
 20
174.1625213421166
 30
0.0
 11
85.3307159892397
 21
173.6625213421157
 31
0.0
  0
LINE
  5
F6
330
4F
100
AcDbEntity
  8
1
  6
Continuous
 62
     7
100
AcDbLine
 10
85.3307159892397
 20
173.6625213421157
 30
0.0
 11
86.8307159892397
 21
172.1625213421157
 31
0.0
  0
LINE
  5
F7
330
4F
100
AcDbEntity
  8
1
  6
Continuous
 62
     7
100
AcDbLine
 10
86.8307159892397
 20
172.1625213421157
 30
0.0
 11
133.5807159892397
 21
172.1625213421166
 31
0.0
  0
LINE
  5
F8
330
4F
100
AcDbEntity
  8
1
  6
DASH_CENTER
 62
     2
100
AcDbLine
 10
112.8307159892388
 20
116.5503866273939
 30
0.0
 11
112.8307159892388
 21
87.05038662739389
 31
0.0
  0
LINE
  5
F9
330
4F
100
AcDbEntity
  8
1
  6
DASH_CENTER
 62
     2
100
AcDbLine
 10
129.580715989237
 20
116.5503866273939
 30
0.0
 11
124.5807159892388
 21
116.5503866273939
 31
0.0
  0
LINE
  5
FA
330
4F
100
AcDbEntity
  8
1
  6
DASH_CENTER
 62
     2
100
AcDbLine
 10
133.5807159892397
 20
116.5503866273939
 30
0.0
 11
131.5807159892397
 21
116.5503866273939
 31
0.0
  0
LINE
  5
FB
330
4F
100
AcDbEntity
  8
1
  6
Continuous
 62
     7
100
AcDbLine
 10
85.3307159892397
 20
174.1625213421166
 30
0.0
 11
140.3307159892388
 21
174.1625213421157
 31
0.0
  0
LINE
  5
FC
330
4F
100
AcDbEntity
  8
1
  6
DASH_CENTER
 62
     2
100
AcDbLine
 10
141.7021814777818
 20
116.5503866273939
 30
0.0
 11
138.8307159892397
 21
116.5503866273939
 31
0.0
  0
ARC
  5
FD
330
4F
100
AcDbEntity
  8
1
  6
Continuous
 62
     7
100
AcDbCircle
 10
131.5807159892397
 20
116.5503866273939
 30
0.0
 40
2.0
100
AcDbArc
 50
0.0
 51
180.0
  0
ARC
  5
FE
330
4F
100
AcDbEntity
  8
1
  6
Continuous
 62
     7
100
AcDbCircle
 10
131.5807159892397
 20
116.5503866273939
 30
0.0
 40
2.0000000000027
100
AcDbArc
 50
180.0
 51
0.0
  0
ARC
  5
FF
330
4F
100
AcDbEntity
  8
1
  6
Continuous
 62
     7
100
AcDbCircle
 10
125.705228990349
 20
214.1596707611907
 30
0.0
 40
1.62548822638437
100
AcDbArc
 50
292.6313280230386
 51
67.30910249634739
  0
ARC
  5
100
330
4F
100
AcDbEntity
  8
1
  6
Continuous
 62
     7
100
AcDbCircle
 10
99.95620298812992
 20
214.1596707611907
 30
0.0
 40
1.625488226383736
100
AcDbArc
 50
112.6908975036674
 51
247.3686719769928
  0
CIRCLE
  5
101
330
4F
100
AcDbEntity
  8
1
  6
Continuous
 62
     7
100
AcDbCircle
 10
112.8307159892388
 20
116.5503866273939
 30
0.0
 40
27.5
  0
CIRCLE
  5
102
330
4F
100
AcDbEntity
  8
1
  6
Continuous
 62
     7
100
AcDbCircle
 10
94.0807159892388
 20
116.5503866273939
 30
0.0
 40
2.0
  0
CIRCLE
  5
103
330
4F
100
AcDbEntity
  8
1
  6
Continuous
 62
     7
100
AcDbCircle
 10
101.0807159892388
 20
116.5503866273939
 30
0.0
 40
2.0
  0
CIRCLE
  5
104
330
4F
100
AcDbEntity
  8
1
  6
Continuous
 62
     7
100
AcDbCircle
 10
124.5807159892388
 20
116.5503866273939
 30
0.0
 40
2.0
  0
CIRCLE
  5
105
330
4F
100
AcDbEntity
  8
1
  6
Continuous
 62
     7
100
AcDbCircle
 10
112.8307159892388
 20
116.5503866273939
 30
0.0
 40
2.0
  0
CIRCLE
  5
106
330
4F
100
AcDbEntity
  8
1
  6
Continuous
 62
     7
100
AcDbCircle
 10
121.1392206681808
 20
108.2418819484528
 30
0.0
 40
2.00000000000093
  0
CIRCLE
  5
107
330
4F
100
AcDbEntity
  8
1
  6
Continuous
 62
     7
100
AcDbCircle
 10
126.088968136487
 20
103.2921344801462
 30
0.0
 40
2.000000000000086
  0
CIRCLE
  5
108
330
4F
100
AcDbEntity
  8
1
  6
Continuous
 62
     7
100
AcDbCircle
 10
112.8307159892388
 20
104.8003866273948
 30
0.0
 40
2.000000000000895
  0
CIRCLE
  5
109
330
4F
100
AcDbEntity
  8
1
  6
Continuous
 62
     7
100
AcDbCircle
 10
112.8307159892388
 20
97.8003866273948
 30
0.0
 40
2.000000000000909
  0
CIRCLE
  5
10A
330
4F
100
AcDbEntity
  8
1
  6
Continuous
 62
     7
100
AcDbCircle
 10
99.57246384199198
 20
103.2921344801471
 30
0.0
 40
2.000000000001674
  0
CIRCLE
  5
10B
330
4F
100
AcDbEntity
  8
1
  6
Continuous
 62
     7
100
AcDbCircle
 10
104.5222113102968
 20
108.2418819484528
 30
0.0
 40
2.000000000000569
  0
CIRCLE
  5
10C
330
4F
100
AcDbEntity
  8
1
  6
Continuous
 62
     7
100
AcDbCircle
 10
99.57246384199198
 20
129.8086387746416
 30
0.0
 40
1.999999999999383
  0
CIRCLE
  5
10D
330
4F
100
AcDbEntity
  8
1
  6
Continuous
 62
     7
100
AcDbCircle
 10
104.5222113102968
 20
124.8588913063359
 30
0.0
 40
2.000000000000438
  0
CIRCLE
  5
10E
330
4F
100
AcDbEntity
  8
1
  6
Continuous
 62
     7
100
AcDbCircle
 10
112.8307159892388
 20
128.3003866273948
 30
0.0
 40
2.000000000000895
  0
CIRCLE
  5
10F
330
4F
100
AcDbEntity
  8
1
  6
Continuous
 62
     7
100
AcDbCircle
 10
112.8307159892388
 20
135.3003866273939
 30
0.0
 40
2.0
  0
CIRCLE
  5
110
330
4F
100
AcDbEntity
  8
1
  6
Continuous
 62
     7
100
AcDbCircle
 10
121.1392206681808
 20
124.8588913063368
 30
0.0
 40
2.00000000000071
  0
CIRCLE
  5
111
330
4F
100
AcDbEntity
  8
1
  6
Continuous
 62
     7
100
AcDbCircle
 10
126.088968136487
 20
129.8086387746416
 30
0.0
 40
2.000000000000629
  0
CIRCLE
  5
112
330
4F
100
AcDbEntity
  8
1
  6
DASH_CENTER
 62
     2
100
AcDbCircle
 10
112.8307159892388
 20
116.5503866273939
 30
0.0
 40
11.75
  0
CIRCLE
  5
113
330
4F
100
AcDbEntity
  8
1
  6
DASH_CENTER
 62
     2
100
AcDbCircle
 10
112.8307159892388
 20
116.5503866273939
 30
0.0
 40
18.75000000000091
  0
CIRCLE
  5
114
330
4F
100
AcDbEntity
  8
1
  6
Continuous
 62
     7
100
AcDbCircle
 10
112.8307159892388
 20
116.5503866273939
 30
0.0
 40
26.00000000000091
  0
ENDBLK
  5
51
330
4F
100
AcDbEntity
  8
0
100
AcDbBlockEnd
  0
BLOCK
  5
12B
330
124
100
AcDbEntity
  8
0
100
AcDbBlockBegin
  2
*D4
 70
     1
 10
0.0
 20
0.0
 30
0.0
  3
*D4
  1

  0
LINE
  5
125
330
124
100
AcDbEntity
  8
1
  6
Continuous
 62
     2
100
AcDbLine
 10
140.3307159892388
 20
163.1625213421166
 30
0.0
 11
85.33071598923975
 21
163.1625213421166
 31
0.0
  0
LINE
  5
126
330
124
100
AcDbEntity
  8
1
  6
Continuous
 62
     2
100
AcDbLine
 10
85.33071598923975
 20
173.6625213421157
 30
0.0
 11
85.33071598923975
 21
162.1625213421166
 31
0.0
  0
LINE
  5
127
330
124
100
AcDbEntity
  8
1
  6
Continuous
 62
     2
100
AcDbLine
 10
140.3307159892388
 20
173.6625213421157
 30
0.0
 11
140.3307159892388
 21
162.1625213421166
 31
0.0
  0
SOLID
  5
128
330
124
100
AcDbEntity
  8
1
 62
     2
100
AcDbTrace
 10
136.8307159892388
 20
162.7017376005607
 30
0.0
 11
136.8307159892388
 21
163.6233050836725
 31
0.0
 12
140.3307159892388
 22
163.1625213421166
 32
0.0
 13
140.3307159892388
 23
163.1625213421166
 33
0.0
  0
SOLID
  5
129
330
124
100
AcDbEntity
  8
1
 62
     2
100
AcDbTrace
 10
88.83071598923975
 20
163.6233050836725
 30
0.0
 11
88.83071598923975
 21
162.7017376005607
 31
0.0
 12
85.33071598923975
 22
163.1625213421166
 32
0.0
 13
85.33071598923975
 23
163.1625213421166
 33
0.0
  0
MTEXT
  5
12A
330
124
100
AcDbEntity
  8
1
 62
     7
100
AcDbMText
 10
109.2346721407605
 20
164.1625143850403
 30
0.0
 40
3.5
 41
0.0
 71
     7
 72
     1
  1
\C7;{\Fgdt;n}\C7;55
  7
CONVERTER_12
 11
0.9999999999970619
 21
2.424068405545306E-6
 31
0.0
 73
     1
 44
0.60024009603842
  0
ENDBLK
  5
12C
330
124
100
AcDbEntity
  8
0
100
AcDbBlockEnd
  0
BLOCK
  5
136
330
12F
100
AcDbEntity
  8
0
100
AcDbBlockBegin
  2
*D5
 70
     1
 10
0.0
 20
0.0
 30
0.0
  3
*D5
  1

  0
LINE
  5
130
330
12F
100
AcDbEntity
  8
1
  6
Continuous
 62
     2
100
AcDbLine
 10
127.0807159892397
 20
228.1593452010284
 30
0.0
 11
98.5807159892388
 21
228.1593452010284
 31
0.0
  0
LINE
  5
131
330
12F
100
AcDbEntity
  8
1
  6
Continuous
 62
     2
100
AcDbLine
 10
98.5807159892388
 20
217.1593452010302
 30
0.0
 11
98.5807159892388
 21
229.1593452010284
 31
0.0
  0
LINE
  5
132
330
12F
100
AcDbEntity
  8
1
  6
Continuous
 62
     2
100
AcDbLine
 10
127.0807159892397
 20
217.1593452010284
 30
0.0
 11
127.0807159892397
 21
229.1593452010284
 31
0.0
  0
SOLID
  5
133
330
12F
100
AcDbEntity
  8
1
 62
     2
100
AcDbTrace
 10
123.5807159892397
 20
227.6985614594725
 30
0.0
 11
123.5807159892397
 21
228.6201289425843
 31
0.0
 12
127.0807159892397
 22
228.1593452010284
 32
0.0
 13
127.0807159892397
 23
228.1593452010284
 33
0.0
  0
SOLID
  5
134
330
12F
100
AcDbEntity
  8
1
 62
     2
100
AcDbTrace
 10
102.0807159892388
 20
228.6201289425843
 30
0.0
 11
102.0807159892388
 21
227.6985614594725
 31
0.0
 12
98.5807159892388
 22
228.1593452010284
 32
0.0
 13
98.5807159892388
 23
228.1593452010284
 33
0.0
  0
MTEXT
  5
135
330
12F
100
AcDbEntity
  8
1
 62
     7
100
AcDbMText
 10
109.4357159892481
 20
229.1593382439521
 30
0.0
 40
3.5
 41
0.0
 71
     7
 72
     1
  1
\C7;{\Fgdt;n}\C7;29
  7
CONVERTER_12
 11
0.9999999999970619
 21
2.424068405545306E-6
 31
0.0
 73
     1
 44
0.60024009603842
  0
ENDBLK
  5
137
330
12F
100
AcDbEntity
  8
0
100
AcDbBlockEnd
  0
BLOCK
  5
141
330
13A
100
AcDbEntity
  8
0
100
AcDbBlockBegin
  2
*D6
 70
     1
 10
0.0
 20
0.0
 30
0.0
  3
*D6
  1

  0
LINE
  5
13B
330
13A
100
AcDbEntity
  8
1
  6
Continuous
 62
     2
100
AcDbLine
 10
149.3307159892388
 20
217.1593452010284
 30
0.0
 11
149.3307159892388
 21
201.6625213421166
 31
0.0
  0
LINE
  5
13C
330
13A
100
AcDbEntity
  8
1
  6
Continuous
 62
     2
100
AcDbLine
 10
140.3307159892388
 20
201.6625213421166
 30
0.0
 11
150.3307159892388
 21
201.6625213421166
 31
0.0
  0
LINE
  5
13D
330
13A
100
AcDbEntity
  8
1
  6
Continuous
 62
     2
100
AcDbLine
 10
127.0807159892397
 20
217.1593452010284
 30
0.0
 11
150.3307159892388
 21
217.1593452010284
 31
0.0
  0
SOLID
  5
13E
330
13A
100
AcDbEntity
  8
1
 62
     2
100
AcDbTrace
 10
149.7914997307947
 20
213.6593452010284
 30
0.0
 11
148.8699322476829
 21
213.6593452010284
 31
0.0
 12
149.3307159892388
 22
217.1593452010284
 32
0.0
 13
149.3307159892388
 23
217.1593452010284
 33
0.0
  0
SOLID
  5
13F
330
13A
100
AcDbEntity
  8
1
 62
     2
100
AcDbTrace
 10
148.8699322476829
 20
205.1625213421166
 30
0.0
 11
149.7914997307947
 21
205.1625213421166
 31
0.0
 12
149.3307159892388
 22
201.6625213421166
 32
0.0
 13
149.3307159892388
 23
201.6625213421166
 33
0.0
  0
MTEXT
  5
140
330
13A
100
AcDbEntity
  8
1
 62
     7
100
AcDbMText
 10
148.3307159892388
 20
207.609588188598
 30
0.0
 40
3.5
 41
0.0
 71
     7
 72
     1
  1
16
  7
CONVERTER_12
 11
0.0
 21
1.0
 31
0.0
 73
     1
 44
0.60024009603842
  0
ENDBLK
  5
142
330
13A
100
AcDbEntity
  8
0
100
AcDbBlockEnd
  0
BLOCK
  5
14C
330
145
100
AcDbEntity
  8
0
100
AcDbBlockBegin
  2
*D7
 70
     1
 10
0.0
 20
0.0
 30
0.0
  3
*D7
  1

  0
LINE
  5
146
330
145
100
AcDbEntity
  8
1
  6
Continuous
 62
     2
100
AcDbLine
 10
157.3307159892388
 20
217.1593452010284
 30
0.0
 11
157.3307159892388
 21
172.1625213421166
 31
0.0
  0
LINE
  5
147
330
145
100
AcDbEntity
  8
1
  6
Continuous
 62
     2
100
AcDbLine
 10
138.8307159892397
 20
172.1625213421166
 30
0.0
 11
158.3307159892388
 21
172.1625213421166
 31
0.0
  0
LINE
  5
148
330
145
100
AcDbEntity
  8
1
  6
Continuous
 62
     2
100
AcDbLine
 10
127.0807159892397
 20
217.1593452010284
 30
0.0
 11
158.3307159892388
 21
217.1593452010284
 31
0.0
  0
SOLID
  5
149
330
145
100
AcDbEntity
  8
1
 62
     2
100
AcDbTrace
 10
157.7914997307947
 20
213.6593452010284
 30
0.0
 11
156.8699322476829
 21
213.6593452010284
 31
0.0
 12
157.3307159892388
 22
217.1593452010284
 32
0.0
 13
157.3307159892388
 23
217.1593452010284
 33
0.0
  0
SOLID
  5
14A
330
145
100
AcDbEntity
  8
1
 62
     2
100
AcDbTrace
 10
156.8699322476829
 20
175.6625213421166
 30
0.0
 11
157.7914997307947
 21
175.6625213421166
 31
0.0
 12
157.3307159892388
 22
172.1625213421166
 32
0.0
 13
157.3307159892388
 23
172.1625213421166
 33
0.0
  0
MTEXT
  5
14B
330
145
100
AcDbEntity
  8
1
 62
     7
100
AcDbMText
 10
156.3307159892388
 20
192.0359332715734
 30
0.0
 40
3.5
 41
0.0
 71
     7
 72
     1
  1
45
  7
CONVERTER_12
 11
0.0
 21
1.0
 31
0.0
 73
     1
 44
0.60024009603842
  0
ENDBLK
  5
14D
330
145
100
AcDbEntity
  8
0
100
AcDbBlockEnd
  0
ENDSEC
  0
SECTION
  2
ENTITIES
  0
INSERT
  5
52
330
1F
100
AcDbEntity
  8
0
100
AcDbBlockReference
  2
開示A4枠
 10
0.0
 20
0.0
 30
0.0
  0
INSERT
  5
53
330
1F
100
AcDbEntity
  8
0
100
AcDbBlockReference
  2
M70M-1
 10
-2177.494567880868
 20
6070.745219059748
 30
0.0
  0
LINE
  5
115
330
1F
100
AcDbEntity
  8
1
  6
DASH_CENTER
 62
     2
100
AcDbLine
 10
112.8307159892388
 20
169.1625213421157
 30
0.0
 11
112.8307159892397
 21
220.1593452010302
 31
0.0
  0
MTEXT
  5
117
330
1F
100
AcDbEntity
  8
1
 62
     7
100
AcDbMText
 10
157.5
 20
12.5
 30
0.0
 40
2.5
 41
0.0
 71
     5
 72
     1
  1
2
  7
CONVERTER_12
 73
     1
 44
0.7202881152461
  0
MTEXT
  5
118
330
1F
100
AcDbEntity
  8
1
 62
     7
100
AcDbMText
 10
151.75
 20
12.5
 30
0.0
 40
2.5
 41
0.0
 71
     5
 72
     1
  1
04
  7
CONVERTER_12
 73
     1
 44
0.7202881152461
  0
MTEXT
  5
119
330
1F
100
AcDbEntity
  8
1
 62
     7
100
AcDbMText
 10
140.5
 20
12.5
 30
0.0
 40
2.5
 41
0.0
 71
     5
 72
     1
  1
2
  7
CONVERTER_12
 73
     1
 44
0.7202881152461
  0
MTEXT
  5
11A
330
1F
100
AcDbEntity
  8
1
 62
     7
100
AcDbMText
 10
134.75
 20
12.5
 30
0.0
 40
2.5
 41
0.0
 71
     5
 72
     1
  1
04
  7
CONVERTER_12
 73
     1
 44
0.7202881152461
  0
MTEXT
  5
11B
330
1F
100
AcDbEntity
  8
1
 62
     7
100
AcDbMText
 10
123.5
 20
12.5
 30
0.0
 40
2.5
 41
0.0
 71
     5
 72
     1
  1
2
  7
CONVERTER_12
 73
     1
 44
0.7202881152461
  0
MTEXT
  5
11C
330
1F
100
AcDbEntity
  8
1
 62
     7
100
AcDbMText
 10
117.75
 20
12.5
 30
0.0
 40
2.5
 41
0.0
 71
     5
 72
     1
  1
04
  7
CONVERTER_12
 73
     1
 44
0.7202881152461
  0
MTEXT
  5
11D
330
1F
100
AcDbEntity
  8
1
 62
     7
100
AcDbMText
 10
100.75
 20
12.5
 30
0.0
 40
2.5
 41
0.0
 71
     5
 72
     1
  1
04
  7
CONVERTER_12
 73
     1
 44
0.7202881152461
  0
MTEXT
  5
11E
330
1F
100
AcDbEntity
  8
1
 62
     7
100
AcDbMText
 10
106.5
 20
12.5
 30
0.0
 40
2.5
 41
0.0
 71
     5
 72
     1
  1
2
  7
CONVERTER_12
 73
     1
 44
0.7202881152461
  0
MTEXT
  5
11F
330
1F
100
AcDbEntity
  8
0
 62
     7
100
AcDbMText
 10
34.0
 20
34.0
 30
0.0
 40
3.5
 41
0.0
 71
     4
 72
     1
  1
ろ材：亜硫酸カルシウム，抗菌粒状活性炭
  7
CONVERTER_11
 73
     1
 44
1.0
  0
MTEXT
  5
120
330
1F
100
AcDbEntity
  8
1
 62
     7
100
AcDbMText
 10
93.75
 20
17.0
 30
0.0
 40
3.5
 41
0.0
 71
     5
 72
     1
  1
1
  7
CONVERTER_12
 73
     1
 44
0.7202881152461
  0
MTEXT
  5
121
330
1F
100
AcDbEntity
  8
1
 62
     7
100
AcDbMText
 10
57.0
 20
14.25
 30
0.0
 40
3.5
 41
0.0
 71
     5
 72
     1
  1
M70M-1
  7
CONVERTER_12
 73
     1
 44
0.7202881152461
  0
MTEXT
  5
122
330
1F
100
AcDbEntity
  8
1
 62
     7
100
AcDbMText
 10
57.0
 20
22.75
 30
0.0
 40
3.5
 41
0.0
 71
     5
 72
     1
  1
クリーンカートリッジ
  7
CONVERTER_11
 73
     1
 44
0.54545454545455
  0
MTEXT
  5
123
330
1F
100
AcDbEntity
  8
1
 62
     7
100
AcDbMText
 10
85.25
 20
17.0
 30
0.0
 40
3.5
 41
0.0
 71
     5
 72
     1
  1
1
  7
CONVERTER_12
 73
     1
 44
0.7202881152461
  0
DIMENSION
  5
12E
330
1F
100
AcDbEntity
  8
1
100
AcDbDimension
  2
*D4
 10
140.3307159892388
 20
163.1625213421166
 30
0.0
 11
112.6296721407521
 21
165.9125213421166
 31
0.0
 70
    32
  1
{\Fgdt;n}55
 71
     5
 42
-1.0
 53
0.00013888888889
  3
ME10_DIM_10
100
AcDbAlignedDimension
 13
85.3307159892397
 23
173.6625213421157
 33
0.0
 14
140.3307159892388
 24
173.6625213421157
 34
0.0
100
AcDbRotatedDimension
  0
DIMENSION
  5
139
330
1F
100
AcDbEntity
  8
1
100
AcDbDimension
  2
*D5
 10
127.0807159892397
 20
228.1593452010284
 30
0.0
 11
112.8307159892397
 21
230.9093452010284
 31
0.0
 70
    32
  1
{\Fgdt;n}29
 71
     5
 42
-1.0
 53
0.00013888888889
  3
ME10_DIM_11
100
AcDbAlignedDimension
 13
98.5807159892388
 23
217.1593452010302
 33
0.0
 14
127.0807159892397
 24
217.1593452010284
 34
0.0
100
AcDbRotatedDimension
  0
DIMENSION
  5
144
330
1F
100
AcDbEntity
  8
1
100
AcDbDimension
  2
*D6
 10
149.3307159892388
 20
217.1593452010284
 30
0.0
 11
146.5807159892388
 21
209.709588188598
 31
0.0
 70
    32
  1
16
 71
     5
 42
-1.0
 53
90.0
  3
ME10_DIM_12
100
AcDbAlignedDimension
 13
140.3307159892388
 23
201.6625213421166
 33
0.0
 14
127.0807159892397
 24
217.1593452010284
 34
0.0
 50
90.0
100
AcDbRotatedDimension
  0
DIMENSION
  5
14F
330
1F
100
AcDbEntity
  8
1
100
AcDbDimension
  2
*D7
 10
157.3307159892388
 20
217.1593452010284
 30
0.0
 11
154.5807159892388
 21
194.6609332715734
 31
0.0
 70
    32
  1
<>
 71
     5
 42
-1.0
 53
90.0
  3
ME10_DIM_13
100
AcDbAlignedDimension
 13
138.8307159892397
 23
172.1625213421166
 33
0.0
 14
127.0807159892397
 24
217.1593452010284
 34
0.0
 50
90.0
100
AcDbRotatedDimension
  0
ENDSEC
  0
SECTION
  2
OBJECTS
  0
DICTIONARY
  5
C
330
0
100
AcDbDictionary
281
     1
  3
ACAD_GROUP
350
D
  3
ACAD_LAYOUT
350
1A
  3
ACAD_MATERIAL
350
3B
  3
ACAD_MLEADERSTYLE
350
152
  3
ACAD_MLINESTYLE
350
17
  3
ACAD_PLOTSETTINGS
350
19
  3
ACAD_PLOTSTYLENAME
350
E
  3
ACAD_VISUALSTYLE
350
2A
  3
AcDbVariableDictionary
350
150
  0
DICTIONARY
  5
D
102
{ACAD_REACTORS
330
C
102
}
330
C
100
AcDbDictionary
281
     1
  0
DICTIONARY
  5
1A
102
{ACAD_REACTORS
330
C
102
}
330
C
100
AcDbDictionary
281
     1
  3
Layout1
350
1E
  3
Layout2
350
26
  3
Model
350
22
  0
DICTIONARY
  5
3B
102
{ACAD_REACTORS
330
C
102
}
330
C
100
AcDbDictionary
281
     1
  3
ByBlock
350
3D
  3
ByLayer
350
3C
  3
Global
350
3E
  0
DICTIONARY
  5
152
102
{ACAD_REACTORS
330
C
102
}
330
C
100
AcDbDictionary
281
     1
  0
DICTIONARY
  5
17
102
{ACAD_REACTORS
330
C
102
}
330
C
100
AcDbDictionary
281
     1
  3
Standard
350
18
  0
DICTIONARY
  5
19
102
{ACAD_REACTORS
330
C
102
}
330
C
100
AcDbDictionary
281
     1
  0
ACDBDICTIONARYWDFLT
  5
E
102
{ACAD_REACTORS
330
C
102
}
330
C
100
AcDbDictionary
281
     1
  3
Normal
350
F
100
AcDbDictionaryWithDefault
340
F
  0
DICTIONARY
  5
2A
102
{ACAD_REACTORS
330
C
102
}
330
C
100
AcDbDictionary
281
     1
  3
2dWireframe
350
2F
  3
3D Hidden
350
31
  3
3dWireframe
350
30
  3
Basic
350
32
  3
Brighten
350
36
  3
ColorChange
350
3A
  3
Conceptual
350
34
  3
Dim
350
35
  3
Facepattern
350
39
  3
Flat
350
2B
  3
FlatWithEdges
350
2C
  3
Gouraud
350
2D
  3
GouraudWithEdges
350
2E
  3
Linepattern
350
38
  3
Realistic
350
33
  3
Thicken
350
37
  0
DICTIONARY
  5
150
102
{ACAD_REACTORS
330
C
102
}
330
C
100
AcDbDictionary
281
     1
  3
DIMASSOC
350
153
  3
HIDETEXT
350
154
  0
LAYOUT
  5
1E
102
{ACAD_REACTORS
330
1A
102
}
330
1A
100
AcDbPlotSettings
  1

  2
none_device
  4

  6

 40
0.0
 41
0.0
 42
0.0
 43
0.0
 44
0.0
 45
0.0
 46
0.0
 47
0.0
 48
0.0
 49
0.0
140
0.0
141
0.0
142
1.0
143
1.0
 70
   688
 72
     0
 73
     0
 74
     5
  7

 75
    16
147
1.0
148
0.0
149
0.0
100
AcDbLayout
  1
Layout1
 70
     1
 71
     1
 10
0.0
 20
0.0
 11
12.0
 21
9.0
 12
0.0
 22
0.0
 32
0.0
 14
1.00000000000000E+20
 24
1.00000000000000E+20
 34
1.00000000000000E+20
 15
-1.00000000000000E+20
 25
-1.00000000000000E+20
 35
-1.00000000000000E+20
146
0.0
 13
0.0
 23
0.0
 33
0.0
 16
1.0
 26
0.0
 36
0.0
 17
0.0
 27
1.0
 37
0.0
 76
     0
330
1B
  0
LAYOUT
  5
26
102
{ACAD_REACTORS
330
1A
102
}
330
1A
100
AcDbPlotSettings
  1

  2
none_device
  4

  6

 40
0.0
 41
0.0
 42
0.0
 43
0.0
 44
0.0
 45
0.0
 46
0.0
 47
0.0
 48
0.0
 49
0.0
140
0.0
141
0.0
142
1.0
143
1.0
 70
   688
 72
     0
 73
     0
 74
     5
  7

 75
    16
147
1.0
148
0.0
149
0.0
100
AcDbLayout
  1
Layout2
 70
     1
 71
     2
 10
0.0
 20
0.0
 11
0.0
 21
0.0
 12
0.0
 22
0.0
 32
0.0
 14
0.0
 24
0.0
 34
0.0
 15
0.0
 25
0.0
 35
0.0
146
0.0
 13
0.0
 23
0.0
 33
0.0
 16
1.0
 26
0.0
 36
0.0
 17
0.0
 27
1.0
 37
0.0
 76
     0
330
23
  0
LAYOUT
  5
22
102
{ACAD_REACTORS
330
1A
102
}
330
1A
100
AcDbPlotSettings
  1

  2
none_device
  4

  6

 40
0.0
 41
0.0
 42
0.0
 43
0.0
 44
0.0
 45
0.0
 46
0.0
 47
0.0
 48
0.0
 49
0.0
140
0.0
141
0.0
142
1.0
143
1.0
 70
  1712
 72
     0
 73
     0
 74
     0
  7

 75
     0
147
1.0
148
0.0
149
0.0
100
AcDbLayout
  1
Model
 70
     1
 71
     0
 10
0.0
 20
0.0
 11
12.0
 21
9.0
 12
0.0
 22
0.0
 32
0.0
 14
0.0
 24
0.0
 34
0.0
 15
210.0
 25
297.0
 35
0.0
146
0.0
 13
0.0
 23
0.0
 33
0.0
 16
1.0
 26
0.0
 36
0.0
 17
0.0
 27
1.0
 37
0.0
 76
     0
330
1F
331
29
  0
MATERIAL
  5
3D
102
{ACAD_REACTORS
330
3B
102
}
102
{ACAD_XDICTIONARY
360
177
102
}
330
3B
100
AcDbMaterial
  1
ByBlock
  0
MATERIAL
  5
3C
102
{ACAD_REACTORS
330
3B
102
}
102
{ACAD_XDICTIONARY
360
175
102
}
330
3B
100
AcDbMaterial
  1
ByLayer
  0
MATERIAL
  5
3E
102
{ACAD_REACTORS
330
3B
102
}
102
{ACAD_XDICTIONARY
360
179
102
}
330
3B
100
AcDbMaterial
  1
Global
  0
MLINESTYLE
  5
18
102
{ACAD_REACTORS
330
17
102
}
330
17
100
AcDbMlineStyle
  2
Standard
 70
     0
  3

 62
   256
 51
90.0
 52
90.0
 71
     2
 49
0.5
 62
   256
  6
BYLAYER
 49
-0.5
 62
   256
  6
BYLAYER
  0
ACDBPLACEHOLDER
  5
F
102
{ACAD_REACTORS
330
E
102
}
330
E
  0
VISUALSTYLE
  5
2F
102
{ACAD_REACTORS
330
2A
102
}
102
{ACAD_XDICTIONARY
360
15D
102
}
330
2A
100
AcDbVisualStyle
  2
2dWireframe
 70
     4
 71
     0
 72
     2
 73
     0
 90
        0
 40
-0.6
 41
-30.0
 62
     5
 63
     7
 74
     1
 91
        4
 64
     7
 65
   257
 75
     1
175
     1
 42
1.0
 92
        0
 66
   257
 43
1.0
 76
     1
 77
     6
 78
     2
 67
     7
 79
     5
170
     0
171
     0
290
     0
174
     0
 93
        1
 44
0.0
173
     0
291
     0
 45
0.0
1001
ACAD
1000
AcDbSavedByObjectVersion
1070
     0
  0
VISUALSTYLE
  5
31
102
{ACAD_REACTORS
330
2A
102
}
102
{ACAD_XDICTIONARY
360
161
102
}
330
2A
100
AcDbVisualStyle
  2
3D Hidden
 70
     6
 71
     1
 72
     2
 73
     2
 90
        0
 40
-0.6
 41
-30.0
 62
     5
 63
     7
 74
     2
 91
        2
 64
     7
 65
   257
 75
     2
175
     1
 42
40.0
 92
        0
 66
   257
 43
1.0
 76
     1
 77
     6
 78
     2
 67
     7
 79
     3
170
     0
171
     0
290
     0
174
     0
 93
        1
 44
0.0
173
     0
291
     0
 45
0.0
1001
ACAD
1000
AcDbSavedByObjectVersion
1070
     0
  0
VISUALSTYLE
  5
30
102
{ACAD_REACTORS
330
2A
102
}
102
{ACAD_XDICTIONARY
360
15F
102
}
330
2A
100
AcDbVisualStyle
  2
3dWireframe
 70
     5
 71
     0
 72
     2
 73
     0
 90
        0
 40
-0.6
 41
-30.0
 62
     5
 63
     7
 74
     1
 91
        4
 64
     7
 65
   257
 75
     1
175
     1
 42
1.0
 92
        0
 66
   257
 43
1.0
 76
     1
 77
     6
 78
     2
 67
     7
 79
     5
170
     0
171
     0
290
     0
174
     0
 93
        1
 44
0.0
173
     0
291
     0
 45
0.0
1001
ACAD
1000
AcDbSavedByObjectVersion
1070
     0
  0
VISUALSTYLE
  5
32
102
{ACAD_REACTORS
330
2A
102
}
102
{ACAD_XDICTIONARY
360
163
102
}
330
2A
100
AcDbVisualStyle
  2
Basic
 70
     7
 71
     1
 72
     0
 73
     1
 90
        0
 40
-0.6
 41
-30.0
 62
     5
 63
     7
 74
     0
 91
        4
 64
     7
 65
   257
 75
     1
175
     1
 42
1.0
 92
        8
 66
     7
 43
1.0
 76
     1
 77
     6
 78
     2
 67
     7
 79
     5
170
     0
171
     0
290
     0
174
     0
 93
        1
 44
0.0
173
     0
291
     1
 45
0.0
1001
ACAD
1000
AcDbSavedByObjectVersion
1070
     0
  0
VISUALSTYLE
  5
36
102
{ACAD_REACTORS
330
2A
102
}
102
{ACAD_XDICTIONARY
360
16B
102
}
330
2A
100
AcDbVisualStyle
  2
Brighten
 70
    12
 71
     2
 72
     2
 73
     0
 90
        0
 40
-0.6
 41
-30.0
 62
     5
 63
     7
 74
     1
 91
        4
 64
     7
 65
   257
 75
     1
175
     1
 42
1.0
 92
        8
 66
     7
 43
1.0
 76
     1
 77
     6
 78
     2
 67
     7
 79
     5
170
     0
171
     0
290
     0
174
     0
 93
        1
 44
50.0
173
     0
291
     1
 45
0.0
1001
ACAD
1000
AcDbSavedByObjectVersion
1070
     0
  0
VISUALSTYLE
  5
3A
102
{ACAD_REACTORS
330
2A
102
}
102
{ACAD_XDICTIONARY
360
173
102
}
330
2A
100
AcDbVisualStyle
  2
ColorChange
 70
    16
 71
     2
 72
     2
 73
     3
 90
        0
 40
-0.6
 41
-30.0
 62
     5
 63
     8
 74
     1
 91
        4
 64
     7
 65
   257
 75
     1
175
     1
 42
1.0
 92
        8
 66
     8
 43
1.0
 76
     1
 77
     6
 78
     2
 67
     7
 79
     5
170
     0
171
     0
290
     0
174
     0
 93
        1
 44
0.0
173
     0
291
     1
 45
0.0
1001
ACAD
1000
AcDbSavedByObjectVersion
1070
     0
  0
VISUALSTYLE
  5
34
102
{ACAD_REACTORS
330
2A
102
}
102
{ACAD_XDICTIONARY
360
167
102
}
330
2A
100
AcDbVisualStyle
  2
Conceptual
 70
     9
 71
     3
 72
     2
 73
     0
 90
        0
 40
-0.6
 41
-30.0
 62
     5
 63
     7
 74
     2
 91
        2
 64
     7
 65
   257
 75
     1
175
     1
 42
40.0
 92
        8
 66
     7
 43
1.0
 76
     1
 77
     6
 78
     2
 67
     7
 79
     3
170
     0
171
     0
290
     0
174
     0
 93
        1
 44
0.0
173
     0
291
     0
 45
0.0
1001
ACAD
1000
AcDbSavedByObjectVersion
1070
     0
  0
VISUALSTYLE
  5
35
102
{ACAD_REACTORS
330
2A
102
}
102
{ACAD_XDICTIONARY
360
169
102
}
330
2A
100
AcDbVisualStyle
  2
Dim
 70
    11
 71
     2
 72
     2
 73
     0
 90
        0
 40
-0.6
 41
-30.0
 62
     5
 63
     7
 74
     1
 91
        4
 64
     7
 65
   257
 75
     1
175
     1
 42
1.0
 92
        8
 66
     7
 43
1.0
 76
     1
 77
     6
 78
     2
 67
     7
 79
     5
170
     0
171
     0
290
     0
174
     0
 93
        1
 44
-50.0
173
     0
291
     1
 45
0.0
1001
ACAD
1000
AcDbSavedByObjectVersion
1070
     0
  0
VISUALSTYLE
  5
39
102
{ACAD_REACTORS
330
2A
102
}
102
{ACAD_XDICTIONARY
360
171
102
}
330
2A
100
AcDbVisualStyle
  2
Facepattern
 70
    15
 71
     2
 72
     2
 73
     0
 90
        0
 40
-0.6
 41
-30.0
 62
     5
 63
     7
 74
     1
 91
        4
 64
     7
 65
   257
 75
     1
175
     1
 42
1.0
 92
        8
 66
     7
 43
1.0
 76
     1
 77
     6
 78
     2
 67
     7
 79
     5
170
     0
171
     0
290
     0
174
     0
 93
        1
 44
0.0
173
     0
291
     1
 45
0.0
1001
ACAD
1000
AcDbSavedByObjectVersion
1070
     0
  0
VISUALSTYLE
  5
2B
102
{ACAD_REACTORS
330
2A
102
}
102
{ACAD_XDICTIONARY
360
155
102
}
330
2A
100
AcDbVisualStyle
  2
Flat
 70
     0
 71
     2
 72
     1
 73
     1
 90
        2
 40
-0.6
 41
30.0
 62
     5
 63
     7
 74
     0
 91
        4
 64
     7
 65
   257
 75
     1
175
     1
 42
1.0
 92
        8
 66
     7
 43
1.0
 76
     1
 77
     6
 78
     2
 67
     7
 79
     5
170
     0
171
     0
290
     0
174
     0
 93
       13
 44
0.0
173
     0
291
     1
 45
0.0
1001
ACAD
1000
AcDbSavedByObjectVersion
1070
     0
  0
VISUALSTYLE
  5
2C
102
{ACAD_REACTORS
330
2A
102
}
102
{ACAD_XDICTIONARY
360
157
102
}
330
2A
100
AcDbVisualStyle
  2
FlatWithEdges
 70
     1
 71
     2
 72
     1
 73
     1
 90
        2
 40
-0.6
 41
30.0
 62
     5
 63
     7
 74
     1
 91
        4
 64
     7
 65
   257
 75
     1
175
     1
 42
1.0
 92
        0
 66
   257
 43
1.0
 76
     1
 77
     6
 78
     2
 67
     7
 79
     5
170
     0
171
     0
290
     0
174
     0
 93
       13
 44
0.0
173
     0
291
     1
 45
0.0
1001
ACAD
1000
AcDbSavedByObjectVersion
1070
     0
  0
VISUALSTYLE
  5
2D
102
{ACAD_REACTORS
330
2A
102
}
102
{ACAD_XDICTIONARY
360
159
102
}
330
2A
100
AcDbVisualStyle
  2
Gouraud
 70
     2
 71
     2
 72
     2
 73
     1
 90
        2
 40
-0.6
 41
30.0
 62
     5
 63
     7
 74
     0
 91
        4
 64
     7
 65
   257
 75
     1
175
     1
 42
1.0
 92
        0
 66
     7
 43
1.0
 76
     1
 77
     6
 78
     2
 67
     7
 79
     5
170
     0
171
     0
290
     0
174
     0
 93
       13
 44
0.0
173
     0
291
     1
 45
0.0
1001
ACAD
1000
AcDbSavedByObjectVersion
1070
     0
  0
VISUALSTYLE
  5
2E
102
{ACAD_REACTORS
330
2A
102
}
102
{ACAD_XDICTIONARY
360
15B
102
}
330
2A
100
AcDbVisualStyle
  2
GouraudWithEdges
 70
     3
 71
     2
 72
     2
 73
     1
 90
        2
 40
-0.6
 41
30.0
 62
     5
 63
     7
 74
     1
 91
        4
 64
     7
 65
   257
 75
     1
175
     1
 42
1.0
 92
        0
 66
   257
 43
1.0
 76
     1
 77
     6
 78
     2
 67
     7
 79
     5
170
     0
171
     0
290
     0
174
     0
 93
       13
 44
0.0
173
     0
291
     1
 45
0.0
1001
ACAD
1000
AcDbSavedByObjectVersion
1070
     0
  0
VISUALSTYLE
  5
38
102
{ACAD_REACTORS
330
2A
102
}
102
{ACAD_XDICTIONARY
360
16F
102
}
330
2A
100
AcDbVisualStyle
  2
Linepattern
 70
    14
 71
     2
 72
     2
 73
     0
 90
        0
 40
-0.6
 41
-30.0
 62
     5
 63
     7
 74
     1
 91
        4
 64
     7
 65
   257
 75
     7
175
     7
 42
1.0
 92
        8
 66
     7
 43
1.0
 76
     1
 77
     6
 78
     2
 67
     7
 79
     5
170
     0
171
     0
290
     0
174
     0
 93
        1
 44
0.0
173
     0
291
     1
 45
0.0
1001
ACAD
1000
AcDbSavedByObjectVersion
1070
     0
  0
VISUALSTYLE
  5
33
102
{ACAD_REACTORS
330
2A
102
}
102
{ACAD_XDICTIONARY
360
165
102
}
330
2A
100
AcDbVisualStyle
  2
Realistic
 70
     8
 71
     2
 72
     2
 73
     0
 90
        0
 40
-0.6
 41
-30.0
 62
     5
 63
     7
 74
     1
 91
        0
 64
     7
 65
   257
 75
     1
175
     1
 42
1.0
 92
        8
 66
     8
 43
1.0
 76
     1
 77
     6
 78
     2
 67
     7
 79
     5
170
     0
171
     0
290
     0
174
     0
 93
       13
 44
0.0
173
     0
291
     0
 45
0.0
1001
ACAD
1000
AcDbSavedByObjectVersion
1070
     0
  0
VISUALSTYLE
  5
37
102
{ACAD_REACTORS
330
2A
102
}
102
{ACAD_XDICTIONARY
360
16D
102
}
330
2A
100
AcDbVisualStyle
  2
Thicken
 70
    13
 71
     2
 72
     2
 73
     0
 90
        0
 40
-0.6
 41
-30.0
 62
     5
 63
     7
 74
     1
 91
        4
 64
     7
 65
   257
 75
     1
175
     1
 42
1.0
 92
       12
 66
     7
 43
1.0
 76
     1
 77
     6
 78
     2
 67
     7
 79
     5
170
     0
171
     0
290
     0
174
     0
 93
        1
 44
0.0
173
     0
291
     1
 45
0.0
1001
ACAD
1000
AcDbSavedByObjectVersion
1070
     0
  0
DICTIONARYVAR
  5
153
102
{ACAD_REACTORS
330
150
102
}
330
150
100
DictionaryVariables
280
     0
  1
2
  0
DICTIONARYVAR
  5
154
102
{ACAD_REACTORS
330
150
102
}
330
150
100
DictionaryVariables
280
     0
  1
1
  0
DICTIONARY
  5
177
330
3D
100
AcDbDictionary
280
     1
281
     1
  3
ACAD_XREC_ROUNDTRIP
360
178
  0
DICTIONARY
  5
175
330
3C
100
AcDbDictionary
280
     1
281
     1
  3
ACAD_XREC_ROUNDTRIP
360
176
  0
DICTIONARY
  5
179
330
3E
100
AcDbDictionary
280
     1
281
     1
  3
ACAD_XREC_ROUNDTRIP
360
17A
  0
DICTIONARY
  5
15D
330
2F
100
AcDbDictionary
280
     1
281
     1
  3
ACAD_XREC_ROUNDTRIP
360
15E
  0
DICTIONARY
  5
161
330
31
100
AcDbDictionary
280
     1
281
     1
  3
ACAD_XREC_ROUNDTRIP
360
162
  0
DICTIONARY
  5
15F
330
30
100
AcDbDictionary
280
     1
281
     1
  3
ACAD_XREC_ROUNDTRIP
360
160
  0
DICTIONARY
  5
163
330
32
100
AcDbDictionary
280
     1
281
     1
  3
ACAD_XREC_ROUNDTRIP
360
164
  0
DICTIONARY
  5
16B
330
36
100
AcDbDictionary
280
     1
281
     1
  3
ACAD_XREC_ROUNDTRIP
360
16C
  0
DICTIONARY
  5
173
330
3A
100
AcDbDictionary
280
     1
281
     1
  3
ACAD_XREC_ROUNDTRIP
360
174
  0
DICTIONARY
  5
167
330
34
100
AcDbDictionary
280
     1
281
     1
  3
ACAD_XREC_ROUNDTRIP
360
168
  0
DICTIONARY
  5
169
330
35
100
AcDbDictionary
280
     1
281
     1
  3
ACAD_XREC_ROUNDTRIP
360
16A
  0
DICTIONARY
  5
171
330
39
100
AcDbDictionary
280
     1
281
     1
  3
ACAD_XREC_ROUNDTRIP
360
172
  0
DICTIONARY
  5
155
330
2B
100
AcDbDictionary
280
     1
281
     1
  3
ACAD_XREC_ROUNDTRIP
360
156
  0
DICTIONARY
  5
157
330
2C
100
AcDbDictionary
280
     1
281
     1
  3
ACAD_XREC_ROUNDTRIP
360
158
  0
DICTIONARY
  5
159
330
2D
100
AcDbDictionary
280
     1
281
     1
  3
ACAD_XREC_ROUNDTRIP
360
15A
  0
DICTIONARY
  5
15B
330
2E
100
AcDbDictionary
280
     1
281
     1
  3
ACAD_XREC_ROUNDTRIP
360
15C
  0
DICTIONARY
  5
16F
330
38
100
AcDbDictionary
280
     1
281
     1
  3
ACAD_XREC_ROUNDTRIP
360
170
  0
DICTIONARY
  5
165
330
33
100
AcDbDictionary
280
     1
281
     1
  3
ACAD_XREC_ROUNDTRIP
360
166
  0
DICTIONARY
  5
16D
330
37
100
AcDbDictionary
280
     1
281
     1
  3
ACAD_XREC_ROUNDTRIP
360
16E
  0
XRECORD
  5
178
102
{ACAD_REACTORS
330
177
102
}
330
177
100
AcDbXrecord
280
     1
102
MATERIAL
148
0.0
149
0.0
149
0.0
 93
        0
 94
      127
282
     0
 72
     1
 77
     1
171
     1
175
     1
179
     1
273
     0
  0
XRECORD
  5
176
102
{ACAD_REACTORS
330
175
102
}
330
175
100
AcDbXrecord
280
     1
102
MATERIAL
148
0.0
149
0.0
149
0.0
 93
        0
 94
      127
282
     0
 72
     1
 77
     1
171
     1
175
     1
179
     1
273
     0
  0
XRECORD
  5
17A
102
{ACAD_REACTORS
330
179
102
}
330
179
100
AcDbXrecord
280
     1
102
MATERIAL
148
0.0
149
0.0
149
0.0
 93
        0
 94
      127
282
     0
 72
     1
 77
     1
171
     1
175
     1
179
     1
273
     0
  0
XRECORD
  5
15E
102
{ACAD_REACTORS
330
15D
102
}
330
15D
100
AcDbXrecord
280
     1
102
RTVSPropertyOp0
 70
     1
102
RTVSPropertyOp1
 70
     1
102
RTVSPropertyOp2
 70
     1
102
RTVSPropertyOp3
 70
     1
102
RTVSPropertyOp4
 70
     1
102
RTVSPropertyOp5
 70
     1
102
RTVSPropertyOp6
 70
     1
102
RTVSPropertyOp7
 70
     1
102
RTVSPropertyOp8
 70
     1
102
RTVSPropertyOp9
 70
     1
102
RTVSPropertyOp10
 70
     1
102
RTVSPropertyOp11
 70
     1
102
RTVSPropertyOp12
 70
     1
102
RTVSPropertyOp13
 70
     1
102
RTVSPropertyOp14
 70
     1
102
RTVSPropertyOp15
 70
     1
102
RTVSPropertyOp16
 70
     1
102
RTVSPropertyOp17
 70
     1
102
RTVSPropertyOp18
 70
     1
102
RTVSPropertyOp19
 70
     1
102
RTVSPropertyOp20
 70
     1
102
RTVSPropertyOp21
 70
     1
102
RTVSPropertyOp22
 70
     1
102
RTVSPropertyOp23
 70
     1
102
RTVSPropertyOp24
 70
     1
102
RTVSPropertyOp25
 70
     1
102
RTVSPropertyOp26
 70
     1
102
RTVSPropertyOp27
 70
     1
102
RTVSPropertyOp28
 70
     1
102
RTVSPropertyOp29
 70
     1
102
RTVSPropertyOp30
 70
     1
102
RTVSPropertyOp31
 70
     1
102
RTVSPropertyOp32
 70
     1
  0
XRECORD
  5
162
102
{ACAD_REACTORS
330
161
102
}
330
161
100
AcDbXrecord
280
     1
102
RTVSPropertyOp0
 70
     1
102
RTVSPropertyOp1
 70
     1
102
RTVSPropertyOp2
 70
     1
102
RTVSPropertyOp3
 70
     1
102
RTVSPropertyOp4
 70
     1
102
RTVSPropertyOp5
 70
     1
102
RTVSPropertyOp6
 70
     1
102
RTVSPropertyOp7
 70
     1
102
RTVSPropertyOp8
 70
     1
102
RTVSPropertyOp9
 70
     1
102
RTVSPropertyOp10
 70
     1
102
RTVSPropertyOp11
 70
     1
102
RTVSPropertyOp12
 70
     1
102
RTVSPropertyOp13
 70
     1
102
RTVSPropertyOp14
 70
     1
102
RTVSPropertyOp15
 70
     1
102
RTVSPropertyOp16
 70
     1
102
RTVSPropertyOp17
 70
     1
102
RTVSPropertyOp18
 70
     1
102
RTVSPropertyOp19
 70
     1
102
RTVSPropertyOp20
 70
     1
102
RTVSPropertyOp21
 70
     1
102
RTVSPropertyOp22
 70
     1
102
RTVSPropertyOp23
 70
     1
102
RTVSPropertyOp24
 70
     1
102
RTVSPropertyOp25
 70
     1
102
RTVSPropertyOp26
 70
     1
102
RTVSPropertyOp27
 70
     1
102
RTVSPropertyOp28
 70
     1
102
RTVSPropertyOp29
 70
     1
102
RTVSPropertyOp30
 70
     1
102
RTVSPropertyOp31
 70
     1
102
RTVSPropertyOp32
 70
     1
  0
XRECORD
  5
160
102
{ACAD_REACTORS
330
15F
102
}
330
15F
100
AcDbXrecord
280
     1
102
RTVSPropertyOp0
 70
     1
102
RTVSPropertyOp1
 70
     1
102
RTVSPropertyOp2
 70
     1
102
RTVSPropertyOp3
 70
     1
102
RTVSPropertyOp4
 70
     1
102
RTVSPropertyOp5
 70
     1
102
RTVSPropertyOp6
 70
     1
102
RTVSPropertyOp7
 70
     1
102
RTVSPropertyOp8
 70
     1
102
RTVSPropertyOp9
 70
     1
102
RTVSPropertyOp10
 70
     1
102
RTVSPropertyOp11
 70
     1
102
RTVSPropertyOp12
 70
     1
102
RTVSPropertyOp13
 70
     1
102
RTVSPropertyOp14
 70
     1
102
RTVSPropertyOp15
 70
     1
102
RTVSPropertyOp16
 70
     1
102
RTVSPropertyOp17
 70
     1
102
RTVSPropertyOp18
 70
     1
102
RTVSPropertyOp19
 70
     1
102
RTVSPropertyOp20
 70
     1
102
RTVSPropertyOp21
 70
     1
102
RTVSPropertyOp22
 70
     1
102
RTVSPropertyOp23
 70
     1
102
RTVSPropertyOp24
 70
     1
102
RTVSPropertyOp25
 70
     1
102
RTVSPropertyOp26
 70
     1
102
RTVSPropertyOp27
 70
     1
102
RTVSPropertyOp28
 70
     1
102
RTVSPropertyOp29
 70
     1
102
RTVSPropertyOp30
 70
     1
102
RTVSPropertyOp31
 70
     1
102
RTVSPropertyOp32
 70
     1
  0
XRECORD
  5
164
102
{ACAD_REACTORS
330
163
102
}
330
163
100
AcDbXrecord
280
     1
102
RTVSPropertyOp0
 70
     1
102
RTVSPropertyOp1
 70
     1
102
RTVSPropertyOp2
 70
     1
102
RTVSPropertyOp3
 70
     1
102
RTVSPropertyOp4
 70
     1
102
RTVSPropertyOp5
 70
     1
102
RTVSPropertyOp6
 70
     1
102
RTVSPropertyOp7
 70
     1
102
RTVSPropertyOp8
 70
     1
102
RTVSPropertyOp9
 70
     1
102
RTVSPropertyOp10
 70
     1
102
RTVSPropertyOp11
 70
     1
102
RTVSPropertyOp12
 70
     1
102
RTVSPropertyOp13
 70
     1
102
RTVSPropertyOp14
 70
     1
102
RTVSPropertyOp15
 70
     1
102
RTVSPropertyOp16
 70
     1
102
RTVSPropertyOp17
 70
     1
102
RTVSPropertyOp18
 70
     1
102
RTVSPropertyOp19
 70
     1
102
RTVSPropertyOp20
 70
     1
102
RTVSPropertyOp21
 70
     1
102
RTVSPropertyOp22
 70
     1
102
RTVSPropertyOp23
 70
     1
102
RTVSPropertyOp24
 70
     1
102
RTVSPropertyOp25
 70
     1
102
RTVSPropertyOp26
 70
     1
102
RTVSPropertyOp27
 70
     1
102
RTVSPropertyOp28
 70
     1
102
RTVSPropertyOp29
 70
     1
102
RTVSPropertyOp30
 70
     1
102
RTVSPropertyOp31
 70
     1
102
RTVSPropertyOp32
 70
     1
  0
XRECORD
  5
16C
102
{ACAD_REACTORS
330
16B
102
}
330
16B
100
AcDbXrecord
280
     1
102
RTVSPropertyOp0
 70
     1
102
RTVSPropertyOp1
 70
     1
102
RTVSPropertyOp2
 70
     1
102
RTVSPropertyOp3
 70
     1
102
RTVSPropertyOp4
 70
     1
102
RTVSPropertyOp5
 70
     1
102
RTVSPropertyOp6
 70
     1
102
RTVSPropertyOp7
 70
     1
102
RTVSPropertyOp8
 70
     1
102
RTVSPropertyOp9
 70
     1
102
RTVSPropertyOp10
 70
     1
102
RTVSPropertyOp11
 70
     1
102
RTVSPropertyOp12
 70
     1
102
RTVSPropertyOp13
 70
     1
102
RTVSPropertyOp14
 70
     1
102
RTVSPropertyOp15
 70
     1
102
RTVSPropertyOp16
 70
     1
102
RTVSPropertyOp17
 70
     1
102
RTVSPropertyOp18
 70
     1
102
RTVSPropertyOp19
 70
     1
102
RTVSPropertyOp20
 70
     1
102
RTVSPropertyOp21
 70
     1
102
RTVSPropertyOp22
 70
     1
102
RTVSPropertyOp23
 70
     1
102
RTVSPropertyOp24
 70
     1
102
RTVSPropertyOp25
 70
     1
102
RTVSPropertyOp26
 70
     1
102
RTVSPropertyOp27
 70
     1
102
RTVSPropertyOp28
 70
     1
102
RTVSPropertyOp29
 70
     1
102
RTVSPropertyOp30
 70
     1
102
RTVSPropertyOp31
 70
     1
102
RTVSPropertyOp32
 70
     1
  0
XRECORD
  5
174
102
{ACAD_REACTORS
330
173
102
}
330
173
100
AcDbXrecord
280
     1
102
RTVSPropertyOp0
 70
     1
102
RTVSPropertyOp1
 70
     1
102
RTVSPropertyOp2
 70
     1
102
RTVSPropertyOp3
 70
     1
102
RTVSPropertyOp4
 70
     1
102
RTVSPropertyOp5
 70
     1
102
RTVSPropertyOp6
 70
     1
102
RTVSPropertyOp7
 70
     1
102
RTVSPropertyOp8
 70
     1
102
RTVSPropertyOp9
 70
     1
102
RTVSPropertyOp10
 70
     1
102
RTVSPropertyOp11
 70
     1
102
RTVSPropertyOp12
 70
     1
102
RTVSPropertyOp13
 70
     1
102
RTVSPropertyOp14
 70
     1
102
RTVSPropertyOp15
 70
     1
102
RTVSPropertyOp16
 70
     1
102
RTVSPropertyOp17
 70
     1
102
RTVSPropertyOp18
 70
     1
102
RTVSPropertyOp19
 70
     1
102
RTVSPropertyOp20
 70
     1
102
RTVSPropertyOp21
 70
     1
102
RTVSPropertyOp22
 70
     1
102
RTVSPropertyOp23
 70
     1
102
RTVSPropertyOp24
 70
     1
102
RTVSPropertyOp25
 70
     1
102
RTVSPropertyOp26
 70
     1
102
RTVSPropertyOp27
 70
     1
102
RTVSPropertyOp28
 70
     1
102
RTVSPropertyOp29
 70
     1
102
RTVSPropertyOp30
 70
     1
102
RTVSPropertyOp31
 70
     1
102
RTVSPropertyOp32
 70
     1
  0
XRECORD
  5
168
102
{ACAD_REACTORS
330
167
102
}
330
167
100
AcDbXrecord
280
     1
102
RTVSPropertyOp0
 70
     1
102
RTVSPropertyOp1
 70
     1
102
RTVSPropertyOp2
 70
     1
102
RTVSPropertyOp3
 70
     1
102
RTVSPropertyOp4
 70
     1
102
RTVSPropertyOp5
 70
     1
102
RTVSPropertyOp6
 70
     1
102
RTVSPropertyOp7
 70
     1
102
RTVSPropertyOp8
 70
     1
102
RTVSPropertyOp9
 70
     1
102
RTVSPropertyOp10
 70
     1
102
RTVSPropertyOp11
 70
     1
102
RTVSPropertyOp12
 70
     1
102
RTVSPropertyOp13
 70
     1
102
RTVSPropertyOp14
 70
     1
102
RTVSPropertyOp15
 70
     1
102
RTVSPropertyOp16
 70
     1
102
RTVSPropertyOp17
 70
     1
102
RTVSPropertyOp18
 70
     1
102
RTVSPropertyOp19
 70
     1
102
RTVSPropertyOp20
 70
     1
102
RTVSPropertyOp21
 70
     1
102
RTVSPropertyOp22
 70
     1
102
RTVSPropertyOp23
 70
     1
102
RTVSPropertyOp24
 70
     1
102
RTVSPropertyOp25
 70
     1
102
RTVSPropertyOp26
 70
     1
102
RTVSPropertyOp27
 70
     1
102
RTVSPropertyOp28
 70
     1
102
RTVSPropertyOp29
 70
     1
102
RTVSPropertyOp30
 70
     1
102
RTVSPropertyOp31
 70
     1
102
RTVSPropertyOp32
 70
     1
  0
XRECORD
  5
16A
102
{ACAD_REACTORS
330
169
102
}
330
169
100
AcDbXrecord
280
     1
102
RTVSPropertyOp0
 70
     1
102
RTVSPropertyOp1
 70
     1
102
RTVSPropertyOp2
 70
     1
102
RTVSPropertyOp3
 70
     1
102
RTVSPropertyOp4
 70
     1
102
RTVSPropertyOp5
 70
     1
102
RTVSPropertyOp6
 70
     1
102
RTVSPropertyOp7
 70
     1
102
RTVSPropertyOp8
 70
     1
102
RTVSPropertyOp9
 70
     1
102
RTVSPropertyOp10
 70
     1
102
RTVSPropertyOp11
 70
     1
102
RTVSPropertyOp12
 70
     1
102
RTVSPropertyOp13
 70
     1
102
RTVSPropertyOp14
 70
     1
102
RTVSPropertyOp15
 70
     1
102
RTVSPropertyOp16
 70
     1
102
RTVSPropertyOp17
 70
     1
102
RTVSPropertyOp18
 70
     1
102
RTVSPropertyOp19
 70
     1
102
RTVSPropertyOp20
 70
     1
102
RTVSPropertyOp21
 70
     1
102
RTVSPropertyOp22
 70
     1
102
RTVSPropertyOp23
 70
     1
102
RTVSPropertyOp24
 70
     1
102
RTVSPropertyOp25
 70
     1
102
RTVSPropertyOp26
 70
     1
102
RTVSPropertyOp27
 70
     1
102
RTVSPropertyOp28
 70
     1
102
RTVSPropertyOp29
 70
     1
102
RTVSPropertyOp30
 70
     1
102
RTVSPropertyOp31
 70
     1
102
RTVSPropertyOp32
 70
     1
  0
XRECORD
  5
172
102
{ACAD_REACTORS
330
171
102
}
330
171
100
AcDbXrecord
280
     1
102
RTVSPropertyOp0
 70
     1
102
RTVSPropertyOp1
 70
     1
102
RTVSPropertyOp2
 70
     1
102
RTVSPropertyOp3
 70
     1
102
RTVSPropertyOp4
 70
     1
102
RTVSPropertyOp5
 70
     1
102
RTVSPropertyOp6
 70
     1
102
RTVSPropertyOp7
 70
     1
102
RTVSPropertyOp8
 70
     1
102
RTVSPropertyOp9
 70
     1
102
RTVSPropertyOp10
 70
     1
102
RTVSPropertyOp11
 70
     1
102
RTVSPropertyOp12
 70
     1
102
RTVSPropertyOp13
 70
     1
102
RTVSPropertyOp14
 70
     1
102
RTVSPropertyOp15
 70
     1
102
RTVSPropertyOp16
 70
     1
102
RTVSPropertyOp17
 70
     1
102
RTVSPropertyOp18
 70
     1
102
RTVSPropertyOp19
 70
     1
102
RTVSPropertyOp20
 70
     1
102
RTVSPropertyOp21
 70
     1
102
RTVSPropertyOp22
 70
     1
102
RTVSPropertyOp23
 70
     1
102
RTVSPropertyOp24
 70
     1
102
RTVSPropertyOp25
 70
     1
102
RTVSPropertyOp26
 70
     1
102
RTVSPropertyOp27
 70
     1
102
RTVSPropertyOp28
 70
     1
102
RTVSPropertyOp29
 70
     1
102
RTVSPropertyOp30
 70
     1
102
RTVSPropertyOp31
 70
     1
102
RTVSPropertyOp32
 70
     1
  0
XRECORD
  5
156
102
{ACAD_REACTORS
330
155
102
}
330
155
100
AcDbXrecord
280
     1
102
RTVSPropertyOp0
 70
     1
102
RTVSPropertyOp1
 70
     1
102
RTVSPropertyOp2
 70
     1
102
RTVSPropertyOp3
 70
     1
102
RTVSPropertyOp4
 70
     1
102
RTVSPropertyOp5
 70
     1
102
RTVSPropertyOp6
 70
     1
102
RTVSPropertyOp7
 70
     1
102
RTVSPropertyOp8
 70
     1
102
RTVSPropertyOp9
 70
     1
102
RTVSPropertyOp10
 70
     1
102
RTVSPropertyOp11
 70
     1
102
RTVSPropertyOp12
 70
     1
102
RTVSPropertyOp13
 70
     1
102
RTVSPropertyOp14
 70
     1
102
RTVSPropertyOp15
 70
     1
102
RTVSPropertyOp16
 70
     1
102
RTVSPropertyOp17
 70
     1
102
RTVSPropertyOp18
 70
     1
102
RTVSPropertyOp19
 70
     1
102
RTVSPropertyOp20
 70
     1
102
RTVSPropertyOp21
 70
     1
102
RTVSPropertyOp22
 70
     1
102
RTVSPropertyOp23
 70
     1
102
RTVSPropertyOp24
 70
     1
102
RTVSPropertyOp25
 70
     1
102
RTVSPropertyOp26
 70
     1
102
RTVSPropertyOp27
 70
     1
102
RTVSPropertyOp28
 70
     1
102
RTVSPropertyOp29
 70
     1
102
RTVSPropertyOp30
 70
     1
102
RTVSPropertyOp31
 70
     1
102
RTVSPropertyOp32
 70
     1
  0
XRECORD
  5
158
102
{ACAD_REACTORS
330
157
102
}
330
157
100
AcDbXrecord
280
     1
102
RTVSPropertyOp0
 70
     1
102
RTVSPropertyOp1
 70
     1
102
RTVSPropertyOp2
 70
     1
102
RTVSPropertyOp3
 70
     1
102
RTVSPropertyOp4
 70
     1
102
RTVSPropertyOp5
 70
     1
102
RTVSPropertyOp6
 70
     1
102
RTVSPropertyOp7
 70
     1
102
RTVSPropertyOp8
 70
     1
102
RTVSPropertyOp9
 70
     1
102
RTVSPropertyOp10
 70
     1
102
RTVSPropertyOp11
 70
     1
102
RTVSPropertyOp12
 70
     1
102
RTVSPropertyOp13
 70
     1
102
RTVSPropertyOp14
 70
     1
102
RTVSPropertyOp15
 70
     1
102
RTVSPropertyOp16
 70
     1
102
RTVSPropertyOp17
 70
     1
102
RTVSPropertyOp18
 70
     1
102
RTVSPropertyOp19
 70
     1
102
RTVSPropertyOp20
 70
     1
102
RTVSPropertyOp21
 70
     1
102
RTVSPropertyOp22
 70
     1
102
RTVSPropertyOp23
 70
     1
102
RTVSPropertyOp24
 70
     1
102
RTVSPropertyOp25
 70
     1
102
RTVSPropertyOp26
 70
     1
102
RTVSPropertyOp27
 70
     1
102
RTVSPropertyOp28
 70
     1
102
RTVSPropertyOp29
 70
     1
102
RTVSPropertyOp30
 70
     1
102
RTVSPropertyOp31
 70
     1
102
RTVSPropertyOp32
 70
     1
  0
XRECORD
  5
15A
102
{ACAD_REACTORS
330
159
102
}
330
159
100
AcDbXrecord
280
     1
102
RTVSPropertyOp0
 70
     1
102
RTVSPropertyOp1
 70
     1
102
RTVSPropertyOp2
 70
     1
102
RTVSPropertyOp3
 70
     1
102
RTVSPropertyOp4
 70
     1
102
RTVSPropertyOp5
 70
     1
102
RTVSPropertyOp6
 70
     1
102
RTVSPropertyOp7
 70
     1
102
RTVSPropertyOp8
 70
     1
102
RTVSPropertyOp9
 70
     1
102
RTVSPropertyOp10
 70
     1
102
RTVSPropertyOp11
 70
     1
102
RTVSPropertyOp12
 70
     1
102
RTVSPropertyOp13
 70
     1
102
RTVSPropertyOp14
 70
     1
102
RTVSPropertyOp15
 70
     1
102
RTVSPropertyOp16
 70
     1
102
RTVSPropertyOp17
 70
     1
102
RTVSPropertyOp18
 70
     1
102
RTVSPropertyOp19
 70
     1
102
RTVSPropertyOp20
 70
     1
102
RTVSPropertyOp21
 70
     1
102
RTVSPropertyOp22
 70
     1
102
RTVSPropertyOp23
 70
     1
102
RTVSPropertyOp24
 70
     1
102
RTVSPropertyOp25
 70
     1
102
RTVSPropertyOp26
 70
     1
102
RTVSPropertyOp27
 70
     1
102
RTVSPropertyOp28
 70
     1
102
RTVSPropertyOp29
 70
     1
102
RTVSPropertyOp30
 70
     1
102
RTVSPropertyOp31
 70
     1
102
RTVSPropertyOp32
 70
     1
  0
XRECORD
  5
15C
102
{ACAD_REACTORS
330
15B
102
}
330
15B
100
AcDbXrecord
280
     1
102
RTVSPropertyOp0
 70
     1
102
RTVSPropertyOp1
 70
     1
102
RTVSPropertyOp2
 70
     1
102
RTVSPropertyOp3
 70
     1
102
RTVSPropertyOp4
 70
     1
102
RTVSPropertyOp5
 70
     1
102
RTVSPropertyOp6
 70
     1
102
RTVSPropertyOp7
 70
     1
102
RTVSPropertyOp8
 70
     1
102
RTVSPropertyOp9
 70
     1
102
RTVSPropertyOp10
 70
     1
102
RTVSPropertyOp11
 70
     1
102
RTVSPropertyOp12
 70
     1
102
RTVSPropertyOp13
 70
     1
102
RTVSPropertyOp14
 70
     1
102
RTVSPropertyOp15
 70
     1
102
RTVSPropertyOp16
 70
     1
102
RTVSPropertyOp17
 70
     1
102
RTVSPropertyOp18
 70
     1
102
RTVSPropertyOp19
 70
     1
102
RTVSPropertyOp20
 70
     1
102
RTVSPropertyOp21
 70
     1
102
RTVSPropertyOp22
 70
     1
102
RTVSPropertyOp23
 70
     1
102
RTVSPropertyOp24
 70
     1
102
RTVSPropertyOp25
 70
     1
102
RTVSPropertyOp26
 70
     1
102
RTVSPropertyOp27
 70
     1
102
RTVSPropertyOp28
 70
     1
102
RTVSPropertyOp29
 70
     1
102
RTVSPropertyOp30
 70
     1
102
RTVSPropertyOp31
 70
     1
102
RTVSPropertyOp32
 70
     1
  0
XRECORD
  5
170
102
{ACAD_REACTORS
330
16F
102
}
330
16F
100
AcDbXrecord
280
     1
102
RTVSPropertyOp0
 70
     1
102
RTVSPropertyOp1
 70
     1
102
RTVSPropertyOp2
 70
     1
102
RTVSPropertyOp3
 70
     1
102
RTVSPropertyOp4
 70
     1
102
RTVSPropertyOp5
 70
     1
102
RTVSPropertyOp6
 70
     1
102
RTVSPropertyOp7
 70
     1
102
RTVSPropertyOp8
 70
     1
102
RTVSPropertyOp9
 70
     1
102
RTVSPropertyOp10
 70
     1
102
RTVSPropertyOp11
 70
     1
102
RTVSPropertyOp12
 70
     1
102
RTVSPropertyOp13
 70
     1
102
RTVSPropertyOp14
 70
     1
102
RTVSPropertyOp15
 70
     1
102
RTVSPropertyOp16
 70
     1
102
RTVSPropertyOp17
 70
     1
102
RTVSPropertyOp18
 70
     1
102
RTVSPropertyOp19
 70
     1
102
RTVSPropertyOp20
 70
     1
102
RTVSPropertyOp21
 70
     1
102
RTVSPropertyOp22
 70
     1
102
RTVSPropertyOp23
 70
     1
102
RTVSPropertyOp24
 70
     1
102
RTVSPropertyOp25
 70
     1
102
RTVSPropertyOp26
 70
     1
102
RTVSPropertyOp27
 70
     1
102
RTVSPropertyOp28
 70
     1
102
RTVSPropertyOp29
 70
     1
102
RTVSPropertyOp30
 70
     1
102
RTVSPropertyOp31
 70
     1
102
RTVSPropertyOp32
 70
     1
  0
XRECORD
  5
166
102
{ACAD_REACTORS
330
165
102
}
330
165
100
AcDbXrecord
280
     1
102
RTVSPropertyOp0
 70
     1
102
RTVSPropertyOp1
 70
     1
102
RTVSPropertyOp2
 70
     1
102
RTVSPropertyOp3
 70
     1
102
RTVSPropertyOp4
 70
     1
102
RTVSPropertyOp5
 70
     1
102
RTVSPropertyOp6
 70
     1
102
RTVSPropertyOp7
 70
     1
102
RTVSPropertyOp8
 70
     1
102
RTVSPropertyOp9
 70
     1
102
RTVSPropertyOp10
 70
     1
102
RTVSPropertyOp11
 70
     1
102
RTVSPropertyOp12
 70
     1
102
RTVSPropertyOp13
 70
     1
102
RTVSPropertyOp14
 70
     1
102
RTVSPropertyOp15
 70
     1
102
RTVSPropertyOp16
 70
     1
102
RTVSPropertyOp17
 70
     1
102
RTVSPropertyOp18
 70
     1
102
RTVSPropertyOp19
 70
     1
102
RTVSPropertyOp20
 70
     1
102
RTVSPropertyOp21
 70
     1
102
RTVSPropertyOp22
 70
     1
102
RTVSPropertyOp23
 70
     1
102
RTVSPropertyOp24
 70
     1
102
RTVSPropertyOp25
 70
     1
102
RTVSPropertyOp26
 70
     1
102
RTVSPropertyOp27
 70
     1
102
RTVSPropertyOp28
 70
     1
102
RTVSPropertyOp29
 70
     1
102
RTVSPropertyOp30
 70
     1
102
RTVSPropertyOp31
 70
     1
102
RTVSPropertyOp32
 70
     1
  0
XRECORD
  5
16E
102
{ACAD_REACTORS
330
16D
102
}
330
16D
100
AcDbXrecord
280
     1
102
RTVSPropertyOp0
 70
     1
102
RTVSPropertyOp1
 70
     1
102
RTVSPropertyOp2
 70
     1
102
RTVSPropertyOp3
 70
     1
102
RTVSPropertyOp4
 70
     1
102
RTVSPropertyOp5
 70
     1
102
RTVSPropertyOp6
 70
     1
102
RTVSPropertyOp7
 70
     1
102
RTVSPropertyOp8
 70
     1
102
RTVSPropertyOp9
 70
     1
102
RTVSPropertyOp10
 70
     1
102
RTVSPropertyOp11
 70
     1
102
RTVSPropertyOp12
 70
     1
102
RTVSPropertyOp13
 70
     1
102
RTVSPropertyOp14
 70
     1
102
RTVSPropertyOp15
 70
     1
102
RTVSPropertyOp16
 70
     1
102
RTVSPropertyOp17
 70
     1
102
RTVSPropertyOp18
 70
     1
102
RTVSPropertyOp19
 70
     1
102
RTVSPropertyOp20
 70
     1
102
RTVSPropertyOp21
 70
     1
102
RTVSPropertyOp22
 70
     1
102
RTVSPropertyOp23
 70
     1
102
RTVSPropertyOp24
 70
     1
102
RTVSPropertyOp25
 70
     1
102
RTVSPropertyOp26
 70
     1
102
RTVSPropertyOp27
 70
     1
102
RTVSPropertyOp28
 70
     1
102
RTVSPropertyOp29
 70
     1
102
RTVSPropertyOp30
 70
     1
102
RTVSPropertyOp31
 70
     1
102
RTVSPropertyOp32
 70
     1
  0
ENDSEC
  0
EOF
