  0
SECTION
  2
HEADER
  9
$ACADVER
  1
AC1015
  9
$ACADMAINTVER
 70
     6
  9
$DWGCODEPAGE
  3
ANSI_932
  9
$INSBASE
 10
0.0
 20
0.0
 30
0.0
  9
$EXTMIN
 10
0.0
 20
0.33014384008742
 30
0.0
  9
$EXTMAX
 10
210.0
 20
297.3301438400874
 30
0.0
  9
$LIMMIN
 10
0.0
 20
0.0
  9
$LIMMAX
 10
12.0
 20
9.0
  9
$ORTHOMODE
 70
     0
  9
$REGENMODE
 70
     1
  9
$FILLMODE
 70
     1
  9
$QTEXTMODE
 70
     0
  9
$MIRRTEXT
 70
     1
  9
$LTSCALE
 40
1.0
  9
$ATTMODE
 70
     1
  9
$TEXTSIZE
 40
0.2
  9
$TRACEWID
 40
0.05
  9
$TEXTSTYLE
  7
Standard
  9
$CLAYER
  8
0
  9
$CELTYPE
  6
ByLayer
  9
$CECOLOR
 62
   256
  9
$CELTSCALE
 40
1.0
  9
$DISPSILH
 70
     0
  9
$DIMSCALE
 40
1.0
  9
$DIMASZ
 40
0.18
  9
$DIMEXO
 40
0.0625
  9
$DIMDLI
 40
0.38
  9
$DIMRND
 40
0.0
  9
$DIMDLE
 40
0.0
  9
$DIMEXE
 40
0.18
  9
$DIMTP
 40
0.0
  9
$DIMTM
 40
0.0
  9
$DIMTXT
 40
0.18
  9
$DIMCEN
 40
0.09
  9
$DIMTSZ
 40
0.0
  9
$DIMTOL
 70
     0
  9
$DIMLIM
 70
     0
  9
$DIMTIH
 70
     1
  9
$DIMTOH
 70
     1
  9
$DIMSE1
 70
     0
  9
$DIMSE2
 70
     0
  9
$DIMTAD
 70
     0
  9
$DIMZIN
 70
     0
  9
$DIMBLK
  1

  9
$DIMASO
 70
     1
  9
$DIMSHO
 70
     1
  9
$DIMPOST
  1

  9
$DIMAPOST
  1

  9
$DIMALT
 70
     0
  9
$DIMALTD
 70
     2
  9
$DIMALTF
 40
25.4
  9
$DIMLFAC
 40
1.0
  9
$DIMTOFL
 70
     0
  9
$DIMTVP
 40
0.0
  9
$DIMTIX
 70
     0
  9
$DIMSOXD
 70
     0
  9
$DIMSAH
 70
     0
  9
$DIMBLK1
  1

  9
$DIMBLK2
  1

  9
$DIMSTYLE
  2
Standard
  9
$DIMCLRD
 70
     0
  9
$DIMCLRE
 70
     0
  9
$DIMCLRT
 70
     0
  9
$DIMTFAC
 40
1.0
  9
$DIMGAP
 40
0.09
  9
$DIMJUST
 70
     0
  9
$DIMSD1
 70
     0
  9
$DIMSD2
 70
     0
  9
$DIMTOLJ
 70
     1
  9
$DIMTZIN
 70
     0
  9
$DIMALTZ
 70
     0
  9
$DIMALTTZ
 70
     0
  9
$DIMUPT
 70
     0
  9
$DIMDEC
 70
     4
  9
$DIMTDEC
 70
     4
  9
$DIMALTU
 70
     2
  9
$DIMALTTD
 70
     2
  9
$DIMTXSTY
  7
Standard
  9
$DIMAUNIT
 70
     0
  9
$DIMADEC
 70
     0
  9
$DIMALTRND
 40
0.0
  9
$DIMAZIN
 70
     0
  9
$DIMDSEP
 70
    46
  9
$DIMATFIT
 70
     3
  9
$DIMFRAC
 70
     0
  9
$DIMLDRBLK
  1

  9
$DIMLUNIT
 70
     2
  9
$DIMLWD
 70
    -2
  9
$DIMLWE
 70
    -2
  9
$DIMTMOVE
 70
     0
  9
$LUNITS
 70
     2
  9
$LUPREC
 70
     4
  9
$SKETCHINC
 40
0.1
  9
$FILLETRAD
 40
0.5
  9
$AUNITS
 70
     0
  9
$AUPREC
 70
     0
  9
$MENU
  1
.
  9
$ELEVATION
 40
0.0
  9
$PELEVATION
 40
0.0
  9
$THICKNESS
 40
0.0
  9
$LIMCHECK
 70
     0
  9
$CHAMFERA
 40
0.5
  9
$CHAMFERB
 40
0.5
  9
$CHAMFERC
 40
1.0
  9
$CHAMFERD
 40
0.0
  9
$SKPOLY
 70
     0
  9
$TDCREATE
 40
2459780.445997558
  9
$TDUCREATE
 40
2459780.070997558
  9
$TDUPDATE
 40
2459780.44599882
  9
$TDUUPDATE
 40
2459780.07099882
  9
$TDINDWG
 40
0.0000000116
  9
$TDUSRTIMER
 40
0.0000000116
  9
$USRTIMER
 70
     1
  9
$ANGBASE
 50
0.0
  9
$ANGDIR
 70
     0
  9
$PDMODE
 70
     0
  9
$PDSIZE
 40
0.0
  9
$PLINEWID
 40
0.0
  9
$SPLFRAME
 70
     0
  9
$SPLINETYPE
 70
     6
  9
$SPLINESEGS
 70
     8
  9
$HANDSEED
  5
13B
  9
$SURFTAB1
 70
     6
  9
$SURFTAB2
 70
     6
  9
$SURFTYPE
 70
     6
  9
$SURFU
 70
     6
  9
$SURFV
 70
     6
  9
$UCSBASE
  2

  9
$UCSNAME
  2

  9
$UCSORG
 10
0.0
 20
0.0
 30
0.0
  9
$UCSXDIR
 10
1.0
 20
0.0
 30
0.0
  9
$UCSYDIR
 10
0.0
 20
1.0
 30
0.0
  9
$UCSORTHOREF
  2

  9
$UCSORTHOVIEW
 70
     0
  9
$UCSORGTOP
 10
0.0
 20
0.0
 30
0.0
  9
$UCSORGBOTTOM
 10
0.0
 20
0.0
 30
0.0
  9
$UCSORGLEFT
 10
0.0
 20
0.0
 30
0.0
  9
$UCSORGRIGHT
 10
0.0
 20
0.0
 30
0.0
  9
$UCSORGFRONT
 10
0.0
 20
0.0
 30
0.0
  9
$UCSORGBACK
 10
0.0
 20
0.0
 30
0.0
  9
$PUCSBASE
  2

  9
$PUCSNAME
  2

  9
$PUCSORG
 10
0.0
 20
0.0
 30
0.0
  9
$PUCSXDIR
 10
1.0
 20
0.0
 30
0.0
  9
$PUCSYDIR
 10
0.0
 20
1.0
 30
0.0
  9
$PUCSORTHOREF
  2

  9
$PUCSORTHOVIEW
 70
     0
  9
$PUCSORGTOP
 10
0.0
 20
0.0
 30
0.0
  9
$PUCSORGBOTTOM
 10
0.0
 20
0.0
 30
0.0
  9
$PUCSORGLEFT
 10
0.0
 20
0.0
 30
0.0
  9
$PUCSORGRIGHT
 10
0.0
 20
0.0
 30
0.0
  9
$PUCSORGFRONT
 10
0.0
 20
0.0
 30
0.0
  9
$PUCSORGBACK
 10
0.0
 20
0.0
 30
0.0
  9
$USERI1
 70
     0
  9
$USERI2
 70
     0
  9
$USERI3
 70
     0
  9
$USERI4
 70
     0
  9
$USERI5
 70
     0
  9
$USERR1
 40
18.1
  9
$USERR2
 40
0.0
  9
$USERR3
 40
0.0
  9
$USERR4
 40
0.0
  9
$USERR5
 40
0.0
  9
$WORLDVIEW
 70
     1
  9
$SHADEDGE
 70
     3
  9
$SHADEDIF
 70
    70
  9
$TILEMODE
 70
     1
  9
$MAXACTVP
 70
    64
  9
$PINSBASE
 10
0.0
 20
0.0
 30
0.0
  9
$PLIMCHECK
 70
     0
  9
$PEXTMIN
 10
1.00000000000000E+20
 20
1.00000000000000E+20
 30
1.00000000000000E+20
  9
$PEXTMAX
 10
-1.00000000000000E+20
 20
-1.00000000000000E+20
 30
-1.00000000000000E+20
  9
$PLIMMIN
 10
0.0
 20
0.0
  9
$PLIMMAX
 10
12.0
 20
9.0
  9
$UNITMODE
 70
     0
  9
$VISRETAIN
 70
     1
  9
$PLINEGEN
 70
     0
  9
$PSLTSCALE
 70
     1
  9
$TREEDEPTH
 70
  3020
  9
$CMLSTYLE
  2
Standard
  9
$CMLJUST
 70
     0
  9
$CMLSCALE
 40
1.0
  9
$PROXYGRAPHICS
 70
     1
  9
$MEASUREMENT
 70
     1
  9
$CELWEIGHT
370
    -1
  9
$ENDCAPS
280
     0
  9
$JOINSTYLE
280
     0
  9
$LWDISPLAY
290
     0
  9
$INSUNITS
 70
     4
  9
$HYPERLINKBASE
  1

  9
$STYLESHEET
  1

  9
$XEDIT
290
     1
  9
$CEPSNTYPE
380
     0
  9
$PSTYLEMODE
290
     1
  9
$FINGERPRINTGUID
  2
{26BF5C11-1DD7-44DF-A42A-F5D6BB7C470D}
  9
$VERSIONGUID
  2
{FAEB1C32-E019-11D5-929B-00C0DF256EC4}
  9
$EXTNAMES
290
     1
  9
$PSVPSCALE
 40
0.0
  9
$OLESTARTUP
290
     0
  0
ENDSEC
  0
SECTION
  2
CLASSES
  0
CLASS
  1
ACDBDICTIONARYWDFLT
  2
AcDbDictionaryWithDefault
  3
ObjectDBX Classes
 90
        0
280
     0
281
     0
  0
CLASS
  1
VISUALSTYLE
  2
AcDbVisualStyle
  3
ObjectDBX Classes
 90
     4095
280
     0
281
     0
  0
CLASS
  1
MATERIAL
  2
AcDbMaterial
  3
ObjectDBX Classes
 90
     1153
280
     0
281
     0
  0
CLASS
  1
DICTIONARYVAR
  2
AcDbDictionaryVar
  3
ObjectDBX Classes
 90
        0
280
     0
281
     0
  0
CLASS
  1
ACDBPLACEHOLDER
  2
AcDbPlaceHolder
  3
ObjectDBX Classes
 90
        0
280
     0
281
     0
  0
CLASS
  1
LAYOUT
  2
AcDbLayout
  3
ObjectDBX Classes
 90
        0
280
     0
281
     0
  0
ENDSEC
  0
SECTION
  2
TABLES
  0
TABLE
  2
VPORT
  5
8
330
0
100
AcDbSymbolTable
 70
     1
  0
VPORT
  5
29
330
8
100
AcDbSymbolTableRecord
100
AcDbViewportTableRecord
  2
*Active
 70
     0
 10
0.0
 20
0.0
 11
1.0
 21
1.0
 12
105.0
 22
148.8301438400874
 13
0.0
 23
0.0
 14
0.5
 24
0.5
 15
0.5
 25
0.5
 16
0.0
 26
0.0
 36
1.0
 17
0.0
 27
0.0
 37
0.0
 40
326.7
 41
1.60267857142857
 42
50.0
 43
0.0
 44
0.0
 50
0.0
 51
0.0
 71
     0
 72
   100
 73
     1
 74
     3
 75
     0
 76
     0
 77
     0
 78
     0
281
     0
 65
     1
110
0.0
120
0.0
130
0.0
111
1.0
121
0.0
131
0.0
112
0.0
122
1.0
132
0.0
 79
     0
146
0.0
  0
ENDTAB
  0
TABLE
  2
LTYPE
  5
5
330
0
100
AcDbSymbolTable
 70
     8
  0
LTYPE
  5
14
330
5
100
AcDbSymbolTableRecord
100
AcDbLinetypeTableRecord
  2
ByBlock
 70
     0
  3

 72
    65
 73
     0
 40
0.0
  0
LTYPE
  5
15
330
5
100
AcDbSymbolTableRecord
100
AcDbLinetypeTableRecord
  2
ByLayer
 70
     0
  3

 72
    65
 73
     0
 40
0.0
  0
LTYPE
  5
16
330
5
100
AcDbSymbolTableRecord
100
AcDbLinetypeTableRecord
  2
Continuous
 70
     0
  3
Solid line
 72
    65
 73
     0
 40
0.0
  0
LTYPE
  5
3F
330
5
100
AcDbSymbolTableRecord
100
AcDbLinetypeTableRecord
  2
DASHED
 70
     0
  3
Dashed
 72
    65
 73
     2
 40
15.0
 49
7.0
 74
     0
 49
-8.0
 74
     0
  0
LTYPE
  5
40
330
5
100
AcDbSymbolTableRecord
100
AcDbLinetypeTableRecord
  2
DOTTED
 70
     0
  3
Dotted
 72
    65
 73
     2
 40
1.0
 49
0.0
 74
     0
 49
-1.0
 74
     0
  0
LTYPE
  5
41
330
5
100
AcDbSymbolTableRecord
100
AcDbLinetypeTableRecord
  2
DOT_CENTER
 70
     0
  3
Dot_Center
 72
    65
 73
     4
 40
14.0
 49
12.0
 74
     0
 49
-1.0
 74
     0
 49
0.0
 74
     0
 49
-1.0
 74
     0
  0
LTYPE
  5
42
330
5
100
AcDbSymbolTableRecord
100
AcDbLinetypeTableRecord
  2
LONG_DASHED
 70
     0
  3
Long_Dashed
 72
    65
 73
     2
 40
15.0
 49
10.0
 74
     0
 49
-5.0
 74
     0
  0
LTYPE
  5
43
330
5
100
AcDbSymbolTableRecord
100
AcDbLinetypeTableRecord
  2
DASH_CENTER
 70
     0
  3
Dash_Center
 72
    65
 73
     4
 40
14.0
 49
11.0
 74
     0
 49
-1.0
 74
     0
 49
1.0
 74
     0
 49
-1.0
 74
     0
  0
LTYPE
  5
44
330
5
100
AcDbSymbolTableRecord
100
AcDbLinetypeTableRecord
  2
PHANTOM
 70
     0
  3
Phantom
 72
    65
 73
     6
 40
13.0
 49
10.0
 74
     0
 49
-1.0
 74
     0
 49
0.0
 74
     0
 49
-1.0
 74
     0
 49
0.0
 74
     0
 49
-1.0
 74
     0
  0
LTYPE
  5
45
330
5
100
AcDbSymbolTableRecord
100
AcDbLinetypeTableRecord
  2
CENTER_DASH_DASH
 70
     0
  3
Center_Dash_Dash
 72
    65
 73
     6
 40
14.0
 49
9.0
 74
     0
 49
-1.0
 74
     0
 49
1.0
 74
     0
 49
-1.0
 74
     0
 49
1.0
 74
     0
 49
-1.0
 74
     0
  0
ENDTAB
  0
TABLE
  2
LAYER
  5
2
330
0
100
AcDbSymbolTable
 70
     3
  0
LAYER
  5
10
330
2
100
AcDbSymbolTableRecord
100
AcDbLayerTableRecord
  2
0
 70
     0
 62
     7
  6
Continuous
370
    -3
390
F
  0
LAYER
  5
46
330
2
100
AcDbSymbolTableRecord
100
AcDbLayerTableRecord
  2
1
 70
     0
 62
     7
  6
Continuous
370
    -3
390
F
  0
LAYER
  5
47
330
2
100
AcDbSymbolTableRecord
100
AcDbLayerTableRecord
  2
_U_30EC_U_30A4_U_30E4_U_30FC_1
 70
     0
 62
     7
  6
Continuous
370
    -3
390
F
  0
ENDTAB
  0
TABLE
  2
STYLE
  5
3
330
0
100
AcDbSymbolTable
 70
     3
  0
STYLE
  5
11
330
3
100
AcDbSymbolTableRecord
100
AcDbTextStyleTableRecord
  2
Standard
 70
     0
 40
0.0
 41
1.0
 50
0.0
 71
     0
 42
0.2
  3
txt
  4

  0
STYLE
  5
B6
330
3
100
AcDbSymbolTableRecord
100
AcDbTextStyleTableRecord
  2
CONVERTER_11
 70
     0
 40
0.0
 41
0.89
 50
0.0
 71
     0
 42
0.2
  3
MS Mincho.ttf
  4

1001
ACAD
1000
MS Mincho
1071
    32785
  0
STYLE
  5
DF
330
3
100
AcDbSymbolTableRecord
100
AcDbTextStyleTableRecord
  2
CONVERTER_12
 70
     0
 40
0.0
 41
0.9
 50
0.0
 71
     0
 42
0.2
  3
txt.shx
  4

  0
ENDTAB
  0
TABLE
  2
VIEW
  5
6
330
0
100
AcDbSymbolTable
 70
     0
  0
ENDTAB
  0
TABLE
  2
UCS
  5
7
330
0
100
AcDbSymbolTable
 70
     0
  0
ENDTAB
  0
TABLE
  2
APPID
  5
9
330
0
100
AcDbSymbolTable
 70
     1
  0
APPID
  5
12
330
9
100
AcDbSymbolTableRecord
100
AcDbRegAppTableRecord
  2
ACAD
 70
     0
  0
ENDTAB
  0
TABLE
  2
DIMSTYLE
  5
A
330
0
100
AcDbSymbolTable
 70
     3
100
AcDbDimStyleTable
  0
DIMSTYLE
105
27
330
A
100
AcDbSymbolTableRecord
100
AcDbDimStyleTableRecord
  2
Standard
 70
     0
178
     0
340
11
  0
DIMSTYLE
105
F9
102
{ACAD_REACTORS
330
FA
102
}
330
A
100
AcDbSymbolTableRecord
100
AcDbDimStyleTableRecord
  2
ME10_DIM_10
 70
     0
  3
{\Fgdt;n}<>
 41
3.5
 42
0.0
 44
1.0
 73
     0
 74
     0
 77
     1
 78
     8
140
3.5
147
1.0
172
     1
173
     1
174
     1
175
     1
176
     2
177
     2
271
     2
178
     7
271
     2
340
DF
  0
DIMSTYLE
105
106
102
{ACAD_REACTORS
330
107
102
}
330
A
100
AcDbSymbolTableRecord
100
AcDbDimStyleTableRecord
  2
ME10_DIM_11
 70
     0
 41
3.5
 42
0.0
 44
1.0
 73
     0
 74
     0
 77
     1
 78
     8
140
3.5
147
1.0
172
     1
173
     1
174
     1
175
     1
176
     2
177
     2
271
     2
178
     7
271
     2
340
DF
  0
ENDTAB
  0
TABLE
  2
BLOCK_RECORD
  5
1
330
0
100
AcDbSymbolTable
 70
     7
  0
BLOCK_RECORD
  5
1F
330
1
100
AcDbSymbolTableRecord
100
AcDbBlockTableRecord
  2
*Model_Space
340
22
  0
BLOCK_RECORD
  5
1B
330
1
100
AcDbSymbolTableRecord
100
AcDbBlockTableRecord
  2
*Paper_Space
340
1E
  0
BLOCK_RECORD
  5
23
330
1
100
AcDbSymbolTableRecord
100
AcDbBlockTableRecord
  2
*Paper_Space0
340
26
  0
BLOCK_RECORD
  5
48
330
1
100
AcDbSymbolTableRecord
100
AcDbBlockTableRecord
  2
開示A4
340
0
102
{BLKREFS
331
4C
102
}
  0
BLOCK_RECORD
  5
4B
330
1
100
AcDbSymbolTableRecord
100
AcDbBlockTableRecord
  2
開示A4枠
340
0
102
{BLKREFS
331
52
102
}
  0
BLOCK_RECORD
  5
4F
330
1
100
AcDbSymbolTableRecord
100
AcDbBlockTableRecord
  2
92-28
340
0
102
{BLKREFS
331
53
102
}
  0
BLOCK_RECORD
  5
F0
330
1
100
AcDbSymbolTableRecord
100
AcDbBlockTableRecord
  2
*D4
340
0
  0
BLOCK_RECORD
  5
FB
330
1
100
AcDbSymbolTableRecord
100
AcDbBlockTableRecord
  2
*D5
340
0
  0
BLOCK_RECORD
  5
108
330
1
100
AcDbSymbolTableRecord
100
AcDbBlockTableRecord
  2
*D6
340
0
102
{BLKREFS
331
10F
102
}
  0
ENDTAB
  0
ENDSEC
  0
SECTION
  2
BLOCKS
  0
BLOCK
  5
20
330
1F
100
AcDbEntity
  8
0
100
AcDbBlockBegin
  2
*Model_Space
 70
     0
 10
0.0
 20
0.0
 30
0.0
  3
*Model_Space
  1

  0
ENDBLK
  5
21
330
1F
100
AcDbEntity
  8
0
100
AcDbBlockEnd
  0
BLOCK
  5
1C
330
1B
100
AcDbEntity
 67
     1
  8
0
100
AcDbBlockBegin
  2
*Paper_Space
 70
     0
 10
0.0
 20
0.0
 30
0.0
  3
*Paper_Space
  1

  0
ENDBLK
  5
1D
330
1B
100
AcDbEntity
 67
     1
  8
0
100
AcDbBlockEnd
  0
BLOCK
  5
24
330
23
100
AcDbEntity
  8
0
100
AcDbBlockBegin
  2
*Paper_Space0
 70
     0
 10
0.0
 20
0.0
 30
0.0
  3
*Paper_Space0
  1

  0
ENDBLK
  5
25
330
23
100
AcDbEntity
  8
0
100
AcDbBlockEnd
  0
BLOCK
  5
49
330
48
100
AcDbEntity
  8
0
100
AcDbBlockBegin
  2
開示A4
 70
     0
 10
0.0
 20
0.33014384008742
 30
0.0
  3
開示A4
  1

  0
POINT
  5
54
330
48
100
AcDbEntity
  8
1
 62
     4
100
AcDbPoint
 10
34.0
 20
34.33014384008742
 30
0.0
  0
POINT
  5
55
330
48
100
AcDbEntity
  8
1
 62
     4
100
AcDbPoint
 10
57.0
 20
12.58014384008742
 30
0.0
  0
POINT
  5
56
330
48
100
AcDbEntity
  8
1
 62
     4
100
AcDbPoint
 10
57.0
 20
21.08014384008743
 30
0.0
  0
POINT
  5
57
330
48
100
AcDbEntity
  8
1
 62
     4
100
AcDbPoint
 10
57.0
 20
25.08014384008743
 30
0.0
  0
POINT
  5
58
330
48
100
AcDbEntity
  8
1
 62
     4
100
AcDbPoint
 10
57.0
 20
16.58014384008742
 30
0.0
  0
POINT
  5
59
330
48
100
AcDbEntity
  8
1
 62
     4
100
AcDbPoint
 10
157.5
 20
19.33014384008743
 30
0.0
  0
POINT
  5
5A
330
48
100
AcDbEntity
  8
1
 62
     4
100
AcDbPoint
 10
47.5
 20
282.3301438400877
 30
0.0
  0
POINT
  5
5B
330
48
100
AcDbEntity
  8
1
 62
     4
100
AcDbPoint
 10
57.0
 20
23.08014384008743
 30
0.0
  0
POINT
  5
5C
330
48
100
AcDbEntity
  8
1
 62
     4
100
AcDbPoint
 10
57.0
 20
14.58014384008742
 30
0.0
  0
POINT
  5
5D
330
48
100
AcDbEntity
  8
1
 62
     4
100
AcDbPoint
 10
157.5
 20
12.83014384008742
 30
0.0
  0
POINT
  5
5E
330
48
100
AcDbEntity
  8
1
 62
     4
100
AcDbPoint
 10
163.25
 20
12.83014384008742
 30
0.0
  0
POINT
  5
5F
330
48
100
AcDbEntity
  8
1
 62
     4
100
AcDbPoint
 10
151.75
 20
12.83014384008742
 30
0.0
  0
POINT
  5
60
330
48
100
AcDbEntity
  8
1
 62
     4
100
AcDbPoint
 10
134.75
 20
12.83014384008742
 30
0.0
  0
POINT
  5
61
330
48
100
AcDbEntity
  8
1
 62
     4
100
AcDbPoint
 10
146.25
 20
12.83014384008742
 30
0.0
  0
POINT
  5
62
330
48
100
AcDbEntity
  8
1
 62
     4
100
AcDbPoint
 10
140.5
 20
12.83014384008742
 30
0.0
  0
POINT
  5
63
330
48
100
AcDbEntity
  8
1
 62
     4
100
AcDbPoint
 10
140.5
 20
19.33014384008743
 30
0.0
  0
POINT
  5
64
330
48
100
AcDbEntity
  8
1
 62
     4
100
AcDbPoint
 10
117.75
 20
12.83014384008742
 30
0.0
  0
POINT
  5
65
330
48
100
AcDbEntity
  8
1
 62
     4
100
AcDbPoint
 10
129.25
 20
12.83014384008742
 30
0.0
  0
POINT
  5
66
330
48
100
AcDbEntity
  8
1
 62
     4
100
AcDbPoint
 10
123.5
 20
12.83014384008742
 30
0.0
  0
POINT
  5
67
330
48
100
AcDbEntity
  8
1
 62
     4
100
AcDbPoint
 10
123.5
 20
19.33014384008743
 30
0.0
  0
POINT
  5
68
330
48
100
AcDbEntity
  8
1
 62
     4
100
AcDbPoint
 10
100.75
 20
12.83014384008742
 30
0.0
  0
POINT
  5
69
330
48
100
AcDbEntity
  8
1
 62
     4
100
AcDbPoint
 10
112.25
 20
12.83014384008742
 30
0.0
  0
POINT
  5
6A
330
48
100
AcDbEntity
  8
1
 62
     4
100
AcDbPoint
 10
106.5
 20
12.83014384008742
 30
0.0
  0
POINT
  5
6B
330
48
100
AcDbEntity
  8
1
 62
     4
100
AcDbPoint
 10
106.5
 20
19.33014384008743
 30
0.0
  0
POINT
  5
6C
330
48
100
AcDbEntity
  8
1
 62
     4
100
AcDbPoint
 10
85.25
 20
17.33014384008742
 30
0.0
  0
POINT
  5
6D
330
48
100
AcDbEntity
  8
1
 62
     4
100
AcDbPoint
 10
93.75
 20
17.33014384008742
 30
0.0
  0
POINT
  5
6E
330
48
100
AcDbEntity
  8
1
 62
     4
100
AcDbPoint
 10
183.0
 20
15.33014384008743
 30
0.0
  0
LINE
  5
6F
330
48
100
AcDbEntity
  8
1
  6
Continuous
 62
     2
100
AcDbLine
 10
81.0
 20
27.33014384008743
 30
0.0
 11
81.0
 21
10.33014384008742
 31
0.0
  0
LINE
  5
70
330
48
100
AcDbEntity
  8
1
  6
DOT_CENTER
 62
     2
100
AcDbLine
 10
187.0
 20
26.83014384008743
 30
0.0
 11
187.0
 21
20.83014384008743
 31
0.0
  0
LINE
  5
71
330
48
100
AcDbEntity
  8
1
  6
DOT_CENTER
 62
     2
100
AcDbLine
 10
184.0
 20
23.83014384008743
 30
0.0
 11
197.0
 21
23.83014384008743
 31
0.0
  0
LINE
  5
72
330
48
100
AcDbEntity
  8
1
  6
Continuous
 62
     7
100
AcDbLine
 10
196.0
 20
21.83014384008743
 30
0.0
 11
191.0
 21
22.63014384008743
 31
0.0
  0
LINE
  5
73
330
48
100
AcDbEntity
  8
1
  6
Continuous
 62
     7
100
AcDbLine
 10
196.0
 20
25.83014384008743
 30
0.0
 11
196.0
 21
21.83014384008743
 31
0.0
  0
LINE
  5
74
330
48
100
AcDbEntity
  8
1
  6
Continuous
 62
     7
100
AcDbLine
 10
191.0
 20
25.03014384008743
 30
0.0
 11
196.0
 21
25.83014384008743
 31
0.0
  0
LINE
  5
75
330
48
100
AcDbEntity
  8
1
  6
Continuous
 62
     7
100
AcDbLine
 10
191.0
 20
25.03014384008743
 30
0.0
 11
191.0
 21
22.63014384008743
 31
0.0
  0
LINE
  5
76
330
48
100
AcDbEntity
  8
1
  6
Continuous
 62
     2
100
AcDbLine
 10
33.0
 20
27.33014384008742
 30
0.0
 11
33.0
 21
10.33014384008742
 31
0.0
  0
LINE
  5
77
330
48
100
AcDbEntity
  8
1
  6
Continuous
 62
     2
100
AcDbLine
 10
25.0
 20
18.83014384008743
 30
0.0
 11
81.0
 21
18.83014384008743
 31
0.0
  0
LINE
  5
78
330
48
100
AcDbEntity
  8
1
  6
Continuous
 62
     7
100
AcDbLine
 10
200.0
 20
287.3301438400877
 30
0.0
 11
105.0
 21
287.3301438400877
 31
0.0
  0
LINE
  5
79
330
48
100
AcDbEntity
  8
1
  6
Continuous
 62
     7
100
AcDbLine
 10
200.0
 20
10.33014384008742
 30
0.0
 11
200.0
 21
148.8301438400874
 31
0.0
  0
LINE
  5
7A
330
48
100
AcDbEntity
  8
1
  6
Continuous
 62
     7
100
AcDbLine
 10
25.0
 20
10.33014384008742
 30
0.0
 11
105.0
 21
10.33014384008742
 31
0.0
  0
LINE
  5
7B
330
48
100
AcDbEntity
  8
1
  6
PHANTOM
 62
     4
100
AcDbLine
 10
0.0
 20
297.3301438400874
 30
0.0
 11
0.0
 21
0.33014384008742
 31
0.0
  0
LINE
  5
7C
330
48
100
AcDbEntity
  8
1
  6
PHANTOM
 62
     4
100
AcDbLine
 10
210.0
 20
297.3301438400874
 30
0.0
 11
0.0
 21
297.3301438400874
 31
0.0
  0
LINE
  5
7D
330
48
100
AcDbEntity
  8
1
  6
PHANTOM
 62
     4
100
AcDbLine
 10
210.0
 20
0.33014384008742
 30
0.0
 11
210.0
 21
297.3301438400874
 31
0.0
  0
LINE
  5
7E
330
48
100
AcDbEntity
  8
1
  6
PHANTOM
 62
     4
100
AcDbLine
 10
0.0
 20
0.33014384008742
 30
0.0
 11
210.0
 21
0.33014384008742
 31
0.0
  0
LINE
  5
7F
330
48
100
AcDbEntity
  8
1
  6
Continuous
 62
     7
100
AcDbLine
 10
25.0
 20
41.33014384008742
 30
0.0
 11
200.0
 21
41.33014384008742
 31
0.0
  0
LINE
  5
80
330
48
100
AcDbEntity
  8
1
  6
Continuous
 62
     7
100
AcDbLine
 10
200.0
 20
27.33014384008743
 30
0.0
 11
25.0
 21
27.33014384008743
 31
0.0
  0
LINE
  5
81
330
48
100
AcDbEntity
  8
1
  6
Continuous
 62
     2
100
AcDbLine
 10
33.0
 20
41.33014384008742
 30
0.0
 11
33.0
 21
27.33014384008742
 31
0.0
  0
LINE
  5
82
330
48
100
AcDbEntity
  8
1
  6
Continuous
 62
     2
100
AcDbLine
 10
55.0
 20
287.3301438400877
 30
0.0
 11
55.0
 21
277.3301438400877
 31
0.0
  0
LINE
  5
83
330
48
100
AcDbEntity
  8
1
  6
Continuous
 62
     2
100
AcDbLine
 10
40.0
 20
287.3301438400877
 30
0.0
 11
40.0
 21
277.3301438400877
 31
0.0
  0
LINE
  5
84
330
48
100
AcDbEntity
  8
1
  6
Continuous
 62
     7
100
AcDbLine
 10
25.0
 20
10.33014384008742
 30
0.0
 11
25.0
 21
148.8301438400874
 31
0.0
  0
LINE
  5
85
330
48
100
AcDbEntity
  8
1
  6
Continuous
 62
     2
100
AcDbLine
 10
55.0
 20
277.3301438400877
 30
0.0
 11
25.0
 21
277.3301438400877
 31
0.0
  0
LINE
  5
86
330
48
100
AcDbEntity
  8
1
  6
Continuous
 62
     2
100
AcDbLine
 10
166.0
 20
27.33014384008743
 30
0.0
 11
166.0
 21
10.33014384008742
 31
0.0
  0
LINE
  5
87
330
48
100
AcDbEntity
  8
1
  6
Continuous
 62
     2
100
AcDbLine
 10
132.0
 20
27.33014384008743
 30
0.0
 11
132.0
 21
10.33014384008741
 31
0.0
  0
LINE
  5
88
330
48
100
AcDbEntity
  8
1
  6
Continuous
 62
     2
100
AcDbLine
 10
149.0
 20
27.33014384008743
 30
0.0
 11
149.0
 21
10.33014384008742
 31
0.0
  0
LINE
  5
89
330
48
100
AcDbEntity
  8
1
  6
Continuous
 62
     2
100
AcDbLine
 10
115.0
 20
27.33014384008743
 30
0.0
 11
115.0
 21
10.33014384008741
 31
0.0
  0
LINE
  5
8A
330
48
100
AcDbEntity
  8
1
  6
Continuous
 62
     2
100
AcDbLine
 10
98.0
 20
27.33014384008743
 30
0.0
 11
98.0
 21
10.33014384008741
 31
0.0
  0
LINE
  5
8B
330
48
100
AcDbEntity
  8
1
  6
Continuous
 62
     2
100
AcDbLine
 10
166.0
 20
20.33014384008743
 30
0.0
 11
200.0
 21
20.33014384008743
 31
0.0
  0
LINE
  5
8C
330
48
100
AcDbEntity
  8
1
  6
Continuous
 62
     2
100
AcDbLine
 10
105.0
 20
287.3301438400877
 30
0.0
 11
105.0
 21
292.3301438400877
 31
0.0
  0
LINE
  5
8D
330
48
100
AcDbEntity
  8
1
  6
Continuous
 62
     7
100
AcDbLine
 10
105.0
 20
287.3301438400877
 30
0.0
 11
25.0
 21
287.3301438400877
 31
0.0
  0
LINE
  5
8E
330
48
100
AcDbEntity
  8
1
  6
Continuous
 62
     2
100
AcDbLine
 10
25.0
 20
148.8301438400874
 30
0.0
 11
20.0
 21
148.8301438400874
 31
0.0
  0
LINE
  5
8F
330
48
100
AcDbEntity
  8
1
  6
Continuous
 62
     7
100
AcDbLine
 10
25.0
 20
148.8301438400874
 30
0.0
 11
25.0
 21
287.3301438400877
 31
0.0
  0
LINE
  5
90
330
48
100
AcDbEntity
  8
1
  6
Continuous
 62
     2
100
AcDbLine
 10
200.0
 20
148.8301438400874
 30
0.0
 11
205.0
 21
148.8301438400874
 31
0.0
  0
LINE
  5
91
330
48
100
AcDbEntity
  8
1
  6
Continuous
 62
     7
100
AcDbLine
 10
200.0
 20
148.8301438400874
 30
0.0
 11
200.0
 21
287.3301438400877
 31
0.0
  0
LINE
  5
92
330
48
100
AcDbEntity
  8
1
  6
Continuous
 62
     2
100
AcDbLine
 10
105.0
 20
10.33014384008742
 30
0.0
 11
105.0
 21
5.33014384008741
 31
0.0
  0
LINE
  5
93
330
48
100
AcDbEntity
  8
1
  6
Continuous
 62
     7
100
AcDbLine
 10
105.0
 20
10.33014384008742
 30
0.0
 11
200.0
 21
10.33014384008742
 31
0.0
  0
CIRCLE
  5
98
330
48
100
AcDbEntity
  8
1
  6
DOT_CENTER
 62
     7
100
AcDbCircle
 10
89.5
 20
18.33014384008742
 30
0.0
 40
0.1000000000000227
  0
CIRCLE
  5
99
330
48
100
AcDbEntity
  8
1
  6
DOT_CENTER
 62
     7
100
AcDbCircle
 10
89.5
 20
16.33014384008742
 30
0.0
 40
0.1000000000000227
  0
CIRCLE
  5
9A
330
48
100
AcDbEntity
  8
1
  6
Continuous
 62
     7
100
AcDbCircle
 10
187.0
 20
23.83014384008743
 30
0.0
 40
2.0
  0
CIRCLE
  5
9B
330
48
100
AcDbEntity
  8
1
  6
Continuous
 62
     7
100
AcDbCircle
 10
187.0
 20
23.83014384008743
 30
0.0
 40
1.200000000000102
  0
CIRCLE
  5
9C
330
48
100
AcDbEntity
  8
1
  6
Continuous
 62
     7
100
AcDbCircle
 10
154.5
 20
12.83014384008742
 30
0.0
 40
0.3000000000000114
  0
CIRCLE
  5
9D
330
48
100
AcDbEntity
  8
1
  6
Continuous
 62
     7
100
AcDbCircle
 10
160.5
 20
12.83014384008742
 30
0.0
 40
0.3000000000000114
  0
CIRCLE
  5
9E
330
48
100
AcDbEntity
  8
1
  6
Continuous
 62
     7
100
AcDbCircle
 10
143.5
 20
12.83014384008742
 30
0.0
 40
0.3000000000000114
  0
CIRCLE
  5
9F
330
48
100
AcDbEntity
  8
1
  6
Continuous
 62
     7
100
AcDbCircle
 10
137.5
 20
12.83014384008742
 30
0.0
 40
0.3000000000000114
  0
CIRCLE
  5
A0
330
48
100
AcDbEntity
  8
1
  6
Continuous
 62
     7
100
AcDbCircle
 10
126.5
 20
12.83014384008742
 30
0.0
 40
0.2999999999999972
  0
CIRCLE
  5
A1
330
48
100
AcDbEntity
  8
1
  6
Continuous
 62
     7
100
AcDbCircle
 10
120.5
 20
12.83014384008742
 30
0.0
 40
0.2999999999999972
  0
CIRCLE
  5
A2
330
48
100
AcDbEntity
  8
1
  6
Continuous
 62
     7
100
AcDbCircle
 10
109.5
 20
12.83014384008742
 30
0.0
 40
0.2999999999999972
  0
CIRCLE
  5
A3
330
48
100
AcDbEntity
  8
1
  6
Continuous
 62
     7
100
AcDbCircle
 10
103.5
 20
12.83014384008742
 30
0.0
 40
0.2999999999999972
  0
SPLINE
  5
A4
102
{ACAD_REACTORS
330
C2
102
}
330
48
100
AcDbEntity
  8
_U_30EC_U_30A4_U_30E4_U_30FC_1
  6
Continuous
 62
     2
100
AcDbSpline
210
0.0
220
0.0
230
1.0
 70
    11
 71
     3
 72
    99
 73
    95
 74
    93
 42
0.000000001
 43
0.0000000001
 44
0.00000001
 40
0.0
 40
0.0
 40
0.0
 40
0.0
 40
0.079641717227248
 40
0.1621768542356014
 40
0.2486489160957678
 40
0.3404969668524636
 40
0.4381912511164658
 40
0.543446366024496
 40
0.651811519284728
 40
0.7530190937886858
 40
0.849219691972512
 40
0.9419290312998173
 40
1.034249663570042
 40
1.129078600620193
 40
1.226697027573238
 40
1.327220425421701
 40
1.470572134938017
 40
1.595489863371216
 40
1.719934125348397
 40
1.850576620127413
 40
1.989059629987303
 40
2.134139054226922
 40
2.28069800720721
 40
2.424529739039478
 40
2.565929576985847
 40
2.708239260773539
 40
2.861717887443657
 40
3.045168540347369
 40
3.183798301138606
 40
3.314813961455457
 40
3.442083470447301
 40
3.569912708372964
 40
3.702177512509363
 40
3.842307559659528
 40
3.992872223245933
 40
4.156750662218322
 40
4.310981861107543
 40
4.445859909322589
 40
4.572393936131582
 40
4.701656719781981
 40
4.768279086008469
 40
4.835960697898423
 40
4.912788918729342
 40
5.006285208481556
 40
5.026909478751632
 40
5.047533749021197
 40
5.101808031471273
 40
5.162325165538554
 40
5.226919745995879
 40
5.294231806596754
 40
5.364544852554903
 40
5.438319055467948
 40
5.517877651324282
 40
5.607647714861594
 40
5.700449642544441
 40
5.788251142364171
 40
5.872714706039803
 40
5.955167292575323
 40
6.037192395190409
 40
6.120669181469136
 40
6.206848616686377
 40
6.296680855416799
 40
6.442558392872623
 40
6.568190371608315
 40
6.692904567360391
 40
6.824220446557169
 40
6.963121850329406
 40
7.107843738851193
 40
7.253431663907306
 40
7.395187468036728
 40
7.533140753237783
 40
7.670550457175271
 40
7.81623651176929
 40
7.987691657359252
 40
8.142277421969284
 40
8.293662615415052
 40
8.442962460879311
 40
8.59159831618536
 40
8.743678992361831
 40
8.903725323699216
 40
9.076307008890565
 40
9.265578604680618
 40
9.459203795360793
 40
9.61761981027358
 40
9.75360967136194
 40
9.874873300004111
 40
9.954520184977811
 40
10.02416413719248
 40
10.09769764405449
 40
10.18909955924976
 40
10.20974586420137
 40
10.23039218263383
 40
10.30057101881268
 40
10.37632012987548
 40
10.37632012987548
 40
10.37632012987548
 40
10.37632012987548
 10
170.1465954835851
 20
14.46810047224736
 30
0.0
 10
170.1632217851219
 20
14.44734992854054
 30
0.0
 10
170.1970784206577
 20
14.40509495720643
 30
0.0
 10
170.2599822541036
 20
14.35044195400814
 30
0.0
 10
170.3332500940393
 20
14.30313409129792
 30
0.0
 10
170.4175969238636
 20
14.26541615446676
 30
0.0
 10
170.513224061546
 20
14.24055003740693
 30
0.0
 10
170.6171853775346
 20
14.23323943354679
 30
0.0
 10
170.7224020220405
 20
14.24156706802795
 30
0.0
 10
170.8206626371333
 20
14.27163563660271
 30
0.0
 10
170.9058986427548
 20
14.31863206980617
 30
0.0
 10
170.9779220206103
 20
14.37967375259599
 30
0.0
 10
171.0350917709096
 20
14.45427353587325
 30
0.0
 10
171.0767868747439
 20
14.54016848668916
 30
0.0
 10
171.1026952846292
 20
14.63500234440952
 30
0.0
 10
171.1118037332653
 20
14.74869363047109
 30
0.0
 10
171.0986864796486
 20
14.8734697177952
 30
0.0
 10
171.0325330334414
 20
14.99029103180635
 30
0.0
 10
170.9369370919569
 20
15.07526923586115
 30
0.0
 10
170.8249681022369
 20
15.14431068467903
 30
0.0
 10
170.6993659583269
 20
15.20218526054632
 30
0.0
 10
170.5656691620857
 20
15.25388107293082
 30
0.0
 10
170.431312281883
 20
15.30913476405923
 30
0.0
 10
170.3051983986877
 20
15.37954154650391
 30
0.0
 10
170.1926579987535
 20
15.46799924739992
 30
0.0
 10
170.0969963064458
 20
15.57995451877214
 30
0.0
 10
170.0334157151825
 20
15.72964294110125
 30
0.0
 10
170.0200706505015
 20
15.88947178393883
 30
0.0
 10
170.0320510987449
 20
16.04062789315586
 30
0.0
 10
170.071229892884
 20
16.16823628600281
 30
0.0
 10
170.135498775091
 20
16.28095258039586
 30
0.0
 10
170.223820499974
 20
16.37662993277428
 30
0.0
 10
170.3338091207627
 20
16.45368598994495
 30
0.0
 10
170.4632284401264
 20
16.51165780945019
 30
0.0
 10
170.6111838967793
 20
16.54753561597565
 30
0.0
 10
170.7682069455487
 20
16.55761103059306
 30
0.0
 10
170.917494046643
 20
16.54878021771332
 30
0.0
 10
171.059625361417
 20
16.52089283349094
 30
0.0
 10
171.1595922609626
 20
16.46427698709881
 30
0.0
 10
171.3125074736184
 20
16.41688986114248
 30
0.0
 10
171.2455131717169
 20
16.33211937009927
 30
0.0
 10
171.2296479120269
 20
16.26453285882225
 30
0.0
 10
171.1978750531297
 20
16.19940476801931
 30
0.0
 10
171.2150202209571
 20
16.09737837265693
 30
0.0
 10
171.1666427208232
 20
16.10507595690643
 30
0.0
 10
171.1315789440765
 20
16.09821155733548
 30
0.0
 10
171.1296697985718
 20
16.16278215166937
 30
0.0
 10
171.0985692931989
 20
16.20840023630136
 30
0.0
 10
171.0664551628456
 20
16.26575420637197
 30
0.0
 10
171.0208038475168
 20
16.315548467013
 30
0.0
 10
170.9658508218387
 20
16.36009197727737
 30
0.0
 10
170.9010841173007
 20
16.39778372845292
 30
0.0
 10
170.8232377310597
 20
16.42297759800094
 30
0.0
 10
170.7355160553352
 20
16.42945615006851
 30
0.0
 10
170.6452903277806
 20
16.42250093294349
 30
0.0
 10
170.5594594694064
 20
16.39923574469663
 30
0.0
 10
170.4828343638596
 20
16.36146028116286
 30
0.0
 10
170.41652656362
 20
16.31066025098315
 30
0.0
 10
170.3622560536964
 20
16.24745527415952
 30
0.0
 10
170.3224925345458
 20
16.17290839719109
 30
0.0
 10
170.2976775510588
 20
16.08931698006505
 30
0.0
 10
170.289212426287
 20
15.98207332391027
 30
0.0
 10
170.3019697987103
 20
15.859798412763
 30
0.0
 10
170.3681548409274
 20
15.74164108299953
 30
0.0
 10
170.4640977399832
 20
15.6562070971827
 30
0.0
 10
170.5757914963182
 20
15.58597746315464
 30
0.0
 10
170.7010863668702
 20
15.52673546314045
 30
0.0
 10
170.8349823941447
 20
15.47631092094874
 30
0.0
 10
170.968993033315
 20
15.42336900993124
 30
0.0
 10
171.0950885316915
 20
15.35764554633917
 30
0.0
 10
171.2076216638417
 20
15.27494736546064
 30
0.0
 10
171.3031370284233
 20
15.17010390318816
 30
0.0
 10
171.3672706486962
 20
15.02951501260311
 30
0.0
 10
171.3811103725279
 20
14.87079793460334
 30
0.0
 10
171.367395471223
 20
14.71167539226617
 30
0.0
 10
171.3244739153984
 20
14.56498212827952
 30
0.0
 10
171.2545906329066
 20
14.43134180595884
 30
0.0
 10
171.1574592213829
 20
14.31546771708033
 30
0.0
 10
171.0347806023657
 20
14.2210436577883
 30
0.0
 10
170.8874408413168
 20
14.15193654660723
 30
0.0
 10
170.7177132497125
 20
14.10967594867594
 30
0.0
 10
170.5317404979596
 20
14.0979612023915
 30
0.0
 10
170.3528955926183
 20
14.10823870692179
 30
0.0
 10
170.1881733753743
 20
14.14980957777895
 30
0.0
 10
170.0834410841057
 20
14.21812026892684
 30
0.0
 10
169.9350960790365
 20
14.26689603040848
 30
0.0
 10
169.9980378194729
 20
14.35990975299583
 30
0.0
 10
170.007227443006
 20
14.43310920257022
 30
0.0
 10
170.0303711301232
 20
14.49950678510088
 30
0.0
 10
170.0034588335316
 20
14.59989193536321
 30
0.0
 10
170.0521338956339
 20
14.59248417526121
 30
0.0
 10
170.0916530580697
 20
14.59908447629637
 30
0.0
 10
170.0996204944701
 20
14.52093087227674
 30
0.0
 10
170.1305436967924
 20
14.48615311384599
 30
0.0
 10
170.1465954835851
 20
14.46810047224736
 30
0.0
 11
170.1465954835851
 21
14.46810047224736
 31
0.0
 11
170.1982038075864
 21
14.40744253823478
 31
0.0
 11
170.2601105501335
 21
14.35285679172062
 31
0.0
 11
170.3327764009802
 21
14.30598364937125
 31
0.0
 11
170.4166468655843
 21
14.26854290285279
 31
0.0
 11
170.511221073241
 21
14.24405020320619
 31
0.0
 11
170.6161603327165
 21
14.23590213897214
 31
0.0
 11
170.7240739497552
 21
14.24578432646965
 31
0.0
 11
170.8208419941616
 21
14.27543088896224
 31
0.0
 11
170.9050776083319
 21
14.32189502957561
 31
0.0
 11
170.9756144207686
 21
14.38205797226892
 31
0.0
 11
171.031944210998
 21
14.45520203475062
 31
0.0
 11
171.0736690016003
 21
14.54035818056264
 31
0.0
 11
171.0994680808032
 21
14.63450574998354
 31
0.0
 11
171.1080824729446
 21
14.73465936106962
 31
0.0
 11
171.0878517703357
 21
14.87657634888139
 31
0.0
 11
171.0272522666731
 21
14.98581068045129
 31
0.0
 11
170.9364971286285
 21
15.07095690438836
 31
0.0
 11
170.826010188474
 21
15.14067130541258
 31
0.0
 11
170.7008523531254
 21
15.19994238178664
 31
0.0
 11
170.5662951950998
 21
15.25418637482862
 31
0.0
 11
170.4316884277007
 21
15.31215658314746
 31
0.0
 11
170.3065802017258
 21
15.38311783312974
 31
0.0
 11
170.196027609828
 21
15.47127699977436
 31
0.0
 11
170.1053381235265
 21
15.58094679141359
 31
0.0
 11
170.0447055469484
 21
15.72194104485057
 31
0.0
 11
170.0245079172553
 21
15.90427644411056
 31
0.0
 11
170.0374030471347
 21
16.04230515935383
 31
0.0
 11
170.0761016659391
 21
16.16747512460031
 31
0.0
 11
170.1393141731506
 21
16.27793646137825
 31
0.0
 11
170.2257499954545
 21
16.37211269399363
 31
0.0
 11
170.3336492808962
 21
16.44860924779393
 31
0.0
 11
170.4613526283328
 21
16.50630054118229
 31
0.0
 11
170.6075393259923
 21
16.54234450818716
 31
0.0
 11
170.770976856545
 21
16.55435769394804
 31
0.0
 11
170.9248918431289
 21
16.54448653075606
 31
0.0
 11
171.0564887242607
 21
16.51491713840239
 31
0.0
 11
171.172563634494
 21
16.46454377903994
 31
0.0
 11
171.2800792741122
 21
16.39278547176619
 31
0.0
 11
171.2516994050444
 21
16.33251008115628
 31
0.0
 11
171.2284855254283
 21
16.26893401346388
 31
0.0
 11
171.2078381040801
 21
16.19493226001011
 31
0.0
 11
171.1871840681487
 21
16.10374581906068
 31
0.0
 11
171.1665597978415
 21
16.10374581906068
 31
0.0
 11
171.1459355275343
 21
16.10374581906068
 31
0.0
 11
171.1256706495791
 21
16.15409492495088
 31
0.0
 11
171.0994658759421
 21
16.2086442912567
 31
0.0
 11
171.0650468924451
 21
16.26330500304856
 31
0.0
 11
171.0203554612937
 21
16.31363977734153
 31
0.0
 11
170.9657333359511
 21
16.35791559330271
 31
0.0
 11
170.9016722004326
 21
16.39450526343243
 31
0.0
 11
170.825968296114
 21
16.41896929988468
 31
0.0
 11
170.7365722046449
 21
16.42715484675763
 31
0.0
 11
170.6440937174207
 21
16.41941357939843
 31
0.0
 11
170.5594072091645
 21
16.39623387454308
 31
0.0
 11
170.483702448884
 21
16.3587787964275
 31
0.0
 11
170.4183754766516
 21
16.30847158289843
 31
0.0
 11
170.3650487887664
 21
16.24614677388621
 31
0.0
 11
170.3254809233901
 21
16.17264331904349
 31
0.0
 11
170.3009523754711
 21
16.09002827566133
 31
0.0
 11
170.2927954104108
 21
16.00056713853094
 31
0.0
 11
170.3130095765617
 21
15.85609692155315
 31
0.0
 11
170.373625616682
 21
15.74605561081678
 31
0.0
 11
170.4643479320758
 21
15.66048054139373
 31
0.0
 11
170.5748676948813
 21
15.58956338863367
 31
0.0
 11
170.7000089937719
 21
15.52928689559321
 31
0.0
 11
170.8345826882553
 21
15.47604831921763
 31
0.0
 11
170.9691729191968
 21
15.42053873589816
 31
0.0
 11
171.0942976816297
 21
15.35391665258152
 31
0.0
 11
171.204800907977
 21
15.27133247725492
 31
0.0
 11
171.2955397598288
 21
15.16814387485014
 31
0.0
 11
171.3561557999489
 21
15.03566699988326
 31
0.0
 11
171.3763699660998
 21
14.86540762492581
 31
0.0
 11
171.3621839747998
 21
14.71147414406154
 31
0.0
 11
171.3196087009193
 21
14.56619915277839
 31
0.0
 11
171.2499752884265
 21
14.4341323819781
 31
0.0
 11
171.1544992078713
 21
14.32021602783989
 31
0.0
 11
171.0341060772624
 21
14.2272965660576
 31
0.0
 11
170.8896160201846
 21
14.15846741676922
 31
0.0
 11
170.7223519532713
 21
14.11595659212709
 31
0.0
 11
170.5336103348226
 21
14.10180248622783
 31
0.0
 11
170.3405031726387
 21
14.11595659212709
 31
0.0
 11
170.1878975900911
 21
14.15846741676922
 31
0.0
 11
170.0661897942203
 21
14.21913417022632
 31
0.0
 11
169.9660261826363
 21
14.28748706951479
 31
0.0
 11
169.9922320587039
 21
14.36269929171818
 31
0.0
 11
170.0090121537618
 21
14.43029151392354
 31
0.0
 11
170.0206196447852
 21
14.50290310244704
 31
0.0
 11
170.0313606254139
 21
14.59367172221601
 31
0.0
 11
170.0520069443315
 21
14.59367172221601
 31
0.0
 11
170.0726532632492
 21
14.59367172221601
 31
0.0
 11
170.1048916391629
 21
14.53133588889825
 31
0.0
 11
170.1465954835851
 21
14.46810047224736
 31
0.0
  0
SPLINE
  5
A5
102
{ACAD_REACTORS
330
C3
102
}
330
48
100
AcDbEntity
  8
_U_30EC_U_30A4_U_30E4_U_30FC_1
  6
Continuous
 62
     2
100
AcDbSpline
210
0.0
220
0.0
230
1.0
 70
    11
 71
     3
 72
    57
 73
    53
 74
    51
 42
0.000000001
 43
0.0000000001
 44
0.00000001
 40
0.0
 40
0.0
 40
0.0
 40
0.0
 40
0.0471632082809233
 40
0.0914861054632152
 40
0.1357762519702388
 40
0.1826527001610682
 40
0.2295203288572591
 40
0.2737751972220761
 40
0.3181310461543071
 40
0.3652607198398512
 40
0.4571007286314467
 40
0.5671851029165195
 40
0.6894623283868331
 40
0.8181758272545984
 40
0.951008722927399
 40
1.085852229674056
 40
1.218126164475314
 40
1.343545131142385
 40
1.454537202956802
 40
1.567187607530811
 40
1.68071096664243
 40
1.794226869736794
 40
1.900009184247593
 40
2.004085860447873
 40
2.108162674451761
 40
2.214000150155305
 40
2.496038577352141
 40
2.762350745479281
 40
2.997275353279412
 40
3.185110082137736
 40
3.246407890063963
 40
3.312607550212694
 40
3.378877742711596
 40
3.440140399651451
 40
4.100501696006472
 40
4.754913085563527
 40
5.411331693423932
 40
6.077890432568717
 40
6.110575292670996
 40
6.143260152775776
 40
6.367989363395168
 40
6.610525374951565
 40
6.863389136467327
 40
7.119380025547614
 40
7.376036605091109
 40
7.631164770966308
 40
7.876722425456435
 40
8.104953735855977
 40
8.312916685924316
 40
8.49773029494132
 40
8.65101898431387
 40
8.764738853624605
 40
8.764738853624605
 40
8.764738853624605
 40
8.764738853624605
 10
174.7922649500513
 20
14.14641123621669
 30
0.0
 10
174.7766616726931
 20
14.14840615087819
 30
0.0
 10
174.7463947960302
 20
14.15227585369041
 30
0.0
 10
174.7010994202251
 20
14.15356368976009
 30
0.0
 10
174.6559553129349
 20
14.15323067562793
 30
0.0
 10
174.6099017123399
 20
14.15329042682966
 30
0.0
 10
174.5640496172096
 20
14.15340197658743
 30
0.0
 10
174.5183711648165
 20
14.15292217465333
 30
0.0
 10
174.4750811541608
 20
14.15475493627463
 30
0.0
 10
174.4039947951514
 20
14.13063940823399
 30
0.0
 10
174.4057477261441
 20
14.25199077985993
 30
0.0
 10
174.358619637057
 20
14.33740623759975
 30
0.0
 10
174.3191478251762
 20
14.45501313353877
 30
0.0
 10
174.2706635532644
 20
14.5724713654918
 30
0.0
 10
174.2201017402523
 20
14.69420319770252
 30
0.0
 10
174.1718634610477
 20
14.82090351871207
 30
0.0
 10
174.1135232947594
 20
14.92948071793694
 30
0.0
 10
174.0980892667261
 20
15.08635041143152
 30
0.0
 10
173.9566586330636
 20
15.05387830557064
 30
0.0
 10
173.8508397414903
 20
15.06527272690922
 30
0.0
 10
173.7358569725222
 20
15.06406975523357
 30
0.0
 10
173.625314225214
 20
15.0652132935615
 30
0.0
 10
173.5176583522783
 20
15.06432734046268
 30
0.0
 10
173.4121322529242
 20
15.06430986399261
 30
0.0
 10
173.3109192682013
 20
15.05728416481157
 30
0.0
 10
173.1266804827752
 20
15.0815024386861
 30
0.0
 10
173.1157393685412
 20
14.77756075130627
 30
0.0
 10
173.008769163475
 20
14.55367561262139
 30
0.0
 10
172.9098148604347
 20
14.36909698301239
 30
0.0
 10
172.9225090524007
 20
14.12544588812948
 30
0.0
 10
172.8050091716397
 20
14.15522430761939
 30
0.0
 10
172.742205586831
 20
14.15272473518346
 30
0.0
 10
172.67858720934
 20
14.15358459111547
 30
0.0
 10
172.3946014194075
 20
14.11112423950688
 30
0.0
 10
173.025163849938
 20
14.83096336453527
 30
0.0
 10
173.1087645289071
 20
15.34290923444471
 30
0.0
 10
173.4929252789339
 20
15.86368127558784
 30
0.0
 10
173.4777208288565
 20
16.56534010261957
 30
0.0
 10
173.7239265722697
 20
16.55360017089999
 30
0.0
 10
173.8256346157561
 20
16.56239388461515
 30
0.0
 10
173.8249752035818
 20
16.31074034739088
 30
0.0
 10
173.9428317155829
 20
16.128324047427
 30
0.0
 10
174.0315515260485
 20
15.88578124671608
 30
0.0
 10
174.1322292485259
 20
15.65354414538869
 30
0.0
 10
174.2311142712243
 20
15.41689028575655
 30
0.0
 10
174.3299676990668
 20
15.18476123178835
 30
0.0
 10
174.4256166390926
 20
14.9613660679753
 30
0.0
 10
174.5159904573271
 20
14.75286933058058
 30
0.0
 10
174.5989944568189
 20
14.56322832538061
 30
0.0
 10
174.6726088582799
 20
14.39677490076841
 30
0.0
 10
174.7342815895546
 20
14.25932083634839
 30
0.0
 10
174.7749458885604
 20
14.18013623438776
 30
0.0
 10
174.7922649500513
 20
14.14641123621669
 30
0.0
 11
174.7922649500513
 21
14.14641123621669
 31
0.0
 11
174.7453878317448
 21
14.15159817197927
 31
0.0
 11
174.7010975896125
 21
14.15329922232604
 31
0.0
 11
174.6568074431729
 21
14.15329922232604
 31
0.0
 11
174.6099309947159
 21
14.15329922232604
 31
0.0
 11
174.5630633657033
 21
14.15329922232604
 31
0.0
 11
174.5188084970408
 21
14.15329922232604
 31
0.0
 11
174.4744852776854
 21
14.15159817197927
 31
0.0
 11
174.4276419021443
 21
14.14641123621669
 31
0.0
 11
174.3992532136325
 21
14.23375350181986
 31
0.0
 11
174.3622721815898
 21
14.33744040283561
 31
0.0
 11
174.3188386236701
 21
14.45174371009869
 31
0.0
 11
174.2711055866936
 21
14.57127915277711
 31
0.0
 11
174.2208160133237
 21
14.69422441316307
 31
0.0
 11
174.1696467003932
 21
14.81898206938188
 31
0.0
 11
174.1197531801326
 21
14.94148525511514
 31
0.0
 11
174.0733119111841
 21
15.05798901376659
 31
0.0
 11
173.9623611907589
 21
15.06101849293248
 31
0.0
 11
173.8497309225089
 21
15.06314838876532
 31
0.0
 11
173.7362152069449
 21
15.06446579327882
 31
0.0
 11
173.62270004768
 21
15.06487699987594
 31
0.0
 11
173.5169185312816
 21
15.06446579327882
 31
0.0
 11
173.4128501919225
 21
15.06314838876532
 31
0.0
 11
173.3087951724045
 21
15.06101849293248
 31
0.0
 11
173.2030010615596
 21
15.05798901376659
 31
0.0
 11
173.0980914750139
 21
14.79618821522093
 31
0.0
 11
173.0034868690331
 21
14.54724616667202
 31
0.0
 11
172.9252231210298
 21
14.32574140978299
 31
0.0
 11
172.8693431224555
 21
14.14641123621669
 31
0.0
 11
172.8082651639442
 21
14.15159817197927
 31
0.0
 11
172.742087361813
 21
14.15329922232604
 31
0.0
 11
172.6758390041282
 21
14.15159817197927
 31
0.0
 11
172.6147963233938
 21
14.14641123621669
 31
0.0
 11
172.889968495193
 21
14.74670892703884
 31
0.0
 11
173.158294573417
 21
15.34358026369517
 31
0.0
 11
173.4240277350405
 21
15.94380629653123
 31
0.0
 11
173.6914740737033
 21
16.55435769394804
 31
0.0
 11
173.7241589339806
 21
16.55435769394804
 31
0.0
 11
173.7568437942579
 21
16.55435769394804
 31
0.0
 11
173.8428300681057
 21
16.34672923045826
 31
0.0
 11
173.9357285813609
 21
16.12268998572259
 31
0.0
 11
174.0328714521463
 21
15.88923047189211
 31
0.0
 11
174.1317936458031
 21
15.65312512472887
 31
0.0
 11
174.2315341249927
 21
15.41664164388526
 31
0.0
 11
174.3313071129353
 21
15.18183165262452
 31
0.0
 11
174.4280608257448
 21
14.95613876205592
 31
0.0
 11
174.5188084970408
 21
14.74672436106661
 31
0.0
 11
174.6022150834546
 21
14.55621995139202
 31
0.0
 11
174.6770293263377
 21
14.38722616671209
 31
0.0
 11
174.7410729186603
 21
14.2479572170941
 31
0.0
 11
174.7922649500513
 21
14.14641123621669
 31
0.0
  0
SPLINE
  5
A6
102
{ACAD_REACTORS
330
C3
102
}
330
48
100
AcDbEntity
  8
_U_30EC_U_30A4_U_30E4_U_30FC_1
  6
Continuous
 62
     2
100
AcDbSpline
210
0.0
220
0.0
230
1.0
 70
    11
 71
     3
 72
    25
 73
    21
 74
    19
 42
0.000000001
 43
0.0000000001
 44
0.00000001
 40
0.0
 40
0.0
 40
0.0
 40
0.0
 40
0.0911479969064822
 40
0.1858117896204665
 40
0.280412839973449
 40
0.3715889190714509
 40
0.4679080494218707
 40
0.5642683809229229
 40
0.6605683222644989
 40
0.7569653015810254
 40
0.8561348172522721
 40
1.092615965104291
 40
1.374867658141875
 40
1.611348812011601
 40
1.710518328425247
 40
1.809403163726563
 40
2.045205463294067
 40
2.326646917622127
 40
2.56244921719059
 40
2.661334043833908
 40
2.661334043833908
 40
2.661334043833908
 40
2.661334043833908
 10
173.2683700567199
 20
15.21628922206034
 30
0.0
 10
173.2987525917923
 20
15.21612463723296
 30
0.0
 10
173.3606895889111
 20
15.21578912698664
 30
0.0
 10
173.454135696033
 20
15.21283439460742
 30
0.0
 10
173.5475095236357
 20
15.20992136885893
 30
0.0
 10
173.6417760753477
 20
15.20908585652159
 30
0.0
 10
173.7354964790967
 20
15.21011028666789
 30
0.0
 10
173.8352040303205
 20
15.20931361479714
 30
0.0
 10
173.9188949546312
 20
15.21935794243961
 30
0.0
 10
174.0637996315045
 20
15.19249001682907
 30
0.0
 10
173.9396132444801
 20
15.3667991428879
 30
0.0
 10
173.8965867286282
 20
15.52666095014833
 30
0.0
 10
173.7808922142209
 20
15.78532842558957
 30
0.0
 10
173.7017565431257
 20
15.922454368706
 30
0.0
 10
173.6431576621816
 20
16.13951417142819
 30
0.0
 10
173.5864803939438
 20
15.9228051822217
 30
0.0
 10
173.5052809900477
 20
15.78341396446978
 30
0.0
 10
173.4063701281488
 20
15.53421353378937
 30
0.0
 10
173.3253625094259
 20
15.34940214234815
 30
0.0
 10
173.2813683325838
 20
15.24664830864859
 30
0.0
 10
173.2683700567199
 20
15.21628922206034
 30
0.0
 11
173.2683700567199
 21
15.21628922206034
 31
0.0
 11
173.359513773782
 21
15.21540507275501
 31
0.0
 11
173.4541428297581
 21
15.21284081928341
 31
0.0
 11
173.5487082179706
 21
15.2102434928952
 31
0.0
 11
173.6398803250196
 21
15.20939241650652
 31
0.0
 11
173.7361985777706
 21
15.20980362310363
 31
0.0
 11
173.8325499034376
 21
15.21112102761713
 31
0.0
 11
173.9288262638286
 21
15.21325202588054
 31
0.0
 11
174.0251753846343
 21
15.21628922206034
 31
0.0
 11
173.9854633323141
 21
15.30716026203762
 31
0.0
 11
173.8907653613968
 21
15.52385274198344
 31
0.0
 11
173.7777387509471
 21
15.78248570191877
 31
0.0
 11
173.6830407800297
 21
15.99917818186459
 31
0.0
 11
173.6433287277095
 21
16.09004922184187
 31
0.0
 11
173.6043330259266
 21
15.99917818186459
 31
0.0
 11
173.5113432755212
 21
15.78248570191877
 31
0.0
 11
173.4003555089082
 21
15.52385274198344
 31
0.0
 11
173.3073657585028
 21
15.30716026203762
 31
0.0
 11
173.2683700567199
 21
15.21628922206034
 31
0.0
  0
SPLINE
  5
A7
102
{ACAD_REACTORS
330
C4
102
}
330
48
100
AcDbEntity
  8
_U_30EC_U_30A4_U_30E4_U_30FC_1
  6
Continuous
 62
     2
100
AcDbSpline
210
0.0
220
0.0
230
1.0
 70
    11
 71
     3
 72
    95
 73
    91
 74
    89
 42
0.000000001
 43
0.0000000001
 44
0.00000001
 40
0.0
 40
0.0
 40
0.0
 40
0.0
 40
0.6550406656911547
 40
1.30808728903194
 40
1.420803739835811
 40
1.566130759770811
 40
1.757067341888474
 40
2.00651354502647
 40
2.087328263121567
 40
2.185328872295641
 40
2.294612454748383
 40
2.408936380534824
 40
2.526802767798576
 40
2.646360524615621
 40
2.762535723971598
 40
2.870057342870172
 40
2.966883448431664
 40
3.05080324351831
 40
3.115818222436623
 40
3.156030057150258
 40
3.21391422508016
 40
3.276689026450561
 40
3.342960320981338
 40
3.404230667150587
 40
3.453822809493399
 40
3.532499827188453
 40
3.634775188507191
 40
3.754909333008188
 40
3.889736761660686
 40
4.035769602175252
 40
4.187256681197635
 40
4.338733685675984
 40
4.488478734676145
 40
4.634708317831614
 40
4.771493189921301
 40
4.892686571561238
 40
5.199775528944476
 40
5.460353566929662
 40
5.667603142345539
 40
5.814722905404522
 40
5.82899080621982
 40
5.855488336304517
 40
5.869756237118849
 40
6.189796507762859
 40
6.531890469873041
 40
6.883053637017035
 40
7.230512024911508
 40
7.566966656764615
 40
7.885203559707442
 40
8.172887439719242
 40
8.418011594062795
 40
8.443926721190719
 40
8.510760470613205
 40
8.602145393795714
 40
8.701714041647152
 40
8.793098965075384
 40
8.859932715057958
 40
8.885847842603606
 40
9.24230125661282
 40
9.589275455016775
 40
9.921808543164175
 40
10.23479624298468
 40
10.29968150889179
 40
10.35323493887767
 40
10.40154625355152
 40
10.46482922477828
 40
10.55973900668408
 40
10.69239545985622
 40
10.84920353475675
 40
11.01626328594783
 40
11.18672024367446
 40
11.35372582577214
 40
11.5025744229243
 40
11.61866495023294
 40
11.71329869152878
 40
11.82511050573911
 40
11.94464880845719
 40
12.0692924264251
 40
12.1970729043518
 40
12.32562632860532
 40
12.45034565331282
 40
12.56646595170331
 40
12.67099007414638
 40
12.76077625936786
 40
12.82703233506698
 40
12.87429132785996
 40
12.89831990323336
 40
12.92234847860024
 40
13.53984767410323
 40
14.18294284359368
 40
14.18294284359368
 40
14.18294284359368
 40
14.18294284359368
 10
177.3067935648021
 20
15.03912422210466
 30
0.0
 10
177.1752019758551
 20
15.15279442611973
 30
0.0
 10
176.9124193802728
 20
15.37978880324899
 30
0.0
 10
176.399739344102
 20
16.2222884696503
 30
0.0
 10
176.4106654595363
 20
15.86437761585761
 30
0.0
 10
176.4041226527991
 20
15.72281776280875
 30
0.0
 10
176.4028026631772
 20
15.52435689308023
 30
0.0
 10
176.4018117602538
 20
15.35164680054724
 30
0.0
 10
176.4024101751974
 20
15.20879757266322
 30
0.0
 10
176.4038994301883
 20
15.11279389422099
 30
0.0
 10
176.4055683588472
 20
15.00559887271883
 30
0.0
 10
176.4071934954618
 20
14.89178595526324
 30
0.0
 10
176.4092429501685
 20
14.7745595661333
 30
0.0
 10
176.4123165501928
 20
14.65670795241712
 30
0.0
 10
176.4156339697042
 20
14.54242471329362
 30
0.0
 10
176.4193605340279
 20
14.43535785876018
 30
0.0
 10
176.4217338161425
 20
14.34021792775664
 30
0.0
 10
176.4278718888357
 20
14.25572941214436
 30
0.0
 10
176.4239784495947
 20
14.19937471306884
 30
0.0
 10
176.4455230443077
 20
14.12839406481097
 30
0.0
 10
176.3680940058618
 20
14.15917061613225
 30
0.0
 10
176.3116353240191
 20
14.15025626526356
 30
0.0
 10
176.2540495896807
 20
14.15910602407017
 30
0.0
 10
176.1690163478472
 20
14.12752609234687
 30
0.0
 10
176.2009714146382
 20
14.21109540000932
 30
0.0
 10
176.1990705282539
 20
14.27896992977051
 30
0.0
 10
176.2107960047299
 20
14.3824764077316
 30
0.0
 10
176.2164241053
 20
14.50016509625437
 30
0.0
 10
176.2237902178941
 20
14.63402993173165
 30
0.0
 10
176.232075970161
 20
14.77778536881373
 30
0.0
 10
176.2398851897426
 20
14.92728406852186
 30
0.0
 10
176.2457571222658
 20
15.0780693341082
 30
0.0
 10
176.2503667817968
 20
15.2271432788718
 30
0.0
 10
176.2542632117542
 20
15.37137297171764
 30
0.0
 10
176.2570715126564
 20
15.5059828922176
 30
0.0
 10
176.2576698755022
 20
15.69483998356097
 30
0.0
 10
176.261602386715
 20
15.91989878321896
 30
0.0
 10
176.2442175378499
 20
16.19381475134449
 30
0.0
 10
176.2850417342582
 20
16.35801496107339
 30
0.0
 10
176.1995153256004
 20
16.55764045473839
 30
0.0
 10
176.2660558907687
 20
16.5539984241272
 30
0.0
 10
176.2838724273231
 20
16.55427831169596
 30
0.0
 10
176.4056801797501
 20
16.55647311407355
 30
0.0
 10
176.5080770335463
 20
16.27689502730256
 30
0.0
 10
176.7580021509356
 20
16.07577392544744
 30
0.0
 10
176.987003533111
 20
15.80806998996659
 30
0.0
 10
177.2245151213109
 20
15.55660797871118
 30
0.0
 10
177.4486090740772
 20
15.31984358070101
 30
0.0
 10
177.6750716283009
 20
15.06233076591822
 30
0.0
 10
177.8325687886513
 20
14.94663719065663
 30
0.0
 10
178.0472129612675
 20
14.61011536547536
 30
0.0
 10
178.0422645974618
 20
14.73479138100346
 30
0.0
 10
178.0433931602546
 20
14.79342075944479
 30
0.0
 10
178.0428877841517
 20
14.88058046380719
 30
0.0
 10
178.0430475158113
 20
14.97430527191614
 30
0.0
 10
178.0430054891318
 20
15.06033355305777
 30
0.0
 10
178.0430202040372
 20
15.12168275954237
 30
0.0
 10
178.0429706255985
 20
15.27149615529735
 30
0.0
 10
178.045881152281
 20
15.51003996518845
 30
0.0
 10
178.0259521041161
 20
15.87500893877443
 30
0.0
 10
178.0750433936248
 20
16.13814016002155
 30
0.0
 10
177.917795150918
 20
16.54943288956493
 30
0.0
 10
178.0762112872421
 20
16.4941266656049
 30
0.0
 10
178.1311680478628
 20
16.49214070508917
 30
0.0
 10
178.182788776674
 20
16.49279162256994
 30
0.0
 10
178.2713198965366
 20
16.53383911746987
 30
0.0
 10
178.2204898303168
 20
16.38710710631727
 30
0.0
 10
178.2313389930283
 20
16.28034355963174
 30
0.0
 10
178.2166036994848
 20
16.12100089422854
 30
0.0
 10
178.2099976446204
 20
15.95867445661615
 30
0.0
 10
178.2014961399914
 20
15.79006905901137
 30
0.0
 10
178.1943227202198
 20
15.62829198712283
 30
0.0
 10
178.1889063215389
 20
15.48436715466674
 30
0.0
 10
178.1871713967648
 20
15.36451877475666
 30
0.0
 10
178.1875440672319
 20
15.25700485599257
 30
0.0
 10
178.1873656126262
 20
15.14834408654328
 30
0.0
 10
178.187701086314
 20
15.02967954174272
 30
0.0
 10
178.1890040622184
 20
14.90569547521483
 30
0.0
 10
178.1908887351574
 20
14.77872678179846
 30
0.0
 10
178.1925004454851
 20
14.65168245559774
 30
0.0
 10
178.1941403137429
 20
14.52869268500919
 30
0.0
 10
178.1962570745752
 20
14.41315315392501
 30
0.0
 10
178.1963848422364
 20
14.31105287964579
 30
0.0
 10
178.2006514396555
 20
14.22024232846898
 30
0.0
 10
178.1908440085288
 20
14.16228005217528
 30
0.0
 10
178.211847477169
 20
14.09531514140771
 30
0.0
 10
178.1725639739896
 20
14.10305537975429
 30
0.0
 10
177.9595307117748
 20
14.08769638153939
 30
0.0
 10
177.7636297943185
 20
14.6441744210321
 30
0.0
 10
177.4611197631544
 20
14.90570419357251
 30
0.0
 10
177.3067935648021
 20
15.03912422210466
 30
0.0
 11
177.3067935648021
 21
15.03912422210466
 31
0.0
 11
176.8595529338511
 21
15.51772019420719
 31
0.0
 11
176.4124049070643
 21
15.99367033297712
 31
0.0
 11
176.4089664262494
 21
15.88100633994974
 31
0.0
 11
176.40556101835
 21
15.73571922193052
 31
0.0
 11
176.4029636920274
 21
15.5448002983671
 31
0.0
 11
176.4021126156603
 21
15.29535554148499
 31
0.0
 11
176.4025239230289
 21
15.21454186963022
 31
0.0
 11
176.4038420329817
 21
15.11655012486303
 31
0.0
 11
176.4055192267718
 21
15.00727941308481
 31
0.0
 11
176.4072367127518
 21
14.89296838880781
 31
0.0
 11
176.4094007838772
 21
14.77512186974007
 31
0.0
 11
176.4124049070643
 21
14.65560186108941
 31
0.0
 11
176.4158359733138
 21
14.53947733854898
 31
0.0
 11
176.4192928929998
 21
14.43201130558971
 31
0.0
 11
176.4227085253088
 21
14.33524546360006
 31
0.0
 11
176.4261896983793
 21
14.25139790285714
 31
0.0
 11
176.4296006184313
 21
14.18647246016501
 31
0.0
 11
176.4330776843148
 21
14.14641123621669
 31
0.0
 11
176.3754263821571
 21
14.15159817197927
 31
0.0
 11
176.3126746318309
 21
14.15329922232604
 31
0.0
 11
176.2464251717157
 21
14.15159817197927
 31
0.0
 11
176.1853747739675
 21
14.14641123621669
 31
0.0
 11
176.1926772737812
 21
14.19546278134332
 31
0.0
 11
176.2008793569054
 21
14.27371109729597
 31
0.0
 11
176.2090098822348
 21
14.37566277261771
 31
0.0
 11
176.2163406441397
 21
14.49557304168494
 31
0.0
 11
176.2236358280421
 21
14.63020296352631
 31
0.0
 11
176.2318444255596
 21
14.77600491661487
 31
0.0
 11
176.2395504149465
 21
14.92729587143815
 31
0.0
 11
176.2455763002093
 21
15.07865297209476
 31
0.0
 11
176.2503046247416
 21
15.22832335400177
 31
0.0
 11
176.254192897212
 21
15.37450123590964
 31
0.0
 11
176.2567527408965
 21
15.51126215601438
 31
0.0
 11
176.2576324804574
 21
15.63245234695632
 31
0.0
 11
176.257192610677
 21
15.93954099271286
 31
0.0
 11
176.2559126888347
 21
16.20011588848107
 31
0.0
 11
176.2528658717893
 21
16.40734306724867
 31
0.0
 11
176.2473049112763
 21
16.55435769394804
 31
0.0
 11
176.2615728121469
 21
16.55435769394804
 31
0.0
 11
176.2880703423352
 21
16.55435769394804
 31
0.0
 11
176.3023382432058
 21
16.55435769394804
 31
0.0
 11
176.5194743650277
 21
16.31924563671515
 31
0.0
 11
176.7512744123079
 21
16.06765665240304
 31
0.0
 11
176.9894816018839
 21
15.80963939552312
 31
0.0
 11
177.2260074557521
 21
15.55511463864231
 31
0.0
 11
177.4555698717705
 21
15.30914143557879
 31
0.0
 11
177.6731797360103
 21
15.07693318042849
 31
0.0
 11
177.8713724913707
 21
14.86841064575842
 31
0.0
 11
178.0430143099086
 21
14.69341081941331
 31
0.0
 11
178.0430143099086
 21
14.71932594695785
 31
0.0
 11
178.0430143099086
 21
14.78615969694113
 31
0.0
 11
178.0430143099086
 21
14.87754462038767
 31
0.0
 11
178.0430143099086
 21
14.97711326832195
 31
0.0
 11
178.0430143099086
 21
15.06849819176848
 31
0.0
 11
178.0430143099086
 21
15.13533194175177
 31
0.0
 11
178.0430143099086
 21
15.16124706929631
 31
0.0
 11
178.0417233637609
 21
15.51769814559609
 31
0.0
 11
178.0378461155958
 21
15.86465068023157
 31
0.0
 11
178.0296197790002
 21
16.19708199959293
 31
0.0
 11
178.0154535467228
 21
16.50974894395921
 31
0.0
 11
178.0790351249618
 21
16.49680751167076
 31
0.0
 11
178.1324170159611
 21
16.49252456896349
 31
0.0
 11
178.1805381084833
 21
16.49680751167076
 31
0.0
 11
178.2424836798197
 21
16.50974894395921
 31
0.0
 11
178.2351216487575
 21
16.41512512453842
 31
0.0
 11
178.2269790968818
 21
16.28271880512705
 31
0.0
 11
178.2183705364004
 21
16.12614720794397
 31
0.0
 11
178.2097547223215
 21
15.95930977743012
 31
0.0
 11
178.2016187850288
 21
15.78904709518102
 31
0.0
 11
178.1942501393835
 21
15.62220415251442
 31
0.0
 11
178.1891406931522
 21
15.47344327581551
 31
0.0
 11
178.1874503478904
 21
15.35736505535843
 31
0.0
 11
178.1874503478904
 21
15.26273131406261
 31
0.0
 11
178.1874503478904
 21
15.15091949985449
 31
0.0
 11
178.1878461204497
 21
15.03138185231491
 31
0.0
 11
178.1890819450708
 21
14.90674436102661
 31
0.0
 11
178.1908392193317
 21
14.77897596696133
 31
0.0
 11
178.1925303477608
 21
14.65043366664621
 31
0.0
 11
178.1942876220214
 21
14.52572672223297
 31
0.0
 11
178.1959787504505
 21
14.40961873615091
 31
0.0
 11
178.1972884379172
 21
14.30510280735759
 31
0.0
 11
178.1976985420735
 21
14.21531755564394
 31
0.0
 11
178.1976985420735
 21
14.14906147927157
 31
0.0
 11
178.1976985420735
 21
14.10180248622783
 31
0.0
 11
178.1736699662976
 21
14.10180248622783
 31
0.0
 11
178.1496413905217
 21
14.10180248622783
 31
0.0
 11
177.7410729200423
 21
14.56481119270932
 31
0.0
 11
177.3067935648021
 21
15.03912422210466
 31
0.0
  0
SPLINE
  5
A8
102
{ACAD_REACTORS
330
C5
102
}
330
48
100
AcDbEntity
  8
_U_30EC_U_30A4_U_30E4_U_30FC_1
  6
Continuous
 62
     2
100
AcDbSpline
210
0.0
220
0.0
230
1.0
 70
    11
 71
     3
 72
   110
 73
   106
 74
   104
 42
0.000000001
 43
0.0000000001
 44
0.00000001
 40
0.0
 40
0.0
 40
0.0
 40
0.0
 40
0.2203406257277737
 40
0.4407808782838091
 40
0.5952494494615068
 40
0.7488431659393073
 40
0.9023581831309057
 40
1.056801968670404
 40
1.210736449099905
 40
1.363041386539783
 40
1.515315729683126
 40
1.669377239148077
 40
1.721611652756564
 40
1.773199502942944
 40
1.824933793209997
 40
1.877110426487981
 40
1.982682281206745
 40
2.078781667087554
 40
2.172809640822275
 40
2.271937807378929
 40
2.378349933379322
 40
2.494131557736511
 40
2.626681683943644
 40
2.783145050796072
 40
2.890701232940932
 40
2.993130312454839
 40
3.099869730691807
 40
3.220237816691301
 40
3.352695482737589
 40
3.481732806389841
 40
3.59349947369037
 40
3.674323013331886
 40
3.817951711952836
 40
3.946167120793833
 40
4.061405053453519
 40
4.166480796003159
 40
4.262478775059197
 40
4.350736673551153
 40
4.433071991254039
 40
4.511216293814641
 40
4.564262454117961
 40
4.618474415571583
 40
4.670128488754178
 40
4.722296879126376
 40
4.819540945314245
 40
4.931194984128102
 40
5.049996040257744
 40
5.16864375541529
 40
5.283970811762501
 40
5.392260784910326
 40
5.486512254876401
 40
5.5591782339498
 40
5.591425852853469
 40
5.626215969637853
 40
5.667155838674395
 40
5.717449290214206
 40
5.738402360944819
 40
5.784499116553783
 40
5.830595872164754
 40
5.851548942897613
 40
5.873019280661727
 40
5.924217778408271
 40
5.98532566281765
 40
6.036524160567665
 40
6.057994498334193
 40
6.236847789607448
 40
6.381409928945619
 40
6.493190424178647
 40
6.574067534230458
 40
6.691018086205553
 40
6.81488155422047
 40
6.944307823240423
 40
7.071266716066047
 40
7.193488604461892
 40
7.309042773128119
 40
7.414007203170744
 40
7.5051404418865
 40
7.53115036059966
 40
7.559221645322244
 40
7.587202218920902
 40
7.612569159499114
 40
7.662550809480989
 40
7.702878875764122
 40
7.857328205230936
 40
8.010799568088581
 40
8.165256399657531
 40
8.32223269871387
 40
8.479564855016557
 40
8.63521623029076
 40
8.790882550925678
 40
8.948305154947244
 40
9.168271839032935
 40
9.387358980987207
 40
9.60804796103345
 40
9.83291423479265
 40
9.858338694962985
 40
9.925366817229994
 40
10.02013071422758
 40
10.12876249858996
 40
10.23739428295247
 40
10.33215817995188
 40
10.39918630222392
 40
10.42461076239781
 40
10.64992019336941
 40
10.87188524531185
 40
10.87188524531185
 40
10.87188524531185
 40
10.87188524531185
 10
179.9057788376618
 20
16.06937644406932
 30
0.0
 10
179.909286493354
 20
16.13630846082545
 30
0.0
 10
179.9163033987663
 20
16.27020275924601
 30
0.0
 10
179.8198027599072
 20
16.55562938980212
 30
0.0
 10
180.0510134726108
 20
16.49298770199026
 30
0.0
 10
180.1919290057156
 20
16.50015938064732
 30
0.0
 10
180.3490417757588
 20
16.49250267086986
 30
0.0
 10
180.5025913427287
 20
16.49267136291782
 30
0.0
 10
180.6545104935081
 20
16.49196424544174
 30
0.0
 10
180.8142214813231
 20
16.50224542360381
 30
0.0
 10
180.9408972601117
 20
16.48510895089493
 30
0.0
 10
181.137082112208
 20
16.55741644115889
 30
0.0
 10
181.1034395279078
 20
16.45655083088858
 30
0.0
 10
181.1052011317184
 20
16.40633637956413
 30
0.0
 10
181.1027342073458
 20
16.35726719595207
 30
0.0
 10
181.1347076966011
 20
16.2707787485574
 30
0.0
 10
181.0010399903256
 20
16.32011822617079
 30
0.0
 10
180.9172208688056
 20
16.31445018322909
 30
0.0
 10
180.8173861139324
 20
16.3247990071504
 30
0.0
 10
180.7186576720145
 20
16.33100834419829
 30
0.0
 10
180.612153277111
 20
16.3371214782552
 30
0.0
 10
180.4910511698059
 20
16.34603267493327
 30
0.0
 10
180.3703381502453
 20
16.33535989921126
 30
0.0
 10
180.1812553843436
 20
16.39482887089109
 30
0.0
 10
180.2129028505311
 20
16.23572704086281
 30
0.0
 10
180.1995563316833
 20
16.13853512348646
 30
0.0
 10
180.1974958426451
 20
16.02648449118844
 30
0.0
 10
180.195818804467
 20
15.90714069638093
 30
0.0
 10
180.1973336794233
 20
15.78046976163851
 30
0.0
 10
180.195658247867
 20
15.65315972024859
 30
0.0
 10
180.2058844271657
 20
15.55465950413206
 30
0.0
 10
180.1779006596583
 20
15.41403086634372
 30
0.0
 10
180.3508029999305
 20
15.47003935142836
 30
0.0
 10
180.4645020202772
 20
15.45734335487241
 30
0.0
 10
180.5840151672239
 20
15.46462761059997
 30
0.0
 10
180.6888491425071
 20
15.46892401065497
 30
0.0
 10
180.7843084898612
 20
15.47344952267719
 30
0.0
 10
180.8763823507032
 20
15.48163585154941
 30
0.0
 10
180.9476551782439
 20
15.47658234646853
 30
0.0
 10
181.0544931705685
 20
15.51550809040416
 30
0.0
 10
181.0226603598035
 20
15.43531506014621
 30
0.0
 10
181.0266164503929
 20
15.38577320854775
 30
0.0
 10
181.0234502392013
 20
15.3357186204856
 30
0.0
 10
181.0550791490585
 20
15.25143231620765
 30
0.0
 10
180.9210133677691
 20
15.30439749503899
 30
0.0
 10
180.82923227932
 20
15.29554464899183
 30
0.0
 10
180.7079729189603
 20
15.30584433973896
 30
0.0
 10
180.5914113119771
 20
15.30763295776244
 30
0.0
 10
180.4783375745878
 20
15.30801401118435
 30
0.0
 10
180.3679246308471
 20
15.31429833480922
 30
0.0
 10
180.289812406784
 20
15.30203517264106
 30
0.0
 10
180.1913625833643
 20
15.33468271624868
 30
0.0
 10
180.2012355173561
 20
15.27784132062948
 30
0.0
 10
180.1973923244403
 20
15.24406514566726
 30
0.0
 10
180.1966789884268
 20
15.20133988718153
 30
0.0
 10
180.1963369642975
 20
15.16415991270894
 30
0.0
 10
180.1963834255346
 20
15.12501621379513
 30
0.0
 10
180.1963649429927
 20
15.08731233506427
 30
0.0
 10
180.1963703431805
 20
15.04959339241144
 30
0.0
 10
180.19636972142
 20
15.02008708753892
 30
0.0
 10
180.1963698151546
 20
14.98887961708043
 30
0.0
 10
180.196370428792
 20
14.94428808916827
 30
0.0
 10
180.1963671499337
 20
14.88978340517593
 30
0.0
 10
180.1963759623481
 20
14.8451992421019
 30
0.0
 10
180.1963359653417
 20
14.76132192594482
 30
0.0
 10
180.1976024270255
 20
14.6475190468642
 30
0.0
 10
180.1950274117842
 20
14.49844779942451
 30
0.0
 10
180.2065009381719
 20
14.39611587822647
 30
0.0
 10
180.1823506222264
 20
14.26353287894576
 30
0.0
 10
180.3332993946476
 20
14.30910116280763
 30
0.0
 10
180.4428436671556
 20
14.29441396171091
 30
0.0
 10
180.573397047392
 20
14.29934819133805
 30
0.0
 10
180.6990312209514
 20
14.30272089332103
 30
0.0
 10
180.81887306256
 20
14.30725881507515
 30
0.0
 10
180.9391362611427
 20
14.32062920190747
 30
0.0
 10
181.0222761663515
 20
14.31083096791337
 30
0.0
 10
181.1456080421075
 20
14.37140598632062
 30
0.0
 10
181.1244269203956
 20
14.31546844142762
 30
0.0
 10
181.1235950270117
 20
14.28953633381088
 30
0.0
 10
181.1218963707558
 20
14.26211640199681
 30
0.0
 10
181.1217974888829
 20
14.22752579215127
 30
0.0
 10
181.120365930133
 20
14.1906479222951
 30
0.0
 10
181.153280419219
 20
14.09861225030548
 30
0.0
 10
180.9551306988107
 20
14.17146399983573
 30
0.0
 10
180.8300548294891
 20
14.14840110517348
 30
0.0
 10
180.6673071295155
 20
14.15468405994527
 30
0.0
 10
180.5129366450001
 20
14.15275327918668
 30
0.0
 10
180.3566670436943
 20
14.15408146608009
 30
0.0
 10
180.1970544465282
 20
14.15074256496605
 30
0.0
 10
180.0540326342236
 20
14.16280179736982
 30
0.0
 10
179.8197144881628
 20
14.0996638598566
 30
0.0
 10
179.9173810751197
 20
14.3863491147506
 30
0.0
 10
179.9006868780059
 20
14.58002692151402
 30
0.0
 10
179.9146296709684
 20
14.80862626889038
 30
0.0
 10
179.9142987846632
 20
14.96398977963789
 30
0.0
 10
179.9143078119263
 20
15.06980720452868
 30
0.0
 10
179.9143055876316
 20
15.13220168132956
 30
0.0
 10
179.9143065551888
 20
15.22234809257069
 30
0.0
 10
179.9143065473261
 20
15.3263555116618
 30
0.0
 10
179.9143053861102
 20
15.43036515384038
 30
0.0
 10
179.9143090971502
 20
15.52050627697509
 30
0.0
 10
179.9143011051051
 20
15.58291187105958
 30
0.0
 10
179.9143334275018
 20
15.6888321996986
 30
0.0
 10
179.9131440788319
 20
15.84641100553483
 30
0.0
 10
179.9082216489256
 20
15.99542603830807
 30
0.0
 10
179.9057788376618
 20
16.06937644406932
 30
0.0
 11
179.9057788376618
 21
16.06937644406932
 31
0.0
 11
179.896691822374
 21
16.2895296210976
 31
0.0
 11
179.8868249573133
 21
16.50974894395921
 31
0.0
 11
180.04115751414
 21
16.5032677547247
 31
0.0
 11
180.1946500189046
 21
16.49769276340666
 31
0.0
 11
180.3481160653366
 21
16.49381551514373
 31
0.0
 11
180.5025544554939
 21
16.49252456896349
 31
0.0
 11
180.6564835227473
 21
16.49381551514373
 31
0.0
 11
180.80873910046
 21
16.49769276340666
 31
0.0
 11
180.9609113551074
 21
16.5032677547247
 31
0.0
 11
181.1148364762483
 21
16.50974894395921
 31
0.0
 11
181.1070811703123
 21
16.458093457861
 31
0.0
 11
181.1044991623591
 21
16.40657026342946
 31
0.0
 11
181.1070811703123
 21
16.35490044573402
 31
0.0
 11
181.1148364762483
 21
16.30330338845526
 31
0.0
 11
181.0094874054411
 21
16.31015830164799
 31
0.0
 11
180.913637570006
 21
16.31707936067399
 31
0.0
 11
180.8198593171903
 21
16.32392765928341
 31
0.0
 11
180.7209679915881
 21
16.33077595789282
 31
0.0
 11
180.6147532199924
 21
16.33725383983566
 31
0.0
 11
180.4991060528038
 21
16.34283213844536
 31
0.0
 11
180.3666126447258
 21
16.3467093867083
 31
0.0
 11
180.2101546018423
 21
16.34800033288854
 31
0.0
 11
180.2062663293721
 21
16.24051445617928
 31
0.0
 11
180.20153800484
 21
16.13819456905205
 31
0.0
 11
180.1976607566749
 21
16.03152559338429
 31
0.0
 11
180.1963698105272
 21
15.91116443021992
 31
0.0
 11
180.1967799146836
 21
15.77870739900307
 31
0.0
 11
180.1980896021502
 21
15.64967672195197
 31
0.0
 11
180.1994074577049
 21
15.53791782441051
 31
0.0
 11
180.199819115366
 21
15.45709533311126
 31
0.0
 11
180.3434452935874
 21
15.45794640949992
 31
0.0
 11
180.4716343930758
 21
15.46054373588819
 31
0.0
 11
180.5868078221795
 21
15.46439893553996
 31
0.0
 11
180.691775631222
 21
15.46916033310818
 31
0.0
 11
180.7876346289421
 21
15.47432411782917
 31
0.0
 11
180.8757413374193
 21
15.47948790255009
 31
0.0
 11
180.9578881438496
 21
15.48505627928481
 31
0.0
 11
181.0357692335571
 21
15.49146470810266
 31
0.0
 11
181.0280180445186
 21
15.43898791124079
 31
0.0
 11
181.0254328449317
 21
15.38483762479599
 31
0.0
 11
181.0280180445186
 21
15.33324828453109
 31
0.0
 11
181.0357692335571
 21
15.28165894426624
 31
0.0
 11
180.9389813454014
 21
15.29106708662499
 31
0.0
 11
180.8275950722015
 21
15.29879512481754
 31
0.0
 11
180.7089261429373
 21
15.30439657446887
 31
0.0
 11
180.5903167449213
 21
15.30741172203753
 31
0.0
 11
180.4750025117521
 21
15.3091315137038
 31
0.0
 11
180.36672619507
 21
15.31085130536999
 31
0.0
 11
180.2724839317708
 21
15.31216870988359
 31
0.0
 11
180.199819115366
 21
15.31257991648071
 31
0.0
 11
180.199407457705
 21
15.28033492516933
 31
0.0
 11
180.1980896021502
 21
15.24556977760859
 31
0.0
 11
180.1967799146836
 21
15.20465086268826
 31
0.0
 11
180.1963698105272
 21
15.15435908318693
 31
0.0
 11
180.1963698105272
 21
15.13340601244563
 31
0.0
 11
180.1963698105272
 21
15.08730925681478
 31
0.0
 11
180.1963698105272
 21
15.04121250118393
 31
0.0
 11
180.1963698105272
 21
15.02025943044263
 31
0.0
 11
180.1963698105272
 21
14.99878909267022
 31
0.0
 11
180.1963698105272
 21
14.94759059490525
 31
0.0
 11
180.1963698105272
 21
14.88648271047609
 31
0.0
 11
180.1963698105272
 21
14.83528421271113
 31
0.0
 11
180.1963698105272
 21
14.81381387493872
 31
0.0
 11
180.1967799146836
 21
14.63496105380289
 31
0.0
 11
180.1980896021502
 21
14.49040484724184
 31
0.0
 11
180.2002868589709
 21
14.37864594970031
 31
0.0
 11
180.2032586986985
 21
14.29782345840107
 31
0.0
 11
180.3202092517447
 21
14.29782345840107
 31
0.0
 11
180.4440727208746
 21
14.29782345840107
 31
0.0
 11
180.5734925526422
 21
14.29911440458132
 31
0.0
 11
180.7003922282244
 21
14.30299165284424
 31
0.0
 11
180.8224658067973
 21
14.30901092367607
 31
0.0
 11
180.9377587499463
 21
14.31677644450744
 31
0.0
 11
181.0421754573518
 21
14.32748545492144
 31
0.0
 11
181.1320599255448
 21
14.34252040283434
 31
0.0
 11
181.1264254031191
 21
14.31712811985457
 31
0.0
 11
181.1234433285423
 21
14.28921568062544
 31
0.0
 11
181.12213398812
 21
14.26126575875744
 31
0.0
 11
181.1217235369195
 21
14.23590213897214
 31
0.0
 11
181.1243087365064
 21
14.18598739072068
 31
0.0
 11
181.1320599255448
 21
14.14641123621669
 31
0.0
 11
180.9776977178344
 21
14.15159817197927
 31
0.0
 11
180.8242357818765
 21
14.15329922232604
 31
0.0
 11
180.6697789496483
 21
14.15329922232604
 31
0.0
 11
180.5128026496768
 21
14.15329922232604
 31
0.0
 11
180.3554704921536
 21
14.15329922232604
 31
0.0
 11
180.199819115366
 21
14.15329922232604
 31
0.0
 11
180.0441620874241
 21
14.15159817197927
 31
0.0
 11
179.8868249573133
 21
14.14641123621669
 31
0.0
 11
179.896691822374
 21
14.36615651393952
 31
0.0
 11
179.9057788376618
 21
14.58505512499593
 31
0.0
 11
179.91217215184
 21
14.80565147910745
 31
0.0
 11
179.9143063455009
 21
15.03050762488457
 31
0.0
 11
179.9143063455009
 21
15.05593208505617
 31
0.0
 11
179.9143063455009
 21
15.12296020732674
 31
0.0
 11
179.9143063455009
 21
15.21772410432995
 31
0.0
 11
179.9143063455009
 21
15.3263558886995
 31
0.0
 11
179.9143063455009
 21
15.43498767306904
 31
0.0
 11
179.9143063455009
 21
15.52975157007226
 31
0.0
 11
179.9143063455009
 21
15.59677969234282
 31
0.0
 11
179.9143063455009
 21
15.62220415251442
 31
0.0
 11
179.91217215184
 21
15.84750347537477
 31
0.0
 11
179.9057788376618
 21
16.06937644406932
 31
0.0
  0
SPLINE
  5
A9
102
{ACAD_REACTORS
330
C6
102
}
330
48
100
AcDbEntity
  8
_U_30EC_U_30A4_U_30E4_U_30FC_1
  6
Continuous
 62
     2
100
AcDbSpline
210
0.0
220
0.0
230
1.0
 70
    11
 71
     3
 72
    47
 73
    43
 74
    41
 42
0.000000001
 43
0.0000000001
 44
0.00000001
 40
0.0
 40
0.0
 40
0.0
 40
0.0
 40
0.2207912809957319
 40
0.4459404186303131
 40
0.4902387190459345
 40
0.5327473892722303
 40
0.5742260451225625
 40
0.6155432630560917
 40
0.6568164066315836
 40
0.6982511618780757
 40
0.7407663929317271
 40
0.7851366743175331
 40
1.010288833836336
 40
1.231080507002193
 40
1.451765243652409
 40
1.676638205891696
 40
1.720461045359668
 40
1.830018144043531
 40
1.972442372353164
 40
2.114866600677531
 40
2.224423699395154
 40
2.268246538883397
 40
2.493628801207226
 40
2.715602830286628
 40
2.934211330706381
 40
3.149502369855375
 40
3.231387784851021
 40
3.318231873854056
 40
3.405143198198044
 40
3.486970301720481
 40
3.702258172493924
 40
3.920866283534154
 40
4.142839325931944
 40
4.368221903865406
 40
4.412044743359887
 40
4.521601842095901
 40
4.66402607045238
 40
4.806450298809089
 40
4.916007397546782
 40
4.959830237043105
 40
5.18470351584714
 40
5.405387250767505
 40
5.405387250767505
 40
5.405387250767505
 40
5.405387250767505
 10
182.6507427258645
 20
16.06420824962613
 30
0.0
 10
182.6568139420002
 20
16.12772866509951
 30
0.0
 10
182.6690762107242
 20
16.25602322698368
 30
0.0
 10
182.5604706879412
 20
16.53180604182819
 30
0.0
 10
182.6761985896604
 20
16.50202517440795
 30
0.0
 10
182.7171842509015
 20
16.49779940271561
 30
0.0
 10
182.7591205797519
 20
16.49324830398349
 30
0.0
 10
182.800419662571
 20
16.49216366938226
 30
0.0
 10
182.8417032115555
 20
16.49324722203969
 30
0.0
 10
182.8836148270647
 20
16.49780496720085
 30
0.0
 10
182.9245983549019
 20
16.5020181421847
 30
0.0
 10
183.0404922843489
 20
16.53191995326276
 30
0.0
 10
182.9295652727457
 20
16.25354190618631
 30
0.0
 10
182.9574856365267
 20
16.07297524833694
 30
0.0
 10
182.9404267346969
 20
15.83975426355213
 30
0.0
 10
182.9414637282102
 20
15.67921006551887
 30
0.0
 10
182.9414099399404
 20
15.55299201567464
 30
0.0
 10
182.9414277372481
 20
15.45443347344983
 30
0.0
 10
182.941418858108
 20
15.32295086451705
 30
0.0
 10
182.9414263928034
 20
15.19147228977392
 30
0.0
 10
182.9414129405128
 20
15.09290606702832
 30
0.0
 10
182.9414531717492
 20
14.96654119632894
 30
0.0
 10
182.9406746403817
 20
14.80496452831612
 30
0.0
 10
182.9565958319266
 20
14.57376205901656
 30
0.0
 10
182.9333468885408
 20
14.38888735980744
 30
0.0
 10
183.0360183444366
 20
14.11949986778797
 30
0.0
 10
182.8820238362836
 20
14.15674496694559
 30
0.0
 10
182.8004129802832
 20
14.15152378689276
 30
0.0
 10
182.7188192292582
 20
14.15675004387092
 30
0.0
 10
182.5648513666843
 20
14.11951453894128
 30
0.0
 10
182.6674183421917
 20
14.38889513871622
 30
0.0
 10
182.6442045316088
 20
14.57375969334157
 30
0.0
 10
182.6600444655139
 20
14.8049660257438
 30
0.0
 10
182.6593296313426
 20
14.96654096317245
 30
0.0
 10
182.6593664569907
 20
15.09290615219262
 30
0.0
 10
182.659354900027
 20
15.19147140644723
 30
0.0
 10
182.6593575019214
 20
15.32295511425962
 30
0.0
 10
182.6593648531779
 20
15.45441932039942
 30
0.0
 10
182.6593442541351
 20
15.55302170284067
 30
0.0
 10
182.6594082192028
 20
15.67910533363169
 30
0.0
 10
182.658173394759
 20
15.84224475392513
 30
0.0
 10
182.6532040396744
 20
15.99068567786291
 30
0.0
 10
182.6507427258645
 20
16.06420824962613
 30
0.0
 11
182.6507427258645
 21
16.06420824962613
 31
0.0
 11
182.6417328200379
 21
16.28481562804319
 31
0.0
 11
182.6318769706146
 21
16.50974894395921
 31
0.0
 11
182.6756985840801
 21
16.5032677547247
 31
0.0
 11
182.7178400934215
 21
16.49769276340666
 31
0.0
 11
182.759137140979
 21
16.49381551514373
 31
0.0
 11
182.8004341885365
 21
16.49252456896349
 31
0.0
 11
182.841687138873
 21
16.49381551514373
 31
0.0
 11
182.8829400892097
 21
16.49769276340666
 31
0.0
 11
182.9250882131343
 21
16.5032677547247
 31
0.0
 11
182.9689825870145
 21
16.50974894395921
 31
0.0
 11
182.9590577693891
 21
16.28481562804319
 31
0.0
 11
182.950038420831
 21
16.06420824962613
 31
0.0
 11
182.9435638463435
 21
15.84361851009796
 31
0.0
 11
182.9414218238286
 21
15.61875574973749
 31
0.0
 11
182.9414218238286
 21
15.57493291024227
 31
0.0
 11
182.9414218238286
 21
15.46537581150424
 31
0.0
 11
182.9414218238286
 21
15.32295158314479
 31
0.0
 11
182.9414218238286
 21
15.18052735478534
 31
0.0
 11
182.9414218238286
 21
15.07097025604731
 31
0.0
 11
182.9414218238286
 21
15.02714741655209
 31
0.0
 11
182.9435638463435
 21
14.80177533327508
 31
0.0
 11
182.950038420831
 21
14.57989574999722
 31
0.0
 11
182.9590577693891
 21
14.36147338894071
 31
0.0
 11
182.9689825870145
 21
14.14641123621669
 31
0.0
 11
182.887261616877
 21
14.15159817197927
 31
0.0
 11
182.8004341885365
 21
14.15329922232604
 31
0.0
 11
182.7135395119339
 21
14.15159817197927
 31
0.0
 11
182.6318769706146
 21
14.14641123621669
 31
0.0
 11
182.6417328200379
 21
14.36147338894071
 31
0.0
 11
182.6507427258645
 21
14.57989574999722
 31
0.0
 11
182.6571833838798
 21
14.80177533327508
 31
0.0
 11
182.6593583588023
 21
15.02714741655209
 31
0.0
 11
182.6593583588023
 21
15.07097025604731
 31
0.0
 11
182.6593583588023
 21
15.18052735478534
 31
0.0
 11
182.6593583588023
 21
15.32295158314479
 31
0.0
 11
182.6593583588023
 21
15.46537581150424
 31
0.0
 11
182.6593583588023
 21
15.57493291024227
 31
0.0
 11
182.6593583588023
 21
15.61875574973749
 31
0.0
 11
182.6571833838798
 21
15.84361851009796
 31
0.0
 11
182.6507427258645
 21
16.06420824962613
 31
0.0
  0
SPLINE
  5
AA
102
{ACAD_REACTORS
330
C7
102
}
330
48
100
AcDbEntity
  8
_U_30EC_U_30A4_U_30E4_U_30FC_1
  6
Continuous
 62
     2
100
AcDbSpline
210
0.0
220
0.0
230
1.0
 70
    11
 71
     3
 72
   118
 73
   114
 74
   112
 42
0.000000001
 43
0.0000000001
 44
0.00000001
 40
0.0
 40
0.0
 40
0.0
 40
0.0
 40
0.105470816297341
 40
0.246609827005191
 40
0.3965912874591248
 40
0.5285525069753989
 40
0.61562450556422
 40
0.6431434105797512
 40
0.7036850037986202
 40
0.7642265984504614
 40
0.7917455052354918
 40
0.9287404319989886
 40
1.106572819088039
 40
1.287544879681039
 40
1.317578308030556
 40
1.399928030857192
 40
1.522968204799967
 40
1.67507298659059
 40
1.844616533180669
 40
2.019973001638731
 40
2.189516548880044
 40
2.34162133158538
 40
2.464661506320518
 40
2.547011229647082
 40
2.577044658168046
 40
2.603797890893117
 40
2.662655002908804
 40
2.721512114949616
 40
2.748265347702795
 40
2.774215307344872
 40
2.845959313407202
 40
2.954338556588403
 40
3.090194227585578
 40
3.244367517100543
 40
3.407699615844302
 40
3.57103171453945
 40
3.725205003920128
 40
3.86106067472963
 40
3.969439917716319
 40
4.041183923628993
 40
4.067133883212986
 40
4.311886746012172
 40
4.547897258335537
 40
4.76474708304398
 40
4.95274967995178
 40
5.045772974195907
 40
5.137862019644991
 40
5.330543169793038
 40
5.553448265244031
 40
5.795083855888188
 40
6.043293412177252
 40
6.285761695541199
 40
6.313902908752683
 40
6.384255941793272
 40
6.475714884766861
 40
6.567173827758923
 40
6.637526860839701
 40
6.665668074074064
 40
6.692018920328037
 40
6.749990782071109
 40
6.807962643790477
 40
6.83431349001795
 40
6.856393084245228
 40
6.913335195649852
 40
6.991194817302516
 40
7.076026942283777
 40
7.153886563725267
 40
7.21082867484485
 40
7.232908268931185
 40
7.258199334923706
 40
7.324875781592354
 40
7.419142481925011
 40
7.527204308841952
 40
7.63526613523053
 40
7.729532834168516
 40
7.796209279292839
 40
7.821500344594785
 40
7.844652988850855
 40
7.899863140541634
 40
7.965759128053801
 40
8.020969279771085
 40
8.044121924046552
 40
8.069356610160641
 40
8.109134395441412
 40
8.132238100191124
 40
8.193147867786486
 40
8.279261678876662
 40
8.377977512673876
 40
8.47669334714666
 40
8.562807160411715
 40
8.623716930826497
 40
8.646820636853452
 40
8.671988793774265
 40
8.734909185828176
 40
8.81670569518889
 40
8.898502204815461
 40
8.961422597377922
 40
8.986590754551035
 40
9.01294160073319
 40
9.070913462380274
 40
9.12888532408177
 40
9.15523617032509
 40
9.180404327929132
 40
9.243324721948206
 40
9.325121234211998
 40
9.406917746637653
 40
9.469838141978109
 40
9.495006288270883
 40
9.517811184379026
 40
9.572192090487025
 40
9.637098333281253
 40
9.691479239515456
 40
9.714284125643493
 40
9.714284125643493
 40
9.714284125643493
 40
9.714284125643493
 10
185.2874469028653
 20
15.59903547196461
 30
0.0
 10
185.3090990569037
 20
15.57126253251553
 30
0.0
 10
185.3597257109474
 20
15.50632438569978
 30
0.0
 10
185.4349383202591
 20
15.39905444321639
 30
0.0
 10
185.5248482274346
 20
15.28391822275367
 30
0.0
 10
185.5709169676673
 20
15.18371429757061
 30
0.0
 10
185.6655825294655
 20
15.11448390823685
 30
0.0
 10
185.6204439320413
 20
15.06786023687016
 30
0.0
 10
185.5947047785789
 20
15.02674692874781
 30
0.0
 10
185.5645196708012
 20
14.99080355736681
 30
0.0
 10
185.5193684730562
 20
14.91594166604835
 30
0.0
 10
185.4710504458562
 20
15.13796908262347
 30
0.0
 10
185.3968539713073
 20
15.17525061346452
 30
0.0
 10
185.2836047324606
 20
15.44624586139342
 30
0.0
 10
185.288513357817
 20
15.33109712454971
 30
0.0
 10
185.2868486556306
 20
15.25851059790369
 30
0.0
 10
185.2876830076713
 20
15.13639972492728
 30
0.0
 10
185.2873609540265
 20
14.98928184819203
 30
0.0
 10
185.2875076912456
 20
14.82321447965299
 30
0.0
 10
185.2872950092722
 20
14.65201938617344
 30
0.0
 10
185.2879497252034
 20
14.4856721264424
 30
0.0
 10
185.2859192461138
 20
14.33949557064435
 30
0.0
 10
185.291346039993
 20
14.21485431483353
 30
0.0
 10
185.2804930868707
 20
14.14733040549368
 30
0.0
 10
185.2956739155555
 20
14.08563445425764
 30
0.0
 10
185.2457895108133
 20
14.09741887905744
 30
0.0
 10
185.2017150342522
 20
14.08958206788711
 30
0.0
 10
185.15823716302
 20
14.09774825381445
 30
0.0
 10
185.1092346786489
 20
14.0855244074721
 30
0.0
 10
185.1218731234824
 20
14.13975051258055
 30
0.0
 10
185.113018296845
 20
14.199513029163
 30
0.0
 10
185.1175058770314
 20
14.30936413053112
 30
0.0
 10
185.115796013599
 20
14.4404435941442
 30
0.0
 10
185.1163550915987
 20
14.5921239545307
 30
0.0
 10
185.1161928768694
 20
14.75225458938695
 30
0.0
 10
185.1162269924674
 20
14.91251249683308
 30
0.0
 10
185.1162514960127
 20
15.06384631529181
 30
0.0
 10
185.1161453543226
 20
15.19596540347343
 30
0.0
 10
185.1164299141931
 20
15.30309186541935
 30
0.0
 10
185.1158675547568
 20
15.36823003588216
 30
0.0
 10
185.1180765083689
 20
15.49633341867417
 30
0.0
 10
185.0319435998602
 20
15.12111994400317
 30
0.0
 10
184.9555140818499
 20
14.96932577132137
 30
0.0
 10
184.8660040767834
 20
14.80780590455048
 30
0.0
 10
184.7640413217326
 20
14.53486232828913
 30
0.0
 10
184.7187976491039
 20
14.69731730605253
 30
0.0
 10
184.610235594167
 20
14.78619816066862
 30
0.0
 10
184.7995791751753
 20
14.93564178970151
 30
0.0
 10
184.85653405457
 20
15.12763520983667
 30
0.0
 10
184.9717520993352
 20
15.35914006915499
 30
0.0
 10
184.9940151630132
 20
15.54811643767805
 30
0.0
 10
185.177190515214
 20
15.82468473334671
 30
0.0
 10
185.0538033597552
 20
15.81713362840836
 30
0.0
 10
184.9925684166834
 20
15.8187115637486
 30
0.0
 10
184.9081999617064
 20
15.81896976582414
 30
0.0
 10
184.8204235085966
 20
15.81559229759948
 30
0.0
 10
184.7656768696122
 20
15.82409198990762
 30
0.0
 10
184.7104703026025
 20
15.8106294505853
 30
0.0
 10
184.7222823035536
 20
15.85945826135505
 30
0.0
 10
184.7142496151794
 20
15.90283388905451
 30
0.0
 10
184.7228186104678
 20
15.94523822318315
 30
0.0
 10
184.7102943409157
 20
15.9928218056086
 30
0.0
 10
184.7555101538735
 20
15.98281597003852
 30
0.0
 10
184.8014815562723
 20
15.98908489182802
 30
0.0
 10
184.877722204771
 20
15.98607945414614
 30
0.0
 10
184.9561296131993
 20
15.98784832287283
 30
0.0
 10
185.0323992648932
 20
15.98479177990401
 30
0.0
 10
185.0783009459475
 20
15.9911835538492
 30
0.0
 10
185.12317339654
 20
15.98108206987638
 30
0.0
 10
185.1105552275634
 20
16.03171585590641
 30
0.0
 10
185.1191936582707
 20
16.08515645890812
 30
0.0
 10
185.1152361595442
 20
16.17877639140422
 30
0.0
 10
185.1162325068335
 20
16.28126990697665
 30
0.0
 10
185.1171927413073
 20
16.38367654256905
 30
0.0
 10
185.1133211458005
 20
16.47750313618063
 30
0.0
 10
185.1217789814364
 20
16.53050926849094
 30
0.0
 10
185.1093075932835
 20
16.5822581965993
 30
0.0
 10
185.1542106389849
 20
16.56865131235498
 30
0.0
 10
185.1955083836772
 20
16.57114864329328
 30
0.0
 10
185.259534428105
 20
16.5666244458323
 30
0.0
 10
185.2986111148786
 20
16.55795387052049
 30
0.0
 10
185.3476543498742
 20
16.56529486079429
 30
0.0
 10
185.322508003059
 20
16.526172800605
 30
0.0
 10
185.2815901333724
 20
16.5357822646455
 30
0.0
 10
185.2910109616604
 20
16.4855453217852
 30
0.0
 10
185.2855647318746
 20
16.43400329648232
 30
0.0
 10
185.2881699601804
 20
16.34974091593262
 30
0.0
 10
185.2870102202154
 20
16.2557351959215
 30
0.0
 10
185.2883591064231
 20
16.16211249404267
 30
0.0
 10
185.2849970101509
 20
16.07693901560965
 30
0.0
 10
185.2920959917769
 20
16.02731240080785
 30
0.0
 10
185.2812569154545
 20
15.98008078978731
 30
0.0
 10
185.3304010225245
 20
15.99216058945593
 30
0.0
 10
185.3794877630147
 20
15.98461777371754
 30
0.0
 10
185.4573714280641
 20
15.98700454370174
 30
0.0
 10
185.5350365172896
 20
15.98913765914157
 30
0.0
 10
185.5845393931355
 20
15.98207775931197
 30
0.0
 10
185.6344594750639
 20
15.99374535944956
 30
0.0
 10
185.6223198516881
 20
15.94554619380135
 30
0.0
 10
185.6305838229143
 20
15.90263603809977
 30
0.0
 10
185.6223198650783
 20
15.85972585860126
 30
0.0
 10
185.6344594549855
 20
15.81152672763607
 30
0.0
 10
185.5845395158746
 20
15.82319418480252
 30
0.0
 10
185.5350350651202
 20
15.81613586443787
 30
0.0
 10
185.4573784382973
 20
15.81826049237345
 30
0.0
 10
185.379464386576
 20
15.82067773374502
 30
0.0
 10
185.3304500352716
 20
15.81306232203228
 30
0.0
 10
185.2813246108943
 20
15.82522336566334
 30
0.0
 10
185.2915559988571
 20
15.780873974329
 30
0.0
 10
185.2856677678053
 20
15.73939820211653
 30
0.0
 10
185.2878788305569
 20
15.67929778324045
 30
0.0
 10
185.2874109346146
 20
15.63240166771631
 30
0.0
 10
185.2874386992913
 20
15.60664530426938
 30
0.0
 10
185.2874469028653
 20
15.59903547196461
 30
0.0
 11
185.2874469028653
 21
15.59903547196461
 31
0.0
 11
185.3516977534484
 21
15.51539383642998
 31
0.0
 11
185.4348258835499
 21
15.40133273756962
 31
0.0
 11
185.5216831568896
 21
15.27906151204465
 31
0.0
 11
185.5971214371872
 21
15.17078949651618
 31
0.0
 11
185.6459925881626
 21
15.09872602764532
 31
0.0
 11
185.6296821285093
 21
15.07656166133141
 31
0.0
 11
185.5937991172719
 21
15.02780005544082
 31
0.0
 11
185.5579161060346
 21
14.97903844955022
 31
0.0
 11
185.5416056463813
 21
14.95687408323631
 31
0.0
 11
185.4763067109446
 21
15.07730523032555
 31
0.0
 11
185.3848434243234
 21
15.22981367678949
 31
0.0
 11
185.2874469028653
 21
15.38234172201884
 31
0.0
 11
185.2874469028653
 21
15.35230829336995
 31
0.0
 11
185.2874469028653
 21
15.26995856965525
 31
0.0
 11
185.2874469028653
 21
15.1469183942227
 31
0.0
 11
185.2874469028653
 21
14.99481361042025
 31
0.0
 11
185.2874469028653
 21
14.82527006159587
 31
0.0
 11
185.2874469028653
 21
14.64991359109751
 31
0.0
 11
185.2874469028653
 21
14.48037004227313
 31
0.0
 11
185.2874469028653
 21
14.32826525847068
 31
0.0
 11
185.2874469028653
 21
14.20522508303813
 31
0.0
 11
185.2874469028653
 21
14.12287535932343
 31
0.0
 11
185.2874469028653
 21
14.09284193067454
 31
0.0
 11
185.2606936700409
 21
14.09284193067454
 31
0.0
 11
185.2018365578272
 21
14.09284193067454
 31
0.0
 11
185.1429794456134
 21
14.09284193067454
 31
0.0
 11
185.116226212789
 21
14.09284193067454
 31
0.0
 11
185.116226212789
 21
14.11879189039992
 31
0.0
 11
185.116226212789
 21
14.1905358966995
 31
0.0
 11
185.116226212789
 21
14.29891514025844
 31
0.0
 11
185.116226212789
 21
14.43477081176189
 31
0.0
 11
185.116226212789
 21
14.58894410189503
 31
0.0
 11
185.116226212789
 21
14.752276201343
 31
0.0
 11
185.116226212789
 21
14.91560830079098
 31
0.0
 11
185.116226212789
 21
15.06978159092412
 31
0.0
 11
185.116226212789
 21
15.20563726242758
 31
0.0
 11
185.116226212789
 21
15.31401650598651
 31
0.0
 11
185.116226212789
 21
15.38576051228609
 31
0.0
 11
185.116226212789
 21
15.41171047201147
 31
0.0
 11
185.0379865861721
 21
15.17979987311114
 31
0.0
 11
184.9497110789303
 21
14.9609200033742
 31
0.0
 11
184.8544106930045
 21
14.76613375342288
 31
0.0
 11
184.7550964303356
 21
14.60650401387944
 31
0.0
 11
184.7109198342406
 21
14.68836830205341
 31
0.0
 11
184.658805738348
 21
14.76429269439553
 31
0.0
 11
184.7627302590299
 21
14.92654471935499
 31
0.0
 11
184.8629319864735
 21
15.12565849430523
 31
0.0
 11
184.9550446607901
 21
15.34904831924938
 31
0.0
 11
185.0347020220912
 21
15.58412849419061
 31
0.0
 11
185.097537810488
 21
15.81831331913207
 31
0.0
 11
185.0693965972142
 21
15.81831331913207
 31
0.0
 11
184.9990435640297
 21
15.81831331913207
 31
0.0
 11
184.9075846208898
 21
15.81831331913207
 31
0.0
 11
184.8161256777499
 21
15.81831331913207
 31
0.0
 11
184.7457726445654
 21
15.81831331913207
 31
0.0
 11
184.7176314312916
 21
15.81831331913207
 31
0.0
 11
184.7176314312916
 21
15.84466416547964
 31
0.0
 11
184.7176314312916
 21
15.90263602744431
 31
0.0
 11
184.7176314312916
 21
15.96060788940897
 31
0.0
 11
184.7176314312916
 21
15.98695873575654
 31
0.0
 11
184.739711025602
 21
15.98695873575654
 31
0.0
 11
184.7966531372444
 21
15.98695873575654
 31
0.0
 11
184.8745127592862
 21
15.98695873575654
 31
0.0
 11
184.9593448847944
 21
15.98695873575654
 31
0.0
 11
185.0372045068361
 21
15.98695873575654
 31
0.0
 11
185.0941466184786
 21
15.98695873575654
 31
0.0
 11
185.116226212789
 21
15.98695873575654
 31
0.0
 11
185.116226212789
 21
16.01224980183095
 31
0.0
 11
185.116226212789
 21
16.07892624875439
 31
0.0
 11
185.116226212789
 21
16.17319294957719
 31
0.0
 11
185.116226212789
 21
16.28125477734966
 31
0.0
 11
185.116226212789
 21
16.38931660512213
 31
0.0
 11
185.116226212789
 21
16.48358330594493
 31
0.0
 11
185.116226212789
 21
16.55025975286837
 31
0.0
 11
185.116226212789
 21
16.57555081894278
 31
0.0
 11
185.1393181988665
 21
16.57387597116542
 31
0.0
 11
185.1943837041284
 21
16.56988210338864
 31
0.0
 11
185.2601070491184
 21
16.56511522894538
 31
0.0
 11
185.3151725543802
 21
16.56112136116859
 31
0.0
 11
185.3382645404578
 21
16.55944651339123
 31
0.0
 11
185.3249012644362
 21
16.53804061929933
 31
0.0
 11
185.2874469028653
 21
16.52464498562211
 31
0.0
 11
185.2874469028653
 21
16.5015412795732
 31
0.0
 11
185.2874469028653
 21
16.44063150908062
 31
0.0
 11
185.2874469028653
 21
16.35451769562558
 31
0.0
 11
185.2874469028653
 21
16.25580186068932
 31
0.0
 11
185.2874469028653
 21
16.15708602575307
 31
0.0
 11
185.2874469028653
 21
16.07097221229803
 31
0.0
 11
185.2874469028653
 21
16.01006244180545
 31
0.0
 11
185.2874469028653
 21
15.98695873575654
 31
0.0
 11
185.3126150604809
 21
15.98695873575654
 31
0.0
 11
185.3755354545199
 21
15.98695873575654
 31
0.0
 11
185.4573319667706
 21
15.98695873575654
 31
0.0
 11
185.5391284790212
 21
15.98695873575654
 31
0.0
 11
185.6020488730602
 21
15.98695873575654
 31
0.0
 11
185.6272170306758
 21
15.98695873575654
 31
0.0
 11
185.6272170306758
 21
15.96060788940897
 31
0.0
 11
185.6272170306758
 21
15.90263602744431
 31
0.0
 11
185.6272170306758
 21
15.84466416547964
 31
0.0
 11
185.6272170306758
 21
15.81831331913207
 31
0.0
 11
185.6020488730602
 21
15.81831331913207
 31
0.0
 11
185.5391284790212
 21
15.81831331913207
 31
0.0
 11
185.4573319667705
 21
15.81831331913207
 31
0.0
 11
185.3755354545199
 21
15.81831331913207
 31
0.0
 11
185.3126150604809
 21
15.81831331913207
 31
0.0
 11
185.2874469028653
 21
15.81831331913207
 31
0.0
 11
185.2874469028653
 21
15.79550842302665
 31
0.0
 11
185.2874469028653
 21
15.74112751692912
 31
0.0
 11
185.2874469028653
 21
15.67622127416756
 31
0.0
 11
185.2874469028653
 21
15.62184036807002
 31
0.0
 11
185.2874469028653
 21
15.59903547196461
 31
0.0
  0
SPLINE
  5
AB
102
{ACAD_REACTORS
330
C8
102
}
330
48
100
AcDbEntity
  8
_U_30EC_U_30A4_U_30E4_U_30FC_1
  6
Continuous
 62
     2
100
AcDbSpline
210
0.0
220
0.0
230
1.0
 70
    11
 71
     3
 72
    91
 73
    87
 74
    85
 42
0.000000001
 43
0.0000000001
 44
0.00000001
 40
0.0
 40
0.0
 40
0.0
 40
0.0
 40
0.0345987051695718
 40
0.1258134969461369
 40
0.2547723404888987
 40
0.4026032099154125
 40
0.5504340793416704
 40
0.679392922883608
 40
0.7706077146571035
 40
0.8052064287780925
 40
1.124852390615279
 40
1.427402236308874
 40
1.706356627453512
 40
1.955541417875197
 40
2.169485938566342
 40
2.344350786664796
 40
2.480568411561946
 40
2.590440557428968
 40
2.649189927151121
 40
2.749320643306323
 40
2.91263273988003
 40
3.147745656000228
 40
3.244827496385121
 40
3.338490056946711
 40
3.58381541320714
 40
3.761423943238499
 40
3.886956104362662
 40
3.985855451886823
 40
4.091766255337708
 40
4.250186473811901
 40
4.422734315084547
 40
4.628285684838642
 40
4.872093227758472
 40
5.152549652145583
 40
5.464967135837565
 40
5.80320147785248
 40
6.160362988813954
 40
6.193449448276009
 40
6.284170385501664
 40
6.419718138764534
 40
6.587285046385784
 40
6.774063446723698
 40
6.967245678113681
 40
7.154024078817667
 40
7.321590987026052
 40
7.457138740890411
 40
7.547859678556147
 40
7.580946138182707
 40
7.608533084714757
 40
7.669224367077733
 40
7.72991564942995
 40
7.757502595950003
 40
7.790278062553456
 40
7.880146277430955
 40
8.014419963180417
 40
8.180411842397918
 40
8.365434637679387
 40
8.556801071622688
 40
8.741823866830801
 40
8.907815745916311
 40
9.042089431507465
 40
9.13195764624959
 40
9.164733112797167
 40
9.415425063140102
 40
9.667986180958565
 40
9.694169807462732
 40
9.75660768604769
 40
9.831130315322497
 40
9.893568193899961
 40
9.919751820398778
 40
9.950967964690612
 40
9.996421631210723
 40
10.22087981037461
 40
10.4434186619755
 40
10.47847970788862
 40
10.57091337438763
 40
10.70159545461237
 40
10.85140174170368
 40
11.00120802880485
 40
11.13189010907391
 40
11.22432377583018
 40
11.25938480938965
 40
11.28697175596153
 40
11.34766303835927
 40
11.40835432042077
 40
11.43594125892111
 40
11.43594125892111
 40
11.43594125892111
 40
11.43594125892111
 10
190.0818114333289
 20
15.88257179133819
 30
0.0
 10
190.0702785844941
 20
15.88257174296657
 30
0.0
 10
190.0283409444998
 20
15.88257157712906
 30
0.0
 10
189.9434129719026
 20
15.88257509809651
 30
0.0
 10
189.8207688553128
 20
15.8825531044462
 30
0.0
 10
189.6791206916993
 20
15.88265185185796
 30
0.0
 10
189.537975369849
 20
15.88229070241162
 30
0.0
 10
189.4141351317904
 20
15.88336267617831
 30
0.0
 10
189.3317217825382
 20
15.8810663310001
 30
0.0
 10
189.1727791229692
 20
15.89062953382162
 30
0.0
 10
189.3503402353376
 20
15.52799778320112
 30
0.0
 10
189.3379739205452
 20
15.28257511731856
 30
0.0
 10
189.4064519473864
 20
14.99876885333576
 30
0.0
 10
189.469302432097
 20
14.76265383947777
 30
0.0
 10
189.5452253431728
 20
14.56341124404872
 30
0.0
 10
189.6303189577016
 20
14.40759731460116
 30
0.0
 10
189.7244607592935
 20
14.30672241790134
 30
0.0
 10
189.8282648207727
 20
14.25480236647707
 30
0.0
 10
189.9125872030774
 20
14.30620868388358
 30
0.0
 10
189.9351322179452
 20
14.4215892804626
 30
0.0
 10
189.9745730975371
 20
14.54899533711122
 30
0.0
 10
189.9202919734942
 20
14.86636712095498
 30
0.0
 10
190.0451218072473
 20
14.71996564149647
 30
0.0
 10
190.2019291513603
 20
14.68809684339914
 30
0.0
 10
190.0947720007057
 20
14.4543574177637
 30
0.0
 10
190.0808711209867
 20
14.28987160592399
 30
0.0
 10
190.0234709467225
 20
14.16145253131225
 30
0.0
 10
189.9335020145009
 20
14.09033186361569
 30
0.0
 10
189.8095274657877
 20
14.07446708150996
 30
0.0
 10
189.663427319686
 20
14.11008181562914
 30
0.0
 10
189.5243894320284
 20
14.23014954509019
 30
0.0
 10
189.4102003962144
 20
14.40450066559062
 30
0.0
 10
189.3146141301486
 20
14.62960987119983
 30
0.0
 10
189.2318652572627
 20
14.89402630015185
 30
0.0
 10
189.1807179256411
 20
15.21202317107285
 30
0.0
 10
189.0770189207339
 20
15.48558112497656
 30
0.0
 10
189.2042841208519
 20
15.89020202621607
 30
0.0
 10
189.0357890623019
 20
15.88126751858421
 30
0.0
 10
188.9511995787077
 20
15.88330345427104
 30
0.0
 10
188.8189876387627
 20
15.88228321397148
 30
0.0
 10
188.6560505094104
 20
15.88267614327171
 30
0.0
 10
188.4733759170532
 20
15.8825008032211
 30
0.0
 10
188.2847057373383
 20
15.88274489316211
 30
0.0
 10
188.1014469020189
 20
15.88200041914978
 30
0.0
 10
187.9404746832718
 20
15.88430744531167
 30
0.0
 10
187.8029808335276
 20
15.87814188892405
 30
0.0
 10
187.728959037231
 20
15.89047222466952
 30
0.0
 10
187.6613215186857
 20
15.87343707732298
 30
0.0
 10
187.6732373719269
 20
15.92538822456269
 30
0.0
 10
187.6655677285694
 20
15.9708580897527
 30
0.0
 10
187.6732592225115
 20
16.01628837712446
 30
0.0
 10
187.6613141797762
 20
16.06816779993311
 30
0.0
 10
187.7283588305866
 20
16.05133527499005
 30
0.0
 10
187.8017375665677
 20
16.06349793101412
 30
0.0
 10
187.9379128305271
 20
16.05741615083699
 30
0.0
 10
188.0973811801513
 20
16.05969218323799
 30
0.0
 10
188.2789173085836
 20
16.05895618007703
 30
0.0
 10
188.4658034862179
 20
16.05920338204874
 30
0.0
 10
188.6468012316836
 20
16.05900784807994
 30
0.0
 10
188.8080802578878
 20
16.05946618723579
 30
0.0
 10
188.9393882124887
 20
16.05827057759947
 30
0.0
 10
189.0225051322596
 20
16.06065731328483
 30
0.0
 10
189.1556236547814
 20
16.05244989734205
 30
0.0
 10
189.0645893502658
 20
16.30767252961396
 30
0.0
 10
188.9789633074418
 20
16.57178742336988
 30
0.0
 10
189.0990589003455
 20
16.55918826977907
 30
0.0
 10
189.1514264948544
 20
16.55708619771818
 30
0.0
 10
189.2214497569715
 20
16.55549783898398
 30
0.0
 10
189.2671922337817
 20
16.54616951546855
 30
0.0
 10
189.3220812646934
 20
16.55560350924168
 30
0.0
 10
189.296357478568
 20
16.50747412663915
 30
0.0
 10
189.1825397571454
 20
16.51281213752909
 30
0.0
 10
189.3159346621136
 20
16.28463558585517
 30
0.0
 10
189.1943658735472
 20
16.05171240604664
 30
0.0
 10
189.3223188769413
 20
16.06101642893179
 30
0.0
 10
189.4049048406461
 20
16.05815385763421
 30
0.0
 10
189.5307214850824
 20
16.05937821421043
 30
0.0
 10
189.6741469838058
 20
16.05946815897705
 30
0.0
 10
189.8157420951728
 20
16.05760547192594
 30
0.0
 10
189.9459127249968
 20
16.06347459945903
 30
0.0
 10
190.019345228619
 20
16.05084724831944
 30
0.0
 10
190.0891112922096
 20
16.06891947119153
 30
0.0
 10
190.0775772605396
 20
16.01627234555067
 30
0.0
 10
190.0833184346681
 20
15.97235701695289
 30
0.0
 10
190.0816615770912
 20
15.92104366685291
 30
0.0
 10
190.0817757561669
 20
15.89173176030376
 30
0.0
 10
190.0818114333289
 20
15.88257179133819
 30
0.0
 11
190.0818114333289
 21
15.88257179133819
 31
0.0
 11
190.0472127192051
 21
15.88257179133819
 31
0.0
 11
189.9559979274241
 21
15.88257179133819
 31
0.0
 11
189.8270390838717
 21
15.88257179133819
 31
0.0
 11
189.6792082144335
 21
15.88257179133819
 31
0.0
 11
189.5313773449954
 21
15.88257179133819
 31
0.0
 11
189.402418501443
 21
15.88257179133819
 31
0.0
 11
189.311203709662
 21
15.88257179133819
 31
0.0
 11
189.2766049955382
 21
15.88257179133819
 31
0.0
 11
189.3083140497693
 21
15.56450248938863
 31
0.0
 11
189.3527866656865
 21
15.26523906796822
 31
0.0
 11
189.4092389118319
 21
14.99205653521318
 31
0.0
 11
189.4768868567478
 21
14.75222989925969
 31
0.0
 11
189.5549465689761
 21
14.55303416824396
 31
0.0
 11
189.6426341170591
 21
14.4017443503022
 31
0.0
 11
189.7391655695388
 21
14.30563545357059
 31
0.0
 11
189.8437569949575
 21
14.27198248618534
 31
0.0
 11
189.8943077302786
 21
14.30191760987577
 31
0.0
 11
189.9310588991551
 21
14.39506003823789
 31
0.0
 11
189.9562640977528
 21
14.55641535720796
 31
0.0
 11
189.9721769222368
 21
14.79098915272224
 31
0.0
 11
190.0494082682583
 21
14.7321656631536
 31
0.0
 11
190.1327184184385
 21
14.68936269441432
 31
0.0
 11
190.1066365811217
 21
14.44542772669752
 31
0.0
 11
190.0673317805105
 21
14.27222286896304
 31
0.0
 11
190.0105702596765
 21
14.16025656454659
 31
0.0
 11
189.932118261691
 21
14.10003725678387
 31
0.0
 11
189.8277420296256
 21
14.08207338901059
 31
0.0
 11
189.6738595065097
 21
14.11971824021103
 31
0.0
 11
189.5388902376747
 21
14.22721732886145
 31
0.0
 11
189.4221739916163
 21
14.39641745753551
 31
0.0
 11
189.32305053683
 21
14.61916542880685
 31
0.0
 11
189.2408596418113
 21
14.88730804524914
 31
0.0
 11
189.1749410750559
 21
15.19269210943602
 31
0.0
 11
189.1246346050593
 21
15.52716442394116
 31
0.0
 11
189.0892800003171
 21
15.88257179133819
 31
0.0
 11
189.0561935405844
 21
15.88257179133819
 31
0.0
 11
188.9654726026075
 21
15.88257179133819
 31
0.0
 11
188.8299248482185
 21
15.88257179133819
 31
0.0
 11
188.6623579392495
 21
15.88257179133819
 31
0.0
 11
188.4755795375324
 21
15.88257179133819
 31
0.0
 11
188.2823973048992
 21
15.88257179133819
 31
0.0
 11
188.0956189031822
 21
15.88257179133819
 31
0.0
 11
187.9280519942131
 21
15.88257179133819
 31
0.0
 11
187.7925042398241
 21
15.88257179133819
 31
0.0
 11
187.7017833018473
 21
15.88257179133819
 31
0.0
 11
187.6686968421145
 21
15.88257179133819
 31
0.0
 11
187.6686968421145
 21
15.91015873794588
 31
0.0
 11
187.6686968421145
 21
15.97085002048279
 31
0.0
 11
187.6686968421145
 21
16.0315413030197
 31
0.0
 11
187.6686968421145
 21
16.05912824962739
 31
0.0
 11
187.7014723087631
 21
16.05912824962739
 31
0.0
 11
187.7913405237673
 21
16.05912824962739
 31
0.0
 11
187.9256142097148
 21
16.05912824962738
 31
0.0
 11
188.0916060891932
 21
16.05912824962739
 31
0.0
 11
188.2766288847901
 21
16.05912824962739
 31
0.0
 11
188.4679953190932
 21
16.05912824962739
 31
0.0
 11
188.6530181146902
 21
16.05912824962739
 31
0.0
 11
188.8190099941685
 21
16.05912824962738
 31
0.0
 11
188.953283680116
 21
16.05912824962739
 31
0.0
 11
189.0431518951202
 21
16.05912824962739
 31
0.0
 11
189.0759273617688
 21
16.05912824962739
 31
0.0
 11
189.0659183950103
 21
16.309620315537
 31
0.0
 11
189.0599112510663
 21
16.56210998561273
 31
0.0
 11
189.0860575870659
 21
16.56071305616863
 31
0.0
 11
189.1484065421419
 21
16.55738191672503
 31
0.0
 11
189.2228230369099
 21
16.55340604061491
 31
0.0
 11
189.2851719919859
 21
16.5500749011713
 31
0.0
 11
189.3113183279855
 21
16.54867797172721
 31
0.0
 11
189.298293111304
 21
16.52030912624821
 31
0.0
 11
189.2551649266405
 21
16.50595658284906
 31
0.0
 11
189.2574991961821
 21
16.2815105412385
 31
0.0
 11
189.2658452735903
 21
16.05912824962739
 31
0.0
 11
189.3009063195165
 21
16.05912824962739
 31
0.0
 11
189.3933399860495
 21
16.05912824962739
 31
0.0
 11
189.5240220663201
 21
16.05912824962739
 31
0.0
 11
189.6738283534596
 21
16.05912824962739
 31
0.0
 11
189.8236346405991
 21
16.05912824962739
 31
0.0
 11
189.9543167208697
 21
16.05912824962739
 31
0.0
 11
190.0467503874027
 21
16.05912824962739
 31
0.0
 11
190.0818114333289
 21
16.05912824962739
 31
0.0
 11
190.0818114333289
 21
16.0315413030197
 31
0.0
 11
190.0818114333289
 21
15.97085002048279
 31
0.0
 11
190.0818114333289
 21
15.91015873794588
 31
0.0
 11
190.0818114333289
 21
15.88257179133819
 31
0.0
  0
SPLINE
  5
AC
102
{ACAD_REACTORS
330
C9
102
}
330
48
100
AcDbEntity
  8
_U_30EC_U_30A4_U_30E4_U_30FC_1
  6
Continuous
 62
     2
100
AcDbSpline
210
0.0
220
0.0
230
1.0
 70
    11
 71
     3
 72
    75
 73
    71
 74
    69
 42
0.000000001
 43
0.0000000001
 44
0.00000001
 40
0.0
 40
0.0
 40
0.0
 40
0.0
 40
0.0342546099129691
 40
0.1245622414432364
 40
0.2522385480897518
 40
0.3985991922940662
 40
0.5449598364980839
 40
0.6726361431438834
 40
0.7629437746736925
 40
0.7971983935297973
 40
1.101723623449661
 40
1.408591244036665
 40
1.433332471690373
 40
1.48776317245017
 40
1.542193873081999
 40
1.566935100592548
 40
1.923523931821859
 40
2.27175570495366
 40
2.590579755100902
 40
2.858943305581159
 40
2.889120339309181
 40
2.918305855191127
 40
2.94136664553125
 40
2.996357760973142
 40
3.061992318140688
 40
3.116983433626883
 40
3.140044223997562
 40
3.411273122936483
 40
3.732441619741147
 40
3.761068217532845
 40
3.837787499630409
 40
3.948858699126048
 40
4.080541049104422
 40
4.219093782625805
 40
4.350776132722359
 40
4.461847332405689
 40
4.538566614678421
 40
4.567193212544669
 40
4.594907573998928
 40
4.666381453557467
 40
4.764111044011077
 40
4.87059253812588
 40
4.968322128642331
 40
5.039796008287016
 40
5.067510369784475
 40
5.094263603185688
 40
5.153120716668326
 40
5.211977830150774
 40
5.238731063551779
 40
5.272290535139017
 40
5.363380529444878
 40
5.497618415781556
 40
5.660621563453798
 40
5.838007341749499
 40
6.015393119910851
 40
6.178396267038476
 40
6.312634151842428
 40
6.403724143059417
 40
6.437283612672513
 40
6.464036846261129
 40
6.522893960004746
 40
6.581751071484012
 40
6.608504301590958
 40
6.637253941281106
 40
6.711397748902957
 40
6.81277805728357
 40
6.923237199249346
 40
7.02461750762399
 40
7.098761315207643
 40
7.127510946007593
 40
7.127510946007593
 40
7.127510946007593
 40
7.127510946007593
 10
188.4418622390564
 20
15.28863512482006
 30
0.0
 10
188.4418622819707
 20
15.27721697417462
 30
0.0
 10
188.4418624481128
 20
15.23569641851371
 30
0.0
 10
188.4418593081787
 20
15.15161306012513
 30
0.0
 10
188.4418788279801
 20
15.0301888133107
 30
0.0
 10
188.4417912187737
 20
14.8899487805619
 30
0.0
 10
188.442111623523
 20
14.75020940803318
 30
0.0
 10
188.4411605909741
 20
14.6275942290367
 30
0.0
 10
188.4431978595968
 20
14.54601458446784
 30
0.0
 10
188.4349433178745
 20
14.39285651086439
 30
0.0
 10
188.7430797940901
 20
14.55574620063464
 30
0.0
 10
189.0350645173737
 20
14.72497322696744
 30
0.0
 10
189.0408354448707
 20
14.58987619790653
 30
0.0
 10
189.0455471719891
 20
14.54631605169186
 30
0.0
 10
189.0482535411918
 20
14.50225633359286
 30
0.0
 10
189.0672545672958
 20
14.35286974371875
 30
0.0
 10
188.6583942247302
 20
14.41695556250004
 30
0.0
 10
188.3793710348832
 20
14.30310725419758
 30
0.0
 10
188.1018081587167
 20
14.20378479819885
 30
0.0
 10
187.8099837184399
 20
14.24645071605097
 30
0.0
 10
187.7869144678658
 20
14.14336063753283
 30
0.0
 10
187.7537474383333
 20
14.11705475253211
 30
0.0
 10
187.7480653962738
 20
14.16469693045046
 30
0.0
 10
187.7284214559044
 20
14.20194720123812
 30
0.0
 10
187.7095089485623
 20
14.26021771856306
 30
0.0
 10
187.6942849867707
 20
14.30399585016547
 30
0.0
 10
187.6477246372936
 20
14.41773805055053
 30
0.0
 10
187.989089731245
 20
14.3859068512879
 30
0.0
 10
188.2679649367386
 20
14.35175819115221
 30
0.0
 10
188.2617753034907
 20
14.49928360488394
 30
0.0
 10
188.2630935452773
 20
14.57027534917574
 30
0.0
 10
188.2624831689948
 20
14.67734151967403
 30
0.0
 10
188.2625871570725
 20
14.8041291379474
 30
0.0
 10
188.2629987964056
 20
14.93863627504792
 30
0.0
 10
188.2613907841968
 20
15.06409933959926
 30
0.0
 10
188.2659902567925
 20
15.17519630727859
 30
0.0
 10
188.256418650221
 20
15.2377627080943
 30
0.0
 10
188.2704001783691
 20
15.29609772303743
 30
0.0
 10
188.2147384386704
 20
15.2830409459098
 30
0.0
 10
188.1575655197821
 20
15.2915069175824
 30
0.0
 10
188.0616048925648
 20
15.28744360089378
 30
0.0
 10
187.963376752282
 20
15.28985273861216
 30
0.0
 10
187.867258245756
 20
15.2856598462213
 30
0.0
 10
187.8104648525812
 20
15.29443730449904
 30
0.0
 10
187.7550356873384
 20
15.28109320858863
 30
0.0
 10
187.7670679427917
 20
15.33051294967998
 30
0.0
 10
187.7592003173938
 20
15.37408372039138
 30
0.0
 10
187.7666295563829
 20
15.41844853127267
 30
0.0
 10
187.7551930564144
 20
15.46916681772733
 30
0.0
 10
187.8232102370133
 20
15.45176844766485
 30
0.0
 10
187.8968496879747
 20
15.46431834245931
 30
0.0
 10
188.0325064058211
 20
15.45814061019839
 30
0.0
 10
188.1884909024525
 20
15.46043587101826
 30
0.0
 10
188.3615926358143
 20
15.45955352271272
 30
0.0
 10
188.5346942964181
 20
15.4604359115115
 30
0.0
 10
188.6906789811216
 20
15.45814046964292
 30
0.0
 10
188.8263351889797
 20
15.46431870271173
 30
0.0
 10
188.8999756705652
 20
15.45176778227077
 30
0.0
 10
188.9679914174724
 20
15.46916757020885
 30
0.0
 10
188.9565590885922
 20
15.41844514423297
 30
0.0
 10
188.9639539458298
 20
15.3741144481985
 30
0.0
 10
188.956203991227
 20
15.33042691558938
 30
0.0
 10
188.9681203741877
 20
15.28077974107219
 30
0.0
 10
188.9108170223616
 20
15.29475795347167
 30
0.0
 10
188.8520145789773
 20
15.28554139681996
 30
0.0
 10
188.7525293633199
 20
15.28966652173671
 30
0.0
 10
188.649428009835
 20
15.2883714403463
 30
0.0
 10
188.5537846354573
 20
15.28868461086383
 30
0.0
 10
188.4857467971617
 20
15.28863160705887
 30
0.0
 10
188.4514462213443
 20
15.28863435880398
 30
0.0
 10
188.4418622390564
 20
15.28863512482006
 30
0.0
 11
188.4418622390564
 21
15.28863512482006
 31
0.0
 11
188.4418622390564
 21
15.25438050595926
 31
0.0
 11
188.4418622390564
 21
15.16407287441717
 31
0.0
 11
188.4418622390564
 21
15.03639656775421
 31
0.0
 11
188.4418622390564
 21
14.89003592353082
 31
0.0
 11
188.4418622390564
 21
14.74367527930742
 31
0.0
 11
188.4418622390564
 21
14.61599897264446
 31
0.0
 11
188.4418622390564
 21
14.52569134110237
 31
0.0
 11
188.4418622390564
 21
14.49143672224157
 31
0.0
 11
188.7391932644567
 21
14.5572385972251
 31
0.0
 11
189.0384623627245
 21
14.62510422220814
 31
0.0
 11
189.0405487124976
 21
14.60045111891569
 31
0.0
 11
189.0451386819987
 21
14.54621429167231
 31
0.0
 11
189.0497286514996
 21
14.49197746442893
 31
0.0
 11
189.0518150012728
 21
14.46732436113649
 31
0.0
 11
188.705639688924
 21
14.38177754149639
 31
0.0
 11
188.3669653138838
 21
14.30075261638643
 31
0.0
 11
188.0563731516688
 21
14.22877148033671
 31
0.0
 11
187.7944444777955
 21
14.17035602787733
 31
0.0
 11
187.7817515029292
 21
14.14297826746755
 31
0.0
 11
187.7569794787513
 21
14.12754644455477
 31
0.0
 11
187.7491867589501
 21
14.14925067399378
 31
0.0
 11
187.7306041194242
 21
14.20100691342528
 31
0.0
 11
187.70842483999
 21
14.26278048952093
 31
0.0
 11
187.689842200464
 21
14.31453672895243
 31
0.0
 11
187.6820494806628
 21
14.33624095839144
 31
0.0
 11
187.9482776335931
 21
14.38808385768408
 31
0.0
 11
188.2626334936289
 21
14.45388352780652
 31
0.0
 11
188.2626334936289
 21
14.48251012578366
 31
0.0
 11
188.2626334936289
 21
14.55922940836241
 31
0.0
 11
188.2626334936289
 21
14.67030060851373
 31
0.0
 11
188.2626334936289
 21
14.8019829592086
 31
0.0
 11
188.2626334936289
 21
14.94053569341798
 31
0.0
 11
188.2626334936289
 21
15.07221804411285
 31
0.0
 11
188.2626334936289
 21
15.18328924426416
 31
0.0
 11
188.2626334936289
 21
15.26000852684291
 31
0.0
 11
188.2626334936289
 21
15.28863512482006
 31
0.0
 11
188.2349191321108
 21
15.28863512482006
 31
0.0
 11
188.1634452524063
 21
15.28863512482006
 31
0.0
 11
188.06571566179
 21
15.28863512482006
 31
0.0
 11
187.9592341675364
 21
15.28863512482006
 31
0.0
 11
187.8615045769201
 21
15.28863512482006
 31
0.0
 11
187.7900306972156
 21
15.28863512482006
 31
0.0
 11
187.7623163356975
 21
15.28863512482006
 31
0.0
 11
187.7623163356975
 21
15.31538835832031
 31
0.0
 11
187.7623163356975
 21
15.37424547202086
 31
0.0
 11
187.7623163356975
 21
15.43310258572141
 31
0.0
 11
187.7623163356975
 21
15.45985581922166
 31
0.0
 11
187.7958758072874
 21
15.45985581922166
 31
0.0
 11
187.8869658016031
 21
15.45985581922166
 31
0.0
 11
188.0212036879629
 21
15.45985581922166
 31
0.0
 11
188.1842068356856
 21
15.45985581922166
 31
0.0
 11
188.3615926140897
 21
15.45985581922166
 31
0.0
 11
188.5389783924938
 21
15.45985581922166
 31
0.0
 11
188.7019815402164
 21
15.45985581922166
 31
0.0
 11
188.8362194265763
 21
15.45985581922166
 31
0.0
 11
188.9273094208918
 21
15.45985581922166
 31
0.0
 11
188.9608688924818
 21
15.45985581922166
 31
0.0
 11
188.9608688924818
 21
15.43310258572141
 31
0.0
 11
188.9608688924818
 21
15.37424547202086
 31
0.0
 11
188.9608688924818
 21
15.31538835832031
 31
0.0
 11
188.9608688924818
 21
15.28863512482006
 31
0.0
 11
188.9321192527877
 21
15.28863512482006
 31
0.0
 11
188.8579754451555
 21
15.28863512482006
 31
0.0
 11
188.7565951367604
 21
15.28863512482006
 31
0.0
 11
188.6461359947778
 21
15.28863512482006
 31
0.0
 11
188.5447556863827
 21
15.28863512482006
 31
0.0
 11
188.4706118787505
 21
15.28863512482006
 31
0.0
 11
188.4418622390564
 21
15.28863512482006
 31
0.0
  0
SPLINE
  5
AD
102
{ACAD_REACTORS
330
CA
102
}
330
48
100
AcDbEntity
  8
_U_30EC_U_30A4_U_30E4_U_30FC_1
  6
Continuous
 62
     2
100
AcDbSpline
210
0.0
220
0.0
230
1.0
 70
    11
 71
     3
 72
    15
 73
    11
 74
     9
 42
0.000000001
 43
0.0000000001
 44
0.00000001
 40
0.0
 40
0.0
 40
0.0
 40
0.0
 40
0.2785535985096553
 40
0.5215624748198889
 40
0.60769173760405
 40
0.6938210001741234
 40
0.9405019146455035
 40
1.221691403489134
 40
1.300471877081053
 40
1.37925234168482
 40
1.37925234168482
 40
1.37925234168482
 40
1.37925234168482
 10
189.5681493630999
 20
16.55944651339123
 30
0.0
 10
189.6296017794178
 20
16.50706030601457
 30
0.0
 10
189.7446649974113
 20
16.40897260806965
 30
0.0
 10
190.0397348497244
 20
16.25904169905964
 30
0.0
 10
189.9025147631856
 20
16.17357611523756
 30
0.0
 10
189.8041227843778
 20
16.04100169210297
 30
0.0
 10
189.713003359065
 20
16.34631369790162
 30
0.0
 10
189.3636839480656
 20
16.40982253474116
 30
0.0
 10
189.511925837657
 20
16.5091089388962
 30
0.0
 10
189.5494081874236
 20
16.54266732411124
 30
0.0
 10
189.5681493630999
 20
16.55944651339123
 30
0.0
 11
189.5681493630999
 21
16.55944651339123
 31
0.0
 11
189.7919222440596
 21
16.39356158287715
 31
0.0
 11
189.9695046306383
 21
16.22767665236306
 31
0.0
 11
189.9066308127979
 21
16.16881127043334
 31
0.0
 11
189.8437569949575
 21
16.10994588850362
 31
0.0
 11
189.6688535117725
 21
16.28390061068233
 31
0.0
 11
189.447825685614
 21
16.45772304119444
 31
0.0
 11
189.507987524357
 21
16.50858477729284
 31
0.0
 11
189.5681493630999
 21
16.55944651339123
 31
0.0
  0
SPLINE
  5
AE
102
{ACAD_REACTORS
330
CB
102
}
330
48
100
AcDbEntity
  8
_U_30EC_U_30A4_U_30E4_U_30FC_1
  6
Continuous
 62
     2
100
AcDbSpline
210
0.0
220
0.0
230
1.0
 70
    11
 71
     3
 72
    35
 73
    31
 74
    29
 42
0.000000001
 43
0.0000000001
 44
0.00000001
 40
0.0
 40
0.0
 40
0.0
 40
0.0
 40
0.0335231036620645
 40
0.0713218571712051
 40
0.4278866681487109
 40
0.8116865841964107
 40
1.198190238000068
 40
1.561379546812696
 40
1.659983174622061
 40
1.7593155738072
 40
2.132719617231086
 40
2.525233363588836
 40
2.910815397779706
 40
3.265244364303293
 40
3.592606723582032
 40
3.964386154603979
 40
4.359942131737801
 40
4.758154118639312
 40
4.843846538699926
 40
4.936650065543244
 40
5.256616602537323
 40
5.58170740441606
 40
5.899719158308158
 40
6.19836349428076
 40
6.466301046615793
 40
6.493895311537115
 40
6.559697020196907
 40
6.638234543442483
 40
6.704036252154235
 40
6.731630508423041
 40
6.731630508423041
 40
6.731630508423041
 40
6.731630508423041
 10
191.9736010568669
 20
16.56478227727876
 30
0.0
 10
191.9676006097789
 20
16.55495074551065
 30
0.0
 10
191.9548344099157
 20
16.5340337258854
 30
0.0
 10
191.7949362006554
 20
16.5014151054143
 30
0.0
 10
192.2322025842337
 20
16.21221064345444
 30
0.0
 10
192.4345394828261
 20
16.01055522367179
 30
0.0
 10
192.6819564267973
 20
15.76763771612019
 30
0.0
 10
193.1831513624606
 20
15.69062046766517
 30
0.0
 10
193.012556219897
 20
15.54891323183398
 30
0.0
 10
192.9383299463202
 20
15.34724750217849
 30
0.0
 10
192.6131432248188
 20
15.69970671183468
 30
0.0
 10
192.3277741670664
 20
15.86189596568303
 30
0.0
 10
192.0337604077658
 20
16.0670151406179
 30
0.0
 10
191.8084452691134
 20
16.54841872604197
 30
0.0
 10
191.5993085055521
 20
16.08357430617965
 30
0.0
 10
191.3207873674834
 20
15.87365336261654
 30
0.0
 10
191.0371383177208
 20
15.70438840368726
 30
0.0
 10
190.7078639527832
 20
15.33156744916678
 30
0.0
 10
190.6277012318224
 20
15.52722398467743
 30
0.0
 10
190.4759724909744
 20
15.65505488199337
 30
0.0
 10
190.9083395826795
 20
15.73468415774677
 30
0.0
 10
191.0962565329766
 20
15.93041018924215
 30
0.0
 10
191.3468477420502
 20
16.14647380925497
 30
0.0
 10
191.5714350470161
 20
16.312053763088
 30
0.0
 10
191.6259775409712
 20
16.59148348645569
 30
0.0
 10
191.7494661029011
 20
16.5775233441682
 30
0.0
 10
191.806027334452
 20
16.57535652876389
 30
0.0
 10
191.8761870984944
 20
16.57061243890102
 30
0.0
 10
191.9333414022105
 20
16.56723813359282
 30
0.0
 10
191.9644190320839
 20
16.56534238719861
 30
0.0
 10
191.9736010568669
 20
16.56478227727876
 30
0.0
 11
191.9736010568669
 21
16.56478227727876
 31
0.0
 11
191.9525319069884
 21
16.53870758978527
 31
0.0
 11
191.9174464559425
 21
16.52464498562211
 31
0.0
 11
192.1512374769094
 21
16.25542345140123
 31
0.0
 11
192.4414585957566
 21
16.00427791978001
 31
0.0
 11
192.7612797483684
 21
15.78725371627526
 31
0.0
 11
193.0838708706289
 21
15.62039616640379
 31
0.0
 11
193.0213299868076
 21
15.5441641959367
 31
0.0
 11
192.9688035818975
 21
15.45985581922166
 31
0.0
 11
192.6436279095814
 21
15.64340788840322
 31
0.0
 11
192.3237227768436
 21
15.8708452375217
 31
0.0
 11
192.0354200158608
 21
16.12688239132052
 31
0.0
 11
191.8050514588095
 21
16.39623387454308
 31
0.0
 11
191.5995531719516
 21
16.14140732729778
 31
0.0
 11
191.3288301341535
 21
15.88659566286498
 31
0.0
 11
191.0119538423246
 21
15.64983850363598
 31
0.0
 11
190.6679957933741
 21
15.44917547200208
 31
0.0
 11
190.6218855341338
 21
15.52140451712295
 31
0.0
 11
190.5636970460348
 21
15.59369970807708
 31
0.0
 11
190.8433040489015
 21
15.74925840970486
 31
0.0
 11
191.1093004621154
 21
15.93615393799147
 31
0.0
 11
191.3499997459746
 21
16.14398880293951
 31
0.0
 11
191.5537153607774
 21
16.36236551455158
 31
0.0
 11
191.7087607668218
 21
16.58088658283029
 31
0.0
 11
191.7363041569865
 21
16.57921173505293
 31
0.0
 11
191.8019845489177
 21
16.57521786727615
 31
0.0
 11
191.880377274771
 21
16.5704509928329
 31
0.0
 11
191.9460576667022
 21
16.56645712505612
 31
0.0
 11
191.9736010568669
 21
16.56478227727876
 31
0.0
  0
SPLINE
  5
AF
102
{ACAD_REACTORS
330
CC
102
}
330
48
100
AcDbEntity
  8
_U_30EC_U_30A4_U_30E4_U_30FC_1
  6
Continuous
 62
     2
100
AcDbSpline
210
0.0
220
0.0
230
1.0
 70
    11
 71
     3
 72
    91
 73
    87
 74
    85
 42
0.000000001
 43
0.0000000001
 44
0.00000001
 40
0.0
 40
0.0
 40
0.0
 40
0.0
 40
0.0267532254356701
 40
0.0856103386464102
 40
0.1444674521996638
 40
0.1712206856618532
 40
0.2039416005642554
 40
0.2955601971652502
 40
0.4362601844616936
 40
0.6162252844507268
 40
0.8256392189704715
 40
1.054685709844412
 40
1.293548478893533
 40
1.532411247938305
 40
1.76145773879957
 40
1.970871673298538
 40
2.150836773256734
 40
2.291536760495595
 40
2.383155356836702
 40
2.415876284101322
 40
2.442629517487966
 40
2.501486630949096
 40
2.560343744424244
 40
2.587096977826518
 40
2.617068194440946
 40
2.699247336756087
 40
2.822032643466399
 40
2.973822353257929
 40
3.143014704823371
 40
3.31800793687995
 40
3.487200288186783
 40
3.638989997548264
 40
3.761775303794763
 40
3.843954445753098
 40
3.873925662229794
 40
3.890812773500501
 40
3.90769988477168
 40
3.937960767857287
 40
3.980983618142318
 40
4.199085915228464
 40
4.439444339237255
 40
4.677588241260898
 40
5.050698317837783
 40
5.448212454763169
 40
5.855291218044695
 40
6.138575438885365
 40
6.417434507584206
 40
6.444551104393888
 40
6.504207617363187
 40
6.563864130314512
 40
6.590980727104105
 40
6.848609460381487
 40
7.109611990668446
 40
7.352910904446111
 40
7.557830220705481
 40
7.5875189259134
 40
7.652834077375819
 40
7.718149228845756
 40
7.747837934062059
 40
7.854880190301016
 40
7.976511257403559
 40
8.36948789659236
 40
8.757514959223654
 40
9.126072419331116
 40
9.460639380392179
 40
9.74669559303592
 40
9.777569943118698
 40
9.807050320931797
 40
9.830377336128931
 40
9.886003295436005
 40
9.952395569429923
 40
10.00802152870628
 40
10.0313485438822
 40
10.21356951009591
 40
10.42203479292873
 40
10.66154556731066
 40
10.91693789564306
 40
11.15832906556567
 40
11.18982674596625
 40
11.27286608520409
 40
11.39026653033351
 40
11.52484752840888
 40
11.6594285264845
 40
11.77682897161485
 40
11.85986831085684
 40
11.8913659823043
 40
11.8913659823043
 40
11.8913659823043
 40
11.8913659823043
 10
190.7027885008196
 20
15.03713984710514
 30
0.0
 10
190.7028237765288
 20
15.04602231320727
 30
0.0
 10
190.7029366710797
 20
15.07444621056089
 30
0.0
 10
190.7012984568489
 20
15.12424023178545
 30
0.0
 10
190.7069750292911
 20
15.16671948486896
 30
0.0
 10
190.6956928731706
 20
15.21744538865589
 30
0.0
 10
190.7632296979032
 20
15.2002728474885
 30
0.0
 10
190.8388029210699
 20
15.21304611174738
 30
0.0
 10
190.9828357056001
 20
15.20644113466124
 30
0.0
 10
191.1569419185426
 20
15.20902846215208
 30
0.0
 10
191.3639599611004
 20
15.20814975964295
 30
0.0
 10
191.5894688172378
 20
15.2084259192877
 30
0.0
 10
191.8251162293406
 20
15.20832723667404
 30
0.0
 10
192.0607640531348
 20
15.2084256842151
 30
0.0
 10
192.2862717580626
 20
15.2081506219953
 30
0.0
 10
192.4932934632805
 20
15.20902570279477
 30
0.0
 10
192.6673888915288
 20
15.20644906687189
 30
0.0
 10
192.8114492071986
 20
15.21302674457955
 30
0.0
 10
192.8869691915293
 20
15.20030627414346
 30
0.0
 10
192.9545776037029
 20
15.21740784200428
 30
0.0
 10
192.9430840140676
 20
15.16689169811682
 30
0.0
 10
192.9505104581733
 20
15.12267636235243
 30
0.0
 10
192.9428838927987
 20
15.07882350512352
 30
0.0
 10
192.9546489459424
 20
15.02892758488069
 30
0.0
 10
192.8930788491983
 20
15.04407611721254
 30
0.0
 10
192.8256791738671
 20
15.03325049359415
 30
0.0
 10
192.7013004056222
 20
15.03866415634978
 30
0.0
 10
192.555442823657
 20
15.03663589399527
 30
0.0
 10
192.3893576440086
 20
15.03730161587129
 30
0.0
 10
192.2188412621724
 20
15.03704027529984
 30
0.0
 10
192.0519790855388
 20
15.03735937399835
 30
0.0
 10
191.9087346827105
 20
15.03649686599504
 30
0.0
 10
191.7773313869834
 20
15.0387768449173
 30
0.0
 10
191.7239859134656
 20
15.03422088382944
 30
0.0
 10
191.6485188456912
 20
15.04014299001619
 30
0.0
 10
191.6769075779232
 20
15.03108553352095
 30
0.0
 10
191.7033652409542
 20
15.02740296277671
 30
0.0
 10
191.6633522907701
 20
14.99668655977016
 30
0.0
 10
191.5713663691868
 20
15.00681975183377
 30
0.0
 10
191.5439396207069
 20
14.76046886256527
 30
0.0
 10
191.4478793967234
 20
14.60513942773117
 30
0.0
 10
191.1917277964474
 20
14.27539801940311
 30
0.0
 10
191.7627537732762
 20
14.41444406219193
 30
0.0
 10
192.0173656320516
 20
14.41306163982105
 30
0.0
 10
192.6279647048617
 20
14.32804953250828
 30
0.0
 10
192.3340698578082
 20
14.62699801566945
 30
0.0
 10
192.0133304286518
 20
14.77345240910525
 30
0.0
 10
192.1313543360433
 20
14.83039924827028
 30
0.0
 10
192.1724716466261
 20
14.8543448388209
 30
0.0
 10
192.2156812394411
 20
14.87614142819973
 30
0.0
 10
192.3174574094449
 20
14.93943105262643
 30
0.0
 10
192.4328867625248
 20
14.68161535417523
 30
0.0
 10
192.6329591642277
 20
14.54630425122425
 30
0.0
 10
192.7269077387228
 20
14.36807179147623
 30
0.0
 10
192.9558829746392
 20
14.21012205035791
 30
0.0
 10
192.8596031846708
 20
14.15930356585041
 30
0.0
 10
192.8167959763779
 20
14.12895676531797
 30
0.0
 10
192.7718243528779
 20
14.104805142902
 30
0.0
 10
192.7121720925214
 20
14.0556653075631
 30
0.0
 10
192.6789731061324
 20
14.19011859682351
 30
0.0
 10
192.5582013350796
 20
14.34608649295323
 30
0.0
 10
192.1970976005979
 20
14.21584312068298
 30
0.0
 10
191.8385061955541
 20
14.23239078418225
 30
0.0
 10
191.457092045008
 20
14.22345613360607
 30
0.0
 10
191.170345528289
 20
14.1589705568115
 30
0.0
 10
190.8592055599715
 20
14.27245052201568
 30
0.0
 10
190.8268737818788
 20
14.1613664393651
 30
0.0
 10
190.7896178253317
 20
14.14210697858754
 30
0.0
 10
190.7865737632754
 20
14.18889168096039
 30
0.0
 10
190.7679892860607
 20
14.22821237927877
 30
0.0
 10
190.7512436616777
 20
14.28780367486974
 30
0.0
 10
190.7383730915754
 20
14.33216353880026
 30
0.0
 10
190.7042327806428
 20
14.42120715128943
 30
0.0
 10
190.9482714457754
 20
14.35195426952512
 30
0.0
 10
191.1441394486671
 20
14.33044753066486
 30
0.0
 10
191.2395426381277
 20
14.61240868487205
 30
0.0
 10
191.2945135769597
 20
14.77377429429865
 30
0.0
 10
191.5159619357156
 20
15.0440556159848
 30
0.0
 10
191.3849239381216
 20
15.03562830862477
 30
0.0
 10
191.3110026555854
 20
15.03793392505712
 30
0.0
 10
191.1977459876244
 20
15.03685762330399
 30
0.0
 10
191.0694251807484
 20
15.03722023085252
 30
0.0
 10
190.9404252030415
 20
15.03712108474827
 30
0.0
 10
190.828784094629
 20
15.03714316721314
 30
0.0
 10
190.7514663970026
 20
15.03713963198412
 30
0.0
 10
190.713287653201
 20
15.03713979853823
 30
0.0
 10
190.7027885008196
 20
15.03713984710514
 30
0.0
 11
190.7027885008196
 21
15.03713984710514
 31
0.0
 11
190.7027885008196
 21
15.06389308060539
 31
0.0
 11
190.7027885008196
 21
15.12275019430595
 31
0.0
 11
190.7027885008196
 21
15.18160730800652
 31
0.0
 11
190.7027885008196
 21
15.20836054150677
 31
0.0
 11
190.7355094280989
 21
15.20836054150677
 31
0.0
 11
190.8271280244809
 21
15.20836054150677
 31
0.0
 11
190.9678280117818
 21
15.20836054150677
 31
0.0
 11
191.1477931118179
 21
15.20836054150677
 31
0.0
 11
191.3572070464054
 21
15.20836054150677
 31
0.0
 11
191.5862535373604
 21
15.20836054150677
 31
0.0
 11
191.8251163064992
 21
15.20836054150677
 31
0.0
 11
192.0639790756381
 21
15.20836054150677
 31
0.0
 11
192.2930255665931
 21
15.20836054150677
 31
0.0
 11
192.5024395011806
 21
15.20836054150677
 31
0.0
 11
192.6824046012167
 21
15.20836054150677
 31
0.0
 11
192.8231045885176
 21
15.20836054150677
 31
0.0
 11
192.9147231848996
 21
15.20836054150677
 31
0.0
 11
192.9474441121789
 21
15.20836054150677
 31
0.0
 11
192.9474441121789
 21
15.18160730800651
 31
0.0
 11
192.9474441121789
 21
15.12275019430596
 31
0.0
 11
192.9474441121789
 21
15.0638930806054
 31
0.0
 11
192.9474441121789
 21
15.03713984710514
 31
0.0
 11
192.9174728954758
 21
15.03713984710514
 31
0.0
 11
192.8352937529027
 21
15.03713984710514
 31
0.0
 11
192.7125084457639
 21
15.03713984710514
 31
0.0
 11
192.5607187353642
 21
15.03713984710514
 31
0.0
 11
192.3915263830077
 21
15.03713984710514
 31
0.0
 11
192.2165331499991
 21
15.03713984710514
 31
0.0
 11
192.0473407976426
 21
15.03713984710514
 31
0.0
 11
191.8955510872428
 21
15.03713984710514
 31
0.0
 11
191.7727657801042
 21
15.03713984710514
 31
0.0
 11
191.690586637531
 21
15.03713984710514
 31
0.0
 11
191.6606154208279
 21
15.03713984710514
 31
0.0
 11
191.6766359412525
 21
15.03179967349535
 31
0.0
 11
191.6926564616771
 21
15.02645949988557
 31
0.0
 11
191.670615568142
 21
15.00572498600184
 31
0.0
 11
191.6284861855363
 21
14.99700255544852
 31
0.0
 11
191.5365235541377
 21
14.79923631321399
 31
0.0
 11
191.4279078521763
 21
14.58481895987251
 31
0.0
 11
191.3127500824807
 21
14.37636943060362
 31
0.0
 11
191.685736667502
 21
14.38596825261771
 31
0.0
 11
192.083070003615
 21
14.39795616413737
 31
0.0
 11
192.4899342191145
 21
14.41117095837274
 31
0.0
 11
192.2983119496978
 21
14.61981145311223
 31
0.0
 11
192.0966752013698
 21
14.81243804160574
 31
0.0
 11
192.1204947794749
 21
14.82539711278306
 31
0.0
 11
192.1728978513061
 21
14.85390706937318
 31
0.0
 11
192.2253009231374
 21
14.8824170259633
 31
0.0
 11
192.2491205012425
 21
14.89537609714062
 31
0.0
 11
192.4387101558627
 21
14.7209389237901
 31
0.0
 11
192.6200310940435
 21
14.53320230382833
 31
0.0
 11
192.7777729231147
 21
14.34796765001178
 31
0.0
 11
192.8966252504058
 21
14.18103637509691
 31
0.0
 11
192.8715408217923
 21
14.16515586294811
 31
0.0
 11
192.8163550788425
 21
14.13021873622074
 31
0.0
 11
192.7611693358928
 21
14.09528160949337
 31
0.0
 11
192.7360849072793
 21
14.07940109734457
 31
0.0
 11
192.6775518151612
 21
14.16902208690551
 31
0.0
 11
192.6050015078457
 21
14.26664672229774
 31
0.0
 11
192.2125412924095
 21
14.24650670952501
 31
0.0
 11
191.824947406956
 21
14.22817687008515
 31
0.0
 11
191.4567378976213
 21
14.21216562731137
 31
0.0
 11
191.1224308105412
 21
14.19898140453689
 31
0.0
 11
190.8365441918518
 21
14.18913262509492
 31
0.0
 11
190.821186232174
 21
14.16234907475437
 31
0.0
 11
190.7937434290546
 21
14.15157943065987
 31
0.0
 11
190.7867927192319
 21
14.17384683454319
 31
0.0
 11
190.7702179496548
 21
14.2269460284188
 31
0.0
 11
190.7504351601596
 21
14.29032248562519
 31
0.0
 11
190.7338603905825
 21
14.3434216795008
 31
0.0
 11
190.7269096807598
 21
14.36568908338412
 31
0.0
 11
190.9091199859153
 21
14.36766022921694
 31
0.0
 11
191.1174975848588
 21
14.37370595838214
 31
0.0
 11
191.2303203127216
 21
14.58497934310296
 31
0.0
 11
191.3407936722035
 21
14.81524197164621
 31
0.0
 11
191.4358254265627
 21
15.03713984710514
 31
0.0
 11
191.4043277461597
 21
15.03713984710514
 31
0.0
 11
191.3212884069153
 21
15.03713984710514
 31
0.0
 11
191.2038879617768
 21
15.03713984710514
 31
0.0
 11
191.0693069636912
 21
15.03713984710514
 31
0.0
 11
190.9347259656055
 21
15.03713984710514
 31
0.0
 11
190.817325520467
 21
15.03713984710514
 31
0.0
 11
190.7342861812226
 21
15.03713984710514
 31
0.0
 11
190.7027885008196
 21
15.03713984710514
 31
0.0
  0
SPLINE
  5
B0
102
{ACAD_REACTORS
330
CD
102
}
330
48
100
AcDbEntity
  8
_U_30EC_U_30A4_U_30E4_U_30FC_1
  6
Continuous
 62
     2
100
AcDbSpline
210
0.0
220
0.0
230
1.0
 70
    11
 71
     3
 72
   131
 73
   127
 74
   125
 42
0.000000001
 43
0.0000000001
 44
0.00000001
 40
0.0
 40
0.0
 40
0.0
 40
0.0
 40
0.0195577029826114
 40
0.0426490537461444
 40
0.2863607575856552
 40
0.5344948436189246
 40
0.7842238845573144
 40
0.8737315789467339
 40
0.9803832810312836
 40
1.092842274517031
 40
1.199761146656789
 40
1.289788768186494
 40
1.351573580786186
 40
1.370727117561412
 40
1.416400936017826
 40
1.470914848355967
 40
1.516588666791759
 40
1.535742203552839
 40
1.634216592293187
 40
1.760283341175025
 40
1.897966686682086
 40
2.03121638736891
 40
2.049689751137906
 40
2.10111560164684
 40
2.179502577739958
 40
2.278859318314074
 40
2.39319446225873
 40
2.516516648383841
 40
2.642834515405972
 40
2.766156701983474
 40
2.880491846754587
 40
2.979848588358628
 40
3.058235565443805
 40
3.109661416668959
 40
3.128134780704137
 40
3.146783742386453
 40
3.191254343315314
 40
3.244332157315973
 40
3.288802758225877
 40
3.307451719895119
 40
3.327717853844733
 40
3.383747753580092
 40
3.468388665924484
 40
3.574487837698788
 40
3.694892515728891
 40
3.822449946852032
 40
3.950007377920423
 40
4.070412055800514
 40
4.176511227368069
 40
4.261152139501515
 40
4.317182039076707
 40
4.337448172964628
 40
4.620011002696238
 40
4.885096638397506
 40
4.945373043518323
 40
5.014107710488632
 40
5.070481727652028
 40
5.319246955636552
 40
5.584812164506023
 40
5.859000912056874
 40
6.133746937542057
 40
6.401732212968861
 40
6.420736683995452
 40
6.472845717451102
 40
6.55070274389403
 40
6.646951193874239
 40
6.754234497930563
 40
6.865196086587341
 40
6.972479390357799
 40
7.068727839771961
 40
7.14658486545097
 40
7.1986938981892
 40
7.21769836890534
 40
7.234950401630821
 40
7.276089864269862
 40
7.325191803515969
 40
7.366331266090357
 40
7.383583298769709
 40
7.402779163492086
 40
7.453386443254518
 40
7.524934666445519
 40
7.606953361405859
 40
7.68897205642901
 40
7.760520279784261
 40
7.811127559734503
 40
7.830323424546124
 40
7.847844055299758
 40
7.894799345666796
 40
7.962779392744485
 40
8.043374293560534
 40
8.128174145149435
 40
8.208769044817243
 40
8.276749090376944
 40
8.323704379669506
 40
8.341225010056236
 40
8.358497614800385
 40
8.40167912668659
 40
8.457815092185648
 40
8.513951057728052
 40
8.557132569708008
 40
8.574405174505051
 40
8.602340668616415
 40
8.643455660539956
 40
8.663225271966624
 40
8.715345156564268
 40
8.789031889628607
 40
8.873502045520333
 40
8.957972194323958
 40
9.03165892556785
 40
9.083778811234538
 40
9.103548423003005
 40
9.119550083123542
 40
9.160817522379844
 40
9.21724442911021
 40
9.278724491644695
 40
9.33515139829548
 40
9.376418837357775
 40
9.392420497300563
 40
9.401196302734782
 40
9.417494229384255
 40
9.42627002774953
 40
9.440875075477562
 40
9.475702496998743
 40
9.517270709865908
 40
9.552098131994077
 40
9.566703169884285
 40
9.566703169884285
 40
9.566703169884285
 40
9.566703169884285
 10
194.6170254148479
 20
16.00030255519769
 30
0.0
 10
194.6134345093371
 20
15.99468074710901
 30
0.0
 10
194.6056039123624
 20
15.98242138427853
 30
0.0
 10
194.5129968974548
 20
15.94616300049714
 30
0.0
 10
194.4887622233246
 20
15.73162828221457
 30
0.0
 10
194.3858709845938
 20
15.55211668518449
 30
0.0
 10
194.1220492364305
 20
15.36629957806887
 30
0.0
 10
194.284547156918
 20
15.28973720574823
 30
0.0
 10
194.3607225760838
 20
15.22871077204184
 30
0.0
 10
194.4492171072758
 20
15.16530188553501
 30
0.0
 10
194.538993023311
 20
15.10540018228303
 30
0.0
 10
194.5883817636046
 20
15.05116538857949
 30
0.0
 10
194.6745708157381
 20
15.02300624550576
 30
0.0
 10
194.641126067423
 20
14.98727693661553
 30
0.0
 10
194.621467116631
 20
14.95564772000648
 30
0.0
 10
194.5919888217882
 20
14.91490256804811
 30
0.0
 10
194.5688989446031
 20
14.88519047498385
 30
0.0
 10
194.5380205968357
 20
14.83225806677236
 30
0.0
 10
194.472919336574
 20
14.95754718947644
 30
0.0
 10
194.3796000122415
 20
15.01228284242676
 30
0.0
 10
194.2950636285138
 20
15.06930807948084
 30
0.0
 10
194.1722498125743
 20
15.22689671436266
 30
0.0
 10
194.1764450847301
 20
15.15050190775578
 30
0.0
 10
194.1751478652677
 20
15.10375664170038
 30
0.0
 10
194.1758126448076
 20
15.02599169821342
 30
0.0
 10
194.1755549986957
 20
14.92916452333165
 30
0.0
 10
194.1756431239922
 20
14.81664663087551
 30
0.0
 10
194.1756077302281
 20
14.69538469954441
 30
0.0
 10
194.1756511758279
 20
14.57101281867703
 30
0.0
 10
194.1755199942406
 20
14.44982067640078
 30
0.0
 10
194.1759477562046
 20
14.33705532928485
 30
0.0
 10
194.174667820231
 20
14.24097297777486
 30
0.0
 10
194.1779759851043
 20
14.16128210477442
 30
0.0
 10
194.1715197740086
 20
14.11829559797526
 30
0.0
 10
194.1806208705556
 20
14.07969816380784
 30
0.0
 10
194.1447910339935
 20
14.08825271732813
 30
0.0
 10
194.1115223815252
 20
14.08356903994189
 30
0.0
 10
194.060456257604
 20
14.08365682768526
 30
0.0
 10
194.0269723972813
 20
14.08808814292563
 30
0.0
 10
193.9907585408754
 20
14.07975177851252
 30
0.0
 10
194.0009782568665
 20
14.12159661188026
 30
0.0
 10
193.9936487887773
 20
14.16792944828916
 30
0.0
 10
193.9973633136103
 20
14.25389215114756
 30
0.0
 10
193.9959480554896
 20
14.35619526713591
 30
0.0
 10
193.9964105554638
 20
14.47467607940253
 30
0.0
 10
193.9962773686231
 20
14.59972067162098
 30
0.0
 10
193.9963015910045
 20
14.72490212115792
 30
0.0
 10
193.9963354925551
 20
14.843010293878
 30
0.0
 10
193.9962060293132
 20
14.94643132718257
 30
0.0
 10
193.9965507549081
 20
15.02946420162409
 30
0.0
 10
193.995869827869
 20
15.08157752529985
 30
0.0
 10
193.9994586600621
 20
15.20927291830103
 30
0.0
 10
193.7826171386437
 20
14.91063100828362
 30
0.0
 10
193.6021354921951
 20
14.68278365520257
 30
0.0
 10
193.5490322295611
 20
14.82387827298556
 30
0.0
 10
193.5200429133149
 20
14.87340151569685
 30
0.0
 10
193.419664806282
 20
14.97656163798848
 30
0.0
 10
193.7405127723261
 20
15.05709419032521
 30
0.0
 10
193.8689897005429
 20
15.24080667045176
 30
0.0
 10
194.0906454325358
 20
15.44946379780504
 30
0.0
 10
194.1770224894068
 20
15.62353595237085
 30
0.0
 10
194.4549394229075
 20
15.89981435351255
 30
0.0
 10
194.3346247839283
 20
15.89548943559855
 30
0.0
 10
194.2863197351349
 20
15.89629240211295
 30
0.0
 10
194.2102377454905
 20
15.89588966155326
 30
0.0
 10
194.116701000975
 20
15.89604659620352
 30
0.0
 10
194.0117594788557
 20
15.89596886584966
 30
0.0
 10
193.9033887738717
 20
15.89609848387297
 30
0.0
 10
193.7981454235897
 20
15.89568777499434
 30
0.0
 10
193.7056237819412
 20
15.89696457680333
 30
0.0
 10
193.6268130800707
 20
15.89355150543592
 30
0.0
 10
193.5839674565379
 20
15.90037734045062
 30
0.0
 10
193.5449499586515
 20
15.89079448209865
 30
0.0
 10
193.5526365271863
 20
15.92435163574284
 30
0.0
 10
193.5485464404311
 20
15.95537934330974
 30
0.0
 10
193.5485531368815
 20
16.00250913279643
 30
0.0
 10
193.5526239724911
 20
16.0335532565552
 30
0.0
 10
193.5449495574583
 20
16.06716245644644
 30
0.0
 10
193.5834819405494
 20
16.05762794429613
 30
0.0
 10
193.624122801448
 20
16.06411819506813
 30
0.0
 10
193.6951471850463
 20
16.06114534658996
 30
0.0
 10
193.7729318149633
 20
16.06189145407899
 30
0.0
 10
193.8507292246474
 20
16.06262198053268
 30
0.0
 10
193.9217232089907
 20
16.05968619522902
 30
0.0
 10
193.962427979182
 20
16.06609852781694
 30
0.0
 10
194.0009853489909
 20
16.05664908184746
 30
0.0
 10
193.9927342754927
 20
16.09279076167526
 30
0.0
 10
193.9982346669358
 20
16.13144221621969
 30
0.0
 10
193.9955754206163
 20
16.19927912570581
 30
0.0
 10
193.9965815471533
 20
16.27606025547482
 30
0.0
 10
193.9960178018318
 20
16.35863777591498
 30
0.0
 10
193.9970714526593
 20
16.4353171323862
 30
0.0
 10
193.994267586313
 20
16.50346374785442
 30
0.0
 10
194.0000702721303
 20
16.54146783818088
 30
0.0
 10
193.9915654551159
 20
16.57772832086388
 30
0.0
 10
194.0255610233125
 20
16.56770107780594
 30
0.0
 10
194.0594575683099
 20
16.57087650822448
 30
0.0
 10
194.1126669060346
 20
16.56523349649351
 30
0.0
 10
194.1660768574482
 20
16.56449158445167
 30
0.0
 10
194.1995914649491
 20
16.55833607491723
 30
0.0
 10
194.2388086183038
 20
16.56360413782334
 30
0.0
 10
194.2120263698492
 20
16.52267764802231
 30
0.0
 10
194.1708111001724
 20
16.53385588546853
 30
0.0
 10
194.1782641540874
 20
16.48881440200866
 30
0.0
 10
194.1742227952184
 20
16.44426662036886
 30
0.0
 10
194.176171404964
 20
16.37237956630445
 30
0.0
 10
194.1752364849758
 20
16.29183014597513
 30
0.0
 10
194.176510719003
 20
16.21188379413737
 30
0.0
 10
194.1732043793864
 20
16.13856221091925
 30
0.0
 10
194.180210617996
 20
16.0970302701131
 30
0.0
 10
194.1701440380126
 20
16.05766802576855
 30
0.0
 10
194.2029814803921
 20
16.06482447439723
 30
0.0
 10
194.236457729648
 20
16.06041627146686
 30
0.0
 10
194.2915053476019
 20
16.06232327356639
 30
0.0
 10
194.3489502595314
 20
16.0619975041603
 30
0.0
 10
194.4023026248309
 20
16.06120692741823
 30
0.0
 10
194.4398540896638
 20
16.06328343126816
 30
0.0
 10
194.4623172523237
 20
16.06036722175851
 30
0.0
 10
194.4751678073731
 20
16.06586936652798
 30
0.0
 10
194.4858255685888
 20
16.06815502206531
 30
0.0
 10
194.4986635650143
 20
16.07509356596795
 30
0.0
 10
194.514599103307
 20
16.05867430322413
 30
0.0
 10
194.5410623920892
 20
16.04723506328191
 30
0.0
 10
194.5726805253757
 20
16.02659071843931
 30
0.0
 10
194.5987255892151
 20
16.01131253637036
 30
0.0
 10
194.6128517723973
 20
16.00281360331925
 30
0.0
 10
194.6170254148479
 20
16.00030255519769
 30
0.0
 11
194.6170254148479
 21
16.00030255519769
 31
0.0
 11
194.6049990002243
 21
15.9848795517293
 31
0.0
 11
194.5848961795565
 21
15.97351790242659
 31
0.0
 11
194.4778986355813
 21
15.75455004239901
 31
0.0
 11
194.3477039934324
 21
15.54331585520903
 31
0.0
 11
194.1996540366071
 21
15.34220443036221
 31
0.0
 11
194.2734958253735
 21
15.29161768944121
 31
0.0
 11
194.36056643118
 21
15.23002795662481
 31
0.0
 11
194.4518003750404
 21
15.16427544603167
 31
0.0
 11
194.5381321779687
 21
15.10120037178046
 31
0.0
 11
194.6104963609787
 21
15.04764294798984
 31
0.0
 11
194.6598274450843
 21
15.01044338877846
 31
0.0
 11
194.6486940702213
 21
14.99485794878236
 31
0.0
 11
194.6221452532403
 21
14.95769266879165
 31
0.0
 11
194.5904579555533
 21
14.91333410880275
 31
0.0
 11
194.5639091385723
 21
14.87616882881204
 31
0.0
 11
194.5527757637093
 21
14.86058338881594
 31
0.0
 11
194.4807013362947
 21
14.92768392699359
 31
0.0
 11
194.385285698538
 21
15.01007738183411
 31
0.0
 11
194.279326415217
 21
15.09799401375658
 31
0.0
 11
194.175621051109
 21
15.18166408318009
 31
0.0
 11
194.175621051109
 21
15.16319071909605
 31
0.0
 11
194.175621051109
 21
15.11176486772697
 31
0.0
 11
194.175621051109
 21
15.03337789039741
 31
0.0
 11
194.175621051109
 21
14.9340211484319
 31
0.0
 11
194.175621051109
 21
14.81968600315502
 31
0.0
 11
194.175621051109
 21
14.69636381589131
 31
0.0
 11
194.175621051109
 21
14.57004594796532
 31
0.0
 11
194.175621051109
 21
14.44672376070161
 31
0.0
 11
194.175621051109
 21
14.33238861542472
 31
0.0
 11
194.175621051109
 21
14.23303187345923
 31
0.0
 11
194.175621051109
 21
14.15464489612966
 31
0.0
 11
194.175621051109
 21
14.10321904476058
 31
0.0
 11
194.175621051109
 21
14.08474568067654
 31
0.0
 11
194.1569720893626
 21
14.08474568067654
 31
0.0
 11
194.1125014882749
 21
14.08474568067654
 31
0.0
 11
194.0594236740736
 21
14.08474568067654
 31
0.0
 11
194.0149530729859
 21
14.08474568067654
 31
0.0
 11
193.9963041112395
 21
14.08474568067654
 31
0.0
 11
193.9963041112395
 21
14.10501181468961
 31
0.0
 11
193.9963041112395
 21
14.16104171460809
 31
0.0
 11
193.9963041112395
 21
14.2456826272509
 31
0.0
 11
193.9963041112395
 21
14.35178179943695
 31
0.0
 11
193.9963041112395
 21
14.47218647798517
 31
0.0
 11
193.9963041112395
 21
14.59974390971447
 31
0.0
 11
193.9963041112395
 21
14.72730134144378
 31
0.0
 11
193.9963041112395
 21
14.847706019992
 31
0.0
 11
193.9963041112395
 21
14.95380519217806
 31
0.0
 11
193.9963041112395
 21
15.03844610482086
 31
0.0
 11
193.9963041112395
 21
15.09447600473934
 31
0.0
 11
193.9963041112395
 21
15.11474213875241
 31
0.0
 11
193.7883272849481
 21
14.92346382282799
 31
0.0
 11
193.5763486358425
 21
14.76429269439553
 31
0.0
 11
193.5495629014482
 21
14.81829055960837
 31
0.0
 11
193.5138765415024
 21
14.87703524580768
 31
0.0
 11
193.4799697494124
 21
14.92207255546718
 31
0.0
 11
193.6830287742319
 21
15.06577771209795
 31
0.0
 11
193.881853195826
 21
15.2418280753873
 31
0.0
 11
194.0677041444178
 21
15.44341898533692
 31
0.0
 11
194.2318427502303
 21
15.66374578194851
 31
0.0
 11
194.3655301434864
 21
15.89600380522377
 31
0.0
 11
194.3465256724482
 21
15.89600380522377
 31
0.0
 11
194.2944166389562
 21
15.89600380522377
 31
0.0
 11
194.2165596124447
 21
15.89600380522377
 31
0.0
 11
194.1203111623478
 21
15.89600380522377
 31
0.0
 11
194.0130278580997
 21
15.89600380522377
 31
0.0
 11
193.9020662691345
 21
15.89600380522377
 31
0.0
 11
193.7947829648864
 21
15.89600380522377
 31
0.0
 11
193.6985345147895
 21
15.89600380522377
 31
0.0
 11
193.620677488278
 21
15.89600380522377
 31
0.0
 11
193.568568454786
 21
15.89600380522377
 31
0.0
 11
193.5495639837478
 21
15.89600380522377
 31
0.0
 11
193.5495639837478
 21
15.91325583799724
 31
0.0
 11
193.5495639837478
 21
15.95439530076473
 31
0.0
 11
193.5495639837478
 21
16.00349724019691
 31
0.0
 11
193.5495639837478
 21
16.0446367029644
 31
0.0
 11
193.5495639837478
 21
16.06188873573787
 31
0.0
 11
193.5687598486009
 21
16.06188873573787
 31
0.0
 11
193.6193671286684
 21
16.06188873573787
 31
0.0
 11
193.690915352212
 21
16.06188873573787
 31
0.0
 11
193.7729340474937
 21
16.06188873573787
 31
0.0
 11
193.8549527427753
 21
16.06188873573787
 31
0.0
 11
193.9265009663189
 21
16.06188873573787
 31
0.0
 11
193.9771082463864
 21
16.06188873573787
 31
0.0
 11
193.9963041112395
 21
16.06188873573787
 31
0.0
 11
193.9963041112395
 21
16.0794093666396
 31
0.0
 11
193.9963041112395
 21
16.12636465745624
 31
0.0
 11
193.9963041112395
 21
16.19434470535495
 31
0.0
 11
193.9963041112395
 21
16.27493960750291
 31
0.0
 11
193.9963041112395
 21
16.35973946106728
 31
0.0
 11
193.9963041112395
 21
16.44033436321524
 31
0.0
 11
193.9963041112395
 21
16.50831441111395
 31
0.0
 11
193.9963041112395
 21
16.55526970193059
 31
0.0
 11
193.9963041112395
 21
16.57279033283232
 31
0.0
 11
194.0135484112111
 21
16.57180190176261
 31
0.0
 11
194.0566591611401
 21
16.56933082408833
 31
0.0
 11
194.1127031360477
 21
16.56611842311177
 31
0.0
 11
194.1687471109553
 21
16.56290602213522
 31
0.0
 11
194.2118578608843
 21
16.56043494446094
 31
0.0
 11
194.2291021608559
 21
16.55944651339123
 31
0.0
 11
194.2143774674851
 21
16.53570677381382
 31
0.0
 11
194.175621051109
 21
16.52198151340054
 31
0.0
 11
194.175621051109
 21
16.50221190186035
 31
0.0
 11
194.175621051109
 21
16.45009201689075
 31
0.0
 11
194.175621051109
 21
16.37640528296821
 31
0.0
 11
194.175621051109
 21
16.29193512456921
 31
0.0
 11
194.175621051109
 21
16.2074649661702
 31
0.0
 11
194.175621051109
 21
16.13377823224766
 31
0.0
 11
194.175621051109
 21
16.08165834727806
 31
0.0
 11
194.175621051109
 21
16.06188873573787
 31
0.0
 11
194.1916227112935
 21
16.06188873573787
 31
0.0
 11
194.232890150717
 21
16.06188873573787
 31
0.0
 11
194.2893170576837
 21
16.06188873573787
 31
0.0
 11
194.3507971204981
 21
16.06188873573787
 31
0.0
 11
194.4072240274648
 21
16.06188873573787
 31
0.0
 11
194.4484914668882
 21
16.06188873573787
 31
0.0
 11
194.4644931270728
 21
16.06188873573787
 31
0.0
 11
194.4728206422924
 21
16.06465771464663
 31
0.0
 11
194.4882860277004
 21
16.0698001040486
 31
0.0
 11
194.49661354292
 21
16.07256908295736
 31
0.0
 11
194.5091363776005
 21
16.06505336407036
 31
0.0
 11
194.5389985218386
 21
16.04713126518596
 31
0.0
 11
194.5746404359293
 21
16.02574037296909
 31
0.0
 11
194.6045025801674
 21
16.00781827408469
 31
0.0
 11
194.6170254148479
 21
16.00030255519769
 31
0.0
  0
SPLINE
  5
B1
102
{ACAD_REACTORS
330
CE
102
}
330
48
100
AcDbEntity
  8
_U_30EC_U_30A4_U_30E4_U_30FC_1
  6
Continuous
 62
     2
100
AcDbSpline
210
0.0
220
0.0
230
1.0
 70
    11
 71
     3
 72
   124
 73
   120
 74
   118
 42
0.000000001
 43
0.0000000001
 44
0.00000001
 40
0.0
 40
0.0
 40
0.0
 40
0.0
 40
0.027818722962451
 40
0.1011590162384269
 40
0.2048470170590239
 40
0.3237088716559245
 40
0.4425707262522
 40
0.5462587270699547
 40
0.6195990203311798
 40
0.647417752257866
 40
0.6750060736115224
 40
0.7357003855242741
 40
0.7963946998054474
 40
0.8239830245571766
 40
0.854093381110286
 40
0.937339662940954
 40
1.063094687343235
 40
1.220731268638073
 40
1.399622220914748
 40
1.589140358637732
 40
1.778658496423898
 40
1.957549448940509
 40
2.115186030873159
 40
2.240941056914463
 40
2.324187341760532
 40
2.354297700109382
 40
2.38188602467189
 40
2.442580338710477
 40
2.503274652750499
 40
2.530862977314606
 40
2.560983949278559
 40
2.640393784452905
 40
2.752662861759128
 40
2.881361560118145
 40
3.010060258455192
 40
3.122329335705339
 40
3.201739170817953
 40
3.231860142753313
 40
3.26429802403037
 40
3.352343701778239
 40
3.482095226868764
 40
3.639650650173025
 40
3.811108022565478
 40
3.982565394927984
 40
4.140120818152567
 40
4.269872343141276
 40
4.357918020802338
 40
4.390355902043965
 40
4.423256253992535
 40
4.508104530073056
 40
4.624121560636824
 40
4.750528176031581
 40
4.866545206602027
 40
4.951393482691985
 40
4.984293834645386
 40
5.011450833242301
 40
5.071196230152087
 40
5.130941627057163
 40
5.158098625648829
 40
5.190998977601519
 40
5.275847253689345
 40
5.391864284256779
 40
5.518270899648324
 40
5.634287930209363
 40
5.719136206288037
 40
5.752036558235925
 40
5.782130946282948
 40
5.862783906229121
 40
5.979550131774992
 40
6.117984316640395
 40
6.263641154587943
 40
6.402075339414146
 40
6.518841564907944
 40
6.599494524815525
 40
6.629588912848763
 40
6.65440302822634
 40
6.713575149488107
 40
6.784199939329424
 40
6.843372060493526
 40
6.868186175802772
 40
6.896246243201852
 40
6.939586233758249
 40
6.96784656456488
 40
7.043584251089815
 40
7.153234334451671
 40
7.283231855734421
 40
7.420011856035458
 40
7.550009376579807
 40
7.659659458835208
 40
7.735397144417201
 40
7.763657474851373
 40
7.79640972801103
 40
7.880876065096304
 40
7.99637085246569
 40
8.122208446418584
 40
8.237703224799178
 40
8.322169562010872
 40
8.354921815205886
 40
8.382078813307666
 40
8.441824209206974
 40
8.501569605240123
 40
8.528726603485701
 40
8.56147885669575
 40
8.6459451938778
 40
8.761439980865312
 40
8.887277580764454
 40
9.002772362000975
 40
9.087238696661196
 40
9.11999094923565
 40
9.15242883061335
 40
9.240474508638565
 40
9.370226034149516
 40
9.527781457984398
 40
9.699238830981386
 40
9.870696203978577
 40
10.028251627814
 40
10.15800315332561
 40
10.24604883135116
 40
10.27848670378519
 40
10.27848670378519
 40
10.27848670378519
 40
10.27848670378519
 10
195.3821827564383
 20
14.34424901394499
 30
0.0
 10
195.3914554737523
 20
14.34424882520016
 30
0.0
 10
195.4251744536861
 20
14.34424814885456
 30
0.0
 10
195.4934706812465
 20
14.34426191252047
 30
0.0
 10
195.592014171158
 20
14.34417608228287
 30
0.0
 10
195.7062066464812
 20
14.34456139620992
 30
0.0
 10
195.818589441707
 20
14.34315219906287
 30
0.0
 10
195.9214376600118
 20
14.34733501430985
 30
0.0
 10
195.9806839874849
 20
14.33837473260724
 30
0.0
 10
196.0371265937033
 20
14.35178818534803
 30
0.0
 10
196.0246255586955
 20
14.30101582622103
 30
0.0
 10
196.0329549635703
 20
14.25603704947809
 30
0.0
 10
196.024817084112
 20
14.2107113699923
 30
0.0
 10
196.0370529214457
 20
14.15946316417208
 30
0.0
 10
195.9747773490333
 20
14.17462339374018
 30
0.0
 10
195.9060513026868
 20
14.16374134719485
 30
0.0
 10
195.7782756749592
 20
14.16925688756714
 30
0.0
 10
195.6262984511643
 20
14.1671523526244
 30
0.0
 10
195.4502695972523
 20
14.16785386597215
 30
0.0
 10
195.2644431934287
 20
14.16759621540034
 30
0.0
 10
195.0786167437175
 20
14.16785389153345
 30
0.0
 10
194.9025880142168
 20
14.16715225856473
 30
0.0
 10
194.7506104154195
 20
14.16925716238731
 30
0.0
 10
194.6228357664554
 20
14.16374064776382
 30
0.0
 10
194.5541077836581
 20
14.17462461134684
 30
0.0
 10
194.4918349042883
 20
14.15946170692951
 30
0.0
 10
194.5040616290017
 20
14.21071894813914
 30
0.0
 10
194.4960004462597
 20
14.25596857281167
 30
0.0
 10
194.5040675809892
 20
14.30120741964065
 30
0.0
 10
194.4918238487083
 20
14.352485609187
 30
0.0
 10
194.5525017120697
 20
14.33763961371877
 30
0.0
 10
194.6162810745736
 20
14.34770832179477
 30
0.0
 10
194.7277314353502
 20
14.34309028220741
 30
0.0
 10
194.8497533443824
 20
14.34427712914211
 30
0.0
 10
194.9719538137823
 20
14.34530247909377
 30
0.0
 10
195.0829794287392
 20
14.34106859632143
 30
0.0
 10
195.1476517413958
 20
14.35032968530481
 30
0.0
 10
195.2091162810501
 20
14.33618807058424
 30
0.0
 10
195.1930065601337
 20
14.40249911893259
 30
0.0
 10
195.2042980327358
 20
14.47462174130717
 30
0.0
 10
195.1987400822561
 20
14.60528144897028
 30
0.0
 10
195.200803506169
 20
14.75621707716983
 30
0.0
 10
195.2000167127295
 20
14.92350257116628
 30
0.0
 10
195.2007845215627
 20
15.09075494341044
 30
0.0
 10
195.1988038785628
 20
15.24177673278656
 30
0.0
 10
195.2041306156621
 20
15.37220453561737
 30
0.0
 10
195.1933101388425
 20
15.44479826614641
 30
0.0
 10
195.2090326429875
 20
15.5116485344554
 30
0.0
 10
195.143270813249
 20
15.49594896499567
 30
0.0
 10
195.0756367830763
 20
15.50623627092737
 30
0.0
 10
194.9615885293809
 20
15.50128170855864
 30
0.0
 10
194.8451242674902
 20
15.50428512039216
 30
0.0
 10
194.7306554121477
 20
15.49894687152131
 30
0.0
 10
194.6640324657812
 20
15.51015652083567
 30
0.0
 10
194.5990769715186
 20
15.49363516673753
 30
0.0
 10
194.6107989758707
 20
15.54488104485801
 30
0.0
 10
194.6032830189121
 20
15.58964717792833
 30
0.0
 10
194.6107989878835
 20
15.63441328906703
 30
0.0
 10
194.5990769505346
 20
15.68565920138483
 30
0.0
 10
194.66403263392
 20
15.66913765775557
 30
0.0
 10
194.7306533339821
 20
15.68034955382686
 30
0.0
 10
194.8451352858063
 20
15.67499820719406
 30
0.0
 10
194.9615454436962
 20
15.6780557277986
 30
0.0
 10
195.0757660174641
 20
15.67292883019449
 30
0.0
 10
195.1430150439227
 20
15.6836011736434
 30
0.0
 10
195.2083325941438
 20
15.66756466677819
 30
0.0
 10
195.1941391448553
 20
15.72964069758796
 30
0.0
 10
195.2036059462995
 20
15.79601145637504
 30
0.0
 10
195.1990269004085
 20
15.91254356750708
 30
0.0
 10
195.2007696555948
 20
16.04441069031117
 30
0.0
 10
195.1997551495392
 20
16.18630344159016
 30
0.0
 10
195.2017191344372
 20
16.31783434711322
 30
0.0
 10
195.1964668553851
 20
16.43538961291743
 30
0.0
 10
195.2073408763476
 20
16.49962173010326
 30
0.0
 10
195.1919536641853
 20
16.56123186553788
 30
0.0
 10
195.24075915378
 20
16.54716791390852
 30
0.0
 10
195.2853995564726
 20
16.54969126084056
 30
0.0
 10
195.3538643946742
 20
16.54527181410452
 30
0.0
 10
195.3959106169102
 20
16.53627409552776
 30
0.0
 10
195.4487544758775
 20
16.54426098875253
 30
0.0
 10
195.4207035002013
 20
16.50128301620415
 30
0.0
 10
195.3749142248595
 20
16.51273936052579
 30
0.0
 10
195.3869539073264
 20
16.45187904013878
 30
0.0
 10
195.3796086070641
 20
16.38783683477515
 30
0.0
 10
195.3831195826162
 20
16.27923752872653
 30
0.0
 10
195.3819806760173
 20
16.15508703153495
 30
0.0
 10
195.3819174780263
 20
16.0220410383862
 30
0.0
 10
195.3832872966868
 20
15.89811765258297
 30
0.0
 10
195.3791638801314
 20
15.78882721858081
 30
0.0
 10
195.3877763103563
 20
15.72622964102911
 30
0.0
 10
195.3746757454402
 20
15.66754517305107
 30
0.0
 10
195.4393884328198
 20
15.68376497819644
 30
0.0
 10
195.5060405953156
 20
15.67284644392054
 30
0.0
 10
195.6198779541102
 20
15.67808124182497
 30
0.0
 10
195.7357259122097
 20
15.67499931525656
 30
0.0
 10
195.849692426328
 20
15.68032643821254
 30
0.0
 10
195.91603410181
 20
15.66918592175285
 30
0.0
 10
195.9807188525479
 20
15.6856136360192
 30
0.0
 10
195.9689820772723
 20
15.63440309218793
 30
0.0
 10
195.976516806304
 20
15.58964718129742
 30
0.0
 10
195.9689820992258
 20
15.54489123018769
 30
0.0
 10
195.9807188140736
 20
15.49368074879782
 30
0.0
 10
195.9160344075252
 20
15.51010811802962
 30
0.0
 10
195.8496886430824
 20
15.49897168456011
 30
0.0
 10
195.7357459487012
 20
15.50427499901862
 30
0.0
 10
195.6197995623054
 20
15.50129148602285
 30
0.0
 10
195.5062756882122
 20
15.50621276277135
 30
0.0
 10
195.4389231318804
 20
15.49599471522261
 30
0.0
 10
195.3734285122495
 20
15.51160380147557
 30
0.0
 10
195.3891713619218
 20
15.44478235836153
 30
0.0
 10
195.3783275998212
 20
15.3722144182462
 30
0.0
 10
195.3836581629793
 20
15.24176631623158
 30
0.0
 10
195.3817136151855
 20
15.09078942193968
 30
0.0
 10
195.3823133683214
 20
14.923366279429
 30
0.0
 10
195.3821506559605
 20
14.75670560127113
 30
0.0
 10
195.3821895488135
 20
14.60374526930378
 30
0.0
 10
195.38218164131
 20
14.47863562994447
 30
0.0
 10
195.3821828382744
 20
14.39522275000161
 30
0.0
 10
195.3821827716208
 20
14.35506162290718
 30
0.0
 10
195.3821827564383
 20
14.34424901394499
 30
0.0
 11
195.3821827564383
 21
14.34424901394499
 31
0.0
 11
195.4100014883675
 21
14.34424901394499
 31
0.0
 11
195.4833417816353
 21
14.34424901394499
 31
0.0
 11
195.5870297824622
 21
14.34424901394499
 31
0.0
 11
195.7058916370687
 21
14.34424901394499
 31
0.0
 11
195.8247534916751
 21
14.34424901394499
 31
0.0
 11
195.928441492502
 21
14.34424901394499
 31
0.0
 11
196.0017817857698
 21
14.34424901394499
 31
0.0
 11
196.029600517699
 21
14.34424901394499
 31
0.0
 11
196.029600517699
 21
14.31666068929912
 31
0.0
 11
196.029600517699
 21
14.25596637507819
 31
0.0
 11
196.029600517699
 21
14.19527206085727
 31
0.0
 11
196.029600517699
 21
14.16768373621139
 31
0.0
 11
195.9994901593494
 21
14.16768373621139
 31
0.0
 11
195.9162438745004
 21
14.16768373621139
 31
0.0
 11
195.7904888484521
 21
14.16768373621139
 31
0.0
 11
195.6328522665041
 21
14.16768373621139
 31
0.0
 11
195.4539613139564
 21
14.16768373621139
 31
0.0
 11
195.2644431761089
 21
14.16768373621139
 31
0.0
 11
195.0749250382613
 21
14.16768373621139
 31
0.0
 11
194.8960340857136
 21
14.16768373621139
 31
0.0
 11
194.7383975037656
 21
14.16768373621139
 31
0.0
 11
194.6126424777172
 21
14.16768373621139
 31
0.0
 11
194.5293961928683
 21
14.16768373621139
 31
0.0
 11
194.4992858345187
 21
14.16768373621139
 31
0.0
 11
194.4992858345187
 21
14.19527206085727
 31
0.0
 11
194.4992858345187
 21
14.25596637507819
 31
0.0
 11
194.4992858345187
 21
14.31666068929912
 31
0.0
 11
194.4992858345187
 21
14.34424901394499
 31
0.0
 11
194.5294068064947
 21
14.34424901394499
 31
0.0
 11
194.608816641704
 21
14.34424901394499
 31
0.0
 11
194.721085719069
 21
14.34424901394499
 31
0.0
 11
194.8497844175118
 21
14.34424901394499
 31
0.0
 11
194.9784831159545
 21
14.34424901394499
 31
0.0
 11
195.0907521933195
 21
14.34424901394499
 31
0.0
 11
195.1701620285289
 21
14.34424901394499
 31
0.0
 11
195.2002830005048
 21
14.34424901394499
 31
0.0
 11
195.2002830005048
 21
14.37668689532577
 31
0.0
 11
195.2002830005048
 21
14.46473257335932
 31
0.0
 11
195.2002830005048
 21
14.59448409888245
 31
0.0
 11
195.2002830005048
 21
14.75203952273196
 31
0.0
 11
195.2002830005048
 21
14.92349689574466
 31
0.0
 11
195.2002830005048
 21
15.09495426875736
 31
0.0
 11
195.2002830005048
 21
15.25250969260687
 31
0.0
 11
195.2002830005048
 21
15.38226121812999
 31
0.0
 11
195.2002830005048
 21
15.47030689616354
 31
0.0
 11
195.2002830005048
 21
15.50274477754432
 31
0.0
 11
195.1673826485529
 21
15.50274477754432
 31
0.0
 11
195.0825343724662
 21
15.50274477754432
 31
0.0
 11
194.9665173418988
 21
15.50274477754432
 31
0.0
 11
194.8401107265044
 21
15.50274477754432
 31
0.0
 11
194.724093695937
 21
15.50274477754432
 31
0.0
 11
194.6392454198503
 21
15.50274477754432
 31
0.0
 11
194.6063450678984
 21
15.50274477754432
 31
0.0
 11
194.6063450678984
 21
15.52990177623544
 31
0.0
 11
194.6063450678984
 21
15.58964717335592
 31
0.0
 11
194.6063450678984
 21
15.6493925704764
 31
0.0
 11
194.6063450678984
 21
15.67654956916752
 31
0.0
 11
194.6392454198504
 21
15.67654956916752
 31
0.0
 11
194.724093695937
 21
15.67654956916752
 31
0.0
 11
194.8401107265044
 21
15.67654956916752
 31
0.0
 11
194.9665173418988
 21
15.67654956916752
 31
0.0
 11
195.0825343724662
 21
15.67654956916752
 31
0.0
 11
195.1673826485529
 21
15.67654956916752
 31
0.0
 11
195.2002830005048
 21
15.67654956916752
 31
0.0
 11
195.2002830005048
 21
15.70664395740111
 31
0.0
 11
195.2002830005048
 21
15.78729691786715
 31
0.0
 11
195.2002830005048
 21
15.90406314421351
 31
0.0
 11
195.2002830005048
 21
16.04249733008805
 31
0.0
 11
195.2002830005048
 21
16.18815416913866
 31
0.0
 11
195.2002830005048
 21
16.3265883550132
 31
0.0
 11
195.2002830005048
 21
16.44335458135956
 31
0.0
 11
195.2002830005048
 21
16.52400754182559
 31
0.0
 11
195.2002830005048
 21
16.55410193005919
 31
0.0
 11
195.2250405288618
 21
16.55242708228183
 31
0.0
 11
195.2840777118669
 21
16.54843321450507
 31
0.0
 11
195.3545414464214
 21
16.54366634006183
 31
0.0
 11
195.4135786294265
 21
16.53967247228506
 31
0.0
 11
195.4383361577835
 21
16.53799762450771
 31
0.0
 11
195.423306722403
 21
16.51430198215252
 31
0.0
 11
195.3821827564383
 21
16.50062081896146
 31
0.0
 11
195.3821827564383
 21
16.47236048803574
 31
0.0
 11
195.3821827564383
 21
16.39662280115482
 31
0.0
 11
195.3821827564383
 21
16.28697271716303
 31
0.0
 11
195.3821827564383
 21
16.15697519490473
 31
0.0
 11
195.3821827564383
 21
16.02019519322425
 31
0.0
 11
195.3821827564383
 21
15.89019767096595
 31
0.0
 11
195.3821827564383
 21
15.78054758697416
 31
0.0
 11
195.3821827564383
 21
15.70480990009324
 31
0.0
 11
195.3821827564383
 21
15.67654956916752
 31
0.0
 11
195.4149350096115
 21
15.67654956916752
 31
0.0
 11
195.4994013467422
 21
15.67654956916752
 31
0.0
 11
195.6148961342476
 21
15.67654956916752
 31
0.0
 11
195.7407337385445
 21
15.67654956916752
 31
0.0
 11
195.8562285260498
 21
15.67654956916752
 31
0.0
 11
195.9406948631806
 21
15.67654956916752
 31
0.0
 11
195.9734471163538
 21
15.67654956916752
 31
0.0
 11
195.9734471163538
 21
15.6493925704764
 31
0.0
 11
195.9734471163538
 21
15.58964717335592
 31
0.0
 11
195.9734471163538
 21
15.52990177623544
 31
0.0
 11
195.9734471163538
 21
15.50274477754432
 31
0.0
 11
195.9406948631806
 21
15.50274477754432
 31
0.0
 11
195.8562285260498
 21
15.50274477754432
 31
0.0
 11
195.7407337385445
 21
15.50274477754432
 31
0.0
 11
195.6148961342476
 21
15.50274477754432
 31
0.0
 11
195.4994013467422
 21
15.50274477754432
 31
0.0
 11
195.4149350096114
 21
15.50274477754432
 31
0.0
 11
195.3821827564383
 21
15.50274477754432
 31
0.0
 11
195.3821827564383
 21
15.47030689616354
 31
0.0
 11
195.3821827564383
 21
15.38226121812999
 31
0.0
 11
195.3821827564383
 21
15.25250969260686
 31
0.0
 11
195.3821827564383
 21
15.09495426875736
 31
0.0
 11
195.3821827564383
 21
14.92349689574466
 31
0.0
 11
195.3821827564383
 21
14.75203952273195
 31
0.0
 11
195.3821827564383
 21
14.59448409888245
 31
0.0
 11
195.3821827564383
 21
14.46473257335932
 31
0.0
 11
195.3821827564383
 21
14.37668689532577
 31
0.0
 11
195.3821827564383
 21
14.34424901394499
 31
0.0
  0
SPLINE
  5
B2
102
{ACAD_REACTORS
330
CF
102
}
330
48
100
AcDbEntity
  8
_U_30EC_U_30A4_U_30E4_U_30FC_1
  6
Continuous
 62
     2
100
AcDbSpline
210
0.0
220
0.0
230
1.0
 70
     8
 71
     3
 72
    62
 73
    58
 74
    56
 42
0.000000001
 43
0.0000000001
 44
0.00000001
 40
0.0
 40
0.0
 40
0.0
 40
0.0
 40
0.0598250028308485
 40
0.2024846486897331
 40
0.3727558389221031
 40
0.515415484793607
 40
0.5752404975785339
 40
0.9332326775487246
 40
1.290451762839476
 40
1.602077253145876
 40
1.699931634112129
 40
1.799359756425048
 40
2.270120149657087
 40
2.804661928461548
 40
2.882342287383259
 40
3.076543185719109
 40
3.329004354835573
 40
3.5814655245684
 40
3.775666424543684
 40
3.853346784558304
 40
3.899120679595049
 40
3.984129341792047
 40
4.029903236817396
 40
4.105797496059551
 40
4.29553314415251
 40
4.542189486611753
 40
4.788845828875702
 40
4.978581476410086
 40
5.054475735244329
 40
5.621734664339344
 40
6.130867242037357
 40
6.225249780948602
 40
6.318913039727295
 40
6.663579954558916
 40
7.047498900224768
 40
7.4352307915757
 40
7.498943906668112
 40
7.650875181210106
 40
7.832212509001616
 40
7.984143783697002
 40
8.04785689890313
 40
8.091554632732636
 40
8.172707566964291
 40
8.216405300768015
 40
8.2890217821609
 40
8.462184160757273
 40
8.668861838005354
 40
8.842024215263946
 40
8.914640695475141
 40
8.989881580861345
 40
9.155411528827255
 40
9.320941477744038
 40
9.39618235248729
 40
9.454709011143837
 40
9.583467660170772
 40
9.712226309013051
 40
9.770752957989504
 40
9.770752957989504
 40
9.770752957989504
 40
9.770752957989504
 10
187.1521871691833
 20
15.26994672204692
 30
0.0
 10
187.1322348171623
 20
15.26995259577414
 30
0.0
 10
187.0647037716466
 20
15.269972478149
 30
0.0
 10
186.9410612161788
 20
15.26963746529067
 30
0.0
 10
186.7863180150056
 20
15.27122057759254
 30
0.0
 10
186.6697349482479
 20
15.26700462869237
 30
0.0
 10
186.4550942634241
 20
15.28229589340368
 30
0.0
 10
186.8518948407228
 20
14.92213105294934
 30
0.0
 10
186.8945656069268
 20
14.70524887405909
 30
0.0
 10
187.3189162146611
 20
14.52339446520187
 30
0.0
 10
187.1439821496074
 20
14.41999580576815
 30
0.0
 10
187.0194523925083
 20
14.20845907221465
 30
0.0
 10
186.7666277235944
 20
14.67820465010305
 30
0.0
 10
186.4797602893626
 20
15.32525900993264
 30
0.0
 10
186.490633592666
 20
15.01797056163436
 30
0.0
 10
186.488289277796
 20
14.85303000980521
 30
0.0
 10
186.4861096126411
 20
14.61894054720436
 30
0.0
 10
186.4980774396345
 20
14.37512456430525
 30
0.0
 10
186.4687984740631
 20
14.22870180869727
 30
0.0
 10
186.511452262547
 20
14.0812787418328
 30
0.0
 10
186.4239814005639
 20
14.09700181314962
 30
0.0
 10
186.3768527606744
 20
14.09708687552197
 30
0.0
 10
186.2898973207713
 20
14.08123809491651
 30
0.0
 10
186.3313474021722
 20
14.22542155431505
 30
0.0
 10
186.3029875004285
 20
14.36869436707197
 30
0.0
 10
186.3145973775299
 20
14.60689331374006
 30
0.0
 10
186.3124175648272
 20
14.83531619249088
 30
0.0
 10
186.3103111127994
 20
14.99720113384737
 30
0.0
 10
186.3208035438323
 20
15.31168093342493
 30
0.0
 10
186.0128963252893
 20
14.62243854881178
 30
0.0
 10
185.7055258267456
 20
14.14491134251795
 30
0.0
 10
185.5851367066274
 20
14.36755496646168
 30
0.0
 10
185.4074607910722
 20
14.48025418964309
 30
0.0
 10
185.8853326362894
 20
14.65562527474202
 30
0.0
 10
185.9353959057208
 20
14.89106313260773
 30
0.0
 10
186.3583799621716
 20
15.28337373353347
 30
0.0
 10
186.127675427354
 20
15.26669691037808
 30
0.0
 10
186.004968585934
 20
15.27283902957512
 30
0.0
 10
185.8325483095662
 20
15.26327206708315
 30
0.0
 10
185.7213224694449
 20
15.28463202498408
 30
0.0
 10
185.6025779627448
 20
15.25150649366162
 30
0.0
 10
185.6183169706686
 20
15.33218284615626
 30
0.0
 10
185.6178550933762
 20
15.37659798299596
 30
0.0
 10
185.6027881889931
 20
15.45981465787275
 30
0.0
 10
185.7372380935444
 20
15.42077035992625
 30
0.0
 10
185.8619755545746
 20
15.44754113337164
 30
0.0
 10
186.062875523728
 20
15.43078333052794
 30
0.0
 10
186.1921540949352
 20
15.45218609921745
 30
0.0
 10
186.3328419928295
 20
15.41883162862163
 30
0.0
 10
186.2980927452614
 20
15.55666259793809
 30
0.0
 10
186.3222185666713
 20
15.67977641358223
 30
0.0
 10
186.2967086182391
 20
15.80038439679077
 30
0.0
 10
186.3333251146685
 20
15.93554249150237
 30
0.0
 10
186.2211417027769
 20
15.91108929790633
 30
0.0
 10
186.1280356457136
 20
15.92322133850764
 30
0.0
 10
186.0191547579819
 20
15.91972014078736
 30
0.0
 10
185.9569697640964
 20
15.91996139960345
 30
0.0
 10
185.9375369557246
 20
15.92003679132886
 30
0.0
 11
187.1521871691833
 21
15.26994672204692
 31
0.0
 11
187.0923621563982
 21
15.26994672204692
 31
0.0
 11
186.949702510526
 21
15.26994672204692
 31
0.0
 11
186.7794313202913
 21
15.26994672204692
 31
0.0
 11
186.6367716744191
 21
15.26994672204692
 31
0.0
 11
186.576946661634
 21
15.26994672204692
 31
0.0
 11
186.7679960754842
 21
14.96719511975633
 31
0.0
 11
186.994127278563
 21
14.69066274585426
 31
0.0
 11
187.2244526173371
 21
14.48075637502199
 31
0.0
 11
187.1521596330704
 21
14.41480787677459
 31
0.0
 11
187.0879364402643
 21
14.33890443061302
 31
0.0
 11
186.7732818215558
 21
14.68905842358105
 31
0.0
 11
186.4886640249976
 21
15.14152679152343
 31
0.0
 11
186.4886640249976
 21
15.06384643146055
 31
0.0
 11
186.4886640249976
 21
14.86964553130335
 31
0.0
 11
186.4886640249976
 21
14.61718436109899
 31
0.0
 11
186.4886640249976
 21
14.36472319089462
 31
0.0
 11
186.4886640249976
 21
14.17052229073742
 31
0.0
 11
186.4886640249976
 21
14.09284193067454
 31
0.0
 11
186.4428901295605
 21
14.09284193067454
 31
0.0
 11
186.3578814666058
 21
14.09284193067454
 31
0.0
 11
186.3121075711687
 21
14.09284193067454
 31
0.0
 11
186.3121075711687
 21
14.16873618991482
 31
0.0
 11
186.3121075711687
 21
14.35847183801553
 31
0.0
 11
186.3121075711687
 21
14.60512818054645
 31
0.0
 11
186.3121075711687
 21
14.85178452307738
 31
0.0
 11
186.3121075711687
 21
15.04152017117809
 31
0.0
 11
186.3121075711687
 21
15.11741443041837
 31
0.0
 11
185.9987626399266
 21
14.64455330206435
 31
0.0
 11
185.6352328662148
 21
14.28809561118124
 31
0.0
 11
185.5773927461627
 21
14.36267834553764
 31
0.0
 11
185.5094852305341
 21
14.42718706947984
 31
0.0
 11
185.7750721898319
 21
14.64686603804631
 31
0.0
 11
186.0233764972061
 21
14.93967779980439
 31
0.0
 11
186.226498280526
 21
15.26994672204692
 31
0.0
 11
186.1627851652721
 21
15.26994672204692
 31
0.0
 11
186.0108538904359
 21
15.26994672204692
 31
0.0
 11
185.8295165624055
 21
15.26994672204692
 31
0.0
 11
185.6775852875693
 21
15.26994672204692
 31
0.0
 11
185.6138721723154
 21
15.26994672204692
 31
0.0
 11
185.6138721723154
 21
15.3136444560895
 31
0.0
 11
185.6138721723154
 21
15.39479739074001
 31
0.0
 11
185.6138721723154
 21
15.43849512478259
 31
0.0
 11
185.6864886537961
 21
15.43849512478259
 31
0.0
 11
185.8596510327118
 21
15.43849512478259
 31
0.0
 11
186.0663287107723
 21
15.43849512478259
 31
0.0
 11
186.239491089688
 21
15.43849512478259
 31
0.0
 11
186.3121075711687
 21
15.43849512478259
 31
0.0
 11
186.3121075711687
 21
15.51373601018044
 31
0.0
 11
186.3121075711687
 21
15.67926595805572
 31
0.0
 11
186.3121075711687
 21
15.844795905931
 31
0.0
 11
186.3121075711687
 21
15.92003679132886
 31
0.0
 11
186.2535809125055
 21
15.92003679132886
 31
0.0
 11
186.1248222634467
 21
15.92003679132886
 31
0.0
 11
185.9960636143877
 21
15.92003679132886
 31
0.0
 11
185.9375369557246
 21
15.92003679132886
 31
0.0
  0
SPLINE
  5
B3
102
{ACAD_REACTORS
330
CF
102
}
330
48
100
AcDbEntity
  8
_U_30EC_U_30A4_U_30E4_U_30FC_1
  6
Continuous
 62
     2
100
AcDbSpline
210
0.0
220
0.0
230
1.0
 70
     8
 71
     3
 72
    70
 73
    66
 74
    64
 42
0.000000001
 43
0.0000000001
 44
0.00000001
 40
0.0
 40
0.0
 40
0.0
 40
0.0
 40
0.0241731073021472
 40
0.0846058988987013
 40
0.1631685280353284
 40
0.2417311571789756
 40
0.3021639488292751
 40
0.3263370654895541
 40
0.3533118254248899
 40
0.4228783438922129
 40
0.5179999095313456
 40
0.6216398239466173
 40
0.7167613891499777
 40
0.786327906964997
 40
0.8133026791761943
 40
0.837294399877178
 40
0.8945054261372976
 40
0.9627895541962745
 40
1.020000580349085
 40
1.043992300975183
 40
1.071934345522916
 40
1.113121768772928
 40
1.145225199332252
 40
1.225483775412791
 40
1.329819923771502
 40
1.434156071994394
 40
1.514414647795817
 40
1.546518078208425
 40
1.578974764260199
 40
1.662678849314194
 40
1.777131373668414
 40
1.901833377474805
 40
2.016285900500595
 40
2.099989982527962
 40
2.132446666570321
 40
2.158782354486039
 40
2.216720867907831
 40
2.274659381334249
 40
2.300995069256182
 40
2.333451754066154
 40
2.417155836543834
 40
2.531608358985274
 40
2.656310362283769
 40
2.770762886388901
 40
2.854466971340067
 40
2.886923657363873
 40
2.913597976833307
 40
2.982389642875107
 40
3.076451716946975
 40
3.178937260458591
 40
3.272999334739993
 40
3.341791001059216
 40
3.368465320663528
 40
3.396976080738749
 40
3.472140811845986
 40
3.578408190308675
 40
3.700226892456111
 40
3.822045594634329
 40
3.928312973256435
 40
4.003477705314832
 40
4.031988456866898
 40
4.058324144797698
 40
4.116262658236856
 40
4.174201171400657
 40
4.200536849608589
 40
4.200536849608589
 40
4.200536849608589
 40
4.200536849608589
 10
185.9857704961609
 20
16.08858519406446
 30
0.0
 10
185.9938259544679
 20
16.08858743820428
 30
0.0
 10
186.0220200663241
 20
16.08859530041538
 30
0.0
 10
186.0765534803672
 20
16.08845138837113
 30
0.0
 10
186.1482891808604
 20
16.08923504508638
 30
0.0
 10
186.2236240137062
 20
16.08641954472552
 30
0.0
 10
186.2713052366439
 20
16.09312787409699
 30
0.0
 10
186.3195071245616
 20
16.08211947701173
 30
0.0
 10
186.3062571799873
 20
16.13560787005774
 30
0.0
 10
186.3151093964538
 20
16.19063967551832
 30
0.0
 10
186.3108698036286
 20
16.28434292734851
 30
0.0
 10
186.313348348128
 20
16.37973866227274
 30
0.0
 10
186.309093870606
 20
16.47371205992129
 30
0.0
 10
186.3179818665846
 20
16.52809446446754
 30
0.0
 10
186.3046977409945
 20
16.58248381700203
 30
0.0
 10
186.3514119277108
 20
16.568566003441
 30
0.0
 10
186.3943254545736
 20
16.57118261382785
 30
0.0
 10
186.4605443456685
 20
16.56662806459497
 30
0.0
 10
186.5013342271798
 20
16.55792546142903
 30
0.0
 10
186.5525145690819
 20
16.56546183898937
 30
0.0
 10
186.5253720487201
 20
16.52364354232027
 30
0.0
 10
186.4803096055707
 20
16.53299376081338
 30
0.0
 10
186.4942065045051
 20
16.46855591380579
 30
0.0
 10
186.4858414431653
 20
16.4039260363614
 30
0.0
 10
186.4903632178399
 20
16.30543525202629
 30
0.0
 10
186.4854741311167
 20
16.20610316851311
 30
0.0
 10
186.4950258992081
 20
16.1430749956171
 30
0.0
 10
186.47997614552
 20
16.07978395508529
 30
0.0
 10
186.5449159457209
 20
16.09529456953011
 30
0.0
 10
186.6116246399496
 20
16.08513771706552
 30
0.0
 10
186.7241435470828
 20
16.09003184108108
 30
0.0
 10
186.8390235448953
 20
16.08705588741525
 30
0.0
 10
186.9519871999747
 20
16.09236048193733
 30
0.0
 10
187.0176267597677
 20
16.08121690480829
 30
0.0
 10
187.0816276691053
 20
16.09758916328598
 30
0.0
 10
187.0703142889189
 20
16.04776073914016
 30
0.0
 10
187.077533987151
 20
16.00431099220864
 30
0.0
 10
187.070314261127
 20
15.96086129596186
 30
0.0
 10
187.0816277175994
 20
15.91103279205618
 30
0.0
 10
187.0176263598972
 20
15.92740550100104
 30
0.0
 10
186.9519921240459
 20
15.9162565567033
 30
0.0
 10
186.838997431733
 20
15.92159241215596
 30
0.0
 10
186.7242456548644
 20
15.91848729672564
 30
0.0
 10
186.611318368686
 20
15.9237927869133
 30
0.0
 10
186.5455220903585
 20
15.91271684028335
 30
0.0
 10
186.4816097975358
 20
15.9290198185636
 30
0.0
 10
186.4936015165125
 20
15.87437908404483
 30
0.0
 10
186.4862104613005
 20
15.81868679056584
 30
0.0
 10
186.4892684841984
 20
15.72664073149312
 30
0.0
 10
186.4893422785683
 20
15.63193493881843
 30
0.0
 10
186.486031357836
 20
15.53967166911007
 30
0.0
 10
186.4939505989903
 20
15.48450152744881
 30
0.0
 10
186.4815076611618
 20
15.43072553108878
 30
0.0
 10
186.5389116551631
 20
15.44468152871523
 30
0.0
 10
186.5994708140383
 20
15.43525841892968
 30
0.0
 10
186.7048680855081
 20
15.43957269937446
 30
0.0
 10
186.8204294070622
 20
15.43849888620773
 30
0.0
 10
186.9359688877797
 20
15.43740349909737
 30
0.0
 10
187.0414181130841
 20
15.44176909779374
 30
0.0
 10
187.1018680471805
 20
15.43223810039413
 30
0.0
 10
187.159283773911
 20
15.44631673615121
 30
0.0
 10
187.1477773876709
 20
15.39721537274424
 30
0.0
 10
187.1537566781749
 20
15.35579042027391
 30
0.0
 10
187.1520311050801
 20
15.30666061975437
 30
0.0
 10
187.1521500122971
 20
15.2786881245635
 30
0.0
 10
187.1521871691833
 20
15.26994672204692
 30
0.0
 11
185.9857704961609
 21
16.08858519406446
 31
0.0
 11
186.0099436128282
 21
16.08858519406446
 31
0.0
 11
186.0703764044962
 21
16.08858519406446
 31
0.0
 11
186.1489390336648
 21
16.08858519406446
 31
0.0
 11
186.2275016628334
 21
16.08858519406446
 31
0.0
 11
186.2879344545015
 21
16.08858519406446
 31
0.0
 11
186.3121075711687
 21
16.08858519406446
 31
0.0
 11
186.3121075711687
 21
16.11555996628804
 31
0.0
 11
186.3121075711687
 21
16.1851264841278
 31
0.0
 11
186.3121075711687
 21
16.28024804933727
 31
0.0
 11
186.3121075711687
 21
16.38388796366997
 31
0.0
 11
186.3121075711687
 21
16.47900952887944
 31
0.0
 11
186.3121075711687
 21
16.5485760467192
 31
0.0
 11
186.3121075711687
 21
16.57555081894278
 31
0.0
 11
186.3360407604892
 21
16.57387597116542
 31
0.0
 11
186.3931122119458
 21
16.56988210338863
 31
0.0
 11
186.461229750781
 21
16.56511522894537
 31
0.0
 11
186.5183012022376
 21
16.56112136116859
 31
0.0
 11
186.5422343915581
 21
16.55944651339123
 31
0.0
 11
186.5274972731229
 21
16.53570677381382
 31
0.0
 11
186.4886640249976
 21
16.52198151340054
 31
0.0
 11
186.4886640249976
 21
16.48987808233861
 31
0.0
 11
186.4886640249976
 21
16.40961950468378
 31
0.0
 11
186.4886640249976
 21
16.3052833537325
 31
0.0
 11
186.4886640249976
 21
16.20094720278122
 31
0.0
 11
186.4886640249976
 21
16.12068862512639
 31
0.0
 11
186.4886640249976
 21
16.08858519406446
 31
0.0
 11
186.5211207110824
 21
16.08858519406446
 31
0.0
 11
186.6048247962486
 21
16.08858519406446
 31
0.0
 11
186.7192773208634
 21
16.08858519406446
 31
0.0
 11
186.8439793252946
 21
16.08858519406446
 31
0.0
 11
186.9584318499095
 21
16.08858519406446
 31
0.0
 11
187.0421359350756
 21
16.08858519406446
 31
0.0
 11
187.0745926211604
 21
16.08858519406446
 31
0.0
 11
187.0745926211604
 21
16.06224950613703
 31
0.0
 11
187.0745926211604
 21
16.00431099269666
 31
0.0
 11
187.0745926211604
 21
15.9463724792563
 31
0.0
 11
187.0745926211604
 21
15.92003679132886
 31
0.0
 11
187.0421359350756
 21
15.92003679132886
 31
0.0
 11
186.9584318499095
 21
15.92003679132886
 31
0.0
 11
186.8439793252946
 21
15.92003679132886
 31
0.0
 11
186.7192773208634
 21
15.92003679132886
 31
0.0
 11
186.6048247962485
 21
15.92003679132886
 31
0.0
 11
186.5211207110824
 21
15.92003679132886
 31
0.0
 11
186.4886640249976
 21
15.92003679132886
 31
0.0
 11
186.4886640249976
 21
15.89336247160764
 31
0.0
 11
186.4886640249976
 21
15.82457080495817
 31
0.0
 11
186.4886640249976
 21
15.73050873015176
 31
0.0
 11
186.4886640249976
 21
15.62802318595969
 31
0.0
 11
186.4886640249976
 21
15.53396111115328
 31
0.0
 11
186.4886640249976
 21
15.46516944450381
 31
0.0
 11
186.4886640249976
 21
15.43849512478259
 31
0.0
 11
186.5171747850993
 21
15.43849512478259
 31
0.0
 11
186.5923395162766
 21
15.43849512478259
 31
0.0
 11
186.6986068948376
 21
15.43849512478259
 31
0.0
 11
186.8204255970904
 21
15.43849512478259
 31
0.0
 11
186.9422442993433
 21
15.43849512478259
 31
0.0
 11
187.0485116779043
 21
15.43849512478259
 31
0.0
 11
187.1236764090816
 21
15.43849512478259
 31
0.0
 11
187.1521871691833
 21
15.43849512478259
 31
0.0
 11
187.1521871691833
 21
15.41215943685514
 31
0.0
 11
187.1521871691833
 21
15.35422092341476
 31
0.0
 11
187.1521871691833
 21
15.29628240997437
 31
0.0
 11
187.1521871691833
 21
15.26994672204692
 31
0.0
  0
SPLINE
  5
B4
102
{ACAD_REACTORS
330
CF
102
}
330
48
100
AcDbEntity
  8
_U_30EC_U_30A4_U_30E4_U_30FC_1
  6
Continuous
 62
     2
100
AcDbSpline
210
0.0
220
0.0
230
1.0
 70
     8
 71
     3
 72
    24
 73
    20
 74
    18
 42
0.000000001
 43
0.0000000001
 44
0.00000001
 40
0.0
 40
0.0
 40
0.0
 40
0.0
 40
0.2211075008753903
 40
0.4273218586245351
 40
0.5080174679239361
 40
0.5914835907870241
 40
0.814326569019274
 40
1.054651302686588
 40
1.295452694023173
 40
1.518109231328828
 40
1.540864321905444
 40
1.595126460622705
 40
1.659890947896018
 40
1.714153085187377
 40
1.736908174961677
 40
1.764951100735364
 40
1.801562291220953
 40
1.953914424543634
 40
2.126104167379719
 40
2.126104167379719
 40
2.126104167379719
 40
2.126104167379719
 10
185.9375369556889
 20
15.92003679121758
 30
0.0
 10
185.9112579081811
 20
15.86112012243115
 30
0.0
 10
185.8604698894426
 20
15.74725523687999
 30
0.0
 10
185.813178483911
 20
15.47456342241857
 30
0.0
 10
185.7043482802619
 20
15.57459866584197
 30
0.0
 10
185.5514800279636
 20
15.60132977376072
 30
0.0
 10
185.7686155181199
 20
15.81532519026374
 30
0.0
 10
185.7838483674381
 20
16.03346501791229
 30
0.0
 10
185.8906889492
 20
16.21465963075167
 30
0.0
 10
185.8305380947078
 20
16.49927610320145
 30
0.0
 10
185.9334317395402
 20
16.47128473231192
 30
0.0
 10
185.977993346815
 20
16.46257635611042
 30
0.0
 10
186.0380842395397
 20
16.45154038192097
 30
0.0
 10
186.0756619587438
 20
16.43781907064301
 30
0.0
 10
186.1252466928606
 20
16.43770460168965
 30
0.0
 10
186.0930158919325
 20
16.40320976407365
 30
0.0
 10
186.0171802221881
 20
16.41418488546705
 30
0.0
 10
186.0429447159694
 20
16.22873353591191
 30
0.0
 10
186.0055896763849
 20
16.1371669755833
 30
0.0
 10
185.9857704961609
 20
16.08858519406446
 30
0.0
 11
185.9375369556889
 21
15.92003679121758
 31
0.0
 11
185.8616471328552
 21
15.71236092327301
 31
0.0
 11
185.7717402238433
 21
15.52677776364934
 31
0.0
 11
185.701149392311
 21
15.56587656572293
 31
0.0
 11
185.6245525192651
 21
15.59903547196461
 31
0.0
 11
185.7214026947455
 21
15.7997318521228
 31
0.0
 11
185.7994641467471
 21
16.02702547185766
 31
0.0
 11
185.858971692972
 21
16.26035820617433
 31
0.0
 11
185.9001601511226
 21
16.47917193007796
 31
0.0
 11
185.9224183822214
 21
16.47444273230137
 31
0.0
 11
185.975495702534
 21
16.46316541452641
 31
0.0
 11
186.0388460525844
 21
16.44970539008534
 31
0.0
 11
186.091923372897
 21
16.43842807231038
 31
0.0
 11
186.1141816039958
 21
16.43369887453379
 31
0.0
 11
186.096409715746
 21
16.41200634849752
 31
0.0
 11
186.0606122998071
 21
16.40433012454109
 31
0.0
 11
186.028195330148
 21
16.25546672180055
 31
0.0
 11
185.9857704961609
 21
16.08858519406446
 31
0.0
  0
LWPOLYLINE
  5
B5
102
{ACAD_REACTORS
330
D0
102
}
330
48
100
AcDbEntity
  8
_U_30EC_U_30A4_U_30E4_U_30FC_1
  6
Continuous
 62
     2
100
AcDbPolyline
 90
        5
 70
     1
 43
0.0
 10
191.1602971697031
 20
15.72736720804367
 10
192.4578138032672
 20
15.72736720804367
 10
192.4578138032672
 20
15.55889818030799
 10
191.1602971697031
 20
15.55889818030799
 10
191.1602971697031
 20
15.72736720804367
  0
MTEXT
  5
B7
330
48
100
AcDbEntity
  8
1
 62
   250
100
AcDbMText
 10
25.0
 20
5.33014384008742
 30
0.0
 40
3.5
 41
0.0
 71
     4
 72
     1
  1
備考欄の文字列 原点位置=4
  7
CONVERTER_11
 73
     1
 44
0.54545454545455
  0
MTEXT
  5
B8
330
48
100
AcDbEntity
  8
1
 62
     2
100
AcDbMText
 10
89.5
 20
24.33014384008743
 30
0.0
 40
3.5
 41
0.0
 71
     5
 72
     1
  1
尺度
  7
CONVERTER_11
 73
     1
 44
0.54545454545455
  0
MTEXT
  5
B9
330
48
100
AcDbEntity
  8
1
 62
     2
100
AcDbMText
 10
135.5
 20
25.33014384008743
 30
0.0
 40
3.0
 41
0.0
 71
     5
 72
     1
  1
製図
  7
CONVERTER_11
 73
     1
 44
0.59090909090909
  0
MTEXT
  5
BA
330
48
100
AcDbEntity
  8
1
 62
     2
100
AcDbMText
 10
152.5
 20
25.33014384008743
 30
0.0
 40
3.0
 41
0.0
 71
     5
 72
     1
  1
担当
  7
CONVERTER_11
 73
     1
 44
0.59090909090909
  0
MTEXT
  5
BB
330
48
100
AcDbEntity
  8
1
 62
     2
100
AcDbMText
 10
118.5
 20
25.33014384008743
 30
0.0
 40
3.0
 41
0.0
 71
     5
 72
     1
  1
検図
  7
CONVERTER_11
 73
     1
 44
0.59090909090909
  0
MTEXT
  5
BC
330
48
100
AcDbEntity
  8
1
 62
     2
100
AcDbMText
 10
175.0
 20
23.83014384008743
 30
0.0
 40
3.5
 41
0.0
 71
     5
 72
     1
  1
第三角法
  7
CONVERTER_11
 73
     1
 44
0.54545454545455
  0
MTEXT
  5
BD
330
48
100
AcDbEntity
  8
1
 62
     2
100
AcDbMText
 10
101.5
 20
25.33014384008743
 30
0.0
 40
3.0
 41
0.0
 71
     5
 72
     1
  1
承認
  7
CONVERTER_11
 73
     1
 44
0.59090909090909
  0
MTEXT
  5
BE
330
48
100
AcDbEntity
  8
1
 62
     2
100
AcDbMText
 10
29.0
 20
14.58014384008742
 30
0.0
 40
3.5
 41
0.0
 71
     5
 72
     1
  1
品番
  7
CONVERTER_11
 73
     1
 44
0.72727272727273
  0
MTEXT
  5
BF
330
48
100
AcDbEntity
  8
1
 62
     2
100
AcDbMText
 10
29.0
 20
23.08014384008742
 30
0.0
 40
3.5
 41
0.0
 71
     5
 72
     1
  1
品名
  7
CONVERTER_11
 73
     1
 44
0.72727272727273
  0
MTEXT
  5
C0
330
48
100
AcDbEntity
  8
1
 62
     2
100
AcDbMText
 10
29.0
 20
34.33014384008742
 30
0.0
 40
3.5
 41
0.0
 71
     5
 72
     1
  1
備考
  7
CONVERTER_11
 73
     1
 44
0.45454545454545
  0
MTEXT
  5
C1
330
48
100
AcDbEntity
  8
1
 62
     2
100
AcDbMText
 10
32.5
 20
282.3301438400877
 30
0.0
 40
5.0
 41
0.0
 71
     5
 72
     1
  1
図番
  7
CONVERTER_11
 73
     1
 44
0.45454545454545
  0
HATCH
  5
C2
330
48
100
AcDbEntity
  8
1
  6
Continuous
 62
     2
100
AcDbHatch
 10
0.0
 20
0.0
 30
0.0
210
0.0
220
0.0
230
1.0
  2
CUSTOM0
 70
     0
 71
     1
 91
        1
 92
        1
 93
        1
 72
     4
 94
        3
 73
     0
 74
     0
 95
       99
 96
       95
 40
0.0
 40
0.0
 40
0.0
 40
0.0
 40
0.079641717227248
 40
0.1621768542356014
 40
0.2486489160957678
 40
0.3404969668524636
 40
0.4381912511164658
 40
0.543446366024496
 40
0.651811519284728
 40
0.7530190937886858
 40
0.849219691972512
 40
0.9419290312998173
 40
1.034249663570042
 40
1.129078600620193
 40
1.226697027573238
 40
1.327220425421701
 40
1.470572134938017
 40
1.595489863371216
 40
1.719934125348397
 40
1.850576620127413
 40
1.989059629987303
 40
2.134139054226922
 40
2.28069800720721
 40
2.424529739039478
 40
2.565929576985847
 40
2.708239260773539
 40
2.861717887443657
 40
3.045168540347369
 40
3.183798301138606
 40
3.314813961455457
 40
3.442083470447301
 40
3.569912708372964
 40
3.702177512509363
 40
3.842307559659528
 40
3.992872223245933
 40
4.156750662218322
 40
4.310981861107543
 40
4.445859909322589
 40
4.572393936131582
 40
4.701656719781981
 40
4.768279086008469
 40
4.835960697898423
 40
4.912788918729342
 40
5.006285208481556
 40
5.026909478751632
 40
5.047533749021197
 40
5.101808031471273
 40
5.162325165538554
 40
5.226919745995879
 40
5.294231806596754
 40
5.364544852554903
 40
5.438319055467948
 40
5.517877651324282
 40
5.607647714861594
 40
5.700449642544441
 40
5.788251142364171
 40
5.872714706039803
 40
5.955167292575323
 40
6.037192395190409
 40
6.120669181469136
 40
6.206848616686377
 40
6.296680855416799
 40
6.442558392872623
 40
6.568190371608315
 40
6.692904567360391
 40
6.824220446557169
 40
6.963121850329406
 40
7.107843738851193
 40
7.253431663907306
 40
7.395187468036728
 40
7.533140753237783
 40
7.670550457175271
 40
7.81623651176929
 40
7.987691657359252
 40
8.142277421969284
 40
8.293662615415052
 40
8.442962460879311
 40
8.59159831618536
 40
8.743678992361831
 40
8.903725323699216
 40
9.076307008890565
 40
9.265578604680618
 40
9.459203795360793
 40
9.61761981027358
 40
9.75360967136194
 40
9.874873300004111
 40
9.954520184977811
 40
10.02416413719248
 40
10.09769764405449
 40
10.18909955924976
 40
10.20974586420137
 40
10.23039218263383
 40
10.30057101881268
 40
10.37632012987548
 40
10.37632012987548
 40
10.37632012987548
 40
10.37632012987548
 10
170.1465954835851
 20
14.46810047224736
 10
170.1632217851219
 20
14.44734992854054
 10
170.1970784206577
 20
14.40509495720643
 10
170.2599822541036
 20
14.35044195400814
 10
170.3332500940393
 20
14.30313409129792
 10
170.4175969238636
 20
14.26541615446676
 10
170.513224061546
 20
14.24055003740693
 10
170.6171853775346
 20
14.23323943354679
 10
170.7224020220405
 20
14.24156706802795
 10
170.8206626371333
 20
14.27163563660271
 10
170.9058986427548
 20
14.31863206980617
 10
170.9779220206103
 20
14.37967375259599
 10
171.0350917709096
 20
14.45427353587325
 10
171.0767868747439
 20
14.54016848668916
 10
171.1026952846292
 20
14.63500234440952
 10
171.1118037332653
 20
14.74869363047109
 10
171.0986864796486
 20
14.8734697177952
 10
171.0325330334414
 20
14.99029103180635
 10
170.9369370919569
 20
15.07526923586115
 10
170.8249681022369
 20
15.14431068467903
 10
170.6993659583269
 20
15.20218526054632
 10
170.5656691620857
 20
15.25388107293082
 10
170.431312281883
 20
15.30913476405923
 10
170.3051983986877
 20
15.37954154650391
 10
170.1926579987535
 20
15.46799924739992
 10
170.0969963064458
 20
15.57995451877214
 10
170.0334157151825
 20
15.72964294110125
 10
170.0200706505015
 20
15.88947178393883
 10
170.0320510987449
 20
16.04062789315586
 10
170.071229892884
 20
16.16823628600281
 10
170.135498775091
 20
16.28095258039586
 10
170.223820499974
 20
16.37662993277428
 10
170.3338091207627
 20
16.45368598994495
 10
170.4632284401264
 20
16.51165780945019
 10
170.6111838967793
 20
16.54753561597565
 10
170.7682069455487
 20
16.55761103059306
 10
170.917494046643
 20
16.54878021771332
 10
171.059625361417
 20
16.52089283349094
 10
171.1595922609626
 20
16.46427698709881
 10
171.3125074736184
 20
16.41688986114248
 10
171.2455131717169
 20
16.33211937009927
 10
171.2296479120269
 20
16.26453285882225
 10
171.1978750531297
 20
16.19940476801931
 10
171.2150202209571
 20
16.09737837265693
 10
171.1666427208232
 20
16.10507595690643
 10
171.1315789440765
 20
16.09821155733548
 10
171.1296697985718
 20
16.16278215166937
 10
171.0985692931989
 20
16.20840023630136
 10
171.0664551628456
 20
16.26575420637197
 10
171.0208038475168
 20
16.315548467013
 10
170.9658508218387
 20
16.36009197727737
 10
170.9010841173007
 20
16.39778372845292
 10
170.8232377310597
 20
16.42297759800094
 10
170.7355160553352
 20
16.42945615006851
 10
170.6452903277806
 20
16.42250093294349
 10
170.5594594694064
 20
16.39923574469663
 10
170.4828343638596
 20
16.36146028116286
 10
170.41652656362
 20
16.31066025098315
 10
170.3622560536964
 20
16.24745527415952
 10
170.3224925345458
 20
16.17290839719109
 10
170.2976775510588
 20
16.08931698006505
 10
170.289212426287
 20
15.98207332391027
 10
170.3019697987103
 20
15.859798412763
 10
170.3681548409274
 20
15.74164108299953
 10
170.4640977399832
 20
15.6562070971827
 10
170.5757914963182
 20
15.58597746315464
 10
170.7010863668702
 20
15.52673546314045
 10
170.8349823941447
 20
15.47631092094874
 10
170.968993033315
 20
15.42336900993124
 10
171.0950885316915
 20
15.35764554633917
 10
171.2076216638417
 20
15.27494736546064
 10
171.3031370284233
 20
15.17010390318816
 10
171.3672706486962
 20
15.02951501260311
 10
171.3811103725279
 20
14.87079793460334
 10
171.367395471223
 20
14.71167539226617
 10
171.3244739153984
 20
14.56498212827952
 10
171.2545906329066
 20
14.43134180595884
 10
171.1574592213829
 20
14.31546771708033
 10
171.0347806023657
 20
14.2210436577883
 10
170.8874408413168
 20
14.15193654660723
 10
170.7177132497125
 20
14.10967594867594
 10
170.5317404979596
 20
14.0979612023915
 10
170.3528955926183
 20
14.10823870692179
 10
170.1881733753743
 20
14.14980957777895
 10
170.0834410841057
 20
14.21812026892684
 10
169.9350960790365
 20
14.26689603040848
 10
169.9980378194729
 20
14.35990975299583
 10
170.007227443006
 20
14.43310920257022
 10
170.0303711301232
 20
14.49950678510088
 10
170.0034588335316
 20
14.59989193536321
 10
170.0521338956339
 20
14.59248417526121
 10
170.0916530580697
 20
14.59908447629637
 10
170.0996204944701
 20
14.52093087227674
 10
170.1305436967924
 20
14.48615311384599
 10
170.1465954835851
 20
14.46810047224736
 97
        1
330
A4
 75
     1
 76
     2
 52
45.0
 41
0.1
 77
     0
 78
     1
 53
45.0
 43
0.0
 44
0.0
 45
-0.282842712474619
 46
0.0
 79
     0
 98
        1
 10
0.0
 20
0.0
  0
HATCH
  5
C3
330
48
100
AcDbEntity
  8
1
  6
Continuous
 62
     2
100
AcDbHatch
 10
0.0
 20
0.0
 30
0.0
210
0.0
220
0.0
230
1.0
  2
CUSTOM1
 70
     0
 71
     1
 91
        2
 92
        1
 93
        1
 72
     4
 94
        3
 73
     0
 74
     0
 95
       57
 96
       53
 40
0.0
 40
0.0
 40
0.0
 40
0.0
 40
0.0471632082809233
 40
0.0914861054632152
 40
0.1357762519702388
 40
0.1826527001610682
 40
0.2295203288572591
 40
0.2737751972220761
 40
0.3181310461543071
 40
0.3652607198398512
 40
0.4571007286314467
 40
0.5671851029165195
 40
0.6894623283868331
 40
0.8181758272545984
 40
0.951008722927399
 40
1.085852229674056
 40
1.218126164475314
 40
1.343545131142385
 40
1.454537202956802
 40
1.567187607530811
 40
1.68071096664243
 40
1.794226869736794
 40
1.900009184247593
 40
2.004085860447873
 40
2.108162674451761
 40
2.214000150155305
 40
2.496038577352141
 40
2.762350745479281
 40
2.997275353279412
 40
3.185110082137736
 40
3.246407890063963
 40
3.312607550212694
 40
3.378877742711596
 40
3.440140399651451
 40
4.100501696006472
 40
4.754913085563527
 40
5.411331693423932
 40
6.077890432568717
 40
6.110575292670996
 40
6.143260152775776
 40
6.367989363395168
 40
6.610525374951565
 40
6.863389136467327
 40
7.119380025547614
 40
7.376036605091109
 40
7.631164770966308
 40
7.876722425456435
 40
8.104953735855977
 40
8.312916685924316
 40
8.49773029494132
 40
8.65101898431387
 40
8.764738853624605
 40
8.764738853624605
 40
8.764738853624605
 40
8.764738853624605
 10
174.7922649500513
 20
14.14641123621669
 10
174.7766616726931
 20
14.14840615087819
 10
174.7463947960302
 20
14.15227585369041
 10
174.7010994202251
 20
14.15356368976009
 10
174.6559553129349
 20
14.15323067562793
 10
174.6099017123399
 20
14.15329042682966
 10
174.5640496172096
 20
14.15340197658743
 10
174.5183711648165
 20
14.15292217465333
 10
174.4750811541608
 20
14.15475493627463
 10
174.4039947951514
 20
14.13063940823399
 10
174.4057477261441
 20
14.25199077985993
 10
174.358619637057
 20
14.33740623759975
 10
174.3191478251762
 20
14.45501313353877
 10
174.2706635532644
 20
14.5724713654918
 10
174.2201017402523
 20
14.69420319770252
 10
174.1718634610477
 20
14.82090351871207
 10
174.1135232947594
 20
14.92948071793694
 10
174.0980892667261
 20
15.08635041143152
 10
173.9566586330636
 20
15.05387830557064
 10
173.8508397414903
 20
15.06527272690922
 10
173.7358569725222
 20
15.06406975523357
 10
173.625314225214
 20
15.0652132935615
 10
173.5176583522783
 20
15.06432734046268
 10
173.4121322529242
 20
15.06430986399261
 10
173.3109192682013
 20
15.05728416481157
 10
173.1266804827752
 20
15.0815024386861
 10
173.1157393685412
 20
14.77756075130627
 10
173.008769163475
 20
14.55367561262139
 10
172.9098148604347
 20
14.36909698301239
 10
172.9225090524007
 20
14.12544588812948
 10
172.8050091716397
 20
14.15522430761939
 10
172.742205586831
 20
14.15272473518346
 10
172.67858720934
 20
14.15358459111547
 10
172.3946014194075
 20
14.11112423950688
 10
173.025163849938
 20
14.83096336453527
 10
173.1087645289071
 20
15.34290923444471
 10
173.4929252789339
 20
15.86368127558784
 10
173.4777208288565
 20
16.56534010261957
 10
173.7239265722697
 20
16.55360017089999
 10
173.8256346157561
 20
16.56239388461515
 10
173.8249752035818
 20
16.31074034739088
 10
173.9428317155829
 20
16.128324047427
 10
174.0315515260485
 20
15.88578124671608
 10
174.1322292485259
 20
15.65354414538869
 10
174.2311142712243
 20
15.41689028575655
 10
174.3299676990668
 20
15.18476123178835
 10
174.4256166390926
 20
14.9613660679753
 10
174.5159904573271
 20
14.75286933058058
 10
174.5989944568189
 20
14.56322832538061
 10
174.6726088582799
 20
14.39677490076841
 10
174.7342815895546
 20
14.25932083634839
 10
174.7749458885604
 20
14.18013623438776
 10
174.7922649500513
 20
14.14641123621669
 97
        1
330
A5
 92
       16
 93
        1
 72
     4
 94
        3
 73
     0
 74
     0
 95
       25
 96
       21
 40
0.0
 40
0.0
 40
0.0
 40
0.0
 40
0.0911479969064822
 40
0.1858117896204665
 40
0.280412839973449
 40
0.3715889190714509
 40
0.4679080494218707
 40
0.5642683809229229
 40
0.6605683222644989
 40
0.7569653015810254
 40
0.8561348172522721
 40
1.092615965104291
 40
1.374867658141875
 40
1.611348812011601
 40
1.710518328425247
 40
1.809403163726563
 40
2.045205463294067
 40
2.326646917622127
 40
2.56244921719059
 40
2.661334043833908
 40
2.661334043833908
 40
2.661334043833908
 40
2.661334043833908
 10
173.2683700567199
 20
15.21628922206034
 10
173.2987525917923
 20
15.21612463723296
 10
173.3606895889111
 20
15.21578912698664
 10
173.454135696033
 20
15.21283439460742
 10
173.5475095236357
 20
15.20992136885893
 10
173.6417760753477
 20
15.20908585652159
 10
173.7354964790967
 20
15.21011028666789
 10
173.8352040303205
 20
15.20931361479714
 10
173.9188949546312
 20
15.21935794243961
 10
174.0637996315045
 20
15.19249001682907
 10
173.9396132444801
 20
15.3667991428879
 10
173.8965867286282
 20
15.52666095014833
 10
173.7808922142209
 20
15.78532842558957
 10
173.7017565431257
 20
15.922454368706
 10
173.6431576621816
 20
16.13951417142819
 10
173.5864803939438
 20
15.9228051822217
 10
173.5052809900477
 20
15.78341396446978
 10
173.4063701281488
 20
15.53421353378937
 10
173.3253625094259
 20
15.34940214234815
 10
173.2813683325838
 20
15.24664830864859
 10
173.2683700567199
 20
15.21628922206034
 97
        1
330
A6
 75
     1
 76
     2
 52
45.0
 41
0.1
 77
     0
 78
     1
 53
45.0
 43
0.0
 44
0.0
 45
-0.282842712474619
 46
0.0
 79
     0
 98
        1
 10
0.0
 20
0.0
  0
HATCH
  5
C4
330
48
100
AcDbEntity
  8
1
  6
Continuous
 62
     2
100
AcDbHatch
 10
0.0
 20
0.0
 30
0.0
210
0.0
220
0.0
230
1.0
  2
CUSTOM2
 70
     0
 71
     1
 91
        1
 92
        1
 93
        1
 72
     4
 94
        3
 73
     0
 74
     0
 95
       95
 96
       91
 40
0.0
 40
0.0
 40
0.0
 40
0.0
 40
0.6550406656911547
 40
1.30808728903194
 40
1.420803739835811
 40
1.566130759770811
 40
1.757067341888474
 40
2.00651354502647
 40
2.087328263121567
 40
2.185328872295641
 40
2.294612454748383
 40
2.408936380534824
 40
2.526802767798576
 40
2.646360524615621
 40
2.762535723971598
 40
2.870057342870172
 40
2.966883448431664
 40
3.05080324351831
 40
3.115818222436623
 40
3.156030057150258
 40
3.21391422508016
 40
3.276689026450561
 40
3.342960320981338
 40
3.404230667150587
 40
3.453822809493399
 40
3.532499827188453
 40
3.634775188507191
 40
3.754909333008188
 40
3.889736761660686
 40
4.035769602175252
 40
4.187256681197635
 40
4.338733685675984
 40
4.488478734676145
 40
4.634708317831614
 40
4.771493189921301
 40
4.892686571561238
 40
5.199775528944476
 40
5.460353566929662
 40
5.667603142345539
 40
5.814722905404522
 40
5.82899080621982
 40
5.855488336304517
 40
5.869756237118849
 40
6.189796507762859
 40
6.531890469873041
 40
6.883053637017035
 40
7.230512024911508
 40
7.566966656764615
 40
7.885203559707442
 40
8.172887439719242
 40
8.418011594062795
 40
8.443926721190719
 40
8.510760470613205
 40
8.602145393795714
 40
8.701714041647152
 40
8.793098965075384
 40
8.859932715057958
 40
8.885847842603606
 40
9.24230125661282
 40
9.589275455016775
 40
9.921808543164175
 40
10.23479624298468
 40
10.29968150889179
 40
10.35323493887767
 40
10.40154625355152
 40
10.46482922477828
 40
10.55973900668408
 40
10.69239545985622
 40
10.84920353475675
 40
11.01626328594783
 40
11.18672024367446
 40
11.35372582577214
 40
11.5025744229243
 40
11.61866495023294
 40
11.71329869152878
 40
11.82511050573911
 40
11.94464880845719
 40
12.0692924264251
 40
12.1970729043518
 40
12.32562632860532
 40
12.45034565331282
 40
12.56646595170331
 40
12.67099007414638
 40
12.76077625936786
 40
12.82703233506698
 40
12.87429132785996
 40
12.89831990323336
 40
12.92234847860024
 40
13.53984767410323
 40
14.18294284359368
 40
14.18294284359368
 40
14.18294284359368
 40
14.18294284359368
 10
177.3067935648021
 20
15.03912422210466
 10
177.1752019758551
 20
15.15279442611973
 10
176.9124193802728
 20
15.37978880324899
 10
176.399739344102
 20
16.2222884696503
 10
176.4106654595363
 20
15.86437761585761
 10
176.4041226527991
 20
15.72281776280875
 10
176.4028026631772
 20
15.52435689308023
 10
176.4018117602538
 20
15.35164680054724
 10
176.4024101751974
 20
15.20879757266322
 10
176.4038994301883
 20
15.11279389422099
 10
176.4055683588472
 20
15.00559887271883
 10
176.4071934954618
 20
14.89178595526324
 10
176.4092429501685
 20
14.7745595661333
 10
176.4123165501928
 20
14.65670795241712
 10
176.4156339697042
 20
14.54242471329362
 10
176.4193605340279
 20
14.43535785876018
 10
176.4217338161425
 20
14.34021792775664
 10
176.4278718888357
 20
14.25572941214436
 10
176.4239784495947
 20
14.19937471306884
 10
176.4455230443077
 20
14.12839406481097
 10
176.3680940058618
 20
14.15917061613225
 10
176.3116353240191
 20
14.15025626526356
 10
176.2540495896807
 20
14.15910602407017
 10
176.1690163478472
 20
14.12752609234687
 10
176.2009714146382
 20
14.21109540000932
 10
176.1990705282539
 20
14.27896992977051
 10
176.2107960047299
 20
14.3824764077316
 10
176.2164241053
 20
14.50016509625437
 10
176.2237902178941
 20
14.63402993173165
 10
176.232075970161
 20
14.77778536881373
 10
176.2398851897426
 20
14.92728406852186
 10
176.2457571222658
 20
15.0780693341082
 10
176.2503667817968
 20
15.2271432788718
 10
176.2542632117542
 20
15.37137297171764
 10
176.2570715126564
 20
15.5059828922176
 10
176.2576698755022
 20
15.69483998356097
 10
176.261602386715
 20
15.91989878321896
 10
176.2442175378499
 20
16.19381475134449
 10
176.2850417342582
 20
16.35801496107339
 10
176.1995153256004
 20
16.55764045473839
 10
176.2660558907687
 20
16.5539984241272
 10
176.2838724273231
 20
16.55427831169596
 10
176.4056801797501
 20
16.55647311407355
 10
176.5080770335463
 20
16.27689502730256
 10
176.7580021509356
 20
16.07577392544744
 10
176.987003533111
 20
15.80806998996659
 10
177.2245151213109
 20
15.55660797871118
 10
177.4486090740772
 20
15.31984358070101
 10
177.6750716283009
 20
15.06233076591822
 10
177.8325687886513
 20
14.94663719065663
 10
178.0472129612675
 20
14.61011536547536
 10
178.0422645974618
 20
14.73479138100346
 10
178.0433931602546
 20
14.79342075944479
 10
178.0428877841517
 20
14.88058046380719
 10
178.0430475158113
 20
14.97430527191614
 10
178.0430054891318
 20
15.06033355305777
 10
178.0430202040372
 20
15.12168275954237
 10
178.0429706255985
 20
15.27149615529735
 10
178.045881152281
 20
15.51003996518845
 10
178.0259521041161
 20
15.87500893877443
 10
178.0750433936248
 20
16.13814016002155
 10
177.917795150918
 20
16.54943288956493
 10
178.0762112872421
 20
16.4941266656049
 10
178.1311680478628
 20
16.49214070508917
 10
178.182788776674
 20
16.49279162256994
 10
178.2713198965366
 20
16.53383911746987
 10
178.2204898303168
 20
16.38710710631727
 10
178.2313389930283
 20
16.28034355963174
 10
178.2166036994848
 20
16.12100089422854
 10
178.2099976446204
 20
15.95867445661615
 10
178.2014961399914
 20
15.79006905901137
 10
178.1943227202198
 20
15.62829198712283
 10
178.1889063215389
 20
15.48436715466674
 10
178.1871713967648
 20
15.36451877475666
 10
178.1875440672319
 20
15.25700485599257
 10
178.1873656126262
 20
15.14834408654328
 10
178.187701086314
 20
15.02967954174272
 10
178.1890040622184
 20
14.90569547521483
 10
178.1908887351574
 20
14.77872678179846
 10
178.1925004454851
 20
14.65168245559774
 10
178.1941403137429
 20
14.52869268500919
 10
178.1962570745752
 20
14.41315315392501
 10
178.1963848422364
 20
14.31105287964579
 10
178.2006514396555
 20
14.22024232846898
 10
178.1908440085288
 20
14.16228005217528
 10
178.211847477169
 20
14.09531514140771
 10
178.1725639739896
 20
14.10305537975429
 10
177.9595307117748
 20
14.08769638153939
 10
177.7636297943185
 20
14.6441744210321
 10
177.4611197631544
 20
14.90570419357251
 10
177.3067935648021
 20
15.03912422210466
 97
        1
330
A7
 75
     1
 76
     2
 52
45.0
 41
0.1
 77
     0
 78
     1
 53
45.0
 43
0.0
 44
0.0
 45
-0.282842712474619
 46
0.0
 79
     0
 98
        1
 10
0.0
 20
0.0
  0
HATCH
  5
C5
330
48
100
AcDbEntity
  8
1
  6
Continuous
 62
     2
100
AcDbHatch
 10
0.0
 20
0.0
 30
0.0
210
0.0
220
0.0
230
1.0
  2
CUSTOM3
 70
     0
 71
     1
 91
        1
 92
        1
 93
        1
 72
     4
 94
        3
 73
     0
 74
     0
 95
      110
 96
      106
 40
0.0
 40
0.0
 40
0.0
 40
0.0
 40
0.2203406257277737
 40
0.4407808782838091
 40
0.5952494494615068
 40
0.7488431659393073
 40
0.9023581831309057
 40
1.056801968670404
 40
1.210736449099905
 40
1.363041386539783
 40
1.515315729683126
 40
1.669377239148077
 40
1.721611652756564
 40
1.773199502942944
 40
1.824933793209997
 40
1.877110426487981
 40
1.982682281206745
 40
2.078781667087554
 40
2.172809640822275
 40
2.271937807378929
 40
2.378349933379322
 40
2.494131557736511
 40
2.626681683943644
 40
2.783145050796072
 40
2.890701232940932
 40
2.993130312454839
 40
3.099869730691807
 40
3.220237816691301
 40
3.352695482737589
 40
3.481732806389841
 40
3.59349947369037
 40
3.674323013331886
 40
3.817951711952836
 40
3.946167120793833
 40
4.061405053453519
 40
4.166480796003159
 40
4.262478775059197
 40
4.350736673551153
 40
4.433071991254039
 40
4.511216293814641
 40
4.564262454117961
 40
4.618474415571583
 40
4.670128488754178
 40
4.722296879126376
 40
4.819540945314245
 40
4.931194984128102
 40
5.049996040257744
 40
5.16864375541529
 40
5.283970811762501
 40
5.392260784910326
 40
5.486512254876401
 40
5.5591782339498
 40
5.591425852853469
 40
5.626215969637853
 40
5.667155838674395
 40
5.717449290214206
 40
5.738402360944819
 40
5.784499116553783
 40
5.830595872164754
 40
5.851548942897613
 40
5.873019280661727
 40
5.924217778408271
 40
5.98532566281765
 40
6.036524160567665
 40
6.057994498334193
 40
6.236847789607448
 40
6.381409928945619
 40
6.493190424178647
 40
6.574067534230458
 40
6.691018086205553
 40
6.81488155422047
 40
6.944307823240423
 40
7.071266716066047
 40
7.193488604461892
 40
7.309042773128119
 40
7.414007203170744
 40
7.5051404418865
 40
7.53115036059966
 40
7.559221645322244
 40
7.587202218920902
 40
7.612569159499114
 40
7.662550809480989
 40
7.702878875764122
 40
7.857328205230936
 40
8.010799568088581
 40
8.165256399657531
 40
8.32223269871387
 40
8.479564855016557
 40
8.63521623029076
 40
8.790882550925678
 40
8.948305154947244
 40
9.168271839032935
 40
9.387358980987207
 40
9.60804796103345
 40
9.83291423479265
 40
9.858338694962985
 40
9.925366817229994
 40
10.02013071422758
 40
10.12876249858996
 40
10.23739428295247
 40
10.33215817995188
 40
10.39918630222392
 40
10.42461076239781
 40
10.64992019336941
 40
10.87188524531185
 40
10.87188524531185
 40
10.87188524531185
 40
10.87188524531185
 10
179.9057788376618
 20
16.06937644406932
 10
179.909286493354
 20
16.13630846082545
 10
179.9163033987663
 20
16.27020275924601
 10
179.8198027599072
 20
16.55562938980212
 10
180.0510134726108
 20
16.49298770199026
 10
180.1919290057156
 20
16.50015938064732
 10
180.3490417757588
 20
16.49250267086986
 10
180.5025913427287
 20
16.49267136291782
 10
180.6545104935081
 20
16.49196424544174
 10
180.8142214813231
 20
16.50224542360381
 10
180.9408972601117
 20
16.48510895089493
 10
181.137082112208
 20
16.55741644115889
 10
181.1034395279078
 20
16.45655083088858
 10
181.1052011317184
 20
16.40633637956413
 10
181.1027342073458
 20
16.35726719595207
 10
181.1347076966011
 20
16.2707787485574
 10
181.0010399903256
 20
16.32011822617079
 10
180.9172208688056
 20
16.31445018322909
 10
180.8173861139324
 20
16.3247990071504
 10
180.7186576720145
 20
16.33100834419829
 10
180.612153277111
 20
16.3371214782552
 10
180.4910511698059
 20
16.34603267493327
 10
180.3703381502453
 20
16.33535989921126
 10
180.1812553843436
 20
16.39482887089109
 10
180.2129028505311
 20
16.23572704086281
 10
180.1995563316833
 20
16.13853512348646
 10
180.1974958426451
 20
16.02648449118844
 10
180.195818804467
 20
15.90714069638093
 10
180.1973336794233
 20
15.78046976163851
 10
180.195658247867
 20
15.65315972024859
 10
180.2058844271657
 20
15.55465950413206
 10
180.1779006596583
 20
15.41403086634372
 10
180.3508029999305
 20
15.47003935142836
 10
180.4645020202772
 20
15.45734335487241
 10
180.5840151672239
 20
15.46462761059997
 10
180.6888491425071
 20
15.46892401065497
 10
180.7843084898612
 20
15.47344952267719
 10
180.8763823507032
 20
15.48163585154941
 10
180.9476551782439
 20
15.47658234646853
 10
181.0544931705685
 20
15.51550809040416
 10
181.0226603598035
 20
15.43531506014621
 10
181.0266164503929
 20
15.38577320854775
 10
181.0234502392013
 20
15.3357186204856
 10
181.0550791490585
 20
15.25143231620765
 10
180.9210133677691
 20
15.30439749503899
 10
180.82923227932
 20
15.29554464899183
 10
180.7079729189603
 20
15.30584433973896
 10
180.5914113119771
 20
15.30763295776244
 10
180.4783375745878
 20
15.30801401118435
 10
180.3679246308471
 20
15.31429833480922
 10
180.289812406784
 20
15.30203517264106
 10
180.1913625833643
 20
15.33468271624868
 10
180.2012355173561
 20
15.27784132062948
 10
180.1973923244403
 20
15.24406514566726
 10
180.1966789884268
 20
15.20133988718153
 10
180.1963369642975
 20
15.16415991270894
 10
180.1963834255346
 20
15.12501621379513
 10
180.1963649429927
 20
15.08731233506427
 10
180.1963703431805
 20
15.04959339241144
 10
180.19636972142
 20
15.02008708753892
 10
180.1963698151546
 20
14.98887961708043
 10
180.196370428792
 20
14.94428808916827
 10
180.1963671499337
 20
14.88978340517593
 10
180.1963759623481
 20
14.8451992421019
 10
180.1963359653417
 20
14.76132192594482
 10
180.1976024270255
 20
14.6475190468642
 10
180.1950274117842
 20
14.49844779942451
 10
180.2065009381719
 20
14.39611587822647
 10
180.1823506222264
 20
14.26353287894576
 10
180.3332993946476
 20
14.30910116280763
 10
180.4428436671556
 20
14.29441396171091
 10
180.573397047392
 20
14.29934819133805
 10
180.6990312209514
 20
14.30272089332103
 10
180.81887306256
 20
14.30725881507515
 10
180.9391362611427
 20
14.32062920190747
 10
181.0222761663515
 20
14.31083096791337
 10
181.1456080421075
 20
14.37140598632062
 10
181.1244269203956
 20
14.31546844142762
 10
181.1235950270117
 20
14.28953633381088
 10
181.1218963707558
 20
14.26211640199681
 10
181.1217974888829
 20
14.22752579215127
 10
181.120365930133
 20
14.1906479222951
 10
181.153280419219
 20
14.09861225030548
 10
180.9551306988107
 20
14.17146399983573
 10
180.8300548294891
 20
14.14840110517348
 10
180.6673071295155
 20
14.15468405994527
 10
180.5129366450001
 20
14.15275327918668
 10
180.3566670436943
 20
14.15408146608009
 10
180.1970544465282
 20
14.15074256496605
 10
180.0540326342236
 20
14.16280179736982
 10
179.8197144881628
 20
14.0996638598566
 10
179.9173810751197
 20
14.3863491147506
 10
179.9006868780059
 20
14.58002692151402
 10
179.9146296709684
 20
14.80862626889038
 10
179.9142987846632
 20
14.96398977963789
 10
179.9143078119263
 20
15.06980720452868
 10
179.9143055876316
 20
15.13220168132956
 10
179.9143065551888
 20
15.22234809257069
 10
179.9143065473261
 20
15.3263555116618
 10
179.9143053861102
 20
15.43036515384038
 10
179.9143090971502
 20
15.52050627697509
 10
179.9143011051051
 20
15.58291187105958
 10
179.9143334275018
 20
15.6888321996986
 10
179.9131440788319
 20
15.84641100553483
 10
179.9082216489256
 20
15.99542603830807
 10
179.9057788376618
 20
16.06937644406932
 97
        1
330
A8
 75
     1
 76
     2
 52
45.0
 41
0.1
 77
     0
 78
     1
 53
45.0
 43
0.0
 44
0.0
 45
-0.282842712474619
 46
0.0
 79
     0
 98
        1
 10
0.0
 20
0.0
  0
HATCH
  5
C6
330
48
100
AcDbEntity
  8
1
  6
Continuous
 62
     2
100
AcDbHatch
 10
0.0
 20
0.0
 30
0.0
210
0.0
220
0.0
230
1.0
  2
CUSTOM4
 70
     0
 71
     1
 91
        1
 92
        1
 93
        1
 72
     4
 94
        3
 73
     0
 74
     0
 95
       47
 96
       43
 40
0.0
 40
0.0
 40
0.0
 40
0.0
 40
0.2207912809957319
 40
0.4459404186303131
 40
0.4902387190459345
 40
0.5327473892722303
 40
0.5742260451225625
 40
0.6155432630560917
 40
0.6568164066315836
 40
0.6982511618780757
 40
0.7407663929317271
 40
0.7851366743175331
 40
1.010288833836336
 40
1.231080507002193
 40
1.451765243652409
 40
1.676638205891696
 40
1.720461045359668
 40
1.830018144043531
 40
1.972442372353164
 40
2.114866600677531
 40
2.224423699395154
 40
2.268246538883397
 40
2.493628801207226
 40
2.715602830286628
 40
2.934211330706381
 40
3.149502369855375
 40
3.231387784851021
 40
3.318231873854056
 40
3.405143198198044
 40
3.486970301720481
 40
3.702258172493924
 40
3.920866283534154
 40
4.142839325931944
 40
4.368221903865406
 40
4.412044743359887
 40
4.521601842095901
 40
4.66402607045238
 40
4.806450298809089
 40
4.916007397546782
 40
4.959830237043105
 40
5.18470351584714
 40
5.405387250767505
 40
5.405387250767505
 40
5.405387250767505
 40
5.405387250767505
 10
182.6507427258645
 20
16.06420824962613
 10
182.6568139420002
 20
16.12772866509951
 10
182.6690762107242
 20
16.25602322698368
 10
182.5604706879412
 20
16.53180604182819
 10
182.6761985896604
 20
16.50202517440795
 10
182.7171842509015
 20
16.49779940271561
 10
182.7591205797519
 20
16.49324830398349
 10
182.800419662571
 20
16.49216366938226
 10
182.8417032115555
 20
16.49324722203969
 10
182.8836148270647
 20
16.49780496720085
 10
182.9245983549019
 20
16.5020181421847
 10
183.0404922843489
 20
16.53191995326276
 10
182.9295652727457
 20
16.25354190618631
 10
182.9574856365267
 20
16.07297524833694
 10
182.9404267346969
 20
15.83975426355213
 10
182.9414637282102
 20
15.67921006551887
 10
182.9414099399404
 20
15.55299201567464
 10
182.9414277372481
 20
15.45443347344983
 10
182.941418858108
 20
15.32295086451705
 10
182.9414263928034
 20
15.19147228977392
 10
182.9414129405128
 20
15.09290606702832
 10
182.9414531717492
 20
14.96654119632894
 10
182.9406746403817
 20
14.80496452831612
 10
182.9565958319266
 20
14.57376205901656
 10
182.9333468885408
 20
14.38888735980744
 10
183.0360183444366
 20
14.11949986778797
 10
182.8820238362836
 20
14.15674496694559
 10
182.8004129802832
 20
14.15152378689276
 10
182.7188192292582
 20
14.15675004387092
 10
182.5648513666843
 20
14.11951453894128
 10
182.6674183421917
 20
14.38889513871622
 10
182.6442045316088
 20
14.57375969334157
 10
182.6600444655139
 20
14.8049660257438
 10
182.6593296313426
 20
14.96654096317245
 10
182.6593664569907
 20
15.09290615219262
 10
182.659354900027
 20
15.19147140644723
 10
182.6593575019214
 20
15.32295511425962
 10
182.6593648531779
 20
15.45441932039942
 10
182.6593442541351
 20
15.55302170284067
 10
182.6594082192028
 20
15.67910533363169
 10
182.658173394759
 20
15.84224475392513
 10
182.6532040396744
 20
15.99068567786291
 10
182.6507427258645
 20
16.06420824962613
 97
        1
330
A9
 75
     1
 76
     2
 52
45.0
 41
0.1
 77
     0
 78
     1
 53
45.0
 43
0.0
 44
0.0
 45
-0.282842712474619
 46
0.0
 79
     0
 98
        1
 10
0.0
 20
0.0
  0
HATCH
  5
C7
330
48
100
AcDbEntity
  8
1
  6
Continuous
 62
     2
100
AcDbHatch
 10
0.0
 20
0.0
 30
0.0
210
0.0
220
0.0
230
1.0
  2
CUSTOM5
 70
     0
 71
     1
 91
        1
 92
        1
 93
        1
 72
     4
 94
        3
 73
     0
 74
     0
 95
      118
 96
      114
 40
0.0
 40
0.0
 40
0.0
 40
0.0
 40
0.105470816297341
 40
0.246609827005191
 40
0.3965912874591248
 40
0.5285525069753989
 40
0.61562450556422
 40
0.6431434105797512
 40
0.7036850037986202
 40
0.7642265984504614
 40
0.7917455052354918
 40
0.9287404319989886
 40
1.106572819088039
 40
1.287544879681039
 40
1.317578308030556
 40
1.399928030857192
 40
1.522968204799967
 40
1.67507298659059
 40
1.844616533180669
 40
2.019973001638731
 40
2.189516548880044
 40
2.34162133158538
 40
2.464661506320518
 40
2.547011229647082
 40
2.577044658168046
 40
2.603797890893117
 40
2.662655002908804
 40
2.721512114949616
 40
2.748265347702795
 40
2.774215307344872
 40
2.845959313407202
 40
2.954338556588403
 40
3.090194227585578
 40
3.244367517100543
 40
3.407699615844302
 40
3.57103171453945
 40
3.725205003920128
 40
3.86106067472963
 40
3.969439917716319
 40
4.041183923628993
 40
4.067133883212986
 40
4.311886746012172
 40
4.547897258335537
 40
4.76474708304398
 40
4.95274967995178
 40
5.045772974195907
 40
5.137862019644991
 40
5.330543169793038
 40
5.553448265244031
 40
5.795083855888188
 40
6.043293412177252
 40
6.285761695541199
 40
6.313902908752683
 40
6.384255941793272
 40
6.475714884766861
 40
6.567173827758923
 40
6.637526860839701
 40
6.665668074074064
 40
6.692018920328037
 40
6.749990782071109
 40
6.807962643790477
 40
6.83431349001795
 40
6.856393084245228
 40
6.913335195649852
 40
6.991194817302516
 40
7.076026942283777
 40
7.153886563725267
 40
7.21082867484485
 40
7.232908268931185
 40
7.258199334923706
 40
7.324875781592354
 40
7.419142481925011
 40
7.527204308841952
 40
7.63526613523053
 40
7.729532834168516
 40
7.796209279292839
 40
7.821500344594785
 40
7.844652988850855
 40
7.899863140541634
 40
7.965759128053801
 40
8.020969279771085
 40
8.044121924046552
 40
8.069356610160641
 40
8.109134395441412
 40
8.132238100191124
 40
8.193147867786486
 40
8.279261678876662
 40
8.377977512673876
 40
8.47669334714666
 40
8.562807160411715
 40
8.623716930826497
 40
8.646820636853452
 40
8.671988793774265
 40
8.734909185828176
 40
8.81670569518889
 40
8.898502204815461
 40
8.961422597377922
 40
8.986590754551035
 40
9.01294160073319
 40
9.070913462380274
 40
9.12888532408177
 40
9.15523617032509
 40
9.180404327929132
 40
9.243324721948206
 40
9.325121234211998
 40
9.406917746637653
 40
9.469838141978109
 40
9.495006288270883
 40
9.517811184379026
 40
9.572192090487025
 40
9.637098333281253
 40
9.691479239515456
 40
9.714284125643493
 40
9.714284125643493
 40
9.714284125643493
 40
9.714284125643493
 10
185.2874469028653
 20
15.59903547196461
 10
185.3090990569037
 20
15.57126253251553
 10
185.3597257109474
 20
15.50632438569978
 10
185.4349383202591
 20
15.39905444321639
 10
185.5248482274346
 20
15.28391822275367
 10
185.5709169676673
 20
15.18371429757061
 10
185.6655825294655
 20
15.11448390823685
 10
185.6204439320413
 20
15.06786023687016
 10
185.5947047785789
 20
15.02674692874781
 10
185.5645196708012
 20
14.99080355736681
 10
185.5193684730562
 20
14.91594166604835
 10
185.4710504458562
 20
15.13796908262347
 10
185.3968539713073
 20
15.17525061346452
 10
185.2836047324606
 20
15.44624586139342
 10
185.288513357817
 20
15.33109712454971
 10
185.2868486556306
 20
15.25851059790369
 10
185.2876830076713
 20
15.13639972492728
 10
185.2873609540265
 20
14.98928184819203
 10
185.2875076912456
 20
14.82321447965299
 10
185.2872950092722
 20
14.65201938617344
 10
185.2879497252034
 20
14.4856721264424
 10
185.2859192461138
 20
14.33949557064435
 10
185.291346039993
 20
14.21485431483353
 10
185.2804930868707
 20
14.14733040549368
 10
185.2956739155555
 20
14.08563445425764
 10
185.2457895108133
 20
14.09741887905744
 10
185.2017150342522
 20
14.08958206788711
 10
185.15823716302
 20
14.09774825381445
 10
185.1092346786489
 20
14.0855244074721
 10
185.1218731234824
 20
14.13975051258055
 10
185.113018296845
 20
14.199513029163
 10
185.1175058770314
 20
14.30936413053112
 10
185.115796013599
 20
14.4404435941442
 10
185.1163550915987
 20
14.5921239545307
 10
185.1161928768694
 20
14.75225458938695
 10
185.1162269924674
 20
14.91251249683308
 10
185.1162514960127
 20
15.06384631529181
 10
185.1161453543226
 20
15.19596540347343
 10
185.1164299141931
 20
15.30309186541935
 10
185.1158675547568
 20
15.36823003588216
 10
185.1180765083689
 20
15.49633341867417
 10
185.0319435998602
 20
15.12111994400317
 10
184.9555140818499
 20
14.96932577132137
 10
184.8660040767834
 20
14.80780590455048
 10
184.7640413217326
 20
14.53486232828913
 10
184.7187976491039
 20
14.69731730605253
 10
184.610235594167
 20
14.78619816066862
 10
184.7995791751753
 20
14.93564178970151
 10
184.85653405457
 20
15.12763520983667
 10
184.9717520993352
 20
15.35914006915499
 10
184.9940151630132
 20
15.54811643767805
 10
185.177190515214
 20
15.82468473334671
 10
185.0538033597552
 20
15.81713362840836
 10
184.9925684166834
 20
15.8187115637486
 10
184.9081999617064
 20
15.81896976582414
 10
184.8204235085966
 20
15.81559229759948
 10
184.7656768696122
 20
15.82409198990762
 10
184.7104703026025
 20
15.8106294505853
 10
184.7222823035536
 20
15.85945826135505
 10
184.7142496151794
 20
15.90283388905451
 10
184.7228186104678
 20
15.94523822318315
 10
184.7102943409157
 20
15.9928218056086
 10
184.7555101538735
 20
15.98281597003852
 10
184.8014815562723
 20
15.98908489182802
 10
184.877722204771
 20
15.98607945414614
 10
184.9561296131993
 20
15.98784832287283
 10
185.0323992648932
 20
15.98479177990401
 10
185.0783009459475
 20
15.9911835538492
 10
185.12317339654
 20
15.98108206987638
 10
185.1105552275634
 20
16.03171585590641
 10
185.1191936582707
 20
16.08515645890812
 10
185.1152361595442
 20
16.17877639140422
 10
185.1162325068335
 20
16.28126990697665
 10
185.1171927413073
 20
16.38367654256905
 10
185.1133211458005
 20
16.47750313618063
 10
185.1217789814364
 20
16.53050926849094
 10
185.1093075932835
 20
16.5822581965993
 10
185.1542106389849
 20
16.56865131235498
 10
185.1955083836772
 20
16.57114864329328
 10
185.259534428105
 20
16.5666244458323
 10
185.2986111148786
 20
16.55795387052049
 10
185.3476543498742
 20
16.56529486079429
 10
185.322508003059
 20
16.526172800605
 10
185.2815901333724
 20
16.5357822646455
 10
185.2910109616604
 20
16.4855453217852
 10
185.2855647318746
 20
16.43400329648232
 10
185.2881699601804
 20
16.34974091593262
 10
185.2870102202154
 20
16.2557351959215
 10
185.2883591064231
 20
16.16211249404267
 10
185.2849970101509
 20
16.07693901560965
 10
185.2920959917769
 20
16.02731240080785
 10
185.2812569154545
 20
15.98008078978731
 10
185.3304010225245
 20
15.99216058945593
 10
185.3794877630147
 20
15.98461777371754
 10
185.4573714280641
 20
15.98700454370174
 10
185.5350365172896
 20
15.98913765914157
 10
185.5845393931355
 20
15.98207775931197
 10
185.6344594750639
 20
15.99374535944956
 10
185.6223198516881
 20
15.94554619380135
 10
185.6305838229143
 20
15.90263603809977
 10
185.6223198650783
 20
15.85972585860126
 10
185.6344594549855
 20
15.81152672763607
 10
185.5845395158746
 20
15.82319418480252
 10
185.5350350651202
 20
15.81613586443787
 10
185.4573784382973
 20
15.81826049237345
 10
185.379464386576
 20
15.82067773374502
 10
185.3304500352716
 20
15.81306232203228
 10
185.2813246108943
 20
15.82522336566334
 10
185.2915559988571
 20
15.780873974329
 10
185.2856677678053
 20
15.73939820211653
 10
185.2878788305569
 20
15.67929778324045
 10
185.2874109346146
 20
15.63240166771631
 10
185.2874386992913
 20
15.60664530426938
 10
185.2874469028653
 20
15.59903547196461
 97
        1
330
AA
 75
     1
 76
     2
 52
45.0
 41
0.1
 77
     0
 78
     1
 53
45.0
 43
0.0
 44
0.0
 45
-0.282842712474619
 46
0.0
 79
     0
 98
        1
 10
0.0
 20
0.0
  0
HATCH
  5
C8
330
48
100
AcDbEntity
  8
1
  6
Continuous
 62
     2
100
AcDbHatch
 10
0.0
 20
0.0
 30
0.0
210
0.0
220
0.0
230
1.0
  2
CUSTOM6
 70
     0
 71
     1
 91
        1
 92
        1
 93
        1
 72
     4
 94
        3
 73
     0
 74
     0
 95
       91
 96
       87
 40
0.0
 40
0.0
 40
0.0
 40
0.0
 40
0.0345987051695718
 40
0.1258134969461369
 40
0.2547723404888987
 40
0.4026032099154125
 40
0.5504340793416704
 40
0.679392922883608
 40
0.7706077146571035
 40
0.8052064287780925
 40
1.124852390615279
 40
1.427402236308874
 40
1.706356627453512
 40
1.955541417875197
 40
2.169485938566342
 40
2.344350786664796
 40
2.480568411561946
 40
2.590440557428968
 40
2.649189927151121
 40
2.749320643306323
 40
2.91263273988003
 40
3.147745656000228
 40
3.244827496385121
 40
3.338490056946711
 40
3.58381541320714
 40
3.761423943238499
 40
3.886956104362662
 40
3.985855451886823
 40
4.091766255337708
 40
4.250186473811901
 40
4.422734315084547
 40
4.628285684838642
 40
4.872093227758472
 40
5.152549652145583
 40
5.464967135837565
 40
5.80320147785248
 40
6.160362988813954
 40
6.193449448276009
 40
6.284170385501664
 40
6.419718138764534
 40
6.587285046385784
 40
6.774063446723698
 40
6.967245678113681
 40
7.154024078817667
 40
7.321590987026052
 40
7.457138740890411
 40
7.547859678556147
 40
7.580946138182707
 40
7.608533084714757
 40
7.669224367077733
 40
7.72991564942995
 40
7.757502595950003
 40
7.790278062553456
 40
7.880146277430955
 40
8.014419963180417
 40
8.180411842397918
 40
8.365434637679387
 40
8.556801071622688
 40
8.741823866830801
 40
8.907815745916311
 40
9.042089431507465
 40
9.13195764624959
 40
9.164733112797167
 40
9.415425063140102
 40
9.667986180958565
 40
9.694169807462732
 40
9.75660768604769
 40
9.831130315322497
 40
9.893568193899961
 40
9.919751820398778
 40
9.950967964690612
 40
9.996421631210723
 40
10.22087981037461
 40
10.4434186619755
 40
10.47847970788862
 40
10.57091337438763
 40
10.70159545461237
 40
10.85140174170368
 40
11.00120802880485
 40
11.13189010907391
 40
11.22432377583018
 40
11.25938480938965
 40
11.28697175596153
 40
11.34766303835927
 40
11.40835432042077
 40
11.43594125892111
 40
11.43594125892111
 40
11.43594125892111
 40
11.43594125892111
 10
190.0818114333289
 20
15.88257179133819
 10
190.0702785844941
 20
15.88257174296657
 10
190.0283409444998
 20
15.88257157712906
 10
189.9434129719026
 20
15.88257509809651
 10
189.8207688553128
 20
15.8825531044462
 10
189.6791206916993
 20
15.88265185185796
 10
189.537975369849
 20
15.88229070241162
 10
189.4141351317904
 20
15.88336267617831
 10
189.3317217825382
 20
15.8810663310001
 10
189.1727791229692
 20
15.89062953382162
 10
189.3503402353376
 20
15.52799778320112
 10
189.3379739205452
 20
15.28257511731856
 10
189.4064519473864
 20
14.99876885333576
 10
189.469302432097
 20
14.76265383947777
 10
189.5452253431728
 20
14.56341124404872
 10
189.6303189577016
 20
14.40759731460116
 10
189.7244607592935
 20
14.30672241790134
 10
189.8282648207727
 20
14.25480236647707
 10
189.9125872030774
 20
14.30620868388358
 10
189.9351322179452
 20
14.4215892804626
 10
189.9745730975371
 20
14.54899533711122
 10
189.9202919734942
 20
14.86636712095498
 10
190.0451218072473
 20
14.71996564149647
 10
190.2019291513603
 20
14.68809684339914
 10
190.0947720007057
 20
14.4543574177637
 10
190.0808711209867
 20
14.28987160592399
 10
190.0234709467225
 20
14.16145253131225
 10
189.9335020145009
 20
14.09033186361569
 10
189.8095274657877
 20
14.07446708150996
 10
189.663427319686
 20
14.11008181562914
 10
189.5243894320284
 20
14.23014954509019
 10
189.4102003962144
 20
14.40450066559062
 10
189.3146141301486
 20
14.62960987119983
 10
189.2318652572627
 20
14.89402630015185
 10
189.1807179256411
 20
15.21202317107285
 10
189.0770189207339
 20
15.48558112497656
 10
189.2042841208519
 20
15.89020202621607
 10
189.0357890623019
 20
15.88126751858421
 10
188.9511995787077
 20
15.88330345427104
 10
188.8189876387627
 20
15.88228321397148
 10
188.6560505094104
 20
15.88267614327171
 10
188.4733759170532
 20
15.8825008032211
 10
188.2847057373383
 20
15.88274489316211
 10
188.1014469020189
 20
15.88200041914978
 10
187.9404746832718
 20
15.88430744531167
 10
187.8029808335276
 20
15.87814188892405
 10
187.728959037231
 20
15.89047222466952
 10
187.6613215186857
 20
15.87343707732298
 10
187.6732373719269
 20
15.92538822456269
 10
187.6655677285694
 20
15.9708580897527
 10
187.6732592225115
 20
16.01628837712446
 10
187.6613141797762
 20
16.06816779993311
 10
187.7283588305866
 20
16.05133527499005
 10
187.8017375665677
 20
16.06349793101412
 10
187.9379128305271
 20
16.05741615083699
 10
188.0973811801513
 20
16.05969218323799
 10
188.2789173085836
 20
16.05895618007703
 10
188.4658034862179
 20
16.05920338204874
 10
188.6468012316836
 20
16.05900784807994
 10
188.8080802578878
 20
16.05946618723579
 10
188.9393882124887
 20
16.05827057759947
 10
189.0225051322596
 20
16.06065731328483
 10
189.1556236547814
 20
16.05244989734205
 10
189.0645893502658
 20
16.30767252961396
 10
188.9789633074418
 20
16.57178742336988
 10
189.0990589003455
 20
16.55918826977907
 10
189.1514264948544
 20
16.55708619771818
 10
189.2214497569715
 20
16.55549783898398
 10
189.2671922337817
 20
16.54616951546855
 10
189.3220812646934
 20
16.55560350924168
 10
189.296357478568
 20
16.50747412663915
 10
189.1825397571454
 20
16.51281213752909
 10
189.3159346621136
 20
16.28463558585517
 10
189.1943658735472
 20
16.05171240604664
 10
189.3223188769413
 20
16.06101642893179
 10
189.4049048406461
 20
16.05815385763421
 10
189.5307214850824
 20
16.05937821421043
 10
189.6741469838058
 20
16.05946815897705
 10
189.8157420951728
 20
16.05760547192594
 10
189.9459127249968
 20
16.06347459945903
 10
190.019345228619
 20
16.05084724831944
 10
190.0891112922096
 20
16.06891947119153
 10
190.0775772605396
 20
16.01627234555067
 10
190.0833184346681
 20
15.97235701695289
 10
190.0816615770912
 20
15.92104366685291
 10
190.0817757561669
 20
15.89173176030376
 10
190.0818114333289
 20
15.88257179133819
 97
        1
330
AB
 75
     1
 76
     2
 52
45.0
 41
0.1
 77
     0
 78
     1
 53
45.0
 43
0.0
 44
0.0
 45
-0.282842712474619
 46
0.0
 79
     0
 98
        1
 10
0.0
 20
0.0
  0
HATCH
  5
C9
330
48
100
AcDbEntity
  8
1
  6
Continuous
 62
     2
100
AcDbHatch
 10
0.0
 20
0.0
 30
0.0
210
0.0
220
0.0
230
1.0
  2
CUSTOM7
 70
     0
 71
     1
 91
        1
 92
        1
 93
        1
 72
     4
 94
        3
 73
     0
 74
     0
 95
       75
 96
       71
 40
0.0
 40
0.0
 40
0.0
 40
0.0
 40
0.0342546099129691
 40
0.1245622414432364
 40
0.2522385480897518
 40
0.3985991922940662
 40
0.5449598364980839
 40
0.6726361431438834
 40
0.7629437746736925
 40
0.7971983935297973
 40
1.101723623449661
 40
1.408591244036665
 40
1.433332471690373
 40
1.48776317245017
 40
1.542193873081999
 40
1.566935100592548
 40
1.923523931821859
 40
2.27175570495366
 40
2.590579755100902
 40
2.858943305581159
 40
2.889120339309181
 40
2.918305855191127
 40
2.94136664553125
 40
2.996357760973142
 40
3.061992318140688
 40
3.116983433626883
 40
3.140044223997562
 40
3.411273122936483
 40
3.732441619741147
 40
3.761068217532845
 40
3.837787499630409
 40
3.948858699126048
 40
4.080541049104422
 40
4.219093782625805
 40
4.350776132722359
 40
4.461847332405689
 40
4.538566614678421
 40
4.567193212544669
 40
4.594907573998928
 40
4.666381453557467
 40
4.764111044011077
 40
4.87059253812588
 40
4.968322128642331
 40
5.039796008287016
 40
5.067510369784475
 40
5.094263603185688
 40
5.153120716668326
 40
5.211977830150774
 40
5.238731063551779
 40
5.272290535139017
 40
5.363380529444878
 40
5.497618415781556
 40
5.660621563453798
 40
5.838007341749499
 40
6.015393119910851
 40
6.178396267038476
 40
6.312634151842428
 40
6.403724143059417
 40
6.437283612672513
 40
6.464036846261129
 40
6.522893960004746
 40
6.581751071484012
 40
6.608504301590958
 40
6.637253941281106
 40
6.711397748902957
 40
6.81277805728357
 40
6.923237199249346
 40
7.02461750762399
 40
7.098761315207643
 40
7.127510946007593
 40
7.127510946007593
 40
7.127510946007593
 40
7.127510946007593
 10
188.4418622390564
 20
15.28863512482006
 10
188.4418622819707
 20
15.27721697417462
 10
188.4418624481128
 20
15.23569641851371
 10
188.4418593081787
 20
15.15161306012513
 10
188.4418788279801
 20
15.0301888133107
 10
188.4417912187737
 20
14.8899487805619
 10
188.442111623523
 20
14.75020940803318
 10
188.4411605909741
 20
14.6275942290367
 10
188.4431978595968
 20
14.54601458446784
 10
188.4349433178745
 20
14.39285651086439
 10
188.7430797940901
 20
14.55574620063464
 10
189.0350645173737
 20
14.72497322696744
 10
189.0408354448707
 20
14.58987619790653
 10
189.0455471719891
 20
14.54631605169186
 10
189.0482535411918
 20
14.50225633359286
 10
189.0672545672958
 20
14.35286974371875
 10
188.6583942247302
 20
14.41695556250004
 10
188.3793710348832
 20
14.30310725419758
 10
188.1018081587167
 20
14.20378479819885
 10
187.8099837184399
 20
14.24645071605097
 10
187.7869144678658
 20
14.14336063753283
 10
187.7537474383333
 20
14.11705475253211
 10
187.7480653962738
 20
14.16469693045046
 10
187.7284214559044
 20
14.20194720123812
 10
187.7095089485623
 20
14.26021771856306
 10
187.6942849867707
 20
14.30399585016547
 10
187.6477246372936
 20
14.41773805055053
 10
187.989089731245
 20
14.3859068512879
 10
188.2679649367386
 20
14.35175819115221
 10
188.2617753034907
 20
14.49928360488394
 10
188.2630935452773
 20
14.57027534917574
 10
188.2624831689948
 20
14.67734151967403
 10
188.2625871570725
 20
14.8041291379474
 10
188.2629987964056
 20
14.93863627504792
 10
188.2613907841968
 20
15.06409933959926
 10
188.2659902567925
 20
15.17519630727859
 10
188.256418650221
 20
15.2377627080943
 10
188.2704001783691
 20
15.29609772303743
 10
188.2147384386704
 20
15.2830409459098
 10
188.1575655197821
 20
15.2915069175824
 10
188.0616048925648
 20
15.28744360089378
 10
187.963376752282
 20
15.28985273861216
 10
187.867258245756
 20
15.2856598462213
 10
187.8104648525812
 20
15.29443730449904
 10
187.7550356873384
 20
15.28109320858863
 10
187.7670679427917
 20
15.33051294967998
 10
187.7592003173938
 20
15.37408372039138
 10
187.7666295563829
 20
15.41844853127267
 10
187.7551930564144
 20
15.46916681772733
 10
187.8232102370133
 20
15.45176844766485
 10
187.8968496879747
 20
15.46431834245931
 10
188.0325064058211
 20
15.45814061019839
 10
188.1884909024525
 20
15.46043587101826
 10
188.3615926358143
 20
15.45955352271272
 10
188.5346942964181
 20
15.4604359115115
 10
188.6906789811216
 20
15.45814046964292
 10
188.8263351889797
 20
15.46431870271173
 10
188.8999756705652
 20
15.45176778227077
 10
188.9679914174724
 20
15.46916757020885
 10
188.9565590885922
 20
15.41844514423297
 10
188.9639539458298
 20
15.3741144481985
 10
188.956203991227
 20
15.33042691558938
 10
188.9681203741877
 20
15.28077974107219
 10
188.9108170223616
 20
15.29475795347167
 10
188.8520145789773
 20
15.28554139681996
 10
188.7525293633199
 20
15.28966652173671
 10
188.649428009835
 20
15.2883714403463
 10
188.5537846354573
 20
15.28868461086383
 10
188.4857467971617
 20
15.28863160705887
 10
188.4514462213443
 20
15.28863435880398
 10
188.4418622390564
 20
15.28863512482006
 97
        1
330
AC
 75
     1
 76
     2
 52
45.0
 41
0.1
 77
     0
 78
     1
 53
45.0
 43
0.0
 44
0.0
 45
-0.282842712474619
 46
0.0
 79
     0
 98
        1
 10
0.0
 20
0.0
  0
HATCH
  5
CA
330
48
100
AcDbEntity
  8
1
  6
Continuous
 62
     2
100
AcDbHatch
 10
0.0
 20
0.0
 30
0.0
210
0.0
220
0.0
230
1.0
  2
CUSTOM8
 70
     0
 71
     1
 91
        1
 92
        1
 93
        1
 72
     4
 94
        3
 73
     0
 74
     0
 95
       15
 96
       11
 40
0.0
 40
0.0
 40
0.0
 40
0.0
 40
0.2785535985096553
 40
0.5215624748198889
 40
0.60769173760405
 40
0.6938210001741234
 40
0.9405019146455035
 40
1.221691403489134
 40
1.300471877081053
 40
1.37925234168482
 40
1.37925234168482
 40
1.37925234168482
 40
1.37925234168482
 10
189.5681493630999
 20
16.55944651339123
 10
189.6296017794178
 20
16.50706030601457
 10
189.7446649974113
 20
16.40897260806965
 10
190.0397348497244
 20
16.25904169905964
 10
189.9025147631856
 20
16.17357611523756
 10
189.8041227843778
 20
16.04100169210297
 10
189.713003359065
 20
16.34631369790162
 10
189.3636839480656
 20
16.40982253474116
 10
189.511925837657
 20
16.5091089388962
 10
189.5494081874236
 20
16.54266732411124
 10
189.5681493630999
 20
16.55944651339123
 97
        1
330
AD
 75
     1
 76
     2
 52
45.0
 41
0.1
 77
     0
 78
     1
 53
45.0
 43
0.0
 44
0.0
 45
-0.282842712474619
 46
0.0
 79
     0
 98
        1
 10
0.0
 20
0.0
  0
HATCH
  5
CB
330
48
100
AcDbEntity
  8
1
  6
Continuous
 62
     2
100
AcDbHatch
 10
0.0
 20
0.0
 30
0.0
210
0.0
220
0.0
230
1.0
  2
CUSTOM9
 70
     0
 71
     1
 91
        1
 92
        1
 93
        1
 72
     4
 94
        3
 73
     0
 74
     0
 95
       35
 96
       31
 40
0.0
 40
0.0
 40
0.0
 40
0.0
 40
0.0335231036620645
 40
0.0713218571712051
 40
0.4278866681487109
 40
0.8116865841964107
 40
1.198190238000068
 40
1.561379546812696
 40
1.659983174622061
 40
1.7593155738072
 40
2.132719617231086
 40
2.525233363588836
 40
2.910815397779706
 40
3.265244364303293
 40
3.592606723582032
 40
3.964386154603979
 40
4.359942131737801
 40
4.758154118639312
 40
4.843846538699926
 40
4.936650065543244
 40
5.256616602537323
 40
5.58170740441606
 40
5.899719158308158
 40
6.19836349428076
 40
6.466301046615793
 40
6.493895311537115
 40
6.559697020196907
 40
6.638234543442483
 40
6.704036252154235
 40
6.731630508423041
 40
6.731630508423041
 40
6.731630508423041
 40
6.731630508423041
 10
191.9736010568669
 20
16.56478227727876
 10
191.9676006097789
 20
16.55495074551065
 10
191.9548344099157
 20
16.5340337258854
 10
191.7949362006554
 20
16.5014151054143
 10
192.2322025842337
 20
16.21221064345444
 10
192.4345394828261
 20
16.01055522367179
 10
192.6819564267973
 20
15.76763771612019
 10
193.1831513624606
 20
15.69062046766517
 10
193.012556219897
 20
15.54891323183398
 10
192.9383299463202
 20
15.34724750217849
 10
192.6131432248188
 20
15.69970671183468
 10
192.3277741670664
 20
15.86189596568303
 10
192.0337604077658
 20
16.0670151406179
 10
191.8084452691134
 20
16.54841872604197
 10
191.5993085055521
 20
16.08357430617965
 10
191.3207873674834
 20
15.87365336261654
 10
191.0371383177208
 20
15.70438840368726
 10
190.7078639527832
 20
15.33156744916678
 10
190.6277012318224
 20
15.52722398467743
 10
190.4759724909744
 20
15.65505488199337
 10
190.9083395826795
 20
15.73468415774677
 10
191.0962565329766
 20
15.93041018924215
 10
191.3468477420502
 20
16.14647380925497
 10
191.5714350470161
 20
16.312053763088
 10
191.6259775409712
 20
16.59148348645569
 10
191.7494661029011
 20
16.5775233441682
 10
191.806027334452
 20
16.57535652876389
 10
191.8761870984944
 20
16.57061243890102
 10
191.9333414022105
 20
16.56723813359282
 10
191.9644190320839
 20
16.56534238719861
 10
191.9736010568669
 20
16.56478227727876
 97
        1
330
AE
 75
     1
 76
     2
 52
45.0
 41
0.1
 77
     0
 78
     1
 53
45.0
 43
0.0
 44
0.0
 45
-0.282842712474619
 46
0.0
 79
     0
 98
        1
 10
0.0
 20
0.0
  0
HATCH
  5
CC
330
48
100
AcDbEntity
  8
1
  6
Continuous
 62
     2
100
AcDbHatch
 10
0.0
 20
0.0
 30
0.0
210
0.0
220
0.0
230
1.0
  2
CUSTOM10
 70
     0
 71
     1
 91
        1
 92
        1
 93
        1
 72
     4
 94
        3
 73
     0
 74
     0
 95
       91
 96
       87
 40
0.0
 40
0.0
 40
0.0
 40
0.0
 40
0.0267532254356701
 40
0.0856103386464102
 40
0.1444674521996638
 40
0.1712206856618532
 40
0.2039416005642554
 40
0.2955601971652502
 40
0.4362601844616936
 40
0.6162252844507268
 40
0.8256392189704715
 40
1.054685709844412
 40
1.293548478893533
 40
1.532411247938305
 40
1.76145773879957
 40
1.970871673298538
 40
2.150836773256734
 40
2.291536760495595
 40
2.383155356836702
 40
2.415876284101322
 40
2.442629517487966
 40
2.501486630949096
 40
2.560343744424244
 40
2.587096977826518
 40
2.617068194440946
 40
2.699247336756087
 40
2.822032643466399
 40
2.973822353257929
 40
3.143014704823371
 40
3.31800793687995
 40
3.487200288186783
 40
3.638989997548264
 40
3.761775303794763
 40
3.843954445753098
 40
3.873925662229794
 40
3.890812773500501
 40
3.90769988477168
 40
3.937960767857287
 40
3.980983618142318
 40
4.199085915228464
 40
4.439444339237255
 40
4.677588241260898
 40
5.050698317837783
 40
5.448212454763169
 40
5.855291218044695
 40
6.138575438885365
 40
6.417434507584206
 40
6.444551104393888
 40
6.504207617363187
 40
6.563864130314512
 40
6.590980727104105
 40
6.848609460381487
 40
7.109611990668446
 40
7.352910904446111
 40
7.557830220705481
 40
7.5875189259134
 40
7.652834077375819
 40
7.718149228845756
 40
7.747837934062059
 40
7.854880190301016
 40
7.976511257403559
 40
8.36948789659236
 40
8.757514959223654
 40
9.126072419331116
 40
9.460639380392179
 40
9.74669559303592
 40
9.777569943118698
 40
9.807050320931797
 40
9.830377336128931
 40
9.886003295436005
 40
9.952395569429923
 40
10.00802152870628
 40
10.0313485438822
 40
10.21356951009591
 40
10.42203479292873
 40
10.66154556731066
 40
10.91693789564306
 40
11.15832906556567
 40
11.18982674596625
 40
11.27286608520409
 40
11.39026653033351
 40
11.52484752840888
 40
11.6594285264845
 40
11.77682897161485
 40
11.85986831085684
 40
11.8913659823043
 40
11.8913659823043
 40
11.8913659823043
 40
11.8913659823043
 10
190.7027885008196
 20
15.03713984710514
 10
190.7028237765288
 20
15.04602231320727
 10
190.7029366710797
 20
15.07444621056089
 10
190.7012984568489
 20
15.12424023178545
 10
190.7069750292911
 20
15.16671948486896
 10
190.6956928731706
 20
15.21744538865589
 10
190.7632296979032
 20
15.2002728474885
 10
190.8388029210699
 20
15.21304611174738
 10
190.9828357056001
 20
15.20644113466124
 10
191.1569419185426
 20
15.20902846215208
 10
191.3639599611004
 20
15.20814975964295
 10
191.5894688172378
 20
15.2084259192877
 10
191.8251162293406
 20
15.20832723667404
 10
192.0607640531348
 20
15.2084256842151
 10
192.2862717580626
 20
15.2081506219953
 10
192.4932934632805
 20
15.20902570279477
 10
192.6673888915288
 20
15.20644906687189
 10
192.8114492071986
 20
15.21302674457955
 10
192.8869691915293
 20
15.20030627414346
 10
192.9545776037029
 20
15.21740784200428
 10
192.9430840140676
 20
15.16689169811682
 10
192.9505104581733
 20
15.12267636235243
 10
192.9428838927987
 20
15.07882350512352
 10
192.9546489459424
 20
15.02892758488069
 10
192.8930788491983
 20
15.04407611721254
 10
192.8256791738671
 20
15.03325049359415
 10
192.7013004056222
 20
15.03866415634978
 10
192.555442823657
 20
15.03663589399527
 10
192.3893576440086
 20
15.03730161587129
 10
192.2188412621724
 20
15.03704027529984
 10
192.0519790855388
 20
15.03735937399835
 10
191.9087346827105
 20
15.03649686599504
 10
191.7773313869834
 20
15.0387768449173
 10
191.7239859134656
 20
15.03422088382944
 10
191.6485188456912
 20
15.04014299001619
 10
191.6769075779232
 20
15.03108553352095
 10
191.7033652409542
 20
15.02740296277671
 10
191.6633522907701
 20
14.99668655977016
 10
191.5713663691868
 20
15.00681975183377
 10
191.5439396207069
 20
14.76046886256527
 10
191.4478793967234
 20
14.60513942773117
 10
191.1917277964474
 20
14.27539801940311
 10
191.7627537732762
 20
14.41444406219193
 10
192.0173656320516
 20
14.41306163982105
 10
192.6279647048617
 20
14.32804953250828
 10
192.3340698578082
 20
14.62699801566945
 10
192.0133304286518
 20
14.77345240910525
 10
192.1313543360433
 20
14.83039924827028
 10
192.1724716466261
 20
14.8543448388209
 10
192.2156812394411
 20
14.87614142819973
 10
192.3174574094449
 20
14.93943105262643
 10
192.4328867625248
 20
14.68161535417523
 10
192.6329591642277
 20
14.54630425122425
 10
192.7269077387228
 20
14.36807179147623
 10
192.9558829746392
 20
14.21012205035791
 10
192.8596031846708
 20
14.15930356585041
 10
192.8167959763779
 20
14.12895676531797
 10
192.7718243528779
 20
14.104805142902
 10
192.7121720925214
 20
14.0556653075631
 10
192.6789731061324
 20
14.19011859682351
 10
192.5582013350796
 20
14.34608649295323
 10
192.1970976005979
 20
14.21584312068298
 10
191.8385061955541
 20
14.23239078418225
 10
191.457092045008
 20
14.22345613360607
 10
191.170345528289
 20
14.1589705568115
 10
190.8592055599715
 20
14.27245052201568
 10
190.8268737818788
 20
14.1613664393651
 10
190.7896178253317
 20
14.14210697858754
 10
190.7865737632754
 20
14.18889168096039
 10
190.7679892860607
 20
14.22821237927877
 10
190.7512436616777
 20
14.28780367486974
 10
190.7383730915754
 20
14.33216353880026
 10
190.7042327806428
 20
14.42120715128943
 10
190.9482714457754
 20
14.35195426952512
 10
191.1441394486671
 20
14.33044753066486
 10
191.2395426381277
 20
14.61240868487205
 10
191.2945135769597
 20
14.77377429429865
 10
191.5159619357156
 20
15.0440556159848
 10
191.3849239381216
 20
15.03562830862477
 10
191.3110026555854
 20
15.03793392505712
 10
191.1977459876244
 20
15.03685762330399
 10
191.0694251807484
 20
15.03722023085252
 10
190.9404252030415
 20
15.03712108474827
 10
190.828784094629
 20
15.03714316721314
 10
190.7514663970026
 20
15.03713963198412
 10
190.713287653201
 20
15.03713979853823
 10
190.7027885008196
 20
15.03713984710514
 97
        1
330
AF
 75
     1
 76
     2
 52
45.0
 41
0.1
 77
     0
 78
     1
 53
45.0
 43
0.0
 44
0.0
 45
-0.282842712474619
 46
0.0
 79
     0
 98
        1
 10
0.0
 20
0.0
  0
HATCH
  5
CD
330
48
100
AcDbEntity
  8
1
  6
Continuous
 62
     2
100
AcDbHatch
 10
0.0
 20
0.0
 30
0.0
210
0.0
220
0.0
230
1.0
  2
CUSTOM11
 70
     0
 71
     1
 91
        1
 92
        1
 93
        1
 72
     4
 94
        3
 73
     0
 74
     0
 95
      131
 96
      127
 40
0.0
 40
0.0
 40
0.0
 40
0.0
 40
0.0195577029826114
 40
0.0426490537461444
 40
0.2863607575856552
 40
0.5344948436189246
 40
0.7842238845573144
 40
0.8737315789467339
 40
0.9803832810312836
 40
1.092842274517031
 40
1.199761146656789
 40
1.289788768186494
 40
1.351573580786186
 40
1.370727117561412
 40
1.416400936017826
 40
1.470914848355967
 40
1.516588666791759
 40
1.535742203552839
 40
1.634216592293187
 40
1.760283341175025
 40
1.897966686682086
 40
2.03121638736891
 40
2.049689751137906
 40
2.10111560164684
 40
2.179502577739958
 40
2.278859318314074
 40
2.39319446225873
 40
2.516516648383841
 40
2.642834515405972
 40
2.766156701983474
 40
2.880491846754587
 40
2.979848588358628
 40
3.058235565443805
 40
3.109661416668959
 40
3.128134780704137
 40
3.146783742386453
 40
3.191254343315314
 40
3.244332157315973
 40
3.288802758225877
 40
3.307451719895119
 40
3.327717853844733
 40
3.383747753580092
 40
3.468388665924484
 40
3.574487837698788
 40
3.694892515728891
 40
3.822449946852032
 40
3.950007377920423
 40
4.070412055800514
 40
4.176511227368069
 40
4.261152139501515
 40
4.317182039076707
 40
4.337448172964628
 40
4.620011002696238
 40
4.885096638397506
 40
4.945373043518323
 40
5.014107710488632
 40
5.070481727652028
 40
5.319246955636552
 40
5.584812164506023
 40
5.859000912056874
 40
6.133746937542057
 40
6.401732212968861
 40
6.420736683995452
 40
6.472845717451102
 40
6.55070274389403
 40
6.646951193874239
 40
6.754234497930563
 40
6.865196086587341
 40
6.972479390357799
 40
7.068727839771961
 40
7.14658486545097
 40
7.1986938981892
 40
7.21769836890534
 40
7.234950401630821
 40
7.276089864269862
 40
7.325191803515969
 40
7.366331266090357
 40
7.383583298769709
 40
7.402779163492086
 40
7.453386443254518
 40
7.524934666445519
 40
7.606953361405859
 40
7.68897205642901
 40
7.760520279784261
 40
7.811127559734503
 40
7.830323424546124
 40
7.847844055299758
 40
7.894799345666796
 40
7.962779392744485
 40
8.043374293560534
 40
8.128174145149435
 40
8.208769044817243
 40
8.276749090376944
 40
8.323704379669506
 40
8.341225010056236
 40
8.358497614800385
 40
8.40167912668659
 40
8.457815092185648
 40
8.513951057728052
 40
8.557132569708008
 40
8.574405174505051
 40
8.602340668616415
 40
8.643455660539956
 40
8.663225271966624
 40
8.715345156564268
 40
8.789031889628607
 40
8.873502045520333
 40
8.957972194323958
 40
9.03165892556785
 40
9.083778811234538
 40
9.103548423003005
 40
9.119550083123542
 40
9.160817522379844
 40
9.21724442911021
 40
9.278724491644695
 40
9.33515139829548
 40
9.376418837357775
 40
9.392420497300563
 40
9.401196302734782
 40
9.417494229384255
 40
9.42627002774953
 40
9.440875075477562
 40
9.475702496998743
 40
9.517270709865908
 40
9.552098131994077
 40
9.566703169884285
 40
9.566703169884285
 40
9.566703169884285
 40
9.566703169884285
 10
194.6170254148479
 20
16.00030255519769
 10
194.6134345093371
 20
15.99468074710901
 10
194.6056039123624
 20
15.98242138427853
 10
194.5129968974548
 20
15.94616300049714
 10
194.4887622233246
 20
15.73162828221457
 10
194.3858709845938
 20
15.55211668518449
 10
194.1220492364305
 20
15.36629957806887
 10
194.284547156918
 20
15.28973720574823
 10
194.3607225760838
 20
15.22871077204184
 10
194.4492171072758
 20
15.16530188553501
 10
194.538993023311
 20
15.10540018228303
 10
194.5883817636046
 20
15.05116538857949
 10
194.6745708157381
 20
15.02300624550576
 10
194.641126067423
 20
14.98727693661553
 10
194.621467116631
 20
14.95564772000648
 10
194.5919888217882
 20
14.91490256804811
 10
194.5688989446031
 20
14.88519047498385
 10
194.5380205968357
 20
14.83225806677236
 10
194.472919336574
 20
14.95754718947644
 10
194.3796000122415
 20
15.01228284242676
 10
194.2950636285138
 20
15.06930807948084
 10
194.1722498125743
 20
15.22689671436266
 10
194.1764450847301
 20
15.15050190775578
 10
194.1751478652677
 20
15.10375664170038
 10
194.1758126448076
 20
15.02599169821342
 10
194.1755549986957
 20
14.92916452333165
 10
194.1756431239922
 20
14.81664663087551
 10
194.1756077302281
 20
14.69538469954441
 10
194.1756511758279
 20
14.57101281867703
 10
194.1755199942406
 20
14.44982067640078
 10
194.1759477562046
 20
14.33705532928485
 10
194.174667820231
 20
14.24097297777486
 10
194.1779759851043
 20
14.16128210477442
 10
194.1715197740086
 20
14.11829559797526
 10
194.1806208705556
 20
14.07969816380784
 10
194.1447910339935
 20
14.08825271732813
 10
194.1115223815252
 20
14.08356903994189
 10
194.060456257604
 20
14.08365682768526
 10
194.0269723972813
 20
14.08808814292563
 10
193.9907585408754
 20
14.07975177851252
 10
194.0009782568665
 20
14.12159661188026
 10
193.9936487887773
 20
14.16792944828916
 10
193.9973633136103
 20
14.25389215114756
 10
193.9959480554896
 20
14.35619526713591
 10
193.9964105554638
 20
14.47467607940253
 10
193.9962773686231
 20
14.59972067162098
 10
193.9963015910045
 20
14.72490212115792
 10
193.9963354925551
 20
14.843010293878
 10
193.9962060293132
 20
14.94643132718257
 10
193.9965507549081
 20
15.02946420162409
 10
193.995869827869
 20
15.08157752529985
 10
193.9994586600621
 20
15.20927291830103
 10
193.7826171386437
 20
14.91063100828362
 10
193.6021354921951
 20
14.68278365520257
 10
193.5490322295611
 20
14.82387827298556
 10
193.5200429133149
 20
14.87340151569685
 10
193.419664806282
 20
14.97656163798848
 10
193.7405127723261
 20
15.05709419032521
 10
193.8689897005429
 20
15.24080667045176
 10
194.0906454325358
 20
15.44946379780504
 10
194.1770224894068
 20
15.62353595237085
 10
194.4549394229075
 20
15.89981435351255
 10
194.3346247839283
 20
15.89548943559855
 10
194.2863197351349
 20
15.89629240211295
 10
194.2102377454905
 20
15.89588966155326
 10
194.116701000975
 20
15.89604659620352
 10
194.0117594788557
 20
15.89596886584966
 10
193.9033887738717
 20
15.89609848387297
 10
193.7981454235897
 20
15.89568777499434
 10
193.7056237819412
 20
15.89696457680333
 10
193.6268130800707
 20
15.89355150543592
 10
193.5839674565379
 20
15.90037734045062
 10
193.5449499586515
 20
15.89079448209865
 10
193.5526365271863
 20
15.92435163574284
 10
193.5485464404311
 20
15.95537934330974
 10
193.5485531368815
 20
16.00250913279643
 10
193.5526239724911
 20
16.0335532565552
 10
193.5449495574583
 20
16.06716245644644
 10
193.5834819405494
 20
16.05762794429613
 10
193.624122801448
 20
16.06411819506813
 10
193.6951471850463
 20
16.06114534658996
 10
193.7729318149633
 20
16.06189145407899
 10
193.8507292246474
 20
16.06262198053268
 10
193.9217232089907
 20
16.05968619522902
 10
193.962427979182
 20
16.06609852781694
 10
194.0009853489909
 20
16.05664908184746
 10
193.9927342754927
 20
16.09279076167526
 10
193.9982346669358
 20
16.13144221621969
 10
193.9955754206163
 20
16.19927912570581
 10
193.9965815471533
 20
16.27606025547482
 10
193.9960178018318
 20
16.35863777591498
 10
193.9970714526593
 20
16.4353171323862
 10
193.994267586313
 20
16.50346374785442
 10
194.0000702721303
 20
16.54146783818088
 10
193.9915654551159
 20
16.57772832086388
 10
194.0255610233125
 20
16.56770107780594
 10
194.0594575683099
 20
16.57087650822448
 10
194.1126669060346
 20
16.56523349649351
 10
194.1660768574482
 20
16.56449158445167
 10
194.1995914649491
 20
16.55833607491723
 10
194.2388086183038
 20
16.56360413782334
 10
194.2120263698492
 20
16.52267764802231
 10
194.1708111001724
 20
16.53385588546853
 10
194.1782641540874
 20
16.48881440200866
 10
194.1742227952184
 20
16.44426662036886
 10
194.176171404964
 20
16.37237956630445
 10
194.1752364849758
 20
16.29183014597513
 10
194.176510719003
 20
16.21188379413737
 10
194.1732043793864
 20
16.13856221091925
 10
194.180210617996
 20
16.0970302701131
 10
194.1701440380126
 20
16.05766802576855
 10
194.2029814803921
 20
16.06482447439723
 10
194.236457729648
 20
16.06041627146686
 10
194.2915053476019
 20
16.06232327356639
 10
194.3489502595314
 20
16.0619975041603
 10
194.4023026248309
 20
16.06120692741823
 10
194.4398540896638
 20
16.06328343126816
 10
194.4623172523237
 20
16.06036722175851
 10
194.4751678073731
 20
16.06586936652798
 10
194.4858255685888
 20
16.06815502206531
 10
194.4986635650143
 20
16.07509356596795
 10
194.514599103307
 20
16.05867430322413
 10
194.5410623920892
 20
16.04723506328191
 10
194.5726805253757
 20
16.02659071843931
 10
194.5987255892151
 20
16.01131253637036
 10
194.6128517723973
 20
16.00281360331925
 10
194.6170254148479
 20
16.00030255519769
 97
        1
330
B0
 75
     1
 76
     2
 52
45.0
 41
0.1
 77
     0
 78
     1
 53
45.0
 43
0.0
 44
0.0
 45
-0.282842712474619
 46
0.0
 79
     0
 98
        1
 10
0.0
 20
0.0
  0
HATCH
  5
CE
330
48
100
AcDbEntity
  8
1
  6
Continuous
 62
     2
100
AcDbHatch
 10
0.0
 20
0.0
 30
0.0
210
0.0
220
0.0
230
1.0
  2
CUSTOM12
 70
     0
 71
     1
 91
        1
 92
        1
 93
        1
 72
     4
 94
        3
 73
     0
 74
     0
 95
      124
 96
      120
 40
0.0
 40
0.0
 40
0.0
 40
0.0
 40
0.027818722962451
 40
0.1011590162384269
 40
0.2048470170590239
 40
0.3237088716559245
 40
0.4425707262522
 40
0.5462587270699547
 40
0.6195990203311798
 40
0.647417752257866
 40
0.6750060736115224
 40
0.7357003855242741
 40
0.7963946998054474
 40
0.8239830245571766
 40
0.854093381110286
 40
0.937339662940954
 40
1.063094687343235
 40
1.220731268638073
 40
1.399622220914748
 40
1.589140358637732
 40
1.778658496423898
 40
1.957549448940509
 40
2.115186030873159
 40
2.240941056914463
 40
2.324187341760532
 40
2.354297700109382
 40
2.38188602467189
 40
2.442580338710477
 40
2.503274652750499
 40
2.530862977314606
 40
2.560983949278559
 40
2.640393784452905
 40
2.752662861759128
 40
2.881361560118145
 40
3.010060258455192
 40
3.122329335705339
 40
3.201739170817953
 40
3.231860142753313
 40
3.26429802403037
 40
3.352343701778239
 40
3.482095226868764
 40
3.639650650173025
 40
3.811108022565478
 40
3.982565394927984
 40
4.140120818152567
 40
4.269872343141276
 40
4.357918020802338
 40
4.390355902043965
 40
4.423256253992535
 40
4.508104530073056
 40
4.624121560636824
 40
4.750528176031581
 40
4.866545206602027
 40
4.951393482691985
 40
4.984293834645386
 40
5.011450833242301
 40
5.071196230152087
 40
5.130941627057163
 40
5.158098625648829
 40
5.190998977601519
 40
5.275847253689345
 40
5.391864284256779
 40
5.518270899648324
 40
5.634287930209363
 40
5.719136206288037
 40
5.752036558235925
 40
5.782130946282948
 40
5.862783906229121
 40
5.979550131774992
 40
6.117984316640395
 40
6.263641154587943
 40
6.402075339414146
 40
6.518841564907944
 40
6.599494524815525
 40
6.629588912848763
 40
6.65440302822634
 40
6.713575149488107
 40
6.784199939329424
 40
6.843372060493526
 40
6.868186175802772
 40
6.896246243201852
 40
6.939586233758249
 40
6.96784656456488
 40
7.043584251089815
 40
7.153234334451671
 40
7.283231855734421
 40
7.420011856035458
 40
7.550009376579807
 40
7.659659458835208
 40
7.735397144417201
 40
7.763657474851373
 40
7.79640972801103
 40
7.880876065096304
 40
7.99637085246569
 40
8.122208446418584
 40
8.237703224799178
 40
8.322169562010872
 40
8.354921815205886
 40
8.382078813307666
 40
8.441824209206974
 40
8.501569605240123
 40
8.528726603485701
 40
8.56147885669575
 40
8.6459451938778
 40
8.761439980865312
 40
8.887277580764454
 40
9.002772362000975
 40
9.087238696661196
 40
9.11999094923565
 40
9.15242883061335
 40
9.240474508638565
 40
9.370226034149516
 40
9.527781457984398
 40
9.699238830981386
 40
9.870696203978577
 40
10.028251627814
 40
10.15800315332561
 40
10.24604883135116
 40
10.27848670378519
 40
10.27848670378519
 40
10.27848670378519
 40
10.27848670378519
 10
195.3821827564383
 20
14.34424901394499
 10
195.3914554737523
 20
14.34424882520016
 10
195.4251744536861
 20
14.34424814885456
 10
195.4934706812465
 20
14.34426191252047
 10
195.592014171158
 20
14.34417608228287
 10
195.7062066464812
 20
14.34456139620992
 10
195.818589441707
 20
14.34315219906287
 10
195.9214376600118
 20
14.34733501430985
 10
195.9806839874849
 20
14.33837473260724
 10
196.0371265937033
 20
14.35178818534803
 10
196.0246255586955
 20
14.30101582622103
 10
196.0329549635703
 20
14.25603704947809
 10
196.024817084112
 20
14.2107113699923
 10
196.0370529214457
 20
14.15946316417208
 10
195.9747773490333
 20
14.17462339374018
 10
195.9060513026868
 20
14.16374134719485
 10
195.7782756749592
 20
14.16925688756714
 10
195.6262984511643
 20
14.1671523526244
 10
195.4502695972523
 20
14.16785386597215
 10
195.2644431934287
 20
14.16759621540034
 10
195.0786167437175
 20
14.16785389153345
 10
194.9025880142168
 20
14.16715225856473
 10
194.7506104154195
 20
14.16925716238731
 10
194.6228357664554
 20
14.16374064776382
 10
194.5541077836581
 20
14.17462461134684
 10
194.4918349042883
 20
14.15946170692951
 10
194.5040616290017
 20
14.21071894813914
 10
194.4960004462597
 20
14.25596857281167
 10
194.5040675809892
 20
14.30120741964065
 10
194.4918238487083
 20
14.352485609187
 10
194.5525017120697
 20
14.33763961371877
 10
194.6162810745736
 20
14.34770832179477
 10
194.7277314353502
 20
14.34309028220741
 10
194.8497533443824
 20
14.34427712914211
 10
194.9719538137823
 20
14.34530247909377
 10
195.0829794287392
 20
14.34106859632143
 10
195.1476517413958
 20
14.35032968530481
 10
195.2091162810501
 20
14.33618807058424
 10
195.1930065601337
 20
14.40249911893259
 10
195.2042980327358
 20
14.47462174130717
 10
195.1987400822561
 20
14.60528144897028
 10
195.200803506169
 20
14.75621707716983
 10
195.2000167127295
 20
14.92350257116628
 10
195.2007845215627
 20
15.09075494341044
 10
195.1988038785628
 20
15.24177673278656
 10
195.2041306156621
 20
15.37220453561737
 10
195.1933101388425
 20
15.44479826614641
 10
195.2090326429875
 20
15.5116485344554
 10
195.143270813249
 20
15.49594896499567
 10
195.0756367830763
 20
15.50623627092737
 10
194.9615885293809
 20
15.50128170855864
 10
194.8451242674902
 20
15.50428512039216
 10
194.7306554121477
 20
15.49894687152131
 10
194.6640324657812
 20
15.51015652083567
 10
194.5990769715186
 20
15.49363516673753
 10
194.6107989758707
 20
15.54488104485801
 10
194.6032830189121
 20
15.58964717792833
 10
194.6107989878835
 20
15.63441328906703
 10
194.5990769505346
 20
15.68565920138483
 10
194.66403263392
 20
15.66913765775557
 10
194.7306533339821
 20
15.68034955382686
 10
194.8451352858063
 20
15.67499820719406
 10
194.9615454436962
 20
15.6780557277986
 10
195.0757660174641
 20
15.67292883019449
 10
195.1430150439227
 20
15.6836011736434
 10
195.2083325941438
 20
15.66756466677819
 10
195.1941391448553
 20
15.72964069758796
 10
195.2036059462995
 20
15.79601145637504
 10
195.1990269004085
 20
15.91254356750708
 10
195.2007696555948
 20
16.04441069031117
 10
195.1997551495392
 20
16.18630344159016
 10
195.2017191344372
 20
16.31783434711322
 10
195.1964668553851
 20
16.43538961291743
 10
195.2073408763476
 20
16.49962173010326
 10
195.1919536641853
 20
16.56123186553788
 10
195.24075915378
 20
16.54716791390852
 10
195.2853995564726
 20
16.54969126084056
 10
195.3538643946742
 20
16.54527181410452
 10
195.3959106169102
 20
16.53627409552776
 10
195.4487544758775
 20
16.54426098875253
 10
195.4207035002013
 20
16.50128301620415
 10
195.3749142248595
 20
16.51273936052579
 10
195.3869539073264
 20
16.45187904013878
 10
195.3796086070641
 20
16.38783683477515
 10
195.3831195826162
 20
16.27923752872653
 10
195.3819806760173
 20
16.15508703153495
 10
195.3819174780263
 20
16.0220410383862
 10
195.3832872966868
 20
15.89811765258297
 10
195.3791638801314
 20
15.78882721858081
 10
195.3877763103563
 20
15.72622964102911
 10
195.3746757454402
 20
15.66754517305107
 10
195.4393884328198
 20
15.68376497819644
 10
195.5060405953156
 20
15.67284644392054
 10
195.6198779541102
 20
15.67808124182497
 10
195.7357259122097
 20
15.67499931525656
 10
195.849692426328
 20
15.68032643821254
 10
195.91603410181
 20
15.66918592175285
 10
195.9807188525479
 20
15.6856136360192
 10
195.9689820772723
 20
15.63440309218793
 10
195.976516806304
 20
15.58964718129742
 10
195.9689820992258
 20
15.54489123018769
 10
195.9807188140736
 20
15.49368074879782
 10
195.9160344075252
 20
15.51010811802962
 10
195.8496886430824
 20
15.49897168456011
 10
195.7357459487012
 20
15.50427499901862
 10
195.6197995623054
 20
15.50129148602285
 10
195.5062756882122
 20
15.50621276277135
 10
195.4389231318804
 20
15.49599471522261
 10
195.3734285122495
 20
15.51160380147557
 10
195.3891713619218
 20
15.44478235836153
 10
195.3783275998212
 20
15.3722144182462
 10
195.3836581629793
 20
15.24176631623158
 10
195.3817136151855
 20
15.09078942193968
 10
195.3823133683214
 20
14.923366279429
 10
195.3821506559605
 20
14.75670560127113
 10
195.3821895488135
 20
14.60374526930378
 10
195.38218164131
 20
14.47863562994447
 10
195.3821828382744
 20
14.39522275000161
 10
195.3821827716208
 20
14.35506162290718
 10
195.3821827564383
 20
14.34424901394499
 97
        1
330
B1
 75
     1
 76
     2
 52
45.0
 41
0.1
 77
     0
 78
     1
 53
45.0
 43
0.0
 44
0.0
 45
-0.282842712474619
 46
0.0
 79
     0
 98
        1
 10
0.0
 20
0.0
  0
HATCH
  5
CF
330
48
100
AcDbEntity
  8
1
  6
Continuous
 62
     2
100
AcDbHatch
 10
0.0
 20
0.0
 30
0.0
210
0.0
220
0.0
230
1.0
  2
CUSTOM13
 70
     0
 71
     1
 91
        1
 92
        1
 93
        3
 72
     4
 94
        3
 73
     0
 74
     0
 95
       24
 96
       20
 40
0.0
 40
0.0
 40
0.0
 40
0.0
 40
0.2211075008753903
 40
0.4273218586245351
 40
0.5080174679239361
 40
0.5914835907870241
 40
0.814326569019274
 40
1.054651302686588
 40
1.295452694023173
 40
1.518109231328828
 40
1.540864321905444
 40
1.595126460622705
 40
1.659890947896018
 40
1.714153085187377
 40
1.736908174961677
 40
1.764951100735364
 40
1.801562291220953
 40
1.953914424543634
 40
2.126104167379719
 40
2.126104167379719
 40
2.126104167379719
 40
2.126104167379719
 10
185.9375369556889
 20
15.92003679121758
 10
185.9112579081811
 20
15.86112012243115
 10
185.8604698894426
 20
15.74725523687999
 10
185.813178483911
 20
15.47456342241857
 10
185.7043482802619
 20
15.57459866584197
 10
185.5514800279636
 20
15.60132977376072
 10
185.7686155181199
 20
15.81532519026374
 10
185.7838483674381
 20
16.03346501791229
 10
185.8906889492
 20
16.21465963075167
 10
185.8305380947078
 20
16.49927610320145
 10
185.9334317395402
 20
16.47128473231192
 10
185.977993346815
 20
16.46257635611042
 10
186.0380842395397
 20
16.45154038192097
 10
186.0756619587438
 20
16.43781907064301
 10
186.1252466928606
 20
16.43770460168965
 10
186.0930158919325
 20
16.40320976407365
 10
186.0171802221881
 20
16.41418488546705
 10
186.0429447159694
 20
16.22873353591191
 10
186.0055896763849
 20
16.1371669755833
 10
185.9857704961609
 20
16.08858519406446
 72
     4
 94
        3
 73
     0
 74
     0
 95
       70
 96
       66
 40
0.0
 40
0.0
 40
0.0
 40
0.0
 40
0.0241731073021472
 40
0.0846058988987013
 40
0.1631685280353284
 40
0.2417311571789756
 40
0.3021639488292751
 40
0.3263370654895541
 40
0.3533118254248899
 40
0.4228783438922129
 40
0.5179999095313456
 40
0.6216398239466173
 40
0.7167613891499777
 40
0.786327906964997
 40
0.8133026791761943
 40
0.837294399877178
 40
0.8945054261372976
 40
0.9627895541962745
 40
1.020000580349085
 40
1.043992300975183
 40
1.071934345522916
 40
1.113121768772928
 40
1.145225199332252
 40
1.225483775412791
 40
1.329819923771502
 40
1.434156071994394
 40
1.514414647795817
 40
1.546518078208425
 40
1.578974764260199
 40
1.662678849314194
 40
1.777131373668414
 40
1.901833377474805
 40
2.016285900500595
 40
2.099989982527962
 40
2.132446666570321
 40
2.158782354486039
 40
2.216720867907831
 40
2.274659381334249
 40
2.300995069256182
 40
2.333451754066154
 40
2.417155836543834
 40
2.531608358985274
 40
2.656310362283769
 40
2.770762886388901
 40
2.854466971340067
 40
2.886923657363873
 40
2.913597976833307
 40
2.982389642875107
 40
3.076451716946975
 40
3.178937260458591
 40
3.272999334739993
 40
3.341791001059216
 40
3.368465320663528
 40
3.396976080738749
 40
3.472140811845986
 40
3.578408190308675
 40
3.700226892456111
 40
3.822045594634329
 40
3.928312973256435
 40
4.003477705314832
 40
4.031988456866898
 40
4.058324144797698
 40
4.116262658236856
 40
4.174201171400657
 40
4.200536849608589
 40
4.200536849608589
 40
4.200536849608589
 40
4.200536849608589
 10
185.9857704961609
 20
16.08858519406446
 10
185.9938259544679
 20
16.08858743820428
 10
186.0220200663241
 20
16.08859530041538
 10
186.0765534803672
 20
16.08845138837113
 10
186.1482891808604
 20
16.08923504508638
 10
186.2236240137062
 20
16.08641954472552
 10
186.2713052366439
 20
16.09312787409699
 10
186.3195071245616
 20
16.08211947701173
 10
186.3062571799873
 20
16.13560787005774
 10
186.3151093964538
 20
16.19063967551832
 10
186.3108698036286
 20
16.28434292734851
 10
186.313348348128
 20
16.37973866227274
 10
186.309093870606
 20
16.47371205992129
 10
186.3179818665846
 20
16.52809446446754
 10
186.3046977409945
 20
16.58248381700203
 10
186.3514119277108
 20
16.568566003441
 10
186.3943254545736
 20
16.57118261382785
 10
186.4605443456685
 20
16.56662806459497
 10
186.5013342271798
 20
16.55792546142903
 10
186.5525145690819
 20
16.56546183898937
 10
186.5253720487201
 20
16.52364354232027
 10
186.4803096055707
 20
16.53299376081338
 10
186.4942065045051
 20
16.46855591380579
 10
186.4858414431653
 20
16.4039260363614
 10
186.4903632178399
 20
16.30543525202629
 10
186.4854741311167
 20
16.20610316851311
 10
186.4950258992081
 20
16.1430749956171
 10
186.47997614552
 20
16.07978395508529
 10
186.5449159457209
 20
16.09529456953011
 10
186.6116246399496
 20
16.08513771706552
 10
186.7241435470828
 20
16.09003184108108
 10
186.8390235448953
 20
16.08705588741525
 10
186.9519871999747
 20
16.09236048193733
 10
187.0176267597677
 20
16.08121690480829
 10
187.0816276691053
 20
16.09758916328598
 10
187.0703142889189
 20
16.04776073914016
 10
187.077533987151
 20
16.00431099220864
 10
187.070314261127
 20
15.96086129596186
 10
187.0816277175994
 20
15.91103279205618
 10
187.0176263598972
 20
15.92740550100104
 10
186.9519921240459
 20
15.9162565567033
 10
186.838997431733
 20
15.92159241215596
 10
186.7242456548644
 20
15.91848729672564
 10
186.611318368686
 20
15.9237927869133
 10
186.5455220903585
 20
15.91271684028335
 10
186.4816097975358
 20
15.9290198185636
 10
186.4936015165125
 20
15.87437908404483
 10
186.4862104613005
 20
15.81868679056584
 10
186.4892684841984
 20
15.72664073149312
 10
186.4893422785683
 20
15.63193493881843
 10
186.486031357836
 20
15.53967166911007
 10
186.4939505989903
 20
15.48450152744881
 10
186.4815076611618
 20
15.43072553108878
 10
186.5389116551631
 20
15.44468152871523
 10
186.5994708140383
 20
15.43525841892968
 10
186.7048680855081
 20
15.43957269937446
 10
186.8204294070622
 20
15.43849888620773
 10
186.9359688877797
 20
15.43740349909737
 10
187.0414181130841
 20
15.44176909779374
 10
187.1018680471805
 20
15.43223810039413
 10
187.159283773911
 20
15.44631673615121
 10
187.1477773876709
 20
15.39721537274424
 10
187.1537566781749
 20
15.35579042027391
 10
187.1520311050801
 20
15.30666061975437
 10
187.1521500122971
 20
15.2786881245635
 10
187.1521871691833
 20
15.26994672204692
 72
     4
 94
        3
 73
     0
 74
     0
 95
       62
 96
       58
 40
0.0
 40
0.0
 40
0.0
 40
0.0
 40
0.0598250028308485
 40
0.2024846486897331
 40
0.3727558389221031
 40
0.515415484793607
 40
0.5752404975785339
 40
0.9332326775487246
 40
1.290451762839476
 40
1.602077253145876
 40
1.699931634112129
 40
1.799359756425048
 40
2.270120149657087
 40
2.804661928461548
 40
2.882342287383259
 40
3.076543185719109
 40
3.329004354835573
 40
3.5814655245684
 40
3.775666424543684
 40
3.853346784558304
 40
3.899120679595049
 40
3.984129341792047
 40
4.029903236817396
 40
4.105797496059551
 40
4.29553314415251
 40
4.542189486611753
 40
4.788845828875702
 40
4.978581476410086
 40
5.054475735244329
 40
5.621734664339344
 40
6.130867242037357
 40
6.225249780948602
 40
6.318913039727295
 40
6.663579954558916
 40
7.047498900224768
 40
7.4352307915757
 40
7.498943906668112
 40
7.650875181210106
 40
7.832212509001616
 40
7.984143783697002
 40
8.04785689890313
 40
8.091554632732636
 40
8.172707566964291
 40
8.216405300768015
 40
8.2890217821609
 40
8.462184160757273
 40
8.668861838005354
 40
8.842024215263946
 40
8.914640695475141
 40
8.989881580861345
 40
9.155411528827255
 40
9.320941477744038
 40
9.39618235248729
 40
9.454709011143837
 40
9.583467660170772
 40
9.712226309013051
 40
9.770752957989504
 40
9.770752957989504
 40
9.770752957989504
 40
9.770752957989504
 10
187.1521871691833
 20
15.26994672204692
 10
187.1322348171623
 20
15.26995259577414
 10
187.0647037716466
 20
15.269972478149
 10
186.9410612161788
 20
15.26963746529067
 10
186.7863180150056
 20
15.27122057759254
 10
186.6697349482479
 20
15.26700462869237
 10
186.4550942634241
 20
15.28229589340368
 10
186.8518948407228
 20
14.92213105294934
 10
186.8945656069268
 20
14.70524887405909
 10
187.3189162146611
 20
14.52339446520187
 10
187.1439821496074
 20
14.41999580576815
 10
187.0194523925083
 20
14.20845907221465
 10
186.7666277235944
 20
14.67820465010305
 10
186.4797602893626
 20
15.32525900993264
 10
186.490633592666
 20
15.01797056163436
 10
186.488289277796
 20
14.85303000980521
 10
186.4861096126411
 20
14.61894054720436
 10
186.4980774396345
 20
14.37512456430525
 10
186.4687984740631
 20
14.22870180869727
 10
186.511452262547
 20
14.0812787418328
 10
186.4239814005639
 20
14.09700181314962
 10
186.3768527606744
 20
14.09708687552197
 10
186.2898973207713
 20
14.08123809491651
 10
186.3313474021722
 20
14.22542155431505
 10
186.3029875004285
 20
14.36869436707197
 10
186.3145973775299
 20
14.60689331374006
 10
186.3124175648272
 20
14.83531619249088
 10
186.3103111127994
 20
14.99720113384737
 10
186.3208035438323
 20
15.31168093342493
 10
186.0128963252893
 20
14.62243854881178
 10
185.7055258267456
 20
14.14491134251795
 10
185.5851367066274
 20
14.36755496646168
 10
185.4074607910722
 20
14.48025418964309
 10
185.8853326362894
 20
14.65562527474202
 10
185.9353959057208
 20
14.89106313260773
 10
186.3583799621716
 20
15.28337373353347
 10
186.127675427354
 20
15.26669691037808
 10
186.004968585934
 20
15.27283902957512
 10
185.8325483095662
 20
15.26327206708315
 10
185.7213224694449
 20
15.28463202498408
 10
185.6025779627448
 20
15.25150649366162
 10
185.6183169706686
 20
15.33218284615626
 10
185.6178550933762
 20
15.37659798299596
 10
185.6027881889931
 20
15.45981465787275
 10
185.7372380935444
 20
15.42077035992625
 10
185.8619755545746
 20
15.44754113337164
 10
186.062875523728
 20
15.43078333052794
 10
186.1921540949352
 20
15.45218609921745
 10
186.3328419928295
 20
15.41883162862163
 10
186.2980927452614
 20
15.55666259793809
 10
186.3222185666713
 20
15.67977641358223
 10
186.2967086182391
 20
15.80038439679077
 10
186.3333251146685
 20
15.93554249150237
 10
186.2211417027769
 20
15.91108929790633
 10
186.1280356457136
 20
15.92322133850764
 10
186.0191547579819
 20
15.91972014078736
 10
185.9569697640964
 20
15.91996139960345
 10
185.9375369557246
 20
15.92003679132886
 97
        3
330
B3
330
B4
330
B2
 75
     1
 76
     2
 52
45.0
 41
0.1
 77
     0
 78
     1
 53
45.0
 43
0.0
 44
0.0
 45
-0.282842712474619
 46
0.0
 79
     0
 98
        1
 10
0.0
 20
0.0
  0
HATCH
  5
D0
330
48
100
AcDbEntity
  8
1
  6
Continuous
 62
     2
100
AcDbHatch
 10
0.0
 20
0.0
 30
0.0
210
0.0
220
0.0
230
1.0
  2
CUSTOM14
 70
     0
 71
     1
 91
        1
 92
        1
 93
        4
 72
     1
 10
192.4578138032672
 20
15.55889818030799
 11
191.1602971697031
 21
15.55889818030799
 72
     1
 10
191.1602971697031
 20
15.55889818030799
 11
191.1602971697031
 21
15.72736720804367
 72
     1
 10
191.1602971697031
 20
15.72736720804367
 11
192.4578138032672
 21
15.72736720804367
 72
     1
 10
192.4578138032672
 20
15.72736720804367
 11
192.4578138032672
 21
15.55889818030799
 97
        1
330
B5
 75
     1
 76
     2
 52
45.0
 41
0.1
 77
     0
 78
     1
 53
45.0
 43
0.0
 44
0.0
 45
-0.282842712474619
 46
0.0
 79
     0
 98
        1
 10
0.0
 20
0.0
  0
ENDBLK
  5
4A
330
48
100
AcDbEntity
  8
0
100
AcDbBlockEnd
  0
BLOCK
  5
4D
330
4B
100
AcDbEntity
  8
0
100
AcDbBlockBegin
  2
開示A4枠
 70
     0
 10
0.0
 20
0.33014384008742
 30
0.0
  3
開示A4枠
  1

  0
INSERT
  5
4C
330
4B
100
AcDbEntity
  8
1
100
AcDbBlockReference
  2
開示A4
 10
0.0
 20
0.33014384008742
 30
0.0
  0
ENDBLK
  5
4E
330
4B
100
AcDbEntity
  8
0
100
AcDbBlockEnd
  0
BLOCK
  5
50
330
4F
100
AcDbEntity
  8
0
100
AcDbBlockBegin
  2
92-28
 70
     0
 10
103.4222658946814
 20
104.4768574078406
 30
0.0
  3
92-28
  1

  0
LINE
  5
D1
330
4F
100
AcDbEntity
  8
1
  6
Continuous
 62
     7
100
AcDbLine
 10
100.75
 20
127.7249997480912
 30
0.0
 11
112.5
 21
127.7249997480912
 31
0.0
  0
LINE
  5
D2
330
4F
100
AcDbEntity
  8
1
  6
Continuous
 62
     7
100
AcDbLine
 10
100.75
 20
124.7249997480912
 30
0.0
 11
100.75
 21
127.7249997480912
 31
0.0
  0
LINE
  5
D3
330
4F
100
AcDbEntity
  8
1
  6
Continuous
 62
     7
100
AcDbLine
 10
112.5
 20
124.7249997480912
 30
0.0
 11
100.75
 21
124.7249997480912
 31
0.0
  0
LINE
  5
D4
330
4F
100
AcDbEntity
  8
1
  6
Continuous
 62
     7
100
AcDbLine
 10
119.5
 20
127.7249997480912
 30
0.0
 11
124.25
 21
127.7249997480912
 31
0.0
  0
LINE
  5
D5
330
4F
100
AcDbEntity
  8
1
  6
Continuous
 62
     7
100
AcDbLine
 10
119.5
 20
124.7249997480912
 30
0.0
 11
112.5
 21
124.7249997480912
 31
0.0
  0
LINE
  5
D6
330
4F
100
AcDbEntity
  8
1
  6
Continuous
 62
     7
100
AcDbLine
 10
124.25
 20
124.7249997480912
 30
0.0
 11
119.5
 21
124.7249997480912
 31
0.0
  0
LINE
  5
D7
330
4F
100
AcDbEntity
  8
1
  6
Continuous
 62
     7
100
AcDbLine
 10
124.25
 20
127.7249997480912
 30
0.0
 11
124.25
 21
124.7249997480912
 31
0.0
  0
LINE
  5
D8
330
4F
100
AcDbEntity
  8
1
  6
Continuous
 62
     7
100
AcDbLine
 10
112.5
 20
127.7249997480912
 30
0.0
 11
119.5
 21
127.7249997480912
 31
0.0
  0
CIRCLE
  5
D9
330
4F
100
AcDbEntity
  8
1
  6
Continuous
 62
     7
100
AcDbCircle
 10
112.5
 20
181.0943217343335
 30
0.0
 40
11.75
  0
CIRCLE
  5
DA
330
4F
100
AcDbEntity
  8
1
  6
Continuous
 62
     7
100
AcDbCircle
 10
112.5
 20
181.0943217343335
 30
0.0
 40
7.0
  0
ENDBLK
  5
51
330
4F
100
AcDbEntity
  8
0
100
AcDbBlockEnd
  0
BLOCK
  5
F7
330
F0
100
AcDbEntity
  8
0
100
AcDbBlockBegin
  2
*D4
 70
     1
 10
0.0
 20
0.0
 30
0.0
  3
*D4
  1

  0
LINE
  5
F1
330
F0
100
AcDbEntity
  8
1
  6
Continuous
 62
     2
100
AcDbLine
 10
124.25
 20
137.7249997480912
 30
0.0
 11
100.75
 21
137.7249997480912
 31
0.0
  0
LINE
  5
F2
330
F0
100
AcDbEntity
  8
1
  6
Continuous
 62
     2
100
AcDbLine
 10
124.25
 20
127.7249997480912
 30
0.0
 11
124.25
 21
138.7249997480912
 31
0.0
  0
LINE
  5
F3
330
F0
100
AcDbEntity
  8
1
  6
Continuous
 62
     2
100
AcDbLine
 10
100.75
 20
127.7249997480912
 30
0.0
 11
100.75
 21
138.7249997480912
 31
0.0
  0
SOLID
  5
F4
330
F0
100
AcDbEntity
  8
1
 62
     2
100
AcDbTrace
 10
120.75
 20
137.2642160065353
 30
0.0
 11
120.75
 21
138.1857834896471
 31
0.0
 12
124.25
 22
137.7249997480912
 32
0.0
 13
124.25
 23
137.7249997480912
 33
0.0
  0
SOLID
  5
F5
330
F0
100
AcDbEntity
  8
1
 62
     2
100
AcDbTrace
 10
104.25
 20
138.1857834896471
 30
0.0
 11
104.25
 21
137.2642160065353
 31
0.0
 12
100.75
 22
137.7249997480912
 32
0.0
 13
100.75
 23
137.7249997480912
 33
0.0
  0
MTEXT
  5
F6
330
F0
100
AcDbEntity
  8
1
 62
     7
100
AcDbMText
 10
106.9175000000084
 20
139.0749927910149
 30
0.0
 40
3.5
 41
0.0
 71
     7
 72
     1
  1
\C7;{\Fgdt;n}\C7;23,5
  7
CONVERTER_12
 11
0.9999999999970619
 21
2.424068405545306E-6
 31
0.0
 73
     1
 44
0.60024009603842
  0
ENDBLK
  5
F8
330
F0
100
AcDbEntity
  8
0
100
AcDbBlockEnd
  0
BLOCK
  5
104
330
FB
100
AcDbEntity
  8
0
100
AcDbBlockBegin
  2
*D5
 70
     1
 10
0.0
 20
0.0
 30
0.0
  3
*D5
  1

  0
LINE
  5
FC
330
FB
100
AcDbEntity
  8
0
  6
Continuous
 62
     2
100
AcDbLine
 10
90.25
 20
134.7249997480911
 30
0.0
 11
90.25
 21
127.7249997480912
 31
0.0
  0
LINE
  5
FD
330
FB
100
AcDbEntity
  8
0
  6
Continuous
 62
     2
100
AcDbLine
 10
90.25
 20
127.7249997480912
 30
0.0
 11
90.25
 21
124.7249997480912
 31
0.0
  0
LINE
  5
FE
330
FB
100
AcDbEntity
  8
0
  6
Continuous
 62
     2
100
AcDbLine
 10
90.25
 20
124.7249997480912
 30
0.0
 11
90.25
 21
117.7249997480912
 31
0.0
  0
LINE
  5
FF
330
FB
100
AcDbEntity
  8
0
  6
Continuous
 62
     2
100
AcDbLine
 10
100.75
 20
127.7249997480912
 30
0.0
 11
89.25
 21
127.7249997480912
 31
0.0
  0
LINE
  5
100
330
FB
100
AcDbEntity
  8
0
  6
Continuous
 62
     2
100
AcDbLine
 10
100.75
 20
124.7249997480912
 30
0.0
 11
89.25
 21
124.7249997480912
 31
0.0
  0
SOLID
  5
101
330
FB
100
AcDbEntity
  8
0
 62
     2
100
AcDbTrace
 10
89.78921625844411
 20
131.2249997480911
 30
0.0
 11
90.71078374155589
 21
131.2249997480911
 31
0.0
 12
90.25
 22
127.7249997480912
 32
0.0
 13
90.25
 23
127.7249997480912
 33
0.0
  0
SOLID
  5
102
330
FB
100
AcDbEntity
  8
0
 62
     2
100
AcDbTrace
 10
90.71078374155589
 20
121.2249997480912
 30
0.0
 11
89.78921625844411
 21
121.2249997480912
 31
0.0
 12
90.25
 22
124.7249997480912
 32
0.0
 13
90.25
 23
124.7249997480912
 33
0.0
  0
MTEXT
  5
103
330
FB
100
AcDbEntity
  8
0
 62
     7
100
AcDbMText
 10
89.25
 20
125.2530645508656
 30
0.0
 40
3.5
 41
0.0
 71
     7
 72
     1
  1
3
  7
CONVERTER_12
 11
0.0
 21
1.0
 31
0.0
 73
     1
 44
0.60024009603842
  0
ENDBLK
  5
105
330
FB
100
AcDbEntity
  8
0
100
AcDbBlockEnd
  0
BLOCK
  5
10D
330
108
100
AcDbEntity
  8
0
100
AcDbBlockBegin
  2
*D6
 70
     1
 10
0.0
 20
0.0
 30
0.0
  3
*D6
  1

  0
LINE
  5
109
330
108
100
AcDbEntity
  8
1
  6
Continuous
 62
     2
100
AcDbLine
 10
121.1813827511473
 20
189.737011913212
 30
0.0
 11
96.53073215953056
 21
165.1962282756081
 31
0.0
  0
SOLID
  5
10A
330
108
100
AcDbEntity
  8
1
 62
     2
100
AcDbTrace
 10
105.3839095698519
 20
173.3597513748089
 30
0.0
 11
104.7337199996099
 21
174.0128517872093
 31
0.0
 12
107.5392098564873
 22
176.1556416321172
 32
0.0
 13
107.5392098564873
 23
176.1556416321172
 33
0.0
  0
SOLID
  5
10B
330
108
100
AcDbEntity
  8
1
 62
     2
100
AcDbTrace
 10
119.6160904301481
 20
188.8288920938581
 30
0.0
 11
120.2662800003901
 21
188.1757916814577
 31
0.0
 12
117.4607901435127
 22
186.0330018365498
 32
0.0
 13
117.4607901435127
 23
186.0330018365498
 33
0.0
  0
MTEXT
  5
10C
330
108
100
AcDbEntity
  8
1
 62
     7
100
AcDbMText
 10
96.76775655790992
 20
166.8432618012454
 30
0.0
 40
3.5
 41
0.0
 71
     7
 72
     1
  1
\C7;{\Fgdt;n}\C7;14
  7
CONVERTER_12
 11
0.7086843062161031
 21
0.7055257288880403
 31
0.0
 73
     1
 44
0.60024009603842
  0
ENDBLK
  5
10E
330
108
100
AcDbEntity
  8
0
100
AcDbBlockEnd
  0
ENDSEC
  0
SECTION
  2
ENTITIES
  0
INSERT
  5
52
330
1F
100
AcDbEntity
  8
0
100
AcDbBlockReference
  2
開示A4枠
 10
0.0
 20
0.33014384008742
 30
0.0
  0
INSERT
  5
53
330
1F
100
AcDbEntity
  8
0
100
AcDbBlockReference
  2
92-28
 10
103.4222658946814
 20
104.4768574078406
 30
0.0
  0
LINE
  5
DB
330
1F
100
AcDbEntity
  8
1
  6
DASH_CENTER
 62
     2
100
AcDbLine
 10
112.5
 20
121.7249997480912
 30
0.0
 11
112.5
 21
130.7249997480912
 31
0.0
  0
LINE
  5
DC
330
1F
100
AcDbEntity
  8
1
  6
DASH_CENTER
 62
     2
100
AcDbLine
 10
97.61040049140047
 20
181.0943217343335
 30
0.0
 11
127.1104004914005
 21
181.0943217343335
 31
0.0
  0
LINE
  5
DD
330
1F
100
AcDbEntity
  8
1
  6
DASH_CENTER
 62
     2
100
AcDbLine
 10
112.5
 20
195.7689021668871
 30
0.0
 11
112.5
 21
166.3763246700576
 31
0.0
  0
MTEXT
  5
DE
330
1F
100
AcDbEntity
  8
1
 62
     7
100
AcDbMText
 10
34.0
 20
34.33014384008742
 30
0.0
 40
3.5
 41
0.0
 71
     4
 72
     1
  1
2個入
  7
CONVERTER_11
 73
     1
 44
0.54545454545455
  0
MTEXT
  5
E0
330
1F
100
AcDbEntity
  8
1
 62
     7
100
AcDbMText
 10
151.75
 20
12.83014384008742
 30
0.0
 40
2.5
 41
0.0
 71
     5
 72
     1
  1
20
  7
CONVERTER_12
 73
     1
 44
0.7202881152461
  0
MTEXT
  5
E1
330
1F
100
AcDbEntity
  8
1
 62
     7
100
AcDbMText
 10
163.25
 20
12.83014384008742
 30
0.0
 40
2.5
 41
0.0
 71
     5
 72
     1
  1
14
  7
CONVERTER_12
 73
     1
 44
0.7202881152461
  0
MTEXT
  5
E2
330
1F
100
AcDbEntity
  8
1
 62
     7
100
AcDbMText
 10
157.5
 20
12.83014384008742
 30
0.0
 40
2.5
 41
0.0
 71
     5
 72
     1
  1
5
  7
CONVERTER_12
 73
     1
 44
0.7202881152461
  0
MTEXT
  5
E3
330
1F
100
AcDbEntity
  8
1
 62
     7
100
AcDbMText
 10
57.0
 20
23.08014384008743
 30
0.0
 40
3.5
 41
0.0
 71
     5
 72
     1
  1
偏心管パッキン
  7
CONVERTER_11
 73
     1
 44
0.54545454545455
  0
MTEXT
  5
E4
330
1F
100
AcDbEntity
  8
1
 62
     7
100
AcDbMText
 10
57.0
 20
14.58014384008742
 30
0.0
 40
3.5
 41
0.0
 71
     5
 72
     1
  1
P40-10S
  7
CONVERTER_12
 73
     1
 44
0.7202881152461
  0
MTEXT
  5
E5
330
1F
100
AcDbEntity
  8
1
 62
     7
100
AcDbMText
 10
93.75
 20
17.33014384008742
 30
0.0
 40
3.5
 41
0.0
 71
     5
 72
     1
  1
1
  7
CONVERTER_12
 73
     1
 44
0.7202881152461
  0
MTEXT
  5
E6
330
1F
100
AcDbEntity
  8
1
 62
     7
100
AcDbMText
 10
85.25
 20
17.33014384008742
 30
0.0
 40
3.5
 41
0.0
 71
     5
 72
     1
  1
1
  7
CONVERTER_12
 73
     1
 44
0.7202881152461
  0
MTEXT
  5
E7
330
1F
100
AcDbEntity
  8
1
 62
     7
100
AcDbMText
 10
140.5
 20
12.83014384008742
 30
0.0
 40
2.5
 41
0.0
 71
     5
 72
     1
  1
5
  7
CONVERTER_12
 73
     1
 44
0.7202881152461
  0
MTEXT
  5
E8
330
1F
100
AcDbEntity
  8
1
 62
     7
100
AcDbMText
 10
146.25
 20
12.83014384008742
 30
0.0
 40
2.5
 41
0.0
 71
     5
 72
     1
  1
14
  7
CONVERTER_12
 73
     1
 44
0.7202881152461
  0
MTEXT
  5
E9
330
1F
100
AcDbEntity
  8
1
 62
     7
100
AcDbMText
 10
134.75
 20
12.83014384008742
 30
0.0
 40
2.5
 41
0.0
 71
     5
 72
     1
  1
20
  7
CONVERTER_12
 73
     1
 44
0.7202881152461
  0
MTEXT
  5
EA
330
1F
100
AcDbEntity
  8
1
 62
     7
100
AcDbMText
 10
117.75
 20
12.83014384008742
 30
0.0
 40
2.5
 41
0.0
 71
     5
 72
     1
  1
20
  7
CONVERTER_12
 73
     1
 44
0.7202881152461
  0
MTEXT
  5
EB
330
1F
100
AcDbEntity
  8
1
 62
     7
100
AcDbMText
 10
129.25
 20
12.83014384008742
 30
0.0
 40
2.5
 41
0.0
 71
     5
 72
     1
  1
18
  7
CONVERTER_12
 73
     1
 44
0.7202881152461
  0
MTEXT
  5
EC
330
1F
100
AcDbEntity
  8
1
 62
     7
100
AcDbMText
 10
123.5
 20
12.83014384008742
 30
0.0
 40
2.5
 41
0.0
 71
     5
 72
     1
  1
5
  7
CONVERTER_12
 73
     1
 44
0.7202881152461
  0
MTEXT
  5
ED
330
1F
100
AcDbEntity
  8
1
 62
     7
100
AcDbMText
 10
106.5
 20
12.83014384008742
 30
0.0
 40
2.5
 41
0.0
 71
     5
 72
     1
  1
5
  7
CONVERTER_12
 73
     1
 44
0.7202881152461
  0
MTEXT
  5
EE
330
1F
100
AcDbEntity
  8
1
 62
     7
100
AcDbMText
 10
112.25
 20
12.83014384008742
 30
0.0
 40
2.5
 41
0.0
 71
     5
 72
     1
  1
18
  7
CONVERTER_12
 73
     1
 44
0.7202881152461
  0
MTEXT
  5
EF
330
1F
100
AcDbEntity
  8
1
 62
     7
100
AcDbMText
 10
100.75
 20
12.83014384008742
 30
0.0
 40
2.5
 41
0.0
 71
     5
 72
     1
  1
20
  7
CONVERTER_12
 73
     1
 44
0.7202881152461
  0
DIMENSION
  5
FA
330
1F
100
AcDbEntity
  8
1
100
AcDbDimension
  2
*D4
 10
124.25
 20
137.7249997480912
 30
0.0
 11
112.5
 21
140.6499997480912
 31
0.0
 70
    32
  1
<>
 71
     5
 42
-1.0
 53
0.00013888888889
  3
ME10_DIM_10
100
AcDbAlignedDimension
 13
100.75
 23
127.7249997480912
 33
0.0
 14
124.25
 24
127.7249997480912
 34
0.0
100
AcDbRotatedDimension
  0
DIMENSION
  5
107
330
1F
100
AcDbEntity
  8
0
100
AcDbDimension
  2
*D5
 10
90.25
 20
127.7249997480912
 30
0.0
 11
87.5
 21
126.3030645508656
 31
0.0
 70
    32
  1
<>
 71
     5
 42
-1.0
 53
90.0
  3
ME10_DIM_11
100
AcDbAlignedDimension
 13
100.75
 23
124.7249997480912
 33
0.0
 14
100.75
 24
127.7249997480912
 34
0.0
 50
90.0
100
AcDbRotatedDimension
  0
INSERT
  5
10F
330
1F
100
AcDbEntity
  8
1
100
AcDbBlockReference
  2
*D6
 10
0.0
 20
0.0
 30
0.0
  0
ENDSEC
  0
SECTION
  2
OBJECTS
  0
DICTIONARY
  5
C
330
0
100
AcDbDictionary
281
     1
  3
ACAD_GROUP
350
D
  3
ACAD_LAYOUT
350
1A
  3
ACAD_MATERIAL
350
3B
  3
ACAD_MLEADERSTYLE
350
112
  3
ACAD_MLINESTYLE
350
17
  3
ACAD_PLOTSETTINGS
350
19
  3
ACAD_PLOTSTYLENAME
350
E
  3
ACAD_VISUALSTYLE
350
2A
  3
AcDbVariableDictionary
350
110
  0
DICTIONARY
  5
D
102
{ACAD_REACTORS
330
C
102
}
330
C
100
AcDbDictionary
281
     1
  0
DICTIONARY
  5
1A
102
{ACAD_REACTORS
330
C
102
}
330
C
100
AcDbDictionary
281
     1
  3
Layout1
350
1E
  3
Layout2
350
26
  3
Model
350
22
  0
DICTIONARY
  5
3B
102
{ACAD_REACTORS
330
C
102
}
330
C
100
AcDbDictionary
281
     1
  3
ByBlock
350
3D
  3
ByLayer
350
3C
  3
Global
350
3E
  0
DICTIONARY
  5
112
102
{ACAD_REACTORS
330
C
102
}
330
C
100
AcDbDictionary
281
     1
  0
DICTIONARY
  5
17
102
{ACAD_REACTORS
330
C
102
}
330
C
100
AcDbDictionary
281
     1
  3
Standard
350
18
  0
DICTIONARY
  5
19
102
{ACAD_REACTORS
330
C
102
}
330
C
100
AcDbDictionary
281
     1
  0
ACDBDICTIONARYWDFLT
  5
E
102
{ACAD_REACTORS
330
C
102
}
330
C
100
AcDbDictionary
281
     1
  3
Normal
350
F
100
AcDbDictionaryWithDefault
340
F
  0
DICTIONARY
  5
2A
102
{ACAD_REACTORS
330
C
102
}
330
C
100
AcDbDictionary
281
     1
  3
2dWireframe
350
2F
  3
3D Hidden
350
31
  3
3dWireframe
350
30
  3
Basic
350
32
  3
Brighten
350
36
  3
ColorChange
350
3A
  3
Conceptual
350
34
  3
Dim
350
35
  3
Facepattern
350
39
  3
Flat
350
2B
  3
FlatWithEdges
350
2C
  3
Gouraud
350
2D
  3
GouraudWithEdges
350
2E
  3
Linepattern
350
38
  3
Realistic
350
33
  3
Thicken
350
37
  0
DICTIONARY
  5
110
102
{ACAD_REACTORS
330
C
102
}
330
C
100
AcDbDictionary
281
     1
  3
DIMASSOC
350
113
  3
HIDETEXT
350
114
  0
LAYOUT
  5
1E
102
{ACAD_REACTORS
330
1A
102
}
330
1A
100
AcDbPlotSettings
  1

  2
none_device
  4

  6

 40
0.0
 41
0.0
 42
0.0
 43
0.0
 44
0.0
 45
0.0
 46
0.0
 47
0.0
 48
0.0
 49
0.0
140
0.0
141
0.0
142
1.0
143
1.0
 70
   688
 72
     0
 73
     0
 74
     5
  7

 75
    16
147
1.0
148
0.0
149
0.0
100
AcDbLayout
  1
Layout1
 70
     1
 71
     1
 10
0.0
 20
0.0
 11
12.0
 21
9.0
 12
0.0
 22
0.0
 32
0.0
 14
1.00000000000000E+20
 24
1.00000000000000E+20
 34
1.00000000000000E+20
 15
-1.00000000000000E+20
 25
-1.00000000000000E+20
 35
-1.00000000000000E+20
146
0.0
 13
0.0
 23
0.0
 33
0.0
 16
1.0
 26
0.0
 36
0.0
 17
0.0
 27
1.0
 37
0.0
 76
     0
330
1B
  0
LAYOUT
  5
26
102
{ACAD_REACTORS
330
1A
102
}
330
1A
100
AcDbPlotSettings
  1

  2
none_device
  4

  6

 40
0.0
 41
0.0
 42
0.0
 43
0.0
 44
0.0
 45
0.0
 46
0.0
 47
0.0
 48
0.0
 49
0.0
140
0.0
141
0.0
142
1.0
143
1.0
 70
   688
 72
     0
 73
     0
 74
     5
  7

 75
    16
147
1.0
148
0.0
149
0.0
100
AcDbLayout
  1
Layout2
 70
     1
 71
     2
 10
0.0
 20
0.0
 11
0.0
 21
0.0
 12
0.0
 22
0.0
 32
0.0
 14
0.0
 24
0.0
 34
0.0
 15
0.0
 25
0.0
 35
0.0
146
0.0
 13
0.0
 23
0.0
 33
0.0
 16
1.0
 26
0.0
 36
0.0
 17
0.0
 27
1.0
 37
0.0
 76
     0
330
23
  0
LAYOUT
  5
22
102
{ACAD_REACTORS
330
1A
102
}
330
1A
100
AcDbPlotSettings
  1

  2
none_device
  4

  6

 40
0.0
 41
0.0
 42
0.0
 43
0.0
 44
0.0
 45
0.0
 46
0.0
 47
0.0
 48
0.0
 49
0.0
140
0.0
141
0.0
142
1.0
143
1.0
 70
  1712
 72
     0
 73
     0
 74
     0
  7

 75
     0
147
1.0
148
0.0
149
0.0
100
AcDbLayout
  1
Model
 70
     1
 71
     0
 10
0.0
 20
0.0
 11
12.0
 21
9.0
 12
0.0
 22
0.0
 32
0.0
 14
0.0
 24
0.33014384008742
 34
0.0
 15
210.0
 25
297.3301438400874
 35
0.0
146
0.0
 13
0.0
 23
0.0
 33
0.0
 16
1.0
 26
0.0
 36
0.0
 17
0.0
 27
1.0
 37
0.0
 76
     0
330
1F
331
29
  0
MATERIAL
  5
3D
102
{ACAD_REACTORS
330
3B
102
}
102
{ACAD_XDICTIONARY
360
137
102
}
330
3B
100
AcDbMaterial
  1
ByBlock
  0
MATERIAL
  5
3C
102
{ACAD_REACTORS
330
3B
102
}
102
{ACAD_XDICTIONARY
360
135
102
}
330
3B
100
AcDbMaterial
  1
ByLayer
  0
MATERIAL
  5
3E
102
{ACAD_REACTORS
330
3B
102
}
102
{ACAD_XDICTIONARY
360
139
102
}
330
3B
100
AcDbMaterial
  1
Global
  0
MLINESTYLE
  5
18
102
{ACAD_REACTORS
330
17
102
}
330
17
100
AcDbMlineStyle
  2
Standard
 70
     0
  3

 62
   256
 51
90.0
 52
90.0
 71
     2
 49
0.5
 62
   256
  6
BYLAYER
 49
-0.5
 62
   256
  6
BYLAYER
  0
ACDBPLACEHOLDER
  5
F
102
{ACAD_REACTORS
330
E
102
}
330
E
  0
VISUALSTYLE
  5
2F
102
{ACAD_REACTORS
330
2A
102
}
102
{ACAD_XDICTIONARY
360
11D
102
}
330
2A
100
AcDbVisualStyle
  2
2dWireframe
 70
     4
 71
     0
 72
     2
 73
     0
 90
        0
 40
-0.6
 41
-30.0
 62
     5
 63
     7
 74
     1
 91
        4
 64
     7
 65
   257
 75
     1
175
     1
 42
1.0
 92
        0
 66
   257
 43
1.0
 76
     1
 77
     6
 78
     2
 67
     7
 79
     5
170
     0
171
     0
290
     0
174
     0
 93
        1
 44
0.0
173
     0
291
     0
 45
0.0
1001
ACAD
1000
AcDbSavedByObjectVersion
1070
     0
  0
VISUALSTYLE
  5
31
102
{ACAD_REACTORS
330
2A
102
}
102
{ACAD_XDICTIONARY
360
121
102
}
330
2A
100
AcDbVisualStyle
  2
3D Hidden
 70
     6
 71
     1
 72
     2
 73
     2
 90
        0
 40
-0.6
 41
-30.0
 62
     5
 63
     7
 74
     2
 91
        2
 64
     7
 65
   257
 75
     2
175
     1
 42
40.0
 92
        0
 66
   257
 43
1.0
 76
     1
 77
     6
 78
     2
 67
     7
 79
     3
170
     0
171
     0
290
     0
174
     0
 93
        1
 44
0.0
173
     0
291
     0
 45
0.0
1001
ACAD
1000
AcDbSavedByObjectVersion
1070
     0
  0
VISUALSTYLE
  5
30
102
{ACAD_REACTORS
330
2A
102
}
102
{ACAD_XDICTIONARY
360
11F
102
}
330
2A
100
AcDbVisualStyle
  2
3dWireframe
 70
     5
 71
     0
 72
     2
 73
     0
 90
        0
 40
-0.6
 41
-30.0
 62
     5
 63
     7
 74
     1
 91
        4
 64
     7
 65
   257
 75
     1
175
     1
 42
1.0
 92
        0
 66
   257
 43
1.0
 76
     1
 77
     6
 78
     2
 67
     7
 79
     5
170
     0
171
     0
290
     0
174
     0
 93
        1
 44
0.0
173
     0
291
     0
 45
0.0
1001
ACAD
1000
AcDbSavedByObjectVersion
1070
     0
  0
VISUALSTYLE
  5
32
102
{ACAD_REACTORS
330
2A
102
}
102
{ACAD_XDICTIONARY
360
123
102
}
330
2A
100
AcDbVisualStyle
  2
Basic
 70
     7
 71
     1
 72
     0
 73
     1
 90
        0
 40
-0.6
 41
-30.0
 62
     5
 63
     7
 74
     0
 91
        4
 64
     7
 65
   257
 75
     1
175
     1
 42
1.0
 92
        8
 66
     7
 43
1.0
 76
     1
 77
     6
 78
     2
 67
     7
 79
     5
170
     0
171
     0
290
     0
174
     0
 93
        1
 44
0.0
173
     0
291
     1
 45
0.0
1001
ACAD
1000
AcDbSavedByObjectVersion
1070
     0
  0
VISUALSTYLE
  5
36
102
{ACAD_REACTORS
330
2A
102
}
102
{ACAD_XDICTIONARY
360
12B
102
}
330
2A
100
AcDbVisualStyle
  2
Brighten
 70
    12
 71
     2
 72
     2
 73
     0
 90
        0
 40
-0.6
 41
-30.0
 62
     5
 63
     7
 74
     1
 91
        4
 64
     7
 65
   257
 75
     1
175
     1
 42
1.0
 92
        8
 66
     7
 43
1.0
 76
     1
 77
     6
 78
     2
 67
     7
 79
     5
170
     0
171
     0
290
     0
174
     0
 93
        1
 44
50.0
173
     0
291
     1
 45
0.0
1001
ACAD
1000
AcDbSavedByObjectVersion
1070
     0
  0
VISUALSTYLE
  5
3A
102
{ACAD_REACTORS
330
2A
102
}
102
{ACAD_XDICTIONARY
360
133
102
}
330
2A
100
AcDbVisualStyle
  2
ColorChange
 70
    16
 71
     2
 72
     2
 73
     3
 90
        0
 40
-0.6
 41
-30.0
 62
     5
 63
     8
 74
     1
 91
        4
 64
     7
 65
   257
 75
     1
175
     1
 42
1.0
 92
        8
 66
     8
 43
1.0
 76
     1
 77
     6
 78
     2
 67
     7
 79
     5
170
     0
171
     0
290
     0
174
     0
 93
        1
 44
0.0
173
     0
291
     1
 45
0.0
1001
ACAD
1000
AcDbSavedByObjectVersion
1070
     0
  0
VISUALSTYLE
  5
34
102
{ACAD_REACTORS
330
2A
102
}
102
{ACAD_XDICTIONARY
360
127
102
}
330
2A
100
AcDbVisualStyle
  2
Conceptual
 70
     9
 71
     3
 72
     2
 73
     0
 90
        0
 40
-0.6
 41
-30.0
 62
     5
 63
     7
 74
     2
 91
        2
 64
     7
 65
   257
 75
     1
175
     1
 42
40.0
 92
        8
 66
     7
 43
1.0
 76
     1
 77
     6
 78
     2
 67
     7
 79
     3
170
     0
171
     0
290
     0
174
     0
 93
        1
 44
0.0
173
     0
291
     0
 45
0.0
1001
ACAD
1000
AcDbSavedByObjectVersion
1070
     0
  0
VISUALSTYLE
  5
35
102
{ACAD_REACTORS
330
2A
102
}
102
{ACAD_XDICTIONARY
360
129
102
}
330
2A
100
AcDbVisualStyle
  2
Dim
 70
    11
 71
     2
 72
     2
 73
     0
 90
        0
 40
-0.6
 41
-30.0
 62
     5
 63
     7
 74
     1
 91
        4
 64
     7
 65
   257
 75
     1
175
     1
 42
1.0
 92
        8
 66
     7
 43
1.0
 76
     1
 77
     6
 78
     2
 67
     7
 79
     5
170
     0
171
     0
290
     0
174
     0
 93
        1
 44
-50.0
173
     0
291
     1
 45
0.0
1001
ACAD
1000
AcDbSavedByObjectVersion
1070
     0
  0
VISUALSTYLE
  5
39
102
{ACAD_REACTORS
330
2A
102
}
102
{ACAD_XDICTIONARY
360
131
102
}
330
2A
100
AcDbVisualStyle
  2
Facepattern
 70
    15
 71
     2
 72
     2
 73
     0
 90
        0
 40
-0.6
 41
-30.0
 62
     5
 63
     7
 74
     1
 91
        4
 64
     7
 65
   257
 75
     1
175
     1
 42
1.0
 92
        8
 66
     7
 43
1.0
 76
     1
 77
     6
 78
     2
 67
     7
 79
     5
170
     0
171
     0
290
     0
174
     0
 93
        1
 44
0.0
173
     0
291
     1
 45
0.0
1001
ACAD
1000
AcDbSavedByObjectVersion
1070
     0
  0
VISUALSTYLE
  5
2B
102
{ACAD_REACTORS
330
2A
102
}
102
{ACAD_XDICTIONARY
360
115
102
}
330
2A
100
AcDbVisualStyle
  2
Flat
 70
     0
 71
     2
 72
     1
 73
     1
 90
        2
 40
-0.6
 41
30.0
 62
     5
 63
     7
 74
     0
 91
        4
 64
     7
 65
   257
 75
     1
175
     1
 42
1.0
 92
        8
 66
     7
 43
1.0
 76
     1
 77
     6
 78
     2
 67
     7
 79
     5
170
     0
171
     0
290
     0
174
     0
 93
       13
 44
0.0
173
     0
291
     1
 45
0.0
1001
ACAD
1000
AcDbSavedByObjectVersion
1070
     0
  0
VISUALSTYLE
  5
2C
102
{ACAD_REACTORS
330
2A
102
}
102
{ACAD_XDICTIONARY
360
117
102
}
330
2A
100
AcDbVisualStyle
  2
FlatWithEdges
 70
     1
 71
     2
 72
     1
 73
     1
 90
        2
 40
-0.6
 41
30.0
 62
     5
 63
     7
 74
     1
 91
        4
 64
     7
 65
   257
 75
     1
175
     1
 42
1.0
 92
        0
 66
   257
 43
1.0
 76
     1
 77
     6
 78
     2
 67
     7
 79
     5
170
     0
171
     0
290
     0
174
     0
 93
       13
 44
0.0
173
     0
291
     1
 45
0.0
1001
ACAD
1000
AcDbSavedByObjectVersion
1070
     0
  0
VISUALSTYLE
  5
2D
102
{ACAD_REACTORS
330
2A
102
}
102
{ACAD_XDICTIONARY
360
119
102
}
330
2A
100
AcDbVisualStyle
  2
Gouraud
 70
     2
 71
     2
 72
     2
 73
     1
 90
        2
 40
-0.6
 41
30.0
 62
     5
 63
     7
 74
     0
 91
        4
 64
     7
 65
   257
 75
     1
175
     1
 42
1.0
 92
        0
 66
     7
 43
1.0
 76
     1
 77
     6
 78
     2
 67
     7
 79
     5
170
     0
171
     0
290
     0
174
     0
 93
       13
 44
0.0
173
     0
291
     1
 45
0.0
1001
ACAD
1000
AcDbSavedByObjectVersion
1070
     0
  0
VISUALSTYLE
  5
2E
102
{ACAD_REACTORS
330
2A
102
}
102
{ACAD_XDICTIONARY
360
11B
102
}
330
2A
100
AcDbVisualStyle
  2
GouraudWithEdges
 70
     3
 71
     2
 72
     2
 73
     1
 90
        2
 40
-0.6
 41
30.0
 62
     5
 63
     7
 74
     1
 91
        4
 64
     7
 65
   257
 75
     1
175
     1
 42
1.0
 92
        0
 66
   257
 43
1.0
 76
     1
 77
     6
 78
     2
 67
     7
 79
     5
170
     0
171
     0
290
     0
174
     0
 93
       13
 44
0.0
173
     0
291
     1
 45
0.0
1001
ACAD
1000
AcDbSavedByObjectVersion
1070
     0
  0
VISUALSTYLE
  5
38
102
{ACAD_REACTORS
330
2A
102
}
102
{ACAD_XDICTIONARY
360
12F
102
}
330
2A
100
AcDbVisualStyle
  2
Linepattern
 70
    14
 71
     2
 72
     2
 73
     0
 90
        0
 40
-0.6
 41
-30.0
 62
     5
 63
     7
 74
     1
 91
        4
 64
     7
 65
   257
 75
     7
175
     7
 42
1.0
 92
        8
 66
     7
 43
1.0
 76
     1
 77
     6
 78
     2
 67
     7
 79
     5
170
     0
171
     0
290
     0
174
     0
 93
        1
 44
0.0
173
     0
291
     1
 45
0.0
1001
ACAD
1000
AcDbSavedByObjectVersion
1070
     0
  0
VISUALSTYLE
  5
33
102
{ACAD_REACTORS
330
2A
102
}
102
{ACAD_XDICTIONARY
360
125
102
}
330
2A
100
AcDbVisualStyle
  2
Realistic
 70
     8
 71
     2
 72
     2
 73
     0
 90
        0
 40
-0.6
 41
-30.0
 62
     5
 63
     7
 74
     1
 91
        0
 64
     7
 65
   257
 75
     1
175
     1
 42
1.0
 92
        8
 66
     8
 43
1.0
 76
     1
 77
     6
 78
     2
 67
     7
 79
     5
170
     0
171
     0
290
     0
174
     0
 93
       13
 44
0.0
173
     0
291
     0
 45
0.0
1001
ACAD
1000
AcDbSavedByObjectVersion
1070
     0
  0
VISUALSTYLE
  5
37
102
{ACAD_REACTORS
330
2A
102
}
102
{ACAD_XDICTIONARY
360
12D
102
}
330
2A
100
AcDbVisualStyle
  2
Thicken
 70
    13
 71
     2
 72
     2
 73
     0
 90
        0
 40
-0.6
 41
-30.0
 62
     5
 63
     7
 74
     1
 91
        4
 64
     7
 65
   257
 75
     1
175
     1
 42
1.0
 92
       12
 66
     7
 43
1.0
 76
     1
 77
     6
 78
     2
 67
     7
 79
     5
170
     0
171
     0
290
     0
174
     0
 93
        1
 44
0.0
173
     0
291
     1
 45
0.0
1001
ACAD
1000
AcDbSavedByObjectVersion
1070
     0
  0
DICTIONARYVAR
  5
113
102
{ACAD_REACTORS
330
110
102
}
330
110
100
DictionaryVariables
280
     0
  1
2
  0
DICTIONARYVAR
  5
114
102
{ACAD_REACTORS
330
110
102
}
330
110
100
DictionaryVariables
280
     0
  1
1
  0
DICTIONARY
  5
137
330
3D
100
AcDbDictionary
280
     1
281
     1
  3
ACAD_XREC_ROUNDTRIP
360
138
  0
DICTIONARY
  5
135
330
3C
100
AcDbDictionary
280
     1
281
     1
  3
ACAD_XREC_ROUNDTRIP
360
136
  0
DICTIONARY
  5
139
330
3E
100
AcDbDictionary
280
     1
281
     1
  3
ACAD_XREC_ROUNDTRIP
360
13A
  0
DICTIONARY
  5
11D
330
2F
100
AcDbDictionary
280
     1
281
     1
  3
ACAD_XREC_ROUNDTRIP
360
11E
  0
DICTIONARY
  5
121
330
31
100
AcDbDictionary
280
     1
281
     1
  3
ACAD_XREC_ROUNDTRIP
360
122
  0
DICTIONARY
  5
11F
330
30
100
AcDbDictionary
280
     1
281
     1
  3
ACAD_XREC_ROUNDTRIP
360
120
  0
DICTIONARY
  5
123
330
32
100
AcDbDictionary
280
     1
281
     1
  3
ACAD_XREC_ROUNDTRIP
360
124
  0
DICTIONARY
  5
12B
330
36
100
AcDbDictionary
280
     1
281
     1
  3
ACAD_XREC_ROUNDTRIP
360
12C
  0
DICTIONARY
  5
133
330
3A
100
AcDbDictionary
280
     1
281
     1
  3
ACAD_XREC_ROUNDTRIP
360
134
  0
DICTIONARY
  5
127
330
34
100
AcDbDictionary
280
     1
281
     1
  3
ACAD_XREC_ROUNDTRIP
360
128
  0
DICTIONARY
  5
129
330
35
100
AcDbDictionary
280
     1
281
     1
  3
ACAD_XREC_ROUNDTRIP
360
12A
  0
DICTIONARY
  5
131
330
39
100
AcDbDictionary
280
     1
281
     1
  3
ACAD_XREC_ROUNDTRIP
360
132
  0
DICTIONARY
  5
115
330
2B
100
AcDbDictionary
280
     1
281
     1
  3
ACAD_XREC_ROUNDTRIP
360
116
  0
DICTIONARY
  5
117
330
2C
100
AcDbDictionary
280
     1
281
     1
  3
ACAD_XREC_ROUNDTRIP
360
118
  0
DICTIONARY
  5
119
330
2D
100
AcDbDictionary
280
     1
281
     1
  3
ACAD_XREC_ROUNDTRIP
360
11A
  0
DICTIONARY
  5
11B
330
2E
100
AcDbDictionary
280
     1
281
     1
  3
ACAD_XREC_ROUNDTRIP
360
11C
  0
DICTIONARY
  5
12F
330
38
100
AcDbDictionary
280
     1
281
     1
  3
ACAD_XREC_ROUNDTRIP
360
130
  0
DICTIONARY
  5
125
330
33
100
AcDbDictionary
280
     1
281
     1
  3
ACAD_XREC_ROUNDTRIP
360
126
  0
DICTIONARY
  5
12D
330
37
100
AcDbDictionary
280
     1
281
     1
  3
ACAD_XREC_ROUNDTRIP
360
12E
  0
XRECORD
  5
138
102
{ACAD_REACTORS
330
137
102
}
330
137
100
AcDbXrecord
280
     1
102
MATERIAL
148
0.0
149
0.0
149
0.0
 93
        0
 94
      127
282
     0
 72
     1
 77
     1
171
     1
175
     1
179
     1
273
     0
  0
XRECORD
  5
136
102
{ACAD_REACTORS
330
135
102
}
330
135
100
AcDbXrecord
280
     1
102
MATERIAL
148
0.0
149
0.0
149
0.0
 93
        0
 94
      127
282
     0
 72
     1
 77
     1
171
     1
175
     1
179
     1
273
     0
  0
XRECORD
  5
13A
102
{ACAD_REACTORS
330
139
102
}
330
139
100
AcDbXrecord
280
     1
102
MATERIAL
148
0.0
149
0.0
149
0.0
 93
        0
 94
      127
282
     0
 72
     1
 77
     1
171
     1
175
     1
179
     1
273
     0
  0
XRECORD
  5
11E
102
{ACAD_REACTORS
330
11D
102
}
330
11D
100
AcDbXrecord
280
     1
102
RTVSPropertyOp0
 70
     1
102
RTVSPropertyOp1
 70
     1
102
RTVSPropertyOp2
 70
     1
102
RTVSPropertyOp3
 70
     1
102
RTVSPropertyOp4
 70
     1
102
RTVSPropertyOp5
 70
     1
102
RTVSPropertyOp6
 70
     1
102
RTVSPropertyOp7
 70
     1
102
RTVSPropertyOp8
 70
     1
102
RTVSPropertyOp9
 70
     1
102
RTVSPropertyOp10
 70
     1
102
RTVSPropertyOp11
 70
     1
102
RTVSPropertyOp12
 70
     1
102
RTVSPropertyOp13
 70
     1
102
RTVSPropertyOp14
 70
     1
102
RTVSPropertyOp15
 70
     1
102
RTVSPropertyOp16
 70
     1
102
RTVSPropertyOp17
 70
     1
102
RTVSPropertyOp18
 70
     1
102
RTVSPropertyOp19
 70
     1
102
RTVSPropertyOp20
 70
     1
102
RTVSPropertyOp21
 70
     1
102
RTVSPropertyOp22
 70
     1
102
RTVSPropertyOp23
 70
     1
102
RTVSPropertyOp24
 70
     1
102
RTVSPropertyOp25
 70
     1
102
RTVSPropertyOp26
 70
     1
102
RTVSPropertyOp27
 70
     1
102
RTVSPropertyOp28
 70
     1
102
RTVSPropertyOp29
 70
     1
102
RTVSPropertyOp30
 70
     1
102
RTVSPropertyOp31
 70
     1
102
RTVSPropertyOp32
 70
     1
  0
XRECORD
  5
122
102
{ACAD_REACTORS
330
121
102
}
330
121
100
AcDbXrecord
280
     1
102
RTVSPropertyOp0
 70
     1
102
RTVSPropertyOp1
 70
     1
102
RTVSPropertyOp2
 70
     1
102
RTVSPropertyOp3
 70
     1
102
RTVSPropertyOp4
 70
     1
102
RTVSPropertyOp5
 70
     1
102
RTVSPropertyOp6
 70
     1
102
RTVSPropertyOp7
 70
     1
102
RTVSPropertyOp8
 70
     1
102
RTVSPropertyOp9
 70
     1
102
RTVSPropertyOp10
 70
     1
102
RTVSPropertyOp11
 70
     1
102
RTVSPropertyOp12
 70
     1
102
RTVSPropertyOp13
 70
     1
102
RTVSPropertyOp14
 70
     1
102
RTVSPropertyOp15
 70
     1
102
RTVSPropertyOp16
 70
     1
102
RTVSPropertyOp17
 70
     1
102
RTVSPropertyOp18
 70
     1
102
RTVSPropertyOp19
 70
     1
102
RTVSPropertyOp20
 70
     1
102
RTVSPropertyOp21
 70
     1
102
RTVSPropertyOp22
 70
     1
102
RTVSPropertyOp23
 70
     1
102
RTVSPropertyOp24
 70
     1
102
RTVSPropertyOp25
 70
     1
102
RTVSPropertyOp26
 70
     1
102
RTVSPropertyOp27
 70
     1
102
RTVSPropertyOp28
 70
     1
102
RTVSPropertyOp29
 70
     1
102
RTVSPropertyOp30
 70
     1
102
RTVSPropertyOp31
 70
     1
102
RTVSPropertyOp32
 70
     1
  0
XRECORD
  5
120
102
{ACAD_REACTORS
330
11F
102
}
330
11F
100
AcDbXrecord
280
     1
102
RTVSPropertyOp0
 70
     1
102
RTVSPropertyOp1
 70
     1
102
RTVSPropertyOp2
 70
     1
102
RTVSPropertyOp3
 70
     1
102
RTVSPropertyOp4
 70
     1
102
RTVSPropertyOp5
 70
     1
102
RTVSPropertyOp6
 70
     1
102
RTVSPropertyOp7
 70
     1
102
RTVSPropertyOp8
 70
     1
102
RTVSPropertyOp9
 70
     1
102
RTVSPropertyOp10
 70
     1
102
RTVSPropertyOp11
 70
     1
102
RTVSPropertyOp12
 70
     1
102
RTVSPropertyOp13
 70
     1
102
RTVSPropertyOp14
 70
     1
102
RTVSPropertyOp15
 70
     1
102
RTVSPropertyOp16
 70
     1
102
RTVSPropertyOp17
 70
     1
102
RTVSPropertyOp18
 70
     1
102
RTVSPropertyOp19
 70
     1
102
RTVSPropertyOp20
 70
     1
102
RTVSPropertyOp21
 70
     1
102
RTVSPropertyOp22
 70
     1
102
RTVSPropertyOp23
 70
     1
102
RTVSPropertyOp24
 70
     1
102
RTVSPropertyOp25
 70
     1
102
RTVSPropertyOp26
 70
     1
102
RTVSPropertyOp27
 70
     1
102
RTVSPropertyOp28
 70
     1
102
RTVSPropertyOp29
 70
     1
102
RTVSPropertyOp30
 70
     1
102
RTVSPropertyOp31
 70
     1
102
RTVSPropertyOp32
 70
     1
  0
XRECORD
  5
124
102
{ACAD_REACTORS
330
123
102
}
330
123
100
AcDbXrecord
280
     1
102
RTVSPropertyOp0
 70
     1
102
RTVSPropertyOp1
 70
     1
102
RTVSPropertyOp2
 70
     1
102
RTVSPropertyOp3
 70
     1
102
RTVSPropertyOp4
 70
     1
102
RTVSPropertyOp5
 70
     1
102
RTVSPropertyOp6
 70
     1
102
RTVSPropertyOp7
 70
     1
102
RTVSPropertyOp8
 70
     1
102
RTVSPropertyOp9
 70
     1
102
RTVSPropertyOp10
 70
     1
102
RTVSPropertyOp11
 70
     1
102
RTVSPropertyOp12
 70
     1
102
RTVSPropertyOp13
 70
     1
102
RTVSPropertyOp14
 70
     1
102
RTVSPropertyOp15
 70
     1
102
RTVSPropertyOp16
 70
     1
102
RTVSPropertyOp17
 70
     1
102
RTVSPropertyOp18
 70
     1
102
RTVSPropertyOp19
 70
     1
102
RTVSPropertyOp20
 70
     1
102
RTVSPropertyOp21
 70
     1
102
RTVSPropertyOp22
 70
     1
102
RTVSPropertyOp23
 70
     1
102
RTVSPropertyOp24
 70
     1
102
RTVSPropertyOp25
 70
     1
102
RTVSPropertyOp26
 70
     1
102
RTVSPropertyOp27
 70
     1
102
RTVSPropertyOp28
 70
     1
102
RTVSPropertyOp29
 70
     1
102
RTVSPropertyOp30
 70
     1
102
RTVSPropertyOp31
 70
     1
102
RTVSPropertyOp32
 70
     1
  0
XRECORD
  5
12C
102
{ACAD_REACTORS
330
12B
102
}
330
12B
100
AcDbXrecord
280
     1
102
RTVSPropertyOp0
 70
     1
102
RTVSPropertyOp1
 70
     1
102
RTVSPropertyOp2
 70
     1
102
RTVSPropertyOp3
 70
     1
102
RTVSPropertyOp4
 70
     1
102
RTVSPropertyOp5
 70
     1
102
RTVSPropertyOp6
 70
     1
102
RTVSPropertyOp7
 70
     1
102
RTVSPropertyOp8
 70
     1
102
RTVSPropertyOp9
 70
     1
102
RTVSPropertyOp10
 70
     1
102
RTVSPropertyOp11
 70
     1
102
RTVSPropertyOp12
 70
     1
102
RTVSPropertyOp13
 70
     1
102
RTVSPropertyOp14
 70
     1
102
RTVSPropertyOp15
 70
     1
102
RTVSPropertyOp16
 70
     1
102
RTVSPropertyOp17
 70
     1
102
RTVSPropertyOp18
 70
     1
102
RTVSPropertyOp19
 70
     1
102
RTVSPropertyOp20
 70
     1
102
RTVSPropertyOp21
 70
     1
102
RTVSPropertyOp22
 70
     1
102
RTVSPropertyOp23
 70
     1
102
RTVSPropertyOp24
 70
     1
102
RTVSPropertyOp25
 70
     1
102
RTVSPropertyOp26
 70
     1
102
RTVSPropertyOp27
 70
     1
102
RTVSPropertyOp28
 70
     1
102
RTVSPropertyOp29
 70
     1
102
RTVSPropertyOp30
 70
     1
102
RTVSPropertyOp31
 70
     1
102
RTVSPropertyOp32
 70
     1
  0
XRECORD
  5
134
102
{ACAD_REACTORS
330
133
102
}
330
133
100
AcDbXrecord
280
     1
102
RTVSPropertyOp0
 70
     1
102
RTVSPropertyOp1
 70
     1
102
RTVSPropertyOp2
 70
     1
102
RTVSPropertyOp3
 70
     1
102
RTVSPropertyOp4
 70
     1
102
RTVSPropertyOp5
 70
     1
102
RTVSPropertyOp6
 70
     1
102
RTVSPropertyOp7
 70
     1
102
RTVSPropertyOp8
 70
     1
102
RTVSPropertyOp9
 70
     1
102
RTVSPropertyOp10
 70
     1
102
RTVSPropertyOp11
 70
     1
102
RTVSPropertyOp12
 70
     1
102
RTVSPropertyOp13
 70
     1
102
RTVSPropertyOp14
 70
     1
102
RTVSPropertyOp15
 70
     1
102
RTVSPropertyOp16
 70
     1
102
RTVSPropertyOp17
 70
     1
102
RTVSPropertyOp18
 70
     1
102
RTVSPropertyOp19
 70
     1
102
RTVSPropertyOp20
 70
     1
102
RTVSPropertyOp21
 70
     1
102
RTVSPropertyOp22
 70
     1
102
RTVSPropertyOp23
 70
     1
102
RTVSPropertyOp24
 70
     1
102
RTVSPropertyOp25
 70
     1
102
RTVSPropertyOp26
 70
     1
102
RTVSPropertyOp27
 70
     1
102
RTVSPropertyOp28
 70
     1
102
RTVSPropertyOp29
 70
     1
102
RTVSPropertyOp30
 70
     1
102
RTVSPropertyOp31
 70
     1
102
RTVSPropertyOp32
 70
     1
  0
XRECORD
  5
128
102
{ACAD_REACTORS
330
127
102
}
330
127
100
AcDbXrecord
280
     1
102
RTVSPropertyOp0
 70
     1
102
RTVSPropertyOp1
 70
     1
102
RTVSPropertyOp2
 70
     1
102
RTVSPropertyOp3
 70
     1
102
RTVSPropertyOp4
 70
     1
102
RTVSPropertyOp5
 70
     1
102
RTVSPropertyOp6
 70
     1
102
RTVSPropertyOp7
 70
     1
102
RTVSPropertyOp8
 70
     1
102
RTVSPropertyOp9
 70
     1
102
RTVSPropertyOp10
 70
     1
102
RTVSPropertyOp11
 70
     1
102
RTVSPropertyOp12
 70
     1
102
RTVSPropertyOp13
 70
     1
102
RTVSPropertyOp14
 70
     1
102
RTVSPropertyOp15
 70
     1
102
RTVSPropertyOp16
 70
     1
102
RTVSPropertyOp17
 70
     1
102
RTVSPropertyOp18
 70
     1
102
RTVSPropertyOp19
 70
     1
102
RTVSPropertyOp20
 70
     1
102
RTVSPropertyOp21
 70
     1
102
RTVSPropertyOp22
 70
     1
102
RTVSPropertyOp23
 70
     1
102
RTVSPropertyOp24
 70
     1
102
RTVSPropertyOp25
 70
     1
102
RTVSPropertyOp26
 70
     1
102
RTVSPropertyOp27
 70
     1
102
RTVSPropertyOp28
 70
     1
102
RTVSPropertyOp29
 70
     1
102
RTVSPropertyOp30
 70
     1
102
RTVSPropertyOp31
 70
     1
102
RTVSPropertyOp32
 70
     1
  0
XRECORD
  5
12A
102
{ACAD_REACTORS
330
129
102
}
330
129
100
AcDbXrecord
280
     1
102
RTVSPropertyOp0
 70
     1
102
RTVSPropertyOp1
 70
     1
102
RTVSPropertyOp2
 70
     1
102
RTVSPropertyOp3
 70
     1
102
RTVSPropertyOp4
 70
     1
102
RTVSPropertyOp5
 70
     1
102
RTVSPropertyOp6
 70
     1
102
RTVSPropertyOp7
 70
     1
102
RTVSPropertyOp8
 70
     1
102
RTVSPropertyOp9
 70
     1
102
RTVSPropertyOp10
 70
     1
102
RTVSPropertyOp11
 70
     1
102
RTVSPropertyOp12
 70
     1
102
RTVSPropertyOp13
 70
     1
102
RTVSPropertyOp14
 70
     1
102
RTVSPropertyOp15
 70
     1
102
RTVSPropertyOp16
 70
     1
102
RTVSPropertyOp17
 70
     1
102
RTVSPropertyOp18
 70
     1
102
RTVSPropertyOp19
 70
     1
102
RTVSPropertyOp20
 70
     1
102
RTVSPropertyOp21
 70
     1
102
RTVSPropertyOp22
 70
     1
102
RTVSPropertyOp23
 70
     1
102
RTVSPropertyOp24
 70
     1
102
RTVSPropertyOp25
 70
     1
102
RTVSPropertyOp26
 70
     1
102
RTVSPropertyOp27
 70
     1
102
RTVSPropertyOp28
 70
     1
102
RTVSPropertyOp29
 70
     1
102
RTVSPropertyOp30
 70
     1
102
RTVSPropertyOp31
 70
     1
102
RTVSPropertyOp32
 70
     1
  0
XRECORD
  5
132
102
{ACAD_REACTORS
330
131
102
}
330
131
100
AcDbXrecord
280
     1
102
RTVSPropertyOp0
 70
     1
102
RTVSPropertyOp1
 70
     1
102
RTVSPropertyOp2
 70
     1
102
RTVSPropertyOp3
 70
     1
102
RTVSPropertyOp4
 70
     1
102
RTVSPropertyOp5
 70
     1
102
RTVSPropertyOp6
 70
     1
102
RTVSPropertyOp7
 70
     1
102
RTVSPropertyOp8
 70
     1
102
RTVSPropertyOp9
 70
     1
102
RTVSPropertyOp10
 70
     1
102
RTVSPropertyOp11
 70
     1
102
RTVSPropertyOp12
 70
     1
102
RTVSPropertyOp13
 70
     1
102
RTVSPropertyOp14
 70
     1
102
RTVSPropertyOp15
 70
     1
102
RTVSPropertyOp16
 70
     1
102
RTVSPropertyOp17
 70
     1
102
RTVSPropertyOp18
 70
     1
102
RTVSPropertyOp19
 70
     1
102
RTVSPropertyOp20
 70
     1
102
RTVSPropertyOp21
 70
     1
102
RTVSPropertyOp22
 70
     1
102
RTVSPropertyOp23
 70
     1
102
RTVSPropertyOp24
 70
     1
102
RTVSPropertyOp25
 70
     1
102
RTVSPropertyOp26
 70
     1
102
RTVSPropertyOp27
 70
     1
102
RTVSPropertyOp28
 70
     1
102
RTVSPropertyOp29
 70
     1
102
RTVSPropertyOp30
 70
     1
102
RTVSPropertyOp31
 70
     1
102
RTVSPropertyOp32
 70
     1
  0
XRECORD
  5
116
102
{ACAD_REACTORS
330
115
102
}
330
115
100
AcDbXrecord
280
     1
102
RTVSPropertyOp0
 70
     1
102
RTVSPropertyOp1
 70
     1
102
RTVSPropertyOp2
 70
     1
102
RTVSPropertyOp3
 70
     1
102
RTVSPropertyOp4
 70
     1
102
RTVSPropertyOp5
 70
     1
102
RTVSPropertyOp6
 70
     1
102
RTVSPropertyOp7
 70
     1
102
RTVSPropertyOp8
 70
     1
102
RTVSPropertyOp9
 70
     1
102
RTVSPropertyOp10
 70
     1
102
RTVSPropertyOp11
 70
     1
102
RTVSPropertyOp12
 70
     1
102
RTVSPropertyOp13
 70
     1
102
RTVSPropertyOp14
 70
     1
102
RTVSPropertyOp15
 70
     1
102
RTVSPropertyOp16
 70
     1
102
RTVSPropertyOp17
 70
     1
102
RTVSPropertyOp18
 70
     1
102
RTVSPropertyOp19
 70
     1
102
RTVSPropertyOp20
 70
     1
102
RTVSPropertyOp21
 70
     1
102
RTVSPropertyOp22
 70
     1
102
RTVSPropertyOp23
 70
     1
102
RTVSPropertyOp24
 70
     1
102
RTVSPropertyOp25
 70
     1
102
RTVSPropertyOp26
 70
     1
102
RTVSPropertyOp27
 70
     1
102
RTVSPropertyOp28
 70
     1
102
RTVSPropertyOp29
 70
     1
102
RTVSPropertyOp30
 70
     1
102
RTVSPropertyOp31
 70
     1
102
RTVSPropertyOp32
 70
     1
  0
XRECORD
  5
118
102
{ACAD_REACTORS
330
117
102
}
330
117
100
AcDbXrecord
280
     1
102
RTVSPropertyOp0
 70
     1
102
RTVSPropertyOp1
 70
     1
102
RTVSPropertyOp2
 70
     1
102
RTVSPropertyOp3
 70
     1
102
RTVSPropertyOp4
 70
     1
102
RTVSPropertyOp5
 70
     1
102
RTVSPropertyOp6
 70
     1
102
RTVSPropertyOp7
 70
     1
102
RTVSPropertyOp8
 70
     1
102
RTVSPropertyOp9
 70
     1
102
RTVSPropertyOp10
 70
     1
102
RTVSPropertyOp11
 70
     1
102
RTVSPropertyOp12
 70
     1
102
RTVSPropertyOp13
 70
     1
102
RTVSPropertyOp14
 70
     1
102
RTVSPropertyOp15
 70
     1
102
RTVSPropertyOp16
 70
     1
102
RTVSPropertyOp17
 70
     1
102
RTVSPropertyOp18
 70
     1
102
RTVSPropertyOp19
 70
     1
102
RTVSPropertyOp20
 70
     1
102
RTVSPropertyOp21
 70
     1
102
RTVSPropertyOp22
 70
     1
102
RTVSPropertyOp23
 70
     1
102
RTVSPropertyOp24
 70
     1
102
RTVSPropertyOp25
 70
     1
102
RTVSPropertyOp26
 70
     1
102
RTVSPropertyOp27
 70
     1
102
RTVSPropertyOp28
 70
     1
102
RTVSPropertyOp29
 70
     1
102
RTVSPropertyOp30
 70
     1
102
RTVSPropertyOp31
 70
     1
102
RTVSPropertyOp32
 70
     1
  0
XRECORD
  5
11A
102
{ACAD_REACTORS
330
119
102
}
330
119
100
AcDbXrecord
280
     1
102
RTVSPropertyOp0
 70
     1
102
RTVSPropertyOp1
 70
     1
102
RTVSPropertyOp2
 70
     1
102
RTVSPropertyOp3
 70
     1
102
RTVSPropertyOp4
 70
     1
102
RTVSPropertyOp5
 70
     1
102
RTVSPropertyOp6
 70
     1
102
RTVSPropertyOp7
 70
     1
102
RTVSPropertyOp8
 70
     1
102
RTVSPropertyOp9
 70
     1
102
RTVSPropertyOp10
 70
     1
102
RTVSPropertyOp11
 70
     1
102
RTVSPropertyOp12
 70
     1
102
RTVSPropertyOp13
 70
     1
102
RTVSPropertyOp14
 70
     1
102
RTVSPropertyOp15
 70
     1
102
RTVSPropertyOp16
 70
     1
102
RTVSPropertyOp17
 70
     1
102
RTVSPropertyOp18
 70
     1
102
RTVSPropertyOp19
 70
     1
102
RTVSPropertyOp20
 70
     1
102
RTVSPropertyOp21
 70
     1
102
RTVSPropertyOp22
 70
     1
102
RTVSPropertyOp23
 70
     1
102
RTVSPropertyOp24
 70
     1
102
RTVSPropertyOp25
 70
     1
102
RTVSPropertyOp26
 70
     1
102
RTVSPropertyOp27
 70
     1
102
RTVSPropertyOp28
 70
     1
102
RTVSPropertyOp29
 70
     1
102
RTVSPropertyOp30
 70
     1
102
RTVSPropertyOp31
 70
     1
102
RTVSPropertyOp32
 70
     1
  0
XRECORD
  5
11C
102
{ACAD_REACTORS
330
11B
102
}
330
11B
100
AcDbXrecord
280
     1
102
RTVSPropertyOp0
 70
     1
102
RTVSPropertyOp1
 70
     1
102
RTVSPropertyOp2
 70
     1
102
RTVSPropertyOp3
 70
     1
102
RTVSPropertyOp4
 70
     1
102
RTVSPropertyOp5
 70
     1
102
RTVSPropertyOp6
 70
     1
102
RTVSPropertyOp7
 70
     1
102
RTVSPropertyOp8
 70
     1
102
RTVSPropertyOp9
 70
     1
102
RTVSPropertyOp10
 70
     1
102
RTVSPropertyOp11
 70
     1
102
RTVSPropertyOp12
 70
     1
102
RTVSPropertyOp13
 70
     1
102
RTVSPropertyOp14
 70
     1
102
RTVSPropertyOp15
 70
     1
102
RTVSPropertyOp16
 70
     1
102
RTVSPropertyOp17
 70
     1
102
RTVSPropertyOp18
 70
     1
102
RTVSPropertyOp19
 70
     1
102
RTVSPropertyOp20
 70
     1
102
RTVSPropertyOp21
 70
     1
102
RTVSPropertyOp22
 70
     1
102
RTVSPropertyOp23
 70
     1
102
RTVSPropertyOp24
 70
     1
102
RTVSPropertyOp25
 70
     1
102
RTVSPropertyOp26
 70
     1
102
RTVSPropertyOp27
 70
     1
102
RTVSPropertyOp28
 70
     1
102
RTVSPropertyOp29
 70
     1
102
RTVSPropertyOp30
 70
     1
102
RTVSPropertyOp31
 70
     1
102
RTVSPropertyOp32
 70
     1
  0
XRECORD
  5
130
102
{ACAD_REACTORS
330
12F
102
}
330
12F
100
AcDbXrecord
280
     1
102
RTVSPropertyOp0
 70
     1
102
RTVSPropertyOp1
 70
     1
102
RTVSPropertyOp2
 70
     1
102
RTVSPropertyOp3
 70
     1
102
RTVSPropertyOp4
 70
     1
102
RTVSPropertyOp5
 70
     1
102
RTVSPropertyOp6
 70
     1
102
RTVSPropertyOp7
 70
     1
102
RTVSPropertyOp8
 70
     1
102
RTVSPropertyOp9
 70
     1
102
RTVSPropertyOp10
 70
     1
102
RTVSPropertyOp11
 70
     1
102
RTVSPropertyOp12
 70
     1
102
RTVSPropertyOp13
 70
     1
102
RTVSPropertyOp14
 70
     1
102
RTVSPropertyOp15
 70
     1
102
RTVSPropertyOp16
 70
     1
102
RTVSPropertyOp17
 70
     1
102
RTVSPropertyOp18
 70
     1
102
RTVSPropertyOp19
 70
     1
102
RTVSPropertyOp20
 70
     1
102
RTVSPropertyOp21
 70
     1
102
RTVSPropertyOp22
 70
     1
102
RTVSPropertyOp23
 70
     1
102
RTVSPropertyOp24
 70
     1
102
RTVSPropertyOp25
 70
     1
102
RTVSPropertyOp26
 70
     1
102
RTVSPropertyOp27
 70
     1
102
RTVSPropertyOp28
 70
     1
102
RTVSPropertyOp29
 70
     1
102
RTVSPropertyOp30
 70
     1
102
RTVSPropertyOp31
 70
     1
102
RTVSPropertyOp32
 70
     1
  0
XRECORD
  5
126
102
{ACAD_REACTORS
330
125
102
}
330
125
100
AcDbXrecord
280
     1
102
RTVSPropertyOp0
 70
     1
102
RTVSPropertyOp1
 70
     1
102
RTVSPropertyOp2
 70
     1
102
RTVSPropertyOp3
 70
     1
102
RTVSPropertyOp4
 70
     1
102
RTVSPropertyOp5
 70
     1
102
RTVSPropertyOp6
 70
     1
102
RTVSPropertyOp7
 70
     1
102
RTVSPropertyOp8
 70
     1
102
RTVSPropertyOp9
 70
     1
102
RTVSPropertyOp10
 70
     1
102
RTVSPropertyOp11
 70
     1
102
RTVSPropertyOp12
 70
     1
102
RTVSPropertyOp13
 70
     1
102
RTVSPropertyOp14
 70
     1
102
RTVSPropertyOp15
 70
     1
102
RTVSPropertyOp16
 70
     1
102
RTVSPropertyOp17
 70
     1
102
RTVSPropertyOp18
 70
     1
102
RTVSPropertyOp19
 70
     1
102
RTVSPropertyOp20
 70
     1
102
RTVSPropertyOp21
 70
     1
102
RTVSPropertyOp22
 70
     1
102
RTVSPropertyOp23
 70
     1
102
RTVSPropertyOp24
 70
     1
102
RTVSPropertyOp25
 70
     1
102
RTVSPropertyOp26
 70
     1
102
RTVSPropertyOp27
 70
     1
102
RTVSPropertyOp28
 70
     1
102
RTVSPropertyOp29
 70
     1
102
RTVSPropertyOp30
 70
     1
102
RTVSPropertyOp31
 70
     1
102
RTVSPropertyOp32
 70
     1
  0
XRECORD
  5
12E
102
{ACAD_REACTORS
330
12D
102
}
330
12D
100
AcDbXrecord
280
     1
102
RTVSPropertyOp0
 70
     1
102
RTVSPropertyOp1
 70
     1
102
RTVSPropertyOp2
 70
     1
102
RTVSPropertyOp3
 70
     1
102
RTVSPropertyOp4
 70
     1
102
RTVSPropertyOp5
 70
     1
102
RTVSPropertyOp6
 70
     1
102
RTVSPropertyOp7
 70
     1
102
RTVSPropertyOp8
 70
     1
102
RTVSPropertyOp9
 70
     1
102
RTVSPropertyOp10
 70
     1
102
RTVSPropertyOp11
 70
     1
102
RTVSPropertyOp12
 70
     1
102
RTVSPropertyOp13
 70
     1
102
RTVSPropertyOp14
 70
     1
102
RTVSPropertyOp15
 70
     1
102
RTVSPropertyOp16
 70
     1
102
RTVSPropertyOp17
 70
     1
102
RTVSPropertyOp18
 70
     1
102
RTVSPropertyOp19
 70
     1
102
RTVSPropertyOp20
 70
     1
102
RTVSPropertyOp21
 70
     1
102
RTVSPropertyOp22
 70
     1
102
RTVSPropertyOp23
 70
     1
102
RTVSPropertyOp24
 70
     1
102
RTVSPropertyOp25
 70
     1
102
RTVSPropertyOp26
 70
     1
102
RTVSPropertyOp27
 70
     1
102
RTVSPropertyOp28
 70
     1
102
RTVSPropertyOp29
 70
     1
102
RTVSPropertyOp30
 70
     1
102
RTVSPropertyOp31
 70
     1
102
RTVSPropertyOp32
 70
     1
  0
ENDSEC
  0
EOF
