  0
SECTION
  2
HEADER
  9
$ACADVER
  1
AC1015
  9
$ACADMAINTVER
 70
     6
  9
$DWGCODEPAGE
  3
ANSI_932
  9
$INSBASE
 10
0.0
 20
0.0
 30
0.0
  9
$EXTMIN
 10
0.0
 20
0.00000000000003
 30
0.0
  9
$EXTMAX
 10
210.0
 20
297.0
 30
0.0
  9
$LIMMIN
 10
0.0
 20
0.0
  9
$LIMMAX
 10
12.0
 20
9.0
  9
$ORTHOMODE
 70
     0
  9
$REGENMODE
 70
     1
  9
$FILLMODE
 70
     1
  9
$QTEXTMODE
 70
     0
  9
$MIRRTEXT
 70
     1
  9
$LTSCALE
 40
1.0
  9
$ATTMODE
 70
     1
  9
$TEXTSIZE
 40
0.2
  9
$TRACEWID
 40
0.05
  9
$TEXTSTYLE
  7
Standard
  9
$CLAYER
  8
0
  9
$CELTYPE
  6
ByLayer
  9
$CECOLOR
 62
   256
  9
$CELTSCALE
 40
1.0
  9
$DISPSILH
 70
     0
  9
$DIMSCALE
 40
1.0
  9
$DIMASZ
 40
0.18
  9
$DIMEXO
 40
0.0625
  9
$DIMDLI
 40
0.38
  9
$DIMRND
 40
0.0
  9
$DIMDLE
 40
0.0
  9
$DIMEXE
 40
0.18
  9
$DIMTP
 40
0.0
  9
$DIMTM
 40
0.0
  9
$DIMTXT
 40
0.18
  9
$DIMCEN
 40
0.09
  9
$DIMTSZ
 40
0.0
  9
$DIMTOL
 70
     0
  9
$DIMLIM
 70
     0
  9
$DIMTIH
 70
     1
  9
$DIMTOH
 70
     1
  9
$DIMSE1
 70
     0
  9
$DIMSE2
 70
     0
  9
$DIMTAD
 70
     0
  9
$DIMZIN
 70
     0
  9
$DIMBLK
  1

  9
$DIMASO
 70
     1
  9
$DIMSHO
 70
     1
  9
$DIMPOST
  1

  9
$DIMAPOST
  1

  9
$DIMALT
 70
     0
  9
$DIMALTD
 70
     2
  9
$DIMALTF
 40
25.4
  9
$DIMLFAC
 40
1.0
  9
$DIMTOFL
 70
     0
  9
$DIMTVP
 40
0.0
  9
$DIMTIX
 70
     0
  9
$DIMSOXD
 70
     0
  9
$DIMSAH
 70
     0
  9
$DIMBLK1
  1

  9
$DIMBLK2
  1

  9
$DIMSTYLE
  2
Standard
  9
$DIMCLRD
 70
     0
  9
$DIMCLRE
 70
     0
  9
$DIMCLRT
 70
     0
  9
$DIMTFAC
 40
1.0
  9
$DIMGAP
 40
0.09
  9
$DIMJUST
 70
     0
  9
$DIMSD1
 70
     0
  9
$DIMSD2
 70
     0
  9
$DIMTOLJ
 70
     1
  9
$DIMTZIN
 70
     0
  9
$DIMALTZ
 70
     0
  9
$DIMALTTZ
 70
     0
  9
$DIMUPT
 70
     0
  9
$DIMDEC
 70
     4
  9
$DIMTDEC
 70
     4
  9
$DIMALTU
 70
     2
  9
$DIMALTTD
 70
     2
  9
$DIMTXSTY
  7
Standard
  9
$DIMAUNIT
 70
     0
  9
$DIMADEC
 70
     0
  9
$DIMALTRND
 40
0.0
  9
$DIMAZIN
 70
     0
  9
$DIMDSEP
 70
    46
  9
$DIMATFIT
 70
     3
  9
$DIMFRAC
 70
     0
  9
$DIMLDRBLK
  1

  9
$DIMLUNIT
 70
     2
  9
$DIMLWD
 70
    -2
  9
$DIMLWE
 70
    -2
  9
$DIMTMOVE
 70
     0
  9
$LUNITS
 70
     2
  9
$LUPREC
 70
     4
  9
$SKETCHINC
 40
0.1
  9
$FILLETRAD
 40
0.5
  9
$AUNITS
 70
     0
  9
$AUPREC
 70
     0
  9
$MENU
  1
.
  9
$ELEVATION
 40
0.0
  9
$PELEVATION
 40
0.0
  9
$THICKNESS
 40
0.0
  9
$LIMCHECK
 70
     0
  9
$CHAMFERA
 40
0.5
  9
$CHAMFERB
 40
0.5
  9
$CHAMFERC
 40
1.0
  9
$CHAMFERD
 40
0.0
  9
$SKPOLY
 70
     0
  9
$TDCREATE
 40
2459780.452560648
  9
$TDUCREATE
 40
2459780.077560648
  9
$TDUPDATE
 40
2459780.452561724
  9
$TDUUPDATE
 40
2459780.077561724
  9
$TDINDWG
 40
0.0000000116
  9
$TDUSRTIMER
 40
0.0000000116
  9
$USRTIMER
 70
     1
  9
$ANGBASE
 50
0.0
  9
$ANGDIR
 70
     0
  9
$PDMODE
 70
     0
  9
$PDSIZE
 40
0.0
  9
$PLINEWID
 40
0.0
  9
$SPLFRAME
 70
     0
  9
$SPLINETYPE
 70
     6
  9
$SPLINESEGS
 70
     8
  9
$HANDSEED
  5
135
  9
$SURFTAB1
 70
     6
  9
$SURFTAB2
 70
     6
  9
$SURFTYPE
 70
     6
  9
$SURFU
 70
     6
  9
$SURFV
 70
     6
  9
$UCSBASE
  2

  9
$UCSNAME
  2

  9
$UCSORG
 10
0.0
 20
0.0
 30
0.0
  9
$UCSXDIR
 10
1.0
 20
0.0
 30
0.0
  9
$UCSYDIR
 10
0.0
 20
1.0
 30
0.0
  9
$UCSORTHOREF
  2

  9
$UCSORTHOVIEW
 70
     0
  9
$UCSORGTOP
 10
0.0
 20
0.0
 30
0.0
  9
$UCSORGBOTTOM
 10
0.0
 20
0.0
 30
0.0
  9
$UCSORGLEFT
 10
0.0
 20
0.0
 30
0.0
  9
$UCSORGRIGHT
 10
0.0
 20
0.0
 30
0.0
  9
$UCSORGFRONT
 10
0.0
 20
0.0
 30
0.0
  9
$UCSORGBACK
 10
0.0
 20
0.0
 30
0.0
  9
$PUCSBASE
  2

  9
$PUCSNAME
  2

  9
$PUCSORG
 10
0.0
 20
0.0
 30
0.0
  9
$PUCSXDIR
 10
1.0
 20
0.0
 30
0.0
  9
$PUCSYDIR
 10
0.0
 20
1.0
 30
0.0
  9
$PUCSORTHOREF
  2

  9
$PUCSORTHOVIEW
 70
     0
  9
$PUCSORGTOP
 10
0.0
 20
0.0
 30
0.0
  9
$PUCSORGBOTTOM
 10
0.0
 20
0.0
 30
0.0
  9
$PUCSORGLEFT
 10
0.0
 20
0.0
 30
0.0
  9
$PUCSORGRIGHT
 10
0.0
 20
0.0
 30
0.0
  9
$PUCSORGFRONT
 10
0.0
 20
0.0
 30
0.0
  9
$PUCSORGBACK
 10
0.0
 20
0.0
 30
0.0
  9
$USERI1
 70
     0
  9
$USERI2
 70
     0
  9
$USERI3
 70
     0
  9
$USERI4
 70
     0
  9
$USERI5
 70
     0
  9
$USERR1
 40
18.1
  9
$USERR2
 40
0.0
  9
$USERR3
 40
0.0
  9
$USERR4
 40
0.0
  9
$USERR5
 40
0.0
  9
$WORLDVIEW
 70
     1
  9
$SHADEDGE
 70
     3
  9
$SHADEDIF
 70
    70
  9
$TILEMODE
 70
     1
  9
$MAXACTVP
 70
    64
  9
$PINSBASE
 10
0.0
 20
0.0
 30
0.0
  9
$PLIMCHECK
 70
     0
  9
$PEXTMIN
 10
1.00000000000000E+20
 20
1.00000000000000E+20
 30
1.00000000000000E+20
  9
$PEXTMAX
 10
-1.00000000000000E+20
 20
-1.00000000000000E+20
 30
-1.00000000000000E+20
  9
$PLIMMIN
 10
0.0
 20
0.0
  9
$PLIMMAX
 10
12.0
 20
9.0
  9
$UNITMODE
 70
     0
  9
$VISRETAIN
 70
     1
  9
$PLINEGEN
 70
     0
  9
$PSLTSCALE
 70
     1
  9
$TREEDEPTH
 70
  3020
  9
$CMLSTYLE
  2
Standard
  9
$CMLJUST
 70
     0
  9
$CMLSCALE
 40
1.0
  9
$PROXYGRAPHICS
 70
     1
  9
$MEASUREMENT
 70
     1
  9
$CELWEIGHT
370
    -1
  9
$ENDCAPS
280
     0
  9
$JOINSTYLE
280
     0
  9
$LWDISPLAY
290
     0
  9
$INSUNITS
 70
     4
  9
$HYPERLINKBASE
  1

  9
$STYLESHEET
  1

  9
$XEDIT
290
     1
  9
$CEPSNTYPE
380
     0
  9
$PSTYLEMODE
290
     1
  9
$FINGERPRINTGUID
  2
{82AF54F7-DC4B-4EB3-9DA3-C7D59F2D1AA8}
  9
$VERSIONGUID
  2
{FAEB1C32-E019-11D5-929B-00C0DF256EC4}
  9
$EXTNAMES
290
     1
  9
$PSVPSCALE
 40
0.0
  9
$OLESTARTUP
290
     0
  0
ENDSEC
  0
SECTION
  2
CLASSES
  0
CLASS
  1
ACDBDICTIONARYWDFLT
  2
AcDbDictionaryWithDefault
  3
ObjectDBX Classes
 90
        0
280
     0
281
     0
  0
CLASS
  1
VISUALSTYLE
  2
AcDbVisualStyle
  3
ObjectDBX Classes
 90
     4095
280
     0
281
     0
  0
CLASS
  1
MATERIAL
  2
AcDbMaterial
  3
ObjectDBX Classes
 90
     1153
280
     0
281
     0
  0
CLASS
  1
DICTIONARYVAR
  2
AcDbDictionaryVar
  3
ObjectDBX Classes
 90
        0
280
     0
281
     0
  0
CLASS
  1
ACDBPLACEHOLDER
  2
AcDbPlaceHolder
  3
ObjectDBX Classes
 90
        0
280
     0
281
     0
  0
CLASS
  1
LAYOUT
  2
AcDbLayout
  3
ObjectDBX Classes
 90
        0
280
     0
281
     0
  0
ENDSEC
  0
SECTION
  2
TABLES
  0
TABLE
  2
VPORT
  5
8
330
0
100
AcDbSymbolTable
 70
     1
  0
VPORT
  5
29
330
8
100
AcDbSymbolTableRecord
100
AcDbViewportTableRecord
  2
*Active
 70
     0
 10
0.0
 20
0.0
 11
1.0
 21
1.0
 12
105.0
 22
148.5
 13
0.0
 23
0.0
 14
0.5
 24
0.5
 15
0.5
 25
0.5
 16
0.0
 26
0.0
 36
1.0
 17
0.0
 27
0.0
 37
0.0
 40
326.7
 41
1.60267857142857
 42
50.0
 43
0.0
 44
0.0
 50
0.0
 51
0.0
 71
     0
 72
   100
 73
     1
 74
     3
 75
     0
 76
     0
 77
     0
 78
     0
281
     0
 65
     1
110
0.0
120
0.0
130
0.0
111
1.0
121
0.0
131
0.0
112
0.0
122
1.0
132
0.0
 79
     0
146
0.0
  0
ENDTAB
  0
TABLE
  2
LTYPE
  5
5
330
0
100
AcDbSymbolTable
 70
     8
  0
LTYPE
  5
14
330
5
100
AcDbSymbolTableRecord
100
AcDbLinetypeTableRecord
  2
ByBlock
 70
     0
  3

 72
    65
 73
     0
 40
0.0
  0
LTYPE
  5
15
330
5
100
AcDbSymbolTableRecord
100
AcDbLinetypeTableRecord
  2
ByLayer
 70
     0
  3

 72
    65
 73
     0
 40
0.0
  0
LTYPE
  5
16
330
5
100
AcDbSymbolTableRecord
100
AcDbLinetypeTableRecord
  2
Continuous
 70
     0
  3
Solid line
 72
    65
 73
     0
 40
0.0
  0
LTYPE
  5
3F
330
5
100
AcDbSymbolTableRecord
100
AcDbLinetypeTableRecord
  2
DASHED
 70
     0
  3
Dashed
 72
    65
 73
     2
 40
15.0
 49
7.0
 74
     0
 49
-8.0
 74
     0
  0
LTYPE
  5
40
330
5
100
AcDbSymbolTableRecord
100
AcDbLinetypeTableRecord
  2
DOTTED
 70
     0
  3
Dotted
 72
    65
 73
     2
 40
1.0
 49
0.0
 74
     0
 49
-1.0
 74
     0
  0
LTYPE
  5
41
330
5
100
AcDbSymbolTableRecord
100
AcDbLinetypeTableRecord
  2
DOT_CENTER
 70
     0
  3
Dot_Center
 72
    65
 73
     4
 40
14.0
 49
12.0
 74
     0
 49
-1.0
 74
     0
 49
0.0
 74
     0
 49
-1.0
 74
     0
  0
LTYPE
  5
42
330
5
100
AcDbSymbolTableRecord
100
AcDbLinetypeTableRecord
  2
LONG_DASHED
 70
     0
  3
Long_Dashed
 72
    65
 73
     2
 40
15.0
 49
10.0
 74
     0
 49
-5.0
 74
     0
  0
LTYPE
  5
43
330
5
100
AcDbSymbolTableRecord
100
AcDbLinetypeTableRecord
  2
DASH_CENTER
 70
     0
  3
Dash_Center
 72
    65
 73
     4
 40
14.0
 49
11.0
 74
     0
 49
-1.0
 74
     0
 49
1.0
 74
     0
 49
-1.0
 74
     0
  0
LTYPE
  5
44
330
5
100
AcDbSymbolTableRecord
100
AcDbLinetypeTableRecord
  2
PHANTOM
 70
     0
  3
Phantom
 72
    65
 73
     6
 40
13.0
 49
10.0
 74
     0
 49
-1.0
 74
     0
 49
0.0
 74
     0
 49
-1.0
 74
     0
 49
0.0
 74
     0
 49
-1.0
 74
     0
  0
LTYPE
  5
45
330
5
100
AcDbSymbolTableRecord
100
AcDbLinetypeTableRecord
  2
CENTER_DASH_DASH
 70
     0
  3
Center_Dash_Dash
 72
    65
 73
     6
 40
14.0
 49
9.0
 74
     0
 49
-1.0
 74
     0
 49
1.0
 74
     0
 49
-1.0
 74
     0
 49
1.0
 74
     0
 49
-1.0
 74
     0
  0
ENDTAB
  0
TABLE
  2
LAYER
  5
2
330
0
100
AcDbSymbolTable
 70
     3
  0
LAYER
  5
10
330
2
100
AcDbSymbolTableRecord
100
AcDbLayerTableRecord
  2
0
 70
     0
 62
     7
  6
Continuous
370
    -3
390
F
  0
LAYER
  5
46
330
2
100
AcDbSymbolTableRecord
100
AcDbLayerTableRecord
  2
1
 70
     0
 62
     7
  6
Continuous
370
    -3
390
F
  0
LAYER
  5
47
330
2
100
AcDbSymbolTableRecord
100
AcDbLayerTableRecord
  2
_U_30EC_U_30A4_U_30E4_U_30FC_1
 70
     0
 62
     7
  6
Continuous
370
    -3
390
F
  0
ENDTAB
  0
TABLE
  2
STYLE
  5
3
330
0
100
AcDbSymbolTable
 70
     3
  0
STYLE
  5
11
330
3
100
AcDbSymbolTableRecord
100
AcDbTextStyleTableRecord
  2
Standard
 70
     0
 40
0.0
 41
1.0
 50
0.0
 71
     0
 42
0.2
  3
txt
  4

  0
STYLE
  5
B6
330
3
100
AcDbSymbolTableRecord
100
AcDbTextStyleTableRecord
  2
CONVERTER_11
 70
     0
 40
0.0
 41
0.89
 50
0.0
 71
     0
 42
0.2
  3
MS Mincho.ttf
  4

1001
ACAD
1000
MS Mincho
1071
    32785
  0
STYLE
  5
DE
330
3
100
AcDbSymbolTableRecord
100
AcDbTextStyleTableRecord
  2
CONVERTER_12
 70
     0
 40
0.0
 41
0.9
 50
0.0
 71
     0
 42
0.2
  3
txt.shx
  4

  0
ENDTAB
  0
TABLE
  2
VIEW
  5
6
330
0
100
AcDbSymbolTable
 70
     0
  0
ENDTAB
  0
TABLE
  2
UCS
  5
7
330
0
100
AcDbSymbolTable
 70
     0
  0
ENDTAB
  0
TABLE
  2
APPID
  5
9
330
0
100
AcDbSymbolTable
 70
     1
  0
APPID
  5
12
330
9
100
AcDbSymbolTableRecord
100
AcDbRegAppTableRecord
  2
ACAD
 70
     0
  0
ENDTAB
  0
TABLE
  2
DIMSTYLE
  5
A
330
0
100
AcDbSymbolTable
 70
     2
100
AcDbDimStyleTable
  0
DIMSTYLE
105
27
330
A
100
AcDbSymbolTableRecord
100
AcDbDimStyleTableRecord
  2
Standard
 70
     0
178
     0
340
11
  0
DIMSTYLE
105
F6
102
{ACAD_REACTORS
330
F7
102
}
330
A
100
AcDbSymbolTableRecord
100
AcDbDimStyleTableRecord
  2
ME10_DIM_10
 70
     0
 41
3.5
 42
0.0
 44
1.0
 73
     0
 74
     0
 77
     1
 78
     8
140
3.5
147
1.0
172
     1
173
     1
174
     1
175
     1
176
     2
177
     2
271
     2
178
     7
271
     2
340
DE
  0
ENDTAB
  0
TABLE
  2
BLOCK_RECORD
  5
1
330
0
100
AcDbSymbolTable
 70
     7
  0
BLOCK_RECORD
  5
1F
330
1
100
AcDbSymbolTableRecord
100
AcDbBlockTableRecord
  2
*Model_Space
340
22
  0
BLOCK_RECORD
  5
1B
330
1
100
AcDbSymbolTableRecord
100
AcDbBlockTableRecord
  2
*Paper_Space
340
1E
  0
BLOCK_RECORD
  5
23
330
1
100
AcDbSymbolTableRecord
100
AcDbBlockTableRecord
  2
*Paper_Space0
340
26
  0
BLOCK_RECORD
  5
48
330
1
100
AcDbSymbolTableRecord
100
AcDbBlockTableRecord
  2
開示A4
340
0
102
{BLKREFS
331
4C
102
}
  0
BLOCK_RECORD
  5
4B
330
1
100
AcDbSymbolTableRecord
100
AcDbBlockTableRecord
  2
開示A4枠
340
0
102
{BLKREFS
331
52
102
}
  0
BLOCK_RECORD
  5
4F
330
1
100
AcDbSymbolTableRecord
100
AcDbBlockTableRecord
  2
91-61
340
0
102
{BLKREFS
331
53
102
}
  0
BLOCK_RECORD
  5
EB
330
1
100
AcDbSymbolTableRecord
100
AcDbBlockTableRecord
  2
*D4
340
0
  0
BLOCK_RECORD
  5
F8
330
1
100
AcDbSymbolTableRecord
100
AcDbBlockTableRecord
  2
*D5
340
0
102
{BLKREFS
331
FF
102
}
  0
BLOCK_RECORD
  5
100
330
1
100
AcDbSymbolTableRecord
100
AcDbBlockTableRecord
  2
*D6
340
0
102
{BLKREFS
331
109
102
}
  0
ENDTAB
  0
ENDSEC
  0
SECTION
  2
BLOCKS
  0
BLOCK
  5
20
330
1F
100
AcDbEntity
  8
0
100
AcDbBlockBegin
  2
*Model_Space
 70
     0
 10
0.0
 20
0.0
 30
0.0
  3
*Model_Space
  1

  0
ENDBLK
  5
21
330
1F
100
AcDbEntity
  8
0
100
AcDbBlockEnd
  0
BLOCK
  5
1C
330
1B
100
AcDbEntity
 67
     1
  8
0
100
AcDbBlockBegin
  2
*Paper_Space
 70
     0
 10
0.0
 20
0.0
 30
0.0
  3
*Paper_Space
  1

  0
ENDBLK
  5
1D
330
1B
100
AcDbEntity
 67
     1
  8
0
100
AcDbBlockEnd
  0
BLOCK
  5
24
330
23
100
AcDbEntity
  8
0
100
AcDbBlockBegin
  2
*Paper_Space0
 70
     0
 10
0.0
 20
0.0
 30
0.0
  3
*Paper_Space0
  1

  0
ENDBLK
  5
25
330
23
100
AcDbEntity
  8
0
100
AcDbBlockEnd
  0
BLOCK
  5
49
330
48
100
AcDbEntity
  8
0
100
AcDbBlockBegin
  2
開示A4
 70
     0
 10
0.0
 20
0.00000000000003
 30
0.0
  3
開示A4
  1

  0
POINT
  5
54
330
48
100
AcDbEntity
  8
1
 62
     4
100
AcDbPoint
 10
183.0
 20
15.00000000000003
 30
0.0
  0
POINT
  5
55
330
48
100
AcDbEntity
  8
1
 62
     4
100
AcDbPoint
 10
93.75000000000003
 20
17.00000000000003
 30
0.0
  0
POINT
  5
56
330
48
100
AcDbEntity
  8
1
 62
     4
100
AcDbPoint
 10
85.25000000000003
 20
17.00000000000003
 30
0.0
  0
POINT
  5
57
330
48
100
AcDbEntity
  8
1
 62
     4
100
AcDbPoint
 10
106.5
 20
19.00000000000003
 30
0.0
  0
POINT
  5
58
330
48
100
AcDbEntity
  8
1
 62
     4
100
AcDbPoint
 10
106.5
 20
12.50000000000003
 30
0.0
  0
POINT
  5
59
330
48
100
AcDbEntity
  8
1
 62
     4
100
AcDbPoint
 10
112.25
 20
12.50000000000003
 30
0.0
  0
POINT
  5
5A
330
48
100
AcDbEntity
  8
1
 62
     4
100
AcDbPoint
 10
100.75
 20
12.50000000000003
 30
0.0
  0
POINT
  5
5B
330
48
100
AcDbEntity
  8
1
 62
     4
100
AcDbPoint
 10
123.5
 20
19.00000000000003
 30
0.0
  0
POINT
  5
5C
330
48
100
AcDbEntity
  8
1
 62
     4
100
AcDbPoint
 10
123.5
 20
12.50000000000003
 30
0.0
  0
POINT
  5
5D
330
48
100
AcDbEntity
  8
1
 62
     4
100
AcDbPoint
 10
129.25
 20
12.50000000000003
 30
0.0
  0
POINT
  5
5E
330
48
100
AcDbEntity
  8
1
 62
     4
100
AcDbPoint
 10
117.75
 20
12.50000000000003
 30
0.0
  0
POINT
  5
5F
330
48
100
AcDbEntity
  8
1
 62
     4
100
AcDbPoint
 10
140.5
 20
19.00000000000003
 30
0.0
  0
POINT
  5
60
330
48
100
AcDbEntity
  8
1
 62
     4
100
AcDbPoint
 10
140.5
 20
12.50000000000003
 30
0.0
  0
POINT
  5
61
330
48
100
AcDbEntity
  8
1
 62
     4
100
AcDbPoint
 10
146.25
 20
12.50000000000003
 30
0.0
  0
POINT
  5
62
330
48
100
AcDbEntity
  8
1
 62
     4
100
AcDbPoint
 10
134.75
 20
12.50000000000003
 30
0.0
  0
POINT
  5
63
330
48
100
AcDbEntity
  8
1
 62
     4
100
AcDbPoint
 10
151.75
 20
12.50000000000003
 30
0.0
  0
POINT
  5
64
330
48
100
AcDbEntity
  8
1
 62
     4
100
AcDbPoint
 10
163.25
 20
12.50000000000003
 30
0.0
  0
POINT
  5
65
330
48
100
AcDbEntity
  8
1
 62
     4
100
AcDbPoint
 10
157.5
 20
12.50000000000003
 30
0.0
  0
POINT
  5
66
330
48
100
AcDbEntity
  8
1
 62
     4
100
AcDbPoint
 10
57.00000000000003
 20
14.25000000000003
 30
0.0
  0
POINT
  5
67
330
48
100
AcDbEntity
  8
1
 62
     4
100
AcDbPoint
 10
57.00000000000003
 20
22.75000000000004
 30
0.0
  0
POINT
  5
68
330
48
100
AcDbEntity
  8
1
 62
     4
100
AcDbPoint
 10
47.50000000000003
 20
282.0000000000003
 30
0.0
  0
POINT
  5
69
330
48
100
AcDbEntity
  8
1
 62
     4
100
AcDbPoint
 10
157.5
 20
19.00000000000003
 30
0.0
  0
POINT
  5
6A
330
48
100
AcDbEntity
  8
1
 62
     4
100
AcDbPoint
 10
57.00000000000003
 20
16.25000000000003
 30
0.0
  0
POINT
  5
6B
330
48
100
AcDbEntity
  8
1
 62
     4
100
AcDbPoint
 10
57.00000000000003
 20
24.75000000000004
 30
0.0
  0
POINT
  5
6C
330
48
100
AcDbEntity
  8
1
 62
     4
100
AcDbPoint
 10
57.00000000000003
 20
20.75000000000003
 30
0.0
  0
POINT
  5
6D
330
48
100
AcDbEntity
  8
1
 62
     4
100
AcDbPoint
 10
57.00000000000003
 20
12.25000000000003
 30
0.0
  0
POINT
  5
6E
330
48
100
AcDbEntity
  8
1
 62
     4
100
AcDbPoint
 10
34.00000000000003
 20
34.00000000000003
 30
0.0
  0
LINE
  5
73
330
48
100
AcDbEntity
  8
1
  6
Continuous
 62
     7
100
AcDbLine
 10
105.0
 20
10.00000000000003
 30
0.0
 11
200.0
 21
10.00000000000003
 31
0.0
  0
LINE
  5
74
330
48
100
AcDbEntity
  8
1
  6
Continuous
 62
     2
100
AcDbLine
 10
105.0
 20
10.00000000000003
 30
0.0
 11
105.0
 21
5.00000000000003
 31
0.0
  0
LINE
  5
75
330
48
100
AcDbEntity
  8
1
  6
Continuous
 62
     7
100
AcDbLine
 10
200.0
 20
148.5
 30
0.0
 11
200.0
 21
287.0000000000003
 31
0.0
  0
LINE
  5
76
330
48
100
AcDbEntity
  8
1
  6
Continuous
 62
     2
100
AcDbLine
 10
200.0
 20
148.5
 30
0.0
 11
205.0
 21
148.5
 31
0.0
  0
LINE
  5
77
330
48
100
AcDbEntity
  8
1
  6
Continuous
 62
     7
100
AcDbLine
 10
25.00000000000003
 20
148.5
 30
0.0
 11
25.00000000000003
 21
287.0000000000003
 31
0.0
  0
LINE
  5
78
330
48
100
AcDbEntity
  8
1
  6
Continuous
 62
     2
100
AcDbLine
 10
25.00000000000003
 20
148.5
 30
0.0
 11
20.00000000000003
 21
148.5
 31
0.0
  0
LINE
  5
79
330
48
100
AcDbEntity
  8
1
  6
Continuous
 62
     7
100
AcDbLine
 10
105.0
 20
287.0000000000003
 30
0.0
 11
25.00000000000003
 21
287.0000000000003
 31
0.0
  0
LINE
  5
7A
330
48
100
AcDbEntity
  8
1
  6
Continuous
 62
     2
100
AcDbLine
 10
105.0
 20
287.0000000000003
 30
0.0
 11
105.0
 21
292.0000000000003
 31
0.0
  0
LINE
  5
7B
330
48
100
AcDbEntity
  8
1
  6
Continuous
 62
     2
100
AcDbLine
 10
166.0
 20
20.00000000000003
 30
0.0
 11
200.0
 21
20.00000000000003
 31
0.0
  0
LINE
  5
7C
330
48
100
AcDbEntity
  8
1
  6
Continuous
 62
     2
100
AcDbLine
 10
98.00000000000003
 20
27.00000000000004
 30
0.0
 11
98.00000000000003
 21
10.00000000000001
 31
0.0
  0
LINE
  5
7D
330
48
100
AcDbEntity
  8
1
  6
Continuous
 62
     2
100
AcDbLine
 10
115.0
 20
27.00000000000004
 30
0.0
 11
115.0
 21
10.00000000000001
 31
0.0
  0
LINE
  5
7E
330
48
100
AcDbEntity
  8
1
  6
Continuous
 62
     2
100
AcDbLine
 10
149.0
 20
27.00000000000004
 30
0.0
 11
149.0
 21
10.00000000000003
 31
0.0
  0
LINE
  5
7F
330
48
100
AcDbEntity
  8
1
  6
Continuous
 62
     2
100
AcDbLine
 10
132.0
 20
27.00000000000004
 30
0.0
 11
132.0
 21
10.00000000000001
 31
0.0
  0
LINE
  5
80
330
48
100
AcDbEntity
  8
1
  6
Continuous
 62
     2
100
AcDbLine
 10
166.0
 20
27.00000000000004
 30
0.0
 11
166.0
 21
10.00000000000003
 31
0.0
  0
LINE
  5
81
330
48
100
AcDbEntity
  8
1
  6
Continuous
 62
     2
100
AcDbLine
 10
55.00000000000003
 20
277.0000000000003
 30
0.0
 11
25.00000000000003
 21
277.0000000000003
 31
0.0
  0
LINE
  5
82
330
48
100
AcDbEntity
  8
1
  6
Continuous
 62
     7
100
AcDbLine
 10
25.00000000000003
 20
10.00000000000003
 30
0.0
 11
25.00000000000003
 21
148.5
 31
0.0
  0
LINE
  5
83
330
48
100
AcDbEntity
  8
1
  6
Continuous
 62
     2
100
AcDbLine
 10
40.00000000000003
 20
287.0000000000003
 30
0.0
 11
40.00000000000003
 21
277.0000000000003
 31
0.0
  0
LINE
  5
84
330
48
100
AcDbEntity
  8
1
  6
Continuous
 62
     2
100
AcDbLine
 10
55.00000000000003
 20
287.0000000000003
 30
0.0
 11
55.00000000000003
 21
277.0000000000003
 31
0.0
  0
LINE
  5
85
330
48
100
AcDbEntity
  8
1
  6
Continuous
 62
     2
100
AcDbLine
 10
33.00000000000003
 20
41.00000000000003
 30
0.0
 11
33.00000000000003
 21
27.00000000000003
 31
0.0
  0
LINE
  5
86
330
48
100
AcDbEntity
  8
1
  6
Continuous
 62
     7
100
AcDbLine
 10
200.0
 20
27.00000000000004
 30
0.0
 11
25.00000000000003
 21
27.00000000000004
 31
0.0
  0
LINE
  5
87
330
48
100
AcDbEntity
  8
1
  6
Continuous
 62
     7
100
AcDbLine
 10
25.00000000000003
 20
41.00000000000003
 30
0.0
 11
200.0
 21
41.00000000000003
 31
0.0
  0
LINE
  5
88
330
48
100
AcDbEntity
  8
1
  6
PHANTOM
 62
     4
100
AcDbLine
 10
0.0
 20
0.00000000000003
 30
0.0
 11
210.0
 21
0.00000000000003
 31
0.0
  0
LINE
  5
89
330
48
100
AcDbEntity
  8
1
  6
PHANTOM
 62
     4
100
AcDbLine
 10
210.0
 20
0.00000000000003
 30
0.0
 11
210.0
 21
297.0
 31
0.0
  0
LINE
  5
8A
330
48
100
AcDbEntity
  8
1
  6
PHANTOM
 62
     4
100
AcDbLine
 10
210.0
 20
297.0
 30
0.0
 11
0.0
 21
297.0
 31
0.0
  0
LINE
  5
8B
330
48
100
AcDbEntity
  8
1
  6
PHANTOM
 62
     4
100
AcDbLine
 10
0.0
 20
297.0
 30
0.0
 11
0.0
 21
0.00000000000003
 31
0.0
  0
LINE
  5
8C
330
48
100
AcDbEntity
  8
1
  6
Continuous
 62
     7
100
AcDbLine
 10
25.00000000000003
 20
10.00000000000003
 30
0.0
 11
105.0
 21
10.00000000000003
 31
0.0
  0
LINE
  5
8D
330
48
100
AcDbEntity
  8
1
  6
Continuous
 62
     7
100
AcDbLine
 10
200.0
 20
10.00000000000003
 30
0.0
 11
200.0
 21
148.5
 31
0.0
  0
LINE
  5
8E
330
48
100
AcDbEntity
  8
1
  6
Continuous
 62
     7
100
AcDbLine
 10
200.0
 20
287.0000000000003
 30
0.0
 11
105.0
 21
287.0000000000003
 31
0.0
  0
LINE
  5
8F
330
48
100
AcDbEntity
  8
1
  6
Continuous
 62
     2
100
AcDbLine
 10
25.00000000000003
 20
18.50000000000003
 30
0.0
 11
81.00000000000003
 21
18.50000000000003
 31
0.0
  0
LINE
  5
90
330
48
100
AcDbEntity
  8
1
  6
Continuous
 62
     2
100
AcDbLine
 10
33.00000000000003
 20
27.00000000000003
 30
0.0
 11
33.00000000000003
 21
10.00000000000003
 31
0.0
  0
LINE
  5
91
330
48
100
AcDbEntity
  8
1
  6
Continuous
 62
     7
100
AcDbLine
 10
191.0
 20
24.70000000000003
 30
0.0
 11
191.0
 21
22.30000000000004
 31
0.0
  0
LINE
  5
92
330
48
100
AcDbEntity
  8
1
  6
Continuous
 62
     7
100
AcDbLine
 10
191.0
 20
24.70000000000003
 30
0.0
 11
196.0
 21
25.50000000000004
 31
0.0
  0
LINE
  5
93
330
48
100
AcDbEntity
  8
1
  6
Continuous
 62
     7
100
AcDbLine
 10
196.0
 20
25.50000000000004
 30
0.0
 11
196.0
 21
21.50000000000003
 31
0.0
  0
LINE
  5
94
330
48
100
AcDbEntity
  8
1
  6
Continuous
 62
     7
100
AcDbLine
 10
196.0
 20
21.50000000000003
 30
0.0
 11
191.0
 21
22.30000000000004
 31
0.0
  0
LINE
  5
95
330
48
100
AcDbEntity
  8
1
  6
DOT_CENTER
 62
     2
100
AcDbLine
 10
184.0
 20
23.50000000000004
 30
0.0
 11
197.0
 21
23.50000000000004
 31
0.0
  0
LINE
  5
96
330
48
100
AcDbEntity
  8
1
  6
DOT_CENTER
 62
     2
100
AcDbLine
 10
187.0
 20
26.50000000000004
 30
0.0
 11
187.0
 21
20.50000000000003
 31
0.0
  0
LINE
  5
97
330
48
100
AcDbEntity
  8
1
  6
Continuous
 62
     2
100
AcDbLine
 10
81.00000000000003
 20
27.00000000000004
 30
0.0
 11
81.00000000000003
 21
10.00000000000003
 31
0.0
  0
CIRCLE
  5
98
330
48
100
AcDbEntity
  8
1
  6
Continuous
 62
     7
100
AcDbCircle
 10
103.5
 20
12.50000000000003
 30
0.0
 40
0.2999999999999972
  0
CIRCLE
  5
99
330
48
100
AcDbEntity
  8
1
  6
Continuous
 62
     7
100
AcDbCircle
 10
109.5
 20
12.50000000000003
 30
0.0
 40
0.2999999999999972
  0
CIRCLE
  5
9A
330
48
100
AcDbEntity
  8
1
  6
Continuous
 62
     7
100
AcDbCircle
 10
120.5
 20
12.50000000000003
 30
0.0
 40
0.2999999999999972
  0
CIRCLE
  5
9B
330
48
100
AcDbEntity
  8
1
  6
Continuous
 62
     7
100
AcDbCircle
 10
126.5
 20
12.50000000000003
 30
0.0
 40
0.2999999999999972
  0
CIRCLE
  5
9C
330
48
100
AcDbEntity
  8
1
  6
Continuous
 62
     7
100
AcDbCircle
 10
137.5
 20
12.50000000000003
 30
0.0
 40
0.3000000000000114
  0
CIRCLE
  5
9D
330
48
100
AcDbEntity
  8
1
  6
Continuous
 62
     7
100
AcDbCircle
 10
143.5
 20
12.50000000000003
 30
0.0
 40
0.3000000000000114
  0
CIRCLE
  5
9E
330
48
100
AcDbEntity
  8
1
  6
Continuous
 62
     7
100
AcDbCircle
 10
160.5
 20
12.50000000000003
 30
0.0
 40
0.3000000000000114
  0
CIRCLE
  5
9F
330
48
100
AcDbEntity
  8
1
  6
Continuous
 62
     7
100
AcDbCircle
 10
154.5
 20
12.50000000000003
 30
0.0
 40
0.3000000000000114
  0
CIRCLE
  5
A0
330
48
100
AcDbEntity
  8
1
  6
Continuous
 62
     7
100
AcDbCircle
 10
187.0
 20
23.50000000000004
 30
0.0
 40
1.200000000000102
  0
CIRCLE
  5
A1
330
48
100
AcDbEntity
  8
1
  6
Continuous
 62
     7
100
AcDbCircle
 10
187.0
 20
23.50000000000004
 30
0.0
 40
2.0
  0
CIRCLE
  5
A2
330
48
100
AcDbEntity
  8
1
  6
DOT_CENTER
 62
     7
100
AcDbCircle
 10
89.50000000000003
 20
16.00000000000003
 30
0.0
 40
0.0999999999999943
  0
CIRCLE
  5
A3
330
48
100
AcDbEntity
  8
1
  6
DOT_CENTER
 62
     7
100
AcDbCircle
 10
89.50000000000003
 20
18.00000000000003
 30
0.0
 40
0.0999999999999943
  0
SPLINE
  5
A4
102
{ACAD_REACTORS
330
C3
102
}
330
48
100
AcDbEntity
  8
_U_30EC_U_30A4_U_30E4_U_30FC_1
  6
Continuous
 62
     2
100
AcDbSpline
210
0.0
220
0.0
230
1.0
 70
     8
 71
     3
 72
    24
 73
    20
 74
    18
 42
0.000000001
 43
0.0000000001
 44
0.00000001
 40
0.0
 40
0.0
 40
0.0
 40
0.0
 40
0.2211075008753917
 40
0.4273218586245225
 40
0.5080174679239201
 40
0.5914835907870066
 40
0.8143265690192566
 40
1.054651302686572
 40
1.295452694023164
 40
1.51810923132882
 40
1.540864321905435
 40
1.595126460622695
 40
1.659890947896009
 40
1.714153085187367
 40
1.736908174961667
 40
1.764951100735357
 40
1.801562291220947
 40
1.953914424543638
 40
2.1261041673797
 40
2.1261041673797
 40
2.1261041673797
 40
2.1261041673797
 10
185.9375369556889
 20
15.58989295113018
 30
0.0
 10
185.9112579081811
 20
15.53097628234376
 30
0.0
 10
185.8604698894426
 20
15.41711139679261
 30
0.0
 10
185.8131784839111
 20
15.14441958233119
 30
0.0
 10
185.7043482802618
 20
15.24445482575457
 30
0.0
 10
185.5514800279637
 20
15.27118593367332
 30
0.0
 10
185.7686155181199
 20
15.48518135017634
 30
0.0
 10
185.7838483674381
 20
15.70332117782489
 30
0.0
 10
185.8906889492
 20
15.88451579066428
 30
0.0
 10
185.8305380947078
 20
16.16913226311407
 30
0.0
 10
185.9334317395402
 20
16.14114089222453
 30
0.0
 10
185.977993346815
 20
16.13243251602304
 30
0.0
 10
186.0380842395397
 20
16.12139654183358
 30
0.0
 10
186.0756619587437
 20
16.10767523055563
 30
0.0
 10
186.1252466928606
 20
16.10756076160225
 30
0.0
 10
186.0930158919325
 20
16.07306592398626
 30
0.0
 10
186.0171802221882
 20
16.08404104537967
 30
0.0
 10
186.0429447159692
 20
15.89858969582454
 30
0.0
 10
186.005589676385
 20
15.80702313549593
 30
0.0
 10
185.9857704961609
 20
15.75844135397708
 30
0.0
 11
185.9375369556889
 21
15.58989295113018
 31
0.0
 11
185.8616471328552
 21
15.38221708318562
 31
0.0
 11
185.7717402238433
 21
15.19663392356195
 31
0.0
 11
185.701149392311
 21
15.23573272563553
 31
0.0
 11
185.6245525192651
 21
15.26889163187721
 31
0.0
 11
185.7214026947455
 21
15.4695880120354
 31
0.0
 11
185.7994641467471
 21
15.69688163177026
 31
0.0
 11
185.858971692972
 21
15.93021436608694
 31
0.0
 11
185.9001601511226
 21
16.14902808999057
 31
0.0
 11
185.9224183822214
 21
16.14429889221397
 31
0.0
 11
185.975495702534
 21
16.13302157443902
 31
0.0
 11
186.0388460525844
 21
16.11956154999795
 31
0.0
 11
186.091923372897
 21
16.108284232223
 31
0.0
 11
186.1141816039958
 21
16.1035550344464
 31
0.0
 11
186.096409715746
 21
16.08186250841013
 31
0.0
 11
186.0606122998071
 21
16.0741862844537
 31
0.0
 11
186.0281953301479
 21
15.92532288171316
 31
0.0
 11
185.9857704961609
 21
15.75844135397708
 31
0.0
  0
SPLINE
  5
A5
102
{ACAD_REACTORS
330
C3
102
}
330
48
100
AcDbEntity
  8
_U_30EC_U_30A4_U_30E4_U_30FC_1
  6
Continuous
 62
     2
100
AcDbSpline
210
0.0
220
0.0
230
1.0
 70
     8
 71
     3
 72
    70
 73
    66
 74
    64
 42
0.000000001
 43
0.0000000001
 44
0.00000001
 40
0.0
 40
0.0
 40
0.0
 40
0.0
 40
0.0241731073021472
 40
0.0846058988987013
 40
0.1631685280353284
 40
0.2417311571789756
 40
0.3021639488292751
 40
0.3263370654895541
 40
0.3533118254248881
 40
0.4228783438922111
 40
0.5179999095313402
 40
0.6216398239466084
 40
0.7167613891499688
 40
0.7863279069649846
 40
0.8133026791761818
 40
0.8372943998771656
 40
0.8945054261372849
 40
0.9627895541962619
 40
1.020000580349072
 40
1.04399230097517
 40
1.071934345522903
 40
1.113121768772916
 40
1.14522519933224
 40
1.225483775412775
 40
1.329819923771484
 40
1.434156071994374
 40
1.514414647795793
 40
1.546518078208401
 40
1.578974764260175
 40
1.66267884931417
 40
1.77713137366839
 40
1.901833377474781
 40
2.016285900500571
 40
2.099989982527938
 40
2.132446666570297
 40
2.158782354486021
 40
2.216720867907809
 40
2.274659381334232
 40
2.300995069256166
 40
2.333451754066139
 40
2.417155836543819
 40
2.531608358985259
 40
2.656310362283754
 40
2.770762886388886
 40
2.854466971340051
 40
2.886923657363858
 40
2.913597976833292
 40
2.982389642875096
 40
3.076451716946965
 40
3.178937260458579
 40
3.272999334739986
 40
3.341791001059209
 40
3.368465320663522
 40
3.396976080738743
 40
3.472140811845979
 40
3.578408190308669
 40
3.700226892456077
 40
3.822045594634294
 40
3.928312973256372
 40
4.003477705314741
 40
4.031988456866807
 40
4.058324144797605
 40
4.116262658236766
 40
4.174201171400566
 40
4.200536849608498
 40
4.200536849608498
 40
4.200536849608498
 40
4.200536849608498
 10
185.9857704961609
 20
15.75844135397708
 30
0.0
 10
185.9938259544679
 20
15.75844359811689
 30
0.0
 10
186.0220200663241
 20
15.758451460328
 30
0.0
 10
186.0765534803672
 20
15.75830754828375
 30
0.0
 10
186.1482891808604
 20
15.75909120499901
 30
0.0
 10
186.2236240137062
 20
15.75627570463814
 30
0.0
 10
186.2713052366438
 20
15.7629840340096
 30
0.0
 10
186.3195071245616
 20
15.75197563692436
 30
0.0
 10
186.3062571799873
 20
15.80546402997036
 30
0.0
 10
186.3151093964539
 20
15.86049583543095
 30
0.0
 10
186.3108698036286
 20
15.95419908726112
 30
0.0
 10
186.313348348128
 20
16.04959482218535
 30
0.0
 10
186.309093870606
 20
16.1435682198339
 30
0.0
 10
186.3179818665846
 20
16.19795062438015
 30
0.0
 10
186.3046977409946
 20
16.25233997691463
 30
0.0
 10
186.3514119277108
 20
16.2384221633536
 30
0.0
 10
186.3943254545737
 20
16.24103877374047
 30
0.0
 10
186.4605443456685
 20
16.23648422450758
 30
0.0
 10
186.5013342271798
 20
16.22778162134165
 30
0.0
 10
186.5525145690819
 20
16.23531799890198
 30
0.0
 10
186.52537204872
 20
16.19349970223288
 30
0.0
 10
186.4803096055707
 20
16.202849920726
 30
0.0
 10
186.4942065045051
 20
16.1384120737184
 30
0.0
 10
186.4858414431653
 20
16.07378219627402
 30
0.0
 10
186.4903632178398
 20
15.9752914119389
 30
0.0
 10
186.4854741311167
 20
15.87595932842573
 30
0.0
 10
186.4950258992082
 20
15.81293115552972
 30
0.0
 10
186.47997614552
 20
15.74964011499792
 30
0.0
 10
186.5449159457208
 20
15.76515072944272
 30
0.0
 10
186.6116246399496
 20
15.75499387697815
 30
0.0
 10
186.7241435470828
 20
15.7598880009937
 30
0.0
 10
186.8390235448954
 20
15.75691204732787
 30
0.0
 10
186.9519871999747
 20
15.76221664184994
 30
0.0
 10
187.0176267597678
 20
15.75107306472092
 30
0.0
 10
187.0816276691053
 20
15.7674453231986
 30
0.0
 10
187.070314288919
 20
15.71761689905279
 30
0.0
 10
187.0775339871509
 20
15.67416715212125
 30
0.0
 10
187.0703142611269
 20
15.63071745587448
 30
0.0
 10
187.0816277175994
 20
15.5808889519688
 30
0.0
 10
187.0176263598971
 20
15.59726166091365
 30
0.0
 10
186.951992124046
 20
15.58611271661592
 30
0.0
 10
186.838997431733
 20
15.59144857206856
 30
0.0
 10
186.7242456548644
 20
15.58834345663825
 30
0.0
 10
186.611318368686
 20
15.59364894682591
 30
0.0
 10
186.5455220903585
 20
15.58257300019597
 30
0.0
 10
186.4816097975358
 20
15.5988759784762
 30
0.0
 10
186.4936015165126
 20
15.54423524395745
 30
0.0
 10
186.4862104613006
 20
15.48854295047845
 30
0.0
 10
186.4892684841983
 20
15.39649689140572
 30
0.0
 10
186.4893422785683
 20
15.30179109873104
 30
0.0
 10
186.4860313578359
 20
15.20952782902267
 30
0.0
 10
186.4939505989904
 20
15.15435768736142
 30
0.0
 10
186.4815076611617
 20
15.10058169100138
 30
0.0
 10
186.5389116551631
 20
15.11453768862782
 30
0.0
 10
186.5994708140382
 20
15.10511457884229
 30
0.0
 10
186.7048680855081
 20
15.10942885928706
 30
0.0
 10
186.8204294070622
 20
15.10835504612033
 30
0.0
 10
186.9359688877796
 20
15.10725965900997
 30
0.0
 10
187.041418113084
 20
15.11162525770635
 30
0.0
 10
187.1018680471803
 20
15.10209426030672
 30
0.0
 10
187.1592837739109
 20
15.11617289606382
 30
0.0
 10
187.1477773876708
 20
15.06707153265684
 30
0.0
 10
187.1537566781748
 20
15.02564658018651
 30
0.0
 10
187.1520311050801
 20
14.97651677966697
 30
0.0
 10
187.1521500122971
 20
14.9485442844761
 30
0.0
 10
187.1521871691832
 20
14.93980288195952
 30
0.0
 11
185.9857704961609
 21
15.75844135397708
 31
0.0
 11
186.0099436128282
 21
15.75844135397708
 31
0.0
 11
186.0703764044962
 21
15.75844135397708
 31
0.0
 11
186.1489390336648
 21
15.75844135397708
 31
0.0
 11
186.2275016628334
 21
15.75844135397708
 31
0.0
 11
186.2879344545015
 21
15.75844135397708
 31
0.0
 11
186.3121075711687
 21
15.75844135397708
 31
0.0
 11
186.3121075711687
 21
15.78541612620066
 31
0.0
 11
186.3121075711687
 21
15.85498264404042
 31
0.0
 11
186.3121075711687
 21
15.95010420924988
 31
0.0
 11
186.3121075711687
 21
16.05374412358259
 31
0.0
 11
186.3121075711687
 21
16.14886568879205
 31
0.0
 11
186.3121075711687
 21
16.21843220663181
 31
0.0
 11
186.3121075711687
 21
16.24540697885539
 31
0.0
 11
186.3360407604892
 21
16.24373213107803
 31
0.0
 11
186.3931122119458
 21
16.23973826330124
 31
0.0
 11
186.461229750781
 21
16.23497138885799
 31
0.0
 11
186.5183012022376
 21
16.2309775210812
 31
0.0
 11
186.5422343915581
 21
16.22930267330384
 31
0.0
 11
186.5274972731229
 21
16.20556293372643
 31
0.0
 11
186.4886640249976
 21
16.19183767331315
 31
0.0
 11
186.4886640249976
 21
16.15973424225121
 31
0.0
 11
186.4886640249976
 21
16.07947566459639
 31
0.0
 11
186.4886640249976
 21
15.97513951364511
 31
0.0
 11
186.4886640249976
 21
15.87080336269384
 31
0.0
 11
186.4886640249976
 21
15.79054478503901
 31
0.0
 11
186.4886640249976
 21
15.75844135397708
 31
0.0
 11
186.5211207110824
 21
15.75844135397708
 31
0.0
 11
186.6048247962486
 21
15.75844135397708
 31
0.0
 11
186.7192773208634
 21
15.75844135397708
 31
0.0
 11
186.8439793252946
 21
15.75844135397708
 31
0.0
 11
186.9584318499095
 21
15.75844135397708
 31
0.0
 11
187.0421359350756
 21
15.75844135397708
 31
0.0
 11
187.0745926211604
 21
15.75844135397708
 31
0.0
 11
187.0745926211604
 21
15.73210566604964
 31
0.0
 11
187.0745926211604
 21
15.67416715260928
 31
0.0
 11
187.0745926211604
 21
15.61622863916891
 31
0.0
 11
187.0745926211604
 21
15.58989295124147
 31
0.0
 11
187.0421359350756
 21
15.58989295124147
 31
0.0
 11
186.9584318499095
 21
15.58989295124147
 31
0.0
 11
186.8439793252946
 21
15.58989295124147
 31
0.0
 11
186.7192773208634
 21
15.58989295124147
 31
0.0
 11
186.6048247962485
 21
15.58989295124147
 31
0.0
 11
186.5211207110824
 21
15.58989295124147
 31
0.0
 11
186.4886640249976
 21
15.58989295124147
 31
0.0
 11
186.4886640249976
 21
15.56321863152025
 31
0.0
 11
186.4886640249976
 21
15.49442696487078
 31
0.0
 11
186.4886640249976
 21
15.40036489006436
 31
0.0
 11
186.4886640249976
 21
15.2978793458723
 31
0.0
 11
186.4886640249976
 21
15.20381727106588
 31
0.0
 11
186.4886640249976
 21
15.13502560441641
 31
0.0
 11
186.4886640249976
 21
15.10835128469519
 31
0.0
 11
186.5171747850993
 21
15.10835128469519
 31
0.0
 11
186.5923395162766
 21
15.10835128469519
 31
0.0
 11
186.6986068948376
 21
15.10835128469519
 31
0.0
 11
186.8204255970904
 21
15.10835128469519
 31
0.0
 11
186.9422442993433
 21
15.10835128469519
 31
0.0
 11
187.0485116779042
 21
15.10835128469519
 31
0.0
 11
187.1236764090815
 21
15.10835128469519
 31
0.0
 11
187.1521871691832
 21
15.10835128469519
 31
0.0
 11
187.1521871691832
 21
15.08201559676774
 31
0.0
 11
187.1521871691832
 21
15.02407708332736
 31
0.0
 11
187.1521871691832
 21
14.96613856988697
 31
0.0
 11
187.1521871691832
 21
14.93980288195952
 31
0.0
  0
SPLINE
  5
A6
102
{ACAD_REACTORS
330
C3
102
}
330
48
100
AcDbEntity
  8
_U_30EC_U_30A4_U_30E4_U_30FC_1
  6
Continuous
 62
     2
100
AcDbSpline
210
0.0
220
0.0
230
1.0
 70
     8
 71
     3
 72
    62
 73
    58
 74
    56
 42
0.000000001
 43
0.0000000001
 44
0.00000001
 40
0.0
 40
0.0
 40
0.0
 40
0.0
 40
0.0598250028308769
 40
0.2024846486897331
 40
0.3727558389220746
 40
0.515415484793607
 40
0.5752404975785339
 40
0.9332326775487186
 40
1.290451762839487
 40
1.602077253145929
 40
1.699931634112205
 40
1.799359756425103
 40
2.270120149657176
 40
2.804661928461602
 40
2.882342287383315
 40
3.076543185719162
 40
3.329004354835622
 40
3.581465524568445
 40
3.775666424543727
 40
3.853346784558347
 40
3.899120679595093
 40
3.984129341792091
 40
4.029903236817439
 40
4.105797496059596
 40
4.295533144152555
 40
4.542189486611797
 40
4.788845828875745
 40
4.978581476410131
 40
5.054475735244372
 40
5.62173466433942
 40
6.130867242037391
 40
6.225249780948652
 40
6.318913039727381
 40
6.66357995455903
 40
7.047498900224896
 40
7.435230791575796
 40
7.498943906668179
 40
7.650875181210173
 40
7.832212509001627
 40
7.984143783697013
 40
8.04785689890314
 40
8.091554632732645
 40
8.172707566964302
 40
8.216405300768026
 40
8.28902178216091
 40
8.462184160757284
 40
8.668861838005364
 40
8.842024215263956
 40
8.914640695475152
 40
8.98988158086136
 40
9.15541152882727
 40
9.320941477744057
 40
9.39618235248731
 40
9.454709011143857
 40
9.583467660170792
 40
9.71222630901307
 40
9.770752957989524
 40
9.770752957989524
 40
9.770752957989524
 40
9.770752957989524
 10
187.1521871691832
 20
14.93980288195952
 30
0.0
 10
187.1322348171622
 20
14.93980875568674
 30
0.0
 10
187.0647037716465
 20
14.9398286380616
 30
0.0
 10
186.9410612161787
 20
14.93949362520327
 30
0.0
 10
186.7863180150056
 20
14.94107673750514
 30
0.0
 10
186.6697349482478
 20
14.93686078860497
 30
0.0
 10
186.455094263424
 20
14.95215205331628
 30
0.0
 10
186.8518948407227
 20
14.59198721286193
 30
0.0
 10
186.8945656069266
 20
14.37510503397169
 30
0.0
 10
187.3189162146612
 20
14.19325062511448
 30
0.0
 10
187.1439821496073
 20
14.08985196568077
 30
0.0
 10
187.0194523925085
 20
13.87831523212724
 30
0.0
 10
186.7666277235942
 20
14.34806081001561
 30
0.0
 10
186.4797602893626
 20
14.99511516984522
 30
0.0
 10
186.490633592666
 20
14.68782672154697
 30
0.0
 10
186.488289277796
 20
14.5228861697178
 30
0.0
 10
186.4861096126411
 20
14.28879670711696
 30
0.0
 10
186.4980774396346
 20
14.04498072421786
 30
0.0
 10
186.4687984740631
 20
13.89855796860988
 30
0.0
 10
186.511452262547
 20
13.75113490174541
 30
0.0
 10
186.423981400564
 20
13.76685797306224
 30
0.0
 10
186.3768527606744
 20
13.76694303543457
 30
0.0
 10
186.2898973207713
 20
13.75109425482912
 30
0.0
 10
186.3313474021722
 20
13.89527771422765
 30
0.0
 10
186.3029875004285
 20
14.03855052698458
 30
0.0
 10
186.31459737753
 20
14.27674947365268
 30
0.0
 10
186.3124175648272
 20
14.50517235240349
 30
0.0
 10
186.3103111127993
 20
14.66705729375997
 30
0.0
 10
186.3208035438324
 20
14.98153709333756
 30
0.0
 10
186.0128963252891
 20
14.29229470872443
 30
0.0
 10
185.7055258267457
 20
13.81476750243058
 30
0.0
 10
185.5851367066274
 20
14.03741112637431
 30
0.0
 10
185.407460791072
 20
14.15011034955564
 30
0.0
 10
185.8853326362894
 20
14.32548143465466
 30
0.0
 10
185.9353959057208
 20
14.56091929252029
 30
0.0
 10
186.3583799621715
 20
14.95322989344609
 30
0.0
 10
186.127675427354
 20
14.93655307029068
 30
0.0
 10
186.004968585934
 20
14.94269518948773
 30
0.0
 10
185.8325483095661
 20
14.93312822699576
 30
0.0
 10
185.7213224694449
 20
14.95448818489668
 30
0.0
 10
185.6025779627448
 20
14.92136265357422
 30
0.0
 10
185.6183169706686
 20
15.00203900606886
 30
0.0
 10
185.6178550933762
 20
15.04645414290856
 30
0.0
 10
185.6027881889931
 20
15.12967081778535
 30
0.0
 10
185.7372380935443
 20
15.09062651983885
 30
0.0
 10
185.8619755545747
 20
15.11739729328424
 30
0.0
 10
186.0628755237279
 20
15.10063949044054
 30
0.0
 10
186.1921540949353
 20
15.12204225913006
 30
0.0
 10
186.3328419928294
 20
15.08868778853422
 30
0.0
 10
186.2980927452614
 20
15.2265187578507
 30
0.0
 10
186.3222185666713
 20
15.34963257349484
 30
0.0
 10
186.2967086182392
 20
15.47024055670338
 30
0.0
 10
186.3333251146685
 20
15.60539865141498
 30
0.0
 10
186.2211417027769
 20
15.58094545781893
 30
0.0
 10
186.1280356457136
 20
15.59307749842026
 30
0.0
 10
186.0191547579819
 20
15.58957630069996
 30
0.0
 10
185.9569697640964
 20
15.58981755951606
 30
0.0
 10
185.9375369557246
 20
15.58989295124147
 30
0.0
 11
187.1521871691832
 21
14.93980288195952
 31
0.0
 11
187.0923621563981
 21
14.93980288195952
 31
0.0
 11
186.9497025105259
 21
14.93980288195952
 31
0.0
 11
186.7794313202913
 21
14.93980288195952
 31
0.0
 11
186.636771674419
 21
14.93980288195952
 31
0.0
 11
186.5769466616339
 21
14.93980288195952
 31
0.0
 11
186.7679960754841
 21
14.63705127966894
 31
0.0
 11
186.9941272785629
 21
14.36051890576687
 31
0.0
 11
187.2244526173371
 21
14.1506125349346
 31
0.0
 11
187.1521596330703
 21
14.08466403668719
 31
0.0
 11
187.0879364402643
 21
14.00876059052563
 31
0.0
 11
186.7732818215557
 21
14.35891458349365
 31
0.0
 11
186.4886640249976
 21
14.81138295143603
 31
0.0
 11
186.4886640249976
 21
14.73370259137315
 31
0.0
 11
186.4886640249976
 21
14.53950169121595
 31
0.0
 11
186.4886640249976
 21
14.28704052101159
 31
0.0
 11
186.4886640249976
 21
14.03457935080723
 31
0.0
 11
186.4886640249976
 21
13.84037845065003
 31
0.0
 11
186.4886640249976
 21
13.76269809058715
 31
0.0
 11
186.4428901295605
 21
13.76269809058715
 31
0.0
 11
186.3578814666058
 21
13.76269809058715
 31
0.0
 11
186.3121075711687
 21
13.76269809058715
 31
0.0
 11
186.3121075711687
 21
13.83859234982743
 31
0.0
 11
186.3121075711687
 21
14.02832799792814
 31
0.0
 11
186.3121075711687
 21
14.27498434045907
 31
0.0
 11
186.3121075711687
 21
14.52164068298999
 31
0.0
 11
186.3121075711687
 21
14.7113763310907
 31
0.0
 11
186.3121075711687
 21
14.78727059033098
 31
0.0
 11
185.9987626399266
 21
14.31440946197696
 31
0.0
 11
185.6352328662148
 21
13.95795177109385
 31
0.0
 11
185.5773927461627
 21
14.03253450545025
 31
0.0
 11
185.509485230534
 21
14.09704322939244
 31
0.0
 11
185.7750721898319
 21
14.31672219795892
 31
0.0
 11
186.0233764972061
 21
14.609533959717
 31
0.0
 11
186.2264982805259
 21
14.93980288195952
 31
0.0
 11
186.162785165272
 21
14.93980288195952
 31
0.0
 11
186.0108538904358
 21
14.93980288195952
 31
0.0
 11
185.8295165624055
 21
14.93980288195952
 31
0.0
 11
185.6775852875693
 21
14.93980288195952
 31
0.0
 11
185.6138721723154
 21
14.93980288195952
 31
0.0
 11
185.6138721723154
 21
14.9835006160021
 31
0.0
 11
185.6138721723154
 21
15.06465355065261
 31
0.0
 11
185.6138721723154
 21
15.10835128469519
 31
0.0
 11
185.6864886537961
 21
15.10835128469519
 31
0.0
 11
185.8596510327118
 21
15.10835128469519
 31
0.0
 11
186.0663287107723
 21
15.10835128469519
 31
0.0
 11
186.239491089688
 21
15.10835128469519
 31
0.0
 11
186.3121075711687
 21
15.10835128469519
 31
0.0
 11
186.3121075711687
 21
15.18359217009305
 31
0.0
 11
186.3121075711687
 21
15.34912211796833
 31
0.0
 11
186.3121075711687
 21
15.51465206584361
 31
0.0
 11
186.3121075711687
 21
15.58989295124147
 31
0.0
 11
186.2535809125055
 21
15.58989295124147
 31
0.0
 11
186.1248222634467
 21
15.58989295124147
 31
0.0
 11
185.9960636143877
 21
15.58989295124147
 31
0.0
 11
185.9375369557246
 21
15.58989295124147
 31
0.0
  0
SPLINE
  5
A7
102
{ACAD_REACTORS
330
C4
102
}
330
48
100
AcDbEntity
  8
_U_30EC_U_30A4_U_30E4_U_30FC_1
  6
Continuous
 62
     2
100
AcDbSpline
210
0.0
220
0.0
230
1.0
 70
    11
 71
     3
 72
   124
 73
   120
 74
   118
 42
0.000000001
 43
0.0000000001
 44
0.00000001
 40
0.0
 40
0.0
 40
0.0
 40
0.0
 40
0.027818722962451
 40
0.1011590162384269
 40
0.2048470170590239
 40
0.3237088716559245
 40
0.4425707262522
 40
0.5462587270699547
 40
0.6195990203311798
 40
0.647417752257866
 40
0.6750060736115242
 40
0.7357003855242759
 40
0.7963946998054456
 40
0.8239830245571766
 40
0.854093381110286
 40
0.937339662940954
 40
1.063094687343235
 40
1.220731268638073
 40
1.399622220914748
 40
1.589140358637732
 40
1.778658496423898
 40
1.957549448940509
 40
2.115186030873159
 40
2.240941056914463
 40
2.324187341760532
 40
2.354297700109382
 40
2.38188602467189
 40
2.442580338710475
 40
2.503274652750497
 40
2.530862977314606
 40
2.560983949278559
 40
2.640393784452905
 40
2.752662861759128
 40
2.881361560118145
 40
3.010060258455192
 40
3.122329335705339
 40
3.201739170817953
 40
3.231860142753313
 40
3.26429802403037
 40
3.352343701778239
 40
3.482095226868762
 40
3.639650650173018
 40
3.811108022565473
 40
3.982565394927978
 40
4.140120818152558
 40
4.269872343141267
 40
4.357918020802328
 40
4.390355902043956
 40
4.423256253992526
 40
4.508104530073047
 40
4.624121560636815
 40
4.750528176031572
 40
4.866545206602019
 40
4.951393482691976
 40
4.984293834645377
 40
5.011450833242294
 40
5.071196230152077
 40
5.130941627057154
 40
5.15809862564882
 40
5.19099897760151
 40
5.275847253689336
 40
5.39186428425677
 40
5.518270899648315
 40
5.634287930209354
 40
5.719136206288028
 40
5.752036558235916
 40
5.782130946282941
 40
5.862783906229114
 40
5.979550131774986
 40
6.117984316640391
 40
6.263641154587938
 40
6.402075339414144
 40
6.51884156490794
 40
6.599494524815525
 40
6.629588912848763
 40
6.654403028226311
 40
6.713575149488078
 40
6.784199939329397
 40
6.843372060493413
 40
6.868186175802659
 40
6.89624624320169
 40
6.93958623375806
 40
6.967846564564692
 40
7.043584251089626
 40
7.153234334451486
 40
7.283231855734236
 40
7.420011856035268
 40
7.550009376579622
 40
7.659659458835023
 40
7.735397144417016
 40
7.763657474851186
 40
7.796409728010843
 40
7.880876065096118
 40
7.996370852465503
 40
8.122208446418398
 40
8.237703224798992
 40
8.322169562010686
 40
8.3549218152057
 40
8.382078813307482
 40
8.441824209206786
 40
8.501569605239936
 40
8.528726603485515
 40
8.561478856695564
 40
8.645945193877614
 40
8.761439980865125
 40
8.887277580764268
 40
9.002772362000789
 40
9.087238696661009
 40
9.119990949235463
 40
9.152428830613163
 40
9.240474508638377
 40
9.370226034149326
 40
9.527781457984206
 40
9.699238830981196
 40
9.870696203978383
 40
10.0282516278138
 40
10.15800315332542
 40
10.24604883135097
 40
10.27848670378499
 40
10.27848670378499
 40
10.27848670378499
 40
10.27848670378499
 10
195.3821827564383
 20
14.0141051738576
 30
0.0
 10
195.3914554737523
 20
14.01410498511277
 30
0.0
 10
195.4251744536861
 20
14.01410430876717
 30
0.0
 10
195.4934706812465
 20
14.01411807243307
 30
0.0
 10
195.592014171158
 20
14.01403224219548
 30
0.0
 10
195.7062066464812
 20
14.01441755612253
 30
0.0
 10
195.818589441707
 20
14.01300835897548
 30
0.0
 10
195.9214376600118
 20
14.01719117422245
 30
0.0
 10
195.9806839874849
 20
14.00823089251985
 30
0.0
 10
196.0371265937033
 20
14.02164434526064
 30
0.0
 10
196.0246255586954
 20
13.97087198613364
 30
0.0
 10
196.0329549635703
 20
13.9258932093907
 30
0.0
 10
196.024817084112
 20
13.88056752990491
 30
0.0
 10
196.0370529214457
 20
13.82931932408469
 30
0.0
 10
195.9747773490333
 20
13.84447955365279
 30
0.0
 10
195.9060513026868
 20
13.83359750710746
 30
0.0
 10
195.7782756749592
 20
13.83911304747975
 30
0.0
 10
195.6262984511643
 20
13.83700851253701
 30
0.0
 10
195.4502695972523
 20
13.83771002588476
 30
0.0
 10
195.2644431934287
 20
13.83745237531295
 30
0.0
 10
195.0786167437175
 20
13.83771005144606
 30
0.0
 10
194.9025880142168
 20
13.83700841847734
 30
0.0
 10
194.7506104154195
 20
13.83911332229992
 30
0.0
 10
194.6228357664554
 20
13.83359680767643
 30
0.0
 10
194.5541077836581
 20
13.84448077125945
 30
0.0
 10
194.4918349042883
 20
13.82931786684212
 30
0.0
 10
194.5040616290017
 20
13.88057510805175
 30
0.0
 10
194.4960004462597
 20
13.92582473272428
 30
0.0
 10
194.5040675809893
 20
13.97106357955326
 30
0.0
 10
194.4918238487083
 20
14.02234176909961
 30
0.0
 10
194.5525017120697
 20
14.00749577363138
 30
0.0
 10
194.6162810745736
 20
14.01756448170738
 30
0.0
 10
194.7277314353502
 20
14.01294644212002
 30
0.0
 10
194.8497533443824
 20
14.01413328905472
 30
0.0
 10
194.9719538137823
 20
14.01515863900637
 30
0.0
 10
195.0829794287392
 20
14.01092475623404
 30
0.0
 10
195.1476517413958
 20
14.02018584521742
 30
0.0
 10
195.2091162810501
 20
14.00604423049685
 30
0.0
 10
195.1930065601337
 20
14.0723552788452
 30
0.0
 10
195.2042980327359
 20
14.14447790121979
 30
0.0
 10
195.1987400822561
 20
14.27513760888289
 30
0.0
 10
195.200803506169
 20
14.42607323708243
 30
0.0
 10
195.2000167127295
 20
14.59335873107888
 30
0.0
 10
195.2007845215628
 20
14.76061110332305
 30
0.0
 10
195.1988038785627
 20
14.91163289269916
 30
0.0
 10
195.2041306156621
 20
15.04206069552997
 30
0.0
 10
195.1933101388425
 20
15.11465442605901
 30
0.0
 10
195.2090326429875
 20
15.181504694368
 30
0.0
 10
195.143270813249
 20
15.16580512490826
 30
0.0
 10
195.0756367830764
 20
15.17609243083997
 30
0.0
 10
194.9615885293809
 20
15.17113786847124
 30
0.0
 10
194.8451242674902
 20
15.17414128030476
 30
0.0
 10
194.7306554121477
 20
15.16880303143391
 30
0.0
 10
194.6640324657812
 20
15.18001268074827
 30
0.0
 10
194.5990769715185
 20
15.16349132665013
 30
0.0
 10
194.6107989758708
 20
15.21473720477061
 30
0.0
 10
194.6032830189121
 20
15.25950333784092
 30
0.0
 10
194.6107989878835
 20
15.30426944897963
 30
0.0
 10
194.5990769505347
 20
15.35551536129743
 30
0.0
 10
194.66403263392
 20
15.33899381766817
 30
0.0
 10
194.7306533339821
 20
15.35020571373946
 30
0.0
 10
194.8451352858063
 20
15.34485436710666
 30
0.0
 10
194.9615454436962
 20
15.3479118877112
 30
0.0
 10
195.0757660174641
 20
15.3427849901071
 30
0.0
 10
195.1430150439227
 20
15.353457333556
 30
0.0
 10
195.2083325941438
 20
15.33742082669079
 30
0.0
 10
195.1941391448553
 20
15.39949685750056
 30
0.0
 10
195.2036059462994
 20
15.46586761628765
 30
0.0
 10
195.1990269004085
 20
15.58239972741968
 30
0.0
 10
195.2007696555948
 20
15.71426685022378
 30
0.0
 10
195.1997551495391
 20
15.85615960150275
 30
0.0
 10
195.2017191344373
 20
15.98769050702582
 30
0.0
 10
195.1964668553851
 20
16.10524577283005
 30
0.0
 10
195.2073408763474
 20
16.16947789001586
 30
0.0
 10
195.1919536641853
 20
16.23108802545049
 30
0.0
 10
195.2407591537801
 20
16.21702407382114
 30
0.0
 10
195.2853995564725
 20
16.21954742075317
 30
0.0
 10
195.3538643946741
 20
16.21512797401712
 30
0.0
 10
195.3959106169101
 20
16.20613025544036
 30
0.0
 10
195.4487544758774
 20
16.21411714866513
 30
0.0
 10
195.4207035002013
 20
16.17113917611674
 30
0.0
 10
195.3749142248594
 20
16.18259552043838
 30
0.0
 10
195.3869539073265
 20
16.12173520005139
 30
0.0
 10
195.3796086070641
 20
16.05769299468776
 30
0.0
 10
195.3831195826161
 20
15.94909368863912
 30
0.0
 10
195.3819806760173
 20
15.82494319144755
 30
0.0
 10
195.3819174780262
 20
15.69189719829879
 30
0.0
 10
195.3832872966868
 20
15.56797381249557
 30
0.0
 10
195.3791638801313
 20
15.4586833784934
 30
0.0
 10
195.3877763103564
 20
15.39608580094172
 30
0.0
 10
195.3746757454402
 20
15.33740133296367
 30
0.0
 10
195.4393884328198
 20
15.35362113810904
 30
0.0
 10
195.5060405953156
 20
15.34270260383313
 30
0.0
 10
195.6198779541102
 20
15.34793740173757
 30
0.0
 10
195.7357259122097
 20
15.34485547516916
 30
0.0
 10
195.849692426328
 20
15.35018259812513
 30
0.0
 10
195.9160341018099
 20
15.33904208166545
 30
0.0
 10
195.980718852548
 20
15.3554697959318
 30
0.0
 10
195.9689820772722
 20
15.30425925210052
 30
0.0
 10
195.9765168063041
 20
15.25950334121003
 30
0.0
 10
195.9689820992257
 20
15.21474739010029
 30
0.0
 10
195.9807188140737
 20
15.16353690871042
 30
0.0
 10
195.9160344075252
 20
15.17996427794222
 30
0.0
 10
195.8496886430824
 20
15.16882784447271
 30
0.0
 10
195.7357459487012
 20
15.17413115893122
 30
0.0
 10
195.6197995623054
 20
15.17114764593546
 30
0.0
 10
195.5062756882122
 20
15.17606892268395
 30
0.0
 10
195.4389231318804
 20
15.16585087513521
 30
0.0
 10
195.3734285122495
 20
15.18145996138817
 30
0.0
 10
195.3891713619218
 20
15.11463851827413
 30
0.0
 10
195.3783275998213
 20
15.04207057815881
 30
0.0
 10
195.3836581629793
 20
14.91162247614419
 30
0.0
 10
195.3817136151854
 20
14.76064558185228
 30
0.0
 10
195.3823133683214
 20
14.59322243934161
 30
0.0
 10
195.3821506559604
 20
14.42656176118374
 30
0.0
 10
195.3821895488136
 20
14.27360142921639
 30
0.0
 10
195.3821816413098
 20
14.14849178985707
 30
0.0
 10
195.3821828382746
 20
14.06507890991423
 30
0.0
 10
195.3821827716207
 20
14.02491778281978
 30
0.0
 10
195.3821827564383
 20
14.0141051738576
 30
0.0
 11
195.3821827564383
 21
14.0141051738576
 31
0.0
 11
195.4100014883675
 21
14.0141051738576
 31
0.0
 11
195.4833417816353
 21
14.0141051738576
 31
0.0
 11
195.5870297824622
 21
14.0141051738576
 31
0.0
 11
195.7058916370687
 21
14.0141051738576
 31
0.0
 11
195.8247534916751
 21
14.0141051738576
 31
0.0
 11
195.928441492502
 21
14.0141051738576
 31
0.0
 11
196.0017817857698
 21
14.0141051738576
 31
0.0
 11
196.029600517699
 21
14.0141051738576
 31
0.0
 11
196.029600517699
 21
13.98651684921172
 31
0.0
 11
196.029600517699
 21
13.9258225349908
 31
0.0
 11
196.029600517699
 21
13.86512822076988
 31
0.0
 11
196.029600517699
 21
13.837539896124
 31
0.0
 11
195.9994901593494
 21
13.837539896124
 31
0.0
 11
195.9162438745004
 21
13.837539896124
 31
0.0
 11
195.7904888484521
 21
13.837539896124
 31
0.0
 11
195.6328522665041
 21
13.837539896124
 31
0.0
 11
195.4539613139564
 21
13.837539896124
 31
0.0
 11
195.2644431761089
 21
13.837539896124
 31
0.0
 11
195.0749250382613
 21
13.837539896124
 31
0.0
 11
194.8960340857136
 21
13.837539896124
 31
0.0
 11
194.7383975037656
 21
13.837539896124
 31
0.0
 11
194.6126424777172
 21
13.837539896124
 31
0.0
 11
194.5293961928683
 21
13.837539896124
 31
0.0
 11
194.4992858345187
 21
13.837539896124
 31
0.0
 11
194.4992858345187
 21
13.86512822076988
 31
0.0
 11
194.4992858345187
 21
13.9258225349908
 31
0.0
 11
194.4992858345187
 21
13.98651684921172
 31
0.0
 11
194.4992858345187
 21
14.0141051738576
 31
0.0
 11
194.5294068064947
 21
14.0141051738576
 31
0.0
 11
194.608816641704
 21
14.0141051738576
 31
0.0
 11
194.721085719069
 21
14.0141051738576
 31
0.0
 11
194.8497844175118
 21
14.0141051738576
 31
0.0
 11
194.9784831159545
 21
14.0141051738576
 31
0.0
 11
195.0907521933195
 21
14.0141051738576
 31
0.0
 11
195.1701620285289
 21
14.0141051738576
 31
0.0
 11
195.2002830005048
 21
14.0141051738576
 31
0.0
 11
195.2002830005048
 21
14.04654305523838
 31
0.0
 11
195.2002830005048
 21
14.13458873327193
 31
0.0
 11
195.2002830005048
 21
14.26434025879505
 31
0.0
 11
195.2002830005048
 21
14.42189568264456
 31
0.0
 11
195.2002830005048
 21
14.59335305565726
 31
0.0
 11
195.2002830005048
 21
14.76481042866996
 31
0.0
 11
195.2002830005048
 21
14.92236585251947
 31
0.0
 11
195.2002830005048
 21
15.05211737804259
 31
0.0
 11
195.2002830005048
 21
15.14016305607614
 31
0.0
 11
195.2002830005048
 21
15.17260093745692
 31
0.0
 11
195.1673826485529
 21
15.17260093745692
 31
0.0
 11
195.0825343724662
 21
15.17260093745692
 31
0.0
 11
194.9665173418988
 21
15.17260093745692
 31
0.0
 11
194.8401107265044
 21
15.17260093745692
 31
0.0
 11
194.724093695937
 21
15.17260093745692
 31
0.0
 11
194.6392454198503
 21
15.17260093745692
 31
0.0
 11
194.6063450678984
 21
15.17260093745692
 31
0.0
 11
194.6063450678984
 21
15.19975793614805
 31
0.0
 11
194.6063450678984
 21
15.25950333326852
 31
0.0
 11
194.6063450678984
 21
15.319248730389
 31
0.0
 11
194.6063450678984
 21
15.34640572908012
 31
0.0
 11
194.6392454198504
 21
15.34640572908012
 31
0.0
 11
194.724093695937
 21
15.34640572908012
 31
0.0
 11
194.8401107265044
 21
15.34640572908012
 31
0.0
 11
194.9665173418988
 21
15.34640572908012
 31
0.0
 11
195.0825343724662
 21
15.34640572908012
 31
0.0
 11
195.1673826485529
 21
15.34640572908012
 31
0.0
 11
195.2002830005048
 21
15.34640572908012
 31
0.0
 11
195.2002830005048
 21
15.37650011731372
 31
0.0
 11
195.2002830005048
 21
15.45715307777975
 31
0.0
 11
195.2002830005048
 21
15.57391930412611
 31
0.0
 11
195.2002830005048
 21
15.71235349000065
 31
0.0
 11
195.2002830005048
 21
15.85801032905126
 31
0.0
 11
195.2002830005048
 21
15.99644451492581
 31
0.0
 11
195.2002830005048
 21
16.11321074127216
 31
0.0
 11
195.2002830005048
 21
16.1938637017382
 31
0.0
 11
195.2002830005048
 21
16.2239580899718
 31
0.0
 11
195.2250405288618
 21
16.22228324219444
 31
0.0
 11
195.2840777118669
 21
16.21828937441768
 31
0.0
 11
195.3545414464214
 21
16.21352249997443
 31
0.0
 11
195.4135786294264
 21
16.20952863219766
 31
0.0
 11
195.4383361577834
 21
16.20785378442031
 31
0.0
 11
195.423306722403
 21
16.18415814206512
 31
0.0
 11
195.3821827564383
 21
16.17047697887406
 31
0.0
 11
195.3821827564383
 21
16.14221664794834
 31
0.0
 11
195.3821827564383
 21
16.06647896106742
 31
0.0
 11
195.3821827564383
 21
15.95682887707563
 31
0.0
 11
195.3821827564383
 21
15.82683135481733
 31
0.0
 11
195.3821827564383
 21
15.69005135313685
 31
0.0
 11
195.3821827564383
 21
15.56005383087855
 31
0.0
 11
195.3821827564383
 21
15.45040374688676
 31
0.0
 11
195.3821827564383
 21
15.37466606000584
 31
0.0
 11
195.3821827564383
 21
15.34640572908012
 31
0.0
 11
195.4149350096115
 21
15.34640572908012
 31
0.0
 11
195.4994013467422
 21
15.34640572908012
 31
0.0
 11
195.6148961342476
 21
15.34640572908012
 31
0.0
 11
195.7407337385445
 21
15.34640572908012
 31
0.0
 11
195.8562285260498
 21
15.34640572908012
 31
0.0
 11
195.9406948631806
 21
15.34640572908012
 31
0.0
 11
195.9734471163538
 21
15.34640572908012
 31
0.0
 11
195.9734471163538
 21
15.31924873038899
 31
0.0
 11
195.9734471163538
 21
15.25950333326852
 31
0.0
 11
195.9734471163538
 21
15.19975793614804
 31
0.0
 11
195.9734471163538
 21
15.17260093745692
 31
0.0
 11
195.9406948631806
 21
15.17260093745692
 31
0.0
 11
195.8562285260498
 21
15.17260093745692
 31
0.0
 11
195.7407337385445
 21
15.17260093745692
 31
0.0
 11
195.6148961342476
 21
15.17260093745692
 31
0.0
 11
195.4994013467422
 21
15.17260093745692
 31
0.0
 11
195.4149350096114
 21
15.17260093745692
 31
0.0
 11
195.3821827564383
 21
15.17260093745692
 31
0.0
 11
195.3821827564383
 21
15.14016305607614
 31
0.0
 11
195.3821827564383
 21
15.05211737804259
 31
0.0
 11
195.3821827564383
 21
14.92236585251947
 31
0.0
 11
195.3821827564383
 21
14.76481042866996
 31
0.0
 11
195.3821827564383
 21
14.59335305565726
 31
0.0
 11
195.3821827564383
 21
14.42189568264456
 31
0.0
 11
195.3821827564383
 21
14.26434025879506
 31
0.0
 11
195.3821827564383
 21
14.13458873327193
 31
0.0
 11
195.3821827564383
 21
14.04654305523838
 31
0.0
 11
195.3821827564383
 21
14.0141051738576
 31
0.0
  0
SPLINE
  5
A8
102
{ACAD_REACTORS
330
C5
102
}
330
48
100
AcDbEntity
  8
_U_30EC_U_30A4_U_30E4_U_30FC_1
  6
Continuous
 62
     2
100
AcDbSpline
210
0.0
220
0.0
230
1.0
 70
    11
 71
     3
 72
   131
 73
   127
 74
   125
 42
0.000000001
 43
0.0000000001
 44
0.00000001
 40
0.0
 40
0.0
 40
0.0
 40
0.0
 40
0.0195577029826274
 40
0.0426490537462117
 40
0.2863607575857053
 40
0.5344948436189763
 40
0.7842238845573352
 40
0.8737315789467517
 40
0.9803832810312791
 40
1.092842274517024
 40
1.199761146656761
 40
1.289788768186487
 40
1.351573580786201
 40
1.370727117561443
 40
1.41640093601786
 40
1.470914848356018
 40
1.516588666791813
 40
1.535742203552911
 40
1.634216592293219
 40
1.760283341175035
 40
1.897966686682099
 40
2.031216387368919
 40
2.049689751137915
 40
2.101115601646849
 40
2.179502577739967
 40
2.278859318314081
 40
2.393194462258735
 40
2.516516648383847
 40
2.642834515405974
 40
2.766156701983478
 40
2.880491846754589
 40
2.979848588358631
 40
3.058235565443807
 40
3.109661416668959
 40
3.128134780704137
 40
3.146783742386482
 40
3.191254343315343
 40
3.24433215731603
 40
3.288802758225962
 40
3.307451719895233
 40
3.327717853844845
 40
3.383747753580205
 40
3.468388665924599
 40
3.574487837698903
 40
3.694892515729009
 40
3.822449946852147
 40
3.950007377920536
 40
4.070412055800627
 40
4.176511227368183
 40
4.261152139501631
 40
4.317182039076823
 40
4.337448172964743
 40
4.62001100269632
 40
4.885096638397543
 40
4.945373043518385
 40
5.014107710488696
 40
5.070481727652056
 40
5.31924695563658
 40
5.584812164506051
 40
5.859000912056904
 40
6.133746937542084
 40
6.40173221296889
 40
6.42073668399548
 40
6.472845717451131
 40
6.550702743894059
 40
6.646951193874267
 40
6.754234497930648
 40
6.865196086587398
 40
6.972479390357913
 40
7.068727839772047
 40
7.146584865451084
 40
7.198693898189314
 40
7.217698368905454
 40
7.234950401630933
 40
7.276089864269979
 40
7.325191803516093
 40
7.36633126609048
 40
7.383583298769834
 40
7.402779163492211
 40
7.453386443254614
 40
7.524934666445644
 40
7.606953361405955
 40
7.688972056429106
 40
7.760520279784357
 40
7.811127559734599
 40
7.83032342454622
 40
7.847844055299849
 40
7.894799345666891
 40
7.962779392744579
 40
8.043374293560628
 40
8.128174145149535
 40
8.208769044817336
 40
8.27674909037704
 40
8.323704379669602
 40
8.341225010056332
 40
8.358497614800509
 40
8.401679126686714
 40
8.4578150921858
 40
8.513951057728262
 40
8.557132569708218
 40
8.57440517450526
 40
8.602340668616653
 40
8.643455660540141
 40
8.663225271966809
 40
8.715345156564453
 40
8.789031889628792
 40
8.87350204552052
 40
8.957972194324144
 40
9.031658925568035
 40
9.083778811234723
 40
9.103548423003186
 40
9.119550083123723
 40
9.160817522380025
 40
9.21724442911039
 40
9.278724491644876
 40
9.335151398295661
 40
9.376418837357956
 40
9.392420497300744
 40
9.401196302734963
 40
9.417494229384438
 40
9.42627002774971
 40
9.440875075477743
 40
9.475702496998926
 40
9.51727070986609
 40
9.55209813199426
 40
9.56670316988447
 40
9.56670316988447
 40
9.56670316988447
 40
9.56670316988447
 10
194.6170254148479
 20
15.67015871511029
 30
0.0
 10
194.6134345093371
 20
15.66453690702161
 30
0.0
 10
194.6056039123624
 20
15.65227754419113
 30
0.0
 10
194.5129968974548
 20
15.61601916040986
 30
0.0
 10
194.4887622233245
 20
15.40148444212711
 30
0.0
 10
194.3858709845938
 20
15.22197284509713
 30
0.0
 10
194.1220492364305
 20
15.03615573798146
 30
0.0
 10
194.284547156918
 20
14.95959336566084
 30
0.0
 10
194.3607225760838
 20
14.89856693195443
 30
0.0
 10
194.4492171072758
 20
14.83515804544763
 30
0.0
 10
194.5389930233111
 20
14.77525634219561
 30
0.0
 10
194.5883817636045
 20
14.7210215484921
 30
0.0
 10
194.6745708157382
 20
14.69286240541836
 30
0.0
 10
194.6411260674229
 20
14.65713309652816
 30
0.0
 10
194.621467116631
 20
14.62550387991907
 30
0.0
 10
194.5919888217882
 20
14.58475872796074
 30
0.0
 10
194.568898944603
 20
14.55504663489644
 30
0.0
 10
194.5380205968357
 20
14.502114226685
 30
0.0
 10
194.4729193365739
 20
14.62740334938903
 30
0.0
 10
194.3796000122416
 20
14.68213900233937
 30
0.0
 10
194.2950636285139
 20
14.73916423939345
 30
0.0
 10
194.1722498125741
 20
14.89675287427524
 30
0.0
 10
194.1764450847301
 20
14.82035806766838
 30
0.0
 10
194.1751478652677
 20
14.77361280161298
 30
0.0
 10
194.1758126448076
 20
14.69584785812603
 30
0.0
 10
194.1755549986956
 20
14.59902068324425
 30
0.0
 10
194.1756431239922
 20
14.48650279078811
 30
0.0
 10
194.1756077302281
 20
14.36524085945702
 30
0.0
 10
194.1756511758279
 20
14.24086897858964
 30
0.0
 10
194.1755199942406
 20
14.11967683631339
 30
0.0
 10
194.1759477562046
 20
14.00691148919746
 30
0.0
 10
194.174667820231
 20
13.91082913768746
 30
0.0
 10
194.1779759851044
 20
13.83113826468703
 30
0.0
 10
194.1715197740085
 20
13.78815175788786
 30
0.0
 10
194.1806208705556
 20
13.74955432372045
 30
0.0
 10
194.1447910339934
 20
13.75810887724074
 30
0.0
 10
194.1115223815252
 20
13.7534251998545
 30
0.0
 10
194.060456257604
 20
13.75351298759787
 30
0.0
 10
194.0269723972812
 20
13.75794430283824
 30
0.0
 10
193.9907585408753
 20
13.74960793842512
 30
0.0
 10
194.0009782568664
 20
13.79145277179287
 30
0.0
 10
193.9936487887771
 20
13.83778560820176
 30
0.0
 10
193.9973633136102
 20
13.92374831106018
 30
0.0
 10
193.9959480554894
 20
14.02605142704852
 30
0.0
 10
193.9964105554637
 20
14.14453223931515
 30
0.0
 10
193.9962773686229
 20
14.26957683153359
 30
0.0
 10
193.9963015910043
 20
14.39475828107052
 30
0.0
 10
193.9963354925551
 20
14.51286645379061
 30
0.0
 10
193.9962060293131
 20
14.61628748709519
 30
0.0
 10
193.996550754908
 20
14.6993203615367
 30
0.0
 10
193.9958698278689
 20
14.75143368521246
 30
0.0
 10
193.999458660062
 20
14.87912907821363
 30
0.0
 10
193.7826171386437
 20
14.58048716819621
 30
0.0
 10
193.6021354921951
 20
14.35263981511522
 30
0.0
 10
193.5490322295611
 20
14.49373443289815
 30
0.0
 10
193.5200429133148
 20
14.54325767560944
 30
0.0
 10
193.4196648062821
 20
14.64641779790113
 30
0.0
 10
193.740512772326
 20
14.72695035023778
 30
0.0
 10
193.868989700543
 20
14.91066283036437
 30
0.0
 10
194.0906454325359
 20
15.11931995771764
 30
0.0
 10
194.1770224894069
 20
15.29339211228345
 30
0.0
 10
194.4549394229073
 20
15.56967051342514
 30
0.0
 10
194.3346247839284
 20
15.56534559551116
 30
0.0
 10
194.2863197351348
 20
15.56614856202555
 30
0.0
 10
194.2102377454905
 20
15.56574582146586
 30
0.0
 10
194.116701000975
 20
15.56590275611611
 30
0.0
 10
194.0117594788556
 20
15.56582502576226
 30
0.0
 10
193.9033887738718
 20
15.56595464378556
 30
0.0
 10
193.7981454235896
 20
15.56554393490693
 30
0.0
 10
193.7056237819411
 20
15.56682073671593
 30
0.0
 10
193.6268130800707
 20
15.56340766534852
 30
0.0
 10
193.5839674565378
 20
15.57023350036322
 30
0.0
 10
193.5449499586514
 20
15.56065064201126
 30
0.0
 10
193.5526365271863
 20
15.59420779565544
 30
0.0
 10
193.548546440431
 20
15.62523550322235
 30
0.0
 10
193.5485531368814
 20
15.67236529270903
 30
0.0
 10
193.552623972491
 20
15.70340941646781
 30
0.0
 10
193.5449495574582
 20
15.73701861635904
 30
0.0
 10
193.5834819405493
 20
15.72748410420875
 30
0.0
 10
193.6241228014479
 20
15.73397435498074
 30
0.0
 10
193.6951471850462
 20
15.73100150650258
 30
0.0
 10
193.7729318149632
 20
15.7317476139916
 30
0.0
 10
193.8507292246474
 20
15.73247814044529
 30
0.0
 10
193.9217232089906
 20
15.72954235514163
 30
0.0
 10
193.9624279791819
 20
15.73595468772955
 30
0.0
 10
194.0009853489908
 20
15.72650524176007
 30
0.0
 10
193.9927342754926
 20
15.76264692158788
 30
0.0
 10
193.9982346669357
 20
15.8012983761323
 30
0.0
 10
193.9955754206161
 20
15.86913528561842
 30
0.0
 10
193.9965815471532
 20
15.94591641538743
 30
0.0
 10
193.9960178018318
 20
16.0284939358276
 30
0.0
 10
193.9970714526591
 20
16.10517329229881
 30
0.0
 10
193.9942675863129
 20
16.17331990776703
 30
0.0
 10
194.0000702721302
 20
16.21132399809349
 30
0.0
 10
193.9915654551158
 20
16.2475844807765
 30
0.0
 10
194.0255610233123
 20
16.23755723771855
 30
0.0
 10
194.0594575683098
 20
16.24073266813709
 30
0.0
 10
194.1126669060346
 20
16.23508965640612
 30
0.0
 10
194.1660768574484
 20
16.23434774436429
 30
0.0
 10
194.1995914649489
 20
16.22819223482984
 30
0.0
 10
194.238808618304
 20
16.23346029773595
 30
0.0
 10
194.2120263698491
 20
16.19253380793496
 30
0.0
 10
194.1708111001723
 20
16.20371204538111
 30
0.0
 10
194.1782641540874
 20
16.15867056192127
 30
0.0
 10
194.1742227952183
 20
16.11412278028146
 30
0.0
 10
194.1761714049641
 20
16.04223572621706
 30
0.0
 10
194.1752364849758
 20
15.96168630588773
 30
0.0
 10
194.176510719003
 20
15.88173995404998
 30
0.0
 10
194.1732043793864
 20
15.80841837083185
 30
0.0
 10
194.1802106179961
 20
15.76688643002571
 30
0.0
 10
194.1701440380125
 20
15.72752418568115
 30
0.0
 10
194.2029814803921
 20
15.73468063430985
 30
0.0
 10
194.236457729648
 20
15.73027243137947
 30
0.0
 10
194.2915053476019
 20
15.73217943347901
 30
0.0
 10
194.3489502595314
 20
15.73185366407291
 30
0.0
 10
194.4023026248309
 20
15.73106308733085
 30
0.0
 10
194.4398540896639
 20
15.73313959118077
 30
0.0
 10
194.4623172523237
 20
15.73022338167112
 30
0.0
 10
194.4751678073731
 20
15.73572552644059
 30
0.0
 10
194.4858255685888
 20
15.73801118197793
 30
0.0
 10
194.4986635650144
 20
15.74494972588056
 30
0.0
 10
194.514599103307
 20
15.72853046313674
 30
0.0
 10
194.5410623920891
 20
15.7170912231945
 30
0.0
 10
194.5726805253758
 20
15.69644687835194
 30
0.0
 10
194.5987255892151
 20
15.68116869628296
 30
0.0
 10
194.6128517723973
 20
15.67266976323186
 30
0.0
 10
194.6170254148479
 20
15.67015871511029
 30
0.0
 11
194.6170254148479
 21
15.67015871511029
 31
0.0
 11
194.6049990002243
 21
15.6547357116419
 31
0.0
 11
194.5848961795564
 21
15.64337406233919
 31
0.0
 11
194.4778986355813
 21
15.42440620231161
 31
0.0
 11
194.3477039934324
 21
15.21317201512163
 31
0.0
 11
194.1996540366071
 21
15.01206059027481
 31
0.0
 11
194.2734958253735
 21
14.96147384935381
 31
0.0
 11
194.36056643118
 21
14.89988411653741
 31
0.0
 11
194.4518003750404
 21
14.83413160594428
 31
0.0
 11
194.5381321779687
 21
14.77105653169307
 31
0.0
 11
194.6104963609787
 21
14.71749910790244
 31
0.0
 11
194.6598274450843
 21
14.68029954869107
 31
0.0
 11
194.6486940702213
 21
14.66471410869497
 31
0.0
 11
194.6221452532403
 21
14.62754882870426
 31
0.0
 11
194.5904579555532
 21
14.58319026871535
 31
0.0
 11
194.5639091385722
 21
14.54602498872464
 31
0.0
 11
194.5527757637092
 21
14.53043954872854
 31
0.0
 11
194.4807013362947
 21
14.59754008690619
 31
0.0
 11
194.385285698538
 21
14.67993354174671
 31
0.0
 11
194.279326415217
 21
14.76785017366918
 31
0.0
 11
194.175621051109
 21
14.85152024309269
 31
0.0
 11
194.175621051109
 21
14.83304687900865
 31
0.0
 11
194.175621051109
 21
14.78162102763957
 31
0.0
 11
194.175621051109
 21
14.70323405031001
 31
0.0
 11
194.175621051109
 21
14.60387730834451
 31
0.0
 11
194.175621051109
 21
14.48954216306763
 31
0.0
 11
194.175621051109
 21
14.36621997580392
 31
0.0
 11
194.175621051109
 21
14.23990210787793
 31
0.0
 11
194.175621051109
 21
14.11657992061421
 31
0.0
 11
194.175621051109
 21
14.00224477533733
 31
0.0
 11
194.175621051109
 21
13.90288803337183
 31
0.0
 11
194.175621051109
 21
13.82450105604226
 31
0.0
 11
194.175621051109
 21
13.77307520467319
 31
0.0
 11
194.175621051109
 21
13.75460184058915
 31
0.0
 11
194.1569720893626
 21
13.75460184058915
 31
0.0
 11
194.1125014882749
 21
13.75460184058915
 31
0.0
 11
194.0594236740735
 21
13.75460184058915
 31
0.0
 11
194.0149530729858
 21
13.75460184058915
 31
0.0
 11
193.9963041112394
 21
13.75460184058915
 31
0.0
 11
193.9963041112394
 21
13.77486797460222
 31
0.0
 11
193.9963041112394
 21
13.83089787452069
 31
0.0
 11
193.9963041112394
 21
13.91553878716351
 31
0.0
 11
193.9963041112394
 21
14.02163795934956
 31
0.0
 11
193.9963041112394
 21
14.14204263789778
 31
0.0
 11
193.9963041112394
 21
14.26960006962709
 31
0.0
 11
193.9963041112394
 21
14.39715750135639
 31
0.0
 11
193.9963041112394
 21
14.51756217990461
 31
0.0
 11
193.9963041112394
 21
14.62366135209066
 31
0.0
 11
193.9963041112394
 21
14.70830226473347
 31
0.0
 11
193.9963041112394
 21
14.76433216465195
 31
0.0
 11
193.9963041112394
 21
14.78459829866502
 31
0.0
 11
193.7883272849481
 21
14.59331998274058
 31
0.0
 11
193.5763486358425
 21
14.43414885430813
 31
0.0
 11
193.5495629014482
 21
14.48814671952097
 31
0.0
 11
193.5138765415024
 21
14.54689140572028
 31
0.0
 11
193.4799697494124
 21
14.59192871537978
 31
0.0
 11
193.6830287742319
 21
14.73563387201055
 31
0.0
 11
193.881853195826
 21
14.9116842352999
 31
0.0
 11
194.0677041444178
 21
15.11327514524952
 31
0.0
 11
194.2318427502303
 21
15.3336019418611
 31
0.0
 11
194.3655301434864
 21
15.56585996513637
 31
0.0
 11
194.3465256724482
 21
15.56585996513637
 31
0.0
 11
194.2944166389562
 21
15.56585996513637
 31
0.0
 11
194.2165596124447
 21
15.56585996513637
 31
0.0
 11
194.1203111623478
 21
15.56585996513637
 31
0.0
 11
194.0130278580996
 21
15.56585996513637
 31
0.0
 11
193.9020662691345
 21
15.56585996513637
 31
0.0
 11
193.7947829648863
 21
15.56585996513637
 31
0.0
 11
193.6985345147894
 21
15.56585996513637
 31
0.0
 11
193.6206774882779
 21
15.56585996513637
 31
0.0
 11
193.5685684547859
 21
15.56585996513637
 31
0.0
 11
193.5495639837477
 21
15.56585996513637
 31
0.0
 11
193.5495639837477
 21
15.58311199790984
 31
0.0
 11
193.5495639837477
 21
15.62425146067734
 31
0.0
 11
193.5495639837477
 21
15.67335340010952
 31
0.0
 11
193.5495639837477
 21
15.71449286287701
 31
0.0
 11
193.5495639837477
 21
15.73174489565048
 31
0.0
 11
193.5687598486008
 21
15.73174489565048
 31
0.0
 11
193.6193671286682
 21
15.73174489565048
 31
0.0
 11
193.6909153522119
 21
15.73174489565048
 31
0.0
 11
193.7729340474935
 21
15.73174489565048
 31
0.0
 11
193.8549527427752
 21
15.73174489565048
 31
0.0
 11
193.9265009663188
 21
15.73174489565048
 31
0.0
 11
193.9771082463863
 21
15.73174489565048
 31
0.0
 11
193.9963041112394
 21
15.73174489565048
 31
0.0
 11
193.9963041112394
 21
15.74926552655221
 31
0.0
 11
193.9963041112394
 21
15.79622081736885
 31
0.0
 11
193.9963041112394
 21
15.86420086526756
 31
0.0
 11
193.9963041112394
 21
15.94479576741552
 31
0.0
 11
193.9963041112394
 21
16.02959562097989
 31
0.0
 11
193.9963041112394
 21
16.11019052312785
 31
0.0
 11
193.9963041112394
 21
16.17817057102657
 31
0.0
 11
193.9963041112394
 21
16.2251258618432
 31
0.0
 11
193.9963041112394
 21
16.24264649274493
 31
0.0
 11
194.013548411211
 21
16.24165806167522
 31
0.0
 11
194.05665916114
 21
16.23918698400094
 31
0.0
 11
194.1127031360477
 21
16.23597458302439
 31
0.0
 11
194.1687471109553
 21
16.23276218204783
 31
0.0
 11
194.2118578608843
 21
16.23029110437355
 31
0.0
 11
194.2291021608559
 21
16.22930267330384
 31
0.0
 11
194.2143774674851
 21
16.20556293372643
 31
0.0
 11
194.175621051109
 21
16.19183767331315
 31
0.0
 11
194.175621051109
 21
16.17206806177296
 31
0.0
 11
194.175621051109
 21
16.11994817680336
 31
0.0
 11
194.175621051109
 21
16.04626144288082
 31
0.0
 11
194.175621051109
 21
15.96179128448182
 31
0.0
 11
194.175621051109
 21
15.87732112608281
 31
0.0
 11
194.175621051109
 21
15.80363439216027
 31
0.0
 11
194.175621051109
 21
15.75151450719067
 31
0.0
 11
194.175621051109
 21
15.73174489565048
 31
0.0
 11
194.1916227112935
 21
15.73174489565048
 31
0.0
 11
194.232890150717
 21
15.73174489565048
 31
0.0
 11
194.2893170576837
 21
15.73174489565048
 31
0.0
 11
194.3507971204981
 21
15.73174489565048
 31
0.0
 11
194.4072240274648
 21
15.73174489565048
 31
0.0
 11
194.4484914668882
 21
15.73174489565048
 31
0.0
 11
194.4644931270728
 21
15.73174489565048
 31
0.0
 11
194.4728206422924
 21
15.73451387455924
 31
0.0
 11
194.4882860277004
 21
15.73965626396121
 31
0.0
 11
194.49661354292
 21
15.74242524286997
 31
0.0
 11
194.5091363776005
 21
15.73490952398296
 31
0.0
 11
194.5389985218386
 21
15.71698742509856
 31
0.0
 11
194.5746404359293
 21
15.6955965328817
 31
0.0
 11
194.6045025801674
 21
15.6776744339973
 31
0.0
 11
194.6170254148479
 21
15.67015871511029
 31
0.0
  0
SPLINE
  5
A9
102
{ACAD_REACTORS
330
C6
102
}
330
48
100
AcDbEntity
  8
_U_30EC_U_30A4_U_30E4_U_30FC_1
  6
Continuous
 62
     2
100
AcDbSpline
210
0.0
220
0.0
230
1.0
 70
    11
 71
     3
 72
    91
 73
    87
 74
    85
 42
0.000000001
 43
0.0000000001
 44
0.00000001
 40
0.0
 40
0.0
 40
0.0
 40
0.0
 40
0.0267532254356701
 40
0.0856103386464102
 40
0.1444674521996621
 40
0.1712206856618514
 40
0.2039416005642536
 40
0.2955601971652484
 40
0.4362601844616918
 40
0.616225284450725
 40
0.8256392189704413
 40
1.054685709844382
 40
1.293548478893474
 40
1.532411247938218
 40
1.761457738799483
 40
1.970871673298451
 40
2.150836773256619
 40
2.29153676049548
 40
2.383155356836586
 40
2.415876284101206
 40
2.442629517487847
 40
2.501486630948981
 40
2.56034374442413
 40
2.587096977826401
 40
2.617068194440828
 40
2.69924733675597
 40
2.822032643466254
 40
2.973822353257783
 40
3.143014704823197
 40
3.318007936879776
 40
3.487200288186552
 40
3.63898999754809
 40
3.761775303794532
 40
3.843954445752867
 40
3.873925662229563
 40
3.890812773500272
 40
3.907699884771452
 40
3.937960767857054
 40
3.980983618142085
 40
4.199085915228236
 40
4.439444339237026
 40
4.677588241260666
 40
5.050698317837552
 40
5.448212454762937
 40
5.855291218044463
 40
6.138575438885127
 40
6.417434507583966
 40
6.44455110439365
 40
6.50420761736295
 40
6.563864130314276
 40
6.590980727103869
 40
6.848609460381274
 40
7.109611990668233
 40
7.35291090444588
 40
7.557830220705255
 40
7.587518925913174
 40
7.652834077375545
 40
7.718149228845481
 40
7.747837934061737
 40
7.854880190300807
 40
7.976511257403371
 40
8.369487896592116
 40
8.75751495922338
 40
9.126072419330814
 40
9.460639380391877
 40
9.746695593035618
 40
9.777569943118394
 40
9.807050320931493
 40
9.830377336128628
 40
9.8860032954357
 40
9.952395569429612
 40
10.00802152870596
 40
10.03134854388189
 40
10.21356951009554
 40
10.42203479292842
 40
10.66154556731034
 40
10.91693789564274
 40
11.15832906556532
 40
11.1898267459659
 40
11.27286608520371
 40
11.39026653033316
 40
11.52484752840846
 40
11.65942852648403
 40
11.77682897161441
 40
11.85986831085638
 40
11.89136598230383
 40
11.89136598230383
 40
11.89136598230383
 40
11.89136598230383
 10
190.7027885008196
 20
14.70699600701775
 30
0.0
 10
190.7028237765288
 20
14.71587847311988
 30
0.0
 10
190.7029366710796
 20
14.74430237047349
 30
0.0
 10
190.7012984568489
 20
14.79409639169806
 30
0.0
 10
190.7069750292911
 20
14.83657564478157
 30
0.0
 10
190.6956928731706
 20
14.8873015485685
 30
0.0
 10
190.7632296979031
 20
14.87012900740112
 30
0.0
 10
190.83880292107
 20
14.88290227165999
 30
0.0
 10
190.9828357056001
 20
14.87629729457384
 30
0.0
 10
191.1569419185427
 20
14.87888462206469
 30
0.0
 10
191.3639599611003
 20
14.87800591955556
 30
0.0
 10
191.5894688172377
 20
14.8782820792003
 30
0.0
 10
191.8251162293405
 20
14.87818339658665
 30
0.0
 10
192.0607640531348
 20
14.8782818441277
 30
0.0
 10
192.2862717580625
 20
14.87800678190792
 30
0.0
 10
192.4932934632803
 20
14.87888186270737
 30
0.0
 10
192.6673888915287
 20
14.8763052267845
 30
0.0
 10
192.8114492071984
 20
14.88288290449216
 30
0.0
 10
192.8869691915292
 20
14.87016243405607
 30
0.0
 10
192.9545776037028
 20
14.88726400191689
 30
0.0
 10
192.9430840140675
 20
14.83674785802944
 30
0.0
 10
192.9505104581731
 20
14.79253252226504
 30
0.0
 10
192.9428838927985
 20
14.74867966503613
 30
0.0
 10
192.9546489459423
 20
14.69878374479331
 30
0.0
 10
192.8930788491982
 20
14.71393227712515
 30
0.0
 10
192.8256791738671
 20
14.70310665350677
 30
0.0
 10
192.701300405622
 20
14.70852031626239
 30
0.0
 10
192.555442823657
 20
14.70649205390788
 30
0.0
 10
192.3893576440084
 20
14.70715777578389
 30
0.0
 10
192.2188412621725
 20
14.70689643521245
 30
0.0
 10
192.0519790855388
 20
14.70721553391096
 30
0.0
 10
191.9087346827105
 20
14.70635302590765
 30
0.0
 10
191.7773313869833
 20
14.70863300482991
 30
0.0
 10
191.7239859134657
 20
14.70407704374204
 30
0.0
 10
191.6485188456912
 20
14.70999914992881
 30
0.0
 10
191.6769075779232
 20
14.70094169343355
 30
0.0
 10
191.7033652409542
 20
14.69725912268931
 30
0.0
 10
191.6633522907701
 20
14.66654271968277
 30
0.0
 10
191.5713663691868
 20
14.67667591174638
 30
0.0
 10
191.543939620707
 20
14.43032502247787
 30
0.0
 10
191.4478793967234
 20
14.27499558764378
 30
0.0
 10
191.1917277964474
 20
13.94525417931571
 30
0.0
 10
191.7627537732762
 20
14.08430022210455
 30
0.0
 10
192.0173656320516
 20
14.08291779973365
 30
0.0
 10
192.6279647048617
 20
13.99790569242089
 30
0.0
 10
192.3340698578083
 20
14.29685417558206
 30
0.0
 10
192.0133304286518
 20
14.44330856901782
 30
0.0
 10
192.1313543360433
 20
14.50025540818289
 30
0.0
 10
192.1724716466261
 20
14.52420099873351
 30
0.0
 10
192.2156812394411
 20
14.54599758811233
 30
0.0
 10
192.3174574094451
 20
14.60928721253907
 30
0.0
 10
192.4328867625247
 20
14.35147151408784
 30
0.0
 10
192.6329591642277
 20
14.21616041113685
 30
0.0
 10
192.7269077387228
 20
14.03792795138884
 30
0.0
 10
192.9558829746392
 20
13.8799782102705
 30
0.0
 10
192.8596031846708
 20
13.82915972576303
 30
0.0
 10
192.816795976378
 20
13.79881292523054
 30
0.0
 10
192.7718243528779
 20
13.77466130281462
 30
0.0
 10
192.7121720925215
 20
13.72552146747566
 30
0.0
 10
192.6789731061323
 20
13.85997475673608
 30
0.0
 10
192.5582013350795
 20
14.01594265286583
 30
0.0
 10
192.1970976005978
 20
13.8856992805956
 30
0.0
 10
191.838506195554
 20
13.90224694409486
 30
0.0
 10
191.4570920450079
 20
13.89331229351868
 30
0.0
 10
191.1703455282891
 20
13.8288267167241
 30
0.0
 10
190.8592055599715
 20
13.94230668192829
 30
0.0
 10
190.8268737818788
 20
13.83122259927771
 30
0.0
 10
190.7896178253318
 20
13.81196313850016
 30
0.0
 10
190.7865737632754
 20
13.858747840873
 30
0.0
 10
190.7679892860607
 20
13.89806853919138
 30
0.0
 10
190.7512436616778
 20
13.95765983478235
 30
0.0
 10
190.7383730915753
 20
14.00201969871286
 30
0.0
 10
190.704232780643
 20
14.09106331120202
 30
0.0
 10
190.9482714457753
 20
14.02181042943771
 30
0.0
 10
191.1441394486671
 20
14.00030369057745
 30
0.0
 10
191.2395426381277
 20
14.28226484478465
 30
0.0
 10
191.2945135769596
 20
14.44363045421123
 30
0.0
 10
191.5159619357156
 20
14.71391177589743
 30
0.0
 10
191.3849239381215
 20
14.70548446853737
 30
0.0
 10
191.3110026555853
 20
14.70779008496974
 30
0.0
 10
191.1977459876243
 20
14.7067137832166
 30
0.0
 10
191.0694251807484
 20
14.70707639076513
 30
0.0
 10
190.9404252030415
 20
14.70697724466089
 30
0.0
 10
190.8287840946291
 20
14.70699932712574
 30
0.0
 10
190.7514663970027
 20
14.70699579189673
 30
0.0
 10
190.713287653201
 20
14.70699595845084
 30
0.0
 10
190.7027885008196
 20
14.70699600701775
 30
0.0
 11
190.7027885008196
 21
14.70699600701775
 31
0.0
 11
190.7027885008196
 21
14.73374924051801
 31
0.0
 11
190.7027885008196
 21
14.79260635421856
 31
0.0
 11
190.7027885008196
 21
14.85146346791912
 31
0.0
 11
190.7027885008196
 21
14.87821670141938
 31
0.0
 11
190.7355094280989
 21
14.87821670141938
 31
0.0
 11
190.8271280244809
 21
14.87821670141938
 31
0.0
 11
190.9678280117818
 21
14.87821670141938
 31
0.0
 11
191.1477931118179
 21
14.87821670141938
 31
0.0
 11
191.3572070464054
 21
14.87821670141938
 31
0.0
 11
191.5862535373604
 21
14.87821670141938
 31
0.0
 11
191.8251163064992
 21
14.87821670141938
 31
0.0
 11
192.063979075638
 21
14.87821670141938
 31
0.0
 11
192.293025566593
 21
14.87821670141938
 31
0.0
 11
192.5024395011805
 21
14.87821670141938
 31
0.0
 11
192.6824046012166
 21
14.87821670141938
 31
0.0
 11
192.8231045885175
 21
14.87821670141938
 31
0.0
 11
192.9147231848995
 21
14.87821670141938
 31
0.0
 11
192.9474441121788
 21
14.87821670141938
 31
0.0
 11
192.9474441121788
 21
14.85146346791913
 31
0.0
 11
192.9474441121788
 21
14.79260635421856
 31
0.0
 11
192.9474441121788
 21
14.733749240518
 31
0.0
 11
192.9474441121788
 21
14.70699600701775
 31
0.0
 11
192.9174728954756
 21
14.70699600701775
 31
0.0
 11
192.8352937529025
 21
14.70699600701775
 31
0.0
 11
192.7125084457639
 21
14.70699600701775
 31
0.0
 11
192.5607187353641
 21
14.70699600701775
 31
0.0
 11
192.3915263830077
 21
14.70699600701775
 31
0.0
 11
192.216533149999
 21
14.70699600701775
 31
0.0
 11
192.0473407976426
 21
14.70699600701775
 31
0.0
 11
191.8955510872428
 21
14.70699600701775
 31
0.0
 11
191.7727657801042
 21
14.70699600701775
 31
0.0
 11
191.690586637531
 21
14.70699600701775
 31
0.0
 11
191.6606154208279
 21
14.70699600701775
 31
0.0
 11
191.6766359412525
 21
14.70165583340796
 31
0.0
 11
191.6926564616771
 21
14.69631565979817
 31
0.0
 11
191.670615568142
 21
14.67558114591445
 31
0.0
 11
191.6284861855363
 21
14.66685871536113
 31
0.0
 11
191.5365235541377
 21
14.46909247312659
 31
0.0
 11
191.4279078521763
 21
14.25467511978511
 31
0.0
 11
191.3127500824807
 21
14.04622559051623
 31
0.0
 11
191.685736667502
 21
14.05582441253032
 31
0.0
 11
192.083070003615
 21
14.06781232404997
 31
0.0
 11
192.4899342191145
 21
14.08102711828535
 31
0.0
 11
192.2983119496978
 21
14.28966761302483
 31
0.0
 11
192.0966752013698
 21
14.48229420151834
 31
0.0
 11
192.1204947794749
 21
14.49525327269567
 31
0.0
 11
192.1728978513061
 21
14.52376322928578
 31
0.0
 11
192.2253009231374
 21
14.5522731858759
 31
0.0
 11
192.2491205012425
 21
14.56523225705323
 31
0.0
 11
192.4387101558627
 21
14.39079508370271
 31
0.0
 11
192.6200310940436
 21
14.20305846374094
 31
0.0
 11
192.7777729231147
 21
14.01782380992439
 31
0.0
 11
192.8966252504058
 21
13.85089253500951
 31
0.0
 11
192.8715408217923
 21
13.83501202286071
 31
0.0
 11
192.8163550788426
 21
13.80007489613334
 31
0.0
 11
192.7611693358929
 21
13.76513776940597
 31
0.0
 11
192.7360849072794
 21
13.74925725725717
 31
0.0
 11
192.6775518151611
 21
13.83887824681812
 31
0.0
 11
192.6050015078456
 21
13.93650288221035
 31
0.0
 11
192.2125412924094
 21
13.91636286943762
 31
0.0
 11
191.824947406956
 21
13.89803302999776
 31
0.0
 11
191.4567378976213
 21
13.88202178722398
 31
0.0
 11
191.1224308105412
 21
13.8688375644495
 31
0.0
 11
190.8365441918518
 21
13.85898878500753
 31
0.0
 11
190.821186232174
 21
13.83220523466698
 31
0.0
 11
190.7937434290546
 21
13.82143559057248
 31
0.0
 11
190.7867927192319
 21
13.8437029944558
 31
0.0
 11
190.7702179496548
 21
13.89680218833141
 31
0.0
 11
190.7504351601596
 21
13.96017864553779
 31
0.0
 11
190.7338603905825
 21
14.0132778394134
 31
0.0
 11
190.7269096807598
 21
14.03554524329672
 31
0.0
 11
190.9091199859152
 21
14.03751638912954
 31
0.0
 11
191.1174975848588
 21
14.04356211829474
 31
0.0
 11
191.2303203127216
 21
14.25483550301556
 31
0.0
 11
191.3407936722035
 21
14.48509813155881
 31
0.0
 11
191.4358254265626
 21
14.70699600701775
 31
0.0
 11
191.4043277461595
 21
14.70699600701775
 31
0.0
 11
191.3212884069152
 21
14.70699600701775
 31
0.0
 11
191.2038879617767
 21
14.70699600701775
 31
0.0
 11
191.0693069636911
 21
14.70699600701775
 31
0.0
 11
190.9347259656055
 21
14.70699600701775
 31
0.0
 11
190.8173255204669
 21
14.70699600701775
 31
0.0
 11
190.7342861812226
 21
14.70699600701775
 31
0.0
 11
190.7027885008196
 21
14.70699600701775
 31
0.0
  0
SPLINE
  5
AA
102
{ACAD_REACTORS
330
C7
102
}
330
48
100
AcDbEntity
  8
_U_30EC_U_30A4_U_30E4_U_30FC_1
  6
Continuous
 62
     2
100
AcDbSpline
210
0.0
220
0.0
230
1.0
 70
    11
 71
     3
 72
    35
 73
    31
 74
    29
 42
0.000000001
 43
0.0000000001
 44
0.00000001
 40
0.0
 40
0.0
 40
0.0
 40
0.0
 40
0.033523103662059
 40
0.0713218571711996
 40
0.4278866681487027
 40
0.8116865841964048
 40
1.198190238000063
 40
1.561379546812695
 40
1.659983174622075
 40
1.759315573807194
 40
2.132719617231077
 40
2.525233363588827
 40
2.910815397779694
 40
3.265244364303283
 40
3.592606723582055
 40
3.964386154604003
 40
4.359942131737826
 40
4.758154118639289
 40
4.843846538699905
 40
4.936650065543221
 40
5.256616602537304
 40
5.581707404416042
 40
5.899719158308137
 40
6.198363494280739
 40
6.466301046615769
 40
6.493895311537091
 40
6.559697020196883
 40
6.638234543442459
 40
6.704036252154211
 40
6.731630508423017
 40
6.731630508423017
 40
6.731630508423017
 40
6.731630508423017
 10
191.9736010568669
 20
16.23463843719136
 30
0.0
 10
191.9676006097788
 20
16.22480690542325
 30
0.0
 10
191.9548344099157
 20
16.20388988579801
 30
0.0
 10
191.7949362006554
 20
16.17127126532691
 30
0.0
 10
192.2322025842337
 20
15.88206680336705
 30
0.0
 10
192.4345394828262
 20
15.6804113835844
 30
0.0
 10
192.6819564267973
 20
15.4374938760328
 30
0.0
 10
193.1831513624607
 20
15.36047662757776
 30
0.0
 10
193.012556219897
 20
15.2187693917466
 30
0.0
 10
192.9383299463201
 20
15.01710366209109
 30
0.0
 10
192.6131432248187
 20
15.36956287174729
 30
0.0
 10
192.3277741670664
 20
15.53175212559564
 30
0.0
 10
192.0337604077657
 20
15.73687130053051
 30
0.0
 10
191.8084452691134
 20
16.21827488595457
 30
0.0
 10
191.5993085055521
 20
15.75343046609227
 30
0.0
 10
191.3207873674833
 20
15.54350952252914
 30
0.0
 10
191.0371383177209
 20
15.37424456359989
 30
0.0
 10
190.7078639527831
 20
15.00142360907939
 30
0.0
 10
190.6277012318224
 20
15.19708014459004
 30
0.0
 10
190.4759724909743
 20
15.32491104190596
 30
0.0
 10
190.9083395826795
 20
15.40454031765939
 30
0.0
 10
191.0962565329765
 20
15.60026634915475
 30
0.0
 10
191.3468477420502
 20
15.81632996916759
 30
0.0
 10
191.5714350470162
 20
15.98190992300061
 30
0.0
 10
191.6259775409711
 20
16.26133964636828
 30
0.0
 10
191.7494661029011
 20
16.24737950408081
 30
0.0
 10
191.806027334452
 20
16.2452126886765
 30
0.0
 10
191.8761870984944
 20
16.24046859881362
 30
0.0
 10
191.9333414022106
 20
16.23709429350544
 30
0.0
 10
191.9644190320839
 20
16.23519854711121
 30
0.0
 10
191.9736010568669
 20
16.23463843719136
 30
0.0
 11
191.9736010568669
 21
16.23463843719136
 31
0.0
 11
191.9525319069884
 21
16.20856374969788
 31
0.0
 11
191.9174464559425
 21
16.19450114553472
 31
0.0
 11
192.1512374769094
 21
15.92527961131384
 31
0.0
 11
192.4414585957566
 21
15.67413407969262
 31
0.0
 11
192.7612797483684
 21
15.45710987618786
 31
0.0
 11
193.0838708706289
 21
15.29025232631639
 31
0.0
 11
193.0213299868076
 21
15.21402035584931
 31
0.0
 11
192.9688035818975
 21
15.12971197913427
 31
0.0
 11
192.6436279095814
 21
15.31326404831582
 31
0.0
 11
192.3237227768436
 21
15.5407013974343
 31
0.0
 11
192.0354200158608
 21
15.79673855123312
 31
0.0
 11
191.8050514588095
 21
16.06609003445568
 31
0.0
 11
191.5995531719515
 21
15.81126348721038
 31
0.0
 11
191.3288301341535
 21
15.55645182277758
 31
0.0
 11
191.0119538423246
 21
15.31969466354858
 31
0.0
 11
190.6679957933741
 21
15.11903163191468
 31
0.0
 11
190.6218855341338
 21
15.19126067703556
 31
0.0
 11
190.5636970460348
 21
15.26355586798968
 31
0.0
 11
190.8433040489015
 21
15.41911456961747
 31
0.0
 11
191.1093004621154
 21
15.60601009790408
 31
0.0
 11
191.3499997459746
 21
15.81384496285211
 31
0.0
 11
191.5537153607774
 21
16.03222167446418
 31
0.0
 11
191.7087607668218
 21
16.25074274274289
 31
0.0
 11
191.7363041569865
 21
16.24906789496553
 31
0.0
 11
191.8019845489177
 21
16.24507402718875
 31
0.0
 11
191.880377274771
 21
16.2403071527455
 31
0.0
 11
191.9460576667022
 21
16.23631328496872
 31
0.0
 11
191.9736010568669
 21
16.23463843719136
 31
0.0
  0
SPLINE
  5
AB
102
{ACAD_REACTORS
330
C8
102
}
330
48
100
AcDbEntity
  8
_U_30EC_U_30A4_U_30E4_U_30FC_1
  6
Continuous
 62
     2
100
AcDbSpline
210
0.0
220
0.0
230
1.0
 70
    11
 71
     3
 72
    15
 73
    11
 74
     9
 42
0.000000001
 43
0.0000000001
 44
0.00000001
 40
0.0
 40
0.0
 40
0.0
 40
0.0
 40
0.2785535985096574
 40
0.5215624748199509
 40
0.6076917376041558
 40
0.6938210001743123
 40
0.9405019146456495
 40
1.22169140348932
 40
1.300471877081265
 40
1.379252341685081
 40
1.379252341685081
 40
1.379252341685081
 40
1.379252341685081
 10
189.5681493630999
 20
16.22930267330384
 30
0.0
 10
189.6296017794178
 20
16.17691646592718
 30
0.0
 10
189.7446649974113
 20
16.07882876798223
 30
0.0
 10
190.0397348497244
 20
15.92889785897224
 30
0.0
 10
189.9025147631857
 20
15.84343227515016
 30
0.0
 10
189.8041227843777
 20
15.71085785201563
 30
0.0
 10
189.713003359065
 20
16.01616985781423
 30
0.0
 10
189.3636839480653
 20
16.07967869465375
 30
0.0
 10
189.511925837657
 20
16.17896509880882
 30
0.0
 10
189.5494081874236
 20
16.21252348402385
 30
0.0
 10
189.5681493630999
 20
16.22930267330384
 30
0.0
 11
189.5681493630999
 21
16.22930267330384
 31
0.0
 11
189.7919222440596
 21
16.06341774278976
 31
0.0
 11
189.9695046306384
 21
15.89753281227567
 31
0.0
 11
189.9066308127979
 21
15.83866743034595
 31
0.0
 11
189.8437569949574
 21
15.77980204841623
 31
0.0
 11
189.6688535117725
 21
15.95375677059494
 31
0.0
 11
189.4478256856139
 21
16.12757920110704
 31
0.0
 11
189.5079875243569
 21
16.17844093720544
 31
0.0
 11
189.5681493630999
 21
16.22930267330384
 31
0.0
  0
SPLINE
  5
AC
102
{ACAD_REACTORS
330
C9
102
}
330
48
100
AcDbEntity
  8
_U_30EC_U_30A4_U_30E4_U_30FC_1
  6
Continuous
 62
     2
100
AcDbSpline
210
0.0
220
0.0
230
1.0
 70
    11
 71
     3
 72
    75
 73
    71
 74
    69
 42
0.000000001
 43
0.0000000001
 44
0.00000001
 40
0.0
 40
0.0
 40
0.0
 40
0.0
 40
0.0342546099129691
 40
0.1245622414432346
 40
0.2522385480897536
 40
0.398599192294068
 40
0.5449598364980839
 40
0.6726361431438834
 40
0.7629437746736942
 40
0.7971983935297973
 40
1.101723623449662
 40
1.408591244036668
 40
1.433332471690374
 40
1.487763172450175
 40
1.54219387308201
 40
1.56693510059256
 40
1.923523931821814
 40
2.271755704953641
 40
2.590579755100884
 40
2.858943305581171
 40
2.889120339309192
 40
2.918305855191134
 40
2.941366645531256
 40
2.996357760973146
 40
3.061992318140689
 40
3.116983433626883
 40
3.140044223997562
 40
3.411273122936454
 40
3.732441619741147
 40
3.761068217532846
 40
3.837787499630406
 40
3.948858699126045
 40
4.080541049104424
 40
4.219093782625805
 40
4.350776132722357
 40
4.461847332405689
 40
4.538566614678423
 40
4.567193212544669
 40
4.594907573998928
 40
4.666381453557467
 40
4.764111044011077
 40
4.87059253812588
 40
4.968322128642331
 40
5.039796008287016
 40
5.067510369784475
 40
5.094263603185691
 40
5.153120716668331
 40
5.211977830150781
 40
5.238731063551787
 40
5.272290535139026
 40
5.363380529444887
 40
5.497618415781593
 40
5.660621563453835
 40
5.838007341749536
 40
6.015393119910888
 40
6.178396267038542
 40
6.312634151842522
 40
6.403724143059511
 40
6.437283612672607
 40
6.464036846261225
 40
6.522893960004845
 40
6.581751071484113
 40
6.608504301591061
 40
6.637253941281209
 40
6.711397748903089
 40
6.812778057283701
 40
6.923237199249478
 40
7.024617507624122
 40
7.098761315207831
 40
7.127510946007781
 40
7.127510946007781
 40
7.127510946007781
 40
7.127510946007781
 10
188.4418622390564
 20
14.95849128473266
 30
0.0
 10
188.4418622819707
 20
14.94707313408721
 30
0.0
 10
188.4418624481129
 20
14.90555257842631
 30
0.0
 10
188.4418593081786
 20
14.82146922003773
 30
0.0
 10
188.4418788279801
 20
14.7000449732233
 30
0.0
 10
188.4417912187737
 20
14.55980494047449
 30
0.0
 10
188.442111623523
 20
14.42006556794577
 30
0.0
 10
188.4411605909742
 20
14.29745038894931
 30
0.0
 10
188.4431978595967
 20
14.21587074438044
 30
0.0
 10
188.4349433178746
 20
14.06271267077699
 30
0.0
 10
188.74307979409
 20
14.22560236054724
 30
0.0
 10
189.0350645173736
 20
14.39482938688007
 30
0.0
 10
189.0408354448708
 20
14.25973235781914
 30
0.0
 10
189.0455471719891
 20
14.21617221160446
 30
0.0
 10
189.0482535411918
 20
14.17211249350547
 30
0.0
 10
189.0672545672958
 20
14.02272590363137
 30
0.0
 10
188.6583942247303
 20
14.08681172241263
 30
0.0
 10
188.3793710348833
 20
13.97296341411021
 30
0.0
 10
188.1018081587165
 20
13.87364095811143
 30
0.0
 10
187.8099837184402
 20
13.91630687596359
 30
0.0
 10
187.7869144678657
 20
13.81321679744542
 30
0.0
 10
187.7537474383333
 20
13.78691091244473
 30
0.0
 10
187.7480653962738
 20
13.83455309036307
 30
0.0
 10
187.7284214559044
 20
13.87180336115072
 30
0.0
 10
187.7095089485623
 20
13.93007387847567
 30
0.0
 10
187.6942849867707
 20
13.97385201007807
 30
0.0
 10
187.6477246372935
 20
14.08759421046312
 30
0.0
 10
187.9890897312452
 20
14.05576301120051
 30
0.0
 10
188.2679649367385
 20
14.02161435106478
 30
0.0
 10
188.2617753034907
 20
14.16913976479654
 30
0.0
 10
188.2630935452773
 20
14.24013150908834
 30
0.0
 10
188.2624831689948
 20
14.34719767958663
 30
0.0
 10
188.2625871570725
 20
14.47398529786
 30
0.0
 10
188.2629987964055
 20
14.60849243496052
 30
0.0
 10
188.2613907841969
 20
14.73395549951186
 30
0.0
 10
188.2659902567925
 20
14.84505246719119
 30
0.0
 10
188.256418650221
 20
14.9076188680069
 30
0.0
 10
188.2704001783692
 20
14.96595388295003
 30
0.0
 10
188.2147384386704
 20
14.95289710582239
 30
0.0
 10
188.1575655197821
 20
14.961363077495
 30
0.0
 10
188.0616048925648
 20
14.95729976080638
 30
0.0
 10
187.963376752282
 20
14.95970889852476
 30
0.0
 10
187.8672582457561
 20
14.9555160061339
 30
0.0
 10
187.8104648525811
 20
14.96429346441165
 30
0.0
 10
187.7550356873384
 20
14.95094936850123
 30
0.0
 10
187.7670679427916
 20
15.00036910959258
 30
0.0
 10
187.7592003173937
 20
15.04393988030398
 30
0.0
 10
187.7666295563828
 20
15.08830469118528
 30
0.0
 10
187.7551930564143
 20
15.13902297763994
 30
0.0
 10
187.8232102370133
 20
15.12162460757746
 30
0.0
 10
187.8968496879746
 20
15.13417450237191
 30
0.0
 10
188.0325064058211
 20
15.12799677011101
 30
0.0
 10
188.1884909024525
 20
15.13029203093087
 30
0.0
 10
188.3615926358144
 20
15.12940968262533
 30
0.0
 10
188.5346942964182
 20
15.13029207142411
 30
0.0
 10
188.6906789811216
 20
15.12799662955553
 30
0.0
 10
188.8263351889798
 20
15.13417486262434
 30
0.0
 10
188.8999756705653
 20
15.12162394218338
 30
0.0
 10
188.9679914174725
 20
15.13902373012145
 30
0.0
 10
188.9565590885923
 20
15.08830130414558
 30
0.0
 10
188.9639539458297
 20
15.0439706081111
 30
0.0
 10
188.9562039912272
 20
15.00028307550198
 30
0.0
 10
188.9681203741877
 20
14.95063590098478
 30
0.0
 10
188.9108170223618
 20
14.96461411338428
 30
0.0
 10
188.8520145789773
 20
14.95539755673255
 30
0.0
 10
188.75252936332
 20
14.95952268164932
 30
0.0
 10
188.649428009835
 20
14.95822760025889
 30
0.0
 10
188.5537846354574
 20
14.95854077077643
 30
0.0
 10
188.4857467971617
 20
14.95848776697146
 30
0.0
 10
188.4514462213443
 20
14.95849051871658
 30
0.0
 10
188.4418622390564
 20
14.95849128473266
 30
0.0
 11
188.4418622390564
 21
14.95849128473266
 31
0.0
 11
188.4418622390564
 21
14.92423666587186
 31
0.0
 11
188.4418622390564
 21
14.83392903432977
 31
0.0
 11
188.4418622390564
 21
14.70625272766681
 31
0.0
 11
188.4418622390564
 21
14.55989208344341
 31
0.0
 11
188.4418622390564
 21
14.41353143922002
 31
0.0
 11
188.4418622390564
 21
14.28585513255706
 31
0.0
 11
188.4418622390564
 21
14.19554750101496
 31
0.0
 11
188.4418622390564
 21
14.16129288215417
 31
0.0
 11
188.7391932644567
 21
14.22709475713771
 31
0.0
 11
189.0384623627245
 21
14.29496038212075
 31
0.0
 11
189.0405487124976
 21
14.27030727882831
 31
0.0
 11
189.0451386819987
 21
14.21607045158492
 31
0.0
 11
189.0497286514996
 21
14.16183362434154
 31
0.0
 11
189.0518150012728
 21
14.13718052104909
 31
0.0
 11
188.705639688924
 21
14.051633701409
 31
0.0
 11
188.3669653138838
 21
13.97060877629904
 31
0.0
 11
188.0563731516688
 21
13.89862764024931
 31
0.0
 11
187.7944444777955
 21
13.84021218778993
 31
0.0
 11
187.7817515029292
 21
13.81283442738015
 31
0.0
 11
187.7569794787513
 21
13.79740260446738
 31
0.0
 11
187.7491867589501
 21
13.81910683390639
 31
0.0
 11
187.7306041194242
 21
13.87086307333789
 31
0.0
 11
187.70842483999
 21
13.93263664943354
 31
0.0
 11
187.689842200464
 21
13.98439288886503
 31
0.0
 11
187.6820494806628
 21
14.00609711830404
 31
0.0
 11
187.9482776335931
 21
14.05794001759668
 31
0.0
 11
188.2626334936289
 21
14.12373968771912
 31
0.0
 11
188.2626334936289
 21
14.15236628569627
 31
0.0
 11
188.2626334936289
 21
14.22908556827501
 31
0.0
 11
188.2626334936289
 21
14.34015676842633
 31
0.0
 11
188.2626334936289
 21
14.4718391191212
 31
0.0
 11
188.2626334936289
 21
14.61039185333058
 31
0.0
 11
188.2626334936289
 21
14.74207420402545
 31
0.0
 11
188.2626334936289
 21
14.85314540417676
 31
0.0
 11
188.2626334936289
 21
14.92986468675551
 31
0.0
 11
188.2626334936289
 21
14.95849128473266
 31
0.0
 11
188.2349191321108
 21
14.95849128473266
 31
0.0
 11
188.1634452524063
 21
14.95849128473266
 31
0.0
 11
188.06571566179
 21
14.95849128473266
 31
0.0
 11
187.9592341675364
 21
14.95849128473266
 31
0.0
 11
187.8615045769201
 21
14.95849128473266
 31
0.0
 11
187.7900306972156
 21
14.95849128473266
 31
0.0
 11
187.7623163356975
 21
14.95849128473266
 31
0.0
 11
187.7623163356975
 21
14.98524451823291
 31
0.0
 11
187.7623163356975
 21
15.04410163193347
 31
0.0
 11
187.7623163356975
 21
15.10295874563402
 31
0.0
 11
187.7623163356975
 21
15.12971197913427
 31
0.0
 11
187.7958758072874
 21
15.12971197913427
 31
0.0
 11
187.8869658016031
 21
15.12971197913427
 31
0.0
 11
188.021203687963
 21
15.12971197913427
 31
0.0
 11
188.1842068356856
 21
15.12971197913427
 31
0.0
 11
188.3615926140897
 21
15.12971197913427
 31
0.0
 11
188.5389783924938
 21
15.12971197913427
 31
0.0
 11
188.7019815402165
 21
15.12971197913427
 31
0.0
 11
188.8362194265763
 21
15.12971197913427
 31
0.0
 11
188.9273094208919
 21
15.12971197913427
 31
0.0
 11
188.9608688924819
 21
15.12971197913427
 31
0.0
 11
188.9608688924819
 21
15.10295874563402
 31
0.0
 11
188.9608688924819
 21
15.04410163193346
 31
0.0
 11
188.9608688924819
 21
14.98524451823291
 31
0.0
 11
188.9608688924819
 21
14.95849128473266
 31
0.0
 11
188.9321192527878
 21
14.95849128473266
 31
0.0
 11
188.8579754451555
 21
14.95849128473266
 31
0.0
 11
188.7565951367605
 21
14.95849128473266
 31
0.0
 11
188.6461359947778
 21
14.95849128473266
 31
0.0
 11
188.5447556863828
 21
14.95849128473266
 31
0.0
 11
188.4706118787505
 21
14.95849128473266
 31
0.0
 11
188.4418622390564
 21
14.95849128473266
 31
0.0
  0
SPLINE
  5
AD
102
{ACAD_REACTORS
330
CA
102
}
330
48
100
AcDbEntity
  8
_U_30EC_U_30A4_U_30E4_U_30FC_1
  6
Continuous
 62
     2
100
AcDbSpline
210
0.0
220
0.0
230
1.0
 70
    11
 71
     3
 72
    91
 73
    87
 74
    85
 42
0.000000001
 43
0.0000000001
 44
0.00000001
 40
0.0
 40
0.0
 40
0.0
 40
0.0
 40
0.0345987051695718
 40
0.1258134969461369
 40
0.2547723404888987
 40
0.4026032099154125
 40
0.5504340793416704
 40
0.679392922883608
 40
0.7706077146571035
 40
0.8052064287780925
 40
1.124852390615274
 40
1.427402236308863
 40
1.706356627453506
 40
1.955541417875188
 40
2.169485938566323
 40
2.344350786664764
 40
2.480568411561912
 40
2.590440557428908
 40
2.649189927151109
 40
2.749320643306319
 40
2.912632739880022
 40
3.147745656000227
 40
3.244827496385123
 40
3.338490056946712
 40
3.583815413207139
 40
3.761423943238499
 40
3.886956104362661
 40
3.985855451886823
 40
4.091766255337707
 40
4.2501864738119
 40
4.422734315084544
 40
4.628285684838637
 40
4.872093227758466
 40
5.152549652145575
 40
5.464967135837555
 40
5.80320147785247
 40
6.160362988813943
 40
6.193449448275998
 40
6.284170385501652
 40
6.419718138764494
 40
6.587285046385744
 40
6.774063446723658
 40
6.967245678113613
 40
7.154024078817627
 40
7.321590987025984
 40
7.457138740890314
 40
7.54785967855605
 40
7.58094613818261
 40
7.608533084714662
 40
7.669224367077637
 40
7.729915649429855
 40
7.757502595949906
 40
7.790278062553388
 40
7.880146277430858
 40
8.014419963180291
 40
8.180411842397792
 40
8.365434637679261
 40
8.556801071622534
 40
8.741823866830618
 40
8.907815745916185
 40
9.042089431507282
 40
9.131957646249408
 40
9.164733112796984
 40
9.41542506313992
 40
9.667986180958382
 40
9.694169807462549
 40
9.756607686047507
 40
9.831130315322314
 40
9.893568193899778
 40
9.919751820398595
 40
9.950967964690426
 40
9.996421631210538
 40
10.22087981037442
 40
10.44341866197531
 40
10.47847970788844
 40
10.57091337438744
 40
10.70159545461219
 40
10.85140174170349
 40
11.00120802880467
 40
11.13189010907372
 40
11.22432377583
 40
11.25938480938946
 40
11.28697175596134
 40
11.34766303835908
 40
11.40835432042059
 40
11.43594125892093
 40
11.43594125892093
 40
11.43594125892093
 40
11.43594125892093
 10
190.0818114333289
 20
15.55242795125079
 30
0.0
 10
190.0702785844941
 20
15.55242790287917
 30
0.0
 10
190.0283409444998
 20
15.55242773704166
 30
0.0
 10
189.9434129719026
 20
15.55243125800911
 30
0.0
 10
189.8207688553128
 20
15.5524092643588
 30
0.0
 10
189.6791206916993
 20
15.55250801177056
 30
0.0
 10
189.537975369849
 20
15.55214686232423
 30
0.0
 10
189.4141351317904
 20
15.55321883609091
 30
0.0
 10
189.3317217825382
 20
15.5509224909127
 30
0.0
 10
189.1727791229691
 20
15.56048569373422
 30
0.0
 10
189.3503402353376
 20
15.19785394311373
 30
0.0
 10
189.3379739205452
 20
14.95243127723116
 30
0.0
 10
189.4064519473864
 20
14.66862501324838
 30
0.0
 10
189.469302432097
 20
14.43250999939039
 30
0.0
 10
189.5452253431728
 20
14.23326740396133
 30
0.0
 10
189.6303189577015
 20
14.07745347451375
 30
0.0
 10
189.7244607592935
 20
13.97657857781396
 30
0.0
 10
189.8282648207727
 20
13.92465852638969
 30
0.0
 10
189.9125872030773
 20
13.97606484379617
 30
0.0
 10
189.9351322179452
 20
14.0914454403752
 30
0.0
 10
189.9745730975371
 20
14.21885149702382
 30
0.0
 10
189.9202919734942
 20
14.53622328086759
 30
0.0
 10
190.0451218072473
 20
14.38982180140908
 30
0.0
 10
190.2019291513603
 20
14.35795300331175
 30
0.0
 10
190.0947720007056
 20
14.12421357767631
 30
0.0
 10
190.0808711209867
 20
13.9597277658366
 30
0.0
 10
190.0234709467225
 20
13.83130869122486
 30
0.0
 10
189.9335020145009
 20
13.7601880235283
 30
0.0
 10
189.8095274657877
 20
13.74432324142257
 30
0.0
 10
189.663427319686
 20
13.77993797554175
 30
0.0
 10
189.5243894320283
 20
13.9000057050028
 30
0.0
 10
189.4102003962144
 20
14.07435682550323
 30
0.0
 10
189.3146141301485
 20
14.29946603111243
 30
0.0
 10
189.2318652572627
 20
14.56388246006445
 30
0.0
 10
189.1807179256411
 20
14.88187933098546
 30
0.0
 10
189.0770189207336
 20
15.15543728488913
 30
0.0
 10
189.2042841208524
 20
15.56005818612871
 30
0.0
 10
189.0357890623018
 20
15.5511236784968
 30
0.0
 10
188.9511995787078
 20
15.55315961418365
 30
0.0
 10
188.8189876387628
 20
15.55213937388408
 30
0.0
 10
188.6560505094104
 20
15.55253230318431
 30
0.0
 10
188.4733759170533
 20
15.55235696313371
 30
0.0
 10
188.2847057373383
 20
15.5526010530747
 30
0.0
 10
188.1014469020189
 20
15.55185657906238
 30
0.0
 10
187.9404746832719
 20
15.55416360522428
 30
0.0
 10
187.8029808335276
 20
15.54799804883664
 30
0.0
 10
187.7289590372312
 20
15.56032838458212
 30
0.0
 10
187.6613215186857
 20
15.54329323723558
 30
0.0
 10
187.673237371927
 20
15.59524438447529
 30
0.0
 10
187.6655677285694
 20
15.6407142496653
 30
0.0
 10
187.6732592225117
 20
15.68614453703706
 30
0.0
 10
187.6613141797762
 20
15.73802395984572
 30
0.0
 10
187.7283588305868
 20
15.72119143490265
 30
0.0
 10
187.8017375665677
 20
15.73335409092672
 30
0.0
 10
187.9379128305273
 20
15.72727231074959
 30
0.0
 10
188.0973811801513
 20
15.72954834315059
 30
0.0
 10
188.2789173085837
 20
15.72881233998963
 30
0.0
 10
188.4658034862179
 20
15.72905954196135
 30
0.0
 10
188.6468012316836
 20
15.72886400799255
 30
0.0
 10
188.8080802578879
 20
15.7293223471484
 30
0.0
 10
188.9393882124887
 20
15.72812673751207
 30
0.0
 10
189.0225051322597
 20
15.73051347319744
 30
0.0
 10
189.1556236547813
 20
15.72230605725465
 30
0.0
 10
189.0645893502657
 20
15.97752868952657
 30
0.0
 10
188.978963307442
 20
16.24164358328248
 30
0.0
 10
189.0990589003455
 20
16.22904442969167
 30
0.0
 10
189.1514264948544
 20
16.22694235763078
 30
0.0
 10
189.2214497569715
 20
16.22535399889658
 30
0.0
 10
189.2671922337817
 20
16.21602567538115
 30
0.0
 10
189.3220812646933
 20
16.22545966915428
 30
0.0
 10
189.2963574785681
 20
16.17733028655175
 30
0.0
 10
189.1825397571452
 20
16.18266829744168
 30
0.0
 10
189.3159346621137
 20
15.95449174576779
 30
0.0
 10
189.194365873547
 20
15.72156856595923
 30
0.0
 10
189.3223188769413
 20
15.7308725888444
 30
0.0
 10
189.4049048406461
 20
15.72801001754681
 30
0.0
 10
189.5307214850824
 20
15.72923437412303
 30
0.0
 10
189.6741469838058
 20
15.72932431888965
 30
0.0
 10
189.8157420951728
 20
15.72746163183854
 30
0.0
 10
189.9459127249968
 20
15.73333075937163
 30
0.0
 10
190.019345228619
 20
15.72070340823204
 30
0.0
 10
190.0891112922096
 20
15.73877563110413
 30
0.0
 10
190.0775772605396
 20
15.68612850546327
 30
0.0
 10
190.0833184346682
 20
15.64221317686549
 30
0.0
 10
190.0816615770911
 20
15.59089982676551
 30
0.0
 10
190.0817757561669
 20
15.56158792021636
 30
0.0
 10
190.0818114333289
 20
15.55242795125079
 30
0.0
 11
190.0818114333289
 21
15.55242795125079
 31
0.0
 11
190.0472127192051
 21
15.55242795125079
 31
0.0
 11
189.9559979274241
 21
15.55242795125079
 31
0.0
 11
189.8270390838717
 21
15.55242795125079
 31
0.0
 11
189.6792082144335
 21
15.55242795125079
 31
0.0
 11
189.5313773449954
 21
15.55242795125079
 31
0.0
 11
189.402418501443
 21
15.55242795125079
 31
0.0
 11
189.311203709662
 21
15.55242795125079
 31
0.0
 11
189.2766049955382
 21
15.55242795125079
 31
0.0
 11
189.3083140497693
 21
15.23435864930123
 31
0.0
 11
189.3527866656865
 21
14.93509522788083
 31
0.0
 11
189.4092389118319
 21
14.66191269512579
 31
0.0
 11
189.4768868567478
 21
14.4220860591723
 31
0.0
 11
189.5549465689761
 21
14.22289032815657
 31
0.0
 11
189.6426341170591
 21
14.0716005102148
 31
0.0
 11
189.7391655695388
 21
13.9754916134832
 31
0.0
 11
189.8437569949574
 21
13.94183864609795
 31
0.0
 11
189.8943077302785
 21
13.97177376978838
 31
0.0
 11
189.9310588991551
 21
14.0649161981505
 31
0.0
 11
189.9562640977528
 21
14.22627151712057
 31
0.0
 11
189.9721769222368
 21
14.46084531263485
 31
0.0
 11
190.0494082682583
 21
14.4020218230662
 31
0.0
 11
190.1327184184385
 21
14.35921885432693
 31
0.0
 11
190.1066365811217
 21
14.11528388661013
 31
0.0
 11
190.0673317805105
 21
13.94207902887565
 31
0.0
 11
190.0105702596765
 21
13.8301127244592
 31
0.0
 11
189.932118261691
 21
13.76989341669649
 31
0.0
 11
189.8277420296256
 21
13.7519295489232
 31
0.0
 11
189.6738595065097
 21
13.78957440012364
 31
0.0
 11
189.5388902376747
 21
13.89707348877406
 31
0.0
 11
189.4221739916163
 21
14.06627361744811
 31
0.0
 11
189.32305053683
 21
14.28902158871946
 31
0.0
 11
189.2408596418113
 21
14.55716420516174
 31
0.0
 11
189.1749410750559
 21
14.86254826934863
 31
0.0
 11
189.1246346050593
 21
15.19702058385376
 31
0.0
 11
189.0892800003171
 21
15.55242795125079
 31
0.0
 11
189.0561935405844
 21
15.55242795125079
 31
0.0
 11
188.9654726026075
 21
15.55242795125079
 31
0.0
 11
188.8299248482185
 21
15.55242795125079
 31
0.0
 11
188.6623579392495
 21
15.55242795125079
 31
0.0
 11
188.4755795375324
 21
15.55242795125079
 31
0.0
 11
188.2823973048993
 21
15.55242795125079
 31
0.0
 11
188.0956189031822
 21
15.55242795125079
 31
0.0
 11
187.9280519942131
 21
15.55242795125079
 31
0.0
 11
187.7925042398242
 21
15.55242795125079
 31
0.0
 11
187.7017833018473
 21
15.55242795125079
 31
0.0
 11
187.6686968421146
 21
15.55242795125079
 31
0.0
 11
187.6686968421146
 21
15.58001489785848
 31
0.0
 11
187.6686968421146
 21
15.64070618039539
 31
0.0
 11
187.6686968421146
 21
15.7013974629323
 31
0.0
 11
187.6686968421146
 21
15.72898440953999
 31
0.0
 11
187.7014723087632
 21
15.72898440953999
 31
0.0
 11
187.7913405237674
 21
15.72898440953999
 31
0.0
 11
187.9256142097149
 21
15.72898440953999
 31
0.0
 11
188.0916060891932
 21
15.72898440953999
 31
0.0
 11
188.2766288847902
 21
15.72898440953999
 31
0.0
 11
188.4679953190932
 21
15.72898440953999
 31
0.0
 11
188.6530181146902
 21
15.72898440953999
 31
0.0
 11
188.8190099941685
 21
15.72898440953999
 31
0.0
 11
188.953283680116
 21
15.72898440953999
 31
0.0
 11
189.0431518951202
 21
15.72898440953999
 31
0.0
 11
189.0759273617688
 21
15.72898440953999
 31
0.0
 11
189.0659183950102
 21
15.97947647544961
 31
0.0
 11
189.0599112510663
 21
16.23196614552533
 31
0.0
 11
189.0860575870659
 21
16.23056921608124
 31
0.0
 11
189.1484065421419
 21
16.22723807663763
 31
0.0
 11
189.2228230369099
 21
16.22326220052751
 31
0.0
 11
189.2851719919859
 21
16.2199310610839
 31
0.0
 11
189.3113183279855
 21
16.21853413163981
 31
0.0
 11
189.298293111304
 21
16.19016528616082
 31
0.0
 11
189.2551649266405
 21
16.17581274276166
 31
0.0
 11
189.2574991961821
 21
15.9513667011511
 31
0.0
 11
189.2658452735903
 21
15.72898440953999
 31
0.0
 11
189.3009063195165
 21
15.72898440953999
 31
0.0
 11
189.3933399860495
 21
15.72898440953999
 31
0.0
 11
189.5240220663201
 21
15.72898440953999
 31
0.0
 11
189.6738283534596
 21
15.72898440953999
 31
0.0
 11
189.8236346405991
 21
15.72898440953999
 31
0.0
 11
189.9543167208697
 21
15.72898440953999
 31
0.0
 11
190.0467503874027
 21
15.72898440953999
 31
0.0
 11
190.0818114333289
 21
15.72898440953999
 31
0.0
 11
190.0818114333289
 21
15.7013974629323
 31
0.0
 11
190.0818114333289
 21
15.64070618039539
 31
0.0
 11
190.0818114333289
 21
15.58001489785848
 31
0.0
 11
190.0818114333289
 21
15.55242795125079
 31
0.0
  0
SPLINE
  5
AE
102
{ACAD_REACTORS
330
CB
102
}
330
48
100
AcDbEntity
  8
_U_30EC_U_30A4_U_30E4_U_30FC_1
  6
Continuous
 62
     2
100
AcDbSpline
210
0.0
220
0.0
230
1.0
 70
    11
 71
     3
 72
   118
 73
   114
 74
   112
 42
0.000000001
 43
0.0000000001
 44
0.00000001
 40
0.0
 40
0.0
 40
0.0
 40
0.0
 40
0.1054708162973424
 40
0.246609827005191
 40
0.3965912874591219
 40
0.5285525069753946
 40
0.6156245055642113
 40
0.643143410579744
 40
0.7036850037986327
 40
0.7642265984504922
 40
0.7917455052355423
 40
0.9287404319990302
 40
1.106572819088054
 40
1.287544879681056
 40
1.317578308030575
 40
1.399928030857211
 40
1.522968204799986
 40
1.675072986590607
 40
1.844616533180682
 40
2.019973001638748
 40
2.189516548880061
 40
2.341621331585399
 40
2.464661506320535
 40
2.547011229647097
 40
2.577044658168063
 40
2.603797890893134
 40
2.662655002908906
 40
2.721512114949746
 40
2.748265347702926
 40
2.774215307345001
 40
2.845959313407333
 40
2.954338556588532
 40
3.090194227585711
 40
3.244367517100674
 40
3.407699615844432
 40
3.571031714539581
 40
3.725205003920257
 40
3.861060674729758
 40
3.96943991771645
 40
4.041183923629125
 40
4.067133883213117
 40
4.311886746012287
 40
4.547897258335632
 40
4.764747083044073
 40
4.95274967995188
 40
5.045772974196005
 40
5.13786201964509
 40
5.330543169793145
 40
5.553448265244138
 40
5.795083855888295
 40
6.043293412177354
 40
6.285761695541297
 40
6.313902908752781
 40
6.384255941793371
 40
6.475714884766959
 40
6.567173827759022
 40
6.6375268608398
 40
6.665668074074163
 40
6.692018920328137
 40
6.749990782071207
 40
6.807962643790574
 40
6.834313490018048
 40
6.856393084245298
 40
6.91333519564995
 40
6.991194817302586
 40
7.07602694228379
 40
7.153886563725309
 40
7.210828674844834
 40
7.23290826893117
 40
7.258199334923691
 40
7.324875781592341
 40
7.419142481925001
 40
7.527204308841942
 40
7.635266135230524
 40
7.72953283416851
 40
7.796209279292833
 40
7.821500344594779
 40
7.844652988850878
 40
7.899863140541685
 40
7.965759128053851
 40
8.020969279771192
 40
8.044121924046658
 40
8.069356610160751
 40
8.109134395441522
 40
8.132238100191238
 40
8.1931478677866
 40
8.279261678876775
 40
8.37797751267399
 40
8.476693347146774
 40
8.56280716041183
 40
8.623716930826616
 40
8.64682063685357
 40
8.671988793774384
 40
8.734909185828295
 40
8.81670569518901
 40
8.89850220481558
 40
8.961422597378041
 40
8.986590754551154
 40
9.012941600733308
 40
9.070913462380394
 40
9.128885324081887
 40
9.155236170325209
 40
9.180404327929251
 40
9.243324721948325
 40
9.325121234212117
 40
9.406917746637772
 40
9.469838141978228
 40
9.495006288271002
 40
9.517811184379145
 40
9.572192090487144
 40
9.637098333281372
 40
9.691479239515573
 40
9.714284125643612
 40
9.714284125643612
 40
9.714284125643612
 40
9.714284125643612
 10
185.2874469028653
 20
15.26889163187721
 30
0.0
 10
185.3090990569037
 20
15.24111869242813
 30
0.0
 10
185.3597257109474
 20
15.17618054561237
 30
0.0
 10
185.4349383202591
 20
15.068910603129
 30
0.0
 10
185.5248482274346
 20
14.95377438266627
 30
0.0
 10
185.5709169676674
 20
14.85357045748322
 30
0.0
 10
185.6655825294655
 20
14.78434006814945
 30
0.0
 10
185.6204439320413
 20
14.73771639678276
 30
0.0
 10
185.5947047785789
 20
14.69660308866042
 30
0.0
 10
185.5645196708011
 20
14.66065971727941
 30
0.0
 10
185.519368473056
 20
14.58579782596096
 30
0.0
 10
185.4710504458562
 20
14.80782524253605
 30
0.0
 10
185.3968539713073
 20
14.84510677337715
 30
0.0
 10
185.2836047324606
 20
15.11610202130603
 30
0.0
 10
185.2885133578169
 20
15.00095328446231
 30
0.0
 10
185.2868486556306
 20
14.92836675781631
 30
0.0
 10
185.2876830076713
 20
14.80625588483989
 30
0.0
 10
185.2873609540265
 20
14.65913800810463
 30
0.0
 10
185.2875076912456
 20
14.4930706395656
 30
0.0
 10
185.2872950092722
 20
14.32187554608605
 30
0.0
 10
185.2879497252034
 20
14.15552828635501
 30
0.0
 10
185.2859192461138
 20
14.00935173055696
 30
0.0
 10
185.2913460399931
 20
13.88471047474614
 30
0.0
 10
185.2804930868707
 20
13.81718656540629
 30
0.0
 10
185.2956739155555
 20
13.75549061417025
 30
0.0
 10
185.2457895108134
 20
13.76727503897005
 30
0.0
 10
185.2017150342522
 20
13.75943822779972
 30
0.0
 10
185.1582371630199
 20
13.76760441372706
 30
0.0
 10
185.1092346786488
 20
13.75538056738471
 30
0.0
 10
185.1218731234823
 20
13.80960667249316
 30
0.0
 10
185.1130182968448
 20
13.86936918907561
 30
0.0
 10
185.1175058770312
 20
13.97922029044373
 30
0.0
 10
185.115796013599
 20
14.11029975405681
 30
0.0
 10
185.1163550915985
 20
14.26198011444331
 30
0.0
 10
185.1161928768693
 20
14.42211074929956
 30
0.0
 10
185.1162269924673
 20
14.58236865674569
 30
0.0
 10
185.1162514960126
 20
14.73370247520442
 30
0.0
 10
185.1161453543224
 20
14.86582156338604
 30
0.0
 10
185.116429914193
 20
14.97294802533196
 30
0.0
 10
185.1158675547567
 20
15.03808619579477
 30
0.0
 10
185.1180765083687
 20
15.16618957858677
 30
0.0
 10
185.0319435998602
 20
14.79097610391579
 30
0.0
 10
184.95551408185
 20
14.63918193123397
 30
0.0
 10
184.8660040767833
 20
14.47766206446309
 30
0.0
 10
184.7640413217327
 20
14.20471848820174
 30
0.0
 10
184.7187976491039
 20
14.36717346596512
 30
0.0
 10
184.610235594167
 20
14.45605432058123
 30
0.0
 10
184.7995791751752
 20
14.60549794961412
 30
0.0
 10
184.85653405457
 20
14.79749136974928
 30
0.0
 10
184.9717520993352
 20
15.02899622906759
 30
0.0
 10
184.9940151630132
 20
15.21797259759066
 30
0.0
 10
185.177190515214
 20
15.49454089325932
 30
0.0
 10
185.0538033597552
 20
15.48698978832096
 30
0.0
 10
184.9925684166834
 20
15.48856772366121
 30
0.0
 10
184.9081999617064
 20
15.48882592573674
 30
0.0
 10
184.8204235085966
 20
15.48544845751208
 30
0.0
 10
184.7656768696122
 20
15.49394814982021
 30
0.0
 10
184.7104703026025
 20
15.4804856104979
 30
0.0
 10
184.7222823035536
 20
15.52931442126765
 30
0.0
 10
184.7142496151794
 20
15.57269004896711
 30
0.0
 10
184.7228186104678
 20
15.61509438309575
 30
0.0
 10
184.7102943409156
 20
15.66267796552119
 30
0.0
 10
184.7555101538735
 20
15.65267212995111
 30
0.0
 10
184.8014815562723
 20
15.65894105174062
 30
0.0
 10
184.877722204771
 20
15.65593561405874
 30
0.0
 10
184.9561296131993
 20
15.65770448278543
 30
0.0
 10
185.0323992648932
 20
15.65464793981662
 30
0.0
 10
185.0783009459473
 20
15.66103971376178
 30
0.0
 10
185.1231733965399
 20
15.65093822978898
 30
0.0
 10
185.1105552275633
 20
15.701572015819
 30
0.0
 10
185.1191936582705
 20
15.75501261882071
 30
0.0
 10
185.1152361595442
 20
15.84863255131682
 30
0.0
 10
185.1162325068333
 20
15.95112606688926
 30
0.0
 10
185.1171927413072
 20
16.05353270248166
 30
0.0
 10
185.1133211458004
 20
16.14735929609324
 30
0.0
 10
185.1217789814363
 20
16.20036542840356
 30
0.0
 10
185.1093075932834
 20
16.25211435651191
 30
0.0
 10
185.1542106389849
 20
16.2385074722676
 30
0.0
 10
185.1955083836771
 20
16.24100480320589
 30
0.0
 10
185.259534428105
 20
16.2364806057449
 30
0.0
 10
185.2986111148786
 20
16.22781003043312
 30
0.0
 10
185.3476543498742
 20
16.23515102070689
 30
0.0
 10
185.3225080030591
 20
16.19602896051762
 30
0.0
 10
185.2815901333723
 20
16.2056384245581
 30
0.0
 10
185.2910109616604
 20
16.15540148169781
 30
0.0
 10
185.2855647318746
 20
16.10385945639492
 30
0.0
 10
185.2881699601804
 20
16.01959707584524
 30
0.0
 10
185.2870102202153
 20
15.9255913558341
 30
0.0
 10
185.2883591064231
 20
15.83196865395528
 30
0.0
 10
185.2849970101509
 20
15.74679517552225
 30
0.0
 10
185.2920959917769
 20
15.69716856072046
 30
0.0
 10
185.2812569154545
 20
15.6499369496999
 30
0.0
 10
185.3304010225245
 20
15.66201674936854
 30
0.0
 10
185.3794877630147
 20
15.65447393363013
 30
0.0
 10
185.4573714280641
 20
15.65686070361435
 30
0.0
 10
185.5350365172896
 20
15.65899381905417
 30
0.0
 10
185.5845393931355
 20
15.65193391922456
 30
0.0
 10
185.6344594750639
 20
15.66360151936216
 30
0.0
 10
185.6223198516881
 20
15.61540235371395
 30
0.0
 10
185.6305838229144
 20
15.57249219801237
 30
0.0
 10
185.6223198650783
 20
15.52958201851387
 30
0.0
 10
185.6344594549854
 20
15.48138288754866
 30
0.0
 10
185.5845395158746
 20
15.49305034471513
 30
0.0
 10
185.5350350651203
 20
15.48599202435047
 30
0.0
 10
185.4573784382973
 20
15.48811665228606
 30
0.0
 10
185.379464386576
 20
15.49053389365762
 30
0.0
 10
185.3304500352716
 20
15.48291848194487
 30
0.0
 10
185.2813246108943
 20
15.49507952557594
 30
0.0
 10
185.2915559988571
 20
15.4507301342416
 30
0.0
 10
185.2856677678053
 20
15.40925436202913
 30
0.0
 10
185.2878788305569
 20
15.34915394315305
 30
0.0
 10
185.2874109346146
 20
15.30225782762891
 30
0.0
 10
185.2874386992913
 20
15.27650146418198
 30
0.0
 10
185.2874469028653
 20
15.26889163187721
 30
0.0
 11
185.2874469028653
 21
15.26889163187721
 31
0.0
 11
185.3516977534484
 21
15.18524999634258
 31
0.0
 11
185.4348258835499
 21
15.07118889748222
 31
0.0
 11
185.5216831568896
 21
14.94891767195725
 31
0.0
 11
185.5971214371872
 21
14.84064565642878
 31
0.0
 11
185.6459925881626
 21
14.76858218755793
 31
0.0
 11
185.6296821285093
 21
14.74641782124402
 31
0.0
 11
185.5937991172719
 21
14.69765621535342
 31
0.0
 11
185.5579161060346
 21
14.64889460946282
 31
0.0
 11
185.5416056463812
 21
14.62673024314891
 31
0.0
 11
185.4763067109445
 21
14.74716139023816
 31
0.0
 11
185.3848434243234
 21
14.8996698367021
 31
0.0
 11
185.2874469028653
 21
15.05219788193145
 31
0.0
 11
185.2874469028653
 21
15.02216445328256
 31
0.0
 11
185.2874469028653
 21
14.93981472956786
 31
0.0
 11
185.2874469028653
 21
14.81677455413531
 31
0.0
 11
185.2874469028653
 21
14.66466977033286
 31
0.0
 11
185.2874469028653
 21
14.49512622150848
 31
0.0
 11
185.2874469028653
 21
14.31976975101012
 31
0.0
 11
185.2874469028653
 21
14.15022620218574
 31
0.0
 11
185.2874469028653
 21
13.99812141838329
 31
0.0
 11
185.2874469028653
 21
13.87508124295074
 31
0.0
 11
185.2874469028653
 21
13.79273151923604
 31
0.0
 11
185.2874469028653
 21
13.76269809058715
 31
0.0
 11
185.2606936700409
 21
13.76269809058715
 31
0.0
 11
185.2018365578271
 21
13.76269809058715
 31
0.0
 11
185.1429794456133
 21
13.76269809058715
 31
0.0
 11
185.1162262127889
 21
13.76269809058715
 31
0.0
 11
185.1162262127889
 21
13.78864805031253
 31
0.0
 11
185.1162262127889
 21
13.86039205661211
 31
0.0
 11
185.1162262127889
 21
13.96877130017105
 31
0.0
 11
185.1162262127889
 21
14.1046269716745
 31
0.0
 11
185.1162262127889
 21
14.25880026180764
 31
0.0
 11
185.1162262127889
 21
14.42213236125562
 31
0.0
 11
185.1162262127889
 21
14.58546446070359
 31
0.0
 11
185.1162262127889
 21
14.73963775083673
 31
0.0
 11
185.1162262127889
 21
14.87549342234018
 31
0.0
 11
185.1162262127889
 21
14.98387266589912
 31
0.0
 11
185.1162262127889
 21
15.0556166721987
 31
0.0
 11
185.1162262127889
 21
15.08156663192408
 31
0.0
 11
185.0379865861721
 21
14.84965603302375
 31
0.0
 11
184.9497110789303
 21
14.63077616328681
 31
0.0
 11
184.8544106930045
 21
14.43598991333549
 31
0.0
 11
184.7550964303356
 21
14.27636017379204
 31
0.0
 11
184.7109198342406
 21
14.35822446196601
 31
0.0
 11
184.658805738348
 21
14.43414885430813
 31
0.0
 11
184.7627302590299
 21
14.5964008792676
 31
0.0
 11
184.8629319864735
 21
14.79551465421783
 31
0.0
 11
184.9550446607901
 21
15.01890447916199
 31
0.0
 11
185.0347020220912
 21
15.25398465410322
 31
0.0
 11
185.097537810488
 21
15.48816947904467
 31
0.0
 11
185.0693965972142
 21
15.48816947904467
 31
0.0
 11
184.9990435640297
 21
15.48816947904467
 31
0.0
 11
184.9075846208898
 21
15.48816947904467
 31
0.0
 11
184.8161256777499
 21
15.48816947904467
 31
0.0
 11
184.7457726445654
 21
15.48816947904467
 31
0.0
 11
184.7176314312916
 21
15.48816947904467
 31
0.0
 11
184.7176314312916
 21
15.51452032539224
 31
0.0
 11
184.7176314312916
 21
15.57249218735691
 31
0.0
 11
184.7176314312916
 21
15.63046404932157
 31
0.0
 11
184.7176314312916
 21
15.65681489566914
 31
0.0
 11
184.7397110256019
 21
15.65681489566914
 31
0.0
 11
184.7966531372444
 21
15.65681489566914
 31
0.0
 11
184.8745127592862
 21
15.65681489566914
 31
0.0
 11
184.9593448847943
 21
15.65681489566914
 31
0.0
 11
185.0372045068361
 21
15.65681489566914
 31
0.0
 11
185.0941466184785
 21
15.65681489566914
 31
0.0
 11
185.1162262127889
 21
15.65681489566914
 31
0.0
 11
185.1162262127889
 21
15.68210596174355
 31
0.0
 11
185.1162262127889
 21
15.74878240866699
 31
0.0
 11
185.1162262127889
 21
15.84304910948979
 31
0.0
 11
185.1162262127889
 21
15.95111093726226
 31
0.0
 11
185.1162262127889
 21
16.05917276503474
 31
0.0
 11
185.1162262127889
 21
16.15343946585754
 31
0.0
 11
185.1162262127889
 21
16.22011591278098
 31
0.0
 11
185.1162262127889
 21
16.24540697885539
 31
0.0
 11
185.1393181988664
 21
16.24373213107803
 31
0.0
 11
185.1943837041284
 21
16.23973826330125
 31
0.0
 11
185.2601070491183
 21
16.23497138885799
 31
0.0
 11
185.3151725543802
 21
16.2309775210812
 31
0.0
 11
185.3382645404578
 21
16.22930267330384
 31
0.0
 11
185.3249012644362
 21
16.20789677921194
 31
0.0
 11
185.2874469028653
 21
16.19450114553472
 31
0.0
 11
185.2874469028653
 21
16.1713974394858
 31
0.0
 11
185.2874469028653
 21
16.11048766899322
 31
0.0
 11
185.2874469028653
 21
16.02437385553819
 31
0.0
 11
185.2874469028653
 21
15.92565802060193
 31
0.0
 11
185.2874469028653
 21
15.82694218566567
 31
0.0
 11
185.2874469028653
 21
15.74082837221064
 31
0.0
 11
185.2874469028653
 21
15.67991860171805
 31
0.0
 11
185.2874469028653
 21
15.65681489566914
 31
0.0
 11
185.3126150604809
 21
15.65681489566914
 31
0.0
 11
185.3755354545199
 21
15.65681489566914
 31
0.0
 11
185.4573319667706
 21
15.65681489566914
 31
0.0
 11
185.5391284790212
 21
15.65681489566914
 31
0.0
 11
185.6020488730602
 21
15.65681489566914
 31
0.0
 11
185.6272170306758
 21
15.65681489566914
 31
0.0
 11
185.6272170306758
 21
15.63046404932157
 31
0.0
 11
185.6272170306758
 21
15.5724921873569
 31
0.0
 11
185.6272170306758
 21
15.51452032539224
 31
0.0
 11
185.6272170306758
 21
15.48816947904467
 31
0.0
 11
185.6020488730602
 21
15.48816947904467
 31
0.0
 11
185.5391284790212
 21
15.48816947904467
 31
0.0
 11
185.4573319667705
 21
15.48816947904467
 31
0.0
 11
185.3755354545199
 21
15.48816947904467
 31
0.0
 11
185.3126150604809
 21
15.48816947904467
 31
0.0
 11
185.2874469028653
 21
15.48816947904467
 31
0.0
 11
185.2874469028653
 21
15.46536458293925
 31
0.0
 11
185.2874469028653
 21
15.41098367684172
 31
0.0
 11
185.2874469028653
 21
15.34607743408016
 31
0.0
 11
185.2874469028653
 21
15.29169652798263
 31
0.0
 11
185.2874469028653
 21
15.26889163187721
 31
0.0
  0
SPLINE
  5
AF
102
{ACAD_REACTORS
330
CC
102
}
330
48
100
AcDbEntity
  8
_U_30EC_U_30A4_U_30E4_U_30FC_1
  6
Continuous
 62
     2
100
AcDbSpline
210
0.0
220
0.0
230
1.0
 70
    11
 71
     3
 72
    47
 73
    43
 74
    41
 42
0.000000001
 43
0.0000000001
 44
0.00000001
 40
0.0
 40
0.0
 40
0.0
 40
0.0
 40
0.2207912809957195
 40
0.4459404186302991
 40
0.4902387190459768
 40
0.5327473892723011
 40
0.574226045122633
 40
0.6155432630561622
 40
0.6568164066316541
 40
0.6982511618781458
 40
0.7407663929317977
 40
0.7851366743176037
 40
1.010288833836397
 40
1.231080507002247
 40
1.451765243652475
 40
1.676638205891761
 40
1.720461045359732
 40
1.830018144043595
 40
1.972442372353228
 40
2.114866600677596
 40
2.224423699395221
 40
2.268246538883462
 40
2.493628801207297
 40
2.715602830286692
 40
2.934211330706454
 40
3.149502369855454
 40
3.231387784851043
 40
3.318231873854135
 40
3.405143198198179
 40
3.486970301720644
 40
3.702258172494096
 40
3.920866283534332
 40
4.142839325932119
 40
4.368221903865584
 40
4.412044743360064
 40
4.521601842096078
 40
4.664026070452558
 40
4.806450298809268
 40
4.916007397546962
 40
4.959830237043284
 40
5.184703515847315
 40
5.405387250767692
 40
5.405387250767692
 40
5.405387250767692
 40
5.405387250767692
 10
182.6507427258645
 20
15.73406440953875
 30
0.0
 10
182.6568139420002
 20
15.79758482501214
 30
0.0
 10
182.6690762107242
 20
15.92587938689631
 30
0.0
 10
182.5604706879412
 20
16.20166220174079
 30
0.0
 10
182.6761985896603
 20
16.17188133432055
 30
0.0
 10
182.7171842509015
 20
16.16765556262822
 30
0.0
 10
182.7591205797518
 20
16.16310446389609
 30
0.0
 10
182.800419662571
 20
16.16201982929486
 30
0.0
 10
182.8417032115556
 20
16.1631033819523
 30
0.0
 10
182.8836148270647
 20
16.16766112711344
 30
0.0
 10
182.9245983549019
 20
16.1718743020973
 30
0.0
 10
183.0404922843488
 20
16.20177611317536
 30
0.0
 10
182.9295652727457
 20
15.92339806609892
 30
0.0
 10
182.9574856365265
 20
15.74283140824956
 30
0.0
 10
182.9404267346969
 20
15.50961042346474
 30
0.0
 10
182.94146372821
 20
15.34906622543149
 30
0.0
 10
182.9414099399404
 20
15.22284817558725
 30
0.0
 10
182.9414277372479
 20
15.12428963336244
 30
0.0
 10
182.9414188581079
 20
14.99280702442966
 30
0.0
 10
182.9414263928033
 20
14.86132844968652
 30
0.0
 10
182.9414129405127
 20
14.76276222694094
 30
0.0
 10
182.9414531717491
 20
14.63639735624155
 30
0.0
 10
182.9406746403816
 20
14.47482068822872
 30
0.0
 10
182.9565958319266
 20
14.24361821892917
 30
0.0
 10
182.9333468885408
 20
14.05874351972005
 30
0.0
 10
183.0360183444366
 20
13.78935602770058
 30
0.0
 10
182.8820238362836
 20
13.82660112685819
 30
0.0
 10
182.8004129802832
 20
13.82137994680536
 30
0.0
 10
182.7188192292582
 20
13.82660620378353
 30
0.0
 10
182.5648513666841
 20
13.78937069885387
 30
0.0
 10
182.6674183421917
 20
14.05875129862882
 30
0.0
 10
182.6442045316088
 20
14.24361585325418
 30
0.0
 10
182.6600444655138
 20
14.47482218565641
 30
0.0
 10
182.6593296313427
 20
14.63639712308506
 30
0.0
 10
182.6593664569907
 20
14.76276231210524
 30
0.0
 10
182.659354900027
 20
14.86132756635984
 30
0.0
 10
182.6593575019214
 20
14.99281127417223
 30
0.0
 10
182.6593648531779
 20
15.12427548031202
 30
0.0
 10
182.6593442541351
 20
15.22287786275329
 30
0.0
 10
182.6594082192028
 20
15.34896149354429
 30
0.0
 10
182.658173394759
 20
15.51210091383775
 30
0.0
 10
182.6532040396745
 20
15.66054183777552
 30
0.0
 10
182.6507427258645
 20
15.73406440953875
 30
0.0
 11
182.6507427258645
 21
15.73406440953875
 31
0.0
 11
182.6417328200379
 21
15.9546717879558
 31
0.0
 11
182.6318769706145
 21
16.17960510387181
 31
0.0
 11
182.6756985840801
 21
16.1731239146373
 31
0.0
 11
182.7178400934215
 21
16.16754892331926
 31
0.0
 11
182.759137140979
 21
16.16367167505633
 31
0.0
 11
182.8004341885365
 21
16.16238072887609
 31
0.0
 11
182.841687138873
 21
16.16367167505633
 31
0.0
 11
182.8829400892097
 21
16.16754892331926
 31
0.0
 11
182.9250882131343
 21
16.1731239146373
 31
0.0
 11
182.9689825870145
 21
16.17960510387181
 31
0.0
 11
182.9590577693891
 21
15.9546717879558
 31
0.0
 11
182.9500384208309
 21
15.73406440953875
 31
0.0
 11
182.9435638463434
 21
15.51347467001057
 31
0.0
 11
182.9414218238285
 21
15.2886119096501
 31
0.0
 11
182.9414218238285
 21
15.24478907015489
 31
0.0
 11
182.9414218238285
 21
15.13523197141685
 31
0.0
 11
182.9414218238285
 21
14.9928077430574
 31
0.0
 11
182.9414218238285
 21
14.85038351469795
 31
0.0
 11
182.9414218238285
 21
14.74082641595992
 31
0.0
 11
182.9414218238285
 21
14.6970035764647
 31
0.0
 11
182.9435638463434
 21
14.47163149318769
 31
0.0
 11
182.9500384208309
 21
14.24975190990983
 31
0.0
 11
182.9590577693891
 21
14.03132954885332
 31
0.0
 11
182.9689825870145
 21
13.81626739612929
 31
0.0
 11
182.8872616168771
 21
13.82145433189187
 31
0.0
 11
182.8004341885365
 21
13.82315538223864
 31
0.0
 11
182.7135395119338
 21
13.82145433189187
 31
0.0
 11
182.6318769706145
 21
13.81626739612929
 31
0.0
 11
182.6417328200379
 21
14.03132954885332
 31
0.0
 11
182.6507427258645
 21
14.24975190990983
 31
0.0
 11
182.6571833838798
 21
14.47163149318769
 31
0.0
 11
182.6593583588023
 21
14.6970035764647
 31
0.0
 11
182.6593583588023
 21
14.74082641595991
 31
0.0
 11
182.6593583588023
 21
14.85038351469795
 31
0.0
 11
182.6593583588023
 21
14.9928077430574
 31
0.0
 11
182.6593583588023
 21
15.13523197141685
 31
0.0
 11
182.6593583588023
 21
15.24478907015489
 31
0.0
 11
182.6593583588023
 21
15.2886119096501
 31
0.0
 11
182.6571833838798
 21
15.51347467001057
 31
0.0
 11
182.6507427258645
 21
15.73406440953875
 31
0.0
  0
SPLINE
  5
B0
102
{ACAD_REACTORS
330
CD
102
}
330
48
100
AcDbEntity
  8
_U_30EC_U_30A4_U_30E4_U_30FC_1
  6
Continuous
 62
     2
100
AcDbSpline
210
0.0
220
0.0
230
1.0
 70
    11
 71
     3
 72
   110
 73
   106
 74
   104
 42
0.000000001
 43
0.0000000001
 44
0.00000001
 40
0.0
 40
0.0
 40
0.0
 40
0.0
 40
0.2203406257277808
 40
0.4407808782838109
 40
0.5952494494614803
 40
0.7488431659393093
 40
0.9023581831309075
 40
1.056801968670406
 40
1.210736449099907
 40
1.363041386539785
 40
1.515315729683128
 40
1.669377239148079
 40
1.721611652756562
 40
1.773199502942939
 40
1.824933793209988
 40
1.877110426487981
 40
1.982682281206745
 40
2.078781667087639
 40
2.172809640822303
 40
2.271937807378928
 40
2.378349933379378
 40
2.49413155773651
 40
2.626681683943644
 40
2.783145050796072
 40
2.890701232940927
 40
2.993130312454833
 40
3.099869730691807
 40
3.220237816691294
 40
3.352695482737587
 40
3.481732806389834
 40
3.593499473690369
 40
3.674323013331879
 40
3.817951711952829
 40
3.946167120793826
 40
4.061405053453512
 40
4.166480796003152
 40
4.26247877505919
 40
4.350736673551146
 40
4.433071991254032
 40
4.511216293814635
 40
4.564262454117962
 40
4.618474415571588
 40
4.670128488754184
 40
4.722296879126381
 40
4.81954094531425
 40
4.931194984128107
 40
5.049996040257748
 40
5.168643755415379
 40
5.283970811762534
 40
5.392260784910331
 40
5.486512254876406
 40
5.559178233949805
 40
5.591425852853464
 40
5.626215969637857
 40
5.667155838674399
 40
5.71744929021421
 40
5.738402360944821
 40
5.784499116553789
 40
5.830595872164761
 40
5.851548942897617
 40
5.873019280661731
 40
5.924217778408272
 40
5.985325662817646
 40
6.036524160567659
 40
6.057994498334187
 40
6.236847789607445
 40
6.381409928945612
 40
6.493190424178645
 40
6.57406753423046
 40
6.691018086205554
 40
6.814881554220472
 40
6.944307823240368
 40
7.071266716066048
 40
7.193488604461893
 40
7.30904277312812
 40
7.414007203170746
 40
7.505140441886503
 40
7.531150360599644
 40
7.559221645322234
 40
7.587202218920895
 40
7.612569159499097
 40
7.662550809480977
 40
7.702878875764101
 40
7.857328205230916
 40
8.010799568088562
 40
8.16525639965754
 40
8.322232698713936
 40
8.479564855016566
 40
8.635216230290741
 40
8.790882550925659
 40
8.948305154947224
 40
9.168271839032919
 40
9.387358980987187
 40
9.608047961033433
 40
9.83291423479264
 40
9.858338694962976
 40
9.92536681722998
 40
10.02013071422757
 40
10.12876249858995
 40
10.23739428295246
 40
10.33215817995187
 40
10.39918630222391
 40
10.4246107623978
 40
10.64992019336939
 40
10.87188524531183
 40
10.87188524531183
 40
10.87188524531183
 40
10.87188524531183
 10
179.9057788376618
 20
15.73923260398192
 30
0.0
 10
179.9092864933541
 20
15.80616462073806
 30
0.0
 10
179.9163033987663
 20
15.94005891915861
 30
0.0
 10
179.8198027599072
 20
16.2254855497147
 30
0.0
 10
180.0510134726109
 20
16.16284386190286
 30
0.0
 10
180.1919290057155
 20
16.17001554055992
 30
0.0
 10
180.3490417757588
 20
16.16235883078247
 30
0.0
 10
180.5025913427287
 20
16.16252752283042
 30
0.0
 10
180.6545104935081
 20
16.16182040535435
 30
0.0
 10
180.8142214813231
 20
16.1721015835164
 30
0.0
 10
180.9408972601118
 20
16.15496511080753
 30
0.0
 10
181.1370821122081
 20
16.22727260107148
 30
0.0
 10
181.1034395279078
 20
16.1264069908012
 30
0.0
 10
181.1052011317183
 20
16.07619253947673
 30
0.0
 10
181.1027342073458
 20
16.02712335586468
 30
0.0
 10
181.1347076966011
 20
15.94063490847001
 30
0.0
 10
181.0010399903255
 20
15.9899743860834
 30
0.0
 10
180.9172208688056
 20
15.9843063431417
 30
0.0
 10
180.8173861139323
 20
15.99465516706301
 30
0.0
 10
180.7186576720145
 20
16.00086450411089
 30
0.0
 10
180.612153277111
 20
16.00697763816779
 30
0.0
 10
180.4910511698059
 20
16.01588883484588
 30
0.0
 10
180.3703381502454
 20
16.00521605912386
 30
0.0
 10
180.1812553843437
 20
16.06468503080369
 30
0.0
 10
180.2129028505311
 20
15.90558320077541
 30
0.0
 10
180.1995563316833
 20
15.80839128339907
 30
0.0
 10
180.1974958426449
 20
15.69634065110105
 30
0.0
 10
180.1958188044671
 20
15.57699685629354
 30
0.0
 10
180.1973336794233
 20
15.45032592155113
 30
0.0
 10
180.195658247867
 20
15.3230158801612
 30
0.0
 10
180.2058844271657
 20
15.22451566404466
 30
0.0
 10
180.1779006596583
 20
15.08388702625633
 30
0.0
 10
180.3508029999305
 20
15.13989551134097
 30
0.0
 10
180.4645020202772
 20
15.127199514785
 30
0.0
 10
180.5840151672239
 20
15.13448377051257
 30
0.0
 10
180.6888491425071
 20
15.13878017056758
 30
0.0
 10
180.7843084898612
 20
15.1433056825898
 30
0.0
 10
180.8763823507032
 20
15.15149201146201
 30
0.0
 10
180.9476551782439
 20
15.14643850638114
 30
0.0
 10
181.0544931705685
 20
15.18536425031677
 30
0.0
 10
181.0226603598035
 20
15.10517122005881
 30
0.0
 10
181.026616450393
 20
15.05562936846035
 30
0.0
 10
181.0234502392013
 20
15.00557478039821
 30
0.0
 10
181.0550791490585
 20
14.92128847612024
 30
0.0
 10
180.9210133677691
 20
14.9742536549516
 30
0.0
 10
180.8292322793199
 20
14.96540080890443
 30
0.0
 10
180.7079729189602
 20
14.97570049965157
 30
0.0
 10
180.5914113119771
 20
14.97748911767506
 30
0.0
 10
180.4783375745878
 20
14.97787017109695
 30
0.0
 10
180.3679246308471
 20
14.98415449472182
 30
0.0
 10
180.289812406784
 20
14.97189133255365
 30
0.0
 10
180.1913625833644
 20
15.00453887616128
 30
0.0
 10
180.2012355173561
 20
14.94769748054208
 30
0.0
 10
180.1973923244403
 20
14.91392130557986
 30
0.0
 10
180.1966789884268
 20
14.87119604709412
 30
0.0
 10
180.1963369642975
 20
14.83401607262155
 30
0.0
 10
180.1963834255346
 20
14.79487237370772
 30
0.0
 10
180.1963649429927
 20
14.75716849497687
 30
0.0
 10
180.1963703431806
 20
14.71944955232404
 30
0.0
 10
180.1963697214201
 20
14.68994324745152
 30
0.0
 10
180.1963698151545
 20
14.65873577699303
 30
0.0
 10
180.1963704287921
 20
14.61414424908087
 30
0.0
 10
180.1963671499336
 20
14.55963956508853
 30
0.0
 10
180.1963759623481
 20
14.51505540201451
 30
0.0
 10
180.1963359653416
 20
14.43117808585743
 30
0.0
 10
180.1976024270255
 20
14.31737520677681
 30
0.0
 10
180.1950274117841
 20
14.16830395933712
 30
0.0
 10
180.2065009381719
 20
14.06597203813908
 30
0.0
 10
180.1823506222264
 20
13.93338903885836
 30
0.0
 10
180.3332993946476
 20
13.97895732272023
 30
0.0
 10
180.4428436671556
 20
13.96427012162352
 30
0.0
 10
180.5733970473919
 20
13.96920435125065
 30
0.0
 10
180.6990312209514
 20
13.97257705323362
 30
0.0
 10
180.8188730625601
 20
13.97711497498776
 30
0.0
 10
180.9391362611426
 20
13.99048536182007
 30
0.0
 10
181.0222761663516
 20
13.98068712782596
 30
0.0
 10
181.1456080421073
 20
14.04126214623325
 30
0.0
 10
181.1244269203957
 20
13.98532460134022
 30
0.0
 10
181.1235950270118
 20
13.95939249372348
 30
0.0
 10
181.1218963707558
 20
13.93197256190942
 30
0.0
 10
181.1217974888832
 20
13.89738195206388
 30
0.0
 10
181.120365930133
 20
13.8605040822077
 30
0.0
 10
181.153280419219
 20
13.76846841021807
 30
0.0
 10
180.9551306988108
 20
13.84132015974834
 30
0.0
 10
180.8300548294891
 20
13.81825726508607
 30
0.0
 10
180.6673071295155
 20
13.82454021985787
 30
0.0
 10
180.5129366450001
 20
13.82260943909928
 30
0.0
 10
180.3566670436943
 20
13.82393762599269
 30
0.0
 10
180.1970544465281
 20
13.82059872487864
 30
0.0
 10
180.0540326342237
 20
13.83265795728242
 30
0.0
 10
179.8197144881628
 20
13.7695200197692
 30
0.0
 10
179.9173810751197
 20
14.0562052746632
 30
0.0
 10
179.9006868780058
 20
14.24988308142663
 30
0.0
 10
179.9146296709685
 20
14.47848242880297
 30
0.0
 10
179.9142987846631
 20
14.63384593955051
 30
0.0
 10
179.9143078119264
 20
14.73966336444129
 30
0.0
 10
179.9143055876315
 20
14.80205784124217
 30
0.0
 10
179.9143065551889
 20
14.8922042524833
 30
0.0
 10
179.9143065473261
 20
14.99621167157441
 30
0.0
 10
179.9143053861102
 20
15.10022131375299
 30
0.0
 10
179.9143090971503
 20
15.19036243688771
 30
0.0
 10
179.9143011051051
 20
15.25276803097218
 30
0.0
 10
179.9143334275018
 20
15.35868835961122
 30
0.0
 10
179.9131440788319
 20
15.51626716544742
 30
0.0
 10
179.9082216489255
 20
15.66528219822067
 30
0.0
 10
179.9057788376618
 20
15.73923260398192
 30
0.0
 11
179.9057788376618
 21
15.73923260398192
 31
0.0
 11
179.896691822374
 21
15.9593857810102
 31
0.0
 11
179.8868249573133
 21
16.17960510387181
 31
0.0
 11
180.04115751414
 21
16.1731239146373
 31
0.0
 11
180.1946500189046
 21
16.16754892331926
 31
0.0
 11
180.3481160653366
 21
16.16367167505633
 31
0.0
 11
180.5025544554939
 21
16.16238072887609
 31
0.0
 11
180.6564835227473
 21
16.16367167505633
 31
0.0
 11
180.80873910046
 21
16.16754892331926
 31
0.0
 11
180.9609113551074
 21
16.1731239146373
 31
0.0
 11
181.1148364762483
 21
16.17960510387181
 31
0.0
 11
181.1070811703123
 21
16.12794961777361
 31
0.0
 11
181.1044991623591
 21
16.07642642334207
 31
0.0
 11
181.1070811703123
 21
16.02475660564663
 31
0.0
 11
181.1148364762483
 21
15.97315954836786
 31
0.0
 11
181.0094874054411
 21
15.9800144615606
 31
0.0
 11
180.9136375700059
 21
15.9869355205866
 31
0.0
 11
180.8198593171903
 21
15.99378381919601
 31
0.0
 11
180.7209679915881
 21
16.00063211780542
 31
0.0
 11
180.6147532199923
 21
16.00710999974826
 31
0.0
 11
180.4991060528038
 21
16.01268829835797
 31
0.0
 11
180.3666126447258
 21
16.0165655466209
 31
0.0
 11
180.2101546018423
 21
16.01785649280114
 31
0.0
 11
180.2062663293721
 21
15.91037061609189
 31
0.0
 11
180.2015380048399
 21
15.80805072896466
 31
0.0
 11
180.1976607566749
 21
15.70138175329689
 31
0.0
 11
180.1963698105272
 21
15.58102059013253
 31
0.0
 11
180.1967799146836
 21
15.44856355891567
 31
0.0
 11
180.1980896021502
 21
15.31953288186458
 31
0.0
 11
180.1994074577049
 21
15.20777398432311
 31
0.0
 11
180.199819115366
 21
15.12695149302387
 31
0.0
 11
180.3434452935874
 21
15.12780256941253
 31
0.0
 11
180.4716343930758
 21
15.13039989580079
 31
0.0
 11
180.5868078221795
 21
15.13425509545256
 31
0.0
 11
180.691775631222
 21
15.13901649302079
 31
0.0
 11
180.7876346289421
 21
15.14418027774178
 31
0.0
 11
180.8757413374193
 21
15.14934406246269
 31
0.0
 11
180.9578881438496
 21
15.15491243919741
 31
0.0
 11
181.0357692335571
 21
15.16132086801527
 31
0.0
 11
181.0280180445186
 21
15.10884407115339
 31
0.0
 11
181.0254328449317
 21
15.05469378470859
 31
0.0
 11
181.0280180445186
 21
15.00310444444368
 31
0.0
 11
181.0357692335571
 21
14.95151510417884
 31
0.0
 11
180.9389813454014
 21
14.96092324653759
 31
0.0
 11
180.8275950722015
 21
14.96865128473014
 31
0.0
 11
180.7089261429373
 21
14.97425273438148
 31
0.0
 11
180.5903167449212
 21
14.97726788195014
 31
0.0
 11
180.4750025117521
 21
14.9789876736164
 31
0.0
 11
180.36672619507
 21
14.98070746528259
 31
0.0
 11
180.2724839317708
 21
14.98202486979619
 31
0.0
 11
180.199819115366
 21
14.98243607639331
 31
0.0
 11
180.199407457705
 21
14.95019108508193
 31
0.0
 11
180.1980896021502
 21
14.91542593752119
 31
0.0
 11
180.1967799146836
 21
14.87450702260086
 31
0.0
 11
180.1963698105272
 21
14.82421524309953
 31
0.0
 11
180.1963698105272
 21
14.80326217235823
 31
0.0
 11
180.1963698105272
 21
14.75716541672738
 31
0.0
 11
180.1963698105272
 21
14.71106866109653
 31
0.0
 11
180.1963698105272
 21
14.69011559035523
 31
0.0
 11
180.1963698105272
 21
14.66864525258282
 31
0.0
 11
180.1963698105272
 21
14.61744675481786
 31
0.0
 11
180.1963698105272
 21
14.5563388703887
 31
0.0
 11
180.1963698105272
 21
14.50514037262374
 31
0.0
 11
180.1963698105272
 21
14.48367003485133
 31
0.0
 11
180.1967799146836
 21
14.3048172137155
 31
0.0
 11
180.1980896021502
 21
14.16026100715445
 31
0.0
 11
180.2002868589709
 21
14.04850210961292
 31
0.0
 11
180.2032586986985
 21
13.96767961831367
 31
0.0
 11
180.3202092517447
 21
13.96767961831367
 31
0.0
 11
180.4440727208746
 21
13.96767961831367
 31
0.0
 11
180.5734925526421
 21
13.96897056449392
 31
0.0
 11
180.7003922282244
 21
13.97284781275684
 31
0.0
 11
180.8224658067973
 21
13.97886708358868
 31
0.0
 11
180.9377587499463
 21
13.98663260442004
 31
0.0
 11
181.0421754573518
 21
13.99734161483404
 31
0.0
 11
181.1320599255448
 21
14.01237656274695
 31
0.0
 11
181.1264254031192
 21
13.98698427976718
 31
0.0
 11
181.1234433285424
 21
13.95907184053804
 31
0.0
 11
181.12213398812
 21
13.93112191867004
 31
0.0
 11
181.1217235369196
 21
13.90575829888475
 31
0.0
 11
181.1243087365065
 21
13.85584355063328
 31
0.0
 11
181.1320599255448
 21
13.81626739612929
 31
0.0
 11
180.9776977178344
 21
13.82145433189187
 31
0.0
 11
180.8242357818765
 21
13.82315538223864
 31
0.0
 11
180.6697789496483
 21
13.82315538223864
 31
0.0
 11
180.5128026496767
 21
13.82315538223864
 31
0.0
 11
180.3554704921536
 21
13.82315538223864
 31
0.0
 11
180.199819115366
 21
13.82315538223864
 31
0.0
 11
180.0441620874241
 21
13.82145433189187
 31
0.0
 11
179.8868249573133
 21
13.81626739612929
 31
0.0
 11
179.896691822374
 21
14.03601267385212
 31
0.0
 11
179.9057788376618
 21
14.25491128490853
 31
0.0
 11
179.91217215184
 21
14.47550763902005
 31
0.0
 11
179.9143063455009
 21
14.70036378479718
 31
0.0
 11
179.9143063455009
 21
14.72578824496878
 31
0.0
 11
179.9143063455009
 21
14.79281636723934
 31
0.0
 11
179.9143063455009
 21
14.88758026424256
 31
0.0
 11
179.9143063455009
 21
14.9962120486121
 31
0.0
 11
179.9143063455009
 21
15.10484383298165
 31
0.0
 11
179.9143063455009
 21
15.19960772998487
 31
0.0
 11
179.9143063455009
 21
15.26663585225544
 31
0.0
 11
179.9143063455009
 21
15.29206031242703
 31
0.0
 11
179.91217215184
 21
15.51735963528737
 31
0.0
 11
179.9057788376618
 21
15.73923260398192
 31
0.0
  0
SPLINE
  5
B1
102
{ACAD_REACTORS
330
CE
102
}
330
48
100
AcDbEntity
  8
_U_30EC_U_30A4_U_30E4_U_30FC_1
  6
Continuous
 62
     2
100
AcDbSpline
210
0.0
220
0.0
230
1.0
 70
    11
 71
     3
 72
    95
 73
    91
 74
    89
 42
0.000000001
 43
0.0000000001
 44
0.00000001
 40
0.0
 40
0.0
 40
0.0
 40
0.0
 40
0.6550406656912181
 40
1.308087289032024
 40
1.420803739835897
 40
1.566130759770905
 40
1.757067341888565
 40
2.006513545026564
 40
2.08732826312165
 40
2.185328872295725
 40
2.294612454748476
 40
2.408936380534918
 40
2.526802767798665
 40
2.646360524615704
 40
2.762535723971691
 40
2.870057342870264
 40
2.966883448431757
 40
3.050803243518398
 40
3.115818222436711
 40
3.156030057150349
 40
3.213914225080194
 40
3.276689026450652
 40
3.342960320981429
 40
3.404230667150678
 40
3.453822809493492
 40
3.532499827188544
 40
3.634775188507291
 40
3.75490933300829
 40
3.88973676166078
 40
4.035769602175354
 40
4.187256681197733
 40
4.338733685676086
 40
4.488478734676244
 40
4.634708317831715
 40
4.7714931899214
 40
4.89268657156134
 40
5.199775528944574
 40
5.460353566929766
 40
5.667603142345639
 40
5.814722905404622
 40
5.82899080621992
 40
5.855488336304617
 40
5.869756237118949
 40
6.189796507762959
 40
6.53189046987315
 40
6.88305363701714
 40
7.230512024911607
 40
7.56696665676472
 40
7.88520355970754
 40
8.172887439719386
 40
8.418011594062902
 40
8.443926721190826
 40
8.510760470613313
 40
8.602145393795825
 40
8.701714041647268
 40
8.793098965075501
 40
8.859932715058074
 40
8.885847842603724
 40
9.24230125661293
 40
9.589275455016892
 40
9.921808543164286
 40
10.2347962429848
 40
10.29968150889204
 40
10.35323493887787
 40
10.40154625355171
 40
10.46482922477847
 40
10.55973900668427
 40
10.69239545985639
 40
10.84920353475694
 40
11.01626328594802
 40
11.18672024367465
 40
11.35372582577232
 40
11.50257442292449
 40
11.61866495023313
 40
11.71329869152897
 40
11.8251105057393
 40
11.94464880845738
 40
12.06929242642529
 40
12.19707290435198
 40
12.3256263286055
 40
12.45034565331301
 40
12.56646595170349
 40
12.67099007414657
 40
12.76077625936804
 40
12.82703233506717
 40
12.87429132786014
 40
12.89831990323354
 40
12.92234847860042
 40
13.5398476741034
 40
14.18294284359378
 40
14.18294284359378
 40
14.18294284359378
 40
14.18294284359378
 10
177.3067935648022
 20
14.70898038201726
 30
0.0
 10
177.1752019758552
 20
14.82265058603233
 30
0.0
 10
176.912419380273
 20
15.04964496316158
 30
0.0
 10
176.3997393441019
 20
15.8921446295629
 30
0.0
 10
176.4106654595363
 20
15.53423377577023
 30
0.0
 10
176.404122652799
 20
15.39267392272135
 30
0.0
 10
176.4028026631773
 20
15.19421305299283
 30
0.0
 10
176.4018117602538
 20
15.02150296045985
 30
0.0
 10
176.4024101751974
 20
14.87865373257582
 30
0.0
 10
176.4038994301882
 20
14.7826500541336
 30
0.0
 10
176.4055683588472
 20
14.67545503263144
 30
0.0
 10
176.4071934954618
 20
14.56164211517584
 30
0.0
 10
176.4092429501685
 20
14.44441572604591
 30
0.0
 10
176.4123165501927
 20
14.32656411232972
 30
0.0
 10
176.4156339697043
 20
14.21228087320622
 30
0.0
 10
176.4193605340279
 20
14.10521401867278
 30
0.0
 10
176.4217338161425
 20
14.01007408766924
 30
0.0
 10
176.4278718888359
 20
13.92558557205697
 30
0.0
 10
176.4239784495946
 20
13.86923087298144
 30
0.0
 10
176.4455230443077
 20
13.79825022472359
 30
0.0
 10
176.3680940058618
 20
13.82902677604486
 30
0.0
 10
176.3116353240191
 20
13.82011242517615
 30
0.0
 10
176.2540495896807
 20
13.82896218398277
 30
0.0
 10
176.1690163478472
 20
13.79738225225946
 30
0.0
 10
176.2009714146383
 20
13.88095155992193
 30
0.0
 10
176.1990705282539
 20
13.94882608968312
 30
0.0
 10
176.2107960047299
 20
14.05233256764421
 30
0.0
 10
176.2164241052999
 20
14.17002125616697
 30
0.0
 10
176.2237902178942
 20
14.30388609164426
 30
0.0
 10
176.232075970161
 20
14.44764152872634
 30
0.0
 10
176.2398851897426
 20
14.59714022843447
 30
0.0
 10
176.2457571222657
 20
14.74792549402081
 30
0.0
 10
176.2503667817968
 20
14.8969994387844
 30
0.0
 10
176.2542632117542
 20
15.04122913163025
 30
0.0
 10
176.2570715126564
 20
15.1758390521302
 30
0.0
 10
176.2576698755022
 20
15.36469614347357
 30
0.0
 10
176.2616023867151
 20
15.58975494313157
 30
0.0
 10
176.2442175378498
 20
15.86367091125711
 30
0.0
 10
176.2850417342582
 20
16.02787112098599
 30
0.0
 10
176.1995153256003
 20
16.227496614651
 30
0.0
 10
176.2660558907687
 20
16.22385458403981
 30
0.0
 10
176.2838724273231
 20
16.22413447160857
 30
0.0
 10
176.4056801797501
 20
16.22632927398616
 30
0.0
 10
176.5080770335463
 20
15.94675118721517
 30
0.0
 10
176.7580021509355
 20
15.74563008536004
 30
0.0
 10
176.9870035331111
 20
15.47792614987919
 30
0.0
 10
177.2245151213108
 20
15.22646413862379
 30
0.0
 10
177.4486090740772
 20
14.98969974061361
 30
0.0
 10
177.6750716283009
 20
14.73218692583079
 30
0.0
 10
177.8325687886515
 20
14.61649335056929
 30
0.0
 10
178.0472129612673
 20
14.27997152538795
 30
0.0
 10
178.0422645974619
 20
14.40464754091606
 30
0.0
 10
178.0433931602545
 20
14.46327691935739
 30
0.0
 10
178.0428877841517
 20
14.55043662371979
 30
0.0
 10
178.0430475158113
 20
14.64416143182875
 30
0.0
 10
178.0430054891318
 20
14.73018971297038
 30
0.0
 10
178.0430202040372
 20
14.79153891945498
 30
0.0
 10
178.0429706255983
 20
14.94135231520995
 30
0.0
 10
178.0458811522811
 20
15.17989612510108
 30
0.0
 10
178.0259521041161
 20
15.54486509868702
 30
0.0
 10
178.0750433936248
 20
15.8079963199342
 30
0.0
 10
177.9177951509179
 20
16.21928904947751
 30
0.0
 10
178.0762112872421
 20
16.16398282551753
 30
0.0
 10
178.1311680478628
 20
16.16199686500176
 30
0.0
 10
178.182788776674
 20
16.16264778248256
 30
0.0
 10
178.2713198965366
 20
16.20369527738247
 30
0.0
 10
178.2204898303168
 20
16.05696326622989
 30
0.0
 10
178.2313389930285
 20
15.95019971954434
 30
0.0
 10
178.2166036994847
 20
15.79085705414114
 30
0.0
 10
178.2099976446205
 20
15.62853061652876
 30
0.0
 10
178.2014961399914
 20
15.45992521892397
 30
0.0
 10
178.1943227202199
 20
15.29814814703543
 30
0.0
 10
178.1889063215389
 20
15.15422331457935
 30
0.0
 10
178.1871713967648
 20
15.03437493466927
 30
0.0
 10
178.1875440672319
 20
14.92686101590518
 30
0.0
 10
178.1873656126263
 20
14.81820024645588
 30
0.0
 10
178.187701086314
 20
14.69953570165532
 30
0.0
 10
178.1890040622185
 20
14.57555163512744
 30
0.0
 10
178.1908887351574
 20
14.44858294171107
 30
0.0
 10
178.1925004454852
 20
14.32153861551035
 30
0.0
 10
178.194140313743
 20
14.1985488449218
 30
0.0
 10
178.1962570745751
 20
14.08300931383762
 30
0.0
 10
178.1963848422364
 20
13.98090903955839
 30
0.0
 10
178.2006514396553
 20
13.89009848838158
 30
0.0
 10
178.190844008529
 20
13.83213621208789
 30
0.0
 10
178.2118474771689
 20
13.76517130132032
 30
0.0
 10
178.1725639739897
 20
13.77291153966691
 30
0.0
 10
177.9595307117741
 20
13.75755254145193
 30
0.0
 10
177.7636297943189
 20
14.31403058094471
 30
0.0
 10
177.4611197631545
 20
14.57556035348512
 30
0.0
 10
177.3067935648022
 20
14.70898038201726
 30
0.0
 11
177.3067935648022
 21
14.70898038201726
 31
0.0
 11
176.8595529338511
 21
15.1875763541198
 31
0.0
 11
176.4124049070643
 21
15.66352649288973
 31
0.0
 11
176.4089664262494
 21
15.55086249986235
 31
0.0
 11
176.40556101835
 21
15.40557538184312
 31
0.0
 11
176.4029636920275
 21
15.2146564582797
 31
0.0
 11
176.4021126156603
 21
14.96521170139759
 31
0.0
 11
176.4025239230289
 21
14.88439802954283
 31
0.0
 11
176.4038420329817
 21
14.78640628477564
 31
0.0
 11
176.4055192267718
 21
14.67713557299741
 31
0.0
 11
176.4072367127518
 21
14.56282454872041
 31
0.0
 11
176.4094007838772
 21
14.44497802965268
 31
0.0
 11
176.4124049070643
 21
14.32545802100202
 31
0.0
 11
176.4158359733138
 21
14.20933349846158
 31
0.0
 11
176.4192928929998
 21
14.10186746550231
 31
0.0
 11
176.4227085253088
 21
14.00510162351266
 31
0.0
 11
176.4261896983794
 21
13.92125406276975
 31
0.0
 11
176.4296006184313
 21
13.85632862007762
 31
0.0
 11
176.4330776843148
 21
13.81626739612929
 31
0.0
 11
176.3754263821572
 21
13.82145433189187
 31
0.0
 11
176.3126746318309
 21
13.82315538223864
 31
0.0
 11
176.2464251717157
 21
13.82145433189187
 31
0.0
 11
176.1853747739675
 21
13.81626739612929
 31
0.0
 11
176.1926772737812
 21
13.86531894125592
 31
0.0
 11
176.2008793569054
 21
13.94356725720857
 31
0.0
 11
176.2090098822348
 21
14.04551893253032
 31
0.0
 11
176.2163406441397
 21
14.16542920159755
 31
0.0
 11
176.2236358280422
 21
14.30005912343892
 31
0.0
 11
176.2318444255596
 21
14.44586107652748
 31
0.0
 11
176.2395504149465
 21
14.59715203135075
 31
0.0
 11
176.2455763002093
 21
14.74850913200737
 31
0.0
 11
176.2503046247416
 21
14.89817951391438
 31
0.0
 11
176.254192897212
 21
15.04435739582225
 31
0.0
 11
176.2567527408965
 21
15.18111831592699
 31
0.0
 11
176.2576324804574
 21
15.30230850686893
 31
0.0
 11
176.257192610677
 21
15.60939715262547
 31
0.0
 11
176.2559126888347
 21
15.86997204839368
 31
0.0
 11
176.2528658717893
 21
16.07719922716128
 31
0.0
 11
176.2473049112763
 21
16.22421385386065
 31
0.0
 11
176.2615728121469
 21
16.22421385386065
 31
0.0
 11
176.2880703423352
 21
16.22421385386065
 31
0.0
 11
176.3023382432058
 21
16.22421385386065
 31
0.0
 11
176.5194743650277
 21
15.98910179662775
 31
0.0
 11
176.7512744123079
 21
15.73751281231564
 31
0.0
 11
176.9894816018839
 21
15.47949555543573
 31
0.0
 11
177.2260074557521
 21
15.22497079855492
 31
0.0
 11
177.4555698717705
 21
14.9789975954914
 31
0.0
 11
177.6731797360103
 21
14.7467893403411
 31
0.0
 11
177.8713724913707
 21
14.53826680567102
 31
0.0
 11
178.0430143099086
 21
14.36326697932591
 31
0.0
 11
178.0430143099086
 21
14.38918210687045
 31
0.0
 11
178.0430143099086
 21
14.45601585685374
 31
0.0
 11
178.0430143099086
 21
14.54740078030027
 31
0.0
 11
178.0430143099086
 21
14.64696942823456
 31
0.0
 11
178.0430143099086
 21
14.73835435168109
 31
0.0
 11
178.0430143099086
 21
14.80518810166438
 31
0.0
 11
178.0430143099086
 21
14.83110322920892
 31
0.0
 11
178.0417233637609
 21
15.18755430550869
 31
0.0
 11
178.0378461155958
 21
15.53450684014418
 31
0.0
 11
178.0296197790002
 21
15.86693815950553
 31
0.0
 11
178.0154535467227
 21
16.17960510387181
 31
0.0
 11
178.0790351249619
 21
16.16666367158337
 31
0.0
 11
178.1324170159611
 21
16.16238072887609
 31
0.0
 11
178.1805381084833
 21
16.16666367158337
 31
0.0
 11
178.2424836798197
 21
16.17960510387181
 31
0.0
 11
178.2351216487575
 21
16.08498128445103
 31
0.0
 11
178.2269790968819
 21
15.95257496503966
 31
0.0
 11
178.2183705364004
 21
15.79600336785657
 31
0.0
 11
178.2097547223215
 21
15.62916593734272
 31
0.0
 11
178.2016187850288
 21
15.45890325509363
 31
0.0
 11
178.1942501393835
 21
15.29206031242703
 31
0.0
 11
178.1891406931522
 21
15.14329943572812
 31
0.0
 11
178.1874503478904
 21
15.02722121527104
 31
0.0
 11
178.1874503478904
 21
14.93258747397521
 31
0.0
 11
178.1874503478904
 21
14.82077565976709
 31
0.0
 11
178.1878461204497
 21
14.70123801222751
 31
0.0
 11
178.1890819450708
 21
14.57660052093921
 31
0.0
 11
178.1908392193317
 21
14.44883212687394
 31
0.0
 11
178.1925303477609
 21
14.32028982655882
 31
0.0
 11
178.1942876220215
 21
14.19558288214557
 31
0.0
 11
178.1959787504505
 21
14.07947489606352
 31
0.0
 11
178.1972884379172
 21
13.9749589672702
 31
0.0
 11
178.1976985420735
 21
13.88517371555655
 31
0.0
 11
178.1976985420735
 21
13.81891763918418
 31
0.0
 11
178.1976985420735
 21
13.77165864614044
 31
0.0
 11
178.1736699662976
 21
13.77165864614044
 31
0.0
 11
178.1496413905217
 21
13.77165864614044
 31
0.0
 11
177.7410729200423
 21
14.23466735262193
 31
0.0
 11
177.3067935648022
 21
14.70898038201726
 31
0.0
  0
SPLINE
  5
B2
102
{ACAD_REACTORS
330
CF
102
}
330
48
100
AcDbEntity
  8
_U_30EC_U_30A4_U_30E4_U_30FC_1
  6
Continuous
 62
     2
100
AcDbSpline
210
0.0
220
0.0
230
1.0
 70
    11
 71
     3
 72
    25
 73
    21
 74
    19
 42
0.000000001
 43
0.0000000001
 44
0.00000001
 40
0.0
 40
0.0
 40
0.0
 40
0.0
 40
0.0911479969064822
 40
0.1858117896204665
 40
0.2804128399734772
 40
0.3715889190715644
 40
0.4679080494218989
 40
0.5642683809229228
 40
0.6605683222644988
 40
0.756965301581025
 40
0.8561348172522734
 40
1.092615965104297
 40
1.374867658141883
 40
1.611348812011607
 40
1.710518328425258
 40
1.809403163726577
 40
2.045205463294082
 40
2.326646917622146
 40
2.562449217190609
 40
2.66133404383393
 40
2.66133404383393
 40
2.66133404383393
 40
2.66133404383393
 10
173.2683700567199
 20
14.88614538197294
 30
0.0
 10
173.2987525917923
 20
14.88598079714557
 30
0.0
 10
173.3606895889111
 20
14.88564528689923
 30
0.0
 10
173.454135696033
 20
14.88269055452001
 30
0.0
 10
173.5475095236357
 20
14.87977752877153
 30
0.0
 10
173.6417760753477
 20
14.8789420164342
 30
0.0
 10
173.7354964790967
 20
14.87996644658049
 30
0.0
 10
173.8352040303205
 20
14.87916977470975
 30
0.0
 10
173.9188949546312
 20
14.88921410235222
 30
0.0
 10
174.0637996315045
 20
14.86234617674167
 30
0.0
 10
173.9396132444801
 20
15.03665530280051
 30
0.0
 10
173.8965867286282
 20
15.19651711006094
 30
0.0
 10
173.780892214221
 20
15.45518458550219
 30
0.0
 10
173.7017565431256
 20
15.5923105286186
 30
0.0
 10
173.6431576621816
 20
15.8093703313408
 30
0.0
 10
173.5864803939438
 20
15.5926613421343
 30
0.0
 10
173.5052809900478
 20
15.45327012438239
 30
0.0
 10
173.4063701281488
 20
15.20406969370197
 30
0.0
 10
173.3253625094258
 20
15.01925830226075
 30
0.0
 10
173.2813683325838
 20
14.91650446856119
 30
0.0
 10
173.2683700567199
 20
14.88614538197294
 30
0.0
 11
173.2683700567199
 21
14.88614538197294
 31
0.0
 11
173.359513773782
 21
14.88526123266761
 31
0.0
 11
173.4541428297581
 21
14.88269697919601
 31
0.0
 11
173.5487082179706
 21
14.8800996528078
 31
0.0
 11
173.6398803250197
 21
14.87924857641913
 31
0.0
 11
173.7361985777706
 21
14.87965978301624
 31
0.0
 11
173.8325499034376
 21
14.88097718752974
 31
0.0
 11
173.9288262638286
 21
14.88310818579315
 31
0.0
 11
174.0251753846343
 21
14.88614538197294
 31
0.0
 11
173.9854633323141
 21
14.97701642195022
 31
0.0
 11
173.8907653613968
 21
15.19370890189604
 31
0.0
 11
173.7777387509471
 21
15.45234186183138
 31
0.0
 11
173.6830407800297
 21
15.6690343417772
 31
0.0
 11
173.6433287277095
 21
15.75990538175448
 31
0.0
 11
173.6043330259266
 21
15.6690343417772
 31
0.0
 11
173.5113432755212
 21
15.45234186183138
 31
0.0
 11
173.4003555089082
 21
15.19370890189604
 31
0.0
 11
173.3073657585028
 21
14.97701642195022
 31
0.0
 11
173.2683700567199
 21
14.88614538197294
 31
0.0
  0
SPLINE
  5
B3
102
{ACAD_REACTORS
330
CF
102
}
330
48
100
AcDbEntity
  8
_U_30EC_U_30A4_U_30E4_U_30FC_1
  6
Continuous
 62
     2
100
AcDbSpline
210
0.0
220
0.0
230
1.0
 70
    11
 71
     3
 72
    57
 73
    53
 74
    51
 42
0.000000001
 43
0.0000000001
 44
0.00000001
 40
0.0
 40
0.0
 40
0.0
 40
0.0
 40
0.0471632082809235
 40
0.0914861054632153
 40
0.1357762519702389
 40
0.1826527001610684
 40
0.2295203288572593
 40
0.2737751972221615
 40
0.3181310461542788
 40
0.3652607198398514
 40
0.4571007286314519
 40
0.5671851029165196
 40
0.6894623283868399
 40
0.8181758272546068
 40
0.9510087229274025
 40
1.085852229674066
 40
1.218126164475324
 40
1.343545131142394
 40
1.45453720295681
 40
1.567187607530819
 40
1.680710966642438
 40
1.794226869736802
 40
1.900009184247601
 40
2.004085860447881
 40
2.108162674451769
 40
2.214000150155313
 40
2.496038577352154
 40
2.762350745479298
 40
2.997275353279427
 40
3.185110082137753
 40
3.24640789006398
 40
3.312607550212597
 40
3.378877742711584
 40
3.440140399651467
 40
4.100501696006494
 40
4.754913085563543
 40
5.411331693423956
 40
6.077890432568741
 40
6.11057529267102
 40
6.1432601527758
 40
6.367989363395195
 40
6.610525374951591
 40
6.863389136467359
 40
7.119380025547646
 40
7.376036605091143
 40
7.631164770966384
 40
7.876722425456469
 40
8.104953735855974
 40
8.312916685924344
 40
8.497730294941341
 40
8.651018984313895
 40
8.764738853624635
 40
8.764738853624635
 40
8.764738853624635
 40
8.764738853624635
 10
174.7922649500513
 20
13.81626739612929
 30
0.0
 10
174.7766616726931
 20
13.8182623107908
 30
0.0
 10
174.7463947960302
 20
13.82213201360301
 30
0.0
 10
174.7010994202252
 20
13.8234198496727
 30
0.0
 10
174.6559553129349
 20
13.82308683554053
 30
0.0
 10
174.6099017123399
 20
13.82314658674226
 30
0.0
 10
174.5640496172096
 20
13.82325813650003
 30
0.0
 10
174.5183711648164
 20
13.82277833456592
 30
0.0
 10
174.4750811541608
 20
13.82461109618722
 30
0.0
 10
174.4039947951513
 20
13.80049556814657
 30
0.0
 10
174.4057477261441
 20
13.92184693977253
 30
0.0
 10
174.358619637057
 20
14.00726239751235
 30
0.0
 10
174.3191478251761
 20
14.12486929345138
 30
0.0
 10
174.2706635532645
 20
14.24232752540441
 30
0.0
 10
174.2201017402522
 20
14.36405935761512
 30
0.0
 10
174.1718634610477
 20
14.49075967862468
 30
0.0
 10
174.1135232947594
 20
14.59933687784955
 30
0.0
 10
174.0980892667261
 20
14.75620657134413
 30
0.0
 10
173.9566586330636
 20
14.72373446548324
 30
0.0
 10
173.8508397414903
 20
14.73512888682183
 30
0.0
 10
173.7358569725222
 20
14.73392591514618
 30
0.0
 10
173.6253142252141
 20
14.73506945347411
 30
0.0
 10
173.5176583522783
 20
14.73418350037529
 30
0.0
 10
173.4121322529242
 20
14.73416602390522
 30
0.0
 10
173.3109192682012
 20
14.72714032472417
 30
0.0
 10
173.1266804827753
 20
14.75135859859871
 30
0.0
 10
173.1157393685411
 20
14.44741691121887
 30
0.0
 10
173.008769163475
 20
14.22353177253399
 30
0.0
 10
172.9098148604346
 20
14.03895314292498
 30
0.0
 10
172.9225090524008
 20
13.79530204804208
 30
0.0
 10
172.8050091716397
 20
13.82508046753198
 30
0.0
 10
172.7422055868311
 20
13.82258089509606
 30
0.0
 10
172.67858720934
 20
13.82344075102807
 30
0.0
 10
172.3946014194073
 20
13.78098039941946
 30
0.0
 10
173.0251638499382
 20
14.50081952444788
 30
0.0
 10
173.108764528907
 20
15.01276539435731
 30
0.0
 10
173.492925278934
 20
15.53353743550047
 30
0.0
 10
173.4777208288563
 20
16.23519626253214
 30
0.0
 10
173.7239265722697
 20
16.2234563308126
 30
0.0
 10
173.825634615756
 20
16.23225004452775
 30
0.0
 10
173.8249752035818
 20
15.98059650730349
 30
0.0
 10
173.9428317155828
 20
15.79818020733961
 30
0.0
 10
174.0315515260485
 20
15.55563740662868
 30
0.0
 10
174.132229248526
 20
15.3234003053013
 30
0.0
 10
174.2311142712242
 20
15.08674644566911
 30
0.0
 10
174.329967699067
 20
14.854617391701
 30
0.0
 10
174.4256166390926
 20
14.63122222788791
 30
0.0
 10
174.515990457327
 20
14.42272549049314
 30
0.0
 10
174.5989944568189
 20
14.23308448529324
 30
0.0
 10
174.6726088582799
 20
14.06663106068102
 30
0.0
 10
174.7342815895545
 20
13.92917699626099
 30
0.0
 10
174.7749458885603
 20
13.84999239430036
 30
0.0
 10
174.7922649500513
 20
13.81626739612929
 30
0.0
 11
174.7922649500513
 21
13.81626739612929
 31
0.0
 11
174.7453878317448
 21
13.82145433189187
 31
0.0
 11
174.7010975896125
 21
13.82315538223864
 31
0.0
 11
174.6568074431729
 21
13.82315538223864
 31
0.0
 11
174.6099309947159
 21
13.82315538223864
 31
0.0
 11
174.5630633657033
 21
13.82315538223864
 31
0.0
 11
174.5188084970407
 21
13.82315538223864
 31
0.0
 11
174.4744852776854
 21
13.82145433189187
 31
0.0
 11
174.4276419021443
 21
13.81626739612929
 31
0.0
 11
174.3992532136325
 21
13.90360966173247
 31
0.0
 11
174.3622721815898
 21
14.00729656274821
 31
0.0
 11
174.3188386236701
 21
14.12159987001129
 31
0.0
 11
174.2711055866936
 21
14.24113531268972
 31
0.0
 11
174.2208160133237
 21
14.36408057307567
 31
0.0
 11
174.1696467003932
 21
14.48883822929449
 31
0.0
 11
174.1197531801326
 21
14.61134141502775
 31
0.0
 11
174.0733119111841
 21
14.7278451736792
 31
0.0
 11
173.9623611907589
 21
14.73087465284508
 31
0.0
 11
173.8497309225089
 21
14.73300454867793
 31
0.0
 11
173.7362152069449
 21
14.73432195319143
 31
0.0
 11
173.62270004768
 21
14.73473315978855
 31
0.0
 11
173.5169185312816
 21
14.73432195319143
 31
0.0
 11
173.4128501919225
 21
14.73300454867793
 31
0.0
 11
173.3087951724045
 21
14.73087465284508
 31
0.0
 11
173.2030010615596
 21
14.7278451736792
 31
0.0
 11
173.0980914750139
 21
14.46604437513353
 31
0.0
 11
173.0034868690331
 21
14.21710232658462
 31
0.0
 11
172.9252231210298
 21
13.99559756969559
 31
0.0
 11
172.8693431224555
 21
13.81626739612929
 31
0.0
 11
172.8082651639442
 21
13.82145433189187
 31
0.0
 11
172.7420873618131
 21
13.82315538223864
 31
0.0
 11
172.6758390041282
 21
13.82145433189187
 31
0.0
 11
172.6147963233938
 21
13.81626739612929
 31
0.0
 11
172.889968495193
 21
14.41656508695145
 31
0.0
 11
173.158294573417
 21
15.01343642360777
 31
0.0
 11
173.4240277350405
 21
15.61366245644384
 31
0.0
 11
173.6914740737033
 21
16.22421385386065
 31
0.0
 11
173.7241589339806
 21
16.22421385386065
 31
0.0
 11
173.7568437942579
 21
16.22421385386065
 31
0.0
 11
173.8428300681057
 21
16.01658539037086
 31
0.0
 11
173.9357285813609
 21
15.7925461456352
 31
0.0
 11
174.0328714521463
 21
15.55908663180471
 31
0.0
 11
174.1317936458031
 21
15.32298128464147
 31
0.0
 11
174.2315341249927
 21
15.08649780379785
 31
0.0
 11
174.3313071129354
 21
14.85168781253712
 31
0.0
 11
174.4280608257449
 21
14.62599492196853
 31
0.0
 11
174.5188084970407
 21
14.41658052097921
 31
0.0
 11
174.6022150834546
 21
14.22607611130463
 31
0.0
 11
174.6770293263377
 21
14.0570823266247
 31
0.0
 11
174.7410729186603
 21
13.9178133770067
 31
0.0
 11
174.7922649500513
 21
13.81626739612929
 31
0.0
  0
SPLINE
  5
B4
102
{ACAD_REACTORS
330
D0
102
}
330
48
100
AcDbEntity
  8
_U_30EC_U_30A4_U_30E4_U_30FC_1
  6
Continuous
 62
     2
100
AcDbSpline
210
0.0
220
0.0
230
1.0
 70
    11
 71
     3
 72
    99
 73
    95
 74
    93
 42
0.000000001
 43
0.0000000001
 44
0.00000001
 40
0.0
 40
0.0
 40
0.0
 40
0.0
 40
0.0796417172272535
 40
0.1621768542356092
 40
0.2486489160957698
 40
0.3404969668524656
 40
0.4381912511164683
 40
0.5434463660244984
 40
0.6518115192847304
 40
0.7530190937886876
 40
0.8492196919725121
 40
0.9419290312998151
 40
1.034249663570039
 40
1.129078600620199
 40
1.226697027573244
 40
1.327220425421706
 40
1.470572134938015
 40
1.595489863371212
 40
1.719934125348399
 40
1.850576620127482
 40
1.989059629987296
 40
2.134139054226918
 40
2.280698007207204
 40
2.42452973903947
 40
2.56592957698584
 40
2.70823926077353
 40
2.861717887443656
 40
3.04516854034736
 40
3.183798301138602
 40
3.314813961455448
 40
3.442083470447306
 40
3.569912708372908
 40
3.702177512509347
 40
3.842307559659541
 40
3.992872223245945
 40
4.156750662218334
 40
4.310981861107556
 40
4.445859909322603
 40
4.572393936131594
 40
4.701656719781995
 40
4.768279086008479
 40
4.835960697898429
 40
4.912788918729349
 40
5.006285208481561
 40
5.026909478751637
 40
5.047533749021202
 40
5.101808031471282
 40
5.162325165538573
 40
5.226919745995923
 40
5.294231806596751
 40
5.364544852554902
 40
5.438319055467946
 40
5.517877651324282
 40
5.607647714861594
 40
5.700449642544441
 40
5.788251142364173
 40
5.872714706039799
 40
5.955167292575315
 40
6.037192395190413
 40
6.120669181469135
 40
6.206848616686376
 40
6.296680855416795
 40
6.442558392872627
 40
6.568190371608323
 40
6.692904567360396
 40
6.82422044655717
 40
6.96312185032941
 40
7.107843738851196
 40
7.25343166390731
 40
7.395187468036729
 40
7.533140753237785
 40
7.670550457175281
 40
7.81623651176929
 40
7.987691657359252
 40
8.142277421969293
 40
8.293662615415062
 40
8.44296246087932
 40
8.59159831618537
 40
8.743678992361836
 40
8.90372532369922
 40
9.076307008890568
 40
9.265578604680622
 40
9.459203795360796
 40
9.617619810273585
 40
9.753609671361943
 40
9.87487330000411
 40
9.95452018497782
 40
10.02416413719249
 40
10.09769764405449
 40
10.18909955924975
 40
10.20974586420137
 40
10.23039218263382
 40
10.30057101881267
 40
10.37632012987547
 40
10.37632012987547
 40
10.37632012987547
 40
10.37632012987547
 10
170.1465954835851
 20
14.13795663215997
 30
0.0
 10
170.1632217851219
 20
14.11720608845316
 30
0.0
 10
170.1970784206578
 20
14.07495111711904
 30
0.0
 10
170.2599822541035
 20
14.02029811392074
 30
0.0
 10
170.3332500940393
 20
13.97299025121054
 30
0.0
 10
170.4175969238636
 20
13.93527231437938
 30
0.0
 10
170.513224061546
 20
13.91040619731953
 30
0.0
 10
170.6171853775346
 20
13.9030955934594
 30
0.0
 10
170.7224020220405
 20
13.91142322794056
 30
0.0
 10
170.8206626371334
 20
13.94149179651532
 30
0.0
 10
170.9058986427548
 20
13.98848822971878
 30
0.0
 10
170.9779220206102
 20
14.04952991250859
 30
0.0
 10
171.0350917709096
 20
14.12412969578585
 30
0.0
 10
171.0767868747439
 20
14.21002464660177
 30
0.0
 10
171.1026952846292
 20
14.30485850432214
 30
0.0
 10
171.1118037332653
 20
14.4185497903837
 30
0.0
 10
171.0986864796487
 20
14.54332587770781
 30
0.0
 10
171.0325330334414
 20
14.66014719171894
 30
0.0
 10
170.9369370919569
 20
14.74512539577379
 30
0.0
 10
170.8249681022368
 20
14.81416684459157
 30
0.0
 10
170.6993659583269
 20
14.87204142045895
 30
0.0
 10
170.5656691620856
 20
14.92373723284343
 30
0.0
 10
170.4313122818831
 20
14.97899092397184
 30
0.0
 10
170.3051983986877
 20
15.04939770641651
 30
0.0
 10
170.1926579987535
 20
15.13785540731252
 30
0.0
 10
170.0969963064458
 20
15.24981067868475
 30
0.0
 10
170.0334157151825
 20
15.39949910101385
 30
0.0
 10
170.0200706505015
 20
15.55932794385144
 30
0.0
 10
170.0320510987448
 20
15.71048405306847
 30
0.0
 10
170.071229892884
 20
15.83809244591542
 30
0.0
 10
170.135498775091
 20
15.95080874030844
 30
0.0
 10
170.2238204999739
 20
16.04648609268694
 30
0.0
 10
170.3338091207627
 20
16.12354214985753
 30
0.0
 10
170.4632284401265
 20
16.18151396936281
 30
0.0
 10
170.6111838967792
 20
16.21739177588825
 30
0.0
 10
170.7682069455487
 20
16.22746719050567
 30
0.0
 10
170.917494046643
 20
16.21863637762594
 30
0.0
 10
171.059625361417
 20
16.19074899340354
 30
0.0
 10
171.1595922609625
 20
16.1341331470114
 30
0.0
 10
171.3125074736185
 20
16.08674602105509
 30
0.0
 10
171.2455131717168
 20
16.00197553001187
 30
0.0
 10
171.2296479120269
 20
15.93438901873486
 30
0.0
 10
171.1978750531296
 20
15.86926092793191
 30
0.0
 10
171.2150202209572
 20
15.76723453256955
 30
0.0
 10
171.1666427208231
 20
15.77493211681903
 30
0.0
 10
171.1315789440766
 20
15.7680677172481
 30
0.0
 10
171.1296697985718
 20
15.83263831158197
 30
0.0
 10
171.0985692931988
 20
15.878256396214
 30
0.0
 10
171.0664551628455
 20
15.93561036628454
 30
0.0
 10
171.0208038475168
 20
15.98540462692563
 30
0.0
 10
170.9658508218386
 20
16.02994813718996
 30
0.0
 10
170.9010841173008
 20
16.06763988836553
 30
0.0
 10
170.8232377310596
 20
16.09283375791355
 30
0.0
 10
170.7355160553352
 20
16.09931230998112
 30
0.0
 10
170.6452903277806
 20
16.09235709285609
 30
0.0
 10
170.5594594694065
 20
16.06909190460923
 30
0.0
 10
170.4828343638595
 20
16.03131644107548
 30
0.0
 10
170.4165265636202
 20
15.98051641089576
 30
0.0
 10
170.3622560536963
 20
15.91731143407212
 30
0.0
 10
170.3224925345459
 20
15.8427645571037
 30
0.0
 10
170.2976775510587
 20
15.75917313997766
 30
0.0
 10
170.289212426287
 20
15.65192948382288
 30
0.0
 10
170.3019697987103
 20
15.52965457267561
 30
0.0
 10
170.3681548409273
 20
15.41149724291213
 30
0.0
 10
170.4640977399833
 20
15.3260632570953
 30
0.0
 10
170.5757914963182
 20
15.25583362306725
 30
0.0
 10
170.7010863668702
 20
15.19659162305306
 30
0.0
 10
170.8349823941447
 20
15.14616708086135
 30
0.0
 10
170.9689930333149
 20
15.09322516984384
 30
0.0
 10
171.0950885316915
 20
15.02750170625178
 30
0.0
 10
171.2076216638417
 20
14.94480352537324
 30
0.0
 10
171.3031370284233
 20
14.83996006310076
 30
0.0
 10
171.3672706486962
 20
14.69937117251572
 30
0.0
 10
171.3811103725279
 20
14.54065409451595
 30
0.0
 10
171.367395471223
 20
14.38153155217877
 30
0.0
 10
171.3244739153984
 20
14.23483828819213
 30
0.0
 10
171.2545906329065
 20
14.10119796587143
 30
0.0
 10
171.1574592213829
 20
13.98532387699293
 30
0.0
 10
171.0347806023657
 20
13.89089981770091
 30
0.0
 10
170.8874408413168
 20
13.82179270651984
 30
0.0
 10
170.7177132497125
 20
13.77953210858855
 30
0.0
 10
170.5317404979596
 20
13.7678173623041
 30
0.0
 10
170.3528955926184
 20
13.77809486683439
 30
0.0
 10
170.1881733753742
 20
13.81966573769156
 30
0.0
 10
170.0834410841057
 20
13.88797642883944
 30
0.0
 10
169.9350960790365
 20
13.93675219032108
 30
0.0
 10
169.9980378194729
 20
14.02976591290844
 30
0.0
 10
170.0072274430059
 20
14.10296536248283
 30
0.0
 10
170.0303711301232
 20
14.16936294501349
 30
0.0
 10
170.0034588335316
 20
14.26974809527582
 30
0.0
 10
170.0521338956339
 20
14.26234033517381
 30
0.0
 10
170.0916530580697
 20
14.26894063620896
 30
0.0
 10
170.0996204944702
 20
14.19078703218934
 30
0.0
 10
170.1305436967923
 20
14.15600927375859
 30
0.0
 10
170.1465954835851
 20
14.13795663215997
 30
0.0
 11
170.1465954835851
 21
14.13795663215997
 31
0.0
 11
170.1982038075864
 21
14.07729869814738
 31
0.0
 11
170.2601105501335
 21
14.02271295163322
 31
0.0
 11
170.3327764009802
 21
13.97583980928386
 31
0.0
 11
170.4166468655843
 21
13.9383990627654
 31
0.0
 11
170.511221073241
 21
13.9139063631188
 31
0.0
 11
170.6161603327165
 21
13.90575829888475
 31
0.0
 11
170.7240739497552
 21
13.91564048638226
 31
0.0
 11
170.8208419941616
 21
13.94528704887485
 31
0.0
 11
170.9050776083319
 21
13.99175118948821
 31
0.0
 11
170.9756144207686
 21
14.05191413218152
 31
0.0
 11
171.031944210998
 21
14.12505819466322
 31
0.0
 11
171.0736690016003
 21
14.21021434047525
 31
0.0
 11
171.0994680808032
 21
14.30436190989615
 31
0.0
 11
171.1080824729446
 21
14.40451552098223
 31
0.0
 11
171.0878517703357
 21
14.546432508794
 31
0.0
 11
171.0272522666731
 21
14.65566684036389
 31
0.0
 11
170.9364971286285
 21
14.74081306430097
 31
0.0
 11
170.8260101884739
 21
14.81052746532518
 31
0.0
 11
170.7008523531254
 21
14.86979854169924
 31
0.0
 11
170.5662951950998
 21
14.92404253474123
 31
0.0
 11
170.4316884277007
 21
14.98201274306006
 31
0.0
 11
170.3065802017258
 21
15.05297399304234
 31
0.0
 11
170.196027609828
 21
15.14113315968697
 31
0.0
 11
170.1053381235265
 21
15.25080295132619
 31
0.0
 11
170.0447055469484
 21
15.39179720476318
 31
0.0
 11
170.0245079172553
 21
15.57413260402316
 31
0.0
 11
170.0374030471347
 21
15.71216131926644
 31
0.0
 11
170.0761016659391
 21
15.83733128451291
 31
0.0
 11
170.1393141731506
 21
15.94779262129087
 31
0.0
 11
170.2257499954544
 21
16.04196885390624
 31
0.0
 11
170.3336492808962
 21
16.11846540770653
 31
0.0
 11
170.4613526283328
 21
16.1761567010949
 31
0.0
 11
170.6075393259923
 21
16.21220066809976
 31
0.0
 11
170.770976856545
 21
16.22421385386065
 31
0.0
 11
170.9248918431289
 21
16.21434269066867
 31
0.0
 11
171.0564887242607
 21
16.18477329831499
 31
0.0
 11
171.172563634494
 21
16.13439993895255
 31
0.0
 11
171.2800792741122
 21
16.06264163167879
 31
0.0
 11
171.2516994050444
 21
16.00236624106888
 31
0.0
 11
171.2284855254283
 21
15.93879017337649
 31
0.0
 11
171.2078381040801
 21
15.86478841992271
 31
0.0
 11
171.1871840681487
 21
15.77360197897329
 31
0.0
 11
171.1665597978415
 21
15.77360197897329
 31
0.0
 11
171.1459355275343
 21
15.77360197897329
 31
0.0
 11
171.1256706495791
 21
15.82395108486349
 31
0.0
 11
171.0994658759421
 21
15.87850045116932
 31
0.0
 11
171.065046892445
 21
15.93316116296118
 31
0.0
 11
171.0203554612937
 21
15.98349593725413
 31
0.0
 11
170.9657333359511
 21
16.02777175321531
 31
0.0
 11
170.9016722004326
 21
16.06436142334503
 31
0.0
 11
170.825968296114
 21
16.08882545979729
 31
0.0
 11
170.7365722046449
 21
16.09701100667024
 31
0.0
 11
170.6440937174207
 21
16.08926973931104
 31
0.0
 11
170.5594072091645
 21
16.06609003445568
 31
0.0
 11
170.483702448884
 21
16.02863495634011
 31
0.0
 11
170.4183754766516
 21
15.97832774281105
 31
0.0
 11
170.3650487887664
 21
15.91600293379882
 31
0.0
 11
170.3254809233901
 21
15.8424994789561
 31
0.0
 11
170.3009523754711
 21
15.75988443557394
 31
0.0
 11
170.2927954104108
 21
15.67042329844355
 31
0.0
 11
170.3130095765617
 21
15.52595308146576
 31
0.0
 11
170.373625616682
 21
15.41591177072938
 31
0.0
 11
170.4643479320758
 21
15.33033670130634
 31
0.0
 11
170.5748676948813
 21
15.25941954854628
 31
0.0
 11
170.7000089937719
 21
15.19914305550581
 31
0.0
 11
170.8345826882553
 21
15.14590447913024
 31
0.0
 11
170.9691729191968
 21
15.09039489581076
 31
0.0
 11
171.0942976816297
 21
15.02377281249413
 31
0.0
 11
171.204800907977
 21
14.94118863716752
 31
0.0
 11
171.2955397598288
 21
14.83800003476274
 31
0.0
 11
171.3561557999489
 21
14.70552315979587
 31
0.0
 11
171.3763699660998
 21
14.53526378483842
 31
0.0
 11
171.3621839747998
 21
14.38133030397414
 31
0.0
 11
171.3196087009193
 21
14.23605531269099
 31
0.0
 11
171.2499752884265
 21
14.1039885418907
 31
0.0
 11
171.1544992078713
 21
13.99007218775249
 31
0.0
 11
171.0341060772624
 21
13.8971527259702
 31
0.0
 11
170.8896160201846
 21
13.82832357668183
 31
0.0
 11
170.7223519532713
 21
13.78581275203969
 31
0.0
 11
170.5336103348226
 21
13.77165864614044
 31
0.0
 11
170.3405031726387
 21
13.78581275203969
 31
0.0
 11
170.1878975900911
 21
13.82832357668183
 31
0.0
 11
170.0661897942203
 21
13.88899033013892
 31
0.0
 11
169.9660261826363
 21
13.95734322942739
 31
0.0
 11
169.9922320587039
 21
14.03255545163079
 31
0.0
 11
170.0090121537618
 21
14.10014767383615
 31
0.0
 11
170.0206196447852
 21
14.17275926235964
 31
0.0
 11
170.0313606254139
 21
14.26352788212861
 31
0.0
 11
170.0520069443315
 21
14.26352788212861
 31
0.0
 11
170.0726532632492
 21
14.26352788212861
 31
0.0
 11
170.1048916391629
 21
14.20119204881086
 31
0.0
 11
170.1465954835851
 21
14.13795663215997
 31
0.0
  0
LWPOLYLINE
  5
B5
102
{ACAD_REACTORS
330
C2
102
}
330
48
100
AcDbEntity
  8
_U_30EC_U_30A4_U_30E4_U_30FC_1
  6
Continuous
 62
     2
100
AcDbPolyline
 90
        5
 70
     1
 43
0.0
 10
192.4578138032671
 20
15.39722336795627
 10
192.4578138032671
 20
15.22875434022059
 10
191.1602971697031
 20
15.22875434022059
 10
191.1602971697031
 20
15.39722336795627
 10
192.4578138032671
 20
15.39722336795627
  0
MTEXT
  5
B7
330
48
100
AcDbEntity
  8
1
 62
     2
100
AcDbMText
 10
32.50000000000003
 20
282.0000000000003
 30
0.0
 40
5.0
 41
0.0
 71
     5
 72
     1
  1
図番
  7
CONVERTER_11
 73
     1
 44
0.45454545454545
  0
MTEXT
  5
B8
330
48
100
AcDbEntity
  8
1
 62
     2
100
AcDbMText
 10
29.00000000000003
 20
34.00000000000003
 30
0.0
 40
3.5
 41
0.0
 71
     5
 72
     1
  1
備考
  7
CONVERTER_11
 73
     1
 44
0.45454545454545
  0
MTEXT
  5
B9
330
48
100
AcDbEntity
  8
1
 62
     2
100
AcDbMText
 10
29.00000000000003
 20
22.75000000000003
 30
0.0
 40
3.5
 41
0.0
 71
     5
 72
     1
  1
品名
  7
CONVERTER_11
 73
     1
 44
0.72727272727273
  0
MTEXT
  5
BA
330
48
100
AcDbEntity
  8
1
 62
     2
100
AcDbMText
 10
29.00000000000003
 20
14.25000000000003
 30
0.0
 40
3.5
 41
0.0
 71
     5
 72
     1
  1
品番
  7
CONVERTER_11
 73
     1
 44
0.72727272727273
  0
MTEXT
  5
BB
330
48
100
AcDbEntity
  8
1
 62
     2
100
AcDbMText
 10
101.5
 20
25.00000000000004
 30
0.0
 40
3.0
 41
0.0
 71
     5
 72
     1
  1
承認
  7
CONVERTER_11
 73
     1
 44
0.59090909090909
  0
MTEXT
  5
BC
330
48
100
AcDbEntity
  8
1
 62
     2
100
AcDbMText
 10
175.0
 20
23.50000000000004
 30
0.0
 40
3.5
 41
0.0
 71
     5
 72
     1
  1
第三角法
  7
CONVERTER_11
 73
     1
 44
0.54545454545455
  0
MTEXT
  5
BD
330
48
100
AcDbEntity
  8
1
 62
     2
100
AcDbMText
 10
118.5
 20
25.00000000000004
 30
0.0
 40
3.0
 41
0.0
 71
     5
 72
     1
  1
検図
  7
CONVERTER_11
 73
     1
 44
0.59090909090909
  0
MTEXT
  5
BE
330
48
100
AcDbEntity
  8
1
 62
     2
100
AcDbMText
 10
152.5
 20
25.00000000000004
 30
0.0
 40
3.0
 41
0.0
 71
     5
 72
     1
  1
設計
  7
CONVERTER_11
 73
     1
 44
0.59090909090909
  0
MTEXT
  5
BF
330
48
100
AcDbEntity
  8
1
 62
     2
100
AcDbMText
 10
135.5
 20
25.00000000000004
 30
0.0
 40
3.0
 41
0.0
 71
     5
 72
     1
  1
製図
  7
CONVERTER_11
 73
     1
 44
0.59090909090909
  0
MTEXT
  5
C0
330
48
100
AcDbEntity
  8
1
 62
     2
100
AcDbMText
 10
89.50000000000003
 20
24.00000000000004
 30
0.0
 40
3.5
 41
0.0
 71
     5
 72
     1
  1
尺度
  7
CONVERTER_11
 73
     1
 44
0.54545454545455
  0
MTEXT
  5
C1
330
48
100
AcDbEntity
  8
1
 62
   250
100
AcDbMText
 10
25.00000000000003
 20
5.00000000000003
 30
0.0
 40
3.5
 41
0.0
 71
     4
 72
     1
  1
備考欄の文字列 原点位置=4
  7
CONVERTER_11
 73
     1
 44
0.54545454545455
  0
HATCH
  5
C2
330
48
100
AcDbEntity
  8
1
  6
Continuous
 62
     2
100
AcDbHatch
 10
0.0
 20
0.0
 30
0.0
210
0.0
220
0.0
230
1.0
  2
CUSTOM0
 70
     0
 71
     1
 91
        1
 92
        1
 93
        4
 72
     1
 10
192.4578138032671
 20
15.39722336795627
 11
192.4578138032671
 21
15.22875434022059
 72
     1
 10
192.4578138032671
 20
15.22875434022059
 11
191.1602971697031
 21
15.22875434022059
 72
     1
 10
191.1602971697031
 20
15.22875434022059
 11
191.1602971697031
 21
15.39722336795627
 72
     1
 10
191.1602971697031
 20
15.39722336795627
 11
192.4578138032671
 21
15.39722336795627
 97
        1
330
B5
 75
     1
 76
     2
 52
45.0
 41
0.1
 77
     0
 78
     1
 53
45.0
 43
0.0
 44
0.0
 45
-0.282842712474619
 46
0.0
 79
     0
 98
        1
 10
0.0
 20
0.0
  0
HATCH
  5
C3
330
48
100
AcDbEntity
  8
1
  6
Continuous
 62
     2
100
AcDbHatch
 10
0.0
 20
0.0
 30
0.0
210
0.0
220
0.0
230
1.0
  2
CUSTOM1
 70
     0
 71
     1
 91
        1
 92
        1
 93
        3
 72
     4
 94
        3
 73
     0
 74
     0
 95
       24
 96
       20
 40
0.0
 40
0.0
 40
0.0
 40
0.0
 40
0.2211075008753917
 40
0.4273218586245225
 40
0.5080174679239201
 40
0.5914835907870066
 40
0.8143265690192566
 40
1.054651302686572
 40
1.295452694023164
 40
1.51810923132882
 40
1.540864321905435
 40
1.595126460622695
 40
1.659890947896009
 40
1.714153085187367
 40
1.736908174961667
 40
1.764951100735357
 40
1.801562291220947
 40
1.953914424543638
 40
2.1261041673797
 40
2.1261041673797
 40
2.1261041673797
 40
2.1261041673797
 10
185.9375369556889
 20
15.58989295113018
 10
185.9112579081811
 20
15.53097628234376
 10
185.8604698894426
 20
15.41711139679261
 10
185.8131784839111
 20
15.14441958233119
 10
185.7043482802618
 20
15.24445482575457
 10
185.5514800279637
 20
15.27118593367332
 10
185.7686155181199
 20
15.48518135017634
 10
185.7838483674381
 20
15.70332117782489
 10
185.8906889492
 20
15.88451579066428
 10
185.8305380947078
 20
16.16913226311407
 10
185.9334317395402
 20
16.14114089222453
 10
185.977993346815
 20
16.13243251602304
 10
186.0380842395397
 20
16.12139654183358
 10
186.0756619587437
 20
16.10767523055563
 10
186.1252466928606
 20
16.10756076160225
 10
186.0930158919325
 20
16.07306592398626
 10
186.0171802221882
 20
16.08404104537967
 10
186.0429447159692
 20
15.89858969582454
 10
186.005589676385
 20
15.80702313549593
 10
185.9857704961609
 20
15.75844135397708
 72
     4
 94
        3
 73
     0
 74
     0
 95
       70
 96
       66
 40
0.0
 40
0.0
 40
0.0
 40
0.0
 40
0.0241731073021472
 40
0.0846058988987013
 40
0.1631685280353284
 40
0.2417311571789756
 40
0.3021639488292751
 40
0.3263370654895541
 40
0.3533118254248881
 40
0.4228783438922111
 40
0.5179999095313402
 40
0.6216398239466084
 40
0.7167613891499688
 40
0.7863279069649846
 40
0.8133026791761818
 40
0.8372943998771656
 40
0.8945054261372849
 40
0.9627895541962619
 40
1.020000580349072
 40
1.04399230097517
 40
1.071934345522903
 40
1.113121768772916
 40
1.14522519933224
 40
1.225483775412775
 40
1.329819923771484
 40
1.434156071994374
 40
1.514414647795793
 40
1.546518078208401
 40
1.578974764260175
 40
1.66267884931417
 40
1.77713137366839
 40
1.901833377474781
 40
2.016285900500571
 40
2.099989982527938
 40
2.132446666570297
 40
2.158782354486021
 40
2.216720867907809
 40
2.274659381334232
 40
2.300995069256166
 40
2.333451754066139
 40
2.417155836543819
 40
2.531608358985259
 40
2.656310362283754
 40
2.770762886388886
 40
2.854466971340051
 40
2.886923657363858
 40
2.913597976833292
 40
2.982389642875096
 40
3.076451716946965
 40
3.178937260458579
 40
3.272999334739986
 40
3.341791001059209
 40
3.368465320663522
 40
3.396976080738743
 40
3.472140811845979
 40
3.578408190308669
 40
3.700226892456077
 40
3.822045594634294
 40
3.928312973256372
 40
4.003477705314741
 40
4.031988456866807
 40
4.058324144797605
 40
4.116262658236766
 40
4.174201171400566
 40
4.200536849608498
 40
4.200536849608498
 40
4.200536849608498
 40
4.200536849608498
 10
185.9857704961609
 20
15.75844135397708
 10
185.9938259544679
 20
15.75844359811689
 10
186.0220200663241
 20
15.758451460328
 10
186.0765534803672
 20
15.75830754828375
 10
186.1482891808604
 20
15.75909120499901
 10
186.2236240137062
 20
15.75627570463814
 10
186.2713052366438
 20
15.7629840340096
 10
186.3195071245616
 20
15.75197563692436
 10
186.3062571799873
 20
15.80546402997036
 10
186.3151093964539
 20
15.86049583543095
 10
186.3108698036286
 20
15.95419908726112
 10
186.313348348128
 20
16.04959482218535
 10
186.309093870606
 20
16.1435682198339
 10
186.3179818665846
 20
16.19795062438015
 10
186.3046977409946
 20
16.25233997691463
 10
186.3514119277108
 20
16.2384221633536
 10
186.3943254545737
 20
16.24103877374047
 10
186.4605443456685
 20
16.23648422450758
 10
186.5013342271798
 20
16.22778162134165
 10
186.5525145690819
 20
16.23531799890198
 10
186.52537204872
 20
16.19349970223288
 10
186.4803096055707
 20
16.202849920726
 10
186.4942065045051
 20
16.1384120737184
 10
186.4858414431653
 20
16.07378219627402
 10
186.4903632178398
 20
15.9752914119389
 10
186.4854741311167
 20
15.87595932842573
 10
186.4950258992082
 20
15.81293115552972
 10
186.47997614552
 20
15.74964011499792
 10
186.5449159457208
 20
15.76515072944272
 10
186.6116246399496
 20
15.75499387697815
 10
186.7241435470828
 20
15.7598880009937
 10
186.8390235448954
 20
15.75691204732787
 10
186.9519871999747
 20
15.76221664184994
 10
187.0176267597678
 20
15.75107306472092
 10
187.0816276691053
 20
15.7674453231986
 10
187.070314288919
 20
15.71761689905279
 10
187.0775339871509
 20
15.67416715212125
 10
187.0703142611269
 20
15.63071745587448
 10
187.0816277175994
 20
15.5808889519688
 10
187.0176263598971
 20
15.59726166091365
 10
186.951992124046
 20
15.58611271661592
 10
186.838997431733
 20
15.59144857206856
 10
186.7242456548644
 20
15.58834345663825
 10
186.611318368686
 20
15.59364894682591
 10
186.5455220903585
 20
15.58257300019597
 10
186.4816097975358
 20
15.5988759784762
 10
186.4936015165126
 20
15.54423524395745
 10
186.4862104613006
 20
15.48854295047845
 10
186.4892684841983
 20
15.39649689140572
 10
186.4893422785683
 20
15.30179109873104
 10
186.4860313578359
 20
15.20952782902267
 10
186.4939505989904
 20
15.15435768736142
 10
186.4815076611617
 20
15.10058169100138
 10
186.5389116551631
 20
15.11453768862782
 10
186.5994708140382
 20
15.10511457884229
 10
186.7048680855081
 20
15.10942885928706
 10
186.8204294070622
 20
15.10835504612033
 10
186.9359688877796
 20
15.10725965900997
 10
187.041418113084
 20
15.11162525770635
 10
187.1018680471803
 20
15.10209426030672
 10
187.1592837739109
 20
15.11617289606382
 10
187.1477773876708
 20
15.06707153265684
 10
187.1537566781748
 20
15.02564658018651
 10
187.1520311050801
 20
14.97651677966697
 10
187.1521500122971
 20
14.9485442844761
 10
187.1521871691832
 20
14.93980288195952
 72
     4
 94
        3
 73
     0
 74
     0
 95
       62
 96
       58
 40
0.0
 40
0.0
 40
0.0
 40
0.0
 40
0.0598250028308769
 40
0.2024846486897331
 40
0.3727558389220746
 40
0.515415484793607
 40
0.5752404975785339
 40
0.9332326775487186
 40
1.290451762839487
 40
1.602077253145929
 40
1.699931634112205
 40
1.799359756425103
 40
2.270120149657176
 40
2.804661928461602
 40
2.882342287383315
 40
3.076543185719162
 40
3.329004354835622
 40
3.581465524568445
 40
3.775666424543727
 40
3.853346784558347
 40
3.899120679595093
 40
3.984129341792091
 40
4.029903236817439
 40
4.105797496059596
 40
4.295533144152555
 40
4.542189486611797
 40
4.788845828875745
 40
4.978581476410131
 40
5.054475735244372
 40
5.62173466433942
 40
6.130867242037391
 40
6.225249780948652
 40
6.318913039727381
 40
6.66357995455903
 40
7.047498900224896
 40
7.435230791575796
 40
7.498943906668179
 40
7.650875181210173
 40
7.832212509001627
 40
7.984143783697013
 40
8.04785689890314
 40
8.091554632732645
 40
8.172707566964302
 40
8.216405300768026
 40
8.28902178216091
 40
8.462184160757284
 40
8.668861838005364
 40
8.842024215263956
 40
8.914640695475152
 40
8.98988158086136
 40
9.15541152882727
 40
9.320941477744057
 40
9.39618235248731
 40
9.454709011143857
 40
9.583467660170792
 40
9.71222630901307
 40
9.770752957989524
 40
9.770752957989524
 40
9.770752957989524
 40
9.770752957989524
 10
187.1521871691832
 20
14.93980288195952
 10
187.1322348171622
 20
14.93980875568674
 10
187.0647037716465
 20
14.9398286380616
 10
186.9410612161787
 20
14.93949362520327
 10
186.7863180150056
 20
14.94107673750514
 10
186.6697349482478
 20
14.93686078860497
 10
186.455094263424
 20
14.95215205331628
 10
186.8518948407227
 20
14.59198721286193
 10
186.8945656069266
 20
14.37510503397169
 10
187.3189162146612
 20
14.19325062511448
 10
187.1439821496073
 20
14.08985196568077
 10
187.0194523925085
 20
13.87831523212724
 10
186.7666277235942
 20
14.34806081001561
 10
186.4797602893626
 20
14.99511516984522
 10
186.490633592666
 20
14.68782672154697
 10
186.488289277796
 20
14.5228861697178
 10
186.4861096126411
 20
14.28879670711696
 10
186.4980774396346
 20
14.04498072421786
 10
186.4687984740631
 20
13.89855796860988
 10
186.511452262547
 20
13.75113490174541
 10
186.423981400564
 20
13.76685797306224
 10
186.3768527606744
 20
13.76694303543457
 10
186.2898973207713
 20
13.75109425482912
 10
186.3313474021722
 20
13.89527771422765
 10
186.3029875004285
 20
14.03855052698458
 10
186.31459737753
 20
14.27674947365268
 10
186.3124175648272
 20
14.50517235240349
 10
186.3103111127993
 20
14.66705729375997
 10
186.3208035438324
 20
14.98153709333756
 10
186.0128963252891
 20
14.29229470872443
 10
185.7055258267457
 20
13.81476750243058
 10
185.5851367066274
 20
14.03741112637431
 10
185.407460791072
 20
14.15011034955564
 10
185.8853326362894
 20
14.32548143465466
 10
185.9353959057208
 20
14.56091929252029
 10
186.3583799621715
 20
14.95322989344609
 10
186.127675427354
 20
14.93655307029068
 10
186.004968585934
 20
14.94269518948773
 10
185.8325483095661
 20
14.93312822699576
 10
185.7213224694449
 20
14.95448818489668
 10
185.6025779627448
 20
14.92136265357422
 10
185.6183169706686
 20
15.00203900606886
 10
185.6178550933762
 20
15.04645414290856
 10
185.6027881889931
 20
15.12967081778535
 10
185.7372380935443
 20
15.09062651983885
 10
185.8619755545747
 20
15.11739729328424
 10
186.0628755237279
 20
15.10063949044054
 10
186.1921540949353
 20
15.12204225913006
 10
186.3328419928294
 20
15.08868778853422
 10
186.2980927452614
 20
15.2265187578507
 10
186.3222185666713
 20
15.34963257349484
 10
186.2967086182392
 20
15.47024055670338
 10
186.3333251146685
 20
15.60539865141498
 10
186.2211417027769
 20
15.58094545781893
 10
186.1280356457136
 20
15.59307749842026
 10
186.0191547579819
 20
15.58957630069996
 10
185.9569697640964
 20
15.58981755951606
 10
185.9375369557246
 20
15.58989295124147
 97
        3
330
A6
330
A4
330
A5
 75
     1
 76
     2
 52
45.0
 41
0.1
 77
     0
 78
     1
 53
45.0
 43
0.0
 44
0.0
 45
-0.282842712474619
 46
0.0
 79
     0
 98
        1
 10
0.0
 20
0.0
  0
HATCH
  5
C4
330
48
100
AcDbEntity
  8
1
  6
Continuous
 62
     2
100
AcDbHatch
 10
0.0
 20
0.0
 30
0.0
210
0.0
220
0.0
230
1.0
  2
CUSTOM2
 70
     0
 71
     1
 91
        1
 92
        1
 93
        1
 72
     4
 94
        3
 73
     0
 74
     0
 95
      124
 96
      120
 40
0.0
 40
0.0
 40
0.0
 40
0.0
 40
0.027818722962451
 40
0.1011590162384269
 40
0.2048470170590239
 40
0.3237088716559245
 40
0.4425707262522
 40
0.5462587270699547
 40
0.6195990203311798
 40
0.647417752257866
 40
0.6750060736115242
 40
0.7357003855242759
 40
0.7963946998054456
 40
0.8239830245571766
 40
0.854093381110286
 40
0.937339662940954
 40
1.063094687343235
 40
1.220731268638073
 40
1.399622220914748
 40
1.589140358637732
 40
1.778658496423898
 40
1.957549448940509
 40
2.115186030873159
 40
2.240941056914463
 40
2.324187341760532
 40
2.354297700109382
 40
2.38188602467189
 40
2.442580338710475
 40
2.503274652750497
 40
2.530862977314606
 40
2.560983949278559
 40
2.640393784452905
 40
2.752662861759128
 40
2.881361560118145
 40
3.010060258455192
 40
3.122329335705339
 40
3.201739170817953
 40
3.231860142753313
 40
3.26429802403037
 40
3.352343701778239
 40
3.482095226868762
 40
3.639650650173018
 40
3.811108022565473
 40
3.982565394927978
 40
4.140120818152558
 40
4.269872343141267
 40
4.357918020802328
 40
4.390355902043956
 40
4.423256253992526
 40
4.508104530073047
 40
4.624121560636815
 40
4.750528176031572
 40
4.866545206602019
 40
4.951393482691976
 40
4.984293834645377
 40
5.011450833242294
 40
5.071196230152077
 40
5.130941627057154
 40
5.15809862564882
 40
5.19099897760151
 40
5.275847253689336
 40
5.39186428425677
 40
5.518270899648315
 40
5.634287930209354
 40
5.719136206288028
 40
5.752036558235916
 40
5.782130946282941
 40
5.862783906229114
 40
5.979550131774986
 40
6.117984316640391
 40
6.263641154587938
 40
6.402075339414144
 40
6.51884156490794
 40
6.599494524815525
 40
6.629588912848763
 40
6.654403028226311
 40
6.713575149488078
 40
6.784199939329397
 40
6.843372060493413
 40
6.868186175802659
 40
6.89624624320169
 40
6.93958623375806
 40
6.967846564564692
 40
7.043584251089626
 40
7.153234334451486
 40
7.283231855734236
 40
7.420011856035268
 40
7.550009376579622
 40
7.659659458835023
 40
7.735397144417016
 40
7.763657474851186
 40
7.796409728010843
 40
7.880876065096118
 40
7.996370852465503
 40
8.122208446418398
 40
8.237703224798992
 40
8.322169562010686
 40
8.3549218152057
 40
8.382078813307482
 40
8.441824209206786
 40
8.501569605239936
 40
8.528726603485515
 40
8.561478856695564
 40
8.645945193877614
 40
8.761439980865125
 40
8.887277580764268
 40
9.002772362000789
 40
9.087238696661009
 40
9.119990949235463
 40
9.152428830613163
 40
9.240474508638377
 40
9.370226034149326
 40
9.527781457984206
 40
9.699238830981196
 40
9.870696203978383
 40
10.0282516278138
 40
10.15800315332542
 40
10.24604883135097
 40
10.27848670378499
 40
10.27848670378499
 40
10.27848670378499
 40
10.27848670378499
 10
195.3821827564383
 20
14.0141051738576
 10
195.3914554737523
 20
14.01410498511277
 10
195.4251744536861
 20
14.01410430876717
 10
195.4934706812465
 20
14.01411807243307
 10
195.592014171158
 20
14.01403224219548
 10
195.7062066464812
 20
14.01441755612253
 10
195.818589441707
 20
14.01300835897548
 10
195.9214376600118
 20
14.01719117422245
 10
195.9806839874849
 20
14.00823089251985
 10
196.0371265937033
 20
14.02164434526064
 10
196.0246255586954
 20
13.97087198613364
 10
196.0329549635703
 20
13.9258932093907
 10
196.024817084112
 20
13.88056752990491
 10
196.0370529214457
 20
13.82931932408469
 10
195.9747773490333
 20
13.84447955365279
 10
195.9060513026868
 20
13.83359750710746
 10
195.7782756749592
 20
13.83911304747975
 10
195.6262984511643
 20
13.83700851253701
 10
195.4502695972523
 20
13.83771002588476
 10
195.2644431934287
 20
13.83745237531295
 10
195.0786167437175
 20
13.83771005144606
 10
194.9025880142168
 20
13.83700841847734
 10
194.7506104154195
 20
13.83911332229992
 10
194.6228357664554
 20
13.83359680767643
 10
194.5541077836581
 20
13.84448077125945
 10
194.4918349042883
 20
13.82931786684212
 10
194.5040616290017
 20
13.88057510805175
 10
194.4960004462597
 20
13.92582473272428
 10
194.5040675809893
 20
13.97106357955326
 10
194.4918238487083
 20
14.02234176909961
 10
194.5525017120697
 20
14.00749577363138
 10
194.6162810745736
 20
14.01756448170738
 10
194.7277314353502
 20
14.01294644212002
 10
194.8497533443824
 20
14.01413328905472
 10
194.9719538137823
 20
14.01515863900637
 10
195.0829794287392
 20
14.01092475623404
 10
195.1476517413958
 20
14.02018584521742
 10
195.2091162810501
 20
14.00604423049685
 10
195.1930065601337
 20
14.0723552788452
 10
195.2042980327359
 20
14.14447790121979
 10
195.1987400822561
 20
14.27513760888289
 10
195.200803506169
 20
14.42607323708243
 10
195.2000167127295
 20
14.59335873107888
 10
195.2007845215628
 20
14.76061110332305
 10
195.1988038785627
 20
14.91163289269916
 10
195.2041306156621
 20
15.04206069552997
 10
195.1933101388425
 20
15.11465442605901
 10
195.2090326429875
 20
15.181504694368
 10
195.143270813249
 20
15.16580512490826
 10
195.0756367830764
 20
15.17609243083997
 10
194.9615885293809
 20
15.17113786847124
 10
194.8451242674902
 20
15.17414128030476
 10
194.7306554121477
 20
15.16880303143391
 10
194.6640324657812
 20
15.18001268074827
 10
194.5990769715185
 20
15.16349132665013
 10
194.6107989758708
 20
15.21473720477061
 10
194.6032830189121
 20
15.25950333784092
 10
194.6107989878835
 20
15.30426944897963
 10
194.5990769505347
 20
15.35551536129743
 10
194.66403263392
 20
15.33899381766817
 10
194.7306533339821
 20
15.35020571373946
 10
194.8451352858063
 20
15.34485436710666
 10
194.9615454436962
 20
15.3479118877112
 10
195.0757660174641
 20
15.3427849901071
 10
195.1430150439227
 20
15.353457333556
 10
195.2083325941438
 20
15.33742082669079
 10
195.1941391448553
 20
15.39949685750056
 10
195.2036059462994
 20
15.46586761628765
 10
195.1990269004085
 20
15.58239972741968
 10
195.2007696555948
 20
15.71426685022378
 10
195.1997551495391
 20
15.85615960150275
 10
195.2017191344373
 20
15.98769050702582
 10
195.1964668553851
 20
16.10524577283005
 10
195.2073408763474
 20
16.16947789001586
 10
195.1919536641853
 20
16.23108802545049
 10
195.2407591537801
 20
16.21702407382114
 10
195.2853995564725
 20
16.21954742075317
 10
195.3538643946741
 20
16.21512797401712
 10
195.3959106169101
 20
16.20613025544036
 10
195.4487544758774
 20
16.21411714866513
 10
195.4207035002013
 20
16.17113917611674
 10
195.3749142248594
 20
16.18259552043838
 10
195.3869539073265
 20
16.12173520005139
 10
195.3796086070641
 20
16.05769299468776
 10
195.3831195826161
 20
15.94909368863912
 10
195.3819806760173
 20
15.82494319144755
 10
195.3819174780262
 20
15.69189719829879
 10
195.3832872966868
 20
15.56797381249557
 10
195.3791638801313
 20
15.4586833784934
 10
195.3877763103564
 20
15.39608580094172
 10
195.3746757454402
 20
15.33740133296367
 10
195.4393884328198
 20
15.35362113810904
 10
195.5060405953156
 20
15.34270260383313
 10
195.6198779541102
 20
15.34793740173757
 10
195.7357259122097
 20
15.34485547516916
 10
195.849692426328
 20
15.35018259812513
 10
195.9160341018099
 20
15.33904208166545
 10
195.980718852548
 20
15.3554697959318
 10
195.9689820772722
 20
15.30425925210052
 10
195.9765168063041
 20
15.25950334121003
 10
195.9689820992257
 20
15.21474739010029
 10
195.9807188140737
 20
15.16353690871042
 10
195.9160344075252
 20
15.17996427794222
 10
195.8496886430824
 20
15.16882784447271
 10
195.7357459487012
 20
15.17413115893122
 10
195.6197995623054
 20
15.17114764593546
 10
195.5062756882122
 20
15.17606892268395
 10
195.4389231318804
 20
15.16585087513521
 10
195.3734285122495
 20
15.18145996138817
 10
195.3891713619218
 20
15.11463851827413
 10
195.3783275998213
 20
15.04207057815881
 10
195.3836581629793
 20
14.91162247614419
 10
195.3817136151854
 20
14.76064558185228
 10
195.3823133683214
 20
14.59322243934161
 10
195.3821506559604
 20
14.42656176118374
 10
195.3821895488136
 20
14.27360142921639
 10
195.3821816413098
 20
14.14849178985707
 10
195.3821828382746
 20
14.06507890991423
 10
195.3821827716207
 20
14.02491778281978
 10
195.3821827564383
 20
14.0141051738576
 97
        1
330
A7
 75
     1
 76
     2
 52
45.0
 41
0.1
 77
     0
 78
     1
 53
45.0
 43
0.0
 44
0.0
 45
-0.282842712474619
 46
0.0
 79
     0
 98
        1
 10
0.0
 20
0.0
  0
HATCH
  5
C5
330
48
100
AcDbEntity
  8
1
  6
Continuous
 62
     2
100
AcDbHatch
 10
0.0
 20
0.0
 30
0.0
210
0.0
220
0.0
230
1.0
  2
CUSTOM3
 70
     0
 71
     1
 91
        1
 92
        1
 93
        1
 72
     4
 94
        3
 73
     0
 74
     0
 95
      131
 96
      127
 40
0.0
 40
0.0
 40
0.0
 40
0.0
 40
0.0195577029826274
 40
0.0426490537462117
 40
0.2863607575857053
 40
0.5344948436189763
 40
0.7842238845573352
 40
0.8737315789467517
 40
0.9803832810312791
 40
1.092842274517024
 40
1.199761146656761
 40
1.289788768186487
 40
1.351573580786201
 40
1.370727117561443
 40
1.41640093601786
 40
1.470914848356018
 40
1.516588666791813
 40
1.535742203552911
 40
1.634216592293219
 40
1.760283341175035
 40
1.897966686682099
 40
2.031216387368919
 40
2.049689751137915
 40
2.101115601646849
 40
2.179502577739967
 40
2.278859318314081
 40
2.393194462258735
 40
2.516516648383847
 40
2.642834515405974
 40
2.766156701983478
 40
2.880491846754589
 40
2.979848588358631
 40
3.058235565443807
 40
3.109661416668959
 40
3.128134780704137
 40
3.146783742386482
 40
3.191254343315343
 40
3.24433215731603
 40
3.288802758225962
 40
3.307451719895233
 40
3.327717853844845
 40
3.383747753580205
 40
3.468388665924599
 40
3.574487837698903
 40
3.694892515729009
 40
3.822449946852147
 40
3.950007377920536
 40
4.070412055800627
 40
4.176511227368183
 40
4.261152139501631
 40
4.317182039076823
 40
4.337448172964743
 40
4.62001100269632
 40
4.885096638397543
 40
4.945373043518385
 40
5.014107710488696
 40
5.070481727652056
 40
5.31924695563658
 40
5.584812164506051
 40
5.859000912056904
 40
6.133746937542084
 40
6.40173221296889
 40
6.42073668399548
 40
6.472845717451131
 40
6.550702743894059
 40
6.646951193874267
 40
6.754234497930648
 40
6.865196086587398
 40
6.972479390357913
 40
7.068727839772047
 40
7.146584865451084
 40
7.198693898189314
 40
7.217698368905454
 40
7.234950401630933
 40
7.276089864269979
 40
7.325191803516093
 40
7.36633126609048
 40
7.383583298769834
 40
7.402779163492211
 40
7.453386443254614
 40
7.524934666445644
 40
7.606953361405955
 40
7.688972056429106
 40
7.760520279784357
 40
7.811127559734599
 40
7.83032342454622
 40
7.847844055299849
 40
7.894799345666891
 40
7.962779392744579
 40
8.043374293560628
 40
8.128174145149535
 40
8.208769044817336
 40
8.27674909037704
 40
8.323704379669602
 40
8.341225010056332
 40
8.358497614800509
 40
8.401679126686714
 40
8.4578150921858
 40
8.513951057728262
 40
8.557132569708218
 40
8.57440517450526
 40
8.602340668616653
 40
8.643455660540141
 40
8.663225271966809
 40
8.715345156564453
 40
8.789031889628792
 40
8.87350204552052
 40
8.957972194324144
 40
9.031658925568035
 40
9.083778811234723
 40
9.103548423003186
 40
9.119550083123723
 40
9.160817522380025
 40
9.21724442911039
 40
9.278724491644876
 40
9.335151398295661
 40
9.376418837357956
 40
9.392420497300744
 40
9.401196302734963
 40
9.417494229384438
 40
9.42627002774971
 40
9.440875075477743
 40
9.475702496998926
 40
9.51727070986609
 40
9.55209813199426
 40
9.56670316988447
 40
9.56670316988447
 40
9.56670316988447
 40
9.56670316988447
 10
194.6170254148479
 20
15.67015871511029
 10
194.6134345093371
 20
15.66453690702161
 10
194.6056039123624
 20
15.65227754419113
 10
194.5129968974548
 20
15.61601916040986
 10
194.4887622233245
 20
15.40148444212711
 10
194.3858709845938
 20
15.22197284509713
 10
194.1220492364305
 20
15.03615573798146
 10
194.284547156918
 20
14.95959336566084
 10
194.3607225760838
 20
14.89856693195443
 10
194.4492171072758
 20
14.83515804544763
 10
194.5389930233111
 20
14.77525634219561
 10
194.5883817636045
 20
14.7210215484921
 10
194.6745708157382
 20
14.69286240541836
 10
194.6411260674229
 20
14.65713309652816
 10
194.621467116631
 20
14.62550387991907
 10
194.5919888217882
 20
14.58475872796074
 10
194.568898944603
 20
14.55504663489644
 10
194.5380205968357
 20
14.502114226685
 10
194.4729193365739
 20
14.62740334938903
 10
194.3796000122416
 20
14.68213900233937
 10
194.2950636285139
 20
14.73916423939345
 10
194.1722498125741
 20
14.89675287427524
 10
194.1764450847301
 20
14.82035806766838
 10
194.1751478652677
 20
14.77361280161298
 10
194.1758126448076
 20
14.69584785812603
 10
194.1755549986956
 20
14.59902068324425
 10
194.1756431239922
 20
14.48650279078811
 10
194.1756077302281
 20
14.36524085945702
 10
194.1756511758279
 20
14.24086897858964
 10
194.1755199942406
 20
14.11967683631339
 10
194.1759477562046
 20
14.00691148919746
 10
194.174667820231
 20
13.91082913768746
 10
194.1779759851044
 20
13.83113826468703
 10
194.1715197740085
 20
13.78815175788786
 10
194.1806208705556
 20
13.74955432372045
 10
194.1447910339934
 20
13.75810887724074
 10
194.1115223815252
 20
13.7534251998545
 10
194.060456257604
 20
13.75351298759787
 10
194.0269723972812
 20
13.75794430283824
 10
193.9907585408753
 20
13.74960793842512
 10
194.0009782568664
 20
13.79145277179287
 10
193.9936487887771
 20
13.83778560820176
 10
193.9973633136102
 20
13.92374831106018
 10
193.9959480554894
 20
14.02605142704852
 10
193.9964105554637
 20
14.14453223931515
 10
193.9962773686229
 20
14.26957683153359
 10
193.9963015910043
 20
14.39475828107052
 10
193.9963354925551
 20
14.51286645379061
 10
193.9962060293131
 20
14.61628748709519
 10
193.996550754908
 20
14.6993203615367
 10
193.9958698278689
 20
14.75143368521246
 10
193.999458660062
 20
14.87912907821363
 10
193.7826171386437
 20
14.58048716819621
 10
193.6021354921951
 20
14.35263981511522
 10
193.5490322295611
 20
14.49373443289815
 10
193.5200429133148
 20
14.54325767560944
 10
193.4196648062821
 20
14.64641779790113
 10
193.740512772326
 20
14.72695035023778
 10
193.868989700543
 20
14.91066283036437
 10
194.0906454325359
 20
15.11931995771764
 10
194.1770224894069
 20
15.29339211228345
 10
194.4549394229073
 20
15.56967051342514
 10
194.3346247839284
 20
15.56534559551116
 10
194.2863197351348
 20
15.56614856202555
 10
194.2102377454905
 20
15.56574582146586
 10
194.116701000975
 20
15.56590275611611
 10
194.0117594788556
 20
15.56582502576226
 10
193.9033887738718
 20
15.56595464378556
 10
193.7981454235896
 20
15.56554393490693
 10
193.7056237819411
 20
15.56682073671593
 10
193.6268130800707
 20
15.56340766534852
 10
193.5839674565378
 20
15.57023350036322
 10
193.5449499586514
 20
15.56065064201126
 10
193.5526365271863
 20
15.59420779565544
 10
193.548546440431
 20
15.62523550322235
 10
193.5485531368814
 20
15.67236529270903
 10
193.552623972491
 20
15.70340941646781
 10
193.5449495574582
 20
15.73701861635904
 10
193.5834819405493
 20
15.72748410420875
 10
193.6241228014479
 20
15.73397435498074
 10
193.6951471850462
 20
15.73100150650258
 10
193.7729318149632
 20
15.7317476139916
 10
193.8507292246474
 20
15.73247814044529
 10
193.9217232089906
 20
15.72954235514163
 10
193.9624279791819
 20
15.73595468772955
 10
194.0009853489908
 20
15.72650524176007
 10
193.9927342754926
 20
15.76264692158788
 10
193.9982346669357
 20
15.8012983761323
 10
193.9955754206161
 20
15.86913528561842
 10
193.9965815471532
 20
15.94591641538743
 10
193.9960178018318
 20
16.0284939358276
 10
193.9970714526591
 20
16.10517329229881
 10
193.9942675863129
 20
16.17331990776703
 10
194.0000702721302
 20
16.21132399809349
 10
193.9915654551158
 20
16.2475844807765
 10
194.0255610233123
 20
16.23755723771855
 10
194.0594575683098
 20
16.24073266813709
 10
194.1126669060346
 20
16.23508965640612
 10
194.1660768574484
 20
16.23434774436429
 10
194.1995914649489
 20
16.22819223482984
 10
194.238808618304
 20
16.23346029773595
 10
194.2120263698491
 20
16.19253380793496
 10
194.1708111001723
 20
16.20371204538111
 10
194.1782641540874
 20
16.15867056192127
 10
194.1742227952183
 20
16.11412278028146
 10
194.1761714049641
 20
16.04223572621706
 10
194.1752364849758
 20
15.96168630588773
 10
194.176510719003
 20
15.88173995404998
 10
194.1732043793864
 20
15.80841837083185
 10
194.1802106179961
 20
15.76688643002571
 10
194.1701440380125
 20
15.72752418568115
 10
194.2029814803921
 20
15.73468063430985
 10
194.236457729648
 20
15.73027243137947
 10
194.2915053476019
 20
15.73217943347901
 10
194.3489502595314
 20
15.73185366407291
 10
194.4023026248309
 20
15.73106308733085
 10
194.4398540896639
 20
15.73313959118077
 10
194.4623172523237
 20
15.73022338167112
 10
194.4751678073731
 20
15.73572552644059
 10
194.4858255685888
 20
15.73801118197793
 10
194.4986635650144
 20
15.74494972588056
 10
194.514599103307
 20
15.72853046313674
 10
194.5410623920891
 20
15.7170912231945
 10
194.5726805253758
 20
15.69644687835194
 10
194.5987255892151
 20
15.68116869628296
 10
194.6128517723973
 20
15.67266976323186
 10
194.6170254148479
 20
15.67015871511029
 97
        1
330
A8
 75
     1
 76
     2
 52
45.0
 41
0.1
 77
     0
 78
     1
 53
45.0
 43
0.0
 44
0.0
 45
-0.282842712474619
 46
0.0
 79
     0
 98
        1
 10
0.0
 20
0.0
  0
HATCH
  5
C6
330
48
100
AcDbEntity
  8
1
  6
Continuous
 62
     2
100
AcDbHatch
 10
0.0
 20
0.0
 30
0.0
210
0.0
220
0.0
230
1.0
  2
CUSTOM4
 70
     0
 71
     1
 91
        1
 92
        1
 93
        1
 72
     4
 94
        3
 73
     0
 74
     0
 95
       91
 96
       87
 40
0.0
 40
0.0
 40
0.0
 40
0.0
 40
0.0267532254356701
 40
0.0856103386464102
 40
0.1444674521996621
 40
0.1712206856618514
 40
0.2039416005642536
 40
0.2955601971652484
 40
0.4362601844616918
 40
0.616225284450725
 40
0.8256392189704413
 40
1.054685709844382
 40
1.293548478893474
 40
1.532411247938218
 40
1.761457738799483
 40
1.970871673298451
 40
2.150836773256619
 40
2.29153676049548
 40
2.383155356836586
 40
2.415876284101206
 40
2.442629517487847
 40
2.501486630948981
 40
2.56034374442413
 40
2.587096977826401
 40
2.617068194440828
 40
2.69924733675597
 40
2.822032643466254
 40
2.973822353257783
 40
3.143014704823197
 40
3.318007936879776
 40
3.487200288186552
 40
3.63898999754809
 40
3.761775303794532
 40
3.843954445752867
 40
3.873925662229563
 40
3.890812773500272
 40
3.907699884771452
 40
3.937960767857054
 40
3.980983618142085
 40
4.199085915228236
 40
4.439444339237026
 40
4.677588241260666
 40
5.050698317837552
 40
5.448212454762937
 40
5.855291218044463
 40
6.138575438885127
 40
6.417434507583966
 40
6.44455110439365
 40
6.50420761736295
 40
6.563864130314276
 40
6.590980727103869
 40
6.848609460381274
 40
7.109611990668233
 40
7.35291090444588
 40
7.557830220705255
 40
7.587518925913174
 40
7.652834077375545
 40
7.718149228845481
 40
7.747837934061737
 40
7.854880190300807
 40
7.976511257403371
 40
8.369487896592116
 40
8.75751495922338
 40
9.126072419330814
 40
9.460639380391877
 40
9.746695593035618
 40
9.777569943118394
 40
9.807050320931493
 40
9.830377336128628
 40
9.8860032954357
 40
9.952395569429612
 40
10.00802152870596
 40
10.03134854388189
 40
10.21356951009554
 40
10.42203479292842
 40
10.66154556731034
 40
10.91693789564274
 40
11.15832906556532
 40
11.1898267459659
 40
11.27286608520371
 40
11.39026653033316
 40
11.52484752840846
 40
11.65942852648403
 40
11.77682897161441
 40
11.85986831085638
 40
11.89136598230383
 40
11.89136598230383
 40
11.89136598230383
 40
11.89136598230383
 10
190.7027885008196
 20
14.70699600701775
 10
190.7028237765288
 20
14.71587847311988
 10
190.7029366710796
 20
14.74430237047349
 10
190.7012984568489
 20
14.79409639169806
 10
190.7069750292911
 20
14.83657564478157
 10
190.6956928731706
 20
14.8873015485685
 10
190.7632296979031
 20
14.87012900740112
 10
190.83880292107
 20
14.88290227165999
 10
190.9828357056001
 20
14.87629729457384
 10
191.1569419185427
 20
14.87888462206469
 10
191.3639599611003
 20
14.87800591955556
 10
191.5894688172377
 20
14.8782820792003
 10
191.8251162293405
 20
14.87818339658665
 10
192.0607640531348
 20
14.8782818441277
 10
192.2862717580625
 20
14.87800678190792
 10
192.4932934632803
 20
14.87888186270737
 10
192.6673888915287
 20
14.8763052267845
 10
192.8114492071984
 20
14.88288290449216
 10
192.8869691915292
 20
14.87016243405607
 10
192.9545776037028
 20
14.88726400191689
 10
192.9430840140675
 20
14.83674785802944
 10
192.9505104581731
 20
14.79253252226504
 10
192.9428838927985
 20
14.74867966503613
 10
192.9546489459423
 20
14.69878374479331
 10
192.8930788491982
 20
14.71393227712515
 10
192.8256791738671
 20
14.70310665350677
 10
192.701300405622
 20
14.70852031626239
 10
192.555442823657
 20
14.70649205390788
 10
192.3893576440084
 20
14.70715777578389
 10
192.2188412621725
 20
14.70689643521245
 10
192.0519790855388
 20
14.70721553391096
 10
191.9087346827105
 20
14.70635302590765
 10
191.7773313869833
 20
14.70863300482991
 10
191.7239859134657
 20
14.70407704374204
 10
191.6485188456912
 20
14.70999914992881
 10
191.6769075779232
 20
14.70094169343355
 10
191.7033652409542
 20
14.69725912268931
 10
191.6633522907701
 20
14.66654271968277
 10
191.5713663691868
 20
14.67667591174638
 10
191.543939620707
 20
14.43032502247787
 10
191.4478793967234
 20
14.27499558764378
 10
191.1917277964474
 20
13.94525417931571
 10
191.7627537732762
 20
14.08430022210455
 10
192.0173656320516
 20
14.08291779973365
 10
192.6279647048617
 20
13.99790569242089
 10
192.3340698578083
 20
14.29685417558206
 10
192.0133304286518
 20
14.44330856901782
 10
192.1313543360433
 20
14.50025540818289
 10
192.1724716466261
 20
14.52420099873351
 10
192.2156812394411
 20
14.54599758811233
 10
192.3174574094451
 20
14.60928721253907
 10
192.4328867625247
 20
14.35147151408784
 10
192.6329591642277
 20
14.21616041113685
 10
192.7269077387228
 20
14.03792795138884
 10
192.9558829746392
 20
13.8799782102705
 10
192.8596031846708
 20
13.82915972576303
 10
192.816795976378
 20
13.79881292523054
 10
192.7718243528779
 20
13.77466130281462
 10
192.7121720925215
 20
13.72552146747566
 10
192.6789731061323
 20
13.85997475673608
 10
192.5582013350795
 20
14.01594265286583
 10
192.1970976005978
 20
13.8856992805956
 10
191.838506195554
 20
13.90224694409486
 10
191.4570920450079
 20
13.89331229351868
 10
191.1703455282891
 20
13.8288267167241
 10
190.8592055599715
 20
13.94230668192829
 10
190.8268737818788
 20
13.83122259927771
 10
190.7896178253318
 20
13.81196313850016
 10
190.7865737632754
 20
13.858747840873
 10
190.7679892860607
 20
13.89806853919138
 10
190.7512436616778
 20
13.95765983478235
 10
190.7383730915753
 20
14.00201969871286
 10
190.704232780643
 20
14.09106331120202
 10
190.9482714457753
 20
14.02181042943771
 10
191.1441394486671
 20
14.00030369057745
 10
191.2395426381277
 20
14.28226484478465
 10
191.2945135769596
 20
14.44363045421123
 10
191.5159619357156
 20
14.71391177589743
 10
191.3849239381215
 20
14.70548446853737
 10
191.3110026555853
 20
14.70779008496974
 10
191.1977459876243
 20
14.7067137832166
 10
191.0694251807484
 20
14.70707639076513
 10
190.9404252030415
 20
14.70697724466089
 10
190.8287840946291
 20
14.70699932712574
 10
190.7514663970027
 20
14.70699579189673
 10
190.713287653201
 20
14.70699595845084
 10
190.7027885008196
 20
14.70699600701775
 97
        1
330
A9
 75
     1
 76
     2
 52
45.0
 41
0.1
 77
     0
 78
     1
 53
45.0
 43
0.0
 44
0.0
 45
-0.282842712474619
 46
0.0
 79
     0
 98
        1
 10
0.0
 20
0.0
  0
HATCH
  5
C7
330
48
100
AcDbEntity
  8
1
  6
Continuous
 62
     2
100
AcDbHatch
 10
0.0
 20
0.0
 30
0.0
210
0.0
220
0.0
230
1.0
  2
CUSTOM5
 70
     0
 71
     1
 91
        1
 92
        1
 93
        1
 72
     4
 94
        3
 73
     0
 74
     0
 95
       35
 96
       31
 40
0.0
 40
0.0
 40
0.0
 40
0.0
 40
0.033523103662059
 40
0.0713218571711996
 40
0.4278866681487027
 40
0.8116865841964048
 40
1.198190238000063
 40
1.561379546812695
 40
1.659983174622075
 40
1.759315573807194
 40
2.132719617231077
 40
2.525233363588827
 40
2.910815397779694
 40
3.265244364303283
 40
3.592606723582055
 40
3.964386154604003
 40
4.359942131737826
 40
4.758154118639289
 40
4.843846538699905
 40
4.936650065543221
 40
5.256616602537304
 40
5.581707404416042
 40
5.899719158308137
 40
6.198363494280739
 40
6.466301046615769
 40
6.493895311537091
 40
6.559697020196883
 40
6.638234543442459
 40
6.704036252154211
 40
6.731630508423017
 40
6.731630508423017
 40
6.731630508423017
 40
6.731630508423017
 10
191.9736010568669
 20
16.23463843719136
 10
191.9676006097788
 20
16.22480690542325
 10
191.9548344099157
 20
16.20388988579801
 10
191.7949362006554
 20
16.17127126532691
 10
192.2322025842337
 20
15.88206680336705
 10
192.4345394828262
 20
15.6804113835844
 10
192.6819564267973
 20
15.4374938760328
 10
193.1831513624607
 20
15.36047662757776
 10
193.012556219897
 20
15.2187693917466
 10
192.9383299463201
 20
15.01710366209109
 10
192.6131432248187
 20
15.36956287174729
 10
192.3277741670664
 20
15.53175212559564
 10
192.0337604077657
 20
15.73687130053051
 10
191.8084452691134
 20
16.21827488595457
 10
191.5993085055521
 20
15.75343046609227
 10
191.3207873674833
 20
15.54350952252914
 10
191.0371383177209
 20
15.37424456359989
 10
190.7078639527831
 20
15.00142360907939
 10
190.6277012318224
 20
15.19708014459004
 10
190.4759724909743
 20
15.32491104190596
 10
190.9083395826795
 20
15.40454031765939
 10
191.0962565329765
 20
15.60026634915475
 10
191.3468477420502
 20
15.81632996916759
 10
191.5714350470162
 20
15.98190992300061
 10
191.6259775409711
 20
16.26133964636828
 10
191.7494661029011
 20
16.24737950408081
 10
191.806027334452
 20
16.2452126886765
 10
191.8761870984944
 20
16.24046859881362
 10
191.9333414022106
 20
16.23709429350544
 10
191.9644190320839
 20
16.23519854711121
 10
191.9736010568669
 20
16.23463843719136
 97
        1
330
AA
 75
     1
 76
     2
 52
45.0
 41
0.1
 77
     0
 78
     1
 53
45.0
 43
0.0
 44
0.0
 45
-0.282842712474619
 46
0.0
 79
     0
 98
        1
 10
0.0
 20
0.0
  0
HATCH
  5
C8
330
48
100
AcDbEntity
  8
1
  6
Continuous
 62
     2
100
AcDbHatch
 10
0.0
 20
0.0
 30
0.0
210
0.0
220
0.0
230
1.0
  2
CUSTOM6
 70
     0
 71
     1
 91
        1
 92
        1
 93
        1
 72
     4
 94
        3
 73
     0
 74
     0
 95
       15
 96
       11
 40
0.0
 40
0.0
 40
0.0
 40
0.0
 40
0.2785535985096574
 40
0.5215624748199509
 40
0.6076917376041558
 40
0.6938210001743123
 40
0.9405019146456495
 40
1.22169140348932
 40
1.300471877081265
 40
1.379252341685081
 40
1.379252341685081
 40
1.379252341685081
 40
1.379252341685081
 10
189.5681493630999
 20
16.22930267330384
 10
189.6296017794178
 20
16.17691646592718
 10
189.7446649974113
 20
16.07882876798223
 10
190.0397348497244
 20
15.92889785897224
 10
189.9025147631857
 20
15.84343227515016
 10
189.8041227843777
 20
15.71085785201563
 10
189.713003359065
 20
16.01616985781423
 10
189.3636839480653
 20
16.07967869465375
 10
189.511925837657
 20
16.17896509880882
 10
189.5494081874236
 20
16.21252348402385
 10
189.5681493630999
 20
16.22930267330384
 97
        1
330
AB
 75
     1
 76
     2
 52
45.0
 41
0.1
 77
     0
 78
     1
 53
45.0
 43
0.0
 44
0.0
 45
-0.282842712474619
 46
0.0
 79
     0
 98
        1
 10
0.0
 20
0.0
  0
HATCH
  5
C9
330
48
100
AcDbEntity
  8
1
  6
Continuous
 62
     2
100
AcDbHatch
 10
0.0
 20
0.0
 30
0.0
210
0.0
220
0.0
230
1.0
  2
CUSTOM7
 70
     0
 71
     1
 91
        1
 92
        1
 93
        1
 72
     4
 94
        3
 73
     0
 74
     0
 95
       75
 96
       71
 40
0.0
 40
0.0
 40
0.0
 40
0.0
 40
0.0342546099129691
 40
0.1245622414432346
 40
0.2522385480897536
 40
0.398599192294068
 40
0.5449598364980839
 40
0.6726361431438834
 40
0.7629437746736942
 40
0.7971983935297973
 40
1.101723623449662
 40
1.408591244036668
 40
1.433332471690374
 40
1.487763172450175
 40
1.54219387308201
 40
1.56693510059256
 40
1.923523931821814
 40
2.271755704953641
 40
2.590579755100884
 40
2.858943305581171
 40
2.889120339309192
 40
2.918305855191134
 40
2.941366645531256
 40
2.996357760973146
 40
3.061992318140689
 40
3.116983433626883
 40
3.140044223997562
 40
3.411273122936454
 40
3.732441619741147
 40
3.761068217532846
 40
3.837787499630406
 40
3.948858699126045
 40
4.080541049104424
 40
4.219093782625805
 40
4.350776132722357
 40
4.461847332405689
 40
4.538566614678423
 40
4.567193212544669
 40
4.594907573998928
 40
4.666381453557467
 40
4.764111044011077
 40
4.87059253812588
 40
4.968322128642331
 40
5.039796008287016
 40
5.067510369784475
 40
5.094263603185691
 40
5.153120716668331
 40
5.211977830150781
 40
5.238731063551787
 40
5.272290535139026
 40
5.363380529444887
 40
5.497618415781593
 40
5.660621563453835
 40
5.838007341749536
 40
6.015393119910888
 40
6.178396267038542
 40
6.312634151842522
 40
6.403724143059511
 40
6.437283612672607
 40
6.464036846261225
 40
6.522893960004845
 40
6.581751071484113
 40
6.608504301591061
 40
6.637253941281209
 40
6.711397748903089
 40
6.812778057283701
 40
6.923237199249478
 40
7.024617507624122
 40
7.098761315207831
 40
7.127510946007781
 40
7.127510946007781
 40
7.127510946007781
 40
7.127510946007781
 10
188.4418622390564
 20
14.95849128473266
 10
188.4418622819707
 20
14.94707313408721
 10
188.4418624481129
 20
14.90555257842631
 10
188.4418593081786
 20
14.82146922003773
 10
188.4418788279801
 20
14.7000449732233
 10
188.4417912187737
 20
14.55980494047449
 10
188.442111623523
 20
14.42006556794577
 10
188.4411605909742
 20
14.29745038894931
 10
188.4431978595967
 20
14.21587074438044
 10
188.4349433178746
 20
14.06271267077699
 10
188.74307979409
 20
14.22560236054724
 10
189.0350645173736
 20
14.39482938688007
 10
189.0408354448708
 20
14.25973235781914
 10
189.0455471719891
 20
14.21617221160446
 10
189.0482535411918
 20
14.17211249350547
 10
189.0672545672958
 20
14.02272590363137
 10
188.6583942247303
 20
14.08681172241263
 10
188.3793710348833
 20
13.97296341411021
 10
188.1018081587165
 20
13.87364095811143
 10
187.8099837184402
 20
13.91630687596359
 10
187.7869144678657
 20
13.81321679744542
 10
187.7537474383333
 20
13.78691091244473
 10
187.7480653962738
 20
13.83455309036307
 10
187.7284214559044
 20
13.87180336115072
 10
187.7095089485623
 20
13.93007387847567
 10
187.6942849867707
 20
13.97385201007807
 10
187.6477246372935
 20
14.08759421046312
 10
187.9890897312452
 20
14.05576301120051
 10
188.2679649367385
 20
14.02161435106478
 10
188.2617753034907
 20
14.16913976479654
 10
188.2630935452773
 20
14.24013150908834
 10
188.2624831689948
 20
14.34719767958663
 10
188.2625871570725
 20
14.47398529786
 10
188.2629987964055
 20
14.60849243496052
 10
188.2613907841969
 20
14.73395549951186
 10
188.2659902567925
 20
14.84505246719119
 10
188.256418650221
 20
14.9076188680069
 10
188.2704001783692
 20
14.96595388295003
 10
188.2147384386704
 20
14.95289710582239
 10
188.1575655197821
 20
14.961363077495
 10
188.0616048925648
 20
14.95729976080638
 10
187.963376752282
 20
14.95970889852476
 10
187.8672582457561
 20
14.9555160061339
 10
187.8104648525811
 20
14.96429346441165
 10
187.7550356873384
 20
14.95094936850123
 10
187.7670679427916
 20
15.00036910959258
 10
187.7592003173937
 20
15.04393988030398
 10
187.7666295563828
 20
15.08830469118528
 10
187.7551930564143
 20
15.13902297763994
 10
187.8232102370133
 20
15.12162460757746
 10
187.8968496879746
 20
15.13417450237191
 10
188.0325064058211
 20
15.12799677011101
 10
188.1884909024525
 20
15.13029203093087
 10
188.3615926358144
 20
15.12940968262533
 10
188.5346942964182
 20
15.13029207142411
 10
188.6906789811216
 20
15.12799662955553
 10
188.8263351889798
 20
15.13417486262434
 10
188.8999756705653
 20
15.12162394218338
 10
188.9679914174725
 20
15.13902373012145
 10
188.9565590885923
 20
15.08830130414558
 10
188.9639539458297
 20
15.0439706081111
 10
188.9562039912272
 20
15.00028307550198
 10
188.9681203741877
 20
14.95063590098478
 10
188.9108170223618
 20
14.96461411338428
 10
188.8520145789773
 20
14.95539755673255
 10
188.75252936332
 20
14.95952268164932
 10
188.649428009835
 20
14.95822760025889
 10
188.5537846354574
 20
14.95854077077643
 10
188.4857467971617
 20
14.95848776697146
 10
188.4514462213443
 20
14.95849051871658
 10
188.4418622390564
 20
14.95849128473266
 97
        1
330
AC
 75
     1
 76
     2
 52
45.0
 41
0.1
 77
     0
 78
     1
 53
45.0
 43
0.0
 44
0.0
 45
-0.282842712474619
 46
0.0
 79
     0
 98
        1
 10
0.0
 20
0.0
  0
HATCH
  5
CA
330
48
100
AcDbEntity
  8
1
  6
Continuous
 62
     2
100
AcDbHatch
 10
0.0
 20
0.0
 30
0.0
210
0.0
220
0.0
230
1.0
  2
CUSTOM8
 70
     0
 71
     1
 91
        1
 92
        1
 93
        1
 72
     4
 94
        3
 73
     0
 74
     0
 95
       91
 96
       87
 40
0.0
 40
0.0
 40
0.0
 40
0.0
 40
0.0345987051695718
 40
0.1258134969461369
 40
0.2547723404888987
 40
0.4026032099154125
 40
0.5504340793416704
 40
0.679392922883608
 40
0.7706077146571035
 40
0.8052064287780925
 40
1.124852390615274
 40
1.427402236308863
 40
1.706356627453506
 40
1.955541417875188
 40
2.169485938566323
 40
2.344350786664764
 40
2.480568411561912
 40
2.590440557428908
 40
2.649189927151109
 40
2.749320643306319
 40
2.912632739880022
 40
3.147745656000227
 40
3.244827496385123
 40
3.338490056946712
 40
3.583815413207139
 40
3.761423943238499
 40
3.886956104362661
 40
3.985855451886823
 40
4.091766255337707
 40
4.2501864738119
 40
4.422734315084544
 40
4.628285684838637
 40
4.872093227758466
 40
5.152549652145575
 40
5.464967135837555
 40
5.80320147785247
 40
6.160362988813943
 40
6.193449448275998
 40
6.284170385501652
 40
6.419718138764494
 40
6.587285046385744
 40
6.774063446723658
 40
6.967245678113613
 40
7.154024078817627
 40
7.321590987025984
 40
7.457138740890314
 40
7.54785967855605
 40
7.58094613818261
 40
7.608533084714662
 40
7.669224367077637
 40
7.729915649429855
 40
7.757502595949906
 40
7.790278062553388
 40
7.880146277430858
 40
8.014419963180291
 40
8.180411842397792
 40
8.365434637679261
 40
8.556801071622534
 40
8.741823866830618
 40
8.907815745916185
 40
9.042089431507282
 40
9.131957646249408
 40
9.164733112796984
 40
9.41542506313992
 40
9.667986180958382
 40
9.694169807462549
 40
9.756607686047507
 40
9.831130315322314
 40
9.893568193899778
 40
9.919751820398595
 40
9.950967964690426
 40
9.996421631210538
 40
10.22087981037442
 40
10.44341866197531
 40
10.47847970788844
 40
10.57091337438744
 40
10.70159545461219
 40
10.85140174170349
 40
11.00120802880467
 40
11.13189010907372
 40
11.22432377583
 40
11.25938480938946
 40
11.28697175596134
 40
11.34766303835908
 40
11.40835432042059
 40
11.43594125892093
 40
11.43594125892093
 40
11.43594125892093
 40
11.43594125892093
 10
190.0818114333289
 20
15.55242795125079
 10
190.0702785844941
 20
15.55242790287917
 10
190.0283409444998
 20
15.55242773704166
 10
189.9434129719026
 20
15.55243125800911
 10
189.8207688553128
 20
15.5524092643588
 10
189.6791206916993
 20
15.55250801177056
 10
189.537975369849
 20
15.55214686232423
 10
189.4141351317904
 20
15.55321883609091
 10
189.3317217825382
 20
15.5509224909127
 10
189.1727791229691
 20
15.56048569373422
 10
189.3503402353376
 20
15.19785394311373
 10
189.3379739205452
 20
14.95243127723116
 10
189.4064519473864
 20
14.66862501324838
 10
189.469302432097
 20
14.43250999939039
 10
189.5452253431728
 20
14.23326740396133
 10
189.6303189577015
 20
14.07745347451375
 10
189.7244607592935
 20
13.97657857781396
 10
189.8282648207727
 20
13.92465852638969
 10
189.9125872030773
 20
13.97606484379617
 10
189.9351322179452
 20
14.0914454403752
 10
189.9745730975371
 20
14.21885149702382
 10
189.9202919734942
 20
14.53622328086759
 10
190.0451218072473
 20
14.38982180140908
 10
190.2019291513603
 20
14.35795300331175
 10
190.0947720007056
 20
14.12421357767631
 10
190.0808711209867
 20
13.9597277658366
 10
190.0234709467225
 20
13.83130869122486
 10
189.9335020145009
 20
13.7601880235283
 10
189.8095274657877
 20
13.74432324142257
 10
189.663427319686
 20
13.77993797554175
 10
189.5243894320283
 20
13.9000057050028
 10
189.4102003962144
 20
14.07435682550323
 10
189.3146141301485
 20
14.29946603111243
 10
189.2318652572627
 20
14.56388246006445
 10
189.1807179256411
 20
14.88187933098546
 10
189.0770189207336
 20
15.15543728488913
 10
189.2042841208524
 20
15.56005818612871
 10
189.0357890623018
 20
15.5511236784968
 10
188.9511995787078
 20
15.55315961418365
 10
188.8189876387628
 20
15.55213937388408
 10
188.6560505094104
 20
15.55253230318431
 10
188.4733759170533
 20
15.55235696313371
 10
188.2847057373383
 20
15.5526010530747
 10
188.1014469020189
 20
15.55185657906238
 10
187.9404746832719
 20
15.55416360522428
 10
187.8029808335276
 20
15.54799804883664
 10
187.7289590372312
 20
15.56032838458212
 10
187.6613215186857
 20
15.54329323723558
 10
187.673237371927
 20
15.59524438447529
 10
187.6655677285694
 20
15.6407142496653
 10
187.6732592225117
 20
15.68614453703706
 10
187.6613141797762
 20
15.73802395984572
 10
187.7283588305868
 20
15.72119143490265
 10
187.8017375665677
 20
15.73335409092672
 10
187.9379128305273
 20
15.72727231074959
 10
188.0973811801513
 20
15.72954834315059
 10
188.2789173085837
 20
15.72881233998963
 10
188.4658034862179
 20
15.72905954196135
 10
188.6468012316836
 20
15.72886400799255
 10
188.8080802578879
 20
15.7293223471484
 10
188.9393882124887
 20
15.72812673751207
 10
189.0225051322597
 20
15.73051347319744
 10
189.1556236547813
 20
15.72230605725465
 10
189.0645893502657
 20
15.97752868952657
 10
188.978963307442
 20
16.24164358328248
 10
189.0990589003455
 20
16.22904442969167
 10
189.1514264948544
 20
16.22694235763078
 10
189.2214497569715
 20
16.22535399889658
 10
189.2671922337817
 20
16.21602567538115
 10
189.3220812646933
 20
16.22545966915428
 10
189.2963574785681
 20
16.17733028655175
 10
189.1825397571452
 20
16.18266829744168
 10
189.3159346621137
 20
15.95449174576779
 10
189.194365873547
 20
15.72156856595923
 10
189.3223188769413
 20
15.7308725888444
 10
189.4049048406461
 20
15.72801001754681
 10
189.5307214850824
 20
15.72923437412303
 10
189.6741469838058
 20
15.72932431888965
 10
189.8157420951728
 20
15.72746163183854
 10
189.9459127249968
 20
15.73333075937163
 10
190.019345228619
 20
15.72070340823204
 10
190.0891112922096
 20
15.73877563110413
 10
190.0775772605396
 20
15.68612850546327
 10
190.0833184346682
 20
15.64221317686549
 10
190.0816615770911
 20
15.59089982676551
 10
190.0817757561669
 20
15.56158792021636
 10
190.0818114333289
 20
15.55242795125079
 97
        1
330
AD
 75
     1
 76
     2
 52
45.0
 41
0.1
 77
     0
 78
     1
 53
45.0
 43
0.0
 44
0.0
 45
-0.282842712474619
 46
0.0
 79
     0
 98
        1
 10
0.0
 20
0.0
  0
HATCH
  5
CB
330
48
100
AcDbEntity
  8
1
  6
Continuous
 62
     2
100
AcDbHatch
 10
0.0
 20
0.0
 30
0.0
210
0.0
220
0.0
230
1.0
  2
CUSTOM9
 70
     0
 71
     1
 91
        1
 92
        1
 93
        1
 72
     4
 94
        3
 73
     0
 74
     0
 95
      118
 96
      114
 40
0.0
 40
0.0
 40
0.0
 40
0.0
 40
0.1054708162973424
 40
0.246609827005191
 40
0.3965912874591219
 40
0.5285525069753946
 40
0.6156245055642113
 40
0.643143410579744
 40
0.7036850037986327
 40
0.7642265984504922
 40
0.7917455052355423
 40
0.9287404319990302
 40
1.106572819088054
 40
1.287544879681056
 40
1.317578308030575
 40
1.399928030857211
 40
1.522968204799986
 40
1.675072986590607
 40
1.844616533180682
 40
2.019973001638748
 40
2.189516548880061
 40
2.341621331585399
 40
2.464661506320535
 40
2.547011229647097
 40
2.577044658168063
 40
2.603797890893134
 40
2.662655002908906
 40
2.721512114949746
 40
2.748265347702926
 40
2.774215307345001
 40
2.845959313407333
 40
2.954338556588532
 40
3.090194227585711
 40
3.244367517100674
 40
3.407699615844432
 40
3.571031714539581
 40
3.725205003920257
 40
3.861060674729758
 40
3.96943991771645
 40
4.041183923629125
 40
4.067133883213117
 40
4.311886746012287
 40
4.547897258335632
 40
4.764747083044073
 40
4.95274967995188
 40
5.045772974196005
 40
5.13786201964509
 40
5.330543169793145
 40
5.553448265244138
 40
5.795083855888295
 40
6.043293412177354
 40
6.285761695541297
 40
6.313902908752781
 40
6.384255941793371
 40
6.475714884766959
 40
6.567173827759022
 40
6.6375268608398
 40
6.665668074074163
 40
6.692018920328137
 40
6.749990782071207
 40
6.807962643790574
 40
6.834313490018048
 40
6.856393084245298
 40
6.91333519564995
 40
6.991194817302586
 40
7.07602694228379
 40
7.153886563725309
 40
7.210828674844834
 40
7.23290826893117
 40
7.258199334923691
 40
7.324875781592341
 40
7.419142481925001
 40
7.527204308841942
 40
7.635266135230524
 40
7.72953283416851
 40
7.796209279292833
 40
7.821500344594779
 40
7.844652988850878
 40
7.899863140541685
 40
7.965759128053851
 40
8.020969279771192
 40
8.044121924046658
 40
8.069356610160751
 40
8.109134395441522
 40
8.132238100191238
 40
8.1931478677866
 40
8.279261678876775
 40
8.37797751267399
 40
8.476693347146774
 40
8.56280716041183
 40
8.623716930826616
 40
8.64682063685357
 40
8.671988793774384
 40
8.734909185828295
 40
8.81670569518901
 40
8.89850220481558
 40
8.961422597378041
 40
8.986590754551154
 40
9.012941600733308
 40
9.070913462380394
 40
9.128885324081887
 40
9.155236170325209
 40
9.180404327929251
 40
9.243324721948325
 40
9.325121234212117
 40
9.406917746637772
 40
9.469838141978228
 40
9.495006288271002
 40
9.517811184379145
 40
9.572192090487144
 40
9.637098333281372
 40
9.691479239515573
 40
9.714284125643612
 40
9.714284125643612
 40
9.714284125643612
 40
9.714284125643612
 10
185.2874469028653
 20
15.26889163187721
 10
185.3090990569037
 20
15.24111869242813
 10
185.3597257109474
 20
15.17618054561237
 10
185.4349383202591
 20
15.068910603129
 10
185.5248482274346
 20
14.95377438266627
 10
185.5709169676674
 20
14.85357045748322
 10
185.6655825294655
 20
14.78434006814945
 10
185.6204439320413
 20
14.73771639678276
 10
185.5947047785789
 20
14.69660308866042
 10
185.5645196708011
 20
14.66065971727941
 10
185.519368473056
 20
14.58579782596096
 10
185.4710504458562
 20
14.80782524253605
 10
185.3968539713073
 20
14.84510677337715
 10
185.2836047324606
 20
15.11610202130603
 10
185.2885133578169
 20
15.00095328446231
 10
185.2868486556306
 20
14.92836675781631
 10
185.2876830076713
 20
14.80625588483989
 10
185.2873609540265
 20
14.65913800810463
 10
185.2875076912456
 20
14.4930706395656
 10
185.2872950092722
 20
14.32187554608605
 10
185.2879497252034
 20
14.15552828635501
 10
185.2859192461138
 20
14.00935173055696
 10
185.2913460399931
 20
13.88471047474614
 10
185.2804930868707
 20
13.81718656540629
 10
185.2956739155555
 20
13.75549061417025
 10
185.2457895108134
 20
13.76727503897005
 10
185.2017150342522
 20
13.75943822779972
 10
185.1582371630199
 20
13.76760441372706
 10
185.1092346786488
 20
13.75538056738471
 10
185.1218731234823
 20
13.80960667249316
 10
185.1130182968448
 20
13.86936918907561
 10
185.1175058770312
 20
13.97922029044373
 10
185.115796013599
 20
14.11029975405681
 10
185.1163550915985
 20
14.26198011444331
 10
185.1161928768693
 20
14.42211074929956
 10
185.1162269924673
 20
14.58236865674569
 10
185.1162514960126
 20
14.73370247520442
 10
185.1161453543224
 20
14.86582156338604
 10
185.116429914193
 20
14.97294802533196
 10
185.1158675547567
 20
15.03808619579477
 10
185.1180765083687
 20
15.16618957858677
 10
185.0319435998602
 20
14.79097610391579
 10
184.95551408185
 20
14.63918193123397
 10
184.8660040767833
 20
14.47766206446309
 10
184.7640413217327
 20
14.20471848820174
 10
184.7187976491039
 20
14.36717346596512
 10
184.610235594167
 20
14.45605432058123
 10
184.7995791751752
 20
14.60549794961412
 10
184.85653405457
 20
14.79749136974928
 10
184.9717520993352
 20
15.02899622906759
 10
184.9940151630132
 20
15.21797259759066
 10
185.177190515214
 20
15.49454089325932
 10
185.0538033597552
 20
15.48698978832096
 10
184.9925684166834
 20
15.48856772366121
 10
184.9081999617064
 20
15.48882592573674
 10
184.8204235085966
 20
15.48544845751208
 10
184.7656768696122
 20
15.49394814982021
 10
184.7104703026025
 20
15.4804856104979
 10
184.7222823035536
 20
15.52931442126765
 10
184.7142496151794
 20
15.57269004896711
 10
184.7228186104678
 20
15.61509438309575
 10
184.7102943409156
 20
15.66267796552119
 10
184.7555101538735
 20
15.65267212995111
 10
184.8014815562723
 20
15.65894105174062
 10
184.877722204771
 20
15.65593561405874
 10
184.9561296131993
 20
15.65770448278543
 10
185.0323992648932
 20
15.65464793981662
 10
185.0783009459473
 20
15.66103971376178
 10
185.1231733965399
 20
15.65093822978898
 10
185.1105552275633
 20
15.701572015819
 10
185.1191936582705
 20
15.75501261882071
 10
185.1152361595442
 20
15.84863255131682
 10
185.1162325068333
 20
15.95112606688926
 10
185.1171927413072
 20
16.05353270248166
 10
185.1133211458004
 20
16.14735929609324
 10
185.1217789814363
 20
16.20036542840356
 10
185.1093075932834
 20
16.25211435651191
 10
185.1542106389849
 20
16.2385074722676
 10
185.1955083836771
 20
16.24100480320589
 10
185.259534428105
 20
16.2364806057449
 10
185.2986111148786
 20
16.22781003043312
 10
185.3476543498742
 20
16.23515102070689
 10
185.3225080030591
 20
16.19602896051762
 10
185.2815901333723
 20
16.2056384245581
 10
185.2910109616604
 20
16.15540148169781
 10
185.2855647318746
 20
16.10385945639492
 10
185.2881699601804
 20
16.01959707584524
 10
185.2870102202153
 20
15.9255913558341
 10
185.2883591064231
 20
15.83196865395528
 10
185.2849970101509
 20
15.74679517552225
 10
185.2920959917769
 20
15.69716856072046
 10
185.2812569154545
 20
15.6499369496999
 10
185.3304010225245
 20
15.66201674936854
 10
185.3794877630147
 20
15.65447393363013
 10
185.4573714280641
 20
15.65686070361435
 10
185.5350365172896
 20
15.65899381905417
 10
185.5845393931355
 20
15.65193391922456
 10
185.6344594750639
 20
15.66360151936216
 10
185.6223198516881
 20
15.61540235371395
 10
185.6305838229144
 20
15.57249219801237
 10
185.6223198650783
 20
15.52958201851387
 10
185.6344594549854
 20
15.48138288754866
 10
185.5845395158746
 20
15.49305034471513
 10
185.5350350651203
 20
15.48599202435047
 10
185.4573784382973
 20
15.48811665228606
 10
185.379464386576
 20
15.49053389365762
 10
185.3304500352716
 20
15.48291848194487
 10
185.2813246108943
 20
15.49507952557594
 10
185.2915559988571
 20
15.4507301342416
 10
185.2856677678053
 20
15.40925436202913
 10
185.2878788305569
 20
15.34915394315305
 10
185.2874109346146
 20
15.30225782762891
 10
185.2874386992913
 20
15.27650146418198
 10
185.2874469028653
 20
15.26889163187721
 97
        1
330
AE
 75
     1
 76
     2
 52
45.0
 41
0.1
 77
     0
 78
     1
 53
45.0
 43
0.0
 44
0.0
 45
-0.282842712474619
 46
0.0
 79
     0
 98
        1
 10
0.0
 20
0.0
  0
HATCH
  5
CC
330
48
100
AcDbEntity
  8
1
  6
Continuous
 62
     2
100
AcDbHatch
 10
0.0
 20
0.0
 30
0.0
210
0.0
220
0.0
230
1.0
  2
CUSTOM10
 70
     0
 71
     1
 91
        1
 92
        1
 93
        1
 72
     4
 94
        3
 73
     0
 74
     0
 95
       47
 96
       43
 40
0.0
 40
0.0
 40
0.0
 40
0.0
 40
0.2207912809957195
 40
0.4459404186302991
 40
0.4902387190459768
 40
0.5327473892723011
 40
0.574226045122633
 40
0.6155432630561622
 40
0.6568164066316541
 40
0.6982511618781458
 40
0.7407663929317977
 40
0.7851366743176037
 40
1.010288833836397
 40
1.231080507002247
 40
1.451765243652475
 40
1.676638205891761
 40
1.720461045359732
 40
1.830018144043595
 40
1.972442372353228
 40
2.114866600677596
 40
2.224423699395221
 40
2.268246538883462
 40
2.493628801207297
 40
2.715602830286692
 40
2.934211330706454
 40
3.149502369855454
 40
3.231387784851043
 40
3.318231873854135
 40
3.405143198198179
 40
3.486970301720644
 40
3.702258172494096
 40
3.920866283534332
 40
4.142839325932119
 40
4.368221903865584
 40
4.412044743360064
 40
4.521601842096078
 40
4.664026070452558
 40
4.806450298809268
 40
4.916007397546962
 40
4.959830237043284
 40
5.184703515847315
 40
5.405387250767692
 40
5.405387250767692
 40
5.405387250767692
 40
5.405387250767692
 10
182.6507427258645
 20
15.73406440953875
 10
182.6568139420002
 20
15.79758482501214
 10
182.6690762107242
 20
15.92587938689631
 10
182.5604706879412
 20
16.20166220174079
 10
182.6761985896603
 20
16.17188133432055
 10
182.7171842509015
 20
16.16765556262822
 10
182.7591205797518
 20
16.16310446389609
 10
182.800419662571
 20
16.16201982929486
 10
182.8417032115556
 20
16.1631033819523
 10
182.8836148270647
 20
16.16766112711344
 10
182.9245983549019
 20
16.1718743020973
 10
183.0404922843488
 20
16.20177611317536
 10
182.9295652727457
 20
15.92339806609892
 10
182.9574856365265
 20
15.74283140824956
 10
182.9404267346969
 20
15.50961042346474
 10
182.94146372821
 20
15.34906622543149
 10
182.9414099399404
 20
15.22284817558725
 10
182.9414277372479
 20
15.12428963336244
 10
182.9414188581079
 20
14.99280702442966
 10
182.9414263928033
 20
14.86132844968652
 10
182.9414129405127
 20
14.76276222694094
 10
182.9414531717491
 20
14.63639735624155
 10
182.9406746403816
 20
14.47482068822872
 10
182.9565958319266
 20
14.24361821892917
 10
182.9333468885408
 20
14.05874351972005
 10
183.0360183444366
 20
13.78935602770058
 10
182.8820238362836
 20
13.82660112685819
 10
182.8004129802832
 20
13.82137994680536
 10
182.7188192292582
 20
13.82660620378353
 10
182.5648513666841
 20
13.78937069885387
 10
182.6674183421917
 20
14.05875129862882
 10
182.6442045316088
 20
14.24361585325418
 10
182.6600444655138
 20
14.47482218565641
 10
182.6593296313427
 20
14.63639712308506
 10
182.6593664569907
 20
14.76276231210524
 10
182.659354900027
 20
14.86132756635984
 10
182.6593575019214
 20
14.99281127417223
 10
182.6593648531779
 20
15.12427548031202
 10
182.6593442541351
 20
15.22287786275329
 10
182.6594082192028
 20
15.34896149354429
 10
182.658173394759
 20
15.51210091383775
 10
182.6532040396745
 20
15.66054183777552
 10
182.6507427258645
 20
15.73406440953875
 97
        1
330
AF
 75
     1
 76
     2
 52
45.0
 41
0.1
 77
     0
 78
     1
 53
45.0
 43
0.0
 44
0.0
 45
-0.282842712474619
 46
0.0
 79
     0
 98
        1
 10
0.0
 20
0.0
  0
HATCH
  5
CD
330
48
100
AcDbEntity
  8
1
  6
Continuous
 62
     2
100
AcDbHatch
 10
0.0
 20
0.0
 30
0.0
210
0.0
220
0.0
230
1.0
  2
CUSTOM11
 70
     0
 71
     1
 91
        1
 92
        1
 93
        1
 72
     4
 94
        3
 73
     0
 74
     0
 95
      110
 96
      106
 40
0.0
 40
0.0
 40
0.0
 40
0.0
 40
0.2203406257277808
 40
0.4407808782838109
 40
0.5952494494614803
 40
0.7488431659393093
 40
0.9023581831309075
 40
1.056801968670406
 40
1.210736449099907
 40
1.363041386539785
 40
1.515315729683128
 40
1.669377239148079
 40
1.721611652756562
 40
1.773199502942939
 40
1.824933793209988
 40
1.877110426487981
 40
1.982682281206745
 40
2.078781667087639
 40
2.172809640822303
 40
2.271937807378928
 40
2.378349933379378
 40
2.49413155773651
 40
2.626681683943644
 40
2.783145050796072
 40
2.890701232940927
 40
2.993130312454833
 40
3.099869730691807
 40
3.220237816691294
 40
3.352695482737587
 40
3.481732806389834
 40
3.593499473690369
 40
3.674323013331879
 40
3.817951711952829
 40
3.946167120793826
 40
4.061405053453512
 40
4.166480796003152
 40
4.26247877505919
 40
4.350736673551146
 40
4.433071991254032
 40
4.511216293814635
 40
4.564262454117962
 40
4.618474415571588
 40
4.670128488754184
 40
4.722296879126381
 40
4.81954094531425
 40
4.931194984128107
 40
5.049996040257748
 40
5.168643755415379
 40
5.283970811762534
 40
5.392260784910331
 40
5.486512254876406
 40
5.559178233949805
 40
5.591425852853464
 40
5.626215969637857
 40
5.667155838674399
 40
5.71744929021421
 40
5.738402360944821
 40
5.784499116553789
 40
5.830595872164761
 40
5.851548942897617
 40
5.873019280661731
 40
5.924217778408272
 40
5.985325662817646
 40
6.036524160567659
 40
6.057994498334187
 40
6.236847789607445
 40
6.381409928945612
 40
6.493190424178645
 40
6.57406753423046
 40
6.691018086205554
 40
6.814881554220472
 40
6.944307823240368
 40
7.071266716066048
 40
7.193488604461893
 40
7.30904277312812
 40
7.414007203170746
 40
7.505140441886503
 40
7.531150360599644
 40
7.559221645322234
 40
7.587202218920895
 40
7.612569159499097
 40
7.662550809480977
 40
7.702878875764101
 40
7.857328205230916
 40
8.010799568088562
 40
8.16525639965754
 40
8.322232698713936
 40
8.479564855016566
 40
8.635216230290741
 40
8.790882550925659
 40
8.948305154947224
 40
9.168271839032919
 40
9.387358980987187
 40
9.608047961033433
 40
9.83291423479264
 40
9.858338694962976
 40
9.92536681722998
 40
10.02013071422757
 40
10.12876249858995
 40
10.23739428295246
 40
10.33215817995187
 40
10.39918630222391
 40
10.4246107623978
 40
10.64992019336939
 40
10.87188524531183
 40
10.87188524531183
 40
10.87188524531183
 40
10.87188524531183
 10
179.9057788376618
 20
15.73923260398192
 10
179.9092864933541
 20
15.80616462073806
 10
179.9163033987663
 20
15.94005891915861
 10
179.8198027599072
 20
16.2254855497147
 10
180.0510134726109
 20
16.16284386190286
 10
180.1919290057155
 20
16.17001554055992
 10
180.3490417757588
 20
16.16235883078247
 10
180.5025913427287
 20
16.16252752283042
 10
180.6545104935081
 20
16.16182040535435
 10
180.8142214813231
 20
16.1721015835164
 10
180.9408972601118
 20
16.15496511080753
 10
181.1370821122081
 20
16.22727260107148
 10
181.1034395279078
 20
16.1264069908012
 10
181.1052011317183
 20
16.07619253947673
 10
181.1027342073458
 20
16.02712335586468
 10
181.1347076966011
 20
15.94063490847001
 10
181.0010399903255
 20
15.9899743860834
 10
180.9172208688056
 20
15.9843063431417
 10
180.8173861139323
 20
15.99465516706301
 10
180.7186576720145
 20
16.00086450411089
 10
180.612153277111
 20
16.00697763816779
 10
180.4910511698059
 20
16.01588883484588
 10
180.3703381502454
 20
16.00521605912386
 10
180.1812553843437
 20
16.06468503080369
 10
180.2129028505311
 20
15.90558320077541
 10
180.1995563316833
 20
15.80839128339907
 10
180.1974958426449
 20
15.69634065110105
 10
180.1958188044671
 20
15.57699685629354
 10
180.1973336794233
 20
15.45032592155113
 10
180.195658247867
 20
15.3230158801612
 10
180.2058844271657
 20
15.22451566404466
 10
180.1779006596583
 20
15.08388702625633
 10
180.3508029999305
 20
15.13989551134097
 10
180.4645020202772
 20
15.127199514785
 10
180.5840151672239
 20
15.13448377051257
 10
180.6888491425071
 20
15.13878017056758
 10
180.7843084898612
 20
15.1433056825898
 10
180.8763823507032
 20
15.15149201146201
 10
180.9476551782439
 20
15.14643850638114
 10
181.0544931705685
 20
15.18536425031677
 10
181.0226603598035
 20
15.10517122005881
 10
181.026616450393
 20
15.05562936846035
 10
181.0234502392013
 20
15.00557478039821
 10
181.0550791490585
 20
14.92128847612024
 10
180.9210133677691
 20
14.9742536549516
 10
180.8292322793199
 20
14.96540080890443
 10
180.7079729189602
 20
14.97570049965157
 10
180.5914113119771
 20
14.97748911767506
 10
180.4783375745878
 20
14.97787017109695
 10
180.3679246308471
 20
14.98415449472182
 10
180.289812406784
 20
14.97189133255365
 10
180.1913625833644
 20
15.00453887616128
 10
180.2012355173561
 20
14.94769748054208
 10
180.1973923244403
 20
14.91392130557986
 10
180.1966789884268
 20
14.87119604709412
 10
180.1963369642975
 20
14.83401607262155
 10
180.1963834255346
 20
14.79487237370772
 10
180.1963649429927
 20
14.75716849497687
 10
180.1963703431806
 20
14.71944955232404
 10
180.1963697214201
 20
14.68994324745152
 10
180.1963698151545
 20
14.65873577699303
 10
180.1963704287921
 20
14.61414424908087
 10
180.1963671499336
 20
14.55963956508853
 10
180.1963759623481
 20
14.51505540201451
 10
180.1963359653416
 20
14.43117808585743
 10
180.1976024270255
 20
14.31737520677681
 10
180.1950274117841
 20
14.16830395933712
 10
180.2065009381719
 20
14.06597203813908
 10
180.1823506222264
 20
13.93338903885836
 10
180.3332993946476
 20
13.97895732272023
 10
180.4428436671556
 20
13.96427012162352
 10
180.5733970473919
 20
13.96920435125065
 10
180.6990312209514
 20
13.97257705323362
 10
180.8188730625601
 20
13.97711497498776
 10
180.9391362611426
 20
13.99048536182007
 10
181.0222761663516
 20
13.98068712782596
 10
181.1456080421073
 20
14.04126214623325
 10
181.1244269203957
 20
13.98532460134022
 10
181.1235950270118
 20
13.95939249372348
 10
181.1218963707558
 20
13.93197256190942
 10
181.1217974888832
 20
13.89738195206388
 10
181.120365930133
 20
13.8605040822077
 10
181.153280419219
 20
13.76846841021807
 10
180.9551306988108
 20
13.84132015974834
 10
180.8300548294891
 20
13.81825726508607
 10
180.6673071295155
 20
13.82454021985787
 10
180.5129366450001
 20
13.82260943909928
 10
180.3566670436943
 20
13.82393762599269
 10
180.1970544465281
 20
13.82059872487864
 10
180.0540326342237
 20
13.83265795728242
 10
179.8197144881628
 20
13.7695200197692
 10
179.9173810751197
 20
14.0562052746632
 10
179.9006868780058
 20
14.24988308142663
 10
179.9146296709685
 20
14.47848242880297
 10
179.9142987846631
 20
14.63384593955051
 10
179.9143078119264
 20
14.73966336444129
 10
179.9143055876315
 20
14.80205784124217
 10
179.9143065551889
 20
14.8922042524833
 10
179.9143065473261
 20
14.99621167157441
 10
179.9143053861102
 20
15.10022131375299
 10
179.9143090971503
 20
15.19036243688771
 10
179.9143011051051
 20
15.25276803097218
 10
179.9143334275018
 20
15.35868835961122
 10
179.9131440788319
 20
15.51626716544742
 10
179.9082216489255
 20
15.66528219822067
 10
179.9057788376618
 20
15.73923260398192
 97
        1
330
B0
 75
     1
 76
     2
 52
45.0
 41
0.1
 77
     0
 78
     1
 53
45.0
 43
0.0
 44
0.0
 45
-0.282842712474619
 46
0.0
 79
     0
 98
        1
 10
0.0
 20
0.0
  0
HATCH
  5
CE
330
48
100
AcDbEntity
  8
1
  6
Continuous
 62
     2
100
AcDbHatch
 10
0.0
 20
0.0
 30
0.0
210
0.0
220
0.0
230
1.0
  2
CUSTOM12
 70
     0
 71
     1
 91
        1
 92
        1
 93
        1
 72
     4
 94
        3
 73
     0
 74
     0
 95
       95
 96
       91
 40
0.0
 40
0.0
 40
0.0
 40
0.0
 40
0.6550406656912181
 40
1.308087289032024
 40
1.420803739835897
 40
1.566130759770905
 40
1.757067341888565
 40
2.006513545026564
 40
2.08732826312165
 40
2.185328872295725
 40
2.294612454748476
 40
2.408936380534918
 40
2.526802767798665
 40
2.646360524615704
 40
2.762535723971691
 40
2.870057342870264
 40
2.966883448431757
 40
3.050803243518398
 40
3.115818222436711
 40
3.156030057150349
 40
3.213914225080194
 40
3.276689026450652
 40
3.342960320981429
 40
3.404230667150678
 40
3.453822809493492
 40
3.532499827188544
 40
3.634775188507291
 40
3.75490933300829
 40
3.88973676166078
 40
4.035769602175354
 40
4.187256681197733
 40
4.338733685676086
 40
4.488478734676244
 40
4.634708317831715
 40
4.7714931899214
 40
4.89268657156134
 40
5.199775528944574
 40
5.460353566929766
 40
5.667603142345639
 40
5.814722905404622
 40
5.82899080621992
 40
5.855488336304617
 40
5.869756237118949
 40
6.189796507762959
 40
6.53189046987315
 40
6.88305363701714
 40
7.230512024911607
 40
7.56696665676472
 40
7.88520355970754
 40
8.172887439719386
 40
8.418011594062902
 40
8.443926721190826
 40
8.510760470613313
 40
8.602145393795825
 40
8.701714041647268
 40
8.793098965075501
 40
8.859932715058074
 40
8.885847842603724
 40
9.24230125661293
 40
9.589275455016892
 40
9.921808543164286
 40
10.2347962429848
 40
10.29968150889204
 40
10.35323493887787
 40
10.40154625355171
 40
10.46482922477847
 40
10.55973900668427
 40
10.69239545985639
 40
10.84920353475694
 40
11.01626328594802
 40
11.18672024367465
 40
11.35372582577232
 40
11.50257442292449
 40
11.61866495023313
 40
11.71329869152897
 40
11.8251105057393
 40
11.94464880845738
 40
12.06929242642529
 40
12.19707290435198
 40
12.3256263286055
 40
12.45034565331301
 40
12.56646595170349
 40
12.67099007414657
 40
12.76077625936804
 40
12.82703233506717
 40
12.87429132786014
 40
12.89831990323354
 40
12.92234847860042
 40
13.5398476741034
 40
14.18294284359378
 40
14.18294284359378
 40
14.18294284359378
 40
14.18294284359378
 10
177.3067935648022
 20
14.70898038201726
 10
177.1752019758552
 20
14.82265058603233
 10
176.912419380273
 20
15.04964496316158
 10
176.3997393441019
 20
15.8921446295629
 10
176.4106654595363
 20
15.53423377577023
 10
176.404122652799
 20
15.39267392272135
 10
176.4028026631773
 20
15.19421305299283
 10
176.4018117602538
 20
15.02150296045985
 10
176.4024101751974
 20
14.87865373257582
 10
176.4038994301882
 20
14.7826500541336
 10
176.4055683588472
 20
14.67545503263144
 10
176.4071934954618
 20
14.56164211517584
 10
176.4092429501685
 20
14.44441572604591
 10
176.4123165501927
 20
14.32656411232972
 10
176.4156339697043
 20
14.21228087320622
 10
176.4193605340279
 20
14.10521401867278
 10
176.4217338161425
 20
14.01007408766924
 10
176.4278718888359
 20
13.92558557205697
 10
176.4239784495946
 20
13.86923087298144
 10
176.4455230443077
 20
13.79825022472359
 10
176.3680940058618
 20
13.82902677604486
 10
176.3116353240191
 20
13.82011242517615
 10
176.2540495896807
 20
13.82896218398277
 10
176.1690163478472
 20
13.79738225225946
 10
176.2009714146383
 20
13.88095155992193
 10
176.1990705282539
 20
13.94882608968312
 10
176.2107960047299
 20
14.05233256764421
 10
176.2164241052999
 20
14.17002125616697
 10
176.2237902178942
 20
14.30388609164426
 10
176.232075970161
 20
14.44764152872634
 10
176.2398851897426
 20
14.59714022843447
 10
176.2457571222657
 20
14.74792549402081
 10
176.2503667817968
 20
14.8969994387844
 10
176.2542632117542
 20
15.04122913163025
 10
176.2570715126564
 20
15.1758390521302
 10
176.2576698755022
 20
15.36469614347357
 10
176.2616023867151
 20
15.58975494313157
 10
176.2442175378498
 20
15.86367091125711
 10
176.2850417342582
 20
16.02787112098599
 10
176.1995153256003
 20
16.227496614651
 10
176.2660558907687
 20
16.22385458403981
 10
176.2838724273231
 20
16.22413447160857
 10
176.4056801797501
 20
16.22632927398616
 10
176.5080770335463
 20
15.94675118721517
 10
176.7580021509355
 20
15.74563008536004
 10
176.9870035331111
 20
15.47792614987919
 10
177.2245151213108
 20
15.22646413862379
 10
177.4486090740772
 20
14.98969974061361
 10
177.6750716283009
 20
14.73218692583079
 10
177.8325687886515
 20
14.61649335056929
 10
178.0472129612673
 20
14.27997152538795
 10
178.0422645974619
 20
14.40464754091606
 10
178.0433931602545
 20
14.46327691935739
 10
178.0428877841517
 20
14.55043662371979
 10
178.0430475158113
 20
14.64416143182875
 10
178.0430054891318
 20
14.73018971297038
 10
178.0430202040372
 20
14.79153891945498
 10
178.0429706255983
 20
14.94135231520995
 10
178.0458811522811
 20
15.17989612510108
 10
178.0259521041161
 20
15.54486509868702
 10
178.0750433936248
 20
15.8079963199342
 10
177.9177951509179
 20
16.21928904947751
 10
178.0762112872421
 20
16.16398282551753
 10
178.1311680478628
 20
16.16199686500176
 10
178.182788776674
 20
16.16264778248256
 10
178.2713198965366
 20
16.20369527738247
 10
178.2204898303168
 20
16.05696326622989
 10
178.2313389930285
 20
15.95019971954434
 10
178.2166036994847
 20
15.79085705414114
 10
178.2099976446205
 20
15.62853061652876
 10
178.2014961399914
 20
15.45992521892397
 10
178.1943227202199
 20
15.29814814703543
 10
178.1889063215389
 20
15.15422331457935
 10
178.1871713967648
 20
15.03437493466927
 10
178.1875440672319
 20
14.92686101590518
 10
178.1873656126263
 20
14.81820024645588
 10
178.187701086314
 20
14.69953570165532
 10
178.1890040622185
 20
14.57555163512744
 10
178.1908887351574
 20
14.44858294171107
 10
178.1925004454852
 20
14.32153861551035
 10
178.194140313743
 20
14.1985488449218
 10
178.1962570745751
 20
14.08300931383762
 10
178.1963848422364
 20
13.98090903955839
 10
178.2006514396553
 20
13.89009848838158
 10
178.190844008529
 20
13.83213621208789
 10
178.2118474771689
 20
13.76517130132032
 10
178.1725639739897
 20
13.77291153966691
 10
177.9595307117741
 20
13.75755254145193
 10
177.7636297943189
 20
14.31403058094471
 10
177.4611197631545
 20
14.57556035348512
 10
177.3067935648022
 20
14.70898038201726
 97
        1
330
B1
 75
     1
 76
     2
 52
45.0
 41
0.1
 77
     0
 78
     1
 53
45.0
 43
0.0
 44
0.0
 45
-0.282842712474619
 46
0.0
 79
     0
 98
        1
 10
0.0
 20
0.0
  0
HATCH
  5
CF
330
48
100
AcDbEntity
  8
1
  6
Continuous
 62
     2
100
AcDbHatch
 10
0.0
 20
0.0
 30
0.0
210
0.0
220
0.0
230
1.0
  2
CUSTOM13
 70
     0
 71
     1
 91
        2
 92
        1
 93
        1
 72
     4
 94
        3
 73
     0
 74
     0
 95
       57
 96
       53
 40
0.0
 40
0.0
 40
0.0
 40
0.0
 40
0.0471632082809235
 40
0.0914861054632153
 40
0.1357762519702389
 40
0.1826527001610684
 40
0.2295203288572593
 40
0.2737751972221615
 40
0.3181310461542788
 40
0.3652607198398514
 40
0.4571007286314519
 40
0.5671851029165196
 40
0.6894623283868399
 40
0.8181758272546068
 40
0.9510087229274025
 40
1.085852229674066
 40
1.218126164475324
 40
1.343545131142394
 40
1.45453720295681
 40
1.567187607530819
 40
1.680710966642438
 40
1.794226869736802
 40
1.900009184247601
 40
2.004085860447881
 40
2.108162674451769
 40
2.214000150155313
 40
2.496038577352154
 40
2.762350745479298
 40
2.997275353279427
 40
3.185110082137753
 40
3.24640789006398
 40
3.312607550212597
 40
3.378877742711584
 40
3.440140399651467
 40
4.100501696006494
 40
4.754913085563543
 40
5.411331693423956
 40
6.077890432568741
 40
6.11057529267102
 40
6.1432601527758
 40
6.367989363395195
 40
6.610525374951591
 40
6.863389136467359
 40
7.119380025547646
 40
7.376036605091143
 40
7.631164770966384
 40
7.876722425456469
 40
8.104953735855974
 40
8.312916685924344
 40
8.497730294941341
 40
8.651018984313895
 40
8.764738853624635
 40
8.764738853624635
 40
8.764738853624635
 40
8.764738853624635
 10
174.7922649500513
 20
13.81626739612929
 10
174.7766616726931
 20
13.8182623107908
 10
174.7463947960302
 20
13.82213201360301
 10
174.7010994202252
 20
13.8234198496727
 10
174.6559553129349
 20
13.82308683554053
 10
174.6099017123399
 20
13.82314658674226
 10
174.5640496172096
 20
13.82325813650003
 10
174.5183711648164
 20
13.82277833456592
 10
174.4750811541608
 20
13.82461109618722
 10
174.4039947951513
 20
13.80049556814657
 10
174.4057477261441
 20
13.92184693977253
 10
174.358619637057
 20
14.00726239751235
 10
174.3191478251761
 20
14.12486929345138
 10
174.2706635532645
 20
14.24232752540441
 10
174.2201017402522
 20
14.36405935761512
 10
174.1718634610477
 20
14.49075967862468
 10
174.1135232947594
 20
14.59933687784955
 10
174.0980892667261
 20
14.75620657134413
 10
173.9566586330636
 20
14.72373446548324
 10
173.8508397414903
 20
14.73512888682183
 10
173.7358569725222
 20
14.73392591514618
 10
173.6253142252141
 20
14.73506945347411
 10
173.5176583522783
 20
14.73418350037529
 10
173.4121322529242
 20
14.73416602390522
 10
173.3109192682012
 20
14.72714032472417
 10
173.1266804827753
 20
14.75135859859871
 10
173.1157393685411
 20
14.44741691121887
 10
173.008769163475
 20
14.22353177253399
 10
172.9098148604346
 20
14.03895314292498
 10
172.9225090524008
 20
13.79530204804208
 10
172.8050091716397
 20
13.82508046753198
 10
172.7422055868311
 20
13.82258089509606
 10
172.67858720934
 20
13.82344075102807
 10
172.3946014194073
 20
13.78098039941946
 10
173.0251638499382
 20
14.50081952444788
 10
173.108764528907
 20
15.01276539435731
 10
173.492925278934
 20
15.53353743550047
 10
173.4777208288563
 20
16.23519626253214
 10
173.7239265722697
 20
16.2234563308126
 10
173.825634615756
 20
16.23225004452775
 10
173.8249752035818
 20
15.98059650730349
 10
173.9428317155828
 20
15.79818020733961
 10
174.0315515260485
 20
15.55563740662868
 10
174.132229248526
 20
15.3234003053013
 10
174.2311142712242
 20
15.08674644566911
 10
174.329967699067
 20
14.854617391701
 10
174.4256166390926
 20
14.63122222788791
 10
174.515990457327
 20
14.42272549049314
 10
174.5989944568189
 20
14.23308448529324
 10
174.6726088582799
 20
14.06663106068102
 10
174.7342815895545
 20
13.92917699626099
 10
174.7749458885603
 20
13.84999239430036
 10
174.7922649500513
 20
13.81626739612929
 97
        1
330
B3
 92
       16
 93
        1
 72
     4
 94
        3
 73
     0
 74
     0
 95
       25
 96
       21
 40
0.0
 40
0.0
 40
0.0
 40
0.0
 40
0.0911479969064822
 40
0.1858117896204665
 40
0.2804128399734772
 40
0.3715889190715644
 40
0.4679080494218989
 40
0.5642683809229228
 40
0.6605683222644988
 40
0.756965301581025
 40
0.8561348172522734
 40
1.092615965104297
 40
1.374867658141883
 40
1.611348812011607
 40
1.710518328425258
 40
1.809403163726577
 40
2.045205463294082
 40
2.326646917622146
 40
2.562449217190609
 40
2.66133404383393
 40
2.66133404383393
 40
2.66133404383393
 40
2.66133404383393
 10
173.2683700567199
 20
14.88614538197294
 10
173.2987525917923
 20
14.88598079714557
 10
173.3606895889111
 20
14.88564528689923
 10
173.454135696033
 20
14.88269055452001
 10
173.5475095236357
 20
14.87977752877153
 10
173.6417760753477
 20
14.8789420164342
 10
173.7354964790967
 20
14.87996644658049
 10
173.8352040303205
 20
14.87916977470975
 10
173.9188949546312
 20
14.88921410235222
 10
174.0637996315045
 20
14.86234617674167
 10
173.9396132444801
 20
15.03665530280051
 10
173.8965867286282
 20
15.19651711006094
 10
173.780892214221
 20
15.45518458550219
 10
173.7017565431256
 20
15.5923105286186
 10
173.6431576621816
 20
15.8093703313408
 10
173.5864803939438
 20
15.5926613421343
 10
173.5052809900478
 20
15.45327012438239
 10
173.4063701281488
 20
15.20406969370197
 10
173.3253625094258
 20
15.01925830226075
 10
173.2813683325838
 20
14.91650446856119
 10
173.2683700567199
 20
14.88614538197294
 97
        1
330
B2
 75
     1
 76
     2
 52
45.0
 41
0.1
 77
     0
 78
     1
 53
45.0
 43
0.0
 44
0.0
 45
-0.282842712474619
 46
0.0
 79
     0
 98
        1
 10
0.0
 20
0.0
  0
HATCH
  5
D0
330
48
100
AcDbEntity
  8
1
  6
Continuous
 62
     2
100
AcDbHatch
 10
0.0
 20
0.0
 30
0.0
210
0.0
220
0.0
230
1.0
  2
CUSTOM14
 70
     0
 71
     1
 91
        1
 92
        1
 93
        1
 72
     4
 94
        3
 73
     0
 74
     0
 95
       99
 96
       95
 40
0.0
 40
0.0
 40
0.0
 40
0.0
 40
0.0796417172272535
 40
0.1621768542356092
 40
0.2486489160957698
 40
0.3404969668524656
 40
0.4381912511164683
 40
0.5434463660244984
 40
0.6518115192847304
 40
0.7530190937886876
 40
0.8492196919725121
 40
0.9419290312998151
 40
1.034249663570039
 40
1.129078600620199
 40
1.226697027573244
 40
1.327220425421706
 40
1.470572134938015
 40
1.595489863371212
 40
1.719934125348399
 40
1.850576620127482
 40
1.989059629987296
 40
2.134139054226918
 40
2.280698007207204
 40
2.42452973903947
 40
2.56592957698584
 40
2.70823926077353
 40
2.861717887443656
 40
3.04516854034736
 40
3.183798301138602
 40
3.314813961455448
 40
3.442083470447306
 40
3.569912708372908
 40
3.702177512509347
 40
3.842307559659541
 40
3.992872223245945
 40
4.156750662218334
 40
4.310981861107556
 40
4.445859909322603
 40
4.572393936131594
 40
4.701656719781995
 40
4.768279086008479
 40
4.835960697898429
 40
4.912788918729349
 40
5.006285208481561
 40
5.026909478751637
 40
5.047533749021202
 40
5.101808031471282
 40
5.162325165538573
 40
5.226919745995923
 40
5.294231806596751
 40
5.364544852554902
 40
5.438319055467946
 40
5.517877651324282
 40
5.607647714861594
 40
5.700449642544441
 40
5.788251142364173
 40
5.872714706039799
 40
5.955167292575315
 40
6.037192395190413
 40
6.120669181469135
 40
6.206848616686376
 40
6.296680855416795
 40
6.442558392872627
 40
6.568190371608323
 40
6.692904567360396
 40
6.82422044655717
 40
6.96312185032941
 40
7.107843738851196
 40
7.25343166390731
 40
7.395187468036729
 40
7.533140753237785
 40
7.670550457175281
 40
7.81623651176929
 40
7.987691657359252
 40
8.142277421969293
 40
8.293662615415062
 40
8.44296246087932
 40
8.59159831618537
 40
8.743678992361836
 40
8.90372532369922
 40
9.076307008890568
 40
9.265578604680622
 40
9.459203795360796
 40
9.617619810273585
 40
9.753609671361943
 40
9.87487330000411
 40
9.95452018497782
 40
10.02416413719249
 40
10.09769764405449
 40
10.18909955924975
 40
10.20974586420137
 40
10.23039218263382
 40
10.30057101881267
 40
10.37632012987547
 40
10.37632012987547
 40
10.37632012987547
 40
10.37632012987547
 10
170.1465954835851
 20
14.13795663215997
 10
170.1632217851219
 20
14.11720608845316
 10
170.1970784206578
 20
14.07495111711904
 10
170.2599822541035
 20
14.02029811392074
 10
170.3332500940393
 20
13.97299025121054
 10
170.4175969238636
 20
13.93527231437938
 10
170.513224061546
 20
13.91040619731953
 10
170.6171853775346
 20
13.9030955934594
 10
170.7224020220405
 20
13.91142322794056
 10
170.8206626371334
 20
13.94149179651532
 10
170.9058986427548
 20
13.98848822971878
 10
170.9779220206102
 20
14.04952991250859
 10
171.0350917709096
 20
14.12412969578585
 10
171.0767868747439
 20
14.21002464660177
 10
171.1026952846292
 20
14.30485850432214
 10
171.1118037332653
 20
14.4185497903837
 10
171.0986864796487
 20
14.54332587770781
 10
171.0325330334414
 20
14.66014719171894
 10
170.9369370919569
 20
14.74512539577379
 10
170.8249681022368
 20
14.81416684459157
 10
170.6993659583269
 20
14.87204142045895
 10
170.5656691620856
 20
14.92373723284343
 10
170.4313122818831
 20
14.97899092397184
 10
170.3051983986877
 20
15.04939770641651
 10
170.1926579987535
 20
15.13785540731252
 10
170.0969963064458
 20
15.24981067868475
 10
170.0334157151825
 20
15.39949910101385
 10
170.0200706505015
 20
15.55932794385144
 10
170.0320510987448
 20
15.71048405306847
 10
170.071229892884
 20
15.83809244591542
 10
170.135498775091
 20
15.95080874030844
 10
170.2238204999739
 20
16.04648609268694
 10
170.3338091207627
 20
16.12354214985753
 10
170.4632284401265
 20
16.18151396936281
 10
170.6111838967792
 20
16.21739177588825
 10
170.7682069455487
 20
16.22746719050567
 10
170.917494046643
 20
16.21863637762594
 10
171.059625361417
 20
16.19074899340354
 10
171.1595922609625
 20
16.1341331470114
 10
171.3125074736185
 20
16.08674602105509
 10
171.2455131717168
 20
16.00197553001187
 10
171.2296479120269
 20
15.93438901873486
 10
171.1978750531296
 20
15.86926092793191
 10
171.2150202209572
 20
15.76723453256955
 10
171.1666427208231
 20
15.77493211681903
 10
171.1315789440766
 20
15.7680677172481
 10
171.1296697985718
 20
15.83263831158197
 10
171.0985692931988
 20
15.878256396214
 10
171.0664551628455
 20
15.93561036628454
 10
171.0208038475168
 20
15.98540462692563
 10
170.9658508218386
 20
16.02994813718996
 10
170.9010841173008
 20
16.06763988836553
 10
170.8232377310596
 20
16.09283375791355
 10
170.7355160553352
 20
16.09931230998112
 10
170.6452903277806
 20
16.09235709285609
 10
170.5594594694065
 20
16.06909190460923
 10
170.4828343638595
 20
16.03131644107548
 10
170.4165265636202
 20
15.98051641089576
 10
170.3622560536963
 20
15.91731143407212
 10
170.3224925345459
 20
15.8427645571037
 10
170.2976775510587
 20
15.75917313997766
 10
170.289212426287
 20
15.65192948382288
 10
170.3019697987103
 20
15.52965457267561
 10
170.3681548409273
 20
15.41149724291213
 10
170.4640977399833
 20
15.3260632570953
 10
170.5757914963182
 20
15.25583362306725
 10
170.7010863668702
 20
15.19659162305306
 10
170.8349823941447
 20
15.14616708086135
 10
170.9689930333149
 20
15.09322516984384
 10
171.0950885316915
 20
15.02750170625178
 10
171.2076216638417
 20
14.94480352537324
 10
171.3031370284233
 20
14.83996006310076
 10
171.3672706486962
 20
14.69937117251572
 10
171.3811103725279
 20
14.54065409451595
 10
171.367395471223
 20
14.38153155217877
 10
171.3244739153984
 20
14.23483828819213
 10
171.2545906329065
 20
14.10119796587143
 10
171.1574592213829
 20
13.98532387699293
 10
171.0347806023657
 20
13.89089981770091
 10
170.8874408413168
 20
13.82179270651984
 10
170.7177132497125
 20
13.77953210858855
 10
170.5317404979596
 20
13.7678173623041
 10
170.3528955926184
 20
13.77809486683439
 10
170.1881733753742
 20
13.81966573769156
 10
170.0834410841057
 20
13.88797642883944
 10
169.9350960790365
 20
13.93675219032108
 10
169.9980378194729
 20
14.02976591290844
 10
170.0072274430059
 20
14.10296536248283
 10
170.0303711301232
 20
14.16936294501349
 10
170.0034588335316
 20
14.26974809527582
 10
170.0521338956339
 20
14.26234033517381
 10
170.0916530580697
 20
14.26894063620896
 10
170.0996204944702
 20
14.19078703218934
 10
170.1305436967923
 20
14.15600927375859
 10
170.1465954835851
 20
14.13795663215997
 97
        1
330
B4
 75
     1
 76
     2
 52
45.0
 41
0.1
 77
     0
 78
     1
 53
45.0
 43
0.0
 44
0.0
 45
-0.282842712474619
 46
0.0
 79
     0
 98
        1
 10
0.0
 20
0.0
  0
ENDBLK
  5
4A
330
48
100
AcDbEntity
  8
0
100
AcDbBlockEnd
  0
BLOCK
  5
4D
330
4B
100
AcDbEntity
  8
0
100
AcDbBlockBegin
  2
開示A4枠
 70
     0
 10
0.0
 20
0.00000000000003
 30
0.0
  3
開示A4枠
  1

  0
INSERT
  5
4C
330
4B
100
AcDbEntity
  8
1
100
AcDbBlockReference
  2
開示A4
 10
0.0
 20
0.00000000000003
 30
0.0
  0
ENDBLK
  5
4E
330
4B
100
AcDbEntity
  8
0
100
AcDbBlockEnd
  0
BLOCK
  5
50
330
4F
100
AcDbEntity
  8
0
100
AcDbBlockBegin
  2
91-61
 70
     0
 10
-48.62586670373378
 20
144.2695256586894
 30
0.0
  3
91-61
  1

  0
LINE
  5
D1
330
4F
100
AcDbEntity
  8
1
  6
Continuous
 62
     7
100
AcDbLine
 10
124.8741332962662
 20
129.2695256586894
 30
0.0
 11
113.3741332962662
 21
129.2695256586894
 31
0.0
  0
LINE
  5
D2
330
4F
100
AcDbEntity
  8
1
  6
Continuous
 62
     7
100
AcDbLine
 10
113.3741332962662
 20
122.2695256586894
 30
0.0
 11
124.1241332962662
 21
122.2695256586894
 31
0.0
  0
LINE
  5
D3
330
4F
100
AcDbEntity
  8
1
  6
Continuous
 62
     7
100
AcDbLine
 10
102.6241332962662
 20
122.2695256586894
 30
0.0
 11
113.3741332962662
 21
122.2695256586894
 31
0.0
  0
LINE
  5
D4
330
4F
100
AcDbEntity
  8
1
  6
Continuous
 62
     7
100
AcDbLine
 10
101.8741332962662
 20
129.2695256586894
 30
0.0
 11
101.8741332962662
 21
122.2695256586894
 31
0.0
  0
LINE
  5
D5
330
4F
100
AcDbEntity
  8
1
  6
Continuous
 62
     7
100
AcDbLine
 10
113.3741332962662
 20
129.2695256586894
 30
0.0
 11
101.8741332962662
 21
129.2695256586894
 31
0.0
  0
LINE
  5
D6
330
4F
100
AcDbEntity
  8
1
  6
Continuous
 62
     7
100
AcDbLine
 10
101.8741332962662
 20
122.2695256586894
 30
0.0
 11
102.6241332962662
 21
122.2695256586894
 31
0.0
  0
LINE
  5
D7
330
4F
100
AcDbEntity
  8
1
  6
Continuous
 62
     7
100
AcDbLine
 10
124.8741332962662
 20
122.2695256586894
 30
0.0
 11
124.8741332962662
 21
129.2695256586894
 31
0.0
  0
LINE
  5
D8
330
4F
100
AcDbEntity
  8
1
  6
Continuous
 62
     7
100
AcDbLine
 10
124.1241332962662
 20
122.2695256586894
 30
0.0
 11
124.8741332962662
 21
122.2695256586894
 31
0.0
  0
CIRCLE
  5
D9
330
4F
100
AcDbEntity
  8
1
  6
Continuous
 62
     7
100
AcDbCircle
 10
113.3741332962662
 20
190.641684201667
 30
0.0
 40
11.5
  0
CIRCLE
  5
DA
330
4F
100
AcDbEntity
  8
1
  6
Continuous
 62
     7
100
AcDbCircle
 10
113.3741332962662
 20
190.641684201667
 30
0.0
 40
4.0
  0
ENDBLK
  5
51
330
4F
100
AcDbEntity
  8
0
100
AcDbBlockEnd
  0
BLOCK
  5
F4
330
EB
100
AcDbEntity
  8
0
100
AcDbBlockBegin
  2
*D4
 70
     1
 10
0.0
 20
0.0
 30
0.0
  3
*D4
  1

  0
LINE
  5
EC
330
EB
100
AcDbEntity
  8
1
  6
Continuous
 62
     2
100
AcDbLine
 10
90.87413329626622
 20
122.2695256586894
 30
0.0
 11
90.87413329626622
 21
115.2695256586894
 31
0.0
  0
LINE
  5
ED
330
EB
100
AcDbEntity
  8
1
  6
Continuous
 62
     2
100
AcDbLine
 10
90.87413329626622
 20
129.2695256586894
 30
0.0
 11
90.87413329626622
 21
122.2695256586894
 31
0.0
  0
LINE
  5
EE
330
EB
100
AcDbEntity
  8
1
  6
Continuous
 62
     2
100
AcDbLine
 10
90.87413329626622
 20
136.2695256586894
 30
0.0
 11
90.87413329626622
 21
129.2695256586894
 31
0.0
  0
LINE
  5
EF
330
EB
100
AcDbEntity
  8
1
  6
Continuous
 62
     2
100
AcDbLine
 10
101.8741332962662
 20
122.2695256586894
 30
0.0
 11
89.87413329626622
 21
122.2695256586894
 31
0.0
  0
LINE
  5
F0
330
EB
100
AcDbEntity
  8
1
  6
Continuous
 62
     2
100
AcDbLine
 10
101.8741332962662
 20
129.2695256586894
 30
0.0
 11
89.87413329626622
 21
129.2695256586894
 31
0.0
  0
SOLID
  5
F1
330
EB
100
AcDbEntity
  8
1
 62
     2
100
AcDbTrace
 10
90.41334955471034
 20
132.7695256586894
 30
0.0
 11
91.33491703782211
 21
132.7695256586894
 31
0.0
 12
90.87413329626622
 22
129.2695256586894
 32
0.0
 13
90.87413329626622
 23
129.2695256586894
 33
0.0
  0
SOLID
  5
F2
330
EB
100
AcDbEntity
  8
1
 62
     2
100
AcDbTrace
 10
91.33491703782211
 20
118.7695256586894
 30
0.0
 11
90.41334955471034
 21
118.7695256586894
 31
0.0
 12
90.87413329626622
 22
122.2695256586894
 32
0.0
 13
90.87413329626622
 23
122.2695256586894
 33
0.0
  0
MTEXT
  5
F3
330
EB
100
AcDbEntity
  8
1
 62
     7
100
AcDbMText
 10
89.87413329626622
 20
125.0072048271205
 30
0.0
 40
3.5
 41
0.0
 71
     7
 72
     1
  1
7
  7
CONVERTER_12
 11
0.0
 21
1.0
 31
0.0
 73
     1
 44
0.60024009603842
  0
ENDBLK
  5
F5
330
EB
100
AcDbEntity
  8
0
100
AcDbBlockEnd
  0
BLOCK
  5
FD
330
F8
100
AcDbEntity
  8
0
100
AcDbBlockBegin
  2
*D5
 70
     1
 10
0.0
 20
0.0
 30
0.0
  3
*D5
  1

  0
LINE
  5
F9
330
F8
100
AcDbEntity
  8
1
  6
Continuous
 62
     2
100
AcDbLine
 10
120.2030138166791
 20
196.8809863131155
 30
0.0
 11
99.00296439165902
 21
177.5112649151574
 31
0.0
  0
SOLID
  5
FA
330
F8
100
AcDbEntity
  8
1
 62
     2
100
AcDbTrace
 10
108.1480106009705
 20
185.2426136121861
 30
0.0
 11
107.5263956881898
 21
185.9229675833935
 31
0.0
 12
110.4211038820336
 22
187.9436076129325
 32
0.0
 13
110.4211038820336
 23
187.9436076129325
 33
0.0
  0
SOLID
  5
FB
330
F8
100
AcDbEntity
  8
1
 62
     2
100
AcDbTrace
 10
118.600255991562
 20
196.0407547911478
 30
0.0
 11
119.2218709043427
 21
195.3604008199405
 31
0.0
 12
116.3271627104988
 22
193.3397607904015
 32
0.0
 13
116.3271627104988
 23
193.3397607904015
 33
0.0
  0
MTEXT
  5
FC
330
F8
100
AcDbEntity
  8
1
 62
     7
100
AcDbMText
 10
99.31032752470774
 20
179.1466327344698
 30
0.0
 40
3.5
 41
0.0
 71
     7
 72
     1
  1
\C7;{\Fgdt;n}\C7;8
  7
CONVERTER_12
 11
0.7382573535581476
 21
0.6745191471836219
 31
0.0
 73
     1
 44
0.60024009603842
  0
ENDBLK
  5
FE
330
F8
100
AcDbEntity
  8
0
100
AcDbBlockEnd
  0
BLOCK
  5
107
330
100
100
AcDbEntity
  8
0
100
AcDbBlockBegin
  2
*D6
 70
     1
 10
0.0
 20
0.0
 30
0.0
  3
*D6
  1

  0
LINE
  5
101
330
100
100
AcDbEntity
  8
1
  6
Continuous
 62
     2
100
AcDbLine
 10
124.8741332962662
 20
213.0610091743123
 30
0.0
 11
101.8741332962662
 21
213.0610091743123
 31
0.0
  0
LINE
  5
102
330
100
100
AcDbEntity
  8
1
  6
Continuous
 62
     2
100
AcDbLine
 10
101.8741332962662
 20
190.641684201667
 30
0.0
 11
101.8741332962662
 21
214.0610091743123
 31
0.0
  0
LINE
  5
103
330
100
100
AcDbEntity
  8
1
  6
Continuous
 62
     2
100
AcDbLine
 10
124.8741332962662
 20
190.641684201667
 30
0.0
 11
124.8741332962662
 21
214.0610091743123
 31
0.0
  0
SOLID
  5
104
330
100
100
AcDbEntity
  8
1
 62
     2
100
AcDbTrace
 10
121.3741332962662
 20
212.6002254327564
 30
0.0
 11
121.3741332962662
 21
213.5217929158682
 31
0.0
 12
124.8741332962662
 22
213.0610091743123
 32
0.0
 13
124.8741332962662
 23
213.0610091743123
 33
0.0
  0
SOLID
  5
105
330
100
100
AcDbEntity
  8
1
 62
     2
100
AcDbTrace
 10
105.3741332962662
 20
213.5217929158682
 30
0.0
 11
105.3741332962662
 21
212.6002254327564
 31
0.0
 12
101.8741332962662
 22
213.0610091743123
 32
0.0
 13
101.8741332962662
 23
213.0610091743123
 33
0.0
  0
MTEXT
  5
106
330
100
100
AcDbEntity
  8
1
 62
     7
100
AcDbMText
 10
110.0657033639226
 20
214.061002217236
 30
0.0
 40
3.5
 41
0.0
 71
     7
 72
     1
  1
\C7;{\Fgdt;n}\C7;23
  7
CONVERTER_12
 11
0.9999999999970619
 21
2.424068405545306E-6
 31
0.0
 73
     1
 44
0.60024009603842
  0
ENDBLK
  5
108
330
100
100
AcDbEntity
  8
0
100
AcDbBlockEnd
  0
ENDSEC
  0
SECTION
  2
ENTITIES
  0
INSERT
  5
52
330
1F
100
AcDbEntity
  8
0
100
AcDbBlockReference
  2
開示A4枠
 10
0.0
 20
0.00000000000003
 30
0.0
  0
INSERT
  5
53
330
1F
100
AcDbEntity
  8
1
100
AcDbBlockReference
  2
91-61
 10
-48.62586670373378
 20
144.2695256586894
 30
0.0
  0
LINE
  5
DB
330
1F
100
AcDbEntity
  8
1
  6
DASH_CENTER
 62
     2
100
AcDbLine
 10
113.3741332962662
 20
132.2695256586894
 30
0.0
 11
113.3741332962662
 21
119.2695256586894
 31
0.0
  0
LINE
  5
DC
330
1F
100
AcDbEntity
  8
1
  6
DASH_CENTER
 62
     2
100
AcDbLine
 10
98.76704401986322
 20
190.641684201667
 30
0.0
 11
127.7670440198632
 21
190.641684201667
 31
0.0
  0
LINE
  5
DD
330
1F
100
AcDbEntity
  8
1
  6
DASH_CENTER
 62
     2
100
AcDbLine
 10
113.3741332962662
 20
205.0115304626191
 30
0.0
 11
113.3741332962662
 21
176.2843238600413
 31
0.0
  0
MTEXT
  5
DF
330
1F
100
AcDbEntity
  8
1
 62
     7
100
AcDbMText
 10
157.5
 20
12.50000000000003
 30
0.0
 40
2.5
 41
0.0
 71
     5
 72
     1
  1
2
  7
CONVERTER_12
 73
     1
 44
0.7202881152461
  0
MTEXT
  5
E0
330
1F
100
AcDbEntity
  8
1
 62
     7
100
AcDbMText
 10
151.75
 20
12.50000000000003
 30
0.0
 40
2.5
 41
0.0
 71
     5
 72
     1
  1
04
  7
CONVERTER_12
 73
     1
 44
0.7202881152461
  0
MTEXT
  5
E1
330
1F
100
AcDbEntity
  8
1
 62
     7
100
AcDbMText
 10
140.5
 20
12.50000000000003
 30
0.0
 40
2.5
 41
0.0
 71
     5
 72
     1
  1
2
  7
CONVERTER_12
 73
     1
 44
0.7202881152461
  0
MTEXT
  5
E2
330
1F
100
AcDbEntity
  8
1
 62
     7
100
AcDbMText
 10
134.75
 20
12.50000000000003
 30
0.0
 40
2.5
 41
0.0
 71
     5
 72
     1
  1
04
  7
CONVERTER_12
 73
     1
 44
0.7202881152461
  0
MTEXT
  5
E3
330
1F
100
AcDbEntity
  8
1
 62
     7
100
AcDbMText
 10
123.5
 20
12.50000000000003
 30
0.0
 40
2.5
 41
0.0
 71
     5
 72
     1
  1
2
  7
CONVERTER_12
 73
     1
 44
0.7202881152461
  0
MTEXT
  5
E4
330
1F
100
AcDbEntity
  8
1
 62
     7
100
AcDbMText
 10
117.75
 20
12.50000000000003
 30
0.0
 40
2.5
 41
0.0
 71
     5
 72
     1
  1
04
  7
CONVERTER_12
 73
     1
 44
0.7202881152461
  0
MTEXT
  5
E5
330
1F
100
AcDbEntity
  8
1
 62
     7
100
AcDbMText
 10
100.75
 20
12.50000000000003
 30
0.0
 40
2.5
 41
0.0
 71
     5
 72
     1
  1
04
  7
CONVERTER_12
 73
     1
 44
0.7202881152461
  0
MTEXT
  5
E6
330
1F
100
AcDbEntity
  8
1
 62
     7
100
AcDbMText
 10
106.5
 20
12.50000000000003
 30
0.0
 40
2.5
 41
0.0
 71
     5
 72
     1
  1
2
  7
CONVERTER_12
 73
     1
 44
0.7202881152461
  0
MTEXT
  5
E7
330
1F
100
AcDbEntity
  8
1
 62
     7
100
AcDbMText
 10
85.25000000000003
 20
17.00000000000003
 30
0.0
 40
3.5
 41
0.0
 71
     5
 72
     1
  1
1
  7
CONVERTER_12
 73
     1
 44
0.7202881152461
  0
MTEXT
  5
E8
330
1F
100
AcDbEntity
  8
1
 62
     7
100
AcDbMText
 10
57.00000000000003
 20
22.75000000000004
 30
0.0
 40
3.5
 41
0.0
 71
     5
 72
     1
  1
元口パッキン
  7
CONVERTER_11
 73
     1
 44
0.54545454545455
  0
MTEXT
  5
E9
330
1F
100
AcDbEntity
  8
1
 62
     7
100
AcDbMText
 10
57.00000000000003
 20
14.25000000000003
 30
0.0
 40
3.5
 41
0.0
 71
     5
 72
     1
  1
P40-20S
  7
CONVERTER_12
 73
     1
 44
0.7202881152461
  0
MTEXT
  5
EA
330
1F
100
AcDbEntity
  8
1
 62
     7
100
AcDbMText
 10
93.75000000000003
 20
17.00000000000003
 30
0.0
 40
3.5
 41
0.0
 71
     5
 72
     1
  1
1
  7
CONVERTER_12
 73
     1
 44
0.7202881152461
  0
DIMENSION
  5
F7
330
1F
100
AcDbEntity
  8
1
100
AcDbDimension
  2
*D4
 10
90.87413329626622
 20
129.2695256586894
 30
0.0
 11
88.12413329626622
 21
126.0572048271205
 31
0.0
 70
    32
  1
<>
 71
     5
 42
-1.0
 53
90.0
  3
ME10_DIM_10
100
AcDbAlignedDimension
 13
101.8741332962662
 23
122.2695256586894
 33
0.0
 14
101.8741332962662
 24
129.2695256586894
 34
0.0
 50
90.0
100
AcDbRotatedDimension
  0
INSERT
  5
FF
330
1F
100
AcDbEntity
  8
1
100
AcDbBlockReference
  2
*D5
 10
0.0
 20
0.0
 30
0.0
  0
INSERT
  5
109
330
1F
100
AcDbEntity
  8
1
100
AcDbBlockReference
  2
*D6
 10
0.0
 20
0.0
 30
0.0
  0
ENDSEC
  0
SECTION
  2
OBJECTS
  0
DICTIONARY
  5
C
330
0
100
AcDbDictionary
281
     1
  3
ACAD_GROUP
350
D
  3
ACAD_LAYOUT
350
1A
  3
ACAD_MATERIAL
350
3B
  3
ACAD_MLEADERSTYLE
350
10C
  3
ACAD_MLINESTYLE
350
17
  3
ACAD_PLOTSETTINGS
350
19
  3
ACAD_PLOTSTYLENAME
350
E
  3
ACAD_VISUALSTYLE
350
2A
  3
AcDbVariableDictionary
350
10A
  0
DICTIONARY
  5
D
102
{ACAD_REACTORS
330
C
102
}
330
C
100
AcDbDictionary
281
     1
  0
DICTIONARY
  5
1A
102
{ACAD_REACTORS
330
C
102
}
330
C
100
AcDbDictionary
281
     1
  3
Layout1
350
1E
  3
Layout2
350
26
  3
Model
350
22
  0
DICTIONARY
  5
3B
102
{ACAD_REACTORS
330
C
102
}
330
C
100
AcDbDictionary
281
     1
  3
ByBlock
350
3D
  3
ByLayer
350
3C
  3
Global
350
3E
  0
DICTIONARY
  5
10C
102
{ACAD_REACTORS
330
C
102
}
330
C
100
AcDbDictionary
281
     1
  0
DICTIONARY
  5
17
102
{ACAD_REACTORS
330
C
102
}
330
C
100
AcDbDictionary
281
     1
  3
Standard
350
18
  0
DICTIONARY
  5
19
102
{ACAD_REACTORS
330
C
102
}
330
C
100
AcDbDictionary
281
     1
  0
ACDBDICTIONARYWDFLT
  5
E
102
{ACAD_REACTORS
330
C
102
}
330
C
100
AcDbDictionary
281
     1
  3
Normal
350
F
100
AcDbDictionaryWithDefault
340
F
  0
DICTIONARY
  5
2A
102
{ACAD_REACTORS
330
C
102
}
330
C
100
AcDbDictionary
281
     1
  3
2dWireframe
350
2F
  3
3D Hidden
350
31
  3
3dWireframe
350
30
  3
Basic
350
32
  3
Brighten
350
36
  3
ColorChange
350
3A
  3
Conceptual
350
34
  3
Dim
350
35
  3
Facepattern
350
39
  3
Flat
350
2B
  3
FlatWithEdges
350
2C
  3
Gouraud
350
2D
  3
GouraudWithEdges
350
2E
  3
Linepattern
350
38
  3
Realistic
350
33
  3
Thicken
350
37
  0
DICTIONARY
  5
10A
102
{ACAD_REACTORS
330
C
102
}
330
C
100
AcDbDictionary
281
     1
  3
DIMASSOC
350
10D
  3
HIDETEXT
350
10E
  0
LAYOUT
  5
1E
102
{ACAD_REACTORS
330
1A
102
}
330
1A
100
AcDbPlotSettings
  1

  2
none_device
  4

  6

 40
0.0
 41
0.0
 42
0.0
 43
0.0
 44
0.0
 45
0.0
 46
0.0
 47
0.0
 48
0.0
 49
0.0
140
0.0
141
0.0
142
1.0
143
1.0
 70
   688
 72
     0
 73
     0
 74
     5
  7

 75
    16
147
1.0
148
0.0
149
0.0
100
AcDbLayout
  1
Layout1
 70
     1
 71
     1
 10
0.0
 20
0.0
 11
12.0
 21
9.0
 12
0.0
 22
0.0
 32
0.0
 14
1.00000000000000E+20
 24
1.00000000000000E+20
 34
1.00000000000000E+20
 15
-1.00000000000000E+20
 25
-1.00000000000000E+20
 35
-1.00000000000000E+20
146
0.0
 13
0.0
 23
0.0
 33
0.0
 16
1.0
 26
0.0
 36
0.0
 17
0.0
 27
1.0
 37
0.0
 76
     0
330
1B
  0
LAYOUT
  5
26
102
{ACAD_REACTORS
330
1A
102
}
330
1A
100
AcDbPlotSettings
  1

  2
none_device
  4

  6

 40
0.0
 41
0.0
 42
0.0
 43
0.0
 44
0.0
 45
0.0
 46
0.0
 47
0.0
 48
0.0
 49
0.0
140
0.0
141
0.0
142
1.0
143
1.0
 70
   688
 72
     0
 73
     0
 74
     5
  7

 75
    16
147
1.0
148
0.0
149
0.0
100
AcDbLayout
  1
Layout2
 70
     1
 71
     2
 10
0.0
 20
0.0
 11
0.0
 21
0.0
 12
0.0
 22
0.0
 32
0.0
 14
0.0
 24
0.0
 34
0.0
 15
0.0
 25
0.0
 35
0.0
146
0.0
 13
0.0
 23
0.0
 33
0.0
 16
1.0
 26
0.0
 36
0.0
 17
0.0
 27
1.0
 37
0.0
 76
     0
330
23
  0
LAYOUT
  5
22
102
{ACAD_REACTORS
330
1A
102
}
330
1A
100
AcDbPlotSettings
  1

  2
none_device
  4

  6

 40
0.0
 41
0.0
 42
0.0
 43
0.0
 44
0.0
 45
0.0
 46
0.0
 47
0.0
 48
0.0
 49
0.0
140
0.0
141
0.0
142
1.0
143
1.0
 70
  1712
 72
     0
 73
     0
 74
     0
  7

 75
     0
147
1.0
148
0.0
149
0.0
100
AcDbLayout
  1
Model
 70
     1
 71
     0
 10
0.0
 20
0.0
 11
12.0
 21
9.0
 12
0.0
 22
0.0
 32
0.0
 14
0.0
 24
0.00000000000003
 34
0.0
 15
210.0
 25
297.0
 35
0.0
146
0.0
 13
0.0
 23
0.0
 33
0.0
 16
1.0
 26
0.0
 36
0.0
 17
0.0
 27
1.0
 37
0.0
 76
     0
330
1F
331
29
  0
MATERIAL
  5
3D
102
{ACAD_REACTORS
330
3B
102
}
102
{ACAD_XDICTIONARY
360
131
102
}
330
3B
100
AcDbMaterial
  1
ByBlock
  0
MATERIAL
  5
3C
102
{ACAD_REACTORS
330
3B
102
}
102
{ACAD_XDICTIONARY
360
12F
102
}
330
3B
100
AcDbMaterial
  1
ByLayer
  0
MATERIAL
  5
3E
102
{ACAD_REACTORS
330
3B
102
}
102
{ACAD_XDICTIONARY
360
133
102
}
330
3B
100
AcDbMaterial
  1
Global
  0
MLINESTYLE
  5
18
102
{ACAD_REACTORS
330
17
102
}
330
17
100
AcDbMlineStyle
  2
Standard
 70
     0
  3

 62
   256
 51
90.0
 52
90.0
 71
     2
 49
0.5
 62
   256
  6
BYLAYER
 49
-0.5
 62
   256
  6
BYLAYER
  0
ACDBPLACEHOLDER
  5
F
102
{ACAD_REACTORS
330
E
102
}
330
E
  0
VISUALSTYLE
  5
2F
102
{ACAD_REACTORS
330
2A
102
}
102
{ACAD_XDICTIONARY
360
117
102
}
330
2A
100
AcDbVisualStyle
  2
2dWireframe
 70
     4
 71
     0
 72
     2
 73
     0
 90
        0
 40
-0.6
 41
-30.0
 62
     5
 63
     7
 74
     1
 91
        4
 64
     7
 65
   257
 75
     1
175
     1
 42
1.0
 92
        0
 66
   257
 43
1.0
 76
     1
 77
     6
 78
     2
 67
     7
 79
     5
170
     0
171
     0
290
     0
174
     0
 93
        1
 44
0.0
173
     0
291
     0
 45
0.0
1001
ACAD
1000
AcDbSavedByObjectVersion
1070
     0
  0
VISUALSTYLE
  5
31
102
{ACAD_REACTORS
330
2A
102
}
102
{ACAD_XDICTIONARY
360
11B
102
}
330
2A
100
AcDbVisualStyle
  2
3D Hidden
 70
     6
 71
     1
 72
     2
 73
     2
 90
        0
 40
-0.6
 41
-30.0
 62
     5
 63
     7
 74
     2
 91
        2
 64
     7
 65
   257
 75
     2
175
     1
 42
40.0
 92
        0
 66
   257
 43
1.0
 76
     1
 77
     6
 78
     2
 67
     7
 79
     3
170
     0
171
     0
290
     0
174
     0
 93
        1
 44
0.0
173
     0
291
     0
 45
0.0
1001
ACAD
1000
AcDbSavedByObjectVersion
1070
     0
  0
VISUALSTYLE
  5
30
102
{ACAD_REACTORS
330
2A
102
}
102
{ACAD_XDICTIONARY
360
119
102
}
330
2A
100
AcDbVisualStyle
  2
3dWireframe
 70
     5
 71
     0
 72
     2
 73
     0
 90
        0
 40
-0.6
 41
-30.0
 62
     5
 63
     7
 74
     1
 91
        4
 64
     7
 65
   257
 75
     1
175
     1
 42
1.0
 92
        0
 66
   257
 43
1.0
 76
     1
 77
     6
 78
     2
 67
     7
 79
     5
170
     0
171
     0
290
     0
174
     0
 93
        1
 44
0.0
173
     0
291
     0
 45
0.0
1001
ACAD
1000
AcDbSavedByObjectVersion
1070
     0
  0
VISUALSTYLE
  5
32
102
{ACAD_REACTORS
330
2A
102
}
102
{ACAD_XDICTIONARY
360
11D
102
}
330
2A
100
AcDbVisualStyle
  2
Basic
 70
     7
 71
     1
 72
     0
 73
     1
 90
        0
 40
-0.6
 41
-30.0
 62
     5
 63
     7
 74
     0
 91
        4
 64
     7
 65
   257
 75
     1
175
     1
 42
1.0
 92
        8
 66
     7
 43
1.0
 76
     1
 77
     6
 78
     2
 67
     7
 79
     5
170
     0
171
     0
290
     0
174
     0
 93
        1
 44
0.0
173
     0
291
     1
 45
0.0
1001
ACAD
1000
AcDbSavedByObjectVersion
1070
     0
  0
VISUALSTYLE
  5
36
102
{ACAD_REACTORS
330
2A
102
}
102
{ACAD_XDICTIONARY
360
125
102
}
330
2A
100
AcDbVisualStyle
  2
Brighten
 70
    12
 71
     2
 72
     2
 73
     0
 90
        0
 40
-0.6
 41
-30.0
 62
     5
 63
     7
 74
     1
 91
        4
 64
     7
 65
   257
 75
     1
175
     1
 42
1.0
 92
        8
 66
     7
 43
1.0
 76
     1
 77
     6
 78
     2
 67
     7
 79
     5
170
     0
171
     0
290
     0
174
     0
 93
        1
 44
50.0
173
     0
291
     1
 45
0.0
1001
ACAD
1000
AcDbSavedByObjectVersion
1070
     0
  0
VISUALSTYLE
  5
3A
102
{ACAD_REACTORS
330
2A
102
}
102
{ACAD_XDICTIONARY
360
12D
102
}
330
2A
100
AcDbVisualStyle
  2
ColorChange
 70
    16
 71
     2
 72
     2
 73
     3
 90
        0
 40
-0.6
 41
-30.0
 62
     5
 63
     8
 74
     1
 91
        4
 64
     7
 65
   257
 75
     1
175
     1
 42
1.0
 92
        8
 66
     8
 43
1.0
 76
     1
 77
     6
 78
     2
 67
     7
 79
     5
170
     0
171
     0
290
     0
174
     0
 93
        1
 44
0.0
173
     0
291
     1
 45
0.0
1001
ACAD
1000
AcDbSavedByObjectVersion
1070
     0
  0
VISUALSTYLE
  5
34
102
{ACAD_REACTORS
330
2A
102
}
102
{ACAD_XDICTIONARY
360
121
102
}
330
2A
100
AcDbVisualStyle
  2
Conceptual
 70
     9
 71
     3
 72
     2
 73
     0
 90
        0
 40
-0.6
 41
-30.0
 62
     5
 63
     7
 74
     2
 91
        2
 64
     7
 65
   257
 75
     1
175
     1
 42
40.0
 92
        8
 66
     7
 43
1.0
 76
     1
 77
     6
 78
     2
 67
     7
 79
     3
170
     0
171
     0
290
     0
174
     0
 93
        1
 44
0.0
173
     0
291
     0
 45
0.0
1001
ACAD
1000
AcDbSavedByObjectVersion
1070
     0
  0
VISUALSTYLE
  5
35
102
{ACAD_REACTORS
330
2A
102
}
102
{ACAD_XDICTIONARY
360
123
102
}
330
2A
100
AcDbVisualStyle
  2
Dim
 70
    11
 71
     2
 72
     2
 73
     0
 90
        0
 40
-0.6
 41
-30.0
 62
     5
 63
     7
 74
     1
 91
        4
 64
     7
 65
   257
 75
     1
175
     1
 42
1.0
 92
        8
 66
     7
 43
1.0
 76
     1
 77
     6
 78
     2
 67
     7
 79
     5
170
     0
171
     0
290
     0
174
     0
 93
        1
 44
-50.0
173
     0
291
     1
 45
0.0
1001
ACAD
1000
AcDbSavedByObjectVersion
1070
     0
  0
VISUALSTYLE
  5
39
102
{ACAD_REACTORS
330
2A
102
}
102
{ACAD_XDICTIONARY
360
12B
102
}
330
2A
100
AcDbVisualStyle
  2
Facepattern
 70
    15
 71
     2
 72
     2
 73
     0
 90
        0
 40
-0.6
 41
-30.0
 62
     5
 63
     7
 74
     1
 91
        4
 64
     7
 65
   257
 75
     1
175
     1
 42
1.0
 92
        8
 66
     7
 43
1.0
 76
     1
 77
     6
 78
     2
 67
     7
 79
     5
170
     0
171
     0
290
     0
174
     0
 93
        1
 44
0.0
173
     0
291
     1
 45
0.0
1001
ACAD
1000
AcDbSavedByObjectVersion
1070
     0
  0
VISUALSTYLE
  5
2B
102
{ACAD_REACTORS
330
2A
102
}
102
{ACAD_XDICTIONARY
360
10F
102
}
330
2A
100
AcDbVisualStyle
  2
Flat
 70
     0
 71
     2
 72
     1
 73
     1
 90
        2
 40
-0.6
 41
30.0
 62
     5
 63
     7
 74
     0
 91
        4
 64
     7
 65
   257
 75
     1
175
     1
 42
1.0
 92
        8
 66
     7
 43
1.0
 76
     1
 77
     6
 78
     2
 67
     7
 79
     5
170
     0
171
     0
290
     0
174
     0
 93
       13
 44
0.0
173
     0
291
     1
 45
0.0
1001
ACAD
1000
AcDbSavedByObjectVersion
1070
     0
  0
VISUALSTYLE
  5
2C
102
{ACAD_REACTORS
330
2A
102
}
102
{ACAD_XDICTIONARY
360
111
102
}
330
2A
100
AcDbVisualStyle
  2
FlatWithEdges
 70
     1
 71
     2
 72
     1
 73
     1
 90
        2
 40
-0.6
 41
30.0
 62
     5
 63
     7
 74
     1
 91
        4
 64
     7
 65
   257
 75
     1
175
     1
 42
1.0
 92
        0
 66
   257
 43
1.0
 76
     1
 77
     6
 78
     2
 67
     7
 79
     5
170
     0
171
     0
290
     0
174
     0
 93
       13
 44
0.0
173
     0
291
     1
 45
0.0
1001
ACAD
1000
AcDbSavedByObjectVersion
1070
     0
  0
VISUALSTYLE
  5
2D
102
{ACAD_REACTORS
330
2A
102
}
102
{ACAD_XDICTIONARY
360
113
102
}
330
2A
100
AcDbVisualStyle
  2
Gouraud
 70
     2
 71
     2
 72
     2
 73
     1
 90
        2
 40
-0.6
 41
30.0
 62
     5
 63
     7
 74
     0
 91
        4
 64
     7
 65
   257
 75
     1
175
     1
 42
1.0
 92
        0
 66
     7
 43
1.0
 76
     1
 77
     6
 78
     2
 67
     7
 79
     5
170
     0
171
     0
290
     0
174
     0
 93
       13
 44
0.0
173
     0
291
     1
 45
0.0
1001
ACAD
1000
AcDbSavedByObjectVersion
1070
     0
  0
VISUALSTYLE
  5
2E
102
{ACAD_REACTORS
330
2A
102
}
102
{ACAD_XDICTIONARY
360
115
102
}
330
2A
100
AcDbVisualStyle
  2
GouraudWithEdges
 70
     3
 71
     2
 72
     2
 73
     1
 90
        2
 40
-0.6
 41
30.0
 62
     5
 63
     7
 74
     1
 91
        4
 64
     7
 65
   257
 75
     1
175
     1
 42
1.0
 92
        0
 66
   257
 43
1.0
 76
     1
 77
     6
 78
     2
 67
     7
 79
     5
170
     0
171
     0
290
     0
174
     0
 93
       13
 44
0.0
173
     0
291
     1
 45
0.0
1001
ACAD
1000
AcDbSavedByObjectVersion
1070
     0
  0
VISUALSTYLE
  5
38
102
{ACAD_REACTORS
330
2A
102
}
102
{ACAD_XDICTIONARY
360
129
102
}
330
2A
100
AcDbVisualStyle
  2
Linepattern
 70
    14
 71
     2
 72
     2
 73
     0
 90
        0
 40
-0.6
 41
-30.0
 62
     5
 63
     7
 74
     1
 91
        4
 64
     7
 65
   257
 75
     7
175
     7
 42
1.0
 92
        8
 66
     7
 43
1.0
 76
     1
 77
     6
 78
     2
 67
     7
 79
     5
170
     0
171
     0
290
     0
174
     0
 93
        1
 44
0.0
173
     0
291
     1
 45
0.0
1001
ACAD
1000
AcDbSavedByObjectVersion
1070
     0
  0
VISUALSTYLE
  5
33
102
{ACAD_REACTORS
330
2A
102
}
102
{ACAD_XDICTIONARY
360
11F
102
}
330
2A
100
AcDbVisualStyle
  2
Realistic
 70
     8
 71
     2
 72
     2
 73
     0
 90
        0
 40
-0.6
 41
-30.0
 62
     5
 63
     7
 74
     1
 91
        0
 64
     7
 65
   257
 75
     1
175
     1
 42
1.0
 92
        8
 66
     8
 43
1.0
 76
     1
 77
     6
 78
     2
 67
     7
 79
     5
170
     0
171
     0
290
     0
174
     0
 93
       13
 44
0.0
173
     0
291
     0
 45
0.0
1001
ACAD
1000
AcDbSavedByObjectVersion
1070
     0
  0
VISUALSTYLE
  5
37
102
{ACAD_REACTORS
330
2A
102
}
102
{ACAD_XDICTIONARY
360
127
102
}
330
2A
100
AcDbVisualStyle
  2
Thicken
 70
    13
 71
     2
 72
     2
 73
     0
 90
        0
 40
-0.6
 41
-30.0
 62
     5
 63
     7
 74
     1
 91
        4
 64
     7
 65
   257
 75
     1
175
     1
 42
1.0
 92
       12
 66
     7
 43
1.0
 76
     1
 77
     6
 78
     2
 67
     7
 79
     5
170
     0
171
     0
290
     0
174
     0
 93
        1
 44
0.0
173
     0
291
     1
 45
0.0
1001
ACAD
1000
AcDbSavedByObjectVersion
1070
     0
  0
DICTIONARYVAR
  5
10D
102
{ACAD_REACTORS
330
10A
102
}
330
10A
100
DictionaryVariables
280
     0
  1
2
  0
DICTIONARYVAR
  5
10E
102
{ACAD_REACTORS
330
10A
102
}
330
10A
100
DictionaryVariables
280
     0
  1
1
  0
DICTIONARY
  5
131
330
3D
100
AcDbDictionary
280
     1
281
     1
  3
ACAD_XREC_ROUNDTRIP
360
132
  0
DICTIONARY
  5
12F
330
3C
100
AcDbDictionary
280
     1
281
     1
  3
ACAD_XREC_ROUNDTRIP
360
130
  0
DICTIONARY
  5
133
330
3E
100
AcDbDictionary
280
     1
281
     1
  3
ACAD_XREC_ROUNDTRIP
360
134
  0
DICTIONARY
  5
117
330
2F
100
AcDbDictionary
280
     1
281
     1
  3
ACAD_XREC_ROUNDTRIP
360
118
  0
DICTIONARY
  5
11B
330
31
100
AcDbDictionary
280
     1
281
     1
  3
ACAD_XREC_ROUNDTRIP
360
11C
  0
DICTIONARY
  5
119
330
30
100
AcDbDictionary
280
     1
281
     1
  3
ACAD_XREC_ROUNDTRIP
360
11A
  0
DICTIONARY
  5
11D
330
32
100
AcDbDictionary
280
     1
281
     1
  3
ACAD_XREC_ROUNDTRIP
360
11E
  0
DICTIONARY
  5
125
330
36
100
AcDbDictionary
280
     1
281
     1
  3
ACAD_XREC_ROUNDTRIP
360
126
  0
DICTIONARY
  5
12D
330
3A
100
AcDbDictionary
280
     1
281
     1
  3
ACAD_XREC_ROUNDTRIP
360
12E
  0
DICTIONARY
  5
121
330
34
100
AcDbDictionary
280
     1
281
     1
  3
ACAD_XREC_ROUNDTRIP
360
122
  0
DICTIONARY
  5
123
330
35
100
AcDbDictionary
280
     1
281
     1
  3
ACAD_XREC_ROUNDTRIP
360
124
  0
DICTIONARY
  5
12B
330
39
100
AcDbDictionary
280
     1
281
     1
  3
ACAD_XREC_ROUNDTRIP
360
12C
  0
DICTIONARY
  5
10F
330
2B
100
AcDbDictionary
280
     1
281
     1
  3
ACAD_XREC_ROUNDTRIP
360
110
  0
DICTIONARY
  5
111
330
2C
100
AcDbDictionary
280
     1
281
     1
  3
ACAD_XREC_ROUNDTRIP
360
112
  0
DICTIONARY
  5
113
330
2D
100
AcDbDictionary
280
     1
281
     1
  3
ACAD_XREC_ROUNDTRIP
360
114
  0
DICTIONARY
  5
115
330
2E
100
AcDbDictionary
280
     1
281
     1
  3
ACAD_XREC_ROUNDTRIP
360
116
  0
DICTIONARY
  5
129
330
38
100
AcDbDictionary
280
     1
281
     1
  3
ACAD_XREC_ROUNDTRIP
360
12A
  0
DICTIONARY
  5
11F
330
33
100
AcDbDictionary
280
     1
281
     1
  3
ACAD_XREC_ROUNDTRIP
360
120
  0
DICTIONARY
  5
127
330
37
100
AcDbDictionary
280
     1
281
     1
  3
ACAD_XREC_ROUNDTRIP
360
128
  0
XRECORD
  5
132
102
{ACAD_REACTORS
330
131
102
}
330
131
100
AcDbXrecord
280
     1
102
MATERIAL
148
0.0
149
0.0
149
0.0
 93
        0
 94
      127
282
     0
 72
     1
 77
     1
171
     1
175
     1
179
     1
273
     0
  0
XRECORD
  5
130
102
{ACAD_REACTORS
330
12F
102
}
330
12F
100
AcDbXrecord
280
     1
102
MATERIAL
148
0.0
149
0.0
149
0.0
 93
        0
 94
      127
282
     0
 72
     1
 77
     1
171
     1
175
     1
179
     1
273
     0
  0
XRECORD
  5
134
102
{ACAD_REACTORS
330
133
102
}
330
133
100
AcDbXrecord
280
     1
102
MATERIAL
148
0.0
149
0.0
149
0.0
 93
        0
 94
      127
282
     0
 72
     1
 77
     1
171
     1
175
     1
179
     1
273
     0
  0
XRECORD
  5
118
102
{ACAD_REACTORS
330
117
102
}
330
117
100
AcDbXrecord
280
     1
102
RTVSPropertyOp0
 70
     1
102
RTVSPropertyOp1
 70
     1
102
RTVSPropertyOp2
 70
     1
102
RTVSPropertyOp3
 70
     1
102
RTVSPropertyOp4
 70
     1
102
RTVSPropertyOp5
 70
     1
102
RTVSPropertyOp6
 70
     1
102
RTVSPropertyOp7
 70
     1
102
RTVSPropertyOp8
 70
     1
102
RTVSPropertyOp9
 70
     1
102
RTVSPropertyOp10
 70
     1
102
RTVSPropertyOp11
 70
     1
102
RTVSPropertyOp12
 70
     1
102
RTVSPropertyOp13
 70
     1
102
RTVSPropertyOp14
 70
     1
102
RTVSPropertyOp15
 70
     1
102
RTVSPropertyOp16
 70
     1
102
RTVSPropertyOp17
 70
     1
102
RTVSPropertyOp18
 70
     1
102
RTVSPropertyOp19
 70
     1
102
RTVSPropertyOp20
 70
     1
102
RTVSPropertyOp21
 70
     1
102
RTVSPropertyOp22
 70
     1
102
RTVSPropertyOp23
 70
     1
102
RTVSPropertyOp24
 70
     1
102
RTVSPropertyOp25
 70
     1
102
RTVSPropertyOp26
 70
     1
102
RTVSPropertyOp27
 70
     1
102
RTVSPropertyOp28
 70
     1
102
RTVSPropertyOp29
 70
     1
102
RTVSPropertyOp30
 70
     1
102
RTVSPropertyOp31
 70
     1
102
RTVSPropertyOp32
 70
     1
  0
XRECORD
  5
11C
102
{ACAD_REACTORS
330
11B
102
}
330
11B
100
AcDbXrecord
280
     1
102
RTVSPropertyOp0
 70
     1
102
RTVSPropertyOp1
 70
     1
102
RTVSPropertyOp2
 70
     1
102
RTVSPropertyOp3
 70
     1
102
RTVSPropertyOp4
 70
     1
102
RTVSPropertyOp5
 70
     1
102
RTVSPropertyOp6
 70
     1
102
RTVSPropertyOp7
 70
     1
102
RTVSPropertyOp8
 70
     1
102
RTVSPropertyOp9
 70
     1
102
RTVSPropertyOp10
 70
     1
102
RTVSPropertyOp11
 70
     1
102
RTVSPropertyOp12
 70
     1
102
RTVSPropertyOp13
 70
     1
102
RTVSPropertyOp14
 70
     1
102
RTVSPropertyOp15
 70
     1
102
RTVSPropertyOp16
 70
     1
102
RTVSPropertyOp17
 70
     1
102
RTVSPropertyOp18
 70
     1
102
RTVSPropertyOp19
 70
     1
102
RTVSPropertyOp20
 70
     1
102
RTVSPropertyOp21
 70
     1
102
RTVSPropertyOp22
 70
     1
102
RTVSPropertyOp23
 70
     1
102
RTVSPropertyOp24
 70
     1
102
RTVSPropertyOp25
 70
     1
102
RTVSPropertyOp26
 70
     1
102
RTVSPropertyOp27
 70
     1
102
RTVSPropertyOp28
 70
     1
102
RTVSPropertyOp29
 70
     1
102
RTVSPropertyOp30
 70
     1
102
RTVSPropertyOp31
 70
     1
102
RTVSPropertyOp32
 70
     1
  0
XRECORD
  5
11A
102
{ACAD_REACTORS
330
119
102
}
330
119
100
AcDbXrecord
280
     1
102
RTVSPropertyOp0
 70
     1
102
RTVSPropertyOp1
 70
     1
102
RTVSPropertyOp2
 70
     1
102
RTVSPropertyOp3
 70
     1
102
RTVSPropertyOp4
 70
     1
102
RTVSPropertyOp5
 70
     1
102
RTVSPropertyOp6
 70
     1
102
RTVSPropertyOp7
 70
     1
102
RTVSPropertyOp8
 70
     1
102
RTVSPropertyOp9
 70
     1
102
RTVSPropertyOp10
 70
     1
102
RTVSPropertyOp11
 70
     1
102
RTVSPropertyOp12
 70
     1
102
RTVSPropertyOp13
 70
     1
102
RTVSPropertyOp14
 70
     1
102
RTVSPropertyOp15
 70
     1
102
RTVSPropertyOp16
 70
     1
102
RTVSPropertyOp17
 70
     1
102
RTVSPropertyOp18
 70
     1
102
RTVSPropertyOp19
 70
     1
102
RTVSPropertyOp20
 70
     1
102
RTVSPropertyOp21
 70
     1
102
RTVSPropertyOp22
 70
     1
102
RTVSPropertyOp23
 70
     1
102
RTVSPropertyOp24
 70
     1
102
RTVSPropertyOp25
 70
     1
102
RTVSPropertyOp26
 70
     1
102
RTVSPropertyOp27
 70
     1
102
RTVSPropertyOp28
 70
     1
102
RTVSPropertyOp29
 70
     1
102
RTVSPropertyOp30
 70
     1
102
RTVSPropertyOp31
 70
     1
102
RTVSPropertyOp32
 70
     1
  0
XRECORD
  5
11E
102
{ACAD_REACTORS
330
11D
102
}
330
11D
100
AcDbXrecord
280
     1
102
RTVSPropertyOp0
 70
     1
102
RTVSPropertyOp1
 70
     1
102
RTVSPropertyOp2
 70
     1
102
RTVSPropertyOp3
 70
     1
102
RTVSPropertyOp4
 70
     1
102
RTVSPropertyOp5
 70
     1
102
RTVSPropertyOp6
 70
     1
102
RTVSPropertyOp7
 70
     1
102
RTVSPropertyOp8
 70
     1
102
RTVSPropertyOp9
 70
     1
102
RTVSPropertyOp10
 70
     1
102
RTVSPropertyOp11
 70
     1
102
RTVSPropertyOp12
 70
     1
102
RTVSPropertyOp13
 70
     1
102
RTVSPropertyOp14
 70
     1
102
RTVSPropertyOp15
 70
     1
102
RTVSPropertyOp16
 70
     1
102
RTVSPropertyOp17
 70
     1
102
RTVSPropertyOp18
 70
     1
102
RTVSPropertyOp19
 70
     1
102
RTVSPropertyOp20
 70
     1
102
RTVSPropertyOp21
 70
     1
102
RTVSPropertyOp22
 70
     1
102
RTVSPropertyOp23
 70
     1
102
RTVSPropertyOp24
 70
     1
102
RTVSPropertyOp25
 70
     1
102
RTVSPropertyOp26
 70
     1
102
RTVSPropertyOp27
 70
     1
102
RTVSPropertyOp28
 70
     1
102
RTVSPropertyOp29
 70
     1
102
RTVSPropertyOp30
 70
     1
102
RTVSPropertyOp31
 70
     1
102
RTVSPropertyOp32
 70
     1
  0
XRECORD
  5
126
102
{ACAD_REACTORS
330
125
102
}
330
125
100
AcDbXrecord
280
     1
102
RTVSPropertyOp0
 70
     1
102
RTVSPropertyOp1
 70
     1
102
RTVSPropertyOp2
 70
     1
102
RTVSPropertyOp3
 70
     1
102
RTVSPropertyOp4
 70
     1
102
RTVSPropertyOp5
 70
     1
102
RTVSPropertyOp6
 70
     1
102
RTVSPropertyOp7
 70
     1
102
RTVSPropertyOp8
 70
     1
102
RTVSPropertyOp9
 70
     1
102
RTVSPropertyOp10
 70
     1
102
RTVSPropertyOp11
 70
     1
102
RTVSPropertyOp12
 70
     1
102
RTVSPropertyOp13
 70
     1
102
RTVSPropertyOp14
 70
     1
102
RTVSPropertyOp15
 70
     1
102
RTVSPropertyOp16
 70
     1
102
RTVSPropertyOp17
 70
     1
102
RTVSPropertyOp18
 70
     1
102
RTVSPropertyOp19
 70
     1
102
RTVSPropertyOp20
 70
     1
102
RTVSPropertyOp21
 70
     1
102
RTVSPropertyOp22
 70
     1
102
RTVSPropertyOp23
 70
     1
102
RTVSPropertyOp24
 70
     1
102
RTVSPropertyOp25
 70
     1
102
RTVSPropertyOp26
 70
     1
102
RTVSPropertyOp27
 70
     1
102
RTVSPropertyOp28
 70
     1
102
RTVSPropertyOp29
 70
     1
102
RTVSPropertyOp30
 70
     1
102
RTVSPropertyOp31
 70
     1
102
RTVSPropertyOp32
 70
     1
  0
XRECORD
  5
12E
102
{ACAD_REACTORS
330
12D
102
}
330
12D
100
AcDbXrecord
280
     1
102
RTVSPropertyOp0
 70
     1
102
RTVSPropertyOp1
 70
     1
102
RTVSPropertyOp2
 70
     1
102
RTVSPropertyOp3
 70
     1
102
RTVSPropertyOp4
 70
     1
102
RTVSPropertyOp5
 70
     1
102
RTVSPropertyOp6
 70
     1
102
RTVSPropertyOp7
 70
     1
102
RTVSPropertyOp8
 70
     1
102
RTVSPropertyOp9
 70
     1
102
RTVSPropertyOp10
 70
     1
102
RTVSPropertyOp11
 70
     1
102
RTVSPropertyOp12
 70
     1
102
RTVSPropertyOp13
 70
     1
102
RTVSPropertyOp14
 70
     1
102
RTVSPropertyOp15
 70
     1
102
RTVSPropertyOp16
 70
     1
102
RTVSPropertyOp17
 70
     1
102
RTVSPropertyOp18
 70
     1
102
RTVSPropertyOp19
 70
     1
102
RTVSPropertyOp20
 70
     1
102
RTVSPropertyOp21
 70
     1
102
RTVSPropertyOp22
 70
     1
102
RTVSPropertyOp23
 70
     1
102
RTVSPropertyOp24
 70
     1
102
RTVSPropertyOp25
 70
     1
102
RTVSPropertyOp26
 70
     1
102
RTVSPropertyOp27
 70
     1
102
RTVSPropertyOp28
 70
     1
102
RTVSPropertyOp29
 70
     1
102
RTVSPropertyOp30
 70
     1
102
RTVSPropertyOp31
 70
     1
102
RTVSPropertyOp32
 70
     1
  0
XRECORD
  5
122
102
{ACAD_REACTORS
330
121
102
}
330
121
100
AcDbXrecord
280
     1
102
RTVSPropertyOp0
 70
     1
102
RTVSPropertyOp1
 70
     1
102
RTVSPropertyOp2
 70
     1
102
RTVSPropertyOp3
 70
     1
102
RTVSPropertyOp4
 70
     1
102
RTVSPropertyOp5
 70
     1
102
RTVSPropertyOp6
 70
     1
102
RTVSPropertyOp7
 70
     1
102
RTVSPropertyOp8
 70
     1
102
RTVSPropertyOp9
 70
     1
102
RTVSPropertyOp10
 70
     1
102
RTVSPropertyOp11
 70
     1
102
RTVSPropertyOp12
 70
     1
102
RTVSPropertyOp13
 70
     1
102
RTVSPropertyOp14
 70
     1
102
RTVSPropertyOp15
 70
     1
102
RTVSPropertyOp16
 70
     1
102
RTVSPropertyOp17
 70
     1
102
RTVSPropertyOp18
 70
     1
102
RTVSPropertyOp19
 70
     1
102
RTVSPropertyOp20
 70
     1
102
RTVSPropertyOp21
 70
     1
102
RTVSPropertyOp22
 70
     1
102
RTVSPropertyOp23
 70
     1
102
RTVSPropertyOp24
 70
     1
102
RTVSPropertyOp25
 70
     1
102
RTVSPropertyOp26
 70
     1
102
RTVSPropertyOp27
 70
     1
102
RTVSPropertyOp28
 70
     1
102
RTVSPropertyOp29
 70
     1
102
RTVSPropertyOp30
 70
     1
102
RTVSPropertyOp31
 70
     1
102
RTVSPropertyOp32
 70
     1
  0
XRECORD
  5
124
102
{ACAD_REACTORS
330
123
102
}
330
123
100
AcDbXrecord
280
     1
102
RTVSPropertyOp0
 70
     1
102
RTVSPropertyOp1
 70
     1
102
RTVSPropertyOp2
 70
     1
102
RTVSPropertyOp3
 70
     1
102
RTVSPropertyOp4
 70
     1
102
RTVSPropertyOp5
 70
     1
102
RTVSPropertyOp6
 70
     1
102
RTVSPropertyOp7
 70
     1
102
RTVSPropertyOp8
 70
     1
102
RTVSPropertyOp9
 70
     1
102
RTVSPropertyOp10
 70
     1
102
RTVSPropertyOp11
 70
     1
102
RTVSPropertyOp12
 70
     1
102
RTVSPropertyOp13
 70
     1
102
RTVSPropertyOp14
 70
     1
102
RTVSPropertyOp15
 70
     1
102
RTVSPropertyOp16
 70
     1
102
RTVSPropertyOp17
 70
     1
102
RTVSPropertyOp18
 70
     1
102
RTVSPropertyOp19
 70
     1
102
RTVSPropertyOp20
 70
     1
102
RTVSPropertyOp21
 70
     1
102
RTVSPropertyOp22
 70
     1
102
RTVSPropertyOp23
 70
     1
102
RTVSPropertyOp24
 70
     1
102
RTVSPropertyOp25
 70
     1
102
RTVSPropertyOp26
 70
     1
102
RTVSPropertyOp27
 70
     1
102
RTVSPropertyOp28
 70
     1
102
RTVSPropertyOp29
 70
     1
102
RTVSPropertyOp30
 70
     1
102
RTVSPropertyOp31
 70
     1
102
RTVSPropertyOp32
 70
     1
  0
XRECORD
  5
12C
102
{ACAD_REACTORS
330
12B
102
}
330
12B
100
AcDbXrecord
280
     1
102
RTVSPropertyOp0
 70
     1
102
RTVSPropertyOp1
 70
     1
102
RTVSPropertyOp2
 70
     1
102
RTVSPropertyOp3
 70
     1
102
RTVSPropertyOp4
 70
     1
102
RTVSPropertyOp5
 70
     1
102
RTVSPropertyOp6
 70
     1
102
RTVSPropertyOp7
 70
     1
102
RTVSPropertyOp8
 70
     1
102
RTVSPropertyOp9
 70
     1
102
RTVSPropertyOp10
 70
     1
102
RTVSPropertyOp11
 70
     1
102
RTVSPropertyOp12
 70
     1
102
RTVSPropertyOp13
 70
     1
102
RTVSPropertyOp14
 70
     1
102
RTVSPropertyOp15
 70
     1
102
RTVSPropertyOp16
 70
     1
102
RTVSPropertyOp17
 70
     1
102
RTVSPropertyOp18
 70
     1
102
RTVSPropertyOp19
 70
     1
102
RTVSPropertyOp20
 70
     1
102
RTVSPropertyOp21
 70
     1
102
RTVSPropertyOp22
 70
     1
102
RTVSPropertyOp23
 70
     1
102
RTVSPropertyOp24
 70
     1
102
RTVSPropertyOp25
 70
     1
102
RTVSPropertyOp26
 70
     1
102
RTVSPropertyOp27
 70
     1
102
RTVSPropertyOp28
 70
     1
102
RTVSPropertyOp29
 70
     1
102
RTVSPropertyOp30
 70
     1
102
RTVSPropertyOp31
 70
     1
102
RTVSPropertyOp32
 70
     1
  0
XRECORD
  5
110
102
{ACAD_REACTORS
330
10F
102
}
330
10F
100
AcDbXrecord
280
     1
102
RTVSPropertyOp0
 70
     1
102
RTVSPropertyOp1
 70
     1
102
RTVSPropertyOp2
 70
     1
102
RTVSPropertyOp3
 70
     1
102
RTVSPropertyOp4
 70
     1
102
RTVSPropertyOp5
 70
     1
102
RTVSPropertyOp6
 70
     1
102
RTVSPropertyOp7
 70
     1
102
RTVSPropertyOp8
 70
     1
102
RTVSPropertyOp9
 70
     1
102
RTVSPropertyOp10
 70
     1
102
RTVSPropertyOp11
 70
     1
102
RTVSPropertyOp12
 70
     1
102
RTVSPropertyOp13
 70
     1
102
RTVSPropertyOp14
 70
     1
102
RTVSPropertyOp15
 70
     1
102
RTVSPropertyOp16
 70
     1
102
RTVSPropertyOp17
 70
     1
102
RTVSPropertyOp18
 70
     1
102
RTVSPropertyOp19
 70
     1
102
RTVSPropertyOp20
 70
     1
102
RTVSPropertyOp21
 70
     1
102
RTVSPropertyOp22
 70
     1
102
RTVSPropertyOp23
 70
     1
102
RTVSPropertyOp24
 70
     1
102
RTVSPropertyOp25
 70
     1
102
RTVSPropertyOp26
 70
     1
102
RTVSPropertyOp27
 70
     1
102
RTVSPropertyOp28
 70
     1
102
RTVSPropertyOp29
 70
     1
102
RTVSPropertyOp30
 70
     1
102
RTVSPropertyOp31
 70
     1
102
RTVSPropertyOp32
 70
     1
  0
XRECORD
  5
112
102
{ACAD_REACTORS
330
111
102
}
330
111
100
AcDbXrecord
280
     1
102
RTVSPropertyOp0
 70
     1
102
RTVSPropertyOp1
 70
     1
102
RTVSPropertyOp2
 70
     1
102
RTVSPropertyOp3
 70
     1
102
RTVSPropertyOp4
 70
     1
102
RTVSPropertyOp5
 70
     1
102
RTVSPropertyOp6
 70
     1
102
RTVSPropertyOp7
 70
     1
102
RTVSPropertyOp8
 70
     1
102
RTVSPropertyOp9
 70
     1
102
RTVSPropertyOp10
 70
     1
102
RTVSPropertyOp11
 70
     1
102
RTVSPropertyOp12
 70
     1
102
RTVSPropertyOp13
 70
     1
102
RTVSPropertyOp14
 70
     1
102
RTVSPropertyOp15
 70
     1
102
RTVSPropertyOp16
 70
     1
102
RTVSPropertyOp17
 70
     1
102
RTVSPropertyOp18
 70
     1
102
RTVSPropertyOp19
 70
     1
102
RTVSPropertyOp20
 70
     1
102
RTVSPropertyOp21
 70
     1
102
RTVSPropertyOp22
 70
     1
102
RTVSPropertyOp23
 70
     1
102
RTVSPropertyOp24
 70
     1
102
RTVSPropertyOp25
 70
     1
102
RTVSPropertyOp26
 70
     1
102
RTVSPropertyOp27
 70
     1
102
RTVSPropertyOp28
 70
     1
102
RTVSPropertyOp29
 70
     1
102
RTVSPropertyOp30
 70
     1
102
RTVSPropertyOp31
 70
     1
102
RTVSPropertyOp32
 70
     1
  0
XRECORD
  5
114
102
{ACAD_REACTORS
330
113
102
}
330
113
100
AcDbXrecord
280
     1
102
RTVSPropertyOp0
 70
     1
102
RTVSPropertyOp1
 70
     1
102
RTVSPropertyOp2
 70
     1
102
RTVSPropertyOp3
 70
     1
102
RTVSPropertyOp4
 70
     1
102
RTVSPropertyOp5
 70
     1
102
RTVSPropertyOp6
 70
     1
102
RTVSPropertyOp7
 70
     1
102
RTVSPropertyOp8
 70
     1
102
RTVSPropertyOp9
 70
     1
102
RTVSPropertyOp10
 70
     1
102
RTVSPropertyOp11
 70
     1
102
RTVSPropertyOp12
 70
     1
102
RTVSPropertyOp13
 70
     1
102
RTVSPropertyOp14
 70
     1
102
RTVSPropertyOp15
 70
     1
102
RTVSPropertyOp16
 70
     1
102
RTVSPropertyOp17
 70
     1
102
RTVSPropertyOp18
 70
     1
102
RTVSPropertyOp19
 70
     1
102
RTVSPropertyOp20
 70
     1
102
RTVSPropertyOp21
 70
     1
102
RTVSPropertyOp22
 70
     1
102
RTVSPropertyOp23
 70
     1
102
RTVSPropertyOp24
 70
     1
102
RTVSPropertyOp25
 70
     1
102
RTVSPropertyOp26
 70
     1
102
RTVSPropertyOp27
 70
     1
102
RTVSPropertyOp28
 70
     1
102
RTVSPropertyOp29
 70
     1
102
RTVSPropertyOp30
 70
     1
102
RTVSPropertyOp31
 70
     1
102
RTVSPropertyOp32
 70
     1
  0
XRECORD
  5
116
102
{ACAD_REACTORS
330
115
102
}
330
115
100
AcDbXrecord
280
     1
102
RTVSPropertyOp0
 70
     1
102
RTVSPropertyOp1
 70
     1
102
RTVSPropertyOp2
 70
     1
102
RTVSPropertyOp3
 70
     1
102
RTVSPropertyOp4
 70
     1
102
RTVSPropertyOp5
 70
     1
102
RTVSPropertyOp6
 70
     1
102
RTVSPropertyOp7
 70
     1
102
RTVSPropertyOp8
 70
     1
102
RTVSPropertyOp9
 70
     1
102
RTVSPropertyOp10
 70
     1
102
RTVSPropertyOp11
 70
     1
102
RTVSPropertyOp12
 70
     1
102
RTVSPropertyOp13
 70
     1
102
RTVSPropertyOp14
 70
     1
102
RTVSPropertyOp15
 70
     1
102
RTVSPropertyOp16
 70
     1
102
RTVSPropertyOp17
 70
     1
102
RTVSPropertyOp18
 70
     1
102
RTVSPropertyOp19
 70
     1
102
RTVSPropertyOp20
 70
     1
102
RTVSPropertyOp21
 70
     1
102
RTVSPropertyOp22
 70
     1
102
RTVSPropertyOp23
 70
     1
102
RTVSPropertyOp24
 70
     1
102
RTVSPropertyOp25
 70
     1
102
RTVSPropertyOp26
 70
     1
102
RTVSPropertyOp27
 70
     1
102
RTVSPropertyOp28
 70
     1
102
RTVSPropertyOp29
 70
     1
102
RTVSPropertyOp30
 70
     1
102
RTVSPropertyOp31
 70
     1
102
RTVSPropertyOp32
 70
     1
  0
XRECORD
  5
12A
102
{ACAD_REACTORS
330
129
102
}
330
129
100
AcDbXrecord
280
     1
102
RTVSPropertyOp0
 70
     1
102
RTVSPropertyOp1
 70
     1
102
RTVSPropertyOp2
 70
     1
102
RTVSPropertyOp3
 70
     1
102
RTVSPropertyOp4
 70
     1
102
RTVSPropertyOp5
 70
     1
102
RTVSPropertyOp6
 70
     1
102
RTVSPropertyOp7
 70
     1
102
RTVSPropertyOp8
 70
     1
102
RTVSPropertyOp9
 70
     1
102
RTVSPropertyOp10
 70
     1
102
RTVSPropertyOp11
 70
     1
102
RTVSPropertyOp12
 70
     1
102
RTVSPropertyOp13
 70
     1
102
RTVSPropertyOp14
 70
     1
102
RTVSPropertyOp15
 70
     1
102
RTVSPropertyOp16
 70
     1
102
RTVSPropertyOp17
 70
     1
102
RTVSPropertyOp18
 70
     1
102
RTVSPropertyOp19
 70
     1
102
RTVSPropertyOp20
 70
     1
102
RTVSPropertyOp21
 70
     1
102
RTVSPropertyOp22
 70
     1
102
RTVSPropertyOp23
 70
     1
102
RTVSPropertyOp24
 70
     1
102
RTVSPropertyOp25
 70
     1
102
RTVSPropertyOp26
 70
     1
102
RTVSPropertyOp27
 70
     1
102
RTVSPropertyOp28
 70
     1
102
RTVSPropertyOp29
 70
     1
102
RTVSPropertyOp30
 70
     1
102
RTVSPropertyOp31
 70
     1
102
RTVSPropertyOp32
 70
     1
  0
XRECORD
  5
120
102
{ACAD_REACTORS
330
11F
102
}
330
11F
100
AcDbXrecord
280
     1
102
RTVSPropertyOp0
 70
     1
102
RTVSPropertyOp1
 70
     1
102
RTVSPropertyOp2
 70
     1
102
RTVSPropertyOp3
 70
     1
102
RTVSPropertyOp4
 70
     1
102
RTVSPropertyOp5
 70
     1
102
RTVSPropertyOp6
 70
     1
102
RTVSPropertyOp7
 70
     1
102
RTVSPropertyOp8
 70
     1
102
RTVSPropertyOp9
 70
     1
102
RTVSPropertyOp10
 70
     1
102
RTVSPropertyOp11
 70
     1
102
RTVSPropertyOp12
 70
     1
102
RTVSPropertyOp13
 70
     1
102
RTVSPropertyOp14
 70
     1
102
RTVSPropertyOp15
 70
     1
102
RTVSPropertyOp16
 70
     1
102
RTVSPropertyOp17
 70
     1
102
RTVSPropertyOp18
 70
     1
102
RTVSPropertyOp19
 70
     1
102
RTVSPropertyOp20
 70
     1
102
RTVSPropertyOp21
 70
     1
102
RTVSPropertyOp22
 70
     1
102
RTVSPropertyOp23
 70
     1
102
RTVSPropertyOp24
 70
     1
102
RTVSPropertyOp25
 70
     1
102
RTVSPropertyOp26
 70
     1
102
RTVSPropertyOp27
 70
     1
102
RTVSPropertyOp28
 70
     1
102
RTVSPropertyOp29
 70
     1
102
RTVSPropertyOp30
 70
     1
102
RTVSPropertyOp31
 70
     1
102
RTVSPropertyOp32
 70
     1
  0
XRECORD
  5
128
102
{ACAD_REACTORS
330
127
102
}
330
127
100
AcDbXrecord
280
     1
102
RTVSPropertyOp0
 70
     1
102
RTVSPropertyOp1
 70
     1
102
RTVSPropertyOp2
 70
     1
102
RTVSPropertyOp3
 70
     1
102
RTVSPropertyOp4
 70
     1
102
RTVSPropertyOp5
 70
     1
102
RTVSPropertyOp6
 70
     1
102
RTVSPropertyOp7
 70
     1
102
RTVSPropertyOp8
 70
     1
102
RTVSPropertyOp9
 70
     1
102
RTVSPropertyOp10
 70
     1
102
RTVSPropertyOp11
 70
     1
102
RTVSPropertyOp12
 70
     1
102
RTVSPropertyOp13
 70
     1
102
RTVSPropertyOp14
 70
     1
102
RTVSPropertyOp15
 70
     1
102
RTVSPropertyOp16
 70
     1
102
RTVSPropertyOp17
 70
     1
102
RTVSPropertyOp18
 70
     1
102
RTVSPropertyOp19
 70
     1
102
RTVSPropertyOp20
 70
     1
102
RTVSPropertyOp21
 70
     1
102
RTVSPropertyOp22
 70
     1
102
RTVSPropertyOp23
 70
     1
102
RTVSPropertyOp24
 70
     1
102
RTVSPropertyOp25
 70
     1
102
RTVSPropertyOp26
 70
     1
102
RTVSPropertyOp27
 70
     1
102
RTVSPropertyOp28
 70
     1
102
RTVSPropertyOp29
 70
     1
102
RTVSPropertyOp30
 70
     1
102
RTVSPropertyOp31
 70
     1
102
RTVSPropertyOp32
 70
     1
  0
ENDSEC
  0
EOF
