  0
SECTION
  2
HEADER
  9
$ACADVER
  1
AC1015
  9
$ACADMAINTVER
 70
     6
  9
$DWGCODEPAGE
  3
ANSI_932
  9
$INSBASE
 10
0.0
 20
0.0
 30
0.0
  9
$EXTMIN
 10
0.0
 20
0.0
 30
0.0
  9
$EXTMAX
 10
210.0
 20
297.0
 30
0.0
  9
$LIMMIN
 10
0.0
 20
0.0
  9
$LIMMAX
 10
12.0
 20
9.0
  9
$ORTHOMODE
 70
     0
  9
$REGENMODE
 70
     1
  9
$FILLMODE
 70
     1
  9
$QTEXTMODE
 70
     0
  9
$MIRRTEXT
 70
     1
  9
$LTSCALE
 40
1.0
  9
$ATTMODE
 70
     1
  9
$TEXTSIZE
 40
0.2
  9
$TRACEWID
 40
0.05
  9
$TEXTSTYLE
  7
Standard
  9
$CLAYER
  8
0
  9
$CELTYPE
  6
ByLayer
  9
$CECOLOR
 62
   256
  9
$CELTSCALE
 40
1.0
  9
$DISPSILH
 70
     0
  9
$DIMSCALE
 40
1.0
  9
$DIMASZ
 40
0.18
  9
$DIMEXO
 40
0.0625
  9
$DIMDLI
 40
0.38
  9
$DIMRND
 40
0.0
  9
$DIMDLE
 40
0.0
  9
$DIMEXE
 40
0.18
  9
$DIMTP
 40
0.0
  9
$DIMTM
 40
0.0
  9
$DIMTXT
 40
0.18
  9
$DIMCEN
 40
0.09
  9
$DIMTSZ
 40
0.0
  9
$DIMTOL
 70
     0
  9
$DIMLIM
 70
     0
  9
$DIMTIH
 70
     1
  9
$DIMTOH
 70
     1
  9
$DIMSE1
 70
     0
  9
$DIMSE2
 70
     0
  9
$DIMTAD
 70
     0
  9
$DIMZIN
 70
     0
  9
$DIMBLK
  1

  9
$DIMASO
 70
     1
  9
$DIMSHO
 70
     1
  9
$DIMPOST
  1

  9
$DIMAPOST
  1

  9
$DIMALT
 70
     0
  9
$DIMALTD
 70
     2
  9
$DIMALTF
 40
25.4
  9
$DIMLFAC
 40
1.0
  9
$DIMTOFL
 70
     0
  9
$DIMTVP
 40
0.0
  9
$DIMTIX
 70
     0
  9
$DIMSOXD
 70
     0
  9
$DIMSAH
 70
     0
  9
$DIMBLK1
  1

  9
$DIMBLK2
  1

  9
$DIMSTYLE
  2
Standard
  9
$DIMCLRD
 70
     0
  9
$DIMCLRE
 70
     0
  9
$DIMCLRT
 70
     0
  9
$DIMTFAC
 40
1.0
  9
$DIMGAP
 40
0.09
  9
$DIMJUST
 70
     0
  9
$DIMSD1
 70
     0
  9
$DIMSD2
 70
     0
  9
$DIMTOLJ
 70
     1
  9
$DIMTZIN
 70
     0
  9
$DIMALTZ
 70
     0
  9
$DIMALTTZ
 70
     0
  9
$DIMUPT
 70
     0
  9
$DIMDEC
 70
     4
  9
$DIMTDEC
 70
     4
  9
$DIMALTU
 70
     2
  9
$DIMALTTD
 70
     2
  9
$DIMTXSTY
  7
Standard
  9
$DIMAUNIT
 70
     0
  9
$DIMADEC
 70
     0
  9
$DIMALTRND
 40
0.0
  9
$DIMAZIN
 70
     0
  9
$DIMDSEP
 70
    46
  9
$DIMATFIT
 70
     3
  9
$DIMFRAC
 70
     0
  9
$DIMLDRBLK
  1

  9
$DIMLUNIT
 70
     2
  9
$DIMLWD
 70
    -2
  9
$DIMLWE
 70
    -2
  9
$DIMTMOVE
 70
     0
  9
$LUNITS
 70
     2
  9
$LUPREC
 70
     4
  9
$SKETCHINC
 40
0.1
  9
$FILLETRAD
 40
0.5
  9
$AUNITS
 70
     0
  9
$AUPREC
 70
     0
  9
$MENU
  1
.
  9
$ELEVATION
 40
0.0
  9
$PELEVATION
 40
0.0
  9
$THICKNESS
 40
0.0
  9
$LIMCHECK
 70
     0
  9
$CHAMFERA
 40
0.5
  9
$CHAMFERB
 40
0.5
  9
$CHAMFERC
 40
1.0
  9
$CHAMFERD
 40
0.0
  9
$SKPOLY
 70
     0
  9
$TDCREATE
 40
2459780.482677442
  9
$TDUCREATE
 40
2459780.107677442
  9
$TDUPDATE
 40
2459780.482678889
  9
$TDUUPDATE
 40
2459780.107678889
  9
$TDINDWG
 40
0.0000000116
  9
$TDUSRTIMER
 40
0.0000000116
  9
$USRTIMER
 70
     1
  9
$ANGBASE
 50
0.0
  9
$ANGDIR
 70
     0
  9
$PDMODE
 70
     0
  9
$PDSIZE
 40
0.0
  9
$PLINEWID
 40
0.0
  9
$SPLFRAME
 70
     0
  9
$SPLINETYPE
 70
     6
  9
$SPLINESEGS
 70
     8
  9
$HANDSEED
  5
15C
  9
$SURFTAB1
 70
     6
  9
$SURFTAB2
 70
     6
  9
$SURFTYPE
 70
     6
  9
$SURFU
 70
     6
  9
$SURFV
 70
     6
  9
$UCSBASE
  2

  9
$UCSNAME
  2

  9
$UCSORG
 10
0.0
 20
0.0
 30
0.0
  9
$UCSXDIR
 10
1.0
 20
0.0
 30
0.0
  9
$UCSYDIR
 10
0.0
 20
1.0
 30
0.0
  9
$UCSORTHOREF
  2

  9
$UCSORTHOVIEW
 70
     0
  9
$UCSORGTOP
 10
0.0
 20
0.0
 30
0.0
  9
$UCSORGBOTTOM
 10
0.0
 20
0.0
 30
0.0
  9
$UCSORGLEFT
 10
0.0
 20
0.0
 30
0.0
  9
$UCSORGRIGHT
 10
0.0
 20
0.0
 30
0.0
  9
$UCSORGFRONT
 10
0.0
 20
0.0
 30
0.0
  9
$UCSORGBACK
 10
0.0
 20
0.0
 30
0.0
  9
$PUCSBASE
  2

  9
$PUCSNAME
  2

  9
$PUCSORG
 10
0.0
 20
0.0
 30
0.0
  9
$PUCSXDIR
 10
1.0
 20
0.0
 30
0.0
  9
$PUCSYDIR
 10
0.0
 20
1.0
 30
0.0
  9
$PUCSORTHOREF
  2

  9
$PUCSORTHOVIEW
 70
     0
  9
$PUCSORGTOP
 10
0.0
 20
0.0
 30
0.0
  9
$PUCSORGBOTTOM
 10
0.0
 20
0.0
 30
0.0
  9
$PUCSORGLEFT
 10
0.0
 20
0.0
 30
0.0
  9
$PUCSORGRIGHT
 10
0.0
 20
0.0
 30
0.0
  9
$PUCSORGFRONT
 10
0.0
 20
0.0
 30
0.0
  9
$PUCSORGBACK
 10
0.0
 20
0.0
 30
0.0
  9
$USERI1
 70
     0
  9
$USERI2
 70
     0
  9
$USERI3
 70
     0
  9
$USERI4
 70
     0
  9
$USERI5
 70
     0
  9
$USERR1
 40
18.1
  9
$USERR2
 40
0.0
  9
$USERR3
 40
0.0
  9
$USERR4
 40
0.0
  9
$USERR5
 40
0.0
  9
$WORLDVIEW
 70
     1
  9
$SHADEDGE
 70
     3
  9
$SHADEDIF
 70
    70
  9
$TILEMODE
 70
     1
  9
$MAXACTVP
 70
    64
  9
$PINSBASE
 10
0.0
 20
0.0
 30
0.0
  9
$PLIMCHECK
 70
     0
  9
$PEXTMIN
 10
1.00000000000000E+20
 20
1.00000000000000E+20
 30
1.00000000000000E+20
  9
$PEXTMAX
 10
-1.00000000000000E+20
 20
-1.00000000000000E+20
 30
-1.00000000000000E+20
  9
$PLIMMIN
 10
0.0
 20
0.0
  9
$PLIMMAX
 10
12.0
 20
9.0
  9
$UNITMODE
 70
     0
  9
$VISRETAIN
 70
     1
  9
$PLINEGEN
 70
     0
  9
$PSLTSCALE
 70
     1
  9
$TREEDEPTH
 70
  3020
  9
$CMLSTYLE
  2
Standard
  9
$CMLJUST
 70
     0
  9
$CMLSCALE
 40
1.0
  9
$PROXYGRAPHICS
 70
     1
  9
$MEASUREMENT
 70
     1
  9
$CELWEIGHT
370
    -1
  9
$ENDCAPS
280
     0
  9
$JOINSTYLE
280
     0
  9
$LWDISPLAY
290
     0
  9
$INSUNITS
 70
     4
  9
$HYPERLINKBASE
  1

  9
$STYLESHEET
  1

  9
$XEDIT
290
     1
  9
$CEPSNTYPE
380
     0
  9
$PSTYLEMODE
290
     1
  9
$FINGERPRINTGUID
  2
{26011C0F-CEAD-4EAB-B23A-9C732AE1DCA7}
  9
$VERSIONGUID
  2
{FAEB1C32-E019-11D5-929B-00C0DF256EC4}
  9
$EXTNAMES
290
     1
  9
$PSVPSCALE
 40
0.0
  9
$OLESTARTUP
290
     0
  0
ENDSEC
  0
SECTION
  2
CLASSES
  0
CLASS
  1
ACDBDICTIONARYWDFLT
  2
AcDbDictionaryWithDefault
  3
ObjectDBX Classes
 90
        0
280
     0
281
     0
  0
CLASS
  1
VISUALSTYLE
  2
AcDbVisualStyle
  3
ObjectDBX Classes
 90
     4095
280
     0
281
     0
  0
CLASS
  1
MATERIAL
  2
AcDbMaterial
  3
ObjectDBX Classes
 90
     1153
280
     0
281
     0
  0
CLASS
  1
DICTIONARYVAR
  2
AcDbDictionaryVar
  3
ObjectDBX Classes
 90
        0
280
     0
281
     0
  0
CLASS
  1
ACDBPLACEHOLDER
  2
AcDbPlaceHolder
  3
ObjectDBX Classes
 90
        0
280
     0
281
     0
  0
CLASS
  1
LAYOUT
  2
AcDbLayout
  3
ObjectDBX Classes
 90
        0
280
     0
281
     0
  0
ENDSEC
  0
SECTION
  2
TABLES
  0
TABLE
  2
VPORT
  5
8
330
0
100
AcDbSymbolTable
 70
     1
  0
VPORT
  5
29
330
8
100
AcDbSymbolTableRecord
100
AcDbViewportTableRecord
  2
*Active
 70
     0
 10
0.0
 20
0.0
 11
1.0
 21
1.0
 12
105.0
 22
148.5
 13
0.0
 23
0.0
 14
0.5
 24
0.5
 15
0.5
 25
0.5
 16
0.0
 26
0.0
 36
1.0
 17
0.0
 27
0.0
 37
0.0
 40
326.7
 41
1.60267857142857
 42
50.0
 43
0.0
 44
0.0
 50
0.0
 51
0.0
 71
     0
 72
   100
 73
     1
 74
     3
 75
     0
 76
     0
 77
     0
 78
     0
281
     0
 65
     1
110
0.0
120
0.0
130
0.0
111
1.0
121
0.0
131
0.0
112
0.0
122
1.0
132
0.0
 79
     0
146
0.0
  0
ENDTAB
  0
TABLE
  2
LTYPE
  5
5
330
0
100
AcDbSymbolTable
 70
     8
  0
LTYPE
  5
14
330
5
100
AcDbSymbolTableRecord
100
AcDbLinetypeTableRecord
  2
ByBlock
 70
     0
  3

 72
    65
 73
     0
 40
0.0
  0
LTYPE
  5
15
330
5
100
AcDbSymbolTableRecord
100
AcDbLinetypeTableRecord
  2
ByLayer
 70
     0
  3

 72
    65
 73
     0
 40
0.0
  0
LTYPE
  5
16
330
5
100
AcDbSymbolTableRecord
100
AcDbLinetypeTableRecord
  2
Continuous
 70
     0
  3
Solid line
 72
    65
 73
     0
 40
0.0
  0
LTYPE
  5
3F
330
5
100
AcDbSymbolTableRecord
100
AcDbLinetypeTableRecord
  2
DASHED
 70
     0
  3
Dashed
 72
    65
 73
     2
 40
15.0
 49
7.0
 74
     0
 49
-8.0
 74
     0
  0
LTYPE
  5
40
330
5
100
AcDbSymbolTableRecord
100
AcDbLinetypeTableRecord
  2
DOTTED
 70
     0
  3
Dotted
 72
    65
 73
     2
 40
1.0
 49
0.0
 74
     0
 49
-1.0
 74
     0
  0
LTYPE
  5
41
330
5
100
AcDbSymbolTableRecord
100
AcDbLinetypeTableRecord
  2
DOT_CENTER
 70
     0
  3
Dot_Center
 72
    65
 73
     4
 40
14.0
 49
12.0
 74
     0
 49
-1.0
 74
     0
 49
0.0
 74
     0
 49
-1.0
 74
     0
  0
LTYPE
  5
42
330
5
100
AcDbSymbolTableRecord
100
AcDbLinetypeTableRecord
  2
LONG_DASHED
 70
     0
  3
Long_Dashed
 72
    65
 73
     2
 40
15.0
 49
10.0
 74
     0
 49
-5.0
 74
     0
  0
LTYPE
  5
43
330
5
100
AcDbSymbolTableRecord
100
AcDbLinetypeTableRecord
  2
DASH_CENTER
 70
     0
  3
Dash_Center
 72
    65
 73
     4
 40
14.0
 49
11.0
 74
     0
 49
-1.0
 74
     0
 49
1.0
 74
     0
 49
-1.0
 74
     0
  0
LTYPE
  5
44
330
5
100
AcDbSymbolTableRecord
100
AcDbLinetypeTableRecord
  2
PHANTOM
 70
     0
  3
Phantom
 72
    65
 73
     6
 40
13.0
 49
10.0
 74
     0
 49
-1.0
 74
     0
 49
0.0
 74
     0
 49
-1.0
 74
     0
 49
0.0
 74
     0
 49
-1.0
 74
     0
  0
LTYPE
  5
45
330
5
100
AcDbSymbolTableRecord
100
AcDbLinetypeTableRecord
  2
CENTER_DASH_DASH
 70
     0
  3
Center_Dash_Dash
 72
    65
 73
     6
 40
14.0
 49
9.0
 74
     0
 49
-1.0
 74
     0
 49
1.0
 74
     0
 49
-1.0
 74
     0
 49
1.0
 74
     0
 49
-1.0
 74
     0
  0
ENDTAB
  0
TABLE
  2
LAYER
  5
2
330
0
100
AcDbSymbolTable
 70
     3
  0
LAYER
  5
10
330
2
100
AcDbSymbolTableRecord
100
AcDbLayerTableRecord
  2
0
 70
     0
 62
     7
  6
Continuous
370
    -3
390
F
  0
LAYER
  5
46
330
2
100
AcDbSymbolTableRecord
100
AcDbLayerTableRecord
  2
1
 70
     0
 62
     7
  6
Continuous
370
    -3
390
F
  0
LAYER
  5
47
330
2
100
AcDbSymbolTableRecord
100
AcDbLayerTableRecord
  2
_U_30EC_U_30A4_U_30E4_U_30FC_1
 70
     0
 62
     7
  6
Continuous
370
    -3
390
F
  0
ENDTAB
  0
TABLE
  2
STYLE
  5
3
330
0
100
AcDbSymbolTable
 70
     3
  0
STYLE
  5
11
330
3
100
AcDbSymbolTableRecord
100
AcDbTextStyleTableRecord
  2
Standard
 70
     0
 40
0.0
 41
1.0
 50
0.0
 71
     0
 42
0.2
  3
txt
  4

  0
STYLE
  5
B6
330
3
100
AcDbSymbolTableRecord
100
AcDbTextStyleTableRecord
  2
CONVERTER_11
 70
     0
 40
0.0
 41
0.89
 50
0.0
 71
     0
 42
0.2
  3
MS Mincho.ttf
  4

1001
ACAD
1000
MS Mincho
1071
    32785
  0
STYLE
  5
E6
330
3
100
AcDbSymbolTableRecord
100
AcDbTextStyleTableRecord
  2
CONVERTER_12
 70
     0
 40
0.0
 41
0.9
 50
0.0
 71
     0
 42
0.2
  3
txt.shx
  4

  0
ENDTAB
  0
TABLE
  2
VIEW
  5
6
330
0
100
AcDbSymbolTable
 70
     0
  0
ENDTAB
  0
TABLE
  2
UCS
  5
7
330
0
100
AcDbSymbolTable
 70
     0
  0
ENDTAB
  0
TABLE
  2
APPID
  5
9
330
0
100
AcDbSymbolTable
 70
     1
  0
APPID
  5
12
330
9
100
AcDbSymbolTableRecord
100
AcDbRegAppTableRecord
  2
ACAD
 70
     0
  0
ENDTAB
  0
TABLE
  2
DIMSTYLE
  5
A
330
0
100
AcDbSymbolTable
 70
     3
100
AcDbDimStyleTable
  0
DIMSTYLE
105
27
330
A
100
AcDbSymbolTableRecord
100
AcDbDimStyleTableRecord
  2
Standard
 70
     0
178
     0
340
11
  0
DIMSTYLE
105
FE
102
{ACAD_REACTORS
330
FF
102
}
330
A
100
AcDbSymbolTableRecord
100
AcDbDimStyleTableRecord
  2
ME10_DIM_10
 70
     0
 41
3.5
 42
0.0
 44
1.0
 73
     0
 74
     0
 77
     1
 78
     8
140
3.5
147
1.0
172
     1
173
     1
174
     1
175
     1
176
     2
177
     2
271
     2
178
     7
271
     2
340
E6
  0
DIMSTYLE
105
10B
102
{ACAD_REACTORS
330
10C
102
}
330
A
100
AcDbSymbolTableRecord
100
AcDbDimStyleTableRecord
  2
ME10_DIM_11
 70
     0
 41
3.5
 42
0.0
 44
1.0
 73
     0
 74
     0
 77
     1
 78
     8
140
3.5
147
1.0
172
     1
173
     1
174
     1
175
     1
176
     2
177
     2
271
     2
178
     7
271
     2
340
E6
  0
ENDTAB
  0
TABLE
  2
BLOCK_RECORD
  5
1
330
0
100
AcDbSymbolTable
 70
    10
  0
BLOCK_RECORD
  5
1F
330
1
100
AcDbSymbolTableRecord
100
AcDbBlockTableRecord
  2
*Model_Space
340
22
  0
BLOCK_RECORD
  5
1B
330
1
100
AcDbSymbolTableRecord
100
AcDbBlockTableRecord
  2
*Paper_Space
340
1E
  0
BLOCK_RECORD
  5
23
330
1
100
AcDbSymbolTableRecord
100
AcDbBlockTableRecord
  2
*Paper_Space0
340
26
  0
BLOCK_RECORD
  5
48
330
1
100
AcDbSymbolTableRecord
100
AcDbBlockTableRecord
  2
開示A4
340
0
102
{BLKREFS
331
4C
102
}
  0
BLOCK_RECORD
  5
4B
330
1
100
AcDbSymbolTableRecord
100
AcDbBlockTableRecord
  2
開示A4枠
340
0
102
{BLKREFS
331
52
102
}
  0
BLOCK_RECORD
  5
4F
330
1
100
AcDbSymbolTableRecord
100
AcDbBlockTableRecord
  2
PLIST
340
0
102
{BLKREFS
331
53
102
}
  0
BLOCK_RECORD
  5
F3
330
1
100
AcDbSymbolTableRecord
100
AcDbBlockTableRecord
  2
*D4
340
0
  0
BLOCK_RECORD
  5
100
330
1
100
AcDbSymbolTableRecord
100
AcDbBlockTableRecord
  2
*D5
340
0
  0
BLOCK_RECORD
  5
10D
330
1
100
AcDbSymbolTableRecord
100
AcDbBlockTableRecord
  2
*D6
340
0
102
{BLKREFS
331
114
102
}
  0
BLOCK_RECORD
  5
115
330
1
100
AcDbSymbolTableRecord
100
AcDbBlockTableRecord
  2
*D7
340
0
102
{BLKREFS
331
11C
102
}
  0
BLOCK_RECORD
  5
11D
330
1
100
AcDbSymbolTableRecord
100
AcDbBlockTableRecord
  2
*D8
340
0
102
{BLKREFS
331
126
102
}
  0
BLOCK_RECORD
  5
127
330
1
100
AcDbSymbolTableRecord
100
AcDbBlockTableRecord
  2
*D9
340
0
102
{BLKREFS
331
130
102
}
  0
ENDTAB
  0
ENDSEC
  0
SECTION
  2
BLOCKS
  0
BLOCK
  5
20
330
1F
100
AcDbEntity
  8
0
100
AcDbBlockBegin
  2
*Model_Space
 70
     0
 10
0.0
 20
0.0
 30
0.0
  3
*Model_Space
  1

  0
ENDBLK
  5
21
330
1F
100
AcDbEntity
  8
0
100
AcDbBlockEnd
  0
BLOCK
  5
1C
330
1B
100
AcDbEntity
 67
     1
  8
0
100
AcDbBlockBegin
  2
*Paper_Space
 70
     0
 10
0.0
 20
0.0
 30
0.0
  3
*Paper_Space
  1

  0
ENDBLK
  5
1D
330
1B
100
AcDbEntity
 67
     1
  8
0
100
AcDbBlockEnd
  0
BLOCK
  5
24
330
23
100
AcDbEntity
  8
0
100
AcDbBlockBegin
  2
*Paper_Space0
 70
     0
 10
0.0
 20
0.0
 30
0.0
  3
*Paper_Space0
  1

  0
ENDBLK
  5
25
330
23
100
AcDbEntity
  8
0
100
AcDbBlockEnd
  0
BLOCK
  5
49
330
48
100
AcDbEntity
  8
0
100
AcDbBlockBegin
  2
開示A4
 70
     0
 10
0.0
 20
0.0
 30
0.0
  3
開示A4
  1

  0
POINT
  5
54
330
48
100
AcDbEntity
  8
1
 62
     4
100
AcDbPoint
 10
183.0
 20
15.00000000000006
 30
0.0
  0
POINT
  5
55
330
48
100
AcDbEntity
  8
1
 62
     4
100
AcDbPoint
 10
93.74999999999997
 20
17.00000000000004
 30
0.0
  0
POINT
  5
56
330
48
100
AcDbEntity
  8
1
 62
     4
100
AcDbPoint
 10
85.24999999999997
 20
17.00000000000004
 30
0.0
  0
POINT
  5
57
330
48
100
AcDbEntity
  8
1
 62
     4
100
AcDbPoint
 10
106.5
 20
19.00000000000006
 30
0.0
  0
POINT
  5
58
330
48
100
AcDbEntity
  8
1
 62
     4
100
AcDbPoint
 10
106.5
 20
12.50000000000004
 30
0.0
  0
POINT
  5
59
330
48
100
AcDbEntity
  8
1
 62
     4
100
AcDbPoint
 10
112.25
 20
12.50000000000004
 30
0.0
  0
POINT
  5
5A
330
48
100
AcDbEntity
  8
1
 62
     4
100
AcDbPoint
 10
100.75
 20
12.50000000000004
 30
0.0
  0
POINT
  5
5B
330
48
100
AcDbEntity
  8
1
 62
     4
100
AcDbPoint
 10
123.5
 20
19.00000000000006
 30
0.0
  0
POINT
  5
5C
330
48
100
AcDbEntity
  8
1
 62
     4
100
AcDbPoint
 10
123.5
 20
12.50000000000004
 30
0.0
  0
POINT
  5
5D
330
48
100
AcDbEntity
  8
1
 62
     4
100
AcDbPoint
 10
129.25
 20
12.50000000000004
 30
0.0
  0
POINT
  5
5E
330
48
100
AcDbEntity
  8
1
 62
     4
100
AcDbPoint
 10
117.75
 20
12.50000000000004
 30
0.0
  0
POINT
  5
5F
330
48
100
AcDbEntity
  8
1
 62
     4
100
AcDbPoint
 10
140.5
 20
19.00000000000006
 30
0.0
  0
POINT
  5
60
330
48
100
AcDbEntity
  8
1
 62
     4
100
AcDbPoint
 10
140.5
 20
12.50000000000004
 30
0.0
  0
POINT
  5
61
330
48
100
AcDbEntity
  8
1
 62
     4
100
AcDbPoint
 10
146.25
 20
12.50000000000004
 30
0.0
  0
POINT
  5
62
330
48
100
AcDbEntity
  8
1
 62
     4
100
AcDbPoint
 10
134.75
 20
12.50000000000004
 30
0.0
  0
POINT
  5
63
330
48
100
AcDbEntity
  8
1
 62
     4
100
AcDbPoint
 10
151.75
 20
12.50000000000004
 30
0.0
  0
POINT
  5
64
330
48
100
AcDbEntity
  8
1
 62
     4
100
AcDbPoint
 10
163.25
 20
12.50000000000004
 30
0.0
  0
POINT
  5
65
330
48
100
AcDbEntity
  8
1
 62
     4
100
AcDbPoint
 10
157.5
 20
12.50000000000004
 30
0.0
  0
POINT
  5
66
330
48
100
AcDbEntity
  8
1
 62
     4
100
AcDbPoint
 10
56.99999999999997
 20
14.25000000000004
 30
0.0
  0
POINT
  5
67
330
48
100
AcDbEntity
  8
1
 62
     4
100
AcDbPoint
 10
56.99999999999997
 20
22.75000000000006
 30
0.0
  0
POINT
  5
68
330
48
100
AcDbEntity
  8
1
 62
     4
100
AcDbPoint
 10
47.50000000000001
 20
282.0000000000003
 30
0.0
  0
POINT
  5
69
330
48
100
AcDbEntity
  8
1
 62
     4
100
AcDbPoint
 10
157.5
 20
19.00000000000006
 30
0.0
  0
POINT
  5
6A
330
48
100
AcDbEntity
  8
1
 62
     4
100
AcDbPoint
 10
56.99999999999997
 20
16.25000000000004
 30
0.0
  0
POINT
  5
6B
330
48
100
AcDbEntity
  8
1
 62
     4
100
AcDbPoint
 10
56.99999999999997
 20
24.75000000000006
 30
0.0
  0
POINT
  5
6C
330
48
100
AcDbEntity
  8
1
 62
     4
100
AcDbPoint
 10
56.99999999999997
 20
20.75000000000006
 30
0.0
  0
POINT
  5
6D
330
48
100
AcDbEntity
  8
1
 62
     4
100
AcDbPoint
 10
56.99999999999997
 20
12.25000000000004
 30
0.0
  0
POINT
  5
6E
330
48
100
AcDbEntity
  8
1
 62
     4
100
AcDbPoint
 10
34.00000000000001
 20
34.00000000000004
 30
0.0
  0
LINE
  5
73
330
48
100
AcDbEntity
  8
1
  6
Continuous
 62
     7
100
AcDbLine
 10
105.0
 20
10.00000000000004
 30
0.0
 11
200.0
 21
10.00000000000004
 31
0.0
  0
LINE
  5
74
330
48
100
AcDbEntity
  8
1
  6
Continuous
 62
     2
100
AcDbLine
 10
105.0
 20
10.00000000000004
 30
0.0
 11
105.0
 21
5.0
 31
0.0
  0
LINE
  5
75
330
48
100
AcDbEntity
  8
1
  6
Continuous
 62
     7
100
AcDbLine
 10
200.0
 20
148.5000000000001
 30
0.0
 11
200.0
 21
287.0000000000003
 31
0.0
  0
LINE
  5
76
330
48
100
AcDbEntity
  8
1
  6
Continuous
 62
     2
100
AcDbLine
 10
200.0
 20
148.5000000000001
 30
0.0
 11
205.0
 21
148.5000000000001
 31
0.0
  0
LINE
  5
77
330
48
100
AcDbEntity
  8
1
  6
Continuous
 62
     7
100
AcDbLine
 10
25.0
 20
148.5000000000001
 30
0.0
 11
25.0
 21
287.0000000000003
 31
0.0
  0
LINE
  5
78
330
48
100
AcDbEntity
  8
1
  6
Continuous
 62
     2
100
AcDbLine
 10
25.0
 20
148.5000000000001
 30
0.0
 11
20.0
 21
148.5000000000001
 31
0.0
  0
LINE
  5
79
330
48
100
AcDbEntity
  8
1
  6
Continuous
 62
     7
100
AcDbLine
 10
105.0
 20
287.0000000000003
 30
0.0
 11
25.0
 21
287.0000000000003
 31
0.0
  0
LINE
  5
7A
330
48
100
AcDbEntity
  8
1
  6
Continuous
 62
     2
100
AcDbLine
 10
105.0
 20
287.0000000000003
 30
0.0
 11
105.0
 21
292.0000000000003
 31
0.0
  0
LINE
  5
7B
330
48
100
AcDbEntity
  8
1
  6
Continuous
 62
     2
100
AcDbLine
 10
166.0
 20
20.00000000000006
 30
0.0
 11
200.0
 21
20.00000000000006
 31
0.0
  0
LINE
  5
7C
330
48
100
AcDbEntity
  8
1
  6
Continuous
 62
     2
100
AcDbLine
 10
97.99999999999997
 20
27.00000000000006
 30
0.0
 11
97.99999999999997
 21
10.00000000000004
 31
0.0
  0
LINE
  5
7D
330
48
100
AcDbEntity
  8
1
  6
Continuous
 62
     2
100
AcDbLine
 10
115.0
 20
27.00000000000006
 30
0.0
 11
115.0
 21
10.00000000000004
 31
0.0
  0
LINE
  5
7E
330
48
100
AcDbEntity
  8
1
  6
Continuous
 62
     2
100
AcDbLine
 10
149.0
 20
27.00000000000006
 30
0.0
 11
149.0
 21
10.00000000000004
 31
0.0
  0
LINE
  5
7F
330
48
100
AcDbEntity
  8
1
  6
Continuous
 62
     2
100
AcDbLine
 10
132.0
 20
27.00000000000006
 30
0.0
 11
132.0
 21
10.00000000000003
 31
0.0
  0
LINE
  5
80
330
48
100
AcDbEntity
  8
1
  6
Continuous
 62
     2
100
AcDbLine
 10
166.0
 20
27.00000000000006
 30
0.0
 11
166.0
 21
10.00000000000004
 31
0.0
  0
LINE
  5
81
330
48
100
AcDbEntity
  8
1
  6
Continuous
 62
     2
100
AcDbLine
 10
54.99999999999997
 20
277.0000000000003
 30
0.0
 11
25.0
 21
277.0000000000003
 31
0.0
  0
LINE
  5
82
330
48
100
AcDbEntity
  8
1
  6
Continuous
 62
     7
100
AcDbLine
 10
25.0
 20
10.00000000000004
 30
0.0
 11
25.0
 21
148.5000000000001
 31
0.0
  0
LINE
  5
83
330
48
100
AcDbEntity
  8
1
  6
Continuous
 62
     2
100
AcDbLine
 10
40.00000000000001
 20
287.0000000000003
 30
0.0
 11
40.00000000000001
 21
277.0000000000003
 31
0.0
  0
LINE
  5
84
330
48
100
AcDbEntity
  8
1
  6
Continuous
 62
     2
100
AcDbLine
 10
54.99999999999997
 20
287.0000000000003
 30
0.0
 11
54.99999999999997
 21
277.0000000000003
 31
0.0
  0
LINE
  5
85
330
48
100
AcDbEntity
  8
1
  6
Continuous
 62
     2
100
AcDbLine
 10
33.00000000000001
 20
41.00000000000004
 30
0.0
 11
33.00000000000001
 21
27.00000000000004
 31
0.0
  0
LINE
  5
86
330
48
100
AcDbEntity
  8
1
  6
Continuous
 62
     7
100
AcDbLine
 10
200.0
 20
27.00000000000006
 30
0.0
 11
25.0
 21
27.00000000000006
 31
0.0
  0
LINE
  5
87
330
48
100
AcDbEntity
  8
1
  6
Continuous
 62
     7
100
AcDbLine
 10
25.0
 20
41.00000000000004
 30
0.0
 11
200.0
 21
41.00000000000004
 31
0.0
  0
LINE
  5
88
330
48
100
AcDbEntity
  8
1
  6
PHANTOM
 62
     4
100
AcDbLine
 10
0.0
 20
0.0
 30
0.0
 11
210.0
 21
0.0
 31
0.0
  0
LINE
  5
89
330
48
100
AcDbEntity
  8
1
  6
PHANTOM
 62
     4
100
AcDbLine
 10
210.0
 20
0.0
 30
0.0
 11
210.0
 21
297.0
 31
0.0
  0
LINE
  5
8A
330
48
100
AcDbEntity
  8
1
  6
PHANTOM
 62
     4
100
AcDbLine
 10
210.0
 20
297.0
 30
0.0
 11
0.0
 21
297.0
 31
0.0
  0
LINE
  5
8B
330
48
100
AcDbEntity
  8
1
  6
PHANTOM
 62
     4
100
AcDbLine
 10
0.0
 20
297.0
 30
0.0
 11
0.0
 21
0.0
 31
0.0
  0
LINE
  5
8C
330
48
100
AcDbEntity
  8
1
  6
Continuous
 62
     7
100
AcDbLine
 10
25.0
 20
10.00000000000004
 30
0.0
 11
105.0
 21
10.00000000000004
 31
0.0
  0
LINE
  5
8D
330
48
100
AcDbEntity
  8
1
  6
Continuous
 62
     7
100
AcDbLine
 10
200.0
 20
10.00000000000004
 30
0.0
 11
200.0
 21
148.5000000000001
 31
0.0
  0
LINE
  5
8E
330
48
100
AcDbEntity
  8
1
  6
Continuous
 62
     7
100
AcDbLine
 10
200.0
 20
287.0000000000003
 30
0.0
 11
105.0
 21
287.0000000000003
 31
0.0
  0
LINE
  5
8F
330
48
100
AcDbEntity
  8
1
  6
Continuous
 62
     2
100
AcDbLine
 10
25.0
 20
18.50000000000006
 30
0.0
 11
80.99999999999997
 21
18.50000000000006
 31
0.0
  0
LINE
  5
90
330
48
100
AcDbEntity
  8
1
  6
Continuous
 62
     2
100
AcDbLine
 10
33.00000000000001
 20
27.00000000000004
 30
0.0
 11
33.00000000000001
 21
10.00000000000004
 31
0.0
  0
LINE
  5
91
330
48
100
AcDbEntity
  8
1
  6
Continuous
 62
     7
100
AcDbLine
 10
191.0
 20
24.70000000000006
 30
0.0
 11
191.0
 21
22.30000000000005
 31
0.0
  0
LINE
  5
92
330
48
100
AcDbEntity
  8
1
  6
Continuous
 62
     7
100
AcDbLine
 10
191.0
 20
24.70000000000006
 30
0.0
 11
196.0
 21
25.50000000000006
 31
0.0
  0
LINE
  5
93
330
48
100
AcDbEntity
  8
1
  6
Continuous
 62
     7
100
AcDbLine
 10
196.0
 20
25.50000000000006
 30
0.0
 11
196.0
 21
21.50000000000006
 31
0.0
  0
LINE
  5
94
330
48
100
AcDbEntity
  8
1
  6
Continuous
 62
     7
100
AcDbLine
 10
196.0
 20
21.50000000000006
 30
0.0
 11
191.0
 21
22.30000000000005
 31
0.0
  0
LINE
  5
95
330
48
100
AcDbEntity
  8
1
  6
DOT_CENTER
 62
     2
100
AcDbLine
 10
184.0
 20
23.50000000000006
 30
0.0
 11
197.0
 21
23.50000000000006
 31
0.0
  0
LINE
  5
96
330
48
100
AcDbEntity
  8
1
  6
DOT_CENTER
 62
     2
100
AcDbLine
 10
187.0
 20
26.50000000000006
 30
0.0
 11
187.0
 21
20.50000000000006
 31
0.0
  0
LINE
  5
97
330
48
100
AcDbEntity
  8
1
  6
Continuous
 62
     2
100
AcDbLine
 10
80.99999999999997
 20
27.00000000000006
 30
0.0
 11
80.99999999999997
 21
10.00000000000004
 31
0.0
  0
CIRCLE
  5
98
330
48
100
AcDbEntity
  8
1
  6
Continuous
 62
     7
100
AcDbCircle
 10
103.5
 20
12.50000000000004
 30
0.0
 40
0.2999999999999972
  0
CIRCLE
  5
99
330
48
100
AcDbEntity
  8
1
  6
Continuous
 62
     7
100
AcDbCircle
 10
109.5
 20
12.50000000000004
 30
0.0
 40
0.2999999999999972
  0
CIRCLE
  5
9A
330
48
100
AcDbEntity
  8
1
  6
Continuous
 62
     7
100
AcDbCircle
 10
120.5
 20
12.50000000000004
 30
0.0
 40
0.2999999999999972
  0
CIRCLE
  5
9B
330
48
100
AcDbEntity
  8
1
  6
Continuous
 62
     7
100
AcDbCircle
 10
126.5
 20
12.50000000000004
 30
0.0
 40
0.2999999999999972
  0
CIRCLE
  5
9C
330
48
100
AcDbEntity
  8
1
  6
Continuous
 62
     7
100
AcDbCircle
 10
137.5
 20
12.50000000000004
 30
0.0
 40
0.3000000000000114
  0
CIRCLE
  5
9D
330
48
100
AcDbEntity
  8
1
  6
Continuous
 62
     7
100
AcDbCircle
 10
143.5
 20
12.50000000000004
 30
0.0
 40
0.3000000000000114
  0
CIRCLE
  5
9E
330
48
100
AcDbEntity
  8
1
  6
Continuous
 62
     7
100
AcDbCircle
 10
160.5
 20
12.50000000000004
 30
0.0
 40
0.3000000000000114
  0
CIRCLE
  5
9F
330
48
100
AcDbEntity
  8
1
  6
Continuous
 62
     7
100
AcDbCircle
 10
154.5
 20
12.50000000000004
 30
0.0
 40
0.3000000000000114
  0
CIRCLE
  5
A0
330
48
100
AcDbEntity
  8
1
  6
Continuous
 62
     7
100
AcDbCircle
 10
187.0
 20
23.50000000000006
 30
0.0
 40
1.200000000000102
  0
CIRCLE
  5
A1
330
48
100
AcDbEntity
  8
1
  6
Continuous
 62
     7
100
AcDbCircle
 10
187.0
 20
23.50000000000006
 30
0.0
 40
2.0
  0
CIRCLE
  5
A2
330
48
100
AcDbEntity
  8
1
  6
DOT_CENTER
 62
     7
100
AcDbCircle
 10
89.49999999999997
 20
16.00000000000004
 30
0.0
 40
0.1000000000000227
  0
CIRCLE
  5
A3
330
48
100
AcDbEntity
  8
1
  6
DOT_CENTER
 62
     7
100
AcDbCircle
 10
89.49999999999997
 20
18.00000000000004
 30
0.0
 40
0.1000000000000227
  0
SPLINE
  5
A4
102
{ACAD_REACTORS
330
C3
102
}
330
48
100
AcDbEntity
  8
_U_30EC_U_30A4_U_30E4_U_30FC_1
  6
Continuous
 62
     2
100
AcDbSpline
210
0.0
220
0.0
230
1.0
 70
     8
 71
     3
 72
    24
 73
    20
 74
    18
 42
0.000000001
 43
0.0000000001
 44
0.00000001
 40
0.0
 40
0.0
 40
0.0
 40
0.0
 40
0.2211075008753711
 40
0.4273218586245531
 40
0.5080174679239078
 40
0.5914835907869633
 40
0.814326569019223
 40
1.054651302686539
 40
1.295452694023127
 40
1.518109231328776
 40
1.540864321905391
 40
1.595126460622651
 40
1.659890947895964
 40
1.714153085187322
 40
1.736908174961622
 40
1.764951100735312
 40
1.8015622912209
 40
1.953914424543596
 40
2.126104167379664
 40
2.126104167379664
 40
2.126104167379664
 40
2.126104167379664
 10
185.9375369556888
 20
15.58989295113021
 30
0.0
 10
185.9112579081811
 20
15.53097628234378
 30
0.0
 10
185.8604698894426
 20
15.41711139679259
 30
0.0
 10
185.813178483911
 20
15.14441958233117
 30
0.0
 10
185.7043482802618
 20
15.24445482575459
 30
0.0
 10
185.5514800279637
 20
15.27118593367334
 30
0.0
 10
185.7686155181198
 20
15.48518135017636
 30
0.0
 10
185.7838483674381
 20
15.70332117782491
 30
0.0
 10
185.8906889492
 20
15.8845157906643
 30
0.0
 10
185.8305380947079
 20
16.16913226311407
 30
0.0
 10
185.9334317395401
 20
16.14114089222454
 30
0.0
 10
185.9779933468149
 20
16.13243251602304
 30
0.0
 10
186.0380842395397
 20
16.12139654183359
 30
0.0
 10
186.0756619587438
 20
16.10767523055565
 30
0.0
 10
186.1252466928606
 20
16.10756076160227
 30
0.0
 10
186.0930158919325
 20
16.07306592398628
 30
0.0
 10
186.0171802221881
 20
16.0840410453797
 30
0.0
 10
186.0429447159692
 20
15.89858969582454
 30
0.0
 10
186.005589676385
 20
15.80702313549594
 30
0.0
 10
185.9857704961609
 20
15.75844135397709
 30
0.0
 11
185.9375369556888
 21
15.58989295113021
 31
0.0
 11
185.8616471328552
 21
15.38221708318563
 31
0.0
 11
185.7717402238432
 21
15.19663392356196
 31
0.0
 11
185.7011493923109
 21
15.23573272563555
 31
0.0
 11
185.6245525192651
 21
15.26889163187722
 31
0.0
 11
185.7214026947455
 21
15.46958801203542
 31
0.0
 11
185.7994641467471
 21
15.69688163177028
 31
0.0
 11
185.858971692972
 21
15.93021436608696
 31
0.0
 11
185.9001601511226
 21
16.14902808999058
 31
0.0
 11
185.9224183822214
 21
16.14429889221399
 31
0.0
 11
185.975495702534
 21
16.13302157443904
 31
0.0
 11
186.0388460525844
 21
16.11956154999796
 31
0.0
 11
186.091923372897
 21
16.10828423222301
 31
0.0
 11
186.1141816039958
 21
16.10355503444642
 31
0.0
 11
186.096409715746
 21
16.08186250841014
 31
0.0
 11
186.0606122998071
 21
16.07418628445372
 31
0.0
 11
186.0281953301479
 21
15.92532288171317
 31
0.0
 11
185.9857704961609
 21
15.75844135397709
 31
0.0
  0
SPLINE
  5
A5
102
{ACAD_REACTORS
330
C3
102
}
330
48
100
AcDbEntity
  8
_U_30EC_U_30A4_U_30E4_U_30FC_1
  6
Continuous
 62
     2
100
AcDbSpline
210
0.0
220
0.0
230
1.0
 70
     8
 71
     3
 72
    70
 73
    66
 74
    64
 42
0.000000001
 43
0.0000000001
 44
0.00000001
 40
0.0
 40
0.0
 40
0.0
 40
0.0
 40
0.0241731073021188
 40
0.0846058988987013
 40
0.1631685280352715
 40
0.2417311571788903
 40
0.3021639488291614
 40
0.3263370654894688
 40
0.3533118254248028
 40
0.4228783438921241
 40
0.517999909531255
 40
0.6216398239465232
 40
0.7167613891498835
 40
0.7863279069648993
 40
0.8133026791760966
 40
0.8372943998771086
 40
0.8945054261372282
 40
0.9627895541962332
 40
1.020000580349043
 40
1.04399230097517
 40
1.071934345522915
 40
1.113121768772901
 40
1.145225199332226
 40
1.225483775412761
 40
1.329819923771469
 40
1.434156071994359
 40
1.514414647795779
 40
1.546518078208386
 40
1.57897476426016
 40
1.662678849314155
 40
1.777131373668375
 40
1.901833377474766
 40
2.016285900500556
 40
2.099989982527923
 40
2.132446666570282
 40
2.158782354486006
 40
2.216720867907796
 40
2.27465938133422
 40
2.300995069256154
 40
2.333451754066126
 40
2.417155836543806
 40
2.531608358985246
 40
2.656310362283741
 40
2.770762886388873
 40
2.854466971340039
 40
2.886923657363845
 40
2.913597976833279
 40
2.982389642875081
 40
3.076451716946942
 40
3.178937260458556
 40
3.272999334739958
 40
3.341791001059179
 40
3.36846532066349
 40
3.396976080738711
 40
3.472140811845947
 40
3.578408190308636
 40
3.700226892456044
 40
3.822045594634262
 40
3.92831297325634
 40
4.003477705314709
 40
4.031988456866775
 40
4.058324144797575
 40
4.116262658236734
 40
4.174201171400534
 40
4.200536849608466
 40
4.200536849608466
 40
4.200536849608466
 40
4.200536849608466
 10
185.9857704961609
 20
15.75844135397709
 30
0.0
 10
185.9938259544679
 20
15.75844359811691
 30
0.0
 10
186.0220200663241
 20
15.75845146032801
 30
0.0
 10
186.0765534803672
 20
15.75830754828375
 30
0.0
 10
186.1482891808603
 20
15.75909120499902
 30
0.0
 10
186.2236240137062
 20
15.75627570463815
 30
0.0
 10
186.2713052366438
 20
15.76298403400962
 30
0.0
 10
186.3195071245615
 20
15.75197563692435
 30
0.0
 10
186.3062571799873
 20
15.80546402997037
 30
0.0
 10
186.3151093964537
 20
15.86049583543095
 30
0.0
 10
186.3108698036285
 20
15.95419908726113
 30
0.0
 10
186.3133483481279
 20
16.04959482218536
 30
0.0
 10
186.3090938706059
 20
16.14356821983391
 30
0.0
 10
186.3179818665846
 20
16.19795062438016
 30
0.0
 10
186.3046977409944
 20
16.25233997691465
 30
0.0
 10
186.3514119277108
 20
16.23842216335361
 30
0.0
 10
186.3943254545736
 20
16.24103877374047
 30
0.0
 10
186.4605443456685
 20
16.23648422450759
 30
0.0
 10
186.5013342271797
 20
16.22778162134166
 30
0.0
 10
186.5525145690819
 20
16.23531799890199
 30
0.0
 10
186.52537204872
 20
16.19349970223292
 30
0.0
 10
186.4803096055706
 20
16.20284992072598
 30
0.0
 10
186.4942065045051
 20
16.13841207371841
 30
0.0
 10
186.4858414431653
 20
16.07378219627402
 30
0.0
 10
186.4903632178398
 20
15.97529141193891
 30
0.0
 10
186.4854741311167
 20
15.87595932842575
 30
0.0
 10
186.4950258992082
 20
15.81293115552972
 30
0.0
 10
186.47997614552
 20
15.74964011499793
 30
0.0
 10
186.5449159457208
 20
15.76515072944273
 30
0.0
 10
186.6116246399497
 20
15.75499387697816
 30
0.0
 10
186.7241435470827
 20
15.75988800099371
 30
0.0
 10
186.8390235448954
 20
15.75691204732788
 30
0.0
 10
186.9519871999746
 20
15.76221664184995
 30
0.0
 10
187.0176267597678
 20
15.75107306472093
 30
0.0
 10
187.0816276691053
 20
15.76744532319861
 30
0.0
 10
187.0703142889189
 20
15.71761689905278
 30
0.0
 10
187.077533987151
 20
15.67416715212127
 30
0.0
 10
187.0703142611269
 20
15.63071745587449
 30
0.0
 10
187.0816277175994
 20
15.58088895196881
 30
0.0
 10
187.0176263598971
 20
15.59726166091366
 30
0.0
 10
186.951992124046
 20
15.58611271661592
 30
0.0
 10
186.838997431733
 20
15.59144857206858
 30
0.0
 10
186.7242456548644
 20
15.58834345663826
 30
0.0
 10
186.611318368686
 20
15.59364894682592
 30
0.0
 10
186.5455220903585
 20
15.58257300019597
 30
0.0
 10
186.4816097975358
 20
15.59887597847622
 30
0.0
 10
186.4936015165126
 20
15.54423524395745
 30
0.0
 10
186.4862104613006
 20
15.48854295047846
 30
0.0
 10
186.4892684841983
 20
15.39649689140574
 30
0.0
 10
186.4893422785683
 20
15.30179109873106
 30
0.0
 10
186.4860313578359
 20
15.2095278290227
 30
0.0
 10
186.4939505989903
 20
15.15435768736143
 30
0.0
 10
186.4815076611617
 20
15.10058169100141
 30
0.0
 10
186.5389116551632
 20
15.11453768862786
 30
0.0
 10
186.5994708140382
 20
15.10511457884231
 30
0.0
 10
186.7048680855081
 20
15.10942885928709
 30
0.0
 10
186.8204294070622
 20
15.10835504612036
 30
0.0
 10
186.9359688877797
 20
15.10725965901
 30
0.0
 10
187.041418113084
 20
15.11162525770637
 30
0.0
 10
187.1018680471803
 20
15.10209426030675
 30
0.0
 10
187.1592837739109
 20
15.11617289606384
 30
0.0
 10
187.1477773876709
 20
15.06707153265688
 30
0.0
 10
187.1537566781748
 20
15.02564658018653
 30
0.0
 10
187.1520311050801
 20
14.976516779667
 30
0.0
 10
187.152150012297
 20
14.94854428447613
 30
0.0
 10
187.1521871691832
 20
14.93980288195955
 30
0.0
 11
185.9857704961609
 21
15.75844135397709
 31
0.0
 11
186.0099436128281
 21
15.75844135397709
 31
0.0
 11
186.0703764044962
 21
15.75844135397709
 31
0.0
 11
186.1489390336648
 21
15.75844135397709
 31
0.0
 11
186.2275016628333
 21
15.75844135397709
 31
0.0
 11
186.2879344545013
 21
15.75844135397709
 31
0.0
 11
186.3121075711686
 21
15.75844135397709
 31
0.0
 11
186.3121075711686
 21
15.78541612620067
 31
0.0
 11
186.3121075711686
 21
15.85498264404043
 31
0.0
 11
186.3121075711686
 21
15.95010420924989
 31
0.0
 11
186.3121075711686
 21
16.0537441235826
 31
0.0
 11
186.3121075711686
 21
16.14886568879206
 31
0.0
 11
186.3121075711686
 21
16.21843220663182
 31
0.0
 11
186.3121075711686
 21
16.2454069788554
 31
0.0
 11
186.3360407604891
 21
16.24373213107804
 31
0.0
 11
186.3931122119457
 21
16.23973826330125
 31
0.0
 11
186.461229750781
 21
16.234971388858
 31
0.0
 11
186.5183012022376
 21
16.23097752108121
 31
0.0
 11
186.5422343915581
 21
16.22930267330385
 31
0.0
 11
186.5274972731229
 21
16.20556293372644
 31
0.0
 11
186.4886640249976
 21
16.19183767331316
 31
0.0
 11
186.4886640249976
 21
16.15973424225123
 31
0.0
 11
186.4886640249976
 21
16.0794756645964
 31
0.0
 11
186.4886640249976
 21
15.97513951364513
 31
0.0
 11
186.4886640249976
 21
15.87080336269385
 31
0.0
 11
186.4886640249976
 21
15.79054478503902
 31
0.0
 11
186.4886640249976
 21
15.75844135397709
 31
0.0
 11
186.5211207110824
 21
15.75844135397709
 31
0.0
 11
186.6048247962486
 21
15.75844135397709
 31
0.0
 11
186.7192773208634
 21
15.75844135397709
 31
0.0
 11
186.8439793252946
 21
15.75844135397709
 31
0.0
 11
186.9584318499095
 21
15.75844135397709
 31
0.0
 11
187.0421359350756
 21
15.75844135397709
 31
0.0
 11
187.0745926211604
 21
15.75844135397709
 31
0.0
 11
187.0745926211604
 21
15.73210566604965
 31
0.0
 11
187.0745926211604
 21
15.67416715260928
 31
0.0
 11
187.0745926211604
 21
15.61622863916892
 31
0.0
 11
187.0745926211604
 21
15.58989295124148
 31
0.0
 11
187.0421359350756
 21
15.58989295124148
 31
0.0
 11
186.9584318499095
 21
15.58989295124148
 31
0.0
 11
186.8439793252946
 21
15.58989295124148
 31
0.0
 11
186.7192773208634
 21
15.58989295124148
 31
0.0
 11
186.6048247962485
 21
15.58989295124148
 31
0.0
 11
186.5211207110824
 21
15.58989295124148
 31
0.0
 11
186.4886640249976
 21
15.58989295124148
 31
0.0
 11
186.4886640249976
 21
15.56321863152026
 31
0.0
 11
186.4886640249976
 21
15.49442696487079
 31
0.0
 11
186.4886640249976
 21
15.40036489006438
 31
0.0
 11
186.4886640249976
 21
15.29787934587232
 31
0.0
 11
186.4886640249976
 21
15.2038172710659
 31
0.0
 11
186.4886640249976
 21
15.13502560441644
 31
0.0
 11
186.4886640249976
 21
15.10835128469522
 31
0.0
 11
186.5171747850993
 21
15.10835128469522
 31
0.0
 11
186.5923395162766
 21
15.10835128469522
 31
0.0
 11
186.6986068948376
 21
15.10835128469522
 31
0.0
 11
186.8204255970904
 21
15.10835128469522
 31
0.0
 11
186.9422442993433
 21
15.10835128469522
 31
0.0
 11
187.0485116779042
 21
15.10835128469522
 31
0.0
 11
187.1236764090815
 21
15.10835128469522
 31
0.0
 11
187.1521871691832
 21
15.10835128469522
 31
0.0
 11
187.1521871691832
 21
15.08201559676777
 31
0.0
 11
187.1521871691832
 21
15.02407708332738
 31
0.0
 11
187.1521871691832
 21
14.966138569887
 31
0.0
 11
187.1521871691832
 21
14.93980288195955
 31
0.0
  0
SPLINE
  5
A6
102
{ACAD_REACTORS
330
C3
102
}
330
48
100
AcDbEntity
  8
_U_30EC_U_30A4_U_30E4_U_30FC_1
  6
Continuous
 62
     2
100
AcDbSpline
210
0.0
220
0.0
230
1.0
 70
     8
 71
     3
 72
    62
 73
    58
 74
    56
 42
0.000000001
 43
0.0000000001
 44
0.00000001
 40
0.0
 40
0.0
 40
0.0
 40
0.0
 40
0.0598250028308485
 40
0.2024846486897047
 40
0.3727558389220178
 40
0.5154154847935217
 40
0.5752404975784486
 40
0.9332326775486394
 40
1.290451762839396
 40
1.602077253145799
 40
1.699931634112051
 40
1.799359756424971
 40
2.270120149657013
 40
2.804661928461471
 40
2.882342287383182
 40
3.07654318571903
 40
3.32900435483549
 40
3.581465524568316
 40
3.775666424543596
 40
3.853346784558216
 40
3.89912067959499
 40
3.984129341792016
 40
4.029903236817393
 40
4.105797496059548
 40
4.295533144152506
 40
4.542189486611747
 40
4.788845828875692
 40
4.978581476410074
 40
5.054475735244317
 40
5.621734664339304
 40
6.130867242037294
 40
6.225249780948539
 40
6.318913039727239
 40
6.663579954558814
 40
7.047498900224662
 40
7.435230791575585
 40
7.498943906667969
 40
7.650875181209963
 40
7.832212509001416
 40
7.984143783696802
 40
8.047856898902928
 40
8.091554632732434
 40
8.172707566964093
 40
8.216405300767814
 40
8.28902178216067
 40
8.462184160756987
 40
8.668861838005153
 40
8.84202421526366
 40
8.914640695474855
 40
8.98988158086106
 40
9.155411528826964
 40
9.320941477743743
 40
9.396182352486994
 40
9.454709011143512
 40
9.583467660170504
 40
9.712226309012726
 40
9.770752957989208
 40
9.770752957989208
 40
9.770752957989208
 40
9.770752957989208
 10
187.1521871691832
 20
14.93980288195955
 30
0.0
 10
187.1322348171623
 20
14.93980875568677
 30
0.0
 10
187.0647037716464
 20
14.93982863806163
 30
0.0
 10
186.9410612161788
 20
14.93949362520331
 30
0.0
 10
186.7863180150056
 20
14.94107673750516
 30
0.0
 10
186.669734948248
 20
14.936860788605
 30
0.0
 10
186.455094263424
 20
14.95215205331631
 30
0.0
 10
186.8518948407229
 20
14.59198721286197
 30
0.0
 10
186.8945656069267
 20
14.37510503397171
 30
0.0
 10
187.3189162146611
 20
14.19325062511449
 30
0.0
 10
187.1439821496074
 20
14.08985196568077
 30
0.0
 10
187.0194523925084
 20
13.87831523212727
 30
0.0
 10
186.7666277235942
 20
14.34806081001567
 30
0.0
 10
186.4797602893627
 20
14.99511516984524
 30
0.0
 10
186.490633592666
 20
14.68782672154699
 30
0.0
 10
186.4882892777959
 20
14.52288616971782
 30
0.0
 10
186.4861096126411
 20
14.28879670711698
 30
0.0
 10
186.4980774396346
 20
14.04498072421788
 30
0.0
 10
186.4687984740631
 20
13.89855796860989
 30
0.0
 10
186.5114522625469
 20
13.75113490174542
 30
0.0
 10
186.4239814005639
 20
13.76685797306226
 30
0.0
 10
186.3768527606744
 20
13.76694303543459
 30
0.0
 10
186.2898973207712
 20
13.75109425482914
 30
0.0
 10
186.3313474021722
 20
13.89527771422767
 30
0.0
 10
186.3029875004284
 20
14.0385505269846
 30
0.0
 10
186.3145973775299
 20
14.27674947365269
 30
0.0
 10
186.312417564827
 20
14.5051723524035
 30
0.0
 10
186.3103111127993
 20
14.66705729375999
 30
0.0
 10
186.3208035438321
 20
14.98153709333754
 30
0.0
 10
186.0128963252893
 20
14.29229470872439
 30
0.0
 10
185.7055258267455
 20
13.81476750243058
 30
0.0
 10
185.5851367066274
 20
14.03741112637431
 30
0.0
 10
185.4074607910722
 20
14.15011034955571
 30
0.0
 10
185.8853326362894
 20
14.32548143465467
 30
0.0
 10
185.9353959057207
 20
14.56091929252033
 30
0.0
 10
186.3583799621716
 20
14.95322989344611
 30
0.0
 10
186.127675427354
 20
14.93655307029071
 30
0.0
 10
186.0049685859341
 20
14.94269518948775
 30
0.0
 10
185.8325483095661
 20
14.93312822699579
 30
0.0
 10
185.7213224694448
 20
14.95448818489671
 30
0.0
 10
185.6025779627448
 20
14.92136265357425
 30
0.0
 10
185.6183169706686
 20
15.00203900606889
 30
0.0
 10
185.6178550933763
 20
15.04645414290859
 30
0.0
 10
185.6027881889931
 20
15.12967081778537
 30
0.0
 10
185.7372380935442
 20
15.09062651983889
 30
0.0
 10
185.8619755545746
 20
15.11739729328426
 30
0.0
 10
186.0628755237279
 20
15.10063949044057
 30
0.0
 10
186.1921540949353
 20
15.12204225913008
 30
0.0
 10
186.3328419928294
 20
15.08868778853425
 30
0.0
 10
186.2980927452614
 20
15.22651875785072
 30
0.0
 10
186.3222185666712
 20
15.34963257349485
 30
0.0
 10
186.2967086182392
 20
15.47024055670339
 30
0.0
 10
186.3333251146684
 20
15.60539865141498
 30
0.0
 10
186.2211417027769
 20
15.58094545781895
 30
0.0
 10
186.1280356457135
 20
15.59307749842026
 30
0.0
 10
186.0191547579819
 20
15.58957630069997
 30
0.0
 10
185.9569697640963
 20
15.58981755951606
 30
0.0
 10
185.9375369557245
 20
15.58989295124148
 30
0.0
 11
187.1521871691832
 21
14.93980288195955
 31
0.0
 11
187.0923621563981
 21
14.93980288195955
 31
0.0
 11
186.9497025105259
 21
14.93980288195955
 31
0.0
 11
186.7794313202913
 21
14.93980288195955
 31
0.0
 11
186.6367716744191
 21
14.93980288195955
 31
0.0
 11
186.576946661634
 21
14.93980288195955
 31
0.0
 11
186.7679960754842
 21
14.63705127966896
 31
0.0
 11
186.994127278563
 21
14.36051890576688
 31
0.0
 11
187.2244526173371
 21
14.15061253493461
 31
0.0
 11
187.1521596330704
 21
14.08466403668721
 31
0.0
 11
187.0879364402643
 21
14.00876059052564
 31
0.0
 11
186.7732818215558
 21
14.35891458349367
 31
0.0
 11
186.4886640249976
 21
14.81138295143605
 31
0.0
 11
186.4886640249976
 21
14.73370259137317
 31
0.0
 11
186.4886640249976
 21
14.53950169121597
 31
0.0
 11
186.4886640249976
 21
14.28704052101161
 31
0.0
 11
186.4886640249976
 21
14.03457935080725
 31
0.0
 11
186.4886640249976
 21
13.84037845065005
 31
0.0
 11
186.4886640249976
 21
13.76269809058717
 31
0.0
 11
186.4428901295605
 21
13.76269809058717
 31
0.0
 11
186.3578814666058
 21
13.76269809058717
 31
0.0
 11
186.3121075711686
 21
13.76269809058717
 31
0.0
 11
186.3121075711686
 21
13.83859234982745
 31
0.0
 11
186.3121075711686
 21
14.02832799792816
 31
0.0
 11
186.3121075711686
 21
14.27498434045908
 31
0.0
 11
186.3121075711686
 21
14.52164068299
 31
0.0
 11
186.3121075711686
 21
14.71137633109071
 31
0.0
 11
186.3121075711686
 21
14.78727059033099
 31
0.0
 11
185.9987626399266
 21
14.31440946197697
 31
0.0
 11
185.6352328662148
 21
13.95795177109386
 31
0.0
 11
185.5773927461627
 21
14.03253450545026
 31
0.0
 11
185.5094852305341
 21
14.09704322939247
 31
0.0
 11
185.7750721898319
 21
14.31672219795894
 31
0.0
 11
186.023376497206
 21
14.60953395971702
 31
0.0
 11
186.2264982805259
 21
14.93980288195955
 31
0.0
 11
186.162785165272
 21
14.93980288195955
 31
0.0
 11
186.0108538904358
 21
14.93980288195955
 31
0.0
 11
185.8295165624055
 21
14.93980288195955
 31
0.0
 11
185.6775852875693
 21
14.93980288195955
 31
0.0
 11
185.6138721723154
 21
14.93980288195955
 31
0.0
 11
185.6138721723154
 21
14.98350061600213
 31
0.0
 11
185.6138721723154
 21
15.06465355065264
 31
0.0
 11
185.6138721723154
 21
15.10835128469522
 31
0.0
 11
185.6864886537961
 21
15.10835128469522
 31
0.0
 11
185.8596510327117
 21
15.10835128469522
 31
0.0
 11
186.0663287107723
 21
15.10835128469522
 31
0.0
 11
186.2394910896879
 21
15.10835128469522
 31
0.0
 11
186.3121075711686
 21
15.10835128469522
 31
0.0
 11
186.3121075711686
 21
15.18359217009307
 31
0.0
 11
186.3121075711686
 21
15.34912211796835
 31
0.0
 11
186.3121075711686
 21
15.51465206584363
 31
0.0
 11
186.3121075711686
 21
15.58989295124148
 31
0.0
 11
186.2535809125055
 21
15.58989295124148
 31
0.0
 11
186.1248222634466
 21
15.58989295124148
 31
0.0
 11
185.9960636143877
 21
15.58989295124148
 31
0.0
 11
185.9375369557245
 21
15.58989295124148
 31
0.0
  0
SPLINE
  5
A7
102
{ACAD_REACTORS
330
C4
102
}
330
48
100
AcDbEntity
  8
_U_30EC_U_30A4_U_30E4_U_30FC_1
  6
Continuous
 62
     2
100
AcDbSpline
210
0.0
220
0.0
230
1.0
 70
    11
 71
     3
 72
   124
 73
   120
 74
   118
 42
0.000000001
 43
0.0000000001
 44
0.00000001
 40
0.0
 40
0.0
 40
0.0
 40
0.0
 40
0.027818722962451
 40
0.1011590162384269
 40
0.2048470170590239
 40
0.3237088716559245
 40
0.4425707262522
 40
0.5462587270699547
 40
0.6195990203311798
 40
0.647417752257866
 40
0.6750060736115242
 40
0.7357003855242812
 40
0.7963946998054545
 40
0.8239830245571873
 40
0.8540933811102966
 40
0.9373396629409647
 40
1.063094687343246
 40
1.220731268638112
 40
1.399622220914787
 40
1.589140358637828
 40
1.778658496423966
 40
1.957549448940633
 40
2.115186030873255
 40
2.240941056914559
 40
2.324187341760656
 40
2.354297700109506
 40
2.381886024672014
 40
2.442580338710605
 40
2.503274652750634
 40
2.530862977314741
 40
2.560983949278694
 40
2.640393784453068
 40
2.752662861759291
 40
2.881361560118337
 40
3.010060258455383
 40
3.122329335705559
 40
3.201739170818201
 40
3.231860142753562
 40
3.264298024030617
 40
3.35234370177849
 40
3.482095226869011
 40
3.63965065017327
 40
3.811108022565727
 40
3.982565394928232
 40
4.140120818152814
 40
4.269872343141524
 40
4.357918020802585
 40
4.390355902044214
 40
4.423256253992812
 40
4.508104530073333
 40
4.624121560637101
 40
4.750528176031886
 40
4.866545206602333
 40
4.951393482692318
 40
4.98429383464572
 40
5.011450833242637
 40
5.071196230152421
 40
5.130941627057497
 40
5.158098625649163
 40
5.190998977601825
 40
5.275847253689707
 40
5.39186428425717
 40
5.518270899648686
 40
5.634287930209754
 40
5.719136206288428
 40
5.752036558236344
 40
5.782130946283368
 40
5.862783906229542
 40
5.979550131775411
 40
6.117984316640816
 40
6.263641154588361
 40
6.402075339414568
 40
6.518841564908363
 40
6.599494524815944
 40
6.629588912849182
 40
6.654403028226758
 40
6.713575149488525
 40
6.784199939329842
 40
6.843372060493945
 40
6.86818617580319
 40
6.896246243202279
 40
6.939586233758675
 40
6.967846564565303
 40
7.043584251090241
 40
7.153234334452096
 40
7.283231855734845
 40
7.420011856035877
 40
7.550009376580229
 40
7.659659458835627
 40
7.735397144417622
 40
7.763657474851792
 40
7.796409728011449
 40
7.880876065096723
 40
7.996370852466109
 40
8.122208446419004
 40
8.237703224799597
 40
8.322169562011291
 40
8.354921815206305
 40
8.382078813308086
 40
8.441824209207393
 40
8.501569605240542
 40
8.52872660348612
 40
8.56147885669617
 40
8.64594519387822
 40
8.761439980865731
 40
8.887277580764874
 40
9.002772362001394
 40
9.087238696661615
 40
9.119990949236069
 40
9.152428830613767
 40
9.240474508638984
 40
9.370226034149935
 40
9.527781457984815
 40
9.699238830981805
 40
9.870696203978996
 40
10.02825162781442
 40
10.15800315332603
 40
10.24604883135158
 40
10.27848670378561
 40
10.27848670378561
 40
10.27848670378561
 40
10.27848670378561
 10
195.3821827564383
 20
14.01410517385762
 30
0.0
 10
195.3914554737523
 20
14.01410498511279
 30
0.0
 10
195.4251744536861
 20
14.01410430876719
 30
0.0
 10
195.4934706812465
 20
14.01411807243309
 30
0.0
 10
195.592014171158
 20
14.0140322421955
 30
0.0
 10
195.7062066464812
 20
14.01441755612255
 30
0.0
 10
195.818589441707
 20
14.0130083589755
 30
0.0
 10
195.9214376600118
 20
14.01719117422248
 30
0.0
 10
195.9806839874849
 20
14.00823089251988
 30
0.0
 10
196.0371265937032
 20
14.02164434526066
 30
0.0
 10
196.0246255586954
 20
13.97087198613366
 30
0.0
 10
196.0329549635703
 20
13.92589320939071
 30
0.0
 10
196.0248170841119
 20
13.88056752990492
 30
0.0
 10
196.0370529214457
 20
13.8293193240847
 30
0.0
 10
195.9747773490334
 20
13.84447955365281
 30
0.0
 10
195.9060513026868
 20
13.83359750710747
 30
0.0
 10
195.7782756749591
 20
13.83911304747976
 30
0.0
 10
195.6262984511644
 20
13.83700851253702
 30
0.0
 10
195.4502695972521
 20
13.83771002588477
 30
0.0
 10
195.2644431934287
 20
13.83745237531296
 30
0.0
 10
195.0786167437174
 20
13.83771005144607
 30
0.0
 10
194.9025880142167
 20
13.83700841847734
 30
0.0
 10
194.7506104154194
 20
13.83911332229993
 30
0.0
 10
194.6228357664554
 20
13.83359680767644
 30
0.0
 10
194.554107783658
 20
13.84448077125947
 30
0.0
 10
194.4918349042882
 20
13.82931786684213
 30
0.0
 10
194.5040616290017
 20
13.88057510805176
 30
0.0
 10
194.4960004462595
 20
13.9258247327243
 30
0.0
 10
194.5040675809891
 20
13.97106357955328
 30
0.0
 10
194.4918238487082
 20
14.02234176909962
 30
0.0
 10
194.5525017120697
 20
14.0074957736314
 30
0.0
 10
194.6162810745735
 20
14.0175644817074
 30
0.0
 10
194.7277314353502
 20
14.01294644212005
 30
0.0
 10
194.8497533443823
 20
14.01413328905473
 30
0.0
 10
194.9719538137823
 20
14.0151586390064
 30
0.0
 10
195.0829794287392
 20
14.01092475623407
 30
0.0
 10
195.1476517413957
 20
14.02018584521744
 30
0.0
 10
195.2091162810501
 20
14.00604423049687
 30
0.0
 10
195.1930065601337
 20
14.07235527884522
 30
0.0
 10
195.2042980327358
 20
14.1444779012198
 30
0.0
 10
195.1987400822561
 20
14.27513760888291
 30
0.0
 10
195.200803506169
 20
14.42607323708246
 30
0.0
 10
195.2000167127295
 20
14.59335873107891
 30
0.0
 10
195.2007845215626
 20
14.76061110332307
 30
0.0
 10
195.1988038785628
 20
14.91163289269919
 30
0.0
 10
195.204130615662
 20
15.04206069552999
 30
0.0
 10
195.1933101388425
 20
15.11465442605905
 30
0.0
 10
195.2090326429875
 20
15.18150469436804
 30
0.0
 10
195.143270813249
 20
15.16580512490829
 30
0.0
 10
195.0756367830763
 20
15.17609243084
 30
0.0
 10
194.9615885293809
 20
15.17113786847126
 30
0.0
 10
194.8451242674902
 20
15.1741412803048
 30
0.0
 10
194.7306554121476
 20
15.16880303143394
 30
0.0
 10
194.6640324657811
 20
15.1800126807483
 30
0.0
 10
194.5990769715185
 20
15.16349132665016
 30
0.0
 10
194.6107989758707
 20
15.21473720477064
 30
0.0
 10
194.603283018912
 20
15.25950333784096
 30
0.0
 10
194.6107989878834
 20
15.30426944897966
 30
0.0
 10
194.5990769505346
 20
15.35551536129745
 30
0.0
 10
194.6640326339199
 20
15.33899381766819
 30
0.0
 10
194.730653333982
 20
15.35020571373948
 30
0.0
 10
194.8451352858063
 20
15.3448543671067
 30
0.0
 10
194.9615454436962
 20
15.34791188771122
 30
0.0
 10
195.0757660174639
 20
15.34278499010713
 30
0.0
 10
195.1430150439227
 20
15.35345733355603
 30
0.0
 10
195.2083325941438
 20
15.33742082669081
 30
0.0
 10
195.1941391448553
 20
15.39949685750059
 30
0.0
 10
195.2036059462994
 20
15.46586761628767
 30
0.0
 10
195.1990269004085
 20
15.58239972741972
 30
0.0
 10
195.2007696555948
 20
15.71426685022381
 30
0.0
 10
195.1997551495392
 20
15.85615960150278
 30
0.0
 10
195.2017191344372
 20
15.98769050702585
 30
0.0
 10
195.1964668553851
 20
16.10524577283007
 30
0.0
 10
195.2073408763474
 20
16.16947789001589
 30
0.0
 10
195.1919536641853
 20
16.23108802545052
 30
0.0
 10
195.24075915378
 20
16.21702407382116
 30
0.0
 10
195.2853995564726
 20
16.21954742075319
 30
0.0
 10
195.3538643946743
 20
16.21512797401715
 30
0.0
 10
195.3959106169102
 20
16.2061302554404
 30
0.0
 10
195.4487544758775
 20
16.21411714866516
 30
0.0
 10
195.4207035002013
 20
16.17113917611677
 30
0.0
 10
195.3749142248594
 20
16.18259552043841
 30
0.0
 10
195.3869539073265
 20
16.12173520005141
 30
0.0
 10
195.3796086070641
 20
16.05769299468778
 30
0.0
 10
195.3831195826162
 20
15.94909368863916
 30
0.0
 10
195.3819806760173
 20
15.82494319144758
 30
0.0
 10
195.3819174780262
 20
15.69189719829883
 30
0.0
 10
195.3832872966868
 20
15.5679738124956
 30
0.0
 10
195.3791638801313
 20
15.45868337849343
 30
0.0
 10
195.3877763103564
 20
15.39608580094175
 30
0.0
 10
195.3746757454402
 20
15.3374013329637
 30
0.0
 10
195.4393884328198
 20
15.35362113810906
 30
0.0
 10
195.5060405953156
 20
15.34270260383316
 30
0.0
 10
195.6198779541102
 20
15.34793740173761
 30
0.0
 10
195.7357259122097
 20
15.34485547516918
 30
0.0
 10
195.849692426328
 20
15.35018259812517
 30
0.0
 10
195.91603410181
 20
15.33904208166547
 30
0.0
 10
195.9807188525479
 20
15.35546979593183
 30
0.0
 10
195.9689820772723
 20
15.30425925210056
 30
0.0
 10
195.976516806304
 20
15.25950334121005
 30
0.0
 10
195.9689820992258
 20
15.21474739010032
 30
0.0
 10
195.9807188140736
 20
15.16353690871045
 30
0.0
 10
195.9160344075252
 20
15.17996427794225
 30
0.0
 10
195.8496886430824
 20
15.16882784447274
 30
0.0
 10
195.7357459487012
 20
15.17413115893125
 30
0.0
 10
195.6197995623054
 20
15.17114764593548
 30
0.0
 10
195.5062756882123
 20
15.17606892268398
 30
0.0
 10
195.4389231318804
 20
15.16585087513524
 30
0.0
 10
195.3734285122495
 20
15.18145996138821
 30
0.0
 10
195.3891713619218
 20
15.11463851827416
 30
0.0
 10
195.3783275998213
 20
15.04207057815884
 30
0.0
 10
195.3836581629793
 20
14.91162247614421
 30
0.0
 10
195.3817136151855
 20
14.76064558185231
 30
0.0
 10
195.3823133683215
 20
14.59322243934163
 30
0.0
 10
195.3821506559604
 20
14.42656176118376
 30
0.0
 10
195.3821895488136
 20
14.27360142921641
 30
0.0
 10
195.3821816413099
 20
14.1484917898571
 30
0.0
 10
195.3821828382744
 20
14.06507890991425
 30
0.0
 10
195.3821827716208
 20
14.02491778281981
 30
0.0
 10
195.3821827564383
 20
14.01410517385762
 30
0.0
 11
195.3821827564383
 21
14.01410517385762
 31
0.0
 11
195.4100014883675
 21
14.01410517385762
 31
0.0
 11
195.4833417816353
 21
14.01410517385762
 31
0.0
 11
195.5870297824622
 21
14.01410517385762
 31
0.0
 11
195.7058916370687
 21
14.01410517385762
 31
0.0
 11
195.8247534916751
 21
14.01410517385762
 31
0.0
 11
195.928441492502
 21
14.01410517385762
 31
0.0
 11
196.0017817857698
 21
14.01410517385762
 31
0.0
 11
196.029600517699
 21
14.01410517385762
 31
0.0
 11
196.029600517699
 21
13.98651684921174
 31
0.0
 11
196.029600517699
 21
13.92582253499081
 31
0.0
 11
196.029600517699
 21
13.86512822076989
 31
0.0
 11
196.029600517699
 21
13.83753989612401
 31
0.0
 11
195.9994901593494
 21
13.83753989612401
 31
0.0
 11
195.9162438745004
 21
13.83753989612401
 31
0.0
 11
195.7904888484521
 21
13.83753989612401
 31
0.0
 11
195.6328522665041
 21
13.83753989612401
 31
0.0
 11
195.4539613139564
 21
13.83753989612401
 31
0.0
 11
195.2644431761088
 21
13.83753989612401
 31
0.0
 11
195.0749250382612
 21
13.83753989612401
 31
0.0
 11
194.8960340857135
 21
13.83753989612401
 31
0.0
 11
194.7383975037655
 21
13.83753989612401
 31
0.0
 11
194.6126424777171
 21
13.83753989612401
 31
0.0
 11
194.5293961928682
 21
13.83753989612401
 31
0.0
 11
194.4992858345186
 21
13.83753989612401
 31
0.0
 11
194.4992858345186
 21
13.86512822076989
 31
0.0
 11
194.4992858345186
 21
13.92582253499081
 31
0.0
 11
194.4992858345186
 21
13.98651684921175
 31
0.0
 11
194.4992858345186
 21
14.01410517385762
 31
0.0
 11
194.5294068064946
 21
14.01410517385762
 31
0.0
 11
194.6088166417039
 21
14.01410517385762
 31
0.0
 11
194.7210857190689
 21
14.01410517385762
 31
0.0
 11
194.8497844175117
 21
14.01410517385762
 31
0.0
 11
194.9784831159545
 21
14.01410517385762
 31
0.0
 11
195.0907521933194
 21
14.01410517385762
 31
0.0
 11
195.1701620285289
 21
14.01410517385762
 31
0.0
 11
195.2002830005048
 21
14.01410517385762
 31
0.0
 11
195.2002830005048
 21
14.0465430552384
 31
0.0
 11
195.2002830005048
 21
14.13458873327195
 31
0.0
 11
195.2002830005048
 21
14.26434025879507
 31
0.0
 11
195.2002830005048
 21
14.42189568264459
 31
0.0
 11
195.2002830005048
 21
14.59335305565729
 31
0.0
 11
195.2002830005048
 21
14.76481042866999
 31
0.0
 11
195.2002830005048
 21
14.92236585251949
 31
0.0
 11
195.2002830005048
 21
15.05211737804262
 31
0.0
 11
195.2002830005048
 21
15.14016305607617
 31
0.0
 11
195.2002830005048
 21
15.17260093745695
 31
0.0
 11
195.1673826485528
 21
15.17260093745695
 31
0.0
 11
195.0825343724662
 21
15.17260093745695
 31
0.0
 11
194.9665173418988
 21
15.17260093745695
 31
0.0
 11
194.8401107265043
 21
15.17260093745695
 31
0.0
 11
194.7240936959369
 21
15.17260093745695
 31
0.0
 11
194.6392454198503
 21
15.17260093745695
 31
0.0
 11
194.6063450678983
 21
15.17260093745695
 31
0.0
 11
194.6063450678983
 21
15.19975793614808
 31
0.0
 11
194.6063450678983
 21
15.25950333326855
 31
0.0
 11
194.6063450678983
 21
15.31924873038903
 31
0.0
 11
194.6063450678983
 21
15.34640572908015
 31
0.0
 11
194.6392454198503
 21
15.34640572908015
 31
0.0
 11
194.7240936959369
 21
15.34640572908015
 31
0.0
 11
194.8401107265044
 21
15.34640572908015
 31
0.0
 11
194.9665173418987
 21
15.34640572908015
 31
0.0
 11
195.0825343724662
 21
15.34640572908015
 31
0.0
 11
195.1673826485528
 21
15.34640572908015
 31
0.0
 11
195.2002830005048
 21
15.34640572908015
 31
0.0
 11
195.2002830005048
 21
15.37650011731374
 31
0.0
 11
195.2002830005048
 21
15.45715307777978
 31
0.0
 11
195.2002830005048
 21
15.57391930412614
 31
0.0
 11
195.2002830005048
 21
15.71235349000068
 31
0.0
 11
195.2002830005048
 21
15.85801032905129
 31
0.0
 11
195.2002830005048
 21
15.99644451492583
 31
0.0
 11
195.2002830005048
 21
16.11321074127219
 31
0.0
 11
195.2002830005048
 21
16.19386370173822
 31
0.0
 11
195.2002830005048
 21
16.22395808997182
 31
0.0
 11
195.2250405288618
 21
16.22228324219447
 31
0.0
 11
195.2840777118669
 21
16.2182893744177
 31
0.0
 11
195.3545414464214
 21
16.21352249997446
 31
0.0
 11
195.4135786294265
 21
16.2095286321977
 31
0.0
 11
195.4383361577835
 21
16.20785378442034
 31
0.0
 11
195.423306722403
 21
16.18415814206514
 31
0.0
 11
195.3821827564383
 21
16.17047697887408
 31
0.0
 11
195.3821827564383
 21
16.14221664794837
 31
0.0
 11
195.3821827564383
 21
16.06647896106744
 31
0.0
 11
195.3821827564383
 21
15.95682887707566
 31
0.0
 11
195.3821827564383
 21
15.82683135481735
 31
0.0
 11
195.3821827564383
 21
15.69005135313688
 31
0.0
 11
195.3821827564383
 21
15.56005383087858
 31
0.0
 11
195.3821827564383
 21
15.45040374688679
 31
0.0
 11
195.3821827564383
 21
15.37466606000587
 31
0.0
 11
195.3821827564383
 21
15.34640572908015
 31
0.0
 11
195.4149350096115
 21
15.34640572908015
 31
0.0
 11
195.4994013467422
 21
15.34640572908015
 31
0.0
 11
195.6148961342476
 21
15.34640572908015
 31
0.0
 11
195.7407337385445
 21
15.34640572908015
 31
0.0
 11
195.8562285260498
 21
15.34640572908015
 31
0.0
 11
195.9406948631806
 21
15.34640572908015
 31
0.0
 11
195.9734471163538
 21
15.34640572908015
 31
0.0
 11
195.9734471163538
 21
15.31924873038903
 31
0.0
 11
195.9734471163538
 21
15.25950333326855
 31
0.0
 11
195.9734471163538
 21
15.19975793614807
 31
0.0
 11
195.9734471163538
 21
15.17260093745695
 31
0.0
 11
195.9406948631806
 21
15.17260093745695
 31
0.0
 11
195.8562285260498
 21
15.17260093745695
 31
0.0
 11
195.7407337385445
 21
15.17260093745695
 31
0.0
 11
195.6148961342476
 21
15.17260093745695
 31
0.0
 11
195.4994013467422
 21
15.17260093745695
 31
0.0
 11
195.4149350096114
 21
15.17260093745695
 31
0.0
 11
195.3821827564383
 21
15.17260093745695
 31
0.0
 11
195.3821827564383
 21
15.14016305607617
 31
0.0
 11
195.3821827564383
 21
15.05211737804262
 31
0.0
 11
195.3821827564383
 21
14.92236585251949
 31
0.0
 11
195.3821827564383
 21
14.76481042866999
 31
0.0
 11
195.3821827564383
 21
14.59335305565729
 31
0.0
 11
195.3821827564383
 21
14.42189568264458
 31
0.0
 11
195.3821827564383
 21
14.26434025879508
 31
0.0
 11
195.3821827564383
 21
14.13458873327195
 31
0.0
 11
195.3821827564383
 21
14.0465430552384
 31
0.0
 11
195.3821827564383
 21
14.01410517385762
 31
0.0
  0
SPLINE
  5
A8
102
{ACAD_REACTORS
330
C5
102
}
330
48
100
AcDbEntity
  8
_U_30EC_U_30A4_U_30E4_U_30FC_1
  6
Continuous
 62
     2
100
AcDbSpline
210
0.0
220
0.0
230
1.0
 70
    11
 71
     3
 72
   131
 73
   127
 74
   125
 42
0.000000001
 43
0.0000000001
 44
0.00000001
 40
0.0
 40
0.0
 40
0.0
 40
0.0
 40
0.0195577029826058
 40
0.0426490537461336
 40
0.2863607575856633
 40
0.5344948436189492
 40
0.7842238845573573
 40
0.8737315789467992
 40
0.980383281031371
 40
1.092842274517095
 40
1.199761146656876
 40
1.289788768186559
 40
1.35157358078623
 40
1.370727117561456
 40
1.416400936017849
 40
1.47091484835599
 40
1.516588666791745
 40
1.535742203552825
 40
1.634216592293174
 40
1.760283341175007
 40
1.897966686682068
 40
2.03121638736889
 40
2.049689751137885
 40
2.10111560164682
 40
2.179502577739937
 40
2.278859318314053
 40
2.393194462258709
 40
2.516516648383822
 40
2.64283451540595
 40
2.766156701983455
 40
2.880491846754566
 40
2.979848588358609
 40
3.058235565443786
 40
3.10966141666894
 40
3.128134780704116
 40
3.146783742386432
 40
3.191254343315293
 40
3.244332157315952
 40
3.288802758225856
 40
3.307451719895099
 40
3.327717853844709
 40
3.383747753580071
 40
3.468388665924465
 40
3.57448783769877
 40
3.694892515728874
 40
3.822449946852013
 40
3.950007377920402
 40
4.070412055800492
 40
4.176511227368048
 40
4.261152139501494
 40
4.317182039076688
 40
4.337448172964606
 40
4.620011002696237
 40
4.885096638397552
 40
4.945373043518344
 40
5.014107710488668
 40
5.070481727652089
 40
5.319246955636635
 40
5.584812164506149
 40
5.859000912057002
 40
6.133746937542185
 40
6.401732212968989
 40
6.42073668399558
 40
6.47284571745123
 40
6.550702743894158
 40
6.646951193874367
 40
6.754234497930748
 40
6.865196086587497
 40
6.972479390358012
 40
7.068727839772146
 40
7.146584865451183
 40
7.198693898189413
 40
7.217698368905554
 40
7.234950401631032
 40
7.276089864270071
 40
7.325191803516176
 40
7.366331266090562
 40
7.383583298769912
 40
7.402779163492289
 40
7.45338644325472
 40
7.52493466644575
 40
7.60695336140609
 40
7.68897205642927
 40
7.760520279784549
 40
7.811127559734791
 40
7.830323424546412
 40
7.84784405530004
 40
7.894799345667082
 40
7.962779392744769
 40
8.043374293560817
 40
8.128174145149725
 40
8.208769044817526
 40
8.27674909037723
 40
8.323704379669792
 40
8.341225010056522
 40
8.35849761480067
 40
8.401679126686847
 40
8.457815092185877
 40
8.513951057728281
 40
8.55713256970818
 40
8.574405174505252
 40
8.602340668616568
 40
8.643455660540111
 40
8.663225271966779
 40
8.715345156564426
 40
8.789031889628758
 40
8.87350204552049
 40
8.957972194324116
 40
9.031658925568006
 40
9.083778811234694
 40
9.103548423003158
 40
9.119550083123695
 40
9.160817522379997
 40
9.217244429110362
 40
9.278724491644848
 40
9.335151398295633
 40
9.376418837357928
 40
9.392420497300716
 40
9.401196302734935
 40
9.41749422938441
 40
9.426270027749682
 40
9.440875075477715
 40
9.475702496998895
 40
9.517270709866061
 40
9.552098131994232
 40
9.56670316988444
 40
9.56670316988444
 40
9.56670316988444
 40
9.56670316988444
 10
194.6170254148479
 20
15.6701587151103
 30
0.0
 10
194.613434509337
 20
15.66453690702162
 30
0.0
 10
194.6056039123625
 20
15.65227754419116
 30
0.0
 10
194.5129968974546
 20
15.6160191604098
 30
0.0
 10
194.4887622233247
 20
15.40148444212717
 30
0.0
 10
194.3858709845937
 20
15.22197284509713
 30
0.0
 10
194.1220492364305
 20
15.03615573798148
 30
0.0
 10
194.2845471569179
 20
14.95959336566085
 30
0.0
 10
194.3607225760838
 20
14.89856693195448
 30
0.0
 10
194.4492171072758
 20
14.83515804544761
 30
0.0
 10
194.538993023311
 20
14.77525634219566
 30
0.0
 10
194.5883817636046
 20
14.72102154849212
 30
0.0
 10
194.674570815738
 20
14.69286240541837
 30
0.0
 10
194.6411260674229
 20
14.65713309652816
 30
0.0
 10
194.621467116631
 20
14.62550387991909
 30
0.0
 10
194.5919888217881
 20
14.58475872796076
 30
0.0
 10
194.5688989446031
 20
14.55504663489647
 30
0.0
 10
194.5380205968356
 20
14.50211422668499
 30
0.0
 10
194.4729193365741
 20
14.62740334938907
 30
0.0
 10
194.3796000122416
 20
14.68213900233938
 30
0.0
 10
194.2950636285138
 20
14.73916423939347
 30
0.0
 10
194.1722498125742
 20
14.89675287427527
 30
0.0
 10
194.1764450847301
 20
14.8203580676684
 30
0.0
 10
194.1751478652678
 20
14.773612801613
 30
0.0
 10
194.1758126448076
 20
14.69584785812604
 30
0.0
 10
194.1755549986958
 20
14.59902068324427
 30
0.0
 10
194.1756431239921
 20
14.48650279078813
 30
0.0
 10
194.1756077302281
 20
14.36524085945703
 30
0.0
 10
194.1756511758278
 20
14.24086897858965
 30
0.0
 10
194.1755199942405
 20
14.1196768363134
 30
0.0
 10
194.1759477562046
 20
14.00691148919747
 30
0.0
 10
194.1746678202311
 20
13.91082913768749
 30
0.0
 10
194.1779759851043
 20
13.83113826468703
 30
0.0
 10
194.1715197740086
 20
13.78815175788788
 30
0.0
 10
194.1806208705556
 20
13.74955432372047
 30
0.0
 10
194.1447910339935
 20
13.75810887724075
 30
0.0
 10
194.1115223815252
 20
13.7534251998545
 30
0.0
 10
194.060456257604
 20
13.75351298759788
 30
0.0
 10
194.0269723972813
 20
13.75794430283825
 30
0.0
 10
193.9907585408754
 20
13.74960793842514
 30
0.0
 10
194.0009782568665
 20
13.79145277179288
 30
0.0
 10
193.9936487887774
 20
13.83778560820178
 30
0.0
 10
193.9973633136103
 20
13.92374831106018
 30
0.0
 10
193.9959480554896
 20
14.02605142704853
 30
0.0
 10
193.9964105554638
 20
14.14453223931515
 30
0.0
 10
193.996277368623
 20
14.2695768315336
 30
0.0
 10
193.9963015910045
 20
14.39475828107053
 30
0.0
 10
193.9963354925551
 20
14.51286645379061
 30
0.0
 10
193.9962060293132
 20
14.6162874870952
 30
0.0
 10
193.9965507549081
 20
14.69932036153671
 30
0.0
 10
193.995869827869
 20
14.75143368521247
 30
0.0
 10
193.9994586600623
 20
14.87912907821365
 30
0.0
 10
193.7826171386437
 20
14.58048716819625
 30
0.0
 10
193.602135492195
 20
14.35263981511515
 30
0.0
 10
193.5490322295611
 20
14.4937344328982
 30
0.0
 10
193.5200429133148
 20
14.54325767560947
 30
0.0
 10
193.4196648062819
 20
14.6464177979011
 30
0.0
 10
193.740512772326
 20
14.72695035023784
 30
0.0
 10
193.868989700543
 20
14.91066283036437
 30
0.0
 10
194.0906454325359
 20
15.11931995771767
 30
0.0
 10
194.1770224894067
 20
15.29339211228349
 30
0.0
 10
194.4549394229075
 20
15.56967051342516
 30
0.0
 10
194.3346247839283
 20
15.56534559551119
 30
0.0
 10
194.2863197351349
 20
15.56614856202558
 30
0.0
 10
194.2102377454905
 20
15.56574582146589
 30
0.0
 10
194.116701000975
 20
15.56590275611614
 30
0.0
 10
194.0117594788556
 20
15.56582502576229
 30
0.0
 10
193.9033887738718
 20
15.5659546437856
 30
0.0
 10
193.7981454235896
 20
15.56554393490696
 30
0.0
 10
193.7056237819411
 20
15.56682073671596
 30
0.0
 10
193.6268130800707
 20
15.56340766534855
 30
0.0
 10
193.5839674565378
 20
15.57023350036325
 30
0.0
 10
193.5449499586515
 20
15.56065064201128
 30
0.0
 10
193.5526365271863
 20
15.59420779565547
 30
0.0
 10
193.5485464404311
 20
15.62523550322238
 30
0.0
 10
193.5485531368814
 20
15.67236529270904
 30
0.0
 10
193.5526239724911
 20
15.70340941646783
 30
0.0
 10
193.5449495574582
 20
15.73701861635905
 30
0.0
 10
193.5834819405493
 20
15.72748410420876
 30
0.0
 10
193.6241228014479
 20
15.73397435498075
 30
0.0
 10
193.6951471850463
 20
15.73100150650258
 30
0.0
 10
193.7729318149633
 20
15.73174761399162
 30
0.0
 10
193.8507292246474
 20
15.73247814044529
 30
0.0
 10
193.9217232089907
 20
15.72954235514164
 30
0.0
 10
193.962427979182
 20
15.73595468772956
 30
0.0
 10
194.0009853489909
 20
15.72650524176007
 30
0.0
 10
193.9927342754928
 20
15.76264692158789
 30
0.0
 10
193.9982346669358
 20
15.8012983761323
 30
0.0
 10
193.9955754206163
 20
15.86913528561842
 30
0.0
 10
193.9965815471533
 20
15.94591641538743
 30
0.0
 10
193.9960178018319
 20
16.0284939358276
 30
0.0
 10
193.9970714526592
 20
16.10517329229882
 30
0.0
 10
193.994267586313
 20
16.17331990776704
 30
0.0
 10
194.0000702721303
 20
16.2113239980935
 30
0.0
 10
193.9915654551158
 20
16.2475844807765
 30
0.0
 10
194.0255610233124
 20
16.23755723771855
 30
0.0
 10
194.0594575683099
 20
16.24073266813711
 30
0.0
 10
194.1126669060345
 20
16.23508965640612
 30
0.0
 10
194.1660768574482
 20
16.2343477443643
 30
0.0
 10
194.1995914649489
 20
16.22819223482983
 30
0.0
 10
194.2388086183038
 20
16.23346029773598
 30
0.0
 10
194.2120263698492
 20
16.19253380793491
 30
0.0
 10
194.1708111001723
 20
16.20371204538115
 30
0.0
 10
194.1782641540874
 20
16.15867056192128
 30
0.0
 10
194.1742227952184
 20
16.11412278028148
 30
0.0
 10
194.176171404964
 20
16.04223572621707
 30
0.0
 10
194.1752364849758
 20
15.96168630588774
 30
0.0
 10
194.176510719003
 20
15.88173995404999
 30
0.0
 10
194.1732043793863
 20
15.80841837083186
 30
0.0
 10
194.1802106179962
 20
15.76688643002572
 30
0.0
 10
194.1701440380125
 20
15.72752418568117
 30
0.0
 10
194.2029814803921
 20
15.73468063430985
 30
0.0
 10
194.236457729648
 20
15.73027243137948
 30
0.0
 10
194.2915053476019
 20
15.73217943347901
 30
0.0
 10
194.3489502595314
 20
15.73185366407292
 30
0.0
 10
194.4023026248309
 20
15.73106308733086
 30
0.0
 10
194.4398540896638
 20
15.73313959118078
 30
0.0
 10
194.4623172523237
 20
15.73022338167113
 30
0.0
 10
194.4751678073731
 20
15.7357255264406
 30
0.0
 10
194.4858255685888
 20
15.73801118197794
 30
0.0
 10
194.4986635650144
 20
15.74494972588057
 30
0.0
 10
194.514599103307
 20
15.72853046313675
 30
0.0
 10
194.5410623920892
 20
15.71709122319452
 30
0.0
 10
194.5726805253758
 20
15.69644687835194
 30
0.0
 10
194.5987255892151
 20
15.68116869628297
 30
0.0
 10
194.6128517723973
 20
15.67266976323186
 30
0.0
 10
194.6170254148479
 20
15.6701587151103
 30
0.0
 11
194.6170254148479
 21
15.6701587151103
 31
0.0
 11
194.6049990002243
 21
15.65473571164192
 31
0.0
 11
194.5848961795565
 21
15.64337406233922
 31
0.0
 11
194.4778986355813
 21
15.42440620231163
 31
0.0
 11
194.3477039934324
 21
15.21317201512165
 31
0.0
 11
194.199654036607
 21
15.01206059027483
 31
0.0
 11
194.2734958253734
 21
14.96147384935383
 31
0.0
 11
194.36056643118
 21
14.89988411653743
 31
0.0
 11
194.4518003750404
 21
14.83413160594429
 31
0.0
 11
194.5381321779687
 21
14.77105653169309
 31
0.0
 11
194.6104963609787
 21
14.71749910790246
 31
0.0
 11
194.6598274450842
 21
14.68029954869108
 31
0.0
 11
194.6486940702212
 21
14.66471410869498
 31
0.0
 11
194.6221452532402
 21
14.62754882870428
 31
0.0
 11
194.5904579555532
 21
14.58319026871537
 31
0.0
 11
194.5639091385723
 21
14.54602498872467
 31
0.0
 11
194.5527757637093
 21
14.53043954872857
 31
0.0
 11
194.4807013362947
 21
14.59754008690622
 31
0.0
 11
194.385285698538
 21
14.67993354174673
 31
0.0
 11
194.279326415217
 21
14.7678501736692
 31
0.0
 11
194.175621051109
 21
14.85152024309271
 31
0.0
 11
194.175621051109
 21
14.83304687900867
 31
0.0
 11
194.175621051109
 21
14.78162102763959
 31
0.0
 11
194.175621051109
 21
14.70323405031003
 31
0.0
 11
194.175621051109
 21
14.60387730834452
 31
0.0
 11
194.175621051109
 21
14.48954216306764
 31
0.0
 11
194.175621051109
 21
14.36621997580393
 31
0.0
 11
194.175621051109
 21
14.23990210787794
 31
0.0
 11
194.175621051109
 21
14.11657992061423
 31
0.0
 11
194.175621051109
 21
14.00224477533734
 31
0.0
 11
194.175621051109
 21
13.90288803337184
 31
0.0
 11
194.175621051109
 21
13.82450105604227
 31
0.0
 11
194.175621051109
 21
13.7730752046732
 31
0.0
 11
194.175621051109
 21
13.75460184058916
 31
0.0
 11
194.1569720893626
 21
13.75460184058916
 31
0.0
 11
194.1125014882749
 21
13.75460184058916
 31
0.0
 11
194.0594236740736
 21
13.75460184058916
 31
0.0
 11
194.0149530729859
 21
13.75460184058916
 31
0.0
 11
193.9963041112395
 21
13.75460184058916
 31
0.0
 11
193.9963041112395
 21
13.77486797460223
 31
0.0
 11
193.9963041112395
 21
13.8308978745207
 31
0.0
 11
193.9963041112395
 21
13.91553878716352
 31
0.0
 11
193.9963041112395
 21
14.02163795934957
 31
0.0
 11
193.9963041112395
 21
14.14204263789779
 31
0.0
 11
193.9963041112395
 21
14.2696000696271
 31
0.0
 11
193.9963041112395
 21
14.3971575013564
 31
0.0
 11
193.9963041112395
 21
14.51756217990462
 31
0.0
 11
193.9963041112395
 21
14.62366135209068
 31
0.0
 11
193.9963041112395
 21
14.70830226473348
 31
0.0
 11
193.9963041112395
 21
14.76433216465196
 31
0.0
 11
193.9963041112395
 21
14.78459829866503
 31
0.0
 11
193.7883272849481
 21
14.59331998274061
 31
0.0
 11
193.5763486358424
 21
14.43414885430815
 31
0.0
 11
193.5495629014482
 21
14.48814671952099
 31
0.0
 11
193.5138765415024
 21
14.5468914057203
 31
0.0
 11
193.4799697494123
 21
14.59192871537981
 31
0.0
 11
193.6830287742318
 21
14.73563387201058
 31
0.0
 11
193.881853195826
 21
14.91168423529993
 31
0.0
 11
194.0677041444178
 21
15.11327514524955
 31
0.0
 11
194.2318427502303
 21
15.33360194186114
 31
0.0
 11
194.3655301434864
 21
15.5658599651364
 31
0.0
 11
194.3465256724482
 21
15.5658599651364
 31
0.0
 11
194.2944166389562
 21
15.5658599651364
 31
0.0
 11
194.2165596124447
 21
15.5658599651364
 31
0.0
 11
194.1203111623478
 21
15.5658599651364
 31
0.0
 11
194.0130278580996
 21
15.5658599651364
 31
0.0
 11
193.9020662691345
 21
15.5658599651364
 31
0.0
 11
193.7947829648863
 21
15.5658599651364
 31
0.0
 11
193.6985345147894
 21
15.5658599651364
 31
0.0
 11
193.6206774882779
 21
15.5658599651364
 31
0.0
 11
193.5685684547859
 21
15.5658599651364
 31
0.0
 11
193.5495639837477
 21
15.5658599651364
 31
0.0
 11
193.5495639837477
 21
15.58311199790987
 31
0.0
 11
193.5495639837477
 21
15.62425146067736
 31
0.0
 11
193.5495639837477
 21
15.67335340010953
 31
0.0
 11
193.5495639837477
 21
15.71449286287702
 31
0.0
 11
193.5495639837477
 21
15.73174489565049
 31
0.0
 11
193.5687598486008
 21
15.73174489565049
 31
0.0
 11
193.6193671286683
 21
15.73174489565049
 31
0.0
 11
193.6909153522119
 21
15.73174489565049
 31
0.0
 11
193.7729340474936
 21
15.73174489565049
 31
0.0
 11
193.8549527427753
 21
15.73174489565049
 31
0.0
 11
193.9265009663189
 21
15.73174489565049
 31
0.0
 11
193.9771082463864
 21
15.73174489565049
 31
0.0
 11
193.9963041112395
 21
15.73174489565049
 31
0.0
 11
193.9963041112395
 21
15.74926552655222
 31
0.0
 11
193.9963041112395
 21
15.79622081736886
 31
0.0
 11
193.9963041112395
 21
15.86420086526757
 31
0.0
 11
193.9963041112395
 21
15.94479576741553
 31
0.0
 11
193.9963041112395
 21
16.0295956209799
 31
0.0
 11
193.9963041112395
 21
16.11019052312786
 31
0.0
 11
193.9963041112395
 21
16.17817057102657
 31
0.0
 11
193.9963041112395
 21
16.22512586184321
 31
0.0
 11
193.9963041112395
 21
16.24264649274494
 31
0.0
 11
194.0135484112111
 21
16.24165806167523
 31
0.0
 11
194.05665916114
 21
16.23918698400096
 31
0.0
 11
194.1127031360477
 21
16.23597458302439
 31
0.0
 11
194.1687471109553
 21
16.23276218204784
 31
0.0
 11
194.2118578608842
 21
16.23029110437356
 31
0.0
 11
194.2291021608558
 21
16.22930267330385
 31
0.0
 11
194.2143774674851
 21
16.20556293372644
 31
0.0
 11
194.175621051109
 21
16.19183767331316
 31
0.0
 11
194.175621051109
 21
16.17206806177297
 31
0.0
 11
194.175621051109
 21
16.11994817680337
 31
0.0
 11
194.175621051109
 21
16.04626144288083
 31
0.0
 11
194.175621051109
 21
15.96179128448182
 31
0.0
 11
194.175621051109
 21
15.87732112608282
 31
0.0
 11
194.175621051109
 21
15.80363439216028
 31
0.0
 11
194.175621051109
 21
15.75151450719068
 31
0.0
 11
194.175621051109
 21
15.73174489565049
 31
0.0
 11
194.1916227112935
 21
15.73174489565049
 31
0.0
 11
194.232890150717
 21
15.73174489565049
 31
0.0
 11
194.2893170576837
 21
15.73174489565049
 31
0.0
 11
194.3507971204981
 21
15.73174489565049
 31
0.0
 11
194.4072240274648
 21
15.73174489565049
 31
0.0
 11
194.4484914668882
 21
15.73174489565049
 31
0.0
 11
194.4644931270728
 21
15.73174489565049
 31
0.0
 11
194.4728206422924
 21
15.73451387455925
 31
0.0
 11
194.4882860277004
 21
15.73965626396122
 31
0.0
 11
194.49661354292
 21
15.74242524286998
 31
0.0
 11
194.5091363776005
 21
15.73490952398297
 31
0.0
 11
194.5389985218386
 21
15.71698742509857
 31
0.0
 11
194.5746404359293
 21
15.69559653288171
 31
0.0
 11
194.6045025801674
 21
15.67767443399731
 31
0.0
 11
194.6170254148479
 21
15.6701587151103
 31
0.0
  0
SPLINE
  5
A9
102
{ACAD_REACTORS
330
C6
102
}
330
48
100
AcDbEntity
  8
_U_30EC_U_30A4_U_30E4_U_30FC_1
  6
Continuous
 62
     2
100
AcDbSpline
210
0.0
220
0.0
230
1.0
 70
    11
 71
     3
 72
    91
 73
    87
 74
    85
 42
0.000000001
 43
0.0000000001
 44
0.00000001
 40
0.0
 40
0.0
 40
0.0
 40
0.0
 40
0.0267532254356701
 40
0.0856103386464102
 40
0.1444674521996621
 40
0.1712206856618514
 40
0.2039416005642536
 40
0.2955601971652484
 40
0.4362601844617202
 40
0.6162252844507534
 40
0.8256392189704982
 40
1.054685709844496
 40
1.29354847889356
 40
1.53241124793836
 40
1.761457738799625
 40
1.970871673298593
 40
2.150836773256789
 40
2.29153676049565
 40
2.383155356836785
 40
2.415876284101405
 40
2.442629517488048
 40
2.50148663094918
 40
2.560343744424327
 40
2.5870969778266
 40
2.617068194441027
 40
2.699247336756168
 40
2.82203264346651
 40
2.973822353258039
 40
3.143014704823481
 40
3.31800793688006
 40
3.487200288186922
 40
3.638989997548403
 40
3.761775303794958
 40
3.843954445753265
 40
3.87392566222996
 40
3.89081277350072
 40
3.907699884771925
 40
3.937960767857573
 40
3.980983618142552
 40
4.199085915228705
 40
4.439444339237499
 40
4.677588241261129
 40
5.050698317838015
 40
5.448212454763401
 40
5.855291218044926
 40
6.138575438885617
 40
6.417434507584442
 40
6.444551104394124
 40
6.504207617363423
 40
6.563864130314744
 40
6.590980727104338
 40
6.848609460381721
 40
7.109611990668641
 40
7.352910904446301
 40
7.5578302207057
 40
7.587518925913619
 40
7.65283407737604
 40
7.718149228845979
 40
7.747837934062284
 40
7.854880190301247
 40
7.976511257403786
 40
8.369487896592615
 40
8.757514959223936
 40
9.126072419331427
 40
9.460639380392518
 40
9.746695593036259
 40
9.777569943118989
 40
9.807050320932063
 40
9.830377336129198
 40
9.886003295436273
 40
9.95239556943019
 40
10.00802152870654
 40
10.03134854388247
 40
10.21356951009614
 40
10.42203479292891
 40
10.66154556731088
 40
10.91693789564329
 40
11.15832906556589
 40
11.18982674596647
 40
11.27286608520434
 40
11.39026653033376
 40
11.52484752840915
 40
11.65942852648475
 40
11.77682897161519
 40
11.85986831085712
 40
11.89136598230461
 40
11.89136598230461
 40
11.89136598230461
 40
11.89136598230461
 10
190.7027885008195
 20
14.70699600701776
 30
0.0
 10
190.7028237765287
 20
14.71587847311989
 30
0.0
 10
190.7029366710795
 20
14.74430237047351
 30
0.0
 10
190.7012984568487
 20
14.79409639169807
 30
0.0
 10
190.7069750292911
 20
14.83657564478158
 30
0.0
 10
190.6956928731705
 20
14.88730154856851
 30
0.0
 10
190.7632296979031
 20
14.87012900740113
 30
0.0
 10
190.83880292107
 20
14.88290227166
 30
0.0
 10
190.9828357056
 20
14.87629729457386
 30
0.0
 10
191.1569419185426
 20
14.8788846220647
 30
0.0
 10
191.3639599611002
 20
14.87800591955556
 30
0.0
 10
191.5894688172376
 20
14.87828207920031
 30
0.0
 10
191.8251162293406
 20
14.87818339658667
 30
0.0
 10
192.0607640531347
 20
14.87828184412771
 30
0.0
 10
192.2862717580626
 20
14.87800678190793
 30
0.0
 10
192.4932934632805
 20
14.87888186270739
 30
0.0
 10
192.6673888915288
 20
14.8763052267845
 30
0.0
 10
192.8114492071985
 20
14.88288290449217
 30
0.0
 10
192.8869691915293
 20
14.87016243405608
 30
0.0
 10
192.9545776037029
 20
14.8872640019169
 30
0.0
 10
192.9430840140676
 20
14.83674785802945
 30
0.0
 10
192.9505104581733
 20
14.79253252226505
 30
0.0
 10
192.9428838927986
 20
14.74867966503614
 30
0.0
 10
192.9546489459425
 20
14.69878374479331
 30
0.0
 10
192.8930788491983
 20
14.71393227712516
 30
0.0
 10
192.8256791738671
 20
14.70310665350678
 30
0.0
 10
192.7013004056221
 20
14.7085203162624
 30
0.0
 10
192.555442823657
 20
14.70649205390789
 30
0.0
 10
192.3893576440086
 20
14.70715777578391
 30
0.0
 10
192.2188412621724
 20
14.70689643521246
 30
0.0
 10
192.0519790855388
 20
14.70721553391098
 30
0.0
 10
191.9087346827105
 20
14.70635302590767
 30
0.0
 10
191.7773313869832
 20
14.70863300482991
 30
0.0
 10
191.7239859134655
 20
14.70407704374207
 30
0.0
 10
191.6485188456911
 20
14.70999914992881
 30
0.0
 10
191.6769075779232
 20
14.70094169343358
 30
0.0
 10
191.7033652409542
 20
14.69725912268934
 30
0.0
 10
191.6633522907701
 20
14.66654271968283
 30
0.0
 10
191.5713663691868
 20
14.67667591174629
 30
0.0
 10
191.5439396207069
 20
14.43032502247793
 30
0.0
 10
191.4478793967234
 20
14.27499558764379
 30
0.0
 10
191.1917277964473
 20
13.94525417931572
 30
0.0
 10
191.7627537732762
 20
14.08430022210455
 30
0.0
 10
192.0173656320517
 20
14.08291779973367
 30
0.0
 10
192.6279647048617
 20
13.9979056924209
 30
0.0
 10
192.3340698578083
 20
14.29685417558206
 30
0.0
 10
192.0133304286517
 20
14.44330856901787
 30
0.0
 10
192.1313543360434
 20
14.50025540818292
 30
0.0
 10
192.1724716466261
 20
14.52420099873352
 30
0.0
 10
192.215681239441
 20
14.54599758811235
 30
0.0
 10
192.317457409445
 20
14.60928721253906
 30
0.0
 10
192.4328867625248
 20
14.35147151408787
 30
0.0
 10
192.6329591642275
 20
14.21616041113684
 30
0.0
 10
192.7269077387228
 20
14.03792795138885
 30
0.0
 10
192.9558829746392
 20
13.87997821027053
 30
0.0
 10
192.8596031846708
 20
13.82915972576305
 30
0.0
 10
192.8167959763778
 20
13.79881292523059
 30
0.0
 10
192.7718243528779
 20
13.77466130281463
 30
0.0
 10
192.7121720925213
 20
13.72552146747571
 30
0.0
 10
192.6789731061325
 20
13.85997475673614
 30
0.0
 10
192.5582013350795
 20
14.01594265286585
 30
0.0
 10
192.1970976005978
 20
13.8856992805956
 30
0.0
 10
191.838506195554
 20
13.90224694409486
 30
0.0
 10
191.4570920450079
 20
13.89331229351871
 30
0.0
 10
191.170345528289
 20
13.82882671672404
 30
0.0
 10
190.8592055599713
 20
13.94230668192844
 30
0.0
 10
190.8268737818787
 20
13.83122259927771
 30
0.0
 10
190.7896178253318
 20
13.81196313850017
 30
0.0
 10
190.7865737632754
 20
13.85874784087301
 30
0.0
 10
190.7679892860607
 20
13.89806853919139
 30
0.0
 10
190.7512436616778
 20
13.95765983478237
 30
0.0
 10
190.7383730915753
 20
14.00201969871288
 30
0.0
 10
190.7042327806429
 20
14.09106331120204
 30
0.0
 10
190.9482714457753
 20
14.02181042943775
 30
0.0
 10
191.1441394486671
 20
14.00030369057751
 30
0.0
 10
191.2395426381277
 20
14.28226484478465
 30
0.0
 10
191.2945135769596
 20
14.44363045421127
 30
0.0
 10
191.5159619357157
 20
14.71391177589743
 30
0.0
 10
191.3849239381216
 20
14.70548446853739
 30
0.0
 10
191.3110026555854
 20
14.70779008496974
 30
0.0
 10
191.1977459876243
 20
14.70671378321662
 30
0.0
 10
191.0694251807484
 20
14.70707639076514
 30
0.0
 10
190.9404252030414
 20
14.7069772446609
 30
0.0
 10
190.828784094629
 20
14.70699932712576
 30
0.0
 10
190.7514663970025
 20
14.70699579189673
 30
0.0
 10
190.7132876532009
 20
14.70699595845085
 30
0.0
 10
190.7027885008195
 20
14.70699600701776
 30
0.0
 11
190.7027885008195
 21
14.70699600701776
 31
0.0
 11
190.7027885008195
 21
14.73374924051802
 31
0.0
 11
190.7027885008195
 21
14.79260635421858
 31
0.0
 11
190.7027885008195
 21
14.85146346791914
 31
0.0
 11
190.7027885008195
 21
14.87821670141939
 31
0.0
 11
190.7355094280988
 21
14.87821670141939
 31
0.0
 11
190.8271280244808
 21
14.87821670141939
 31
0.0
 11
190.9678280117818
 21
14.87821670141939
 31
0.0
 11
191.1477931118179
 21
14.87821670141939
 31
0.0
 11
191.3572070464053
 21
14.87821670141939
 31
0.0
 11
191.5862535373604
 21
14.87821670141939
 31
0.0
 11
191.8251163064992
 21
14.87821670141939
 31
0.0
 11
192.0639790756381
 21
14.87821670141939
 31
0.0
 11
192.2930255665931
 21
14.87821670141939
 31
0.0
 11
192.5024395011805
 21
14.87821670141939
 31
0.0
 11
192.6824046012167
 21
14.87821670141939
 31
0.0
 11
192.8231045885176
 21
14.87821670141939
 31
0.0
 11
192.9147231848996
 21
14.87821670141939
 31
0.0
 11
192.9474441121789
 21
14.87821670141939
 31
0.0
 11
192.9474441121789
 21
14.85146346791914
 31
0.0
 11
192.9474441121789
 21
14.79260635421858
 31
0.0
 11
192.9474441121789
 21
14.73374924051802
 31
0.0
 11
192.9474441121789
 21
14.70699600701776
 31
0.0
 11
192.9174728954758
 21
14.70699600701776
 31
0.0
 11
192.8352937529027
 21
14.70699600701776
 31
0.0
 11
192.7125084457639
 21
14.70699600701776
 31
0.0
 11
192.5607187353642
 21
14.70699600701776
 31
0.0
 11
192.3915263830077
 21
14.70699600701776
 31
0.0
 11
192.216533149999
 21
14.70699600701776
 31
0.0
 11
192.0473407976426
 21
14.70699600701776
 31
0.0
 11
191.8955510872428
 21
14.70699600701776
 31
0.0
 11
191.7727657801041
 21
14.70699600701776
 31
0.0
 11
191.6905866375309
 21
14.70699600701776
 31
0.0
 11
191.6606154208278
 21
14.70699600701776
 31
0.0
 11
191.6766359412525
 21
14.70165583340798
 31
0.0
 11
191.6926564616771
 21
14.6963156597982
 31
0.0
 11
191.670615568142
 21
14.67558114591447
 31
0.0
 11
191.6284861855363
 21
14.66685871536114
 31
0.0
 11
191.5365235541377
 21
14.46909247312661
 31
0.0
 11
191.4279078521763
 21
14.25467511978513
 31
0.0
 11
191.3127500824807
 21
14.04622559051624
 31
0.0
 11
191.685736667502
 21
14.05582441253033
 31
0.0
 11
192.083070003615
 21
14.06781232404999
 31
0.0
 11
192.4899342191145
 21
14.08102711828536
 31
0.0
 11
192.2983119496978
 21
14.28966761302485
 31
0.0
 11
192.0966752013698
 21
14.48229420151837
 31
0.0
 11
192.1204947794749
 21
14.49525327269569
 31
0.0
 11
192.1728978513061
 21
14.52376322928581
 31
0.0
 11
192.2253009231374
 21
14.55227318587592
 31
0.0
 11
192.2491205012425
 21
14.56523225705324
 31
0.0
 11
192.4387101558627
 21
14.39079508370272
 31
0.0
 11
192.6200310940435
 21
14.20305846374095
 31
0.0
 11
192.7777729231146
 21
14.01782380992441
 31
0.0
 11
192.8966252504058
 21
13.85089253500954
 31
0.0
 11
192.8715408217923
 21
13.83501202286074
 31
0.0
 11
192.8163550788425
 21
13.80007489613337
 31
0.0
 11
192.7611693358928
 21
13.76513776940599
 31
0.0
 11
192.7360849072793
 21
13.74925725725719
 31
0.0
 11
192.6775518151612
 21
13.83887824681814
 31
0.0
 11
192.6050015078457
 21
13.93650288221036
 31
0.0
 11
192.2125412924094
 21
13.91636286943763
 31
0.0
 11
191.824947406956
 21
13.89803302999777
 31
0.0
 11
191.4567378976212
 21
13.88202178722399
 31
0.0
 11
191.1224308105411
 21
13.86883756444951
 31
0.0
 11
190.8365441918517
 21
13.85898878500754
 31
0.0
 11
190.821186232174
 21
13.832205234667
 31
0.0
 11
190.7937434290546
 21
13.82143559057249
 31
0.0
 11
190.7867927192319
 21
13.84370299445581
 31
0.0
 11
190.7702179496548
 21
13.89680218833143
 31
0.0
 11
190.7504351601596
 21
13.96017864553781
 31
0.0
 11
190.7338603905825
 21
14.01327783941342
 31
0.0
 11
190.7269096807598
 21
14.03554524329674
 31
0.0
 11
190.9091199859153
 21
14.03751638912957
 31
0.0
 11
191.1174975848587
 21
14.04356211829476
 31
0.0
 11
191.2303203127216
 21
14.25483550301558
 31
0.0
 11
191.3407936722035
 21
14.48509813155884
 31
0.0
 11
191.4358254265627
 21
14.70699600701776
 31
0.0
 11
191.4043277461597
 21
14.70699600701776
 31
0.0
 11
191.3212884069153
 21
14.70699600701776
 31
0.0
 11
191.2038879617768
 21
14.70699600701776
 31
0.0
 11
191.0693069636911
 21
14.70699600701776
 31
0.0
 11
190.9347259656055
 21
14.70699600701776
 31
0.0
 11
190.8173255204669
 21
14.70699600701776
 31
0.0
 11
190.7342861812226
 21
14.70699600701776
 31
0.0
 11
190.7027885008195
 21
14.70699600701776
 31
0.0
  0
SPLINE
  5
AA
102
{ACAD_REACTORS
330
C7
102
}
330
48
100
AcDbEntity
  8
_U_30EC_U_30A4_U_30E4_U_30FC_1
  6
Continuous
 62
     2
100
AcDbSpline
210
0.0
220
0.0
230
1.0
 70
    11
 71
     3
 72
    35
 73
    31
 74
    29
 42
0.000000001
 43
0.0000000001
 44
0.00000001
 40
0.0
 40
0.0
 40
0.0
 40
0.0
 40
0.033523103662026
 40
0.0713218571712207
 40
0.4278866681487438
 40
0.8116865841964663
 40
1.198190238000147
 40
1.561379546812776
 40
1.659983174622138
 40
1.759315573807271
 40
2.132719617231154
 40
2.525233363588905
 40
2.910815397779773
 40
3.26524436430336
 40
3.592606723582099
 40
3.964386154604048
 40
4.359942131737873
 40
4.758154118639387
 40
4.843846538700022
 40
4.936650065543324
 40
5.256616602537404
 40
5.581707404416141
 40
5.899719158308239
 40
6.198363494280844
 40
6.46630104661588
 40
6.493895311537145
 40
6.559697020196966
 40
6.638234543442513
 40
6.704036252154266
 40
6.731630508423043
 40
6.731630508423043
 40
6.731630508423043
 40
6.731630508423043
 10
191.9736010568668
 20
16.23463843719138
 30
0.0
 10
191.9676006097788
 20
16.22480690542327
 30
0.0
 10
191.9548344099156
 20
16.20388988579799
 30
0.0
 10
191.7949362006554
 20
16.17127126532705
 30
0.0
 10
192.2322025842336
 20
15.882066803367
 30
0.0
 10
192.4345394828262
 20
15.68041138358443
 30
0.0
 10
192.6819564267973
 20
15.4374938760328
 30
0.0
 10
193.1831513624606
 20
15.3604766275778
 30
0.0
 10
193.012556219897
 20
15.2187693917466
 30
0.0
 10
192.9383299463201
 20
15.01710366209113
 30
0.0
 10
192.6131432248188
 20
15.36956287174731
 30
0.0
 10
192.3277741670664
 20
15.53175212559566
 30
0.0
 10
192.0337604077658
 20
15.73687130053053
 30
0.0
 10
191.8084452691134
 20
16.21827488595459
 30
0.0
 10
191.5993085055522
 20
15.75343046609227
 30
0.0
 10
191.3207873674834
 20
15.54350952252916
 30
0.0
 10
191.0371383177209
 20
15.37424456359987
 30
0.0
 10
190.7078639527832
 20
15.00142360907941
 30
0.0
 10
190.6277012318224
 20
15.19708014459003
 30
0.0
 10
190.4759724909745
 20
15.32491104190603
 30
0.0
 10
190.9083395826794
 20
15.40454031765938
 30
0.0
 10
191.0962565329766
 20
15.60026634915477
 30
0.0
 10
191.3468477420502
 20
15.81632996916759
 30
0.0
 10
191.5714350470162
 20
15.98190992300063
 30
0.0
 10
191.6259775409711
 20
16.2613396463683
 30
0.0
 10
191.7494661029011
 20
16.24737950408084
 30
0.0
 10
191.806027334452
 20
16.24521268867652
 30
0.0
 10
191.8761870984943
 20
16.24046859881364
 30
0.0
 10
191.9333414022105
 20
16.23709429350545
 30
0.0
 10
191.9644190320837
 20
16.23519854711123
 30
0.0
 10
191.9736010568668
 20
16.23463843719138
 30
0.0
 11
191.9736010568668
 21
16.23463843719138
 31
0.0
 11
191.9525319069884
 21
16.20856374969789
 31
0.0
 11
191.9174464559424
 21
16.19450114553473
 31
0.0
 11
192.1512374769094
 21
15.92527961131385
 31
0.0
 11
192.4414585957566
 21
15.67413407969263
 31
0.0
 11
192.7612797483684
 21
15.45710987618788
 31
0.0
 11
193.0838708706289
 21
15.29025232631641
 31
0.0
 11
193.0213299868076
 21
15.21402035584933
 31
0.0
 11
192.9688035818975
 21
15.12971197913429
 31
0.0
 11
192.6436279095814
 21
15.31326404831584
 31
0.0
 11
192.3237227768436
 21
15.54070139743433
 31
0.0
 11
192.0354200158608
 21
15.79673855123314
 31
0.0
 11
191.8050514588095
 21
16.0660900344557
 31
0.0
 11
191.5995531719516
 21
15.8112634872104
 31
0.0
 11
191.3288301341535
 21
15.5564518227776
 31
0.0
 11
191.0119538423246
 21
15.31969466354859
 31
0.0
 11
190.6679957933741
 21
15.11903163191469
 31
0.0
 11
190.6218855341338
 21
15.19126067703557
 31
0.0
 11
190.5636970460348
 21
15.2635558679897
 31
0.0
 11
190.8433040489015
 21
15.41911456961748
 31
0.0
 11
191.1093004621154
 21
15.60601009790409
 31
0.0
 11
191.3499997459746
 21
15.81384496285213
 31
0.0
 11
191.5537153607774
 21
16.0322216744642
 31
0.0
 11
191.7087607668218
 21
16.25074274274292
 31
0.0
 11
191.7363041569864
 21
16.24906789496556
 31
0.0
 11
191.8019845489177
 21
16.24507402718878
 31
0.0
 11
191.880377274771
 21
16.24030715274552
 31
0.0
 11
191.9460576667021
 21
16.23631328496874
 31
0.0
 11
191.9736010568668
 21
16.23463843719138
 31
0.0
  0
SPLINE
  5
AB
102
{ACAD_REACTORS
330
C8
102
}
330
48
100
AcDbEntity
  8
_U_30EC_U_30A4_U_30E4_U_30FC_1
  6
Continuous
 62
     2
100
AcDbSpline
210
0.0
220
0.0
230
1.0
 70
    11
 71
     3
 72
    15
 73
    11
 74
     9
 42
0.000000001
 43
0.0000000001
 44
0.00000001
 40
0.0
 40
0.0
 40
0.0
 40
0.0
 40
0.2785535985096532
 40
0.5215624748198807
 40
0.6076917376040674
 40
0.6938210001741859
 40
0.9405019146455672
 40
1.221691403489203
 40
1.300471877081139
 40
1.379252341684948
 40
1.379252341684948
 40
1.379252341684948
 40
1.379252341684948
 10
189.5681493630999
 20
16.22930267330385
 30
0.0
 10
189.6296017794178
 20
16.1769164659272
 30
0.0
 10
189.7446649974112
 20
16.07882876798227
 30
0.0
 10
190.0397348497245
 20
15.92889785897226
 30
0.0
 10
189.9025147631856
 20
15.84343227515017
 30
0.0
 10
189.8041227843778
 20
15.71085785201561
 30
0.0
 10
189.7130033590648
 20
16.01616985781421
 30
0.0
 10
189.3636839480655
 20
16.07967869465381
 30
0.0
 10
189.5119258376569
 20
16.17896509880882
 30
0.0
 10
189.5494081874237
 20
16.21252348402387
 30
0.0
 10
189.5681493630999
 20
16.22930267330385
 30
0.0
 11
189.5681493630999
 21
16.22930267330385
 31
0.0
 11
189.7919222440596
 21
16.06341774278977
 31
0.0
 11
189.9695046306383
 21
15.89753281227569
 31
0.0
 11
189.9066308127979
 21
15.83866743034597
 31
0.0
 11
189.8437569949574
 21
15.77980204841624
 31
0.0
 11
189.6688535117724
 21
15.95375677059495
 31
0.0
 11
189.4478256856139
 21
16.12757920110707
 31
0.0
 11
189.5079875243569
 21
16.17844093720546
 31
0.0
 11
189.5681493630999
 21
16.22930267330385
 31
0.0
  0
SPLINE
  5
AC
102
{ACAD_REACTORS
330
C9
102
}
330
48
100
AcDbEntity
  8
_U_30EC_U_30A4_U_30E4_U_30FC_1
  6
Continuous
 62
     2
100
AcDbSpline
210
0.0
220
0.0
230
1.0
 70
    11
 71
     3
 72
    75
 73
    71
 74
    69
 42
0.000000001
 43
0.0000000001
 44
0.00000001
 40
0.0
 40
0.0
 40
0.0
 40
0.0
 40
0.0342546099129709
 40
0.1245622414432364
 40
0.2522385480897536
 40
0.3985991922940662
 40
0.5449598364980821
 40
0.6726361431438834
 40
0.7629437746736942
 40
0.7971983935297973
 40
1.101723623449659
 40
1.408591244036663
 40
1.433332471690369
 40
1.487763172450166
 40
1.542193873081999
 40
1.566935100592548
 40
1.923523931821803
 40
2.271755704953601
 40
2.590579755100815
 40
2.858943305581072
 40
2.889120339309095
 40
2.918305855191046
 40
2.941366645531168
 40
2.996357760973059
 40
3.061992318140606
 40
3.116983433626804
 40
3.140044223997483
 40
3.411273122936377
 40
3.732441619740986
 40
3.761068217532684
 40
3.837787499630246
 40
3.948858699125886
 40
4.080541049104261
 40
4.219093782625644
 40
4.350776132722195
 40
4.46184733240553
 40
4.538566614678262
 40
4.567193212544509
 40
4.594907573998767
 40
4.666381453557306
 40
4.764111044010888
 40
4.870592538125691
 40
4.968322128642114
 40
5.03979600828677
 40
5.067510369784229
 40
5.094263603185444
 40
5.153120716668078
 40
5.211977830150528
 40
5.238731063551533
 40
5.272290535138771
 40
5.363380529444632
 40
5.49761841578131
 40
5.660621563453552
 40
5.838007341749253
 40
6.015393119910605
 40
6.17839626703823
 40
6.312634151842182
 40
6.403724143059171
 40
6.437283612672267
 40
6.464036846260883
 40
6.5228939600045
 40
6.581751071483766
 40
6.608504301590712
 40
6.63725394128086
 40
6.711397748902711
 40
6.812778057283324
 40
6.9232371992491
 40
7.024617507623744
 40
7.098761315207397
 40
7.127510946007347
 40
7.127510946007347
 40
7.127510946007347
 40
7.127510946007347
 10
188.4418622390564
 20
14.95849128473269
 30
0.0
 10
188.4418622819707
 20
14.94707313408725
 30
0.0
 10
188.4418624481128
 20
14.90555257842633
 30
0.0
 10
188.4418593081786
 20
14.82146922003776
 30
0.0
 10
188.4418788279801
 20
14.70004497322333
 30
0.0
 10
188.4417912187737
 20
14.55980494047452
 30
0.0
 10
188.442111623523
 20
14.42006556794581
 30
0.0
 10
188.441160590974
 20
14.29745038894933
 30
0.0
 10
188.4431978595968
 20
14.21587074438048
 30
0.0
 10
188.4349433178745
 20
14.06271267077702
 30
0.0
 10
188.7430797940901
 20
14.22560236054724
 30
0.0
 10
189.0350645173736
 20
14.39482938688009
 30
0.0
 10
189.0408354448707
 20
14.25973235781914
 30
0.0
 10
189.045547171989
 20
14.21617221160447
 30
0.0
 10
189.0482535411918
 20
14.17211249350548
 30
0.0
 10
189.0672545672956
 20
14.02272590363136
 30
0.0
 10
188.6583942247302
 20
14.08681172241265
 30
0.0
 10
188.3793710348832
 20
13.97296341411021
 30
0.0
 10
188.1018081587165
 20
13.87364095811147
 30
0.0
 10
187.8099837184402
 20
13.91630687596359
 30
0.0
 10
187.7869144678657
 20
13.81321679744546
 30
0.0
 10
187.7537474383333
 20
13.78691091244473
 30
0.0
 10
187.7480653962738
 20
13.83455309036308
 30
0.0
 10
187.7284214559044
 20
13.87180336115073
 30
0.0
 10
187.7095089485622
 20
13.93007387847568
 30
0.0
 10
187.6942849867708
 20
13.97385201007809
 30
0.0
 10
187.6477246372934
 20
14.08759421046314
 30
0.0
 10
187.9890897312451
 20
14.05576301120052
 30
0.0
 10
188.2679649367386
 20
14.02161435106485
 30
0.0
 10
188.2617753034906
 20
14.16913976479657
 30
0.0
 10
188.2630935452773
 20
14.24013150908838
 30
0.0
 10
188.2624831689947
 20
14.34719767958666
 30
0.0
 10
188.2625871570724
 20
14.47398529786003
 30
0.0
 10
188.2629987964055
 20
14.60849243496055
 30
0.0
 10
188.2613907841967
 20
14.73395549951189
 30
0.0
 10
188.2659902567924
 20
14.84505246719122
 30
0.0
 10
188.2564186502209
 20
14.90761886800693
 30
0.0
 10
188.270400178369
 20
14.96595388295006
 30
0.0
 10
188.2147384386704
 20
14.95289710582242
 30
0.0
 10
188.1575655197821
 20
14.96136307749504
 30
0.0
 10
188.0616048925646
 20
14.95729976080641
 30
0.0
 10
187.9633767522821
 20
14.9597088985248
 30
0.0
 10
187.8672582457559
 20
14.95551600613392
 30
0.0
 10
187.8104648525811
 20
14.96429346441167
 30
0.0
 10
187.7550356873384
 20
14.95094936850126
 30
0.0
 10
187.7670679427916
 20
15.00036910959261
 30
0.0
 10
187.7592003173938
 20
15.04393988030401
 30
0.0
 10
187.7666295563828
 20
15.0883046911853
 30
0.0
 10
187.7551930564144
 20
15.13902297763996
 30
0.0
 10
187.8232102370133
 20
15.12162460757748
 30
0.0
 10
187.8968496879747
 20
15.13417450237194
 30
0.0
 10
188.0325064058211
 20
15.12799677011102
 30
0.0
 10
188.1884909024525
 20
15.13029203093089
 30
0.0
 10
188.3615926358143
 20
15.12940968262535
 30
0.0
 10
188.5346942964181
 20
15.13029207142413
 30
0.0
 10
188.6906789811216
 20
15.12799662955555
 30
0.0
 10
188.8263351889797
 20
15.13417486262436
 30
0.0
 10
188.8999756705652
 20
15.1216239421834
 30
0.0
 10
188.9679914174724
 20
15.13902373012148
 30
0.0
 10
188.9565590885922
 20
15.0883013041456
 30
0.0
 10
188.9639539458298
 20
15.04397060811113
 30
0.0
 10
188.956203991227
 20
15.00028307550201
 30
0.0
 10
188.9681203741877
 20
14.95063590098482
 30
0.0
 10
188.9108170223616
 20
14.9646141133843
 30
0.0
 10
188.8520145789773
 20
14.95539755673259
 30
0.0
 10
188.7525293633199
 20
14.95952268164934
 30
0.0
 10
188.649428009835
 20
14.95822760025893
 30
0.0
 10
188.5537846354573
 20
14.95854077077645
 30
0.0
 10
188.4857467971617
 20
14.95848776697149
 30
0.0
 10
188.4514462213443
 20
14.95849051871661
 30
0.0
 10
188.4418622390564
 20
14.95849128473269
 30
0.0
 11
188.4418622390564
 21
14.95849128473269
 31
0.0
 11
188.4418622390564
 21
14.92423666587189
 31
0.0
 11
188.4418622390564
 21
14.8339290343298
 31
0.0
 11
188.4418622390564
 21
14.70625272766684
 31
0.0
 11
188.4418622390564
 21
14.55989208344345
 31
0.0
 11
188.4418622390564
 21
14.41353143922005
 31
0.0
 11
188.4418622390564
 21
14.28585513255709
 31
0.0
 11
188.4418622390564
 21
14.19554750101499
 31
0.0
 11
188.4418622390564
 21
14.1612928821542
 31
0.0
 11
188.7391932644567
 21
14.22709475713773
 31
0.0
 11
189.0384623627245
 21
14.29496038212076
 31
0.0
 11
189.0405487124976
 21
14.27030727882831
 31
0.0
 11
189.0451386819986
 21
14.21607045158493
 31
0.0
 11
189.0497286514995
 21
14.16183362434155
 31
0.0
 11
189.0518150012727
 21
14.1371805210491
 31
0.0
 11
188.705639688924
 21
14.05163370140901
 31
0.0
 11
188.3669653138838
 21
13.97060877629905
 31
0.0
 11
188.0563731516688
 21
13.89862764024933
 31
0.0
 11
187.7944444777955
 21
13.84021218778996
 31
0.0
 11
187.7817515029292
 21
13.81283442738018
 31
0.0
 11
187.7569794787513
 21
13.79740260446739
 31
0.0
 11
187.7491867589501
 21
13.8191068339064
 31
0.0
 11
187.7306041194242
 21
13.8708630733379
 31
0.0
 11
187.70842483999
 21
13.93263664943355
 31
0.0
 11
187.689842200464
 21
13.98439288886505
 31
0.0
 11
187.6820494806628
 21
14.00609711830406
 31
0.0
 11
187.9482776335931
 21
14.0579400175967
 31
0.0
 11
188.2626334936288
 21
14.12373968771915
 31
0.0
 11
188.2626334936288
 21
14.15236628569629
 31
0.0
 11
188.2626334936288
 21
14.22908556827504
 31
0.0
 11
188.2626334936288
 21
14.34015676842636
 31
0.0
 11
188.2626334936288
 21
14.47183911912123
 31
0.0
 11
188.2626334936288
 21
14.61039185333061
 31
0.0
 11
188.2626334936288
 21
14.74207420402547
 31
0.0
 11
188.2626334936288
 21
14.8531454041768
 31
0.0
 11
188.2626334936288
 21
14.92986468675555
 31
0.0
 11
188.2626334936288
 21
14.95849128473269
 31
0.0
 11
188.2349191321107
 21
14.95849128473269
 31
0.0
 11
188.1634452524063
 21
14.95849128473269
 31
0.0
 11
188.06571566179
 21
14.95849128473269
 31
0.0
 11
187.9592341675364
 21
14.95849128473269
 31
0.0
 11
187.86150457692
 21
14.95849128473269
 31
0.0
 11
187.7900306972156
 21
14.95849128473269
 31
0.0
 11
187.7623163356975
 21
14.95849128473269
 31
0.0
 11
187.7623163356975
 21
14.98524451823294
 31
0.0
 11
187.7623163356975
 21
15.04410163193349
 31
0.0
 11
187.7623163356975
 21
15.10295874563404
 31
0.0
 11
187.7623163356975
 21
15.12971197913429
 31
0.0
 11
187.7958758072874
 21
15.12971197913429
 31
0.0
 11
187.8869658016031
 21
15.12971197913429
 31
0.0
 11
188.0212036879629
 21
15.12971197913429
 31
0.0
 11
188.1842068356856
 21
15.12971197913429
 31
0.0
 11
188.3615926140897
 21
15.12971197913429
 31
0.0
 11
188.5389783924938
 21
15.12971197913429
 31
0.0
 11
188.7019815402164
 21
15.12971197913429
 31
0.0
 11
188.8362194265763
 21
15.12971197913429
 31
0.0
 11
188.9273094208918
 21
15.12971197913429
 31
0.0
 11
188.9608688924818
 21
15.12971197913429
 31
0.0
 11
188.9608688924818
 21
15.10295874563404
 31
0.0
 11
188.9608688924818
 21
15.04410163193349
 31
0.0
 11
188.9608688924818
 21
14.98524451823294
 31
0.0
 11
188.9608688924818
 21
14.95849128473269
 31
0.0
 11
188.9321192527877
 21
14.95849128473269
 31
0.0
 11
188.8579754451555
 21
14.95849128473269
 31
0.0
 11
188.7565951367604
 21
14.95849128473269
 31
0.0
 11
188.6461359947778
 21
14.95849128473269
 31
0.0
 11
188.5447556863827
 21
14.95849128473269
 31
0.0
 11
188.4706118787505
 21
14.95849128473269
 31
0.0
 11
188.4418622390564
 21
14.95849128473269
 31
0.0
  0
SPLINE
  5
AD
102
{ACAD_REACTORS
330
CA
102
}
330
48
100
AcDbEntity
  8
_U_30EC_U_30A4_U_30E4_U_30FC_1
  6
Continuous
 62
     2
100
AcDbSpline
210
0.0
220
0.0
230
1.0
 70
    11
 71
     3
 72
    91
 73
    87
 74
    85
 42
0.000000001
 43
0.0000000001
 44
0.00000001
 40
0.0
 40
0.0
 40
0.0
 40
0.0
 40
0.0345987051695718
 40
0.1258134969461369
 40
0.2547723404888987
 40
0.4026032099154125
 40
0.5504340793416704
 40
0.679392922883608
 40
0.7706077146571035
 40
0.8052064287780925
 40
1.124852390615278
 40
1.42740223630887
 40
1.706356627453515
 40
1.955541417875198
 40
2.169485938566333
 40
2.344350786664773
 40
2.480568411561923
 40
2.590440557428918
 40
2.649189927151121
 40
2.749320643306334
 40
2.912632739880032
 40
3.147745656000225
 40
3.24482749638514
 40
3.338490056946705
 40
3.583815413207129
 40
3.761423943238481
 40
3.886956104362629
 40
3.985855451886809
 40
4.091766255337665
 40
4.250186473811858
 40
4.422734315084504
 40
4.628285684838599
 40
4.872093227758427
 40
5.152549652145538
 40
5.464967135837518
 40
5.803201477852429
 40
6.1603629888139
 40
6.193449448275955
 40
6.28417038550161
 40
6.419718138764479
 40
6.58728504638573
 40
6.774063446723644
 40
6.967245678113627
 40
7.154024078817613
 40
7.321590987025998
 40
7.457138740890357
 40
7.547859678556093
 40
7.580946138182653
 40
7.608533084714707
 40
7.669224367077685
 40
7.729915649429906
 40
7.757502595949959
 40
7.790278062553413
 40
7.880146277430911
 40
8.014419963180373
 40
8.180411842397874
 40
8.365434637679343
 40
8.556801071622644
 40
8.741823866830757
 40
8.907815745916267
 40
9.04208943150742
 40
9.131957646249546
 40
9.164733112797123
 40
9.41542506314005
 40
9.66798618095851
 40
9.694169807462677
 40
9.756607686047635
 40
9.831130315322442
 40
9.893568193899906
 40
9.919751820398723
 40
9.950967964690557
 40
9.99642163121067
 40
10.22087981037455
 40
10.44341866197543
 40
10.47847970788856
 40
10.57091337438756
 40
10.70159545461231
 40
10.85140174170362
 40
11.00120802880479
 40
11.13189010907384
 40
11.22432377583012
 40
11.25938480938958
 40
11.28697175596147
 40
11.34766303835921
 40
11.40835432042071
 40
11.43594125892106
 40
11.43594125892106
 40
11.43594125892106
 40
11.43594125892106
 10
190.0818114333289
 20
15.55242795125081
 30
0.0
 10
190.0702785844941
 20
15.55242790287919
 30
0.0
 10
190.0283409444998
 20
15.55242773704168
 30
0.0
 10
189.9434129719026
 20
15.55243125800913
 30
0.0
 10
189.8207688553128
 20
15.55240926435882
 30
0.0
 10
189.6791206916993
 20
15.55250801177058
 30
0.0
 10
189.537975369849
 20
15.55214686232425
 30
0.0
 10
189.4141351317905
 20
15.55321883609093
 30
0.0
 10
189.3317217825381
 20
15.55092249091272
 30
0.0
 10
189.1727791229693
 20
15.56048569373424
 30
0.0
 10
189.3503402353376
 20
15.19785394311375
 30
0.0
 10
189.3379739205452
 20
14.95243127723117
 30
0.0
 10
189.4064519473864
 20
14.66862501324839
 30
0.0
 10
189.469302432097
 20
14.4325099993904
 30
0.0
 10
189.5452253431728
 20
14.23326740396134
 30
0.0
 10
189.6303189577015
 20
14.07745347451377
 30
0.0
 10
189.7244607592935
 20
13.97657857781396
 30
0.0
 10
189.8282648207727
 20
13.9246585263897
 30
0.0
 10
189.9125872030773
 20
13.97606484379618
 30
0.0
 10
189.9351322179452
 20
14.09144544037521
 30
0.0
 10
189.9745730975369
 20
14.21885149702385
 30
0.0
 10
189.9202919734942
 20
14.53622328086759
 30
0.0
 10
190.0451218072472
 20
14.38982180140911
 30
0.0
 10
190.2019291513602
 20
14.35795300331174
 30
0.0
 10
190.0947720007056
 20
14.12421357767632
 30
0.0
 10
190.0808711209867
 20
13.95972776583662
 30
0.0
 10
190.0234709467225
 20
13.83130869122486
 30
0.0
 10
189.9335020145008
 20
13.76018802352833
 30
0.0
 10
189.8095274657877
 20
13.74432324142258
 30
0.0
 10
189.663427319686
 20
13.77993797554177
 30
0.0
 10
189.5243894320284
 20
13.90000570500282
 30
0.0
 10
189.4102003962144
 20
14.07435682550325
 30
0.0
 10
189.3146141301486
 20
14.29946603111245
 30
0.0
 10
189.2318652572626
 20
14.56388246006448
 30
0.0
 10
189.1807179256412
 20
14.88187933098548
 30
0.0
 10
189.0770189207337
 20
15.15543728488916
 30
0.0
 10
189.2042841208523
 20
15.56005818612874
 30
0.0
 10
189.0357890623018
 20
15.55112367849681
 30
0.0
 10
188.9511995787077
 20
15.55315961418367
 30
0.0
 10
188.8189876387627
 20
15.5521393738841
 30
0.0
 10
188.6560505094104
 20
15.55253230318434
 30
0.0
 10
188.4733759170532
 20
15.55235696313372
 30
0.0
 10
188.2847057373383
 20
15.55260105307472
 30
0.0
 10
188.1014469020189
 20
15.5518565790624
 30
0.0
 10
187.9404746832718
 20
15.55416360522429
 30
0.0
 10
187.8029808335276
 20
15.54799804883666
 30
0.0
 10
187.728959037231
 20
15.56032838458215
 30
0.0
 10
187.6613215186857
 20
15.5432932372356
 30
0.0
 10
187.6732373719269
 20
15.59524438447531
 30
0.0
 10
187.6655677285694
 20
15.64071424966533
 30
0.0
 10
187.6732592225115
 20
15.68614453703709
 30
0.0
 10
187.6613141797762
 20
15.73802395984574
 30
0.0
 10
187.7283588305867
 20
15.72119143490268
 30
0.0
 10
187.8017375665676
 20
15.73335409092674
 30
0.0
 10
187.9379128305272
 20
15.72727231074963
 30
0.0
 10
188.0973811801512
 20
15.72954834315062
 30
0.0
 10
188.2789173085836
 20
15.72881233998966
 30
0.0
 10
188.4658034862179
 20
15.72905954196138
 30
0.0
 10
188.6468012316836
 20
15.72886400799257
 30
0.0
 10
188.8080802578878
 20
15.72932234714844
 30
0.0
 10
188.9393882124887
 20
15.72812673751209
 30
0.0
 10
189.0225051322596
 20
15.73051347319747
 30
0.0
 10
189.1556236547814
 20
15.72230605725467
 30
0.0
 10
189.0645893502657
 20
15.97752868952658
 30
0.0
 10
188.978963307442
 20
16.24164358328252
 30
0.0
 10
189.0990589003455
 20
16.22904442969169
 30
0.0
 10
189.1514264948544
 20
16.2269423576308
 30
0.0
 10
189.2214497569715
 20
16.22535399889661
 30
0.0
 10
189.2671922337817
 20
16.21602567538117
 30
0.0
 10
189.3220812646934
 20
16.22545966915431
 30
0.0
 10
189.296357478568
 20
16.17733028655176
 30
0.0
 10
189.1825397571454
 20
16.18266829744171
 30
0.0
 10
189.3159346621134
 20
15.9544917457678
 30
0.0
 10
189.1943658735472
 20
15.72156856595927
 30
0.0
 10
189.3223188769412
 20
15.73087258884442
 30
0.0
 10
189.4049048406461
 20
15.72801001754685
 30
0.0
 10
189.5307214850824
 20
15.72923437412306
 30
0.0
 10
189.6741469838057
 20
15.72932431888968
 30
0.0
 10
189.8157420951728
 20
15.72746163183857
 30
0.0
 10
189.9459127249967
 20
15.73333075937167
 30
0.0
 10
190.0193452286191
 20
15.72070340823207
 30
0.0
 10
190.0891112922096
 20
15.73877563110416
 30
0.0
 10
190.0775772605396
 20
15.6861285054633
 30
0.0
 10
190.0833184346681
 20
15.64221317686551
 30
0.0
 10
190.0816615770912
 20
15.59089982676554
 30
0.0
 10
190.0817757561669
 20
15.56158792021638
 30
0.0
 10
190.0818114333289
 20
15.55242795125081
 30
0.0
 11
190.0818114333289
 21
15.55242795125081
 31
0.0
 11
190.0472127192051
 21
15.55242795125081
 31
0.0
 11
189.9559979274241
 21
15.55242795125081
 31
0.0
 11
189.8270390838717
 21
15.55242795125081
 31
0.0
 11
189.6792082144335
 21
15.55242795125081
 31
0.0
 11
189.5313773449954
 21
15.55242795125081
 31
0.0
 11
189.402418501443
 21
15.55242795125081
 31
0.0
 11
189.311203709662
 21
15.55242795125081
 31
0.0
 11
189.2766049955382
 21
15.55242795125081
 31
0.0
 11
189.3083140497693
 21
15.23435864930125
 31
0.0
 11
189.3527866656865
 21
14.93509522788084
 31
0.0
 11
189.4092389118319
 21
14.6619126951258
 31
0.0
 11
189.4768868567478
 21
14.42208605917231
 31
0.0
 11
189.5549465689761
 21
14.22289032815658
 31
0.0
 11
189.6426341170591
 21
14.07160051021481
 31
0.0
 11
189.7391655695388
 21
13.97549161348321
 31
0.0
 11
189.8437569949574
 21
13.94183864609796
 31
0.0
 11
189.8943077302785
 21
13.97177376978839
 31
0.0
 11
189.9310588991551
 21
14.06491619815051
 31
0.0
 11
189.9562640977527
 21
14.22627151712059
 31
0.0
 11
189.9721769222367
 21
14.46084531263486
 31
0.0
 11
190.0494082682582
 21
14.40202182306622
 31
0.0
 11
190.1327184184384
 21
14.35921885432694
 31
0.0
 11
190.1066365811216
 21
14.11528388661014
 31
0.0
 11
190.0673317805105
 21
13.94207902887566
 31
0.0
 11
190.0105702596765
 21
13.83011272445922
 31
0.0
 11
189.932118261691
 21
13.7698934166965
 31
0.0
 11
189.8277420296256
 21
13.75192954892322
 31
0.0
 11
189.6738595065097
 21
13.78957440012366
 31
0.0
 11
189.5388902376747
 21
13.89707348877408
 31
0.0
 11
189.4221739916163
 21
14.06627361744814
 31
0.0
 11
189.32305053683
 21
14.28902158871948
 31
0.0
 11
189.2408596418113
 21
14.55716420516177
 31
0.0
 11
189.1749410750559
 21
14.86254826934865
 31
0.0
 11
189.1246346050593
 21
15.19702058385378
 31
0.0
 11
189.0892800003171
 21
15.55242795125081
 31
0.0
 11
189.0561935405844
 21
15.55242795125081
 31
0.0
 11
188.9654726026075
 21
15.55242795125081
 31
0.0
 11
188.8299248482185
 21
15.55242795125081
 31
0.0
 11
188.6623579392495
 21
15.55242795125081
 31
0.0
 11
188.4755795375324
 21
15.55242795125081
 31
0.0
 11
188.2823973048992
 21
15.55242795125081
 31
0.0
 11
188.0956189031822
 21
15.55242795125081
 31
0.0
 11
187.9280519942131
 21
15.55242795125081
 31
0.0
 11
187.7925042398241
 21
15.55242795125081
 31
0.0
 11
187.7017833018473
 21
15.55242795125081
 31
0.0
 11
187.6686968421145
 21
15.55242795125081
 31
0.0
 11
187.6686968421145
 21
15.5800148978585
 31
0.0
 11
187.6686968421145
 21
15.64070618039541
 31
0.0
 11
187.6686968421145
 21
15.70139746293233
 31
0.0
 11
187.6686968421145
 21
15.72898440954002
 31
0.0
 11
187.7014723087631
 21
15.72898440954002
 31
0.0
 11
187.7913405237673
 21
15.72898440954002
 31
0.0
 11
187.9256142097148
 21
15.72898440954002
 31
0.0
 11
188.0916060891932
 21
15.72898440954002
 31
0.0
 11
188.2766288847901
 21
15.72898440954002
 31
0.0
 11
188.4679953190932
 21
15.72898440954002
 31
0.0
 11
188.6530181146902
 21
15.72898440954002
 31
0.0
 11
188.8190099941685
 21
15.72898440954002
 31
0.0
 11
188.953283680116
 21
15.72898440954002
 31
0.0
 11
189.0431518951202
 21
15.72898440954002
 31
0.0
 11
189.0759273617688
 21
15.72898440954002
 31
0.0
 11
189.0659183950103
 21
15.97947647544963
 31
0.0
 11
189.0599112510663
 21
16.23196614552535
 31
0.0
 11
189.0860575870659
 21
16.23056921608126
 31
0.0
 11
189.1484065421419
 21
16.22723807663765
 31
0.0
 11
189.2228230369099
 21
16.22326220052754
 31
0.0
 11
189.2851719919859
 21
16.21993106108393
 31
0.0
 11
189.3113183279855
 21
16.21853413163983
 31
0.0
 11
189.298293111304
 21
16.19016528616084
 31
0.0
 11
189.2551649266405
 21
16.17581274276168
 31
0.0
 11
189.2574991961821
 21
15.95136670115112
 31
0.0
 11
189.2658452735903
 21
15.72898440954002
 31
0.0
 11
189.3009063195165
 21
15.72898440954002
 31
0.0
 11
189.3933399860495
 21
15.72898440954002
 31
0.0
 11
189.5240220663201
 21
15.72898440954002
 31
0.0
 11
189.6738283534596
 21
15.72898440954002
 31
0.0
 11
189.8236346405991
 21
15.72898440954002
 31
0.0
 11
189.9543167208697
 21
15.72898440954002
 31
0.0
 11
190.0467503874027
 21
15.72898440954002
 31
0.0
 11
190.0818114333289
 21
15.72898440954002
 31
0.0
 11
190.0818114333289
 21
15.70139746293233
 31
0.0
 11
190.0818114333289
 21
15.64070618039541
 31
0.0
 11
190.0818114333289
 21
15.5800148978585
 31
0.0
 11
190.0818114333289
 21
15.55242795125081
 31
0.0
  0
SPLINE
  5
AE
102
{ACAD_REACTORS
330
CB
102
}
330
48
100
AcDbEntity
  8
_U_30EC_U_30A4_U_30E4_U_30FC_1
  6
Continuous
 62
     2
100
AcDbSpline
210
0.0
220
0.0
230
1.0
 70
    11
 71
     3
 72
   118
 73
   114
 74
   112
 42
0.000000001
 43
0.0000000001
 44
0.00000001
 40
0.0
 40
0.0
 40
0.0
 40
0.0
 40
0.1054708162973583
 40
0.2466098270052389
 40
0.3965912874591505
 40
0.5285525069754394
 40
0.6156245055642635
 40
0.6431434105797947
 40
0.7036850037986608
 40
0.7642265984504963
 40
0.7917455052355268
 40
0.9287404319990158
 40
1.106572819088079
 40
1.287544879681111
 40
1.317578308030628
 40
1.399928030857261
 40
1.522968204800037
 40
1.675072986590659
 40
1.844616533180736
 40
2.019973001638798
 40
2.189516548880109
 40
2.341621331585446
 40
2.464661506320582
 40
2.547011229647146
 40
2.57704465816811
 40
2.603797890893152
 40
2.662655002908839
 40
2.721512114949594
 40
2.748265347702774
 40
2.774215307344849
 40
2.84595931340718
 40
2.954338556588378
 40
3.090194227585555
 40
3.244367517100516
 40
3.407699615844276
 40
3.571031714539423
 40
3.725205003920099
 40
3.861060674729597
 40
3.96943991771629
 40
4.041183923628962
 40
4.067133883212955
 40
4.311886746012143
 40
4.547897258335508
 40
4.76474708304396
 40
4.952749679951741
 40
5.045772974195862
 40
5.137862019644943
 40
5.330543169792994
 40
5.553448265243987
 40
5.795083855888144
 40
6.043293412177208
 40
6.28576169554115
 40
6.313902908752634
 40
6.384255941793223
 40
6.475714884766812
 40
6.567173827758874
 40
6.637526860839652
 40
6.665668074074016
 40
6.692018920327992
 40
6.749990782071065
 40
6.807962643790435
 40
6.834313490017911
 40
6.85639308424519
 40
6.913335195649814
 40
6.991194817302477
 40
7.076026942283739
 40
7.153886563725229
 40
7.210828674844811
 40
7.232908268931147
 40
7.258199334923666
 40
7.324875781592314
 40
7.419142481924969
 40
7.527204308841909
 40
7.635266135230489
 40
7.729532834168471
 40
7.79620927929279
 40
7.821500344594736
 40
7.844652988850807
 40
7.899863140541557
 40
7.965759128053667
 40
8.020969279770922
 40
8.044121924046388
 40
8.069356610160412
 40
8.109134395441265
 40
8.132238100190976
 40
8.193147867786339
 40
8.27926167887651
 40
8.377977512673723
 40
8.476693347146503
 40
8.562807160411557
 40
8.623716930826342
 40
8.646820636853294
 40
8.671988793774135
 40
8.734909185828046
 40
8.81670569518876
 40
8.89850220481536
 40
8.96142259737785
 40
8.986590754550962
 40
9.01294160073312
 40
9.070913462380206
 40
9.128885324081704
 40
9.155236170325027
 40
9.180404327929098
 40
9.243324721948143
 40
9.325121234211965
 40
9.406917746637648
 40
9.46983814197816
 40
9.495006288270906
 40
9.517811184379049
 40
9.572192090487052
 40
9.637098333281282
 40
9.691479239515486
 40
9.714284125643525
 40
9.714284125643525
 40
9.714284125643525
 40
9.714284125643525
 10
185.2874469028652
 20
15.26889163187722
 30
0.0
 10
185.3090990569037
 20
15.24111869242813
 30
0.0
 10
185.3597257109473
 20
15.17618054561238
 30
0.0
 10
185.4349383202592
 20
15.06891060312904
 30
0.0
 10
185.5248482274345
 20
14.95377438266626
 30
0.0
 10
185.5709169676673
 20
14.85357045748324
 30
0.0
 10
185.6655825294654
 20
14.78434006814946
 30
0.0
 10
185.6204439320413
 20
14.73771639678278
 30
0.0
 10
185.594704778579
 20
14.69660308866043
 30
0.0
 10
185.5645196708012
 20
14.66065971727944
 30
0.0
 10
185.5193684730562
 20
14.58579782596098
 30
0.0
 10
185.4710504458562
 20
14.8078252425361
 30
0.0
 10
185.3968539713073
 20
14.84510677337715
 30
0.0
 10
185.2836047324605
 20
15.11610202130604
 30
0.0
 10
185.2885133578169
 20
15.00095328446233
 30
0.0
 10
185.2868486556305
 20
14.92836675781631
 30
0.0
 10
185.2876830076713
 20
14.80625588483991
 30
0.0
 10
185.2873609540263
 20
14.65913800810465
 30
0.0
 10
185.2875076912454
 20
14.49307063956561
 30
0.0
 10
185.2872950092722
 20
14.32187554608607
 30
0.0
 10
185.2879497252033
 20
14.15552828635503
 30
0.0
 10
185.2859192461138
 20
14.00935173055699
 30
0.0
 10
185.2913460399929
 20
13.88471047474615
 30
0.0
 10
185.2804930868707
 20
13.81718656540632
 30
0.0
 10
185.2956739155553
 20
13.75549061417028
 30
0.0
 10
185.2457895108133
 20
13.76727503897007
 30
0.0
 10
185.2017150342521
 20
13.75943822779974
 30
0.0
 10
185.1582371630201
 20
13.76760441372707
 30
0.0
 10
185.1092346786488
 20
13.75538056738473
 30
0.0
 10
185.1218731234825
 20
13.80960667249318
 30
0.0
 10
185.1130182968449
 20
13.86936918907562
 30
0.0
 10
185.1175058770314
 20
13.97922029044375
 30
0.0
 10
185.115796013599
 20
14.11029975405683
 30
0.0
 10
185.1163550915986
 20
14.26198011444333
 30
0.0
 10
185.1161928768695
 20
14.42211074929958
 30
0.0
 10
185.1162269924674
 20
14.5823686567457
 30
0.0
 10
185.1162514960127
 20
14.73370247520444
 30
0.0
 10
185.1161453543225
 20
14.86582156338605
 30
0.0
 10
185.1164299141931
 20
14.97294802533197
 30
0.0
 10
185.1158675547567
 20
15.03808619579478
 30
0.0
 10
185.1180765083689
 20
15.1661895785868
 30
0.0
 10
185.0319435998602
 20
14.79097610391579
 30
0.0
 10
184.95551408185
 20
14.63918193123398
 30
0.0
 10
184.8660040767832
 20
14.47766206446311
 30
0.0
 10
184.7640413217326
 20
14.20471848820177
 30
0.0
 10
184.7187976491038
 20
14.36717346596515
 30
0.0
 10
184.6102355941671
 20
14.45605432058124
 30
0.0
 10
184.7995791751752
 20
14.60549794961413
 30
0.0
 10
184.85653405457
 20
14.7974913697493
 30
0.0
 10
184.9717520993352
 20
15.02899622906761
 30
0.0
 10
184.9940151630132
 20
15.21797259759068
 30
0.0
 10
185.1771905152139
 20
15.49454089325933
 30
0.0
 10
185.0538033597552
 20
15.48698978832098
 30
0.0
 10
184.9925684166834
 20
15.48856772366122
 30
0.0
 10
184.9081999617064
 20
15.48882592573677
 30
0.0
 10
184.8204235085966
 20
15.48544845751209
 30
0.0
 10
184.7656768696122
 20
15.49394814982024
 30
0.0
 10
184.7104703026024
 20
15.48048561049791
 30
0.0
 10
184.7222823035536
 20
15.52931442126767
 30
0.0
 10
184.7142496151794
 20
15.57269004896713
 30
0.0
 10
184.7228186104678
 20
15.61509438309577
 30
0.0
 10
184.7102943409157
 20
15.66267796552123
 30
0.0
 10
184.7555101538735
 20
15.65267212995113
 30
0.0
 10
184.8014815562724
 20
15.65894105174067
 30
0.0
 10
184.877722204771
 20
15.65593561405876
 30
0.0
 10
184.9561296131993
 20
15.65770448278546
 30
0.0
 10
185.0323992648932
 20
15.65464793981665
 30
0.0
 10
185.0783009459475
 20
15.66103971376182
 30
0.0
 10
185.12317339654
 20
15.65093822978901
 30
0.0
 10
185.1105552275633
 20
15.70157201581903
 30
0.0
 10
185.1191936582707
 20
15.75501261882074
 30
0.0
 10
185.1152361595443
 20
15.84863255131685
 30
0.0
 10
185.1162325068335
 20
15.95112606688928
 30
0.0
 10
185.1171927413074
 20
16.05353270248168
 30
0.0
 10
185.1133211458004
 20
16.14735929609324
 30
0.0
 10
185.1217789814365
 20
16.20036542840358
 30
0.0
 10
185.1093075932835
 20
16.25211435651192
 30
0.0
 10
185.154210638985
 20
16.23850747226762
 30
0.0
 10
185.1955083836771
 20
16.24100480320589
 30
0.0
 10
185.259534428105
 20
16.23648060574492
 30
0.0
 10
185.2986111148785
 20
16.22781003043312
 30
0.0
 10
185.3476543498741
 20
16.23515102070692
 30
0.0
 10
185.322508003059
 20
16.19602896051756
 30
0.0
 10
185.2815901333722
 20
16.20563842455815
 30
0.0
 10
185.2910109616603
 20
16.15540148169783
 30
0.0
 10
185.2855647318745
 20
16.10385945639494
 30
0.0
 10
185.2881699601803
 20
16.01959707584525
 30
0.0
 10
185.2870102202153
 20
15.92559135583412
 30
0.0
 10
185.288359106423
 20
15.8319686539553
 30
0.0
 10
185.2849970101508
 20
15.74679517552228
 30
0.0
 10
185.2920959917768
 20
15.69716856072049
 30
0.0
 10
185.2812569154545
 20
15.64993694969993
 30
0.0
 10
185.3304010225244
 20
15.66201674936858
 30
0.0
 10
185.3794877630146
 20
15.65447393363016
 30
0.0
 10
185.4573714280641
 20
15.65686070361438
 30
0.0
 10
185.5350365172895
 20
15.65899381905419
 30
0.0
 10
185.5845393931354
 20
15.65193391922459
 30
0.0
 10
185.6344594750639
 20
15.66360151936219
 30
0.0
 10
185.622319851688
 20
15.61540235371397
 30
0.0
 10
185.6305838229143
 20
15.5724921980124
 30
0.0
 10
185.6223198650783
 20
15.52958201851388
 30
0.0
 10
185.6344594549854
 20
15.48138288754867
 30
0.0
 10
185.5845395158747
 20
15.49305034471515
 30
0.0
 10
185.5350350651202
 20
15.48599202435049
 30
0.0
 10
185.4573784382972
 20
15.48811665228608
 30
0.0
 10
185.3794643865759
 20
15.49053389365763
 30
0.0
 10
185.3304500352716
 20
15.4829184819449
 30
0.0
 10
185.2813246108942
 20
15.49507952557595
 30
0.0
 10
185.291555998857
 20
15.45073013424162
 30
0.0
 10
185.2856677678053
 20
15.40925436202915
 30
0.0
 10
185.2878788305568
 20
15.34915394315306
 30
0.0
 10
185.2874109346145
 20
15.30225782762892
 30
0.0
 10
185.2874386992912
 20
15.27650146418199
 30
0.0
 10
185.2874469028652
 20
15.26889163187722
 30
0.0
 11
185.2874469028652
 21
15.26889163187722
 31
0.0
 11
185.3516977534484
 21
15.18524999634259
 31
0.0
 11
185.4348258835499
 21
15.07118889748224
 31
0.0
 11
185.5216831568895
 21
14.94891767195727
 31
0.0
 11
185.5971214371872
 21
14.8406456564288
 31
0.0
 11
185.6459925881626
 21
14.76858218755794
 31
0.0
 11
185.6296821285093
 21
14.74641782124403
 31
0.0
 11
185.5937991172719
 21
14.69765621535344
 31
0.0
 11
185.5579161060346
 21
14.64889460946285
 31
0.0
 11
185.5416056463813
 21
14.62673024314894
 31
0.0
 11
185.4763067109446
 21
14.74716139023817
 31
0.0
 11
185.3848434243234
 21
14.89966983670211
 31
0.0
 11
185.2874469028652
 21
15.05219788193146
 31
0.0
 11
185.2874469028652
 21
15.02216445328257
 31
0.0
 11
185.2874469028652
 21
14.93981472956787
 31
0.0
 11
185.2874469028652
 21
14.81677455413532
 31
0.0
 11
185.2874469028652
 21
14.66466977033288
 31
0.0
 11
185.2874469028652
 21
14.4951262215085
 31
0.0
 11
185.2874469028652
 21
14.31976975101014
 31
0.0
 11
185.2874469028652
 21
14.15022620218576
 31
0.0
 11
185.2874469028652
 21
13.99812141838331
 31
0.0
 11
185.2874469028652
 21
13.87508124295076
 31
0.0
 11
185.2874469028652
 21
13.79273151923606
 31
0.0
 11
185.2874469028652
 21
13.76269809058717
 31
0.0
 11
185.2606936700408
 21
13.76269809058717
 31
0.0
 11
185.2018365578271
 21
13.76269809058717
 31
0.0
 11
185.1429794456134
 21
13.76269809058717
 31
0.0
 11
185.116226212789
 21
13.76269809058717
 31
0.0
 11
185.116226212789
 21
13.78864805031255
 31
0.0
 11
185.116226212789
 21
13.86039205661213
 31
0.0
 11
185.116226212789
 21
13.96877130017106
 31
0.0
 11
185.116226212789
 21
14.10462697167452
 31
0.0
 11
185.116226212789
 21
14.25880026180765
 31
0.0
 11
185.116226212789
 21
14.42213236125563
 31
0.0
 11
185.116226212789
 21
14.58546446070361
 31
0.0
 11
185.116226212789
 21
14.73963775083674
 31
0.0
 11
185.116226212789
 21
14.8754934223402
 31
0.0
 11
185.116226212789
 21
14.98387266589913
 31
0.0
 11
185.116226212789
 21
15.05561667219871
 31
0.0
 11
185.116226212789
 21
15.08156663192409
 31
0.0
 11
185.0379865861721
 21
14.84965603302376
 31
0.0
 11
184.9497110789303
 21
14.63077616328682
 31
0.0
 11
184.8544106930045
 21
14.43598991333551
 31
0.0
 11
184.7550964303356
 21
14.27636017379207
 31
0.0
 11
184.7109198342406
 21
14.35822446196603
 31
0.0
 11
184.658805738348
 21
14.43414885430815
 31
0.0
 11
184.7627302590299
 21
14.59640087926761
 31
0.0
 11
184.8629319864735
 21
14.79551465421785
 31
0.0
 11
184.9550446607901
 21
15.01890447916201
 31
0.0
 11
185.0347020220912
 21
15.25398465410324
 31
0.0
 11
185.097537810488
 21
15.48816947904469
 31
0.0
 11
185.0693965972142
 21
15.48816947904469
 31
0.0
 11
184.9990435640297
 21
15.48816947904469
 31
0.0
 11
184.9075846208898
 21
15.48816947904469
 31
0.0
 11
184.8161256777499
 21
15.48816947904469
 31
0.0
 11
184.7457726445654
 21
15.48816947904469
 31
0.0
 11
184.7176314312916
 21
15.48816947904469
 31
0.0
 11
184.7176314312916
 21
15.51452032539227
 31
0.0
 11
184.7176314312916
 21
15.57249218735693
 31
0.0
 11
184.7176314312916
 21
15.63046404932159
 31
0.0
 11
184.7176314312916
 21
15.65681489566917
 31
0.0
 11
184.739711025602
 21
15.65681489566917
 31
0.0
 11
184.7966531372444
 21
15.65681489566917
 31
0.0
 11
184.8745127592862
 21
15.65681489566917
 31
0.0
 11
184.9593448847944
 21
15.65681489566917
 31
0.0
 11
185.0372045068361
 21
15.65681489566917
 31
0.0
 11
185.0941466184786
 21
15.65681489566917
 31
0.0
 11
185.116226212789
 21
15.65681489566917
 31
0.0
 11
185.116226212789
 21
15.68210596174358
 31
0.0
 11
185.116226212789
 21
15.74878240866702
 31
0.0
 11
185.116226212789
 21
15.84304910948981
 31
0.0
 11
185.116226212789
 21
15.95111093726228
 31
0.0
 11
185.116226212789
 21
16.05917276503476
 31
0.0
 11
185.116226212789
 21
16.15343946585755
 31
0.0
 11
185.116226212789
 21
16.22011591278099
 31
0.0
 11
185.116226212789
 21
16.2454069788554
 31
0.0
 11
185.1393181988665
 21
16.24373213107804
 31
0.0
 11
185.1943837041284
 21
16.23973826330126
 31
0.0
 11
185.2601070491183
 21
16.234971388858
 31
0.0
 11
185.3151725543801
 21
16.23097752108121
 31
0.0
 11
185.3382645404577
 21
16.22930267330385
 31
0.0
 11
185.3249012644362
 21
16.20789677921196
 31
0.0
 11
185.2874469028652
 21
16.19450114553473
 31
0.0
 11
185.2874469028652
 21
16.17139743948582
 31
0.0
 11
185.2874469028652
 21
16.11048766899324
 31
0.0
 11
185.2874469028652
 21
16.0243738555382
 31
0.0
 11
185.2874469028652
 21
15.92565802060195
 31
0.0
 11
185.2874469028652
 21
15.8269421856657
 31
0.0
 11
185.2874469028652
 21
15.74082837221066
 31
0.0
 11
185.2874469028652
 21
15.67991860171808
 31
0.0
 11
185.2874469028652
 21
15.65681489566917
 31
0.0
 11
185.3126150604808
 21
15.65681489566917
 31
0.0
 11
185.3755354545198
 21
15.65681489566917
 31
0.0
 11
185.4573319667705
 21
15.65681489566917
 31
0.0
 11
185.5391284790212
 21
15.65681489566917
 31
0.0
 11
185.6020488730602
 21
15.65681489566917
 31
0.0
 11
185.6272170306758
 21
15.65681489566917
 31
0.0
 11
185.6272170306758
 21
15.63046404932159
 31
0.0
 11
185.6272170306758
 21
15.57249218735693
 31
0.0
 11
185.6272170306758
 21
15.51452032539227
 31
0.0
 11
185.6272170306758
 21
15.48816947904469
 31
0.0
 11
185.6020488730602
 21
15.48816947904469
 31
0.0
 11
185.5391284790212
 21
15.48816947904469
 31
0.0
 11
185.4573319667705
 21
15.48816947904469
 31
0.0
 11
185.3755354545198
 21
15.48816947904469
 31
0.0
 11
185.3126150604808
 21
15.48816947904469
 31
0.0
 11
185.2874469028652
 21
15.48816947904469
 31
0.0
 11
185.2874469028652
 21
15.46536458293927
 31
0.0
 11
185.2874469028652
 21
15.41098367684174
 31
0.0
 11
185.2874469028652
 21
15.34607743408017
 31
0.0
 11
185.2874469028652
 21
15.29169652798264
 31
0.0
 11
185.2874469028652
 21
15.26889163187722
 31
0.0
  0
SPLINE
  5
AF
102
{ACAD_REACTORS
330
CC
102
}
330
48
100
AcDbEntity
  8
_U_30EC_U_30A4_U_30E4_U_30FC_1
  6
Continuous
 62
     2
100
AcDbSpline
210
0.0
220
0.0
230
1.0
 70
    11
 71
     3
 72
    47
 73
    43
 74
    41
 42
0.000000001
 43
0.0000000001
 44
0.00000001
 40
0.0
 40
0.0
 40
0.0
 40
0.0
 40
0.2207912809957231
 40
0.4459404186303096
 40
0.4902387190458754
 40
0.5327473892722271
 40
0.574226045122503
 40
0.615543263056089
 40
0.6568164066315807
 40
0.6982511618780731
 40
0.7407663929316395
 40
0.785136674317446
 40
1.010288833836246
 40
1.2310805070021
 40
1.451765243652323
 40
1.676638205891605
 40
1.720461045359578
 40
1.830018144043444
 40
1.972442372353076
 40
2.114866600677449
 40
2.224423699395078
 40
2.268246538883317
 40
2.493628801207143
 40
2.715602830286537
 40
2.934211330706294
 40
3.14950236985529
 40
3.23138778485085
 40
3.318231873853885
 40
3.40514319819793
 40
3.486970301720309
 40
3.702258172493756
 40
3.920866283533988
 40
4.142839325931775
 40
4.368221903865232
 40
4.412044743359713
 40
4.521601842095729
 40
4.664026070452211
 40
4.806450298808922
 40
4.916007397546618
 40
4.959830237042942
 40
5.184703515846971
 40
5.405387250767343
 40
5.405387250767343
 40
5.405387250767343
 40
5.405387250767343
 10
182.6507427258644
 20
15.73406440953876
 30
0.0
 10
182.6568139420002
 20
15.79758482501214
 30
0.0
 10
182.6690762107243
 20
15.9258793868963
 30
0.0
 10
182.5604706879412
 20
16.20166220174082
 30
0.0
 10
182.6761985896603
 20
16.17188133432057
 30
0.0
 10
182.7171842509015
 20
16.16765556262826
 30
0.0
 10
182.7591205797517
 20
16.1631044638961
 30
0.0
 10
182.800419662571
 20
16.16201982929491
 30
0.0
 10
182.8417032115555
 20
16.16310338195231
 30
0.0
 10
182.8836148270647
 20
16.16766112711348
 30
0.0
 10
182.9245983549019
 20
16.17187430209733
 30
0.0
 10
183.0404922843488
 20
16.2017761131754
 30
0.0
 10
182.9295652727457
 20
15.92339806609893
 30
0.0
 10
182.9574856365267
 20
15.74283140824957
 30
0.0
 10
182.9404267346969
 20
15.50961042346476
 30
0.0
 10
182.9414637282102
 20
15.3490662254315
 30
0.0
 10
182.9414099399405
 20
15.22284817558727
 30
0.0
 10
182.9414277372481
 20
15.12428963336246
 30
0.0
 10
182.941418858108
 20
14.99280702442967
 30
0.0
 10
182.9414263928034
 20
14.86132844968654
 30
0.0
 10
182.9414129405128
 20
14.76276222694094
 30
0.0
 10
182.9414531717492
 20
14.63639735624156
 30
0.0
 10
182.9406746403817
 20
14.47482068822874
 30
0.0
 10
182.9565958319267
 20
14.24361821892919
 30
0.0
 10
182.9333468885407
 20
14.05874351972007
 30
0.0
 10
183.0360183444365
 20
13.78935602770061
 30
0.0
 10
182.8820238362836
 20
13.82660112685821
 30
0.0
 10
182.8004129802832
 20
13.82137994680537
 30
0.0
 10
182.7188192292582
 20
13.82660620378355
 30
0.0
 10
182.5648513666843
 20
13.78937069885392
 30
0.0
 10
182.6674183421917
 20
14.05875129862885
 30
0.0
 10
182.6442045316086
 20
14.24361585325419
 30
0.0
 10
182.6600444655139
 20
14.47482218565642
 30
0.0
 10
182.6593296313427
 20
14.63639712308507
 30
0.0
 10
182.6593664569906
 20
14.76276231210524
 30
0.0
 10
182.6593549000271
 20
14.86132756635986
 30
0.0
 10
182.6593575019213
 20
14.99281127417224
 30
0.0
 10
182.6593648531779
 20
15.12427548031205
 30
0.0
 10
182.6593442541351
 20
15.22287786275331
 30
0.0
 10
182.6594082192028
 20
15.34896149354431
 30
0.0
 10
182.658173394759
 20
15.51210091383776
 30
0.0
 10
182.6532040396744
 20
15.66054183777554
 30
0.0
 10
182.6507427258644
 20
15.73406440953876
 30
0.0
 11
182.6507427258644
 21
15.73406440953876
 31
0.0
 11
182.6417328200379
 21
15.95467178795582
 31
0.0
 11
182.6318769706146
 21
16.17960510387184
 31
0.0
 11
182.67569858408
 21
16.17312391463733
 31
0.0
 11
182.7178400934215
 21
16.16754892331929
 31
0.0
 11
182.759137140979
 21
16.16367167505635
 31
0.0
 11
182.8004341885365
 21
16.16238072887612
 31
0.0
 11
182.841687138873
 21
16.16367167505635
 31
0.0
 11
182.8829400892097
 21
16.16754892331929
 31
0.0
 11
182.9250882131342
 21
16.17312391463733
 31
0.0
 11
182.9689825870144
 21
16.17960510387184
 31
0.0
 11
182.9590577693891
 21
15.95467178795582
 31
0.0
 11
182.950038420831
 21
15.73406440953876
 31
0.0
 11
182.9435638463435
 21
15.51347467001059
 31
0.0
 11
182.9414218238286
 21
15.28861190965012
 31
0.0
 11
182.9414218238286
 21
15.2447890701549
 31
0.0
 11
182.9414218238286
 21
15.13523197141687
 31
0.0
 11
182.9414218238286
 21
14.99280774305742
 31
0.0
 11
182.9414218238286
 21
14.85038351469796
 31
0.0
 11
182.9414218238286
 21
14.74082641595992
 31
0.0
 11
182.9414218238286
 21
14.69700357646471
 31
0.0
 11
182.9435638463435
 21
14.47163149318771
 31
0.0
 11
182.950038420831
 21
14.24975190990985
 31
0.0
 11
182.9590577693891
 21
14.03132954885334
 31
0.0
 11
182.9689825870144
 21
13.81626739612931
 31
0.0
 11
182.887261616877
 21
13.82145433189189
 31
0.0
 11
182.8004341885365
 21
13.82315538223865
 31
0.0
 11
182.7135395119338
 21
13.82145433189189
 31
0.0
 11
182.6318769706146
 21
13.81626739612931
 31
0.0
 11
182.6417328200379
 21
14.03132954885334
 31
0.0
 11
182.6507427258644
 21
14.24975190990985
 31
0.0
 11
182.6571833838798
 21
14.47163149318771
 31
0.0
 11
182.6593583588023
 21
14.69700357646471
 31
0.0
 11
182.6593583588023
 21
14.74082641595992
 31
0.0
 11
182.6593583588023
 21
14.85038351469797
 31
0.0
 11
182.6593583588023
 21
14.99280774305741
 31
0.0
 11
182.6593583588023
 21
15.13523197141686
 31
0.0
 11
182.6593583588023
 21
15.2447890701549
 31
0.0
 11
182.6593583588023
 21
15.28861190965012
 31
0.0
 11
182.6571833838798
 21
15.51347467001059
 31
0.0
 11
182.6507427258644
 21
15.73406440953876
 31
0.0
  0
SPLINE
  5
B0
102
{ACAD_REACTORS
330
CD
102
}
330
48
100
AcDbEntity
  8
_U_30EC_U_30A4_U_30E4_U_30FC_1
  6
Continuous
 62
     2
100
AcDbSpline
210
0.0
220
0.0
230
1.0
 70
    11
 71
     3
 72
   110
 73
   106
 74
   104
 42
0.000000001
 43
0.0000000001
 44
0.00000001
 40
0.0
 40
0.0
 40
0.0
 40
0.0
 40
0.2203406257277649
 40
0.4407808782838091
 40
0.5952494494614786
 40
0.7488431659393074
 40
0.9023581831309059
 40
1.056801968670404
 40
1.210736449099905
 40
1.363041386539783
 40
1.515315729683069
 40
1.669377239148077
 40
1.721611652756564
 40
1.773199502942944
 40
1.824933793209997
 40
1.877110426487978
 40
1.982682281206741
 40
2.078781667087634
 40
2.172809640822327
 40
2.271937807378924
 40
2.378349933379403
 40
2.494131557736591
 40
2.62668168394364
 40
2.783145050796067
 40
2.890701232940923
 40
2.993130312454821
 40
3.099869730691806
 40
3.2202378166913
 40
3.352695482737587
 40
3.481732806389839
 40
3.593499473690364
 40
3.674323013331887
 40
3.817951711952808
 40
3.946167120793749
 40
4.061405053453463
 40
4.166480796003075
 40
4.262478775059198
 40
4.350736673551155
 40
4.433071991254012
 40
4.511216293814557
 40
4.564262454117861
 40
4.618474415571476
 40
4.670128488754077
 40
4.722296879126258
 40
4.819540945314127
 40
4.931194984127984
 40
5.049996040257597
 40
5.168643755415172
 40
5.283970811762326
 40
5.392260784910123
 40
5.486512254876198
 40
5.559178233949597
 40
5.591425852853273
 40
5.626215969637651
 40
5.6671558386742
 40
5.717449290214012
 40
5.738402360944622
 40
5.784499116553586
 40
5.830595872164554
 40
5.851548942897408
 40
5.873019280661523
 40
5.92421777840807
 40
5.985325662817451
 40
6.03652416056747
 40
6.057994498334
 40
6.236847789607247
 40
6.381409928945422
 40
6.493190424178451
 40
6.574067534230255
 40
6.691018086205349
 40
6.814881554220267
 40
6.944307823240134
 40
7.071266716065757
 40
7.19348860446166
 40
7.309042773127916
 40
7.414007203170485
 40
7.505140441886297
 40
7.531150360599466
 40
7.55922164532205
 40
7.587202218920702
 40
7.612569159498922
 40
7.662550809480789
 40
7.702878875763932
 40
7.857328205230746
 40
8.010799568088391
 40
8.16525639965737
 40
8.322232698713766
 40
8.479564855016395
 40
8.63521623029057
 40
8.790882550925488
 40
8.948305154947054
 40
9.16827183903275
 40
9.387358980987015
 40
9.608047961033257
 40
9.832914234792458
 40
9.858338694962793
 40
9.925366817229799
 40
10.02013071422738
 40
10.12876249858977
 40
10.23739428295228
 40
10.33215817995169
 40
10.39918630222373
 40
10.42461076239762
 40
10.64992019336921
 40
10.87188524531167
 40
10.87188524531167
 40
10.87188524531167
 40
10.87188524531167
 10
179.9057788376618
 20
15.73923260398195
 30
0.0
 10
179.9092864933541
 20
15.80616462073809
 30
0.0
 10
179.9163033987662
 20
15.94005891915863
 30
0.0
 10
179.8198027599072
 20
16.22548554971474
 30
0.0
 10
180.0510134726108
 20
16.16284386190287
 30
0.0
 10
180.1919290057156
 20
16.17001554055996
 30
0.0
 10
180.3490417757588
 20
16.16235883078249
 30
0.0
 10
180.5025913427287
 20
16.16252752283045
 30
0.0
 10
180.6545104935081
 20
16.16182040535437
 30
0.0
 10
180.8142214813231
 20
16.17210158351644
 30
0.0
 10
180.9408972601117
 20
16.15496511080756
 30
0.0
 10
181.137082112208
 20
16.22727260107153
 30
0.0
 10
181.1034395279078
 20
16.12640699080122
 30
0.0
 10
181.1052011317184
 20
16.07619253947675
 30
0.0
 10
181.1027342073458
 20
16.02712335586471
 30
0.0
 10
181.1347076966011
 20
15.94063490847003
 30
0.0
 10
181.0010399903255
 20
15.98997438608344
 30
0.0
 10
180.9172208688056
 20
15.9843063431417
 30
0.0
 10
180.8173861139323
 20
15.99465516706302
 30
0.0
 10
180.7186576720145
 20
16.00086450411091
 30
0.0
 10
180.612153277111
 20
16.00697763816781
 30
0.0
 10
180.4910511698059
 20
16.0158888348459
 30
0.0
 10
180.3703381502453
 20
16.00521605912388
 30
0.0
 10
180.1812553843437
 20
16.06468503080372
 30
0.0
 10
180.2129028505311
 20
15.90558320077544
 30
0.0
 10
180.1995563316833
 20
15.80839128339909
 30
0.0
 10
180.1974958426449
 20
15.69634065110107
 30
0.0
 10
180.195818804467
 20
15.57699685629355
 30
0.0
 10
180.1973336794233
 20
15.45032592155114
 30
0.0
 10
180.1956582478669
 20
15.32301588016121
 30
0.0
 10
180.2058844271657
 20
15.22451566404468
 30
0.0
 10
180.1779006596582
 20
15.08388702625635
 30
0.0
 10
180.3508029999305
 20
15.13989551134098
 30
0.0
 10
180.4645020202771
 20
15.12719951478502
 30
0.0
 10
180.5840151672238
 20
15.13448377051258
 30
0.0
 10
180.6888491425071
 20
15.1387801705676
 30
0.0
 10
180.7843084898612
 20
15.1433056825898
 30
0.0
 10
180.8763823507032
 20
15.15149201146205
 30
0.0
 10
180.9476551782438
 20
15.14643850638116
 30
0.0
 10
181.0544931705684
 20
15.18536425031676
 30
0.0
 10
181.0226603598036
 20
15.10517122005882
 30
0.0
 10
181.026616450393
 20
15.05562936846038
 30
0.0
 10
181.0234502392012
 20
15.00557478039824
 30
0.0
 10
181.0550791490583
 20
14.92128847612027
 30
0.0
 10
180.9210133677691
 20
14.97425365495162
 30
0.0
 10
180.8292322793199
 20
14.96540080890447
 30
0.0
 10
180.7079729189602
 20
14.97570049965158
 30
0.0
 10
180.5914113119771
 20
14.97748911767508
 30
0.0
 10
180.4783375745878
 20
14.97787017109697
 30
0.0
 10
180.3679246308471
 20
14.98415449472184
 30
0.0
 10
180.289812406784
 20
14.97189133255367
 30
0.0
 10
180.1913625833644
 20
15.00453887616131
 30
0.0
 10
180.2012355173561
 20
14.9476974805421
 30
0.0
 10
180.1973923244401
 20
14.91392130557988
 30
0.0
 10
180.1966789884269
 20
14.87119604709415
 30
0.0
 10
180.1963369642975
 20
14.83401607262157
 30
0.0
 10
180.1963834255346
 20
14.79487237370775
 30
0.0
 10
180.1963649429927
 20
14.7571684949769
 30
0.0
 10
180.1963703431805
 20
14.71944955232407
 30
0.0
 10
180.1963697214201
 20
14.68994324745155
 30
0.0
 10
180.1963698151544
 20
14.65873577699305
 30
0.0
 10
180.1963704287921
 20
14.61414424908089
 30
0.0
 10
180.1963671499337
 20
14.55963956508855
 30
0.0
 10
180.196375962348
 20
14.51505540201452
 30
0.0
 10
180.1963359653417
 20
14.43117808585744
 30
0.0
 10
180.1976024270255
 20
14.31737520677682
 30
0.0
 10
180.195027411784
 20
14.16830395933713
 30
0.0
 10
180.206500938172
 20
14.0659720381391
 30
0.0
 10
180.1823506222263
 20
13.93338903885838
 30
0.0
 10
180.3332993946476
 20
13.97895732272026
 30
0.0
 10
180.4428436671556
 20
13.96427012162354
 30
0.0
 10
180.5733970473919
 20
13.96920435125068
 30
0.0
 10
180.6990312209513
 20
13.97257705323364
 30
0.0
 10
180.81887306256
 20
13.97711497498776
 30
0.0
 10
180.9391362611426
 20
13.9904853618201
 30
0.0
 10
181.0222761663515
 20
13.98068712782602
 30
0.0
 10
181.1456080421076
 20
14.04126214623326
 30
0.0
 10
181.1244269203956
 20
13.98532460134025
 30
0.0
 10
181.1235950270117
 20
13.9593924937235
 30
0.0
 10
181.1218963707558
 20
13.93197256190943
 30
0.0
 10
181.1217974888829
 20
13.8973819520639
 30
0.0
 10
181.1203659301329
 20
13.86050408220771
 30
0.0
 10
181.153280419219
 20
13.76846841021811
 30
0.0
 10
180.9551306988107
 20
13.84132015974835
 30
0.0
 10
180.8300548294891
 20
13.81825726508608
 30
0.0
 10
180.6673071295155
 20
13.82454021985788
 30
0.0
 10
180.5129366450001
 20
13.82260943909929
 30
0.0
 10
180.3566670436943
 20
13.8239376259927
 30
0.0
 10
180.1970544465281
 20
13.82059872487865
 30
0.0
 10
180.0540326342237
 20
13.83265795728244
 30
0.0
 10
179.8197144881628
 20
13.76952001976922
 30
0.0
 10
179.9173810751197
 20
14.05620527466322
 30
0.0
 10
179.9006868780059
 20
14.24988308142664
 30
0.0
 10
179.9146296709684
 20
14.47848242880299
 30
0.0
 10
179.9142987846632
 20
14.63384593955051
 30
0.0
 10
179.9143078119264
 20
14.7396633644413
 30
0.0
 10
179.9143055876316
 20
14.80205784124218
 30
0.0
 10
179.9143065551888
 20
14.8922042524833
 30
0.0
 10
179.9143065473262
 20
14.99621167157442
 30
0.0
 10
179.9143053861102
 20
15.100221313753
 30
0.0
 10
179.9143090971503
 20
15.19036243688771
 30
0.0
 10
179.9143011051052
 20
15.2527680309722
 30
0.0
 10
179.9143334275017
 20
15.35868835961123
 30
0.0
 10
179.9131440788319
 20
15.51626716544744
 30
0.0
 10
179.9082216489256
 20
15.6652821982207
 30
0.0
 10
179.9057788376618
 20
15.73923260398195
 30
0.0
 11
179.9057788376618
 21
15.73923260398195
 31
0.0
 11
179.896691822374
 21
15.95938578101022
 31
0.0
 11
179.8868249573133
 21
16.17960510387184
 31
0.0
 11
180.04115751414
 21
16.17312391463733
 31
0.0
 11
180.1946500189046
 21
16.16754892331929
 31
0.0
 11
180.3481160653366
 21
16.16367167505635
 31
0.0
 11
180.5025544554939
 21
16.16238072887612
 31
0.0
 11
180.6564835227473
 21
16.16367167505635
 31
0.0
 11
180.80873910046
 21
16.16754892331929
 31
0.0
 11
180.9609113551073
 21
16.17312391463733
 31
0.0
 11
181.1148364762483
 21
16.17960510387184
 31
0.0
 11
181.1070811703123
 21
16.12794961777363
 31
0.0
 11
181.1044991623591
 21
16.07642642334209
 31
0.0
 11
181.1070811703123
 21
16.02475660564665
 31
0.0
 11
181.1148364762483
 21
15.97315954836789
 31
0.0
 11
181.0094874054411
 21
15.98001446156062
 31
0.0
 11
180.9136375700059
 21
15.98693552058661
 31
0.0
 11
180.8198593171903
 21
15.99378381919603
 31
0.0
 11
180.7209679915881
 21
16.00063211780544
 31
0.0
 11
180.6147532199923
 21
16.00710999974828
 31
0.0
 11
180.4991060528037
 21
16.01268829835799
 31
0.0
 11
180.3666126447258
 21
16.01656554662092
 31
0.0
 11
180.2101546018423
 21
16.01785649280116
 31
0.0
 11
180.2062663293721
 21
15.91037061609191
 31
0.0
 11
180.2015380048399
 21
15.80805072896469
 31
0.0
 11
180.1976607566749
 21
15.70138175329691
 31
0.0
 11
180.1963698105272
 21
15.58102059013254
 31
0.0
 11
180.1967799146835
 21
15.44856355891569
 31
0.0
 11
180.1980896021501
 21
15.31953288186459
 31
0.0
 11
180.1994074577049
 21
15.20777398432313
 31
0.0
 11
180.199819115366
 21
15.12695149302388
 31
0.0
 11
180.3434452935874
 21
15.12780256941254
 31
0.0
 11
180.4716343930757
 21
15.13039989580081
 31
0.0
 11
180.5868078221795
 21
15.13425509545258
 31
0.0
 11
180.6917756312219
 21
15.1390164930208
 31
0.0
 11
180.7876346289421
 21
15.14418027774179
 31
0.0
 11
180.8757413374193
 21
15.14934406246272
 31
0.0
 11
180.9578881438496
 21
15.15491243919744
 31
0.0
 11
181.035769233557
 21
15.16132086801528
 31
0.0
 11
181.0280180445186
 21
15.10884407115341
 31
0.0
 11
181.0254328449317
 21
15.05469378470862
 31
0.0
 11
181.0280180445185
 21
15.00310444444371
 31
0.0
 11
181.035769233557
 21
14.95151510417887
 31
0.0
 11
180.9389813454013
 21
14.96092324653762
 31
0.0
 11
180.8275950722014
 21
14.96865128473017
 31
0.0
 11
180.7089261429372
 21
14.97425273438149
 31
0.0
 11
180.5903167449212
 21
14.97726788195016
 31
0.0
 11
180.4750025117521
 21
14.97898767361642
 31
0.0
 11
180.36672619507
 21
14.98070746528261
 31
0.0
 11
180.2724839317708
 21
14.98202486979621
 31
0.0
 11
180.199819115366
 21
14.98243607639334
 31
0.0
 11
180.1994074577049
 21
14.95019108508195
 31
0.0
 11
180.1980896021501
 21
14.91542593752122
 31
0.0
 11
180.1967799146835
 21
14.87450702260088
 31
0.0
 11
180.1963698105272
 21
14.82421524309955
 31
0.0
 11
180.1963698105272
 21
14.80326217235826
 31
0.0
 11
180.1963698105272
 21
14.75716541672741
 31
0.0
 11
180.1963698105272
 21
14.71106866109655
 31
0.0
 11
180.1963698105272
 21
14.69011559035526
 31
0.0
 11
180.1963698105272
 21
14.66864525258285
 31
0.0
 11
180.1963698105272
 21
14.61744675481788
 31
0.0
 11
180.1963698105272
 21
14.55633887038872
 31
0.0
 11
180.1963698105272
 21
14.50514037262375
 31
0.0
 11
180.1963698105272
 21
14.48367003485134
 31
0.0
 11
180.1967799146835
 21
14.30481721371552
 31
0.0
 11
180.1980896021501
 21
14.16026100715446
 31
0.0
 11
180.2002868589709
 21
14.04850210961293
 31
0.0
 11
180.2032586986985
 21
13.9676796183137
 31
0.0
 11
180.3202092517447
 21
13.9676796183137
 31
0.0
 11
180.4440727208746
 21
13.9676796183137
 31
0.0
 11
180.5734925526421
 21
13.96897056449395
 31
0.0
 11
180.7003922282243
 21
13.97284781275685
 31
0.0
 11
180.8224658067973
 21
13.97886708358869
 31
0.0
 11
180.9377587499463
 21
13.98663260442007
 31
0.0
 11
181.0421754573518
 21
13.99734161483407
 31
0.0
 11
181.1320599255448
 21
14.01237656274697
 31
0.0
 11
181.1264254031191
 21
13.98698427976719
 31
0.0
 11
181.1234433285423
 21
13.95907184053806
 31
0.0
 11
181.12213398812
 21
13.93112191867007
 31
0.0
 11
181.1217235369195
 21
13.90575829888476
 31
0.0
 11
181.1243087365064
 21
13.8558435506333
 31
0.0
 11
181.1320599255448
 21
13.81626739612931
 31
0.0
 11
180.9776977178344
 21
13.82145433189189
 31
0.0
 11
180.8242357818765
 21
13.82315538223865
 31
0.0
 11
180.6697789496483
 21
13.82315538223865
 31
0.0
 11
180.5128026496767
 21
13.82315538223865
 31
0.0
 11
180.3554704921536
 21
13.82315538223865
 31
0.0
 11
180.199819115366
 21
13.82315538223865
 31
0.0
 11
180.0441620874241
 21
13.82145433189189
 31
0.0
 11
179.8868249573133
 21
13.81626739612931
 31
0.0
 11
179.896691822374
 21
14.03601267385215
 31
0.0
 11
179.9057788376618
 21
14.25491128490855
 31
0.0
 11
179.91217215184
 21
14.47550763902007
 31
0.0
 11
179.9143063455009
 21
14.70036378479719
 31
0.0
 11
179.9143063455009
 21
14.72578824496878
 31
0.0
 11
179.9143063455009
 21
14.79281636723935
 31
0.0
 11
179.9143063455009
 21
14.88758026424257
 31
0.0
 11
179.9143063455009
 21
14.99621204861212
 31
0.0
 11
179.9143063455009
 21
15.10484383298166
 31
0.0
 11
179.9143063455009
 21
15.19960772998487
 31
0.0
 11
179.9143063455009
 21
15.26663585225545
 31
0.0
 11
179.9143063455009
 21
15.29206031242704
 31
0.0
 11
179.91217215184
 21
15.51735963528739
 31
0.0
 11
179.9057788376618
 21
15.73923260398195
 31
0.0
  0
SPLINE
  5
B1
102
{ACAD_REACTORS
330
CE
102
}
330
48
100
AcDbEntity
  8
_U_30EC_U_30A4_U_30E4_U_30FC_1
  6
Continuous
 62
     2
100
AcDbSpline
210
0.0
220
0.0
230
1.0
 70
    11
 71
     3
 72
    95
 73
    91
 74
    89
 42
0.000000001
 43
0.0000000001
 44
0.00000001
 40
0.0
 40
0.0
 40
0.0
 40
0.0
 40
0.6550406656911701
 40
1.308087289031933
 40
1.420803739835803
 40
1.566130759770796
 40
1.75706734188846
 40
2.006513545026457
 40
2.08732826312156
 40
2.185328872295639
 40
2.294612454748388
 40
2.408936380534822
 40
2.526802767798568
 40
2.646360524615608
 40
2.762535723971586
 40
2.870057342870159
 40
2.966883448431659
 40
3.050803243518306
 40
3.115818222436612
 40
3.156030057150254
 40
3.213914225080212
 40
3.276689026450669
 40
3.342960320981333
 40
3.404230667150582
 40
3.453822809493397
 40
3.532499827188446
 40
3.634775188507185
 40
3.754909333008181
 40
3.889736761660684
 40
4.035769602175247
 40
4.187256681197638
 40
4.338733685675987
 40
4.488478734676144
 40
4.634708317831605
 40
4.771493189921294
 40
4.892686571561231
 40
5.199775528944476
 40
5.460353566929657
 40
5.667603142345543
 40
5.814722905404514
 40
5.828990806219812
 40
5.855488336304509
 40
5.869756237118841
 40
6.189796507762805
 40
6.531890469873027
 40
6.883053637016987
 40
7.230512024911492
 40
7.566966656764568
 40
7.885203559707434
 40
8.172887439719233
 40
8.418011594062788
 40
8.443926721190712
 40
8.5107604706132
 40
8.60214539379571
 40
8.701714041647152
 40
8.793098965075385
 40
8.85993271505796
 40
8.88584784260361
 40
9.242301256612812
 40
9.589275455016768
 40
9.921808543164182
 40
10.23479624298469
 40
10.29968150889188
 40
10.35323493887777
 40
10.40154625355161
 40
10.46482922477837
 40
10.55973900668418
 40
10.6923954598563
 40
10.84920353475685
 40
11.01626328594795
 40
11.18672024367457
 40
11.35372582577224
 40
11.5025744229244
 40
11.61866495023303
 40
11.71329869152888
 40
11.82511050573921
 40
11.94464880845729
 40
12.06929242642519
 40
12.19707290435189
 40
12.32562632860541
 40
12.45034565331292
 40
12.56646595170341
 40
12.67099007414648
 40
12.76077625936796
 40
12.82703233506707
 40
12.87429132786006
 40
12.89831990323346
 40
12.92234847860034
 40
13.53984767410339
 40
14.18294284359379
 40
14.18294284359379
 40
14.18294284359379
 40
14.18294284359379
 10
177.3067935648021
 20
14.70898038201729
 30
0.0
 10
177.175201975855
 20
14.82265058603235
 30
0.0
 10
176.9124193802728
 20
15.04964496316159
 30
0.0
 10
176.3997393441021
 20
15.8921446295629
 30
0.0
 10
176.4106654595362
 20
15.53423377577024
 30
0.0
 10
176.4041226527991
 20
15.39267392272137
 30
0.0
 10
176.4028026631771
 20
15.19421305299286
 30
0.0
 10
176.4018117602537
 20
15.02150296045987
 30
0.0
 10
176.4024101751974
 20
14.87865373257584
 30
0.0
 10
176.4038994301883
 20
14.78265005413361
 30
0.0
 10
176.4055683588471
 20
14.67545503263144
 30
0.0
 10
176.4071934954618
 20
14.56164211517586
 30
0.0
 10
176.4092429501685
 20
14.44441572604592
 30
0.0
 10
176.4123165501927
 20
14.32656411232974
 30
0.0
 10
176.4156339697043
 20
14.21228087320625
 30
0.0
 10
176.419360534028
 20
14.10521401867281
 30
0.0
 10
176.4217338161424
 20
14.01007408766926
 30
0.0
 10
176.4278718888357
 20
13.92558557205699
 30
0.0
 10
176.4239784495946
 20
13.86923087298145
 30
0.0
 10
176.4455230443077
 20
13.79825022472357
 30
0.0
 10
176.3680940058617
 20
13.82902677604488
 30
0.0
 10
176.311635324019
 20
13.82011242517616
 30
0.0
 10
176.2540495896806
 20
13.82896218398277
 30
0.0
 10
176.1690163478472
 20
13.79738225225948
 30
0.0
 10
176.2009714146382
 20
13.88095155992194
 30
0.0
 10
176.1990705282539
 20
13.94882608968313
 30
0.0
 10
176.2107960047299
 20
14.05233256764422
 30
0.0
 10
176.2164241053
 20
14.17002125616699
 30
0.0
 10
176.2237902178941
 20
14.30388609164427
 30
0.0
 10
176.232075970161
 20
14.44764152872636
 30
0.0
 10
176.2398851897426
 20
14.5971402284345
 30
0.0
 10
176.2457571222657
 20
14.74792549402083
 30
0.0
 10
176.2503667817968
 20
14.89699943878442
 30
0.0
 10
176.2542632117541
 20
15.04122913163026
 30
0.0
 10
176.2570715126564
 20
15.17583905213021
 30
0.0
 10
176.2576698755022
 20
15.36469614347359
 30
0.0
 10
176.261602386715
 20
15.58975494313158
 30
0.0
 10
176.2442175378499
 20
15.86367091125712
 30
0.0
 10
176.2850417342582
 20
16.027871120986
 30
0.0
 10
176.1995153256003
 20
16.22749661465101
 30
0.0
 10
176.2660558907688
 20
16.22385458403982
 30
0.0
 10
176.283872427323
 20
16.22413447160858
 30
0.0
 10
176.4056801797507
 20
16.22632927398619
 30
0.0
 10
176.5080770335459
 20
15.94675118721513
 30
0.0
 10
176.7580021509357
 20
15.74563008536012
 30
0.0
 10
176.987003533111
 20
15.47792614987916
 30
0.0
 10
177.2245151213109
 20
15.22646413862385
 30
0.0
 10
177.4486090740771
 20
14.98969974061358
 30
0.0
 10
177.6750716283009
 20
14.73218692583085
 30
0.0
 10
177.8325687886514
 20
14.61649335056925
 30
0.0
 10
178.0472129612675
 20
14.27997152538798
 30
0.0
 10
178.0422645974618
 20
14.40464754091608
 30
0.0
 10
178.0433931602546
 20
14.46327691935741
 30
0.0
 10
178.0428877841517
 20
14.55043662371981
 30
0.0
 10
178.0430475158113
 20
14.64416143182877
 30
0.0
 10
178.0430054891318
 20
14.7301897129704
 30
0.0
 10
178.0430202040372
 20
14.791538919455
 30
0.0
 10
178.0429706255983
 20
14.94135231520997
 30
0.0
 10
178.045881152281
 20
15.17989612510108
 30
0.0
 10
178.0259521041162
 20
15.54486509868704
 30
0.0
 10
178.0750433936247
 20
15.80799631993419
 30
0.0
 10
177.9177951509179
 20
16.21928904947756
 30
0.0
 10
178.0762112872421
 20
16.16398282551754
 30
0.0
 10
178.1311680478628
 20
16.1619968650018
 30
0.0
 10
178.182788776674
 20
16.16264778248257
 30
0.0
 10
178.2713198965365
 20
16.2036952773825
 30
0.0
 10
178.2204898303169
 20
16.05696326622991
 30
0.0
 10
178.2313389930284
 20
15.95019971954437
 30
0.0
 10
178.2166036994846
 20
15.79085705414117
 30
0.0
 10
178.2099976446204
 20
15.62853061652878
 30
0.0
 10
178.2014961399914
 20
15.45992521892398
 30
0.0
 10
178.1943227202198
 20
15.29814814703544
 30
0.0
 10
178.1889063215388
 20
15.15422331457936
 30
0.0
 10
178.1871713967648
 20
15.03437493466929
 30
0.0
 10
178.1875440672319
 20
14.92686101590519
 30
0.0
 10
178.1873656126262
 20
14.8182002464559
 30
0.0
 10
178.187701086314
 20
14.69953570165535
 30
0.0
 10
178.1890040622183
 20
14.57555163512745
 30
0.0
 10
178.1908887351574
 20
14.44858294171109
 30
0.0
 10
178.192500445485
 20
14.32153861551036
 30
0.0
 10
178.194140313743
 20
14.19854884492182
 30
0.0
 10
178.1962570745752
 20
14.08300931383763
 30
0.0
 10
178.1963848422364
 20
13.98090903955841
 30
0.0
 10
178.2006514396554
 20
13.8900984883816
 30
0.0
 10
178.190844008529
 20
13.8321362120879
 30
0.0
 10
178.2118474771689
 20
13.76517130132032
 30
0.0
 10
178.1725639739897
 20
13.77291153966692
 30
0.0
 10
177.9595307117748
 20
13.75755254145197
 30
0.0
 10
177.7636297943184
 20
14.31403058094467
 30
0.0
 10
177.4611197631545
 20
14.57556035348513
 30
0.0
 10
177.3067935648021
 20
14.70898038201729
 30
0.0
 11
177.3067935648021
 21
14.70898038201729
 31
0.0
 11
176.859552933851
 21
15.18757635411981
 31
0.0
 11
176.4124049070643
 21
15.66352649288974
 31
0.0
 11
176.4089664262493
 21
15.55086249986237
 31
0.0
 11
176.40556101835
 21
15.40557538184315
 31
0.0
 11
176.4029636920274
 21
15.21465645827973
 31
0.0
 11
176.4021126156602
 21
14.96521170139762
 31
0.0
 11
176.4025239230288
 21
14.88439802954284
 31
0.0
 11
176.4038420329817
 21
14.78640628477565
 31
0.0
 11
176.4055192267718
 21
14.67713557299742
 31
0.0
 11
176.4072367127518
 21
14.56282454872043
 31
0.0
 11
176.4094007838772
 21
14.4449780296527
 31
0.0
 11
176.4124049070643
 21
14.32545802100204
 31
0.0
 11
176.4158359733138
 21
14.20933349846161
 31
0.0
 11
176.4192928929998
 21
14.10186746550234
 31
0.0
 11
176.4227085253088
 21
14.00510162351268
 31
0.0
 11
176.4261896983793
 21
13.92125406276976
 31
0.0
 11
176.4296006184313
 21
13.85632862007764
 31
0.0
 11
176.4330776843148
 21
13.81626739612931
 31
0.0
 11
176.3754263821571
 21
13.82145433189189
 31
0.0
 11
176.3126746318308
 21
13.82315538223865
 31
0.0
 11
176.2464251717157
 21
13.82145433189189
 31
0.0
 11
176.1853747739675
 21
13.81626739612931
 31
0.0
 11
176.1926772737812
 21
13.86531894125594
 31
0.0
 11
176.2008793569054
 21
13.94356725720859
 31
0.0
 11
176.2090098822348
 21
14.04551893253033
 31
0.0
 11
176.2163406441397
 21
14.16542920159756
 31
0.0
 11
176.2236358280421
 21
14.30005912343894
 31
0.0
 11
176.2318444255596
 21
14.44586107652749
 31
0.0
 11
176.2395504149465
 21
14.59715203135078
 31
0.0
 11
176.2455763002093
 21
14.74850913200739
 31
0.0
 11
176.2503046247415
 21
14.8981795139144
 31
0.0
 11
176.2541928972119
 21
15.04435739582226
 31
0.0
 11
176.2567527408965
 21
15.181118315927
 31
0.0
 11
176.2576324804574
 21
15.30230850686894
 31
0.0
 11
176.257192610677
 21
15.60939715262549
 31
0.0
 11
176.2559126888347
 21
15.86997204839369
 31
0.0
 11
176.2528658717892
 21
16.0771992271613
 31
0.0
 11
176.2473049112763
 21
16.22421385386066
 31
0.0
 11
176.2615728121469
 21
16.22421385386066
 31
0.0
 11
176.2880703423352
 21
16.22421385386066
 31
0.0
 11
176.3023382432058
 21
16.22421385386066
 31
0.0
 11
176.5194743650276
 21
15.98910179662777
 31
0.0
 11
176.7512744123079
 21
15.73751281231567
 31
0.0
 11
176.9894816018839
 21
15.47949555543575
 31
0.0
 11
177.2260074557521
 21
15.22497079855494
 31
0.0
 11
177.4555698717705
 21
14.97899759549141
 31
0.0
 11
177.6731797360103
 21
14.74678934034111
 31
0.0
 11
177.8713724913707
 21
14.53826680567104
 31
0.0
 11
178.0430143099086
 21
14.36326697932593
 31
0.0
 11
178.0430143099086
 21
14.38918210687047
 31
0.0
 11
178.0430143099086
 21
14.45601585685375
 31
0.0
 11
178.0430143099086
 21
14.54740078030029
 31
0.0
 11
178.0430143099086
 21
14.64696942823458
 31
0.0
 11
178.0430143099086
 21
14.73835435168111
 31
0.0
 11
178.0430143099086
 21
14.8051881016644
 31
0.0
 11
178.0430143099086
 21
14.83110322920894
 31
0.0
 11
178.0417233637609
 21
15.18755430550871
 31
0.0
 11
178.0378461155958
 21
15.53450684014419
 31
0.0
 11
178.0296197790001
 21
15.86693815950556
 31
0.0
 11
178.0154535467227
 21
16.17960510387184
 31
0.0
 11
178.0790351249618
 21
16.16666367158339
 31
0.0
 11
178.1324170159611
 21
16.16238072887612
 31
0.0
 11
178.1805381084833
 21
16.16666367158339
 31
0.0
 11
178.2424836798197
 21
16.17960510387184
 31
0.0
 11
178.2351216487575
 21
16.08498128445105
 31
0.0
 11
178.2269790968818
 21
15.95257496503969
 31
0.0
 11
178.2183705364003
 21
15.7960033678566
 31
0.0
 11
178.2097547223214
 21
15.62916593734273
 31
0.0
 11
178.2016187850288
 21
15.45890325509364
 31
0.0
 11
178.1942501393835
 21
15.29206031242704
 31
0.0
 11
178.1891406931522
 21
15.14329943572813
 31
0.0
 11
178.1874503478904
 21
15.02722121527106
 31
0.0
 11
178.1874503478904
 21
14.93258747397523
 31
0.0
 11
178.1874503478904
 21
14.82077565976711
 31
0.0
 11
178.1878461204497
 21
14.70123801222753
 31
0.0
 11
178.1890819450707
 21
14.57660052093924
 31
0.0
 11
178.1908392193317
 21
14.44883212687396
 31
0.0
 11
178.1925303477608
 21
14.32028982655884
 31
0.0
 11
178.1942876220214
 21
14.19558288214559
 31
0.0
 11
178.1959787504505
 21
14.07947489606353
 31
0.0
 11
178.1972884379172
 21
13.97495896727022
 31
0.0
 11
178.1976985420735
 21
13.88517371555656
 31
0.0
 11
178.1976985420735
 21
13.8189176391842
 31
0.0
 11
178.1976985420735
 21
13.77165864614045
 31
0.0
 11
178.1736699662976
 21
13.77165864614045
 31
0.0
 11
178.1496413905217
 21
13.77165864614045
 31
0.0
 11
177.7410729200422
 21
14.23466735262195
 31
0.0
 11
177.3067935648021
 21
14.70898038201729
 31
0.0
  0
SPLINE
  5
B2
102
{ACAD_REACTORS
330
CF
102
}
330
48
100
AcDbEntity
  8
_U_30EC_U_30A4_U_30E4_U_30FC_1
  6
Continuous
 62
     2
100
AcDbSpline
210
0.0
220
0.0
230
1.0
 70
    11
 71
     3
 72
    25
 73
    21
 74
    19
 42
0.000000001
 43
0.0000000001
 44
0.00000001
 40
0.0
 40
0.0
 40
0.0
 40
0.0
 40
0.0911479969064253
 40
0.1858117896204665
 40
0.2804128399734492
 40
0.3715889190714511
 40
0.4679080494218709
 40
0.5642683809229231
 40
0.6605683222644992
 40
0.7569653015810259
 40
0.8561348172522727
 40
1.092615965104289
 40
1.374867658141871
 40
1.611348812011592
 40
1.71051832842524
 40
1.809403163726555
 40
2.045205463294058
 40
2.326646917622115
 40
2.562449217190575
 40
2.661334043833893
 40
2.661334043833893
 40
2.661334043833893
 40
2.661334043833893
 10
173.2683700567199
 20
14.88614538197297
 30
0.0
 10
173.2987525917922
 20
14.88598079714559
 30
0.0
 10
173.3606895889111
 20
14.88564528689926
 30
0.0
 10
173.4541356960329
 20
14.88269055452005
 30
0.0
 10
173.5475095236357
 20
14.87977752877154
 30
0.0
 10
173.6417760753476
 20
14.87894201643421
 30
0.0
 10
173.7354964790967
 20
14.87996644658051
 30
0.0
 10
173.8352040303205
 20
14.87916977470975
 30
0.0
 10
173.9188949546312
 20
14.88921410235224
 30
0.0
 10
174.0637996315045
 20
14.8623461767417
 30
0.0
 10
173.9396132444801
 20
15.03665530280053
 30
0.0
 10
173.8965867286282
 20
15.19651711006096
 30
0.0
 10
173.780892214221
 20
15.4551845855022
 30
0.0
 10
173.7017565431256
 20
15.59231052861862
 30
0.0
 10
173.6431576621816
 20
15.80937033134081
 30
0.0
 10
173.5864803939437
 20
15.59266134213432
 30
0.0
 10
173.5052809900478
 20
15.45327012438241
 30
0.0
 10
173.4063701281488
 20
15.20406969370199
 30
0.0
 10
173.3253625094258
 20
15.01925830226078
 30
0.0
 10
173.2813683325838
 20
14.91650446856121
 30
0.0
 10
173.2683700567199
 20
14.88614538197297
 30
0.0
 11
173.2683700567199
 21
14.88614538197297
 31
0.0
 11
173.3595137737819
 21
14.88526123266764
 31
0.0
 11
173.4541428297581
 21
14.88269697919604
 31
0.0
 11
173.5487082179706
 21
14.88009965280782
 31
0.0
 11
173.6398803250196
 21
14.87924857641914
 31
0.0
 11
173.7361985777706
 21
14.87965978301625
 31
0.0
 11
173.8325499034376
 21
14.88097718752975
 31
0.0
 11
173.9288262638286
 21
14.88310818579317
 31
0.0
 11
174.0251753846343
 21
14.88614538197297
 31
0.0
 11
173.9854633323141
 21
14.97701642195025
 31
0.0
 11
173.8907653613968
 21
15.19370890189607
 31
0.0
 11
173.7777387509471
 21
15.45234186183139
 31
0.0
 11
173.6830407800297
 21
15.66903434177721
 31
0.0
 11
173.6433287277095
 21
15.75990538175449
 31
0.0
 11
173.6043330259266
 21
15.66903434177721
 31
0.0
 11
173.5113432755212
 21
15.45234186183139
 31
0.0
 11
173.4003555089082
 21
15.19370890189607
 31
0.0
 11
173.3073657585028
 21
14.97701642195025
 31
0.0
 11
173.2683700567199
 21
14.88614538197297
 31
0.0
  0
SPLINE
  5
B3
102
{ACAD_REACTORS
330
CF
102
}
330
48
100
AcDbEntity
  8
_U_30EC_U_30A4_U_30E4_U_30FC_1
  6
Continuous
 62
     2
100
AcDbSpline
210
0.0
220
0.0
230
1.0
 70
    11
 71
     3
 72
    57
 73
    53
 74
    51
 42
0.000000001
 43
0.0000000001
 44
0.00000001
 40
0.0
 40
0.0
 40
0.0
 40
0.0
 40
0.0471632082809513
 40
0.0914861054632997
 40
0.1357762519702948
 40
0.1826527001610674
 40
0.2295203288572583
 40
0.2737751972221605
 40
0.3181310461543344
 40
0.3652607198398499
 40
0.4571007286314538
 40
0.5671851029165266
 40
0.6894623283868286
 40
0.8181758272546055
 40
0.9510087229274119
 40
1.085852229674097
 40
1.218126164475325
 40
1.343545131142383
 40
1.454537202956856
 40
1.567187607530808
 40
1.680710966642427
 40
1.794226869736791
 40
1.900009184247591
 40
2.004085860447984
 40
2.108162674451787
 40
2.214000150155302
 40
2.496038577352134
 40
2.762350745479269
 40
2.997275353279417
 40
3.185110082137759
 40
3.2464078900639
 40
3.312607550212631
 40
3.378877742711561
 40
3.440140399651472
 40
4.100501696006533
 40
4.754913085563582
 40
5.411331693423956
 40
6.077890432568738
 40
6.110575292671017
 40
6.143260152775797
 40
6.367989363395222
 40
6.61052537495162
 40
6.863389136467364
 40
7.119380025547658
 40
7.37603660509115
 40
7.631164770966352
 40
7.876722425456473
 40
8.104953735856006
 40
8.31291668592436
 40
8.497730294941373
 40
8.651018984313922
 40
8.764738853624658
 40
8.764738853624658
 40
8.764738853624658
 40
8.764738853624658
 10
174.7922649500513
 20
13.81626739612931
 30
0.0
 10
174.7766616726931
 20
13.81826231079082
 30
0.0
 10
174.7463947960302
 20
13.82213201360303
 30
0.0
 10
174.7010994202251
 20
13.82341984967271
 30
0.0
 10
174.6559553129349
 20
13.82308683554053
 30
0.0
 10
174.6099017123399
 20
13.82314658674226
 30
0.0
 10
174.5640496172096
 20
13.82325813650004
 30
0.0
 10
174.5183711648164
 20
13.82277833456593
 30
0.0
 10
174.4750811541608
 20
13.82461109618725
 30
0.0
 10
174.4039947951513
 20
13.80049556814661
 30
0.0
 10
174.4057477261441
 20
13.92184693977257
 30
0.0
 10
174.3586196370569
 20
14.00726239751237
 30
0.0
 10
174.3191478251761
 20
14.12486929345139
 30
0.0
 10
174.2706635532645
 20
14.24232752540443
 30
0.0
 10
174.2201017402523
 20
14.36405935761516
 30
0.0
 10
174.1718634610475
 20
14.49075967862465
 30
0.0
 10
174.1135232947594
 20
14.59933687784958
 30
0.0
 10
174.0980892667261
 20
14.75620657134416
 30
0.0
 10
173.9566586330636
 20
14.72373446548326
 30
0.0
 10
173.8508397414903
 20
14.73512888682184
 30
0.0
 10
173.7358569725222
 20
14.73392591514619
 30
0.0
 10
173.625314225214
 20
14.73506945347411
 30
0.0
 10
173.5176583522783
 20
14.7341835003753
 30
0.0
 10
173.4121322529242
 20
14.73416602390523
 30
0.0
 10
173.3109192682012
 20
14.7271403247242
 30
0.0
 10
173.1266804827753
 20
14.7513585985987
 30
0.0
 10
173.1157393685411
 20
14.4474169112189
 30
0.0
 10
173.008769163475
 20
14.223531772534
 30
0.0
 10
172.9098148604346
 20
14.03895314292502
 30
0.0
 10
172.9225090524006
 20
13.79530204804212
 30
0.0
 10
172.8050091716397
 20
13.82508046753201
 30
0.0
 10
172.742205586831
 20
13.82258089509605
 30
0.0
 10
172.67858720934
 20
13.82344075102809
 30
0.0
 10
172.3946014194073
 20
13.78098039941951
 30
0.0
 10
173.0251638499382
 20
14.50081952444786
 30
0.0
 10
173.1087645289071
 20
15.01276539435732
 30
0.0
 10
173.4929252789339
 20
15.53353743550051
 30
0.0
 10
173.4777208288563
 20
16.23519626253216
 30
0.0
 10
173.7239265722696
 20
16.22345633081261
 30
0.0
 10
173.825634615756
 20
16.23225004452777
 30
0.0
 10
173.8249752035819
 20
15.98059650730353
 30
0.0
 10
173.9428317155827
 20
15.79818020733962
 30
0.0
 10
174.0315515260485
 20
15.55563740662869
 30
0.0
 10
174.1322292485259
 20
15.32340030530133
 30
0.0
 10
174.2311142712242
 20
15.08674644566915
 30
0.0
 10
174.3299676990669
 20
14.854617391701
 30
0.0
 10
174.4256166390925
 20
14.63122222788793
 30
0.0
 10
174.515990457327
 20
14.42272549049317
 30
0.0
 10
174.5989944568188
 20
14.23308448529324
 30
0.0
 10
174.6726088582799
 20
14.06663106068104
 30
0.0
 10
174.7342815895546
 20
13.92917699626102
 30
0.0
 10
174.7749458885604
 20
13.84999239430038
 30
0.0
 10
174.7922649500513
 20
13.81626739612931
 30
0.0
 11
174.7922649500513
 21
13.81626739612931
 31
0.0
 11
174.7453878317447
 21
13.82145433189189
 31
0.0
 11
174.7010975896124
 21
13.82315538223865
 31
0.0
 11
174.6568074431729
 21
13.82315538223865
 31
0.0
 11
174.6099309947159
 21
13.82315538223865
 31
0.0
 11
174.5630633657033
 21
13.82315538223865
 31
0.0
 11
174.5188084970407
 21
13.82315538223865
 31
0.0
 11
174.4744852776853
 21
13.82145433189189
 31
0.0
 11
174.4276419021443
 21
13.81626739612931
 31
0.0
 11
174.3992532136325
 21
13.90360966173249
 31
0.0
 11
174.3622721815898
 21
14.00729656274824
 31
0.0
 11
174.3188386236701
 21
14.12159987001131
 31
0.0
 11
174.2711055866936
 21
14.24113531268974
 31
0.0
 11
174.2208160133237
 21
14.36408057307569
 31
0.0
 11
174.1696467003931
 21
14.4888382292945
 31
0.0
 11
174.1197531801326
 21
14.61134141502776
 31
0.0
 11
174.0733119111841
 21
14.72784517367921
 31
0.0
 11
173.9623611907588
 21
14.7308746528451
 31
0.0
 11
173.8497309225089
 21
14.73300454867794
 31
0.0
 11
173.7362152069449
 21
14.73432195319144
 31
0.0
 11
173.62270004768
 21
14.73473315978856
 31
0.0
 11
173.5169185312816
 21
14.73432195319144
 31
0.0
 11
173.4128501919224
 21
14.73300454867794
 31
0.0
 11
173.3087951724045
 21
14.7308746528451
 31
0.0
 11
173.2030010615596
 21
14.72784517367921
 31
0.0
 11
173.0980914750139
 21
14.46604437513355
 31
0.0
 11
173.0034868690331
 21
14.21710232658465
 31
0.0
 11
172.9252231210298
 21
13.99559756969561
 31
0.0
 11
172.8693431224554
 21
13.81626739612931
 31
0.0
 11
172.8082651639442
 21
13.82145433189189
 31
0.0
 11
172.742087361813
 21
13.82315538223865
 31
0.0
 11
172.6758390041282
 21
13.82145433189189
 31
0.0
 11
172.6147963233937
 21
13.81626739612931
 31
0.0
 11
172.889968495193
 21
14.41656508695147
 31
0.0
 11
173.158294573417
 21
15.01343642360779
 31
0.0
 11
173.4240277350404
 21
15.61366245644385
 31
0.0
 11
173.6914740737032
 21
16.22421385386066
 31
0.0
 11
173.7241589339805
 21
16.22421385386066
 31
0.0
 11
173.7568437942578
 21
16.22421385386066
 31
0.0
 11
173.8428300681057
 21
16.01658539037088
 31
0.0
 11
173.9357285813609
 21
15.79254614563521
 31
0.0
 11
174.0328714521463
 21
15.55908663180473
 31
0.0
 11
174.1317936458031
 21
15.3229812846415
 31
0.0
 11
174.2315341249926
 21
15.08649780379788
 31
0.0
 11
174.3313071129353
 21
14.85168781253715
 31
0.0
 11
174.4280608257448
 21
14.62599492196854
 31
0.0
 11
174.5188084970407
 21
14.41658052097922
 31
0.0
 11
174.6022150834546
 21
14.22607611130464
 31
0.0
 11
174.6770293263377
 21
14.05708232662471
 31
0.0
 11
174.7410729186603
 21
13.91781337700672
 31
0.0
 11
174.7922649500513
 21
13.81626739612931
 31
0.0
  0
SPLINE
  5
B4
102
{ACAD_REACTORS
330
D0
102
}
330
48
100
AcDbEntity
  8
_U_30EC_U_30A4_U_30E4_U_30FC_1
  6
Continuous
 62
     2
100
AcDbSpline
210
0.0
220
0.0
230
1.0
 70
    11
 71
     3
 72
    99
 73
    95
 74
    93
 42
0.000000001
 43
0.0000000001
 44
0.00000001
 40
0.0
 40
0.0
 40
0.0
 40
0.0
 40
0.0796417172272296
 40
0.1621768542356055
 40
0.248648916095769
 40
0.3404969668524669
 40
0.4381912511164678
 40
0.5434463660244985
 40
0.6518115192847305
 40
0.7530190937886883
 40
0.8492196919724682
 40
0.941929031299819
 40
1.034249663569971
 40
1.129078600620166
 40
1.226697027573198
 40
1.327220425421666
 40
1.47057213493798
 40
1.59548986337118
 40
1.719934125348383
 40
1.850576620127441
 40
1.989059629987338
 40
2.134139054226957
 40
2.280698007207219
 40
2.424529739039433
 40
2.565929576985803
 40
2.708239260773495
 40
2.861717887443636
 40
3.045168540347341
 40
3.183798301138573
 40
3.314813961455414
 40
3.442083470447263
 40
3.569912708372929
 40
3.702177512509373
 40
3.842307559659561
 40
3.992872223245939
 40
4.156750662218271
 40
4.310981861107578
 40
4.445859909322623
 40
4.572393936131617
 40
4.70165671978201
 40
4.768279086008498
 40
4.835960697898443
 40
4.912788918729381
 40
5.006285208481614
 40
5.026909478751662
 40
5.04753374902117
 40
5.101808031471261
 40
5.162325165538542
 40
5.226919745995907
 40
5.294231806596779
 40
5.364544852554885
 40
5.438319055467906
 40
5.517877651324268
 40
5.607647714861637
 40
5.700449642544455
 40
5.788251142364131
 40
5.872714706039761
 40
5.955167292575279
 40
6.037192395190365
 40
6.120669181469101
 40
6.206848616686344
 40
6.296680855416753
 40
6.442558392872582
 40
6.568190371608271
 40
6.692904567360349
 40
6.824220446557129
 40
6.963121850329369
 40
7.107843738851155
 40
7.253431663907269
 40
7.395187468036688
 40
7.533140753237741
 40
7.670550457175226
 40
7.816236511769247
 40
7.987691657359206
 40
8.142277421969238
 40
8.293662615415005
 40
8.442962460879295
 40
8.591598316185305
 40
8.743678992361803
 40
8.903725323699165
 40
9.076307008890511
 40
9.265578604680567
 40
9.459203795360798
 40
9.617619810273528
 40
9.75360967136189
 40
9.87487330000406
 40
9.954520184977731
 40
10.0241641371924
 40
10.0976976440544
 40
10.18909955924967
 40
10.20974586420138
 40
10.23039218263383
 40
10.30057101881268
 40
10.37632012987548
 40
10.37632012987548
 40
10.37632012987548
 40
10.37632012987548
 10
170.1465954835851
 20
14.13795663215998
 30
0.0
 10
170.1632217851219
 20
14.11720608845317
 30
0.0
 10
170.1970784206577
 20
14.07495111711904
 30
0.0
 10
170.2599822541036
 20
14.02029811392077
 30
0.0
 10
170.3332500940393
 20
13.97299025121055
 30
0.0
 10
170.4175969238636
 20
13.93527231437938
 30
0.0
 10
170.5132240615459
 20
13.91040619731956
 30
0.0
 10
170.6171853775346
 20
13.90309559345941
 30
0.0
 10
170.7224020220405
 20
13.91142322794057
 30
0.0
 10
170.8206626371333
 20
13.9414917965153
 30
0.0
 10
170.9058986427547
 20
13.98848822971885
 30
0.0
 10
170.9779220206103
 20
14.04952991250856
 30
0.0
 10
171.0350917709094
 20
14.12412969578596
 30
0.0
 10
171.076786874744
 20
14.21002464660173
 30
0.0
 10
171.1026952846292
 20
14.30485850432217
 30
0.0
 10
171.1118037332653
 20
14.4185497903837
 30
0.0
 10
171.0986864796487
 20
14.54332587770783
 30
0.0
 10
171.0325330334414
 20
14.66014719171898
 30
0.0
 10
170.9369370919568
 20
14.74512539577378
 30
0.0
 10
170.8249681022368
 20
14.81416684459162
 30
0.0
 10
170.6993659583268
 20
14.87204142045896
 30
0.0
 10
170.5656691620856
 20
14.92373723284345
 30
0.0
 10
170.431312281883
 20
14.97899092397185
 30
0.0
 10
170.3051983986876
 20
15.04939770641654
 30
0.0
 10
170.1926579987536
 20
15.13785540731254
 30
0.0
 10
170.0969963064457
 20
15.24981067868477
 30
0.0
 10
170.0334157151825
 20
15.39949910101385
 30
0.0
 10
170.0200706505016
 20
15.55932794385146
 30
0.0
 10
170.0320510987448
 20
15.71048405306849
 30
0.0
 10
170.071229892884
 20
15.83809244591543
 30
0.0
 10
170.135498775091
 20
15.95080874030848
 30
0.0
 10
170.2238204999739
 20
16.04648609268693
 30
0.0
 10
170.3338091207627
 20
16.12354214985757
 30
0.0
 10
170.4632284401265
 20
16.1815139693628
 30
0.0
 10
170.6111838967792
 20
16.21739177588827
 30
0.0
 10
170.7682069455486
 20
16.22746719050568
 30
0.0
 10
170.917494046643
 20
16.21863637762594
 30
0.0
 10
171.059625361417
 20
16.19074899340357
 30
0.0
 10
171.1595922609625
 20
16.13413314701141
 30
0.0
 10
171.3125074736186
 20
16.08674602105512
 30
0.0
 10
171.2455131717168
 20
16.00197553001189
 30
0.0
 10
171.2296479120269
 20
15.93438901873489
 30
0.0
 10
171.1978750531296
 20
15.86926092793194
 30
0.0
 10
171.2150202209571
 20
15.76723453256956
 30
0.0
 10
171.1666427208231
 20
15.77493211681904
 30
0.0
 10
171.1315789440765
 20
15.76806771724812
 30
0.0
 10
171.1296697985718
 20
15.832638311582
 30
0.0
 10
171.0985692931989
 20
15.87825639621402
 30
0.0
 10
171.0664551628454
 20
15.93561036628456
 30
0.0
 10
171.0208038475167
 20
15.98540462692561
 30
0.0
 10
170.9658508218386
 20
16.02994813719
 30
0.0
 10
170.9010841173007
 20
16.06763988836556
 30
0.0
 10
170.8232377310596
 20
16.09283375791356
 30
0.0
 10
170.7355160553352
 20
16.09931230998115
 30
0.0
 10
170.6452903277806
 20
16.09235709285612
 30
0.0
 10
170.5594594694065
 20
16.06909190460924
 30
0.0
 10
170.4828343638596
 20
16.0313164410755
 30
0.0
 10
170.4165265636201
 20
15.98051641089577
 30
0.0
 10
170.3622560536963
 20
15.91731143407215
 30
0.0
 10
170.3224925345459
 20
15.84276455710371
 30
0.0
 10
170.2976775510588
 20
15.75917313997767
 30
0.0
 10
170.289212426287
 20
15.65192948382289
 30
0.0
 10
170.3019697987103
 20
15.52965457267563
 30
0.0
 10
170.3681548409273
 20
15.41149724291216
 30
0.0
 10
170.4640977399832
 20
15.32606325709532
 30
0.0
 10
170.5757914963182
 20
15.25583362306726
 30
0.0
 10
170.7010863668702
 20
15.19659162305307
 30
0.0
 10
170.8349823941447
 20
15.14616708086136
 30
0.0
 10
170.9689930333149
 20
15.09322516984385
 30
0.0
 10
171.0950885316915
 20
15.0275017062518
 30
0.0
 10
171.2076216638417
 20
14.94480352537326
 30
0.0
 10
171.3031370284233
 20
14.83996006310079
 30
0.0
 10
171.3672706486962
 20
14.69937117251574
 30
0.0
 10
171.3811103725278
 20
14.54065409451597
 30
0.0
 10
171.367395471223
 20
14.3815315521788
 30
0.0
 10
171.3244739153985
 20
14.23483828819213
 30
0.0
 10
171.2545906329065
 20
14.1011979658715
 30
0.0
 10
171.1574592213829
 20
13.98532387699293
 30
0.0
 10
171.0347806023657
 20
13.89089981770095
 30
0.0
 10
170.8874408413168
 20
13.82179270651983
 30
0.0
 10
170.7177132497124
 20
13.77953210858858
 30
0.0
 10
170.5317404979597
 20
13.76781736230411
 30
0.0
 10
170.3528955926182
 20
13.7780948668344
 30
0.0
 10
170.1881733753743
 20
13.81966573769158
 30
0.0
 10
170.0834410841057
 20
13.88797642883946
 30
0.0
 10
169.9350960790366
 20
13.93675219032108
 30
0.0
 10
169.9980378194728
 20
14.02976591290846
 30
0.0
 10
170.0072274430058
 20
14.10296536248284
 30
0.0
 10
170.0303711301232
 20
14.16936294501349
 30
0.0
 10
170.0034588335315
 20
14.26974809527587
 30
0.0
 10
170.0521338956339
 20
14.26234033517382
 30
0.0
 10
170.0916530580696
 20
14.26894063620898
 30
0.0
 10
170.0996204944702
 20
14.19078703218936
 30
0.0
 10
170.1305436967923
 20
14.15600927375861
 30
0.0
 10
170.1465954835851
 20
14.13795663215998
 30
0.0
 11
170.1465954835851
 21
14.13795663215998
 31
0.0
 11
170.1982038075863
 21
14.0772986981474
 31
0.0
 11
170.2601105501335
 21
14.02271295163324
 31
0.0
 11
170.3327764009802
 21
13.97583980928387
 31
0.0
 11
170.4166468655843
 21
13.93839906276541
 31
0.0
 11
170.511221073241
 21
13.91390636311882
 31
0.0
 11
170.6161603327165
 21
13.90575829888476
 31
0.0
 11
170.7240739497552
 21
13.91564048638227
 31
0.0
 11
170.8208419941616
 21
13.94528704887486
 31
0.0
 11
170.9050776083318
 21
13.99175118948823
 31
0.0
 11
170.9756144207686
 21
14.05191413218155
 31
0.0
 11
171.0319442109979
 21
14.12505819466324
 31
0.0
 11
171.0736690016003
 21
14.21021434047526
 31
0.0
 11
171.0994680808031
 21
14.30436190989617
 31
0.0
 11
171.1080824729446
 21
14.40451552098224
 31
0.0
 11
171.0878517703357
 21
14.54643250879401
 31
0.0
 11
171.0272522666731
 21
14.65566684036391
 31
0.0
 11
170.9364971286285
 21
14.74081306430099
 31
0.0
 11
170.8260101884739
 21
14.81052746532519
 31
0.0
 11
170.7008523531253
 21
14.86979854169927
 31
0.0
 11
170.5662951950997
 21
14.92404253474125
 31
0.0
 11
170.4316884277006
 21
14.98201274306009
 31
0.0
 11
170.3065802017258
 21
15.05297399304236
 31
0.0
 11
170.196027609828
 21
15.14113315968699
 31
0.0
 11
170.1053381235265
 21
15.25080295132621
 31
0.0
 11
170.0447055469483
 21
15.39179720476319
 31
0.0
 11
170.0245079172553
 21
15.57413260402318
 31
0.0
 11
170.0374030471347
 21
15.71216131926645
 31
0.0
 11
170.076101665939
 21
15.83733128451293
 31
0.0
 11
170.1393141731506
 21
15.94779262129087
 31
0.0
 11
170.2257499954544
 21
16.04196885390626
 31
0.0
 11
170.3336492808962
 21
16.11846540770655
 31
0.0
 11
170.4613526283328
 21
16.17615670109491
 31
0.0
 11
170.6075393259922
 21
16.21220066809978
 31
0.0
 11
170.7709768565449
 21
16.22421385386066
 31
0.0
 11
170.9248918431289
 21
16.21434269066868
 31
0.0
 11
171.0564887242607
 21
16.18477329831501
 31
0.0
 11
171.172563634494
 21
16.13439993895256
 31
0.0
 11
171.2800792741122
 21
16.06264163167882
 31
0.0
 11
171.2516994050444
 21
16.00236624106891
 31
0.0
 11
171.2284855254283
 21
15.93879017337652
 31
0.0
 11
171.20783810408
 21
15.86478841992273
 31
0.0
 11
171.1871840681486
 21
15.7736019789733
 31
0.0
 11
171.1665597978414
 21
15.7736019789733
 31
0.0
 11
171.1459355275343
 21
15.7736019789733
 31
0.0
 11
171.1256706495791
 21
15.82395108486351
 31
0.0
 11
171.0994658759421
 21
15.87850045116933
 31
0.0
 11
171.065046892445
 21
15.93316116296119
 31
0.0
 11
171.0203554612936
 21
15.98349593725415
 31
0.0
 11
170.965733335951
 21
16.02777175321533
 31
0.0
 11
170.9016722004326
 21
16.06436142334505
 31
0.0
 11
170.825968296114
 21
16.08882545979731
 31
0.0
 11
170.7365722046448
 21
16.09701100667026
 31
0.0
 11
170.6440937174207
 21
16.08926973931106
 31
0.0
 11
170.5594072091645
 21
16.0660900344557
 31
0.0
 11
170.483702448884
 21
16.02863495634013
 31
0.0
 11
170.4183754766516
 21
15.97832774281106
 31
0.0
 11
170.3650487887664
 21
15.91600293379884
 31
0.0
 11
170.3254809233901
 21
15.84249947895611
 31
0.0
 11
170.3009523754711
 21
15.75988443557395
 31
0.0
 11
170.2927954104108
 21
15.67042329844357
 31
0.0
 11
170.3130095765617
 21
15.52595308146578
 31
0.0
 11
170.373625616682
 21
15.41591177072941
 31
0.0
 11
170.4643479320758
 21
15.33033670130636
 31
0.0
 11
170.5748676948813
 21
15.25941954854629
 31
0.0
 11
170.7000089937719
 21
15.19914305550583
 31
0.0
 11
170.8345826882553
 21
15.14590447913025
 31
0.0
 11
170.9691729191968
 21
15.09039489581077
 31
0.0
 11
171.0942976816297
 21
15.02377281249414
 31
0.0
 11
171.204800907977
 21
14.94118863716754
 31
0.0
 11
171.2955397598288
 21
14.83800003476277
 31
0.0
 11
171.3561557999489
 21
14.70552315979589
 31
0.0
 11
171.3763699660998
 21
14.53526378483844
 31
0.0
 11
171.3621839747998
 21
14.38133030397417
 31
0.0
 11
171.3196087009193
 21
14.23605531269102
 31
0.0
 11
171.2499752884264
 21
14.10398854189072
 31
0.0
 11
171.1544992078713
 21
13.99007218775252
 31
0.0
 11
171.0341060772624
 21
13.89715272597022
 31
0.0
 11
170.8896160201846
 21
13.82832357668184
 31
0.0
 11
170.7223519532713
 21
13.78581275203971
 31
0.0
 11
170.5336103348226
 21
13.77165864614045
 31
0.0
 11
170.3405031726387
 21
13.78581275203971
 31
0.0
 11
170.1878975900911
 21
13.82832357668184
 31
0.0
 11
170.0661897942203
 21
13.88899033013894
 31
0.0
 11
169.9660261826363
 21
13.95734322942741
 31
0.0
 11
169.9922320587038
 21
14.0325554516308
 31
0.0
 11
170.0090121537617
 21
14.10014767383616
 31
0.0
 11
170.0206196447851
 21
14.17275926235965
 31
0.0
 11
170.0313606254138
 21
14.26352788212863
 31
0.0
 11
170.0520069443315
 21
14.26352788212863
 31
0.0
 11
170.0726532632492
 21
14.26352788212863
 31
0.0
 11
170.1048916391629
 21
14.20119204881088
 31
0.0
 11
170.1465954835851
 21
14.13795663215998
 31
0.0
  0
LWPOLYLINE
  5
B5
102
{ACAD_REACTORS
330
C2
102
}
330
48
100
AcDbEntity
  8
_U_30EC_U_30A4_U_30E4_U_30FC_1
  6
Continuous
 62
     2
100
AcDbPolyline
 90
        5
 70
     1
 43
0.0
 10
192.4578138032672
 20
15.3972233679563
 10
192.4578138032672
 20
15.22875434022062
 10
191.1602971697031
 20
15.22875434022062
 10
191.1602971697031
 20
15.3972233679563
 10
192.4578138032672
 20
15.3972233679563
  0
MTEXT
  5
B7
330
48
100
AcDbEntity
  8
1
 62
     2
100
AcDbMText
 10
32.50000000000001
 20
282.0000000000003
 30
0.0
 40
5.0
 41
0.0
 71
     5
 72
     1
  1
図番
  7
CONVERTER_11
 73
     1
 44
0.45454545454545
  0
MTEXT
  5
B8
330
48
100
AcDbEntity
  8
1
 62
     2
100
AcDbMText
 10
28.99999999999992
 20
34.00000000000004
 30
0.0
 40
3.5
 41
0.0
 71
     5
 72
     1
  1
備考
  7
CONVERTER_11
 73
     1
 44
0.45454545454545
  0
MTEXT
  5
B9
330
48
100
AcDbEntity
  8
1
 62
     2
100
AcDbMText
 10
28.99999999999992
 20
22.75000000000004
 30
0.0
 40
3.5
 41
0.0
 71
     5
 72
     1
  1
品名
  7
CONVERTER_11
 73
     1
 44
0.72727272727273
  0
MTEXT
  5
BA
330
48
100
AcDbEntity
  8
1
 62
     2
100
AcDbMText
 10
28.99999999999992
 20
14.25000000000004
 30
0.0
 40
3.5
 41
0.0
 71
     5
 72
     1
  1
品番
  7
CONVERTER_11
 73
     1
 44
0.72727272727273
  0
MTEXT
  5
BB
330
48
100
AcDbEntity
  8
1
 62
     2
100
AcDbMText
 10
101.5
 20
25.00000000000006
 30
0.0
 40
3.0
 41
0.0
 71
     5
 72
     1
  1
承認
  7
CONVERTER_11
 73
     1
 44
0.59090909090909
  0
MTEXT
  5
BC
330
48
100
AcDbEntity
  8
1
 62
     2
100
AcDbMText
 10
175.0
 20
23.50000000000006
 30
0.0
 40
3.5
 41
0.0
 71
     5
 72
     1
  1
第三角法
  7
CONVERTER_11
 73
     1
 44
0.54545454545455
  0
MTEXT
  5
BD
330
48
100
AcDbEntity
  8
1
 62
     2
100
AcDbMText
 10
118.5
 20
25.00000000000006
 30
0.0
 40
3.0
 41
0.0
 71
     5
 72
     1
  1
検図
  7
CONVERTER_11
 73
     1
 44
0.59090909090909
  0
MTEXT
  5
BE
330
48
100
AcDbEntity
  8
1
 62
     2
100
AcDbMText
 10
152.5
 20
25.00000000000006
 30
0.0
 40
3.0
 41
0.0
 71
     5
 72
     1
  1
設計
  7
CONVERTER_11
 73
     1
 44
0.59090909090909
  0
MTEXT
  5
BF
330
48
100
AcDbEntity
  8
1
 62
     2
100
AcDbMText
 10
135.5
 20
25.00000000000006
 30
0.0
 40
3.0
 41
0.0
 71
     5
 72
     1
  1
製図
  7
CONVERTER_11
 73
     1
 44
0.59090909090909
  0
MTEXT
  5
C0
330
48
100
AcDbEntity
  8
1
 62
     2
100
AcDbMText
 10
89.49999999999997
 20
24.00000000000006
 30
0.0
 40
3.5
 41
0.0
 71
     5
 72
     1
  1
尺度
  7
CONVERTER_11
 73
     1
 44
0.54545454545455
  0
MTEXT
  5
C1
330
48
100
AcDbEntity
  8
1
 62
   250
100
AcDbMText
 10
25.0
 20
5.0
 30
0.0
 40
3.5
 41
0.0
 71
     4
 72
     1
  1
備考欄の文字列 原点位置=4
  7
CONVERTER_11
 73
     1
 44
0.54545454545455
  0
HATCH
  5
C2
330
48
100
AcDbEntity
  8
1
  6
Continuous
 62
     2
100
AcDbHatch
 10
0.0
 20
0.0
 30
0.0
210
0.0
220
0.0
230
1.0
  2
CUSTOM0
 70
     0
 71
     1
 91
        1
 92
        1
 93
        4
 72
     1
 10
192.4578138032672
 20
15.3972233679563
 11
192.4578138032672
 21
15.22875434022062
 72
     1
 10
192.4578138032672
 20
15.22875434022062
 11
191.1602971697031
 21
15.22875434022062
 72
     1
 10
191.1602971697031
 20
15.22875434022062
 11
191.1602971697031
 21
15.3972233679563
 72
     1
 10
191.1602971697031
 20
15.3972233679563
 11
192.4578138032672
 21
15.3972233679563
 97
        1
330
B5
 75
     1
 76
     2
 52
45.0
 41
0.1
 77
     0
 78
     1
 53
45.0
 43
0.0
 44
0.0
 45
-0.282842712474619
 46
0.0
 79
     0
 98
        1
 10
0.0
 20
0.0
  0
HATCH
  5
C3
330
48
100
AcDbEntity
  8
1
  6
Continuous
 62
     2
100
AcDbHatch
 10
0.0
 20
0.0
 30
0.0
210
0.0
220
0.0
230
1.0
  2
CUSTOM1
 70
     0
 71
     1
 91
        1
 92
        1
 93
        3
 72
     4
 94
        3
 73
     0
 74
     0
 95
       24
 96
       20
 40
0.0
 40
0.0
 40
0.0
 40
0.0
 40
0.2211075008753711
 40
0.4273218586245531
 40
0.5080174679239078
 40
0.5914835907869633
 40
0.814326569019223
 40
1.054651302686539
 40
1.295452694023127
 40
1.518109231328776
 40
1.540864321905391
 40
1.595126460622651
 40
1.659890947895964
 40
1.714153085187322
 40
1.736908174961622
 40
1.764951100735312
 40
1.8015622912209
 40
1.953914424543596
 40
2.126104167379664
 40
2.126104167379664
 40
2.126104167379664
 40
2.126104167379664
 10
185.9375369556888
 20
15.58989295113021
 10
185.9112579081811
 20
15.53097628234378
 10
185.8604698894426
 20
15.41711139679259
 10
185.813178483911
 20
15.14441958233117
 10
185.7043482802618
 20
15.24445482575459
 10
185.5514800279637
 20
15.27118593367334
 10
185.7686155181198
 20
15.48518135017636
 10
185.7838483674381
 20
15.70332117782491
 10
185.8906889492
 20
15.8845157906643
 10
185.8305380947079
 20
16.16913226311407
 10
185.9334317395401
 20
16.14114089222454
 10
185.9779933468149
 20
16.13243251602304
 10
186.0380842395397
 20
16.12139654183359
 10
186.0756619587438
 20
16.10767523055565
 10
186.1252466928606
 20
16.10756076160227
 10
186.0930158919325
 20
16.07306592398628
 10
186.0171802221881
 20
16.0840410453797
 10
186.0429447159692
 20
15.89858969582454
 10
186.005589676385
 20
15.80702313549594
 10
185.9857704961609
 20
15.75844135397709
 72
     4
 94
        3
 73
     0
 74
     0
 95
       70
 96
       66
 40
0.0
 40
0.0
 40
0.0
 40
0.0
 40
0.0241731073021188
 40
0.0846058988987013
 40
0.1631685280352715
 40
0.2417311571788903
 40
0.3021639488291614
 40
0.3263370654894688
 40
0.3533118254248028
 40
0.4228783438921241
 40
0.517999909531255
 40
0.6216398239465232
 40
0.7167613891498835
 40
0.7863279069648993
 40
0.8133026791760966
 40
0.8372943998771086
 40
0.8945054261372282
 40
0.9627895541962332
 40
1.020000580349043
 40
1.04399230097517
 40
1.071934345522915
 40
1.113121768772901
 40
1.145225199332226
 40
1.225483775412761
 40
1.329819923771469
 40
1.434156071994359
 40
1.514414647795779
 40
1.546518078208386
 40
1.57897476426016
 40
1.662678849314155
 40
1.777131373668375
 40
1.901833377474766
 40
2.016285900500556
 40
2.099989982527923
 40
2.132446666570282
 40
2.158782354486006
 40
2.216720867907796
 40
2.27465938133422
 40
2.300995069256154
 40
2.333451754066126
 40
2.417155836543806
 40
2.531608358985246
 40
2.656310362283741
 40
2.770762886388873
 40
2.854466971340039
 40
2.886923657363845
 40
2.913597976833279
 40
2.982389642875081
 40
3.076451716946942
 40
3.178937260458556
 40
3.272999334739958
 40
3.341791001059179
 40
3.36846532066349
 40
3.396976080738711
 40
3.472140811845947
 40
3.578408190308636
 40
3.700226892456044
 40
3.822045594634262
 40
3.92831297325634
 40
4.003477705314709
 40
4.031988456866775
 40
4.058324144797575
 40
4.116262658236734
 40
4.174201171400534
 40
4.200536849608466
 40
4.200536849608466
 40
4.200536849608466
 40
4.200536849608466
 10
185.9857704961609
 20
15.75844135397709
 10
185.9938259544679
 20
15.75844359811691
 10
186.0220200663241
 20
15.75845146032801
 10
186.0765534803672
 20
15.75830754828375
 10
186.1482891808603
 20
15.75909120499902
 10
186.2236240137062
 20
15.75627570463815
 10
186.2713052366438
 20
15.76298403400962
 10
186.3195071245615
 20
15.75197563692435
 10
186.3062571799873
 20
15.80546402997037
 10
186.3151093964537
 20
15.86049583543095
 10
186.3108698036285
 20
15.95419908726113
 10
186.3133483481279
 20
16.04959482218536
 10
186.3090938706059
 20
16.14356821983391
 10
186.3179818665846
 20
16.19795062438016
 10
186.3046977409944
 20
16.25233997691465
 10
186.3514119277108
 20
16.23842216335361
 10
186.3943254545736
 20
16.24103877374047
 10
186.4605443456685
 20
16.23648422450759
 10
186.5013342271797
 20
16.22778162134166
 10
186.5525145690819
 20
16.23531799890199
 10
186.52537204872
 20
16.19349970223292
 10
186.4803096055706
 20
16.20284992072598
 10
186.4942065045051
 20
16.13841207371841
 10
186.4858414431653
 20
16.07378219627402
 10
186.4903632178398
 20
15.97529141193891
 10
186.4854741311167
 20
15.87595932842575
 10
186.4950258992082
 20
15.81293115552972
 10
186.47997614552
 20
15.74964011499793
 10
186.5449159457208
 20
15.76515072944273
 10
186.6116246399497
 20
15.75499387697816
 10
186.7241435470827
 20
15.75988800099371
 10
186.8390235448954
 20
15.75691204732788
 10
186.9519871999746
 20
15.76221664184995
 10
187.0176267597678
 20
15.75107306472093
 10
187.0816276691053
 20
15.76744532319861
 10
187.0703142889189
 20
15.71761689905278
 10
187.077533987151
 20
15.67416715212127
 10
187.0703142611269
 20
15.63071745587449
 10
187.0816277175994
 20
15.58088895196881
 10
187.0176263598971
 20
15.59726166091366
 10
186.951992124046
 20
15.58611271661592
 10
186.838997431733
 20
15.59144857206858
 10
186.7242456548644
 20
15.58834345663826
 10
186.611318368686
 20
15.59364894682592
 10
186.5455220903585
 20
15.58257300019597
 10
186.4816097975358
 20
15.59887597847622
 10
186.4936015165126
 20
15.54423524395745
 10
186.4862104613006
 20
15.48854295047846
 10
186.4892684841983
 20
15.39649689140574
 10
186.4893422785683
 20
15.30179109873106
 10
186.4860313578359
 20
15.2095278290227
 10
186.4939505989903
 20
15.15435768736143
 10
186.4815076611617
 20
15.10058169100141
 10
186.5389116551632
 20
15.11453768862786
 10
186.5994708140382
 20
15.10511457884231
 10
186.7048680855081
 20
15.10942885928709
 10
186.8204294070622
 20
15.10835504612036
 10
186.9359688877797
 20
15.10725965901
 10
187.041418113084
 20
15.11162525770637
 10
187.1018680471803
 20
15.10209426030675
 10
187.1592837739109
 20
15.11617289606384
 10
187.1477773876709
 20
15.06707153265688
 10
187.1537566781748
 20
15.02564658018653
 10
187.1520311050801
 20
14.976516779667
 10
187.152150012297
 20
14.94854428447613
 10
187.1521871691832
 20
14.93980288195955
 72
     4
 94
        3
 73
     0
 74
     0
 95
       62
 96
       58
 40
0.0
 40
0.0
 40
0.0
 40
0.0
 40
0.0598250028308485
 40
0.2024846486897047
 40
0.3727558389220178
 40
0.5154154847935217
 40
0.5752404975784486
 40
0.9332326775486394
 40
1.290451762839396
 40
1.602077253145799
 40
1.699931634112051
 40
1.799359756424971
 40
2.270120149657013
 40
2.804661928461471
 40
2.882342287383182
 40
3.07654318571903
 40
3.32900435483549
 40
3.581465524568316
 40
3.775666424543596
 40
3.853346784558216
 40
3.89912067959499
 40
3.984129341792016
 40
4.029903236817393
 40
4.105797496059548
 40
4.295533144152506
 40
4.542189486611747
 40
4.788845828875692
 40
4.978581476410074
 40
5.054475735244317
 40
5.621734664339304
 40
6.130867242037294
 40
6.225249780948539
 40
6.318913039727239
 40
6.663579954558814
 40
7.047498900224662
 40
7.435230791575585
 40
7.498943906667969
 40
7.650875181209963
 40
7.832212509001416
 40
7.984143783696802
 40
8.047856898902928
 40
8.091554632732434
 40
8.172707566964093
 40
8.216405300767814
 40
8.28902178216067
 40
8.462184160756987
 40
8.668861838005153
 40
8.84202421526366
 40
8.914640695474855
 40
8.98988158086106
 40
9.155411528826964
 40
9.320941477743743
 40
9.396182352486994
 40
9.454709011143512
 40
9.583467660170504
 40
9.712226309012726
 40
9.770752957989208
 40
9.770752957989208
 40
9.770752957989208
 40
9.770752957989208
 10
187.1521871691832
 20
14.93980288195955
 10
187.1322348171623
 20
14.93980875568677
 10
187.0647037716464
 20
14.93982863806163
 10
186.9410612161788
 20
14.93949362520331
 10
186.7863180150056
 20
14.94107673750516
 10
186.669734948248
 20
14.936860788605
 10
186.455094263424
 20
14.95215205331631
 10
186.8518948407229
 20
14.59198721286197
 10
186.8945656069267
 20
14.37510503397171
 10
187.3189162146611
 20
14.19325062511449
 10
187.1439821496074
 20
14.08985196568077
 10
187.0194523925084
 20
13.87831523212727
 10
186.7666277235942
 20
14.34806081001567
 10
186.4797602893627
 20
14.99511516984524
 10
186.490633592666
 20
14.68782672154699
 10
186.4882892777959
 20
14.52288616971782
 10
186.4861096126411
 20
14.28879670711698
 10
186.4980774396346
 20
14.04498072421788
 10
186.4687984740631
 20
13.89855796860989
 10
186.5114522625469
 20
13.75113490174542
 10
186.4239814005639
 20
13.76685797306226
 10
186.3768527606744
 20
13.76694303543459
 10
186.2898973207712
 20
13.75109425482914
 10
186.3313474021722
 20
13.89527771422767
 10
186.3029875004284
 20
14.0385505269846
 10
186.3145973775299
 20
14.27674947365269
 10
186.312417564827
 20
14.5051723524035
 10
186.3103111127993
 20
14.66705729375999
 10
186.3208035438321
 20
14.98153709333754
 10
186.0128963252893
 20
14.29229470872439
 10
185.7055258267455
 20
13.81476750243058
 10
185.5851367066274
 20
14.03741112637431
 10
185.4074607910722
 20
14.15011034955571
 10
185.8853326362894
 20
14.32548143465467
 10
185.9353959057207
 20
14.56091929252033
 10
186.3583799621716
 20
14.95322989344611
 10
186.127675427354
 20
14.93655307029071
 10
186.0049685859341
 20
14.94269518948775
 10
185.8325483095661
 20
14.93312822699579
 10
185.7213224694448
 20
14.95448818489671
 10
185.6025779627448
 20
14.92136265357425
 10
185.6183169706686
 20
15.00203900606889
 10
185.6178550933763
 20
15.04645414290859
 10
185.6027881889931
 20
15.12967081778537
 10
185.7372380935442
 20
15.09062651983889
 10
185.8619755545746
 20
15.11739729328426
 10
186.0628755237279
 20
15.10063949044057
 10
186.1921540949353
 20
15.12204225913008
 10
186.3328419928294
 20
15.08868778853425
 10
186.2980927452614
 20
15.22651875785072
 10
186.3222185666712
 20
15.34963257349485
 10
186.2967086182392
 20
15.47024055670339
 10
186.3333251146684
 20
15.60539865141498
 10
186.2211417027769
 20
15.58094545781895
 10
186.1280356457135
 20
15.59307749842026
 10
186.0191547579819
 20
15.58957630069997
 10
185.9569697640963
 20
15.58981755951606
 10
185.9375369557245
 20
15.58989295124148
 97
        3
330
A6
330
A4
330
A5
 75
     1
 76
     2
 52
45.0
 41
0.1
 77
     0
 78
     1
 53
45.0
 43
0.0
 44
0.0
 45
-0.282842712474619
 46
0.0
 79
     0
 98
        1
 10
0.0
 20
0.0
  0
HATCH
  5
C4
330
48
100
AcDbEntity
  8
1
  6
Continuous
 62
     2
100
AcDbHatch
 10
0.0
 20
0.0
 30
0.0
210
0.0
220
0.0
230
1.0
  2
CUSTOM2
 70
     0
 71
     1
 91
        1
 92
        1
 93
        1
 72
     4
 94
        3
 73
     0
 74
     0
 95
      124
 96
      120
 40
0.0
 40
0.0
 40
0.0
 40
0.0
 40
0.027818722962451
 40
0.1011590162384269
 40
0.2048470170590239
 40
0.3237088716559245
 40
0.4425707262522
 40
0.5462587270699547
 40
0.6195990203311798
 40
0.647417752257866
 40
0.6750060736115242
 40
0.7357003855242812
 40
0.7963946998054545
 40
0.8239830245571873
 40
0.8540933811102966
 40
0.9373396629409647
 40
1.063094687343246
 40
1.220731268638112
 40
1.399622220914787
 40
1.589140358637828
 40
1.778658496423966
 40
1.957549448940633
 40
2.115186030873255
 40
2.240941056914559
 40
2.324187341760656
 40
2.354297700109506
 40
2.381886024672014
 40
2.442580338710605
 40
2.503274652750634
 40
2.530862977314741
 40
2.560983949278694
 40
2.640393784453068
 40
2.752662861759291
 40
2.881361560118337
 40
3.010060258455383
 40
3.122329335705559
 40
3.201739170818201
 40
3.231860142753562
 40
3.264298024030617
 40
3.35234370177849
 40
3.482095226869011
 40
3.63965065017327
 40
3.811108022565727
 40
3.982565394928232
 40
4.140120818152814
 40
4.269872343141524
 40
4.357918020802585
 40
4.390355902044214
 40
4.423256253992812
 40
4.508104530073333
 40
4.624121560637101
 40
4.750528176031886
 40
4.866545206602333
 40
4.951393482692318
 40
4.98429383464572
 40
5.011450833242637
 40
5.071196230152421
 40
5.130941627057497
 40
5.158098625649163
 40
5.190998977601825
 40
5.275847253689707
 40
5.39186428425717
 40
5.518270899648686
 40
5.634287930209754
 40
5.719136206288428
 40
5.752036558236344
 40
5.782130946283368
 40
5.862783906229542
 40
5.979550131775411
 40
6.117984316640816
 40
6.263641154588361
 40
6.402075339414568
 40
6.518841564908363
 40
6.599494524815944
 40
6.629588912849182
 40
6.654403028226758
 40
6.713575149488525
 40
6.784199939329842
 40
6.843372060493945
 40
6.86818617580319
 40
6.896246243202279
 40
6.939586233758675
 40
6.967846564565303
 40
7.043584251090241
 40
7.153234334452096
 40
7.283231855734845
 40
7.420011856035877
 40
7.550009376580229
 40
7.659659458835627
 40
7.735397144417622
 40
7.763657474851792
 40
7.796409728011449
 40
7.880876065096723
 40
7.996370852466109
 40
8.122208446419004
 40
8.237703224799597
 40
8.322169562011291
 40
8.354921815206305
 40
8.382078813308086
 40
8.441824209207393
 40
8.501569605240542
 40
8.52872660348612
 40
8.56147885669617
 40
8.64594519387822
 40
8.761439980865731
 40
8.887277580764874
 40
9.002772362001394
 40
9.087238696661615
 40
9.119990949236069
 40
9.152428830613767
 40
9.240474508638984
 40
9.370226034149935
 40
9.527781457984815
 40
9.699238830981805
 40
9.870696203978996
 40
10.02825162781442
 40
10.15800315332603
 40
10.24604883135158
 40
10.27848670378561
 40
10.27848670378561
 40
10.27848670378561
 40
10.27848670378561
 10
195.3821827564383
 20
14.01410517385762
 10
195.3914554737523
 20
14.01410498511279
 10
195.4251744536861
 20
14.01410430876719
 10
195.4934706812465
 20
14.01411807243309
 10
195.592014171158
 20
14.0140322421955
 10
195.7062066464812
 20
14.01441755612255
 10
195.818589441707
 20
14.0130083589755
 10
195.9214376600118
 20
14.01719117422248
 10
195.9806839874849
 20
14.00823089251988
 10
196.0371265937032
 20
14.02164434526066
 10
196.0246255586954
 20
13.97087198613366
 10
196.0329549635703
 20
13.92589320939071
 10
196.0248170841119
 20
13.88056752990492
 10
196.0370529214457
 20
13.8293193240847
 10
195.9747773490334
 20
13.84447955365281
 10
195.9060513026868
 20
13.83359750710747
 10
195.7782756749591
 20
13.83911304747976
 10
195.6262984511644
 20
13.83700851253702
 10
195.4502695972521
 20
13.83771002588477
 10
195.2644431934287
 20
13.83745237531296
 10
195.0786167437174
 20
13.83771005144607
 10
194.9025880142167
 20
13.83700841847734
 10
194.7506104154194
 20
13.83911332229993
 10
194.6228357664554
 20
13.83359680767644
 10
194.554107783658
 20
13.84448077125947
 10
194.4918349042882
 20
13.82931786684213
 10
194.5040616290017
 20
13.88057510805176
 10
194.4960004462595
 20
13.9258247327243
 10
194.5040675809891
 20
13.97106357955328
 10
194.4918238487082
 20
14.02234176909962
 10
194.5525017120697
 20
14.0074957736314
 10
194.6162810745735
 20
14.0175644817074
 10
194.7277314353502
 20
14.01294644212005
 10
194.8497533443823
 20
14.01413328905473
 10
194.9719538137823
 20
14.0151586390064
 10
195.0829794287392
 20
14.01092475623407
 10
195.1476517413957
 20
14.02018584521744
 10
195.2091162810501
 20
14.00604423049687
 10
195.1930065601337
 20
14.07235527884522
 10
195.2042980327358
 20
14.1444779012198
 10
195.1987400822561
 20
14.27513760888291
 10
195.200803506169
 20
14.42607323708246
 10
195.2000167127295
 20
14.59335873107891
 10
195.2007845215626
 20
14.76061110332307
 10
195.1988038785628
 20
14.91163289269919
 10
195.204130615662
 20
15.04206069552999
 10
195.1933101388425
 20
15.11465442605905
 10
195.2090326429875
 20
15.18150469436804
 10
195.143270813249
 20
15.16580512490829
 10
195.0756367830763
 20
15.17609243084
 10
194.9615885293809
 20
15.17113786847126
 10
194.8451242674902
 20
15.1741412803048
 10
194.7306554121476
 20
15.16880303143394
 10
194.6640324657811
 20
15.1800126807483
 10
194.5990769715185
 20
15.16349132665016
 10
194.6107989758707
 20
15.21473720477064
 10
194.603283018912
 20
15.25950333784096
 10
194.6107989878834
 20
15.30426944897966
 10
194.5990769505346
 20
15.35551536129745
 10
194.6640326339199
 20
15.33899381766819
 10
194.730653333982
 20
15.35020571373948
 10
194.8451352858063
 20
15.3448543671067
 10
194.9615454436962
 20
15.34791188771122
 10
195.0757660174639
 20
15.34278499010713
 10
195.1430150439227
 20
15.35345733355603
 10
195.2083325941438
 20
15.33742082669081
 10
195.1941391448553
 20
15.39949685750059
 10
195.2036059462994
 20
15.46586761628767
 10
195.1990269004085
 20
15.58239972741972
 10
195.2007696555948
 20
15.71426685022381
 10
195.1997551495392
 20
15.85615960150278
 10
195.2017191344372
 20
15.98769050702585
 10
195.1964668553851
 20
16.10524577283007
 10
195.2073408763474
 20
16.16947789001589
 10
195.1919536641853
 20
16.23108802545052
 10
195.24075915378
 20
16.21702407382116
 10
195.2853995564726
 20
16.21954742075319
 10
195.3538643946743
 20
16.21512797401715
 10
195.3959106169102
 20
16.2061302554404
 10
195.4487544758775
 20
16.21411714866516
 10
195.4207035002013
 20
16.17113917611677
 10
195.3749142248594
 20
16.18259552043841
 10
195.3869539073265
 20
16.12173520005141
 10
195.3796086070641
 20
16.05769299468778
 10
195.3831195826162
 20
15.94909368863916
 10
195.3819806760173
 20
15.82494319144758
 10
195.3819174780262
 20
15.69189719829883
 10
195.3832872966868
 20
15.5679738124956
 10
195.3791638801313
 20
15.45868337849343
 10
195.3877763103564
 20
15.39608580094175
 10
195.3746757454402
 20
15.3374013329637
 10
195.4393884328198
 20
15.35362113810906
 10
195.5060405953156
 20
15.34270260383316
 10
195.6198779541102
 20
15.34793740173761
 10
195.7357259122097
 20
15.34485547516918
 10
195.849692426328
 20
15.35018259812517
 10
195.91603410181
 20
15.33904208166547
 10
195.9807188525479
 20
15.35546979593183
 10
195.9689820772723
 20
15.30425925210056
 10
195.976516806304
 20
15.25950334121005
 10
195.9689820992258
 20
15.21474739010032
 10
195.9807188140736
 20
15.16353690871045
 10
195.9160344075252
 20
15.17996427794225
 10
195.8496886430824
 20
15.16882784447274
 10
195.7357459487012
 20
15.17413115893125
 10
195.6197995623054
 20
15.17114764593548
 10
195.5062756882123
 20
15.17606892268398
 10
195.4389231318804
 20
15.16585087513524
 10
195.3734285122495
 20
15.18145996138821
 10
195.3891713619218
 20
15.11463851827416
 10
195.3783275998213
 20
15.04207057815884
 10
195.3836581629793
 20
14.91162247614421
 10
195.3817136151855
 20
14.76064558185231
 10
195.3823133683215
 20
14.59322243934163
 10
195.3821506559604
 20
14.42656176118376
 10
195.3821895488136
 20
14.27360142921641
 10
195.3821816413099
 20
14.1484917898571
 10
195.3821828382744
 20
14.06507890991425
 10
195.3821827716208
 20
14.02491778281981
 10
195.3821827564383
 20
14.01410517385762
 97
        1
330
A7
 75
     1
 76
     2
 52
45.0
 41
0.1
 77
     0
 78
     1
 53
45.0
 43
0.0
 44
0.0
 45
-0.282842712474619
 46
0.0
 79
     0
 98
        1
 10
0.0
 20
0.0
  0
HATCH
  5
C5
330
48
100
AcDbEntity
  8
1
  6
Continuous
 62
     2
100
AcDbHatch
 10
0.0
 20
0.0
 30
0.0
210
0.0
220
0.0
230
1.0
  2
CUSTOM3
 70
     0
 71
     1
 91
        1
 92
        1
 93
        1
 72
     4
 94
        3
 73
     0
 74
     0
 95
      131
 96
      127
 40
0.0
 40
0.0
 40
0.0
 40
0.0
 40
0.0195577029826058
 40
0.0426490537461336
 40
0.2863607575856633
 40
0.5344948436189492
 40
0.7842238845573573
 40
0.8737315789467992
 40
0.980383281031371
 40
1.092842274517095
 40
1.199761146656876
 40
1.289788768186559
 40
1.35157358078623
 40
1.370727117561456
 40
1.416400936017849
 40
1.47091484835599
 40
1.516588666791745
 40
1.535742203552825
 40
1.634216592293174
 40
1.760283341175007
 40
1.897966686682068
 40
2.03121638736889
 40
2.049689751137885
 40
2.10111560164682
 40
2.179502577739937
 40
2.278859318314053
 40
2.393194462258709
 40
2.516516648383822
 40
2.64283451540595
 40
2.766156701983455
 40
2.880491846754566
 40
2.979848588358609
 40
3.058235565443786
 40
3.10966141666894
 40
3.128134780704116
 40
3.146783742386432
 40
3.191254343315293
 40
3.244332157315952
 40
3.288802758225856
 40
3.307451719895099
 40
3.327717853844709
 40
3.383747753580071
 40
3.468388665924465
 40
3.57448783769877
 40
3.694892515728874
 40
3.822449946852013
 40
3.950007377920402
 40
4.070412055800492
 40
4.176511227368048
 40
4.261152139501494
 40
4.317182039076688
 40
4.337448172964606
 40
4.620011002696237
 40
4.885096638397552
 40
4.945373043518344
 40
5.014107710488668
 40
5.070481727652089
 40
5.319246955636635
 40
5.584812164506149
 40
5.859000912057002
 40
6.133746937542185
 40
6.401732212968989
 40
6.42073668399558
 40
6.47284571745123
 40
6.550702743894158
 40
6.646951193874367
 40
6.754234497930748
 40
6.865196086587497
 40
6.972479390358012
 40
7.068727839772146
 40
7.146584865451183
 40
7.198693898189413
 40
7.217698368905554
 40
7.234950401631032
 40
7.276089864270071
 40
7.325191803516176
 40
7.366331266090562
 40
7.383583298769912
 40
7.402779163492289
 40
7.45338644325472
 40
7.52493466644575
 40
7.60695336140609
 40
7.68897205642927
 40
7.760520279784549
 40
7.811127559734791
 40
7.830323424546412
 40
7.84784405530004
 40
7.894799345667082
 40
7.962779392744769
 40
8.043374293560817
 40
8.128174145149725
 40
8.208769044817526
 40
8.27674909037723
 40
8.323704379669792
 40
8.341225010056522
 40
8.35849761480067
 40
8.401679126686847
 40
8.457815092185877
 40
8.513951057728281
 40
8.55713256970818
 40
8.574405174505252
 40
8.602340668616568
 40
8.643455660540111
 40
8.663225271966779
 40
8.715345156564426
 40
8.789031889628758
 40
8.87350204552049
 40
8.957972194324116
 40
9.031658925568006
 40
9.083778811234694
 40
9.103548423003158
 40
9.119550083123695
 40
9.160817522379997
 40
9.217244429110362
 40
9.278724491644848
 40
9.335151398295633
 40
9.376418837357928
 40
9.392420497300716
 40
9.401196302734935
 40
9.41749422938441
 40
9.426270027749682
 40
9.440875075477715
 40
9.475702496998895
 40
9.517270709866061
 40
9.552098131994232
 40
9.56670316988444
 40
9.56670316988444
 40
9.56670316988444
 40
9.56670316988444
 10
194.6170254148479
 20
15.6701587151103
 10
194.613434509337
 20
15.66453690702162
 10
194.6056039123625
 20
15.65227754419116
 10
194.5129968974546
 20
15.6160191604098
 10
194.4887622233247
 20
15.40148444212717
 10
194.3858709845937
 20
15.22197284509713
 10
194.1220492364305
 20
15.03615573798148
 10
194.2845471569179
 20
14.95959336566085
 10
194.3607225760838
 20
14.89856693195448
 10
194.4492171072758
 20
14.83515804544761
 10
194.538993023311
 20
14.77525634219566
 10
194.5883817636046
 20
14.72102154849212
 10
194.674570815738
 20
14.69286240541837
 10
194.6411260674229
 20
14.65713309652816
 10
194.621467116631
 20
14.62550387991909
 10
194.5919888217881
 20
14.58475872796076
 10
194.5688989446031
 20
14.55504663489647
 10
194.5380205968356
 20
14.50211422668499
 10
194.4729193365741
 20
14.62740334938907
 10
194.3796000122416
 20
14.68213900233938
 10
194.2950636285138
 20
14.73916423939347
 10
194.1722498125742
 20
14.89675287427527
 10
194.1764450847301
 20
14.8203580676684
 10
194.1751478652678
 20
14.773612801613
 10
194.1758126448076
 20
14.69584785812604
 10
194.1755549986958
 20
14.59902068324427
 10
194.1756431239921
 20
14.48650279078813
 10
194.1756077302281
 20
14.36524085945703
 10
194.1756511758278
 20
14.24086897858965
 10
194.1755199942405
 20
14.1196768363134
 10
194.1759477562046
 20
14.00691148919747
 10
194.1746678202311
 20
13.91082913768749
 10
194.1779759851043
 20
13.83113826468703
 10
194.1715197740086
 20
13.78815175788788
 10
194.1806208705556
 20
13.74955432372047
 10
194.1447910339935
 20
13.75810887724075
 10
194.1115223815252
 20
13.7534251998545
 10
194.060456257604
 20
13.75351298759788
 10
194.0269723972813
 20
13.75794430283825
 10
193.9907585408754
 20
13.74960793842514
 10
194.0009782568665
 20
13.79145277179288
 10
193.9936487887774
 20
13.83778560820178
 10
193.9973633136103
 20
13.92374831106018
 10
193.9959480554896
 20
14.02605142704853
 10
193.9964105554638
 20
14.14453223931515
 10
193.996277368623
 20
14.2695768315336
 10
193.9963015910045
 20
14.39475828107053
 10
193.9963354925551
 20
14.51286645379061
 10
193.9962060293132
 20
14.6162874870952
 10
193.9965507549081
 20
14.69932036153671
 10
193.995869827869
 20
14.75143368521247
 10
193.9994586600623
 20
14.87912907821365
 10
193.7826171386437
 20
14.58048716819625
 10
193.602135492195
 20
14.35263981511515
 10
193.5490322295611
 20
14.4937344328982
 10
193.5200429133148
 20
14.54325767560947
 10
193.4196648062819
 20
14.6464177979011
 10
193.740512772326
 20
14.72695035023784
 10
193.868989700543
 20
14.91066283036437
 10
194.0906454325359
 20
15.11931995771767
 10
194.1770224894067
 20
15.29339211228349
 10
194.4549394229075
 20
15.56967051342516
 10
194.3346247839283
 20
15.56534559551119
 10
194.2863197351349
 20
15.56614856202558
 10
194.2102377454905
 20
15.56574582146589
 10
194.116701000975
 20
15.56590275611614
 10
194.0117594788556
 20
15.56582502576229
 10
193.9033887738718
 20
15.5659546437856
 10
193.7981454235896
 20
15.56554393490696
 10
193.7056237819411
 20
15.56682073671596
 10
193.6268130800707
 20
15.56340766534855
 10
193.5839674565378
 20
15.57023350036325
 10
193.5449499586515
 20
15.56065064201128
 10
193.5526365271863
 20
15.59420779565547
 10
193.5485464404311
 20
15.62523550322238
 10
193.5485531368814
 20
15.67236529270904
 10
193.5526239724911
 20
15.70340941646783
 10
193.5449495574582
 20
15.73701861635905
 10
193.5834819405493
 20
15.72748410420876
 10
193.6241228014479
 20
15.73397435498075
 10
193.6951471850463
 20
15.73100150650258
 10
193.7729318149633
 20
15.73174761399162
 10
193.8507292246474
 20
15.73247814044529
 10
193.9217232089907
 20
15.72954235514164
 10
193.962427979182
 20
15.73595468772956
 10
194.0009853489909
 20
15.72650524176007
 10
193.9927342754928
 20
15.76264692158789
 10
193.9982346669358
 20
15.8012983761323
 10
193.9955754206163
 20
15.86913528561842
 10
193.9965815471533
 20
15.94591641538743
 10
193.9960178018319
 20
16.0284939358276
 10
193.9970714526592
 20
16.10517329229882
 10
193.994267586313
 20
16.17331990776704
 10
194.0000702721303
 20
16.2113239980935
 10
193.9915654551158
 20
16.2475844807765
 10
194.0255610233124
 20
16.23755723771855
 10
194.0594575683099
 20
16.24073266813711
 10
194.1126669060345
 20
16.23508965640612
 10
194.1660768574482
 20
16.2343477443643
 10
194.1995914649489
 20
16.22819223482983
 10
194.2388086183038
 20
16.23346029773598
 10
194.2120263698492
 20
16.19253380793491
 10
194.1708111001723
 20
16.20371204538115
 10
194.1782641540874
 20
16.15867056192128
 10
194.1742227952184
 20
16.11412278028148
 10
194.176171404964
 20
16.04223572621707
 10
194.1752364849758
 20
15.96168630588774
 10
194.176510719003
 20
15.88173995404999
 10
194.1732043793863
 20
15.80841837083186
 10
194.1802106179962
 20
15.76688643002572
 10
194.1701440380125
 20
15.72752418568117
 10
194.2029814803921
 20
15.73468063430985
 10
194.236457729648
 20
15.73027243137948
 10
194.2915053476019
 20
15.73217943347901
 10
194.3489502595314
 20
15.73185366407292
 10
194.4023026248309
 20
15.73106308733086
 10
194.4398540896638
 20
15.73313959118078
 10
194.4623172523237
 20
15.73022338167113
 10
194.4751678073731
 20
15.7357255264406
 10
194.4858255685888
 20
15.73801118197794
 10
194.4986635650144
 20
15.74494972588057
 10
194.514599103307
 20
15.72853046313675
 10
194.5410623920892
 20
15.71709122319452
 10
194.5726805253758
 20
15.69644687835194
 10
194.5987255892151
 20
15.68116869628297
 10
194.6128517723973
 20
15.67266976323186
 10
194.6170254148479
 20
15.6701587151103
 97
        1
330
A8
 75
     1
 76
     2
 52
45.0
 41
0.1
 77
     0
 78
     1
 53
45.0
 43
0.0
 44
0.0
 45
-0.282842712474619
 46
0.0
 79
     0
 98
        1
 10
0.0
 20
0.0
  0
HATCH
  5
C6
330
48
100
AcDbEntity
  8
1
  6
Continuous
 62
     2
100
AcDbHatch
 10
0.0
 20
0.0
 30
0.0
210
0.0
220
0.0
230
1.0
  2
CUSTOM4
 70
     0
 71
     1
 91
        1
 92
        1
 93
        1
 72
     4
 94
        3
 73
     0
 74
     0
 95
       91
 96
       87
 40
0.0
 40
0.0
 40
0.0
 40
0.0
 40
0.0267532254356701
 40
0.0856103386464102
 40
0.1444674521996621
 40
0.1712206856618514
 40
0.2039416005642536
 40
0.2955601971652484
 40
0.4362601844617202
 40
0.6162252844507534
 40
0.8256392189704982
 40
1.054685709844496
 40
1.29354847889356
 40
1.53241124793836
 40
1.761457738799625
 40
1.970871673298593
 40
2.150836773256789
 40
2.29153676049565
 40
2.383155356836785
 40
2.415876284101405
 40
2.442629517488048
 40
2.50148663094918
 40
2.560343744424327
 40
2.5870969778266
 40
2.617068194441027
 40
2.699247336756168
 40
2.82203264346651
 40
2.973822353258039
 40
3.143014704823481
 40
3.31800793688006
 40
3.487200288186922
 40
3.638989997548403
 40
3.761775303794958
 40
3.843954445753265
 40
3.87392566222996
 40
3.89081277350072
 40
3.907699884771925
 40
3.937960767857573
 40
3.980983618142552
 40
4.199085915228705
 40
4.439444339237499
 40
4.677588241261129
 40
5.050698317838015
 40
5.448212454763401
 40
5.855291218044926
 40
6.138575438885617
 40
6.417434507584442
 40
6.444551104394124
 40
6.504207617363423
 40
6.563864130314744
 40
6.590980727104338
 40
6.848609460381721
 40
7.109611990668641
 40
7.352910904446301
 40
7.5578302207057
 40
7.587518925913619
 40
7.65283407737604
 40
7.718149228845979
 40
7.747837934062284
 40
7.854880190301247
 40
7.976511257403786
 40
8.369487896592615
 40
8.757514959223936
 40
9.126072419331427
 40
9.460639380392518
 40
9.746695593036259
 40
9.777569943118989
 40
9.807050320932063
 40
9.830377336129198
 40
9.886003295436273
 40
9.95239556943019
 40
10.00802152870654
 40
10.03134854388247
 40
10.21356951009614
 40
10.42203479292891
 40
10.66154556731088
 40
10.91693789564329
 40
11.15832906556589
 40
11.18982674596647
 40
11.27286608520434
 40
11.39026653033376
 40
11.52484752840915
 40
11.65942852648475
 40
11.77682897161519
 40
11.85986831085712
 40
11.89136598230461
 40
11.89136598230461
 40
11.89136598230461
 40
11.89136598230461
 10
190.7027885008195
 20
14.70699600701776
 10
190.7028237765287
 20
14.71587847311989
 10
190.7029366710795
 20
14.74430237047351
 10
190.7012984568487
 20
14.79409639169807
 10
190.7069750292911
 20
14.83657564478158
 10
190.6956928731705
 20
14.88730154856851
 10
190.7632296979031
 20
14.87012900740113
 10
190.83880292107
 20
14.88290227166
 10
190.9828357056
 20
14.87629729457386
 10
191.1569419185426
 20
14.8788846220647
 10
191.3639599611002
 20
14.87800591955556
 10
191.5894688172376
 20
14.87828207920031
 10
191.8251162293406
 20
14.87818339658667
 10
192.0607640531347
 20
14.87828184412771
 10
192.2862717580626
 20
14.87800678190793
 10
192.4932934632805
 20
14.87888186270739
 10
192.6673888915288
 20
14.8763052267845
 10
192.8114492071985
 20
14.88288290449217
 10
192.8869691915293
 20
14.87016243405608
 10
192.9545776037029
 20
14.8872640019169
 10
192.9430840140676
 20
14.83674785802945
 10
192.9505104581733
 20
14.79253252226505
 10
192.9428838927986
 20
14.74867966503614
 10
192.9546489459425
 20
14.69878374479331
 10
192.8930788491983
 20
14.71393227712516
 10
192.8256791738671
 20
14.70310665350678
 10
192.7013004056221
 20
14.7085203162624
 10
192.555442823657
 20
14.70649205390789
 10
192.3893576440086
 20
14.70715777578391
 10
192.2188412621724
 20
14.70689643521246
 10
192.0519790855388
 20
14.70721553391098
 10
191.9087346827105
 20
14.70635302590767
 10
191.7773313869832
 20
14.70863300482991
 10
191.7239859134655
 20
14.70407704374207
 10
191.6485188456911
 20
14.70999914992881
 10
191.6769075779232
 20
14.70094169343358
 10
191.7033652409542
 20
14.69725912268934
 10
191.6633522907701
 20
14.66654271968283
 10
191.5713663691868
 20
14.67667591174629
 10
191.5439396207069
 20
14.43032502247793
 10
191.4478793967234
 20
14.27499558764379
 10
191.1917277964473
 20
13.94525417931572
 10
191.7627537732762
 20
14.08430022210455
 10
192.0173656320517
 20
14.08291779973367
 10
192.6279647048617
 20
13.9979056924209
 10
192.3340698578083
 20
14.29685417558206
 10
192.0133304286517
 20
14.44330856901787
 10
192.1313543360434
 20
14.50025540818292
 10
192.1724716466261
 20
14.52420099873352
 10
192.215681239441
 20
14.54599758811235
 10
192.317457409445
 20
14.60928721253906
 10
192.4328867625248
 20
14.35147151408787
 10
192.6329591642275
 20
14.21616041113684
 10
192.7269077387228
 20
14.03792795138885
 10
192.9558829746392
 20
13.87997821027053
 10
192.8596031846708
 20
13.82915972576305
 10
192.8167959763778
 20
13.79881292523059
 10
192.7718243528779
 20
13.77466130281463
 10
192.7121720925213
 20
13.72552146747571
 10
192.6789731061325
 20
13.85997475673614
 10
192.5582013350795
 20
14.01594265286585
 10
192.1970976005978
 20
13.8856992805956
 10
191.838506195554
 20
13.90224694409486
 10
191.4570920450079
 20
13.89331229351871
 10
191.170345528289
 20
13.82882671672404
 10
190.8592055599713
 20
13.94230668192844
 10
190.8268737818787
 20
13.83122259927771
 10
190.7896178253318
 20
13.81196313850017
 10
190.7865737632754
 20
13.85874784087301
 10
190.7679892860607
 20
13.89806853919139
 10
190.7512436616778
 20
13.95765983478237
 10
190.7383730915753
 20
14.00201969871288
 10
190.7042327806429
 20
14.09106331120204
 10
190.9482714457753
 20
14.02181042943775
 10
191.1441394486671
 20
14.00030369057751
 10
191.2395426381277
 20
14.28226484478465
 10
191.2945135769596
 20
14.44363045421127
 10
191.5159619357157
 20
14.71391177589743
 10
191.3849239381216
 20
14.70548446853739
 10
191.3110026555854
 20
14.70779008496974
 10
191.1977459876243
 20
14.70671378321662
 10
191.0694251807484
 20
14.70707639076514
 10
190.9404252030414
 20
14.7069772446609
 10
190.828784094629
 20
14.70699932712576
 10
190.7514663970025
 20
14.70699579189673
 10
190.7132876532009
 20
14.70699595845085
 10
190.7027885008195
 20
14.70699600701776
 97
        1
330
A9
 75
     1
 76
     2
 52
45.0
 41
0.1
 77
     0
 78
     1
 53
45.0
 43
0.0
 44
0.0
 45
-0.282842712474619
 46
0.0
 79
     0
 98
        1
 10
0.0
 20
0.0
  0
HATCH
  5
C7
330
48
100
AcDbEntity
  8
1
  6
Continuous
 62
     2
100
AcDbHatch
 10
0.0
 20
0.0
 30
0.0
210
0.0
220
0.0
230
1.0
  2
CUSTOM5
 70
     0
 71
     1
 91
        1
 92
        1
 93
        1
 72
     4
 94
        3
 73
     0
 74
     0
 95
       35
 96
       31
 40
0.0
 40
0.0
 40
0.0
 40
0.0
 40
0.033523103662026
 40
0.0713218571712207
 40
0.4278866681487438
 40
0.8116865841964663
 40
1.198190238000147
 40
1.561379546812776
 40
1.659983174622138
 40
1.759315573807271
 40
2.132719617231154
 40
2.525233363588905
 40
2.910815397779773
 40
3.26524436430336
 40
3.592606723582099
 40
3.964386154604048
 40
4.359942131737873
 40
4.758154118639387
 40
4.843846538700022
 40
4.936650065543324
 40
5.256616602537404
 40
5.581707404416141
 40
5.899719158308239
 40
6.198363494280844
 40
6.46630104661588
 40
6.493895311537145
 40
6.559697020196966
 40
6.638234543442513
 40
6.704036252154266
 40
6.731630508423043
 40
6.731630508423043
 40
6.731630508423043
 40
6.731630508423043
 10
191.9736010568668
 20
16.23463843719138
 10
191.9676006097788
 20
16.22480690542327
 10
191.9548344099156
 20
16.20388988579799
 10
191.7949362006554
 20
16.17127126532705
 10
192.2322025842336
 20
15.882066803367
 10
192.4345394828262
 20
15.68041138358443
 10
192.6819564267973
 20
15.4374938760328
 10
193.1831513624606
 20
15.3604766275778
 10
193.012556219897
 20
15.2187693917466
 10
192.9383299463201
 20
15.01710366209113
 10
192.6131432248188
 20
15.36956287174731
 10
192.3277741670664
 20
15.53175212559566
 10
192.0337604077658
 20
15.73687130053053
 10
191.8084452691134
 20
16.21827488595459
 10
191.5993085055522
 20
15.75343046609227
 10
191.3207873674834
 20
15.54350952252916
 10
191.0371383177209
 20
15.37424456359987
 10
190.7078639527832
 20
15.00142360907941
 10
190.6277012318224
 20
15.19708014459003
 10
190.4759724909745
 20
15.32491104190603
 10
190.9083395826794
 20
15.40454031765938
 10
191.0962565329766
 20
15.60026634915477
 10
191.3468477420502
 20
15.81632996916759
 10
191.5714350470162
 20
15.98190992300063
 10
191.6259775409711
 20
16.2613396463683
 10
191.7494661029011
 20
16.24737950408084
 10
191.806027334452
 20
16.24521268867652
 10
191.8761870984943
 20
16.24046859881364
 10
191.9333414022105
 20
16.23709429350545
 10
191.9644190320837
 20
16.23519854711123
 10
191.9736010568668
 20
16.23463843719138
 97
        1
330
AA
 75
     1
 76
     2
 52
45.0
 41
0.1
 77
     0
 78
     1
 53
45.0
 43
0.0
 44
0.0
 45
-0.282842712474619
 46
0.0
 79
     0
 98
        1
 10
0.0
 20
0.0
  0
HATCH
  5
C8
330
48
100
AcDbEntity
  8
1
  6
Continuous
 62
     2
100
AcDbHatch
 10
0.0
 20
0.0
 30
0.0
210
0.0
220
0.0
230
1.0
  2
CUSTOM6
 70
     0
 71
     1
 91
        1
 92
        1
 93
        1
 72
     4
 94
        3
 73
     0
 74
     0
 95
       15
 96
       11
 40
0.0
 40
0.0
 40
0.0
 40
0.0
 40
0.2785535985096532
 40
0.5215624748198807
 40
0.6076917376040674
 40
0.6938210001741859
 40
0.9405019146455672
 40
1.221691403489203
 40
1.300471877081139
 40
1.379252341684948
 40
1.379252341684948
 40
1.379252341684948
 40
1.379252341684948
 10
189.5681493630999
 20
16.22930267330385
 10
189.6296017794178
 20
16.1769164659272
 10
189.7446649974112
 20
16.07882876798227
 10
190.0397348497245
 20
15.92889785897226
 10
189.9025147631856
 20
15.84343227515017
 10
189.8041227843778
 20
15.71085785201561
 10
189.7130033590648
 20
16.01616985781421
 10
189.3636839480655
 20
16.07967869465381
 10
189.5119258376569
 20
16.17896509880882
 10
189.5494081874237
 20
16.21252348402387
 10
189.5681493630999
 20
16.22930267330385
 97
        1
330
AB
 75
     1
 76
     2
 52
45.0
 41
0.1
 77
     0
 78
     1
 53
45.0
 43
0.0
 44
0.0
 45
-0.282842712474619
 46
0.0
 79
     0
 98
        1
 10
0.0
 20
0.0
  0
HATCH
  5
C9
330
48
100
AcDbEntity
  8
1
  6
Continuous
 62
     2
100
AcDbHatch
 10
0.0
 20
0.0
 30
0.0
210
0.0
220
0.0
230
1.0
  2
CUSTOM7
 70
     0
 71
     1
 91
        1
 92
        1
 93
        1
 72
     4
 94
        3
 73
     0
 74
     0
 95
       75
 96
       71
 40
0.0
 40
0.0
 40
0.0
 40
0.0
 40
0.0342546099129709
 40
0.1245622414432364
 40
0.2522385480897536
 40
0.3985991922940662
 40
0.5449598364980821
 40
0.6726361431438834
 40
0.7629437746736942
 40
0.7971983935297973
 40
1.101723623449659
 40
1.408591244036663
 40
1.433332471690369
 40
1.487763172450166
 40
1.542193873081999
 40
1.566935100592548
 40
1.923523931821803
 40
2.271755704953601
 40
2.590579755100815
 40
2.858943305581072
 40
2.889120339309095
 40
2.918305855191046
 40
2.941366645531168
 40
2.996357760973059
 40
3.061992318140606
 40
3.116983433626804
 40
3.140044223997483
 40
3.411273122936377
 40
3.732441619740986
 40
3.761068217532684
 40
3.837787499630246
 40
3.948858699125886
 40
4.080541049104261
 40
4.219093782625644
 40
4.350776132722195
 40
4.46184733240553
 40
4.538566614678262
 40
4.567193212544509
 40
4.594907573998767
 40
4.666381453557306
 40
4.764111044010888
 40
4.870592538125691
 40
4.968322128642114
 40
5.03979600828677
 40
5.067510369784229
 40
5.094263603185444
 40
5.153120716668078
 40
5.211977830150528
 40
5.238731063551533
 40
5.272290535138771
 40
5.363380529444632
 40
5.49761841578131
 40
5.660621563453552
 40
5.838007341749253
 40
6.015393119910605
 40
6.17839626703823
 40
6.312634151842182
 40
6.403724143059171
 40
6.437283612672267
 40
6.464036846260883
 40
6.5228939600045
 40
6.581751071483766
 40
6.608504301590712
 40
6.63725394128086
 40
6.711397748902711
 40
6.812778057283324
 40
6.9232371992491
 40
7.024617507623744
 40
7.098761315207397
 40
7.127510946007347
 40
7.127510946007347
 40
7.127510946007347
 40
7.127510946007347
 10
188.4418622390564
 20
14.95849128473269
 10
188.4418622819707
 20
14.94707313408725
 10
188.4418624481128
 20
14.90555257842633
 10
188.4418593081786
 20
14.82146922003776
 10
188.4418788279801
 20
14.70004497322333
 10
188.4417912187737
 20
14.55980494047452
 10
188.442111623523
 20
14.42006556794581
 10
188.441160590974
 20
14.29745038894933
 10
188.4431978595968
 20
14.21587074438048
 10
188.4349433178745
 20
14.06271267077702
 10
188.7430797940901
 20
14.22560236054724
 10
189.0350645173736
 20
14.39482938688009
 10
189.0408354448707
 20
14.25973235781914
 10
189.045547171989
 20
14.21617221160447
 10
189.0482535411918
 20
14.17211249350548
 10
189.0672545672956
 20
14.02272590363136
 10
188.6583942247302
 20
14.08681172241265
 10
188.3793710348832
 20
13.97296341411021
 10
188.1018081587165
 20
13.87364095811147
 10
187.8099837184402
 20
13.91630687596359
 10
187.7869144678657
 20
13.81321679744546
 10
187.7537474383333
 20
13.78691091244473
 10
187.7480653962738
 20
13.83455309036308
 10
187.7284214559044
 20
13.87180336115073
 10
187.7095089485622
 20
13.93007387847568
 10
187.6942849867708
 20
13.97385201007809
 10
187.6477246372934
 20
14.08759421046314
 10
187.9890897312451
 20
14.05576301120052
 10
188.2679649367386
 20
14.02161435106485
 10
188.2617753034906
 20
14.16913976479657
 10
188.2630935452773
 20
14.24013150908838
 10
188.2624831689947
 20
14.34719767958666
 10
188.2625871570724
 20
14.47398529786003
 10
188.2629987964055
 20
14.60849243496055
 10
188.2613907841967
 20
14.73395549951189
 10
188.2659902567924
 20
14.84505246719122
 10
188.2564186502209
 20
14.90761886800693
 10
188.270400178369
 20
14.96595388295006
 10
188.2147384386704
 20
14.95289710582242
 10
188.1575655197821
 20
14.96136307749504
 10
188.0616048925646
 20
14.95729976080641
 10
187.9633767522821
 20
14.9597088985248
 10
187.8672582457559
 20
14.95551600613392
 10
187.8104648525811
 20
14.96429346441167
 10
187.7550356873384
 20
14.95094936850126
 10
187.7670679427916
 20
15.00036910959261
 10
187.7592003173938
 20
15.04393988030401
 10
187.7666295563828
 20
15.0883046911853
 10
187.7551930564144
 20
15.13902297763996
 10
187.8232102370133
 20
15.12162460757748
 10
187.8968496879747
 20
15.13417450237194
 10
188.0325064058211
 20
15.12799677011102
 10
188.1884909024525
 20
15.13029203093089
 10
188.3615926358143
 20
15.12940968262535
 10
188.5346942964181
 20
15.13029207142413
 10
188.6906789811216
 20
15.12799662955555
 10
188.8263351889797
 20
15.13417486262436
 10
188.8999756705652
 20
15.1216239421834
 10
188.9679914174724
 20
15.13902373012148
 10
188.9565590885922
 20
15.0883013041456
 10
188.9639539458298
 20
15.04397060811113
 10
188.956203991227
 20
15.00028307550201
 10
188.9681203741877
 20
14.95063590098482
 10
188.9108170223616
 20
14.9646141133843
 10
188.8520145789773
 20
14.95539755673259
 10
188.7525293633199
 20
14.95952268164934
 10
188.649428009835
 20
14.95822760025893
 10
188.5537846354573
 20
14.95854077077645
 10
188.4857467971617
 20
14.95848776697149
 10
188.4514462213443
 20
14.95849051871661
 10
188.4418622390564
 20
14.95849128473269
 97
        1
330
AC
 75
     1
 76
     2
 52
45.0
 41
0.1
 77
     0
 78
     1
 53
45.0
 43
0.0
 44
0.0
 45
-0.282842712474619
 46
0.0
 79
     0
 98
        1
 10
0.0
 20
0.0
  0
HATCH
  5
CA
330
48
100
AcDbEntity
  8
1
  6
Continuous
 62
     2
100
AcDbHatch
 10
0.0
 20
0.0
 30
0.0
210
0.0
220
0.0
230
1.0
  2
CUSTOM8
 70
     0
 71
     1
 91
        1
 92
        1
 93
        1
 72
     4
 94
        3
 73
     0
 74
     0
 95
       91
 96
       87
 40
0.0
 40
0.0
 40
0.0
 40
0.0
 40
0.0345987051695718
 40
0.1258134969461369
 40
0.2547723404888987
 40
0.4026032099154125
 40
0.5504340793416704
 40
0.679392922883608
 40
0.7706077146571035
 40
0.8052064287780925
 40
1.124852390615278
 40
1.42740223630887
 40
1.706356627453515
 40
1.955541417875198
 40
2.169485938566333
 40
2.344350786664773
 40
2.480568411561923
 40
2.590440557428918
 40
2.649189927151121
 40
2.749320643306334
 40
2.912632739880032
 40
3.147745656000225
 40
3.24482749638514
 40
3.338490056946705
 40
3.583815413207129
 40
3.761423943238481
 40
3.886956104362629
 40
3.985855451886809
 40
4.091766255337665
 40
4.250186473811858
 40
4.422734315084504
 40
4.628285684838599
 40
4.872093227758427
 40
5.152549652145538
 40
5.464967135837518
 40
5.803201477852429
 40
6.1603629888139
 40
6.193449448275955
 40
6.28417038550161
 40
6.419718138764479
 40
6.58728504638573
 40
6.774063446723644
 40
6.967245678113627
 40
7.154024078817613
 40
7.321590987025998
 40
7.457138740890357
 40
7.547859678556093
 40
7.580946138182653
 40
7.608533084714707
 40
7.669224367077685
 40
7.729915649429906
 40
7.757502595949959
 40
7.790278062553413
 40
7.880146277430911
 40
8.014419963180373
 40
8.180411842397874
 40
8.365434637679343
 40
8.556801071622644
 40
8.741823866830757
 40
8.907815745916267
 40
9.04208943150742
 40
9.131957646249546
 40
9.164733112797123
 40
9.41542506314005
 40
9.66798618095851
 40
9.694169807462677
 40
9.756607686047635
 40
9.831130315322442
 40
9.893568193899906
 40
9.919751820398723
 40
9.950967964690557
 40
9.99642163121067
 40
10.22087981037455
 40
10.44341866197543
 40
10.47847970788856
 40
10.57091337438756
 40
10.70159545461231
 40
10.85140174170362
 40
11.00120802880479
 40
11.13189010907384
 40
11.22432377583012
 40
11.25938480938958
 40
11.28697175596147
 40
11.34766303835921
 40
11.40835432042071
 40
11.43594125892106
 40
11.43594125892106
 40
11.43594125892106
 40
11.43594125892106
 10
190.0818114333289
 20
15.55242795125081
 10
190.0702785844941
 20
15.55242790287919
 10
190.0283409444998
 20
15.55242773704168
 10
189.9434129719026
 20
15.55243125800913
 10
189.8207688553128
 20
15.55240926435882
 10
189.6791206916993
 20
15.55250801177058
 10
189.537975369849
 20
15.55214686232425
 10
189.4141351317905
 20
15.55321883609093
 10
189.3317217825381
 20
15.55092249091272
 10
189.1727791229693
 20
15.56048569373424
 10
189.3503402353376
 20
15.19785394311375
 10
189.3379739205452
 20
14.95243127723117
 10
189.4064519473864
 20
14.66862501324839
 10
189.469302432097
 20
14.4325099993904
 10
189.5452253431728
 20
14.23326740396134
 10
189.6303189577015
 20
14.07745347451377
 10
189.7244607592935
 20
13.97657857781396
 10
189.8282648207727
 20
13.9246585263897
 10
189.9125872030773
 20
13.97606484379618
 10
189.9351322179452
 20
14.09144544037521
 10
189.9745730975369
 20
14.21885149702385
 10
189.9202919734942
 20
14.53622328086759
 10
190.0451218072472
 20
14.38982180140911
 10
190.2019291513602
 20
14.35795300331174
 10
190.0947720007056
 20
14.12421357767632
 10
190.0808711209867
 20
13.95972776583662
 10
190.0234709467225
 20
13.83130869122486
 10
189.9335020145008
 20
13.76018802352833
 10
189.8095274657877
 20
13.74432324142258
 10
189.663427319686
 20
13.77993797554177
 10
189.5243894320284
 20
13.90000570500282
 10
189.4102003962144
 20
14.07435682550325
 10
189.3146141301486
 20
14.29946603111245
 10
189.2318652572626
 20
14.56388246006448
 10
189.1807179256412
 20
14.88187933098548
 10
189.0770189207337
 20
15.15543728488916
 10
189.2042841208523
 20
15.56005818612874
 10
189.0357890623018
 20
15.55112367849681
 10
188.9511995787077
 20
15.55315961418367
 10
188.8189876387627
 20
15.5521393738841
 10
188.6560505094104
 20
15.55253230318434
 10
188.4733759170532
 20
15.55235696313372
 10
188.2847057373383
 20
15.55260105307472
 10
188.1014469020189
 20
15.5518565790624
 10
187.9404746832718
 20
15.55416360522429
 10
187.8029808335276
 20
15.54799804883666
 10
187.728959037231
 20
15.56032838458215
 10
187.6613215186857
 20
15.5432932372356
 10
187.6732373719269
 20
15.59524438447531
 10
187.6655677285694
 20
15.64071424966533
 10
187.6732592225115
 20
15.68614453703709
 10
187.6613141797762
 20
15.73802395984574
 10
187.7283588305867
 20
15.72119143490268
 10
187.8017375665676
 20
15.73335409092674
 10
187.9379128305272
 20
15.72727231074963
 10
188.0973811801512
 20
15.72954834315062
 10
188.2789173085836
 20
15.72881233998966
 10
188.4658034862179
 20
15.72905954196138
 10
188.6468012316836
 20
15.72886400799257
 10
188.8080802578878
 20
15.72932234714844
 10
188.9393882124887
 20
15.72812673751209
 10
189.0225051322596
 20
15.73051347319747
 10
189.1556236547814
 20
15.72230605725467
 10
189.0645893502657
 20
15.97752868952658
 10
188.978963307442
 20
16.24164358328252
 10
189.0990589003455
 20
16.22904442969169
 10
189.1514264948544
 20
16.2269423576308
 10
189.2214497569715
 20
16.22535399889661
 10
189.2671922337817
 20
16.21602567538117
 10
189.3220812646934
 20
16.22545966915431
 10
189.296357478568
 20
16.17733028655176
 10
189.1825397571454
 20
16.18266829744171
 10
189.3159346621134
 20
15.9544917457678
 10
189.1943658735472
 20
15.72156856595927
 10
189.3223188769412
 20
15.73087258884442
 10
189.4049048406461
 20
15.72801001754685
 10
189.5307214850824
 20
15.72923437412306
 10
189.6741469838057
 20
15.72932431888968
 10
189.8157420951728
 20
15.72746163183857
 10
189.9459127249967
 20
15.73333075937167
 10
190.0193452286191
 20
15.72070340823207
 10
190.0891112922096
 20
15.73877563110416
 10
190.0775772605396
 20
15.6861285054633
 10
190.0833184346681
 20
15.64221317686551
 10
190.0816615770912
 20
15.59089982676554
 10
190.0817757561669
 20
15.56158792021638
 10
190.0818114333289
 20
15.55242795125081
 97
        1
330
AD
 75
     1
 76
     2
 52
45.0
 41
0.1
 77
     0
 78
     1
 53
45.0
 43
0.0
 44
0.0
 45
-0.282842712474619
 46
0.0
 79
     0
 98
        1
 10
0.0
 20
0.0
  0
HATCH
  5
CB
330
48
100
AcDbEntity
  8
1
  6
Continuous
 62
     2
100
AcDbHatch
 10
0.0
 20
0.0
 30
0.0
210
0.0
220
0.0
230
1.0
  2
CUSTOM9
 70
     0
 71
     1
 91
        1
 92
        1
 93
        1
 72
     4
 94
        3
 73
     0
 74
     0
 95
      118
 96
      114
 40
0.0
 40
0.0
 40
0.0
 40
0.0
 40
0.1054708162973583
 40
0.2466098270052389
 40
0.3965912874591505
 40
0.5285525069754394
 40
0.6156245055642635
 40
0.6431434105797947
 40
0.7036850037986608
 40
0.7642265984504963
 40
0.7917455052355268
 40
0.9287404319990158
 40
1.106572819088079
 40
1.287544879681111
 40
1.317578308030628
 40
1.399928030857261
 40
1.522968204800037
 40
1.675072986590659
 40
1.844616533180736
 40
2.019973001638798
 40
2.189516548880109
 40
2.341621331585446
 40
2.464661506320582
 40
2.547011229647146
 40
2.57704465816811
 40
2.603797890893152
 40
2.662655002908839
 40
2.721512114949594
 40
2.748265347702774
 40
2.774215307344849
 40
2.84595931340718
 40
2.954338556588378
 40
3.090194227585555
 40
3.244367517100516
 40
3.407699615844276
 40
3.571031714539423
 40
3.725205003920099
 40
3.861060674729597
 40
3.96943991771629
 40
4.041183923628962
 40
4.067133883212955
 40
4.311886746012143
 40
4.547897258335508
 40
4.76474708304396
 40
4.952749679951741
 40
5.045772974195862
 40
5.137862019644943
 40
5.330543169792994
 40
5.553448265243987
 40
5.795083855888144
 40
6.043293412177208
 40
6.28576169554115
 40
6.313902908752634
 40
6.384255941793223
 40
6.475714884766812
 40
6.567173827758874
 40
6.637526860839652
 40
6.665668074074016
 40
6.692018920327992
 40
6.749990782071065
 40
6.807962643790435
 40
6.834313490017911
 40
6.85639308424519
 40
6.913335195649814
 40
6.991194817302477
 40
7.076026942283739
 40
7.153886563725229
 40
7.210828674844811
 40
7.232908268931147
 40
7.258199334923666
 40
7.324875781592314
 40
7.419142481924969
 40
7.527204308841909
 40
7.635266135230489
 40
7.729532834168471
 40
7.79620927929279
 40
7.821500344594736
 40
7.844652988850807
 40
7.899863140541557
 40
7.965759128053667
 40
8.020969279770922
 40
8.044121924046388
 40
8.069356610160412
 40
8.109134395441265
 40
8.132238100190976
 40
8.193147867786339
 40
8.27926167887651
 40
8.377977512673723
 40
8.476693347146503
 40
8.562807160411557
 40
8.623716930826342
 40
8.646820636853294
 40
8.671988793774135
 40
8.734909185828046
 40
8.81670569518876
 40
8.89850220481536
 40
8.96142259737785
 40
8.986590754550962
 40
9.01294160073312
 40
9.070913462380206
 40
9.128885324081704
 40
9.155236170325027
 40
9.180404327929098
 40
9.243324721948143
 40
9.325121234211965
 40
9.406917746637648
 40
9.46983814197816
 40
9.495006288270906
 40
9.517811184379049
 40
9.572192090487052
 40
9.637098333281282
 40
9.691479239515486
 40
9.714284125643525
 40
9.714284125643525
 40
9.714284125643525
 40
9.714284125643525
 10
185.2874469028652
 20
15.26889163187722
 10
185.3090990569037
 20
15.24111869242813
 10
185.3597257109473
 20
15.17618054561238
 10
185.4349383202592
 20
15.06891060312904
 10
185.5248482274345
 20
14.95377438266626
 10
185.5709169676673
 20
14.85357045748324
 10
185.6655825294654
 20
14.78434006814946
 10
185.6204439320413
 20
14.73771639678278
 10
185.594704778579
 20
14.69660308866043
 10
185.5645196708012
 20
14.66065971727944
 10
185.5193684730562
 20
14.58579782596098
 10
185.4710504458562
 20
14.8078252425361
 10
185.3968539713073
 20
14.84510677337715
 10
185.2836047324605
 20
15.11610202130604
 10
185.2885133578169
 20
15.00095328446233
 10
185.2868486556305
 20
14.92836675781631
 10
185.2876830076713
 20
14.80625588483991
 10
185.2873609540263
 20
14.65913800810465
 10
185.2875076912454
 20
14.49307063956561
 10
185.2872950092722
 20
14.32187554608607
 10
185.2879497252033
 20
14.15552828635503
 10
185.2859192461138
 20
14.00935173055699
 10
185.2913460399929
 20
13.88471047474615
 10
185.2804930868707
 20
13.81718656540632
 10
185.2956739155553
 20
13.75549061417028
 10
185.2457895108133
 20
13.76727503897007
 10
185.2017150342521
 20
13.75943822779974
 10
185.1582371630201
 20
13.76760441372707
 10
185.1092346786488
 20
13.75538056738473
 10
185.1218731234825
 20
13.80960667249318
 10
185.1130182968449
 20
13.86936918907562
 10
185.1175058770314
 20
13.97922029044375
 10
185.115796013599
 20
14.11029975405683
 10
185.1163550915986
 20
14.26198011444333
 10
185.1161928768695
 20
14.42211074929958
 10
185.1162269924674
 20
14.5823686567457
 10
185.1162514960127
 20
14.73370247520444
 10
185.1161453543225
 20
14.86582156338605
 10
185.1164299141931
 20
14.97294802533197
 10
185.1158675547567
 20
15.03808619579478
 10
185.1180765083689
 20
15.1661895785868
 10
185.0319435998602
 20
14.79097610391579
 10
184.95551408185
 20
14.63918193123398
 10
184.8660040767832
 20
14.47766206446311
 10
184.7640413217326
 20
14.20471848820177
 10
184.7187976491038
 20
14.36717346596515
 10
184.6102355941671
 20
14.45605432058124
 10
184.7995791751752
 20
14.60549794961413
 10
184.85653405457
 20
14.7974913697493
 10
184.9717520993352
 20
15.02899622906761
 10
184.9940151630132
 20
15.21797259759068
 10
185.1771905152139
 20
15.49454089325933
 10
185.0538033597552
 20
15.48698978832098
 10
184.9925684166834
 20
15.48856772366122
 10
184.9081999617064
 20
15.48882592573677
 10
184.8204235085966
 20
15.48544845751209
 10
184.7656768696122
 20
15.49394814982024
 10
184.7104703026024
 20
15.48048561049791
 10
184.7222823035536
 20
15.52931442126767
 10
184.7142496151794
 20
15.57269004896713
 10
184.7228186104678
 20
15.61509438309577
 10
184.7102943409157
 20
15.66267796552123
 10
184.7555101538735
 20
15.65267212995113
 10
184.8014815562724
 20
15.65894105174067
 10
184.877722204771
 20
15.65593561405876
 10
184.9561296131993
 20
15.65770448278546
 10
185.0323992648932
 20
15.65464793981665
 10
185.0783009459475
 20
15.66103971376182
 10
185.12317339654
 20
15.65093822978901
 10
185.1105552275633
 20
15.70157201581903
 10
185.1191936582707
 20
15.75501261882074
 10
185.1152361595443
 20
15.84863255131685
 10
185.1162325068335
 20
15.95112606688928
 10
185.1171927413074
 20
16.05353270248168
 10
185.1133211458004
 20
16.14735929609324
 10
185.1217789814365
 20
16.20036542840358
 10
185.1093075932835
 20
16.25211435651192
 10
185.154210638985
 20
16.23850747226762
 10
185.1955083836771
 20
16.24100480320589
 10
185.259534428105
 20
16.23648060574492
 10
185.2986111148785
 20
16.22781003043312
 10
185.3476543498741
 20
16.23515102070692
 10
185.322508003059
 20
16.19602896051756
 10
185.2815901333722
 20
16.20563842455815
 10
185.2910109616603
 20
16.15540148169783
 10
185.2855647318745
 20
16.10385945639494
 10
185.2881699601803
 20
16.01959707584525
 10
185.2870102202153
 20
15.92559135583412
 10
185.288359106423
 20
15.8319686539553
 10
185.2849970101508
 20
15.74679517552228
 10
185.2920959917768
 20
15.69716856072049
 10
185.2812569154545
 20
15.64993694969993
 10
185.3304010225244
 20
15.66201674936858
 10
185.3794877630146
 20
15.65447393363016
 10
185.4573714280641
 20
15.65686070361438
 10
185.5350365172895
 20
15.65899381905419
 10
185.5845393931354
 20
15.65193391922459
 10
185.6344594750639
 20
15.66360151936219
 10
185.622319851688
 20
15.61540235371397
 10
185.6305838229143
 20
15.5724921980124
 10
185.6223198650783
 20
15.52958201851388
 10
185.6344594549854
 20
15.48138288754867
 10
185.5845395158747
 20
15.49305034471515
 10
185.5350350651202
 20
15.48599202435049
 10
185.4573784382972
 20
15.48811665228608
 10
185.3794643865759
 20
15.49053389365763
 10
185.3304500352716
 20
15.4829184819449
 10
185.2813246108942
 20
15.49507952557595
 10
185.291555998857
 20
15.45073013424162
 10
185.2856677678053
 20
15.40925436202915
 10
185.2878788305568
 20
15.34915394315306
 10
185.2874109346145
 20
15.30225782762892
 10
185.2874386992912
 20
15.27650146418199
 10
185.2874469028652
 20
15.26889163187722
 97
        1
330
AE
 75
     1
 76
     2
 52
45.0
 41
0.1
 77
     0
 78
     1
 53
45.0
 43
0.0
 44
0.0
 45
-0.282842712474619
 46
0.0
 79
     0
 98
        1
 10
0.0
 20
0.0
  0
HATCH
  5
CC
330
48
100
AcDbEntity
  8
1
  6
Continuous
 62
     2
100
AcDbHatch
 10
0.0
 20
0.0
 30
0.0
210
0.0
220
0.0
230
1.0
  2
CUSTOM10
 70
     0
 71
     1
 91
        1
 92
        1
 93
        1
 72
     4
 94
        3
 73
     0
 74
     0
 95
       47
 96
       43
 40
0.0
 40
0.0
 40
0.0
 40
0.0
 40
0.2207912809957231
 40
0.4459404186303096
 40
0.4902387190458754
 40
0.5327473892722271
 40
0.574226045122503
 40
0.615543263056089
 40
0.6568164066315807
 40
0.6982511618780731
 40
0.7407663929316395
 40
0.785136674317446
 40
1.010288833836246
 40
1.2310805070021
 40
1.451765243652323
 40
1.676638205891605
 40
1.720461045359578
 40
1.830018144043444
 40
1.972442372353076
 40
2.114866600677449
 40
2.224423699395078
 40
2.268246538883317
 40
2.493628801207143
 40
2.715602830286537
 40
2.934211330706294
 40
3.14950236985529
 40
3.23138778485085
 40
3.318231873853885
 40
3.40514319819793
 40
3.486970301720309
 40
3.702258172493756
 40
3.920866283533988
 40
4.142839325931775
 40
4.368221903865232
 40
4.412044743359713
 40
4.521601842095729
 40
4.664026070452211
 40
4.806450298808922
 40
4.916007397546618
 40
4.959830237042942
 40
5.184703515846971
 40
5.405387250767343
 40
5.405387250767343
 40
5.405387250767343
 40
5.405387250767343
 10
182.6507427258644
 20
15.73406440953876
 10
182.6568139420002
 20
15.79758482501214
 10
182.6690762107243
 20
15.9258793868963
 10
182.5604706879412
 20
16.20166220174082
 10
182.6761985896603
 20
16.17188133432057
 10
182.7171842509015
 20
16.16765556262826
 10
182.7591205797517
 20
16.1631044638961
 10
182.800419662571
 20
16.16201982929491
 10
182.8417032115555
 20
16.16310338195231
 10
182.8836148270647
 20
16.16766112711348
 10
182.9245983549019
 20
16.17187430209733
 10
183.0404922843488
 20
16.2017761131754
 10
182.9295652727457
 20
15.92339806609893
 10
182.9574856365267
 20
15.74283140824957
 10
182.9404267346969
 20
15.50961042346476
 10
182.9414637282102
 20
15.3490662254315
 10
182.9414099399405
 20
15.22284817558727
 10
182.9414277372481
 20
15.12428963336246
 10
182.941418858108
 20
14.99280702442967
 10
182.9414263928034
 20
14.86132844968654
 10
182.9414129405128
 20
14.76276222694094
 10
182.9414531717492
 20
14.63639735624156
 10
182.9406746403817
 20
14.47482068822874
 10
182.9565958319267
 20
14.24361821892919
 10
182.9333468885407
 20
14.05874351972007
 10
183.0360183444365
 20
13.78935602770061
 10
182.8820238362836
 20
13.82660112685821
 10
182.8004129802832
 20
13.82137994680537
 10
182.7188192292582
 20
13.82660620378355
 10
182.5648513666843
 20
13.78937069885392
 10
182.6674183421917
 20
14.05875129862885
 10
182.6442045316086
 20
14.24361585325419
 10
182.6600444655139
 20
14.47482218565642
 10
182.6593296313427
 20
14.63639712308507
 10
182.6593664569906
 20
14.76276231210524
 10
182.6593549000271
 20
14.86132756635986
 10
182.6593575019213
 20
14.99281127417224
 10
182.6593648531779
 20
15.12427548031205
 10
182.6593442541351
 20
15.22287786275331
 10
182.6594082192028
 20
15.34896149354431
 10
182.658173394759
 20
15.51210091383776
 10
182.6532040396744
 20
15.66054183777554
 10
182.6507427258644
 20
15.73406440953876
 97
        1
330
AF
 75
     1
 76
     2
 52
45.0
 41
0.1
 77
     0
 78
     1
 53
45.0
 43
0.0
 44
0.0
 45
-0.282842712474619
 46
0.0
 79
     0
 98
        1
 10
0.0
 20
0.0
  0
HATCH
  5
CD
330
48
100
AcDbEntity
  8
1
  6
Continuous
 62
     2
100
AcDbHatch
 10
0.0
 20
0.0
 30
0.0
210
0.0
220
0.0
230
1.0
  2
CUSTOM11
 70
     0
 71
     1
 91
        1
 92
        1
 93
        1
 72
     4
 94
        3
 73
     0
 74
     0
 95
      110
 96
      106
 40
0.0
 40
0.0
 40
0.0
 40
0.0
 40
0.2203406257277649
 40
0.4407808782838091
 40
0.5952494494614786
 40
0.7488431659393074
 40
0.9023581831309059
 40
1.056801968670404
 40
1.210736449099905
 40
1.363041386539783
 40
1.515315729683069
 40
1.669377239148077
 40
1.721611652756564
 40
1.773199502942944
 40
1.824933793209997
 40
1.877110426487978
 40
1.982682281206741
 40
2.078781667087634
 40
2.172809640822327
 40
2.271937807378924
 40
2.378349933379403
 40
2.494131557736591
 40
2.62668168394364
 40
2.783145050796067
 40
2.890701232940923
 40
2.993130312454821
 40
3.099869730691806
 40
3.2202378166913
 40
3.352695482737587
 40
3.481732806389839
 40
3.593499473690364
 40
3.674323013331887
 40
3.817951711952808
 40
3.946167120793749
 40
4.061405053453463
 40
4.166480796003075
 40
4.262478775059198
 40
4.350736673551155
 40
4.433071991254012
 40
4.511216293814557
 40
4.564262454117861
 40
4.618474415571476
 40
4.670128488754077
 40
4.722296879126258
 40
4.819540945314127
 40
4.931194984127984
 40
5.049996040257597
 40
5.168643755415172
 40
5.283970811762326
 40
5.392260784910123
 40
5.486512254876198
 40
5.559178233949597
 40
5.591425852853273
 40
5.626215969637651
 40
5.6671558386742
 40
5.717449290214012
 40
5.738402360944622
 40
5.784499116553586
 40
5.830595872164554
 40
5.851548942897408
 40
5.873019280661523
 40
5.92421777840807
 40
5.985325662817451
 40
6.03652416056747
 40
6.057994498334
 40
6.236847789607247
 40
6.381409928945422
 40
6.493190424178451
 40
6.574067534230255
 40
6.691018086205349
 40
6.814881554220267
 40
6.944307823240134
 40
7.071266716065757
 40
7.19348860446166
 40
7.309042773127916
 40
7.414007203170485
 40
7.505140441886297
 40
7.531150360599466
 40
7.55922164532205
 40
7.587202218920702
 40
7.612569159498922
 40
7.662550809480789
 40
7.702878875763932
 40
7.857328205230746
 40
8.010799568088391
 40
8.16525639965737
 40
8.322232698713766
 40
8.479564855016395
 40
8.63521623029057
 40
8.790882550925488
 40
8.948305154947054
 40
9.16827183903275
 40
9.387358980987015
 40
9.608047961033257
 40
9.832914234792458
 40
9.858338694962793
 40
9.925366817229799
 40
10.02013071422738
 40
10.12876249858977
 40
10.23739428295228
 40
10.33215817995169
 40
10.39918630222373
 40
10.42461076239762
 40
10.64992019336921
 40
10.87188524531167
 40
10.87188524531167
 40
10.87188524531167
 40
10.87188524531167
 10
179.9057788376618
 20
15.73923260398195
 10
179.9092864933541
 20
15.80616462073809
 10
179.9163033987662
 20
15.94005891915863
 10
179.8198027599072
 20
16.22548554971474
 10
180.0510134726108
 20
16.16284386190287
 10
180.1919290057156
 20
16.17001554055996
 10
180.3490417757588
 20
16.16235883078249
 10
180.5025913427287
 20
16.16252752283045
 10
180.6545104935081
 20
16.16182040535437
 10
180.8142214813231
 20
16.17210158351644
 10
180.9408972601117
 20
16.15496511080756
 10
181.137082112208
 20
16.22727260107153
 10
181.1034395279078
 20
16.12640699080122
 10
181.1052011317184
 20
16.07619253947675
 10
181.1027342073458
 20
16.02712335586471
 10
181.1347076966011
 20
15.94063490847003
 10
181.0010399903255
 20
15.98997438608344
 10
180.9172208688056
 20
15.9843063431417
 10
180.8173861139323
 20
15.99465516706302
 10
180.7186576720145
 20
16.00086450411091
 10
180.612153277111
 20
16.00697763816781
 10
180.4910511698059
 20
16.0158888348459
 10
180.3703381502453
 20
16.00521605912388
 10
180.1812553843437
 20
16.06468503080372
 10
180.2129028505311
 20
15.90558320077544
 10
180.1995563316833
 20
15.80839128339909
 10
180.1974958426449
 20
15.69634065110107
 10
180.195818804467
 20
15.57699685629355
 10
180.1973336794233
 20
15.45032592155114
 10
180.1956582478669
 20
15.32301588016121
 10
180.2058844271657
 20
15.22451566404468
 10
180.1779006596582
 20
15.08388702625635
 10
180.3508029999305
 20
15.13989551134098
 10
180.4645020202771
 20
15.12719951478502
 10
180.5840151672238
 20
15.13448377051258
 10
180.6888491425071
 20
15.1387801705676
 10
180.7843084898612
 20
15.1433056825898
 10
180.8763823507032
 20
15.15149201146205
 10
180.9476551782438
 20
15.14643850638116
 10
181.0544931705684
 20
15.18536425031676
 10
181.0226603598036
 20
15.10517122005882
 10
181.026616450393
 20
15.05562936846038
 10
181.0234502392012
 20
15.00557478039824
 10
181.0550791490583
 20
14.92128847612027
 10
180.9210133677691
 20
14.97425365495162
 10
180.8292322793199
 20
14.96540080890447
 10
180.7079729189602
 20
14.97570049965158
 10
180.5914113119771
 20
14.97748911767508
 10
180.4783375745878
 20
14.97787017109697
 10
180.3679246308471
 20
14.98415449472184
 10
180.289812406784
 20
14.97189133255367
 10
180.1913625833644
 20
15.00453887616131
 10
180.2012355173561
 20
14.9476974805421
 10
180.1973923244401
 20
14.91392130557988
 10
180.1966789884269
 20
14.87119604709415
 10
180.1963369642975
 20
14.83401607262157
 10
180.1963834255346
 20
14.79487237370775
 10
180.1963649429927
 20
14.7571684949769
 10
180.1963703431805
 20
14.71944955232407
 10
180.1963697214201
 20
14.68994324745155
 10
180.1963698151544
 20
14.65873577699305
 10
180.1963704287921
 20
14.61414424908089
 10
180.1963671499337
 20
14.55963956508855
 10
180.196375962348
 20
14.51505540201452
 10
180.1963359653417
 20
14.43117808585744
 10
180.1976024270255
 20
14.31737520677682
 10
180.195027411784
 20
14.16830395933713
 10
180.206500938172
 20
14.0659720381391
 10
180.1823506222263
 20
13.93338903885838
 10
180.3332993946476
 20
13.97895732272026
 10
180.4428436671556
 20
13.96427012162354
 10
180.5733970473919
 20
13.96920435125068
 10
180.6990312209513
 20
13.97257705323364
 10
180.81887306256
 20
13.97711497498776
 10
180.9391362611426
 20
13.9904853618201
 10
181.0222761663515
 20
13.98068712782602
 10
181.1456080421076
 20
14.04126214623326
 10
181.1244269203956
 20
13.98532460134025
 10
181.1235950270117
 20
13.9593924937235
 10
181.1218963707558
 20
13.93197256190943
 10
181.1217974888829
 20
13.8973819520639
 10
181.1203659301329
 20
13.86050408220771
 10
181.153280419219
 20
13.76846841021811
 10
180.9551306988107
 20
13.84132015974835
 10
180.8300548294891
 20
13.81825726508608
 10
180.6673071295155
 20
13.82454021985788
 10
180.5129366450001
 20
13.82260943909929
 10
180.3566670436943
 20
13.8239376259927
 10
180.1970544465281
 20
13.82059872487865
 10
180.0540326342237
 20
13.83265795728244
 10
179.8197144881628
 20
13.76952001976922
 10
179.9173810751197
 20
14.05620527466322
 10
179.9006868780059
 20
14.24988308142664
 10
179.9146296709684
 20
14.47848242880299
 10
179.9142987846632
 20
14.63384593955051
 10
179.9143078119264
 20
14.7396633644413
 10
179.9143055876316
 20
14.80205784124218
 10
179.9143065551888
 20
14.8922042524833
 10
179.9143065473262
 20
14.99621167157442
 10
179.9143053861102
 20
15.100221313753
 10
179.9143090971503
 20
15.19036243688771
 10
179.9143011051052
 20
15.2527680309722
 10
179.9143334275017
 20
15.35868835961123
 10
179.9131440788319
 20
15.51626716544744
 10
179.9082216489256
 20
15.6652821982207
 10
179.9057788376618
 20
15.73923260398195
 97
        1
330
B0
 75
     1
 76
     2
 52
45.0
 41
0.1
 77
     0
 78
     1
 53
45.0
 43
0.0
 44
0.0
 45
-0.282842712474619
 46
0.0
 79
     0
 98
        1
 10
0.0
 20
0.0
  0
HATCH
  5
CE
330
48
100
AcDbEntity
  8
1
  6
Continuous
 62
     2
100
AcDbHatch
 10
0.0
 20
0.0
 30
0.0
210
0.0
220
0.0
230
1.0
  2
CUSTOM12
 70
     0
 71
     1
 91
        1
 92
        1
 93
        1
 72
     4
 94
        3
 73
     0
 74
     0
 95
       95
 96
       91
 40
0.0
 40
0.0
 40
0.0
 40
0.0
 40
0.6550406656911701
 40
1.308087289031933
 40
1.420803739835803
 40
1.566130759770796
 40
1.75706734188846
 40
2.006513545026457
 40
2.08732826312156
 40
2.185328872295639
 40
2.294612454748388
 40
2.408936380534822
 40
2.526802767798568
 40
2.646360524615608
 40
2.762535723971586
 40
2.870057342870159
 40
2.966883448431659
 40
3.050803243518306
 40
3.115818222436612
 40
3.156030057150254
 40
3.213914225080212
 40
3.276689026450669
 40
3.342960320981333
 40
3.404230667150582
 40
3.453822809493397
 40
3.532499827188446
 40
3.634775188507185
 40
3.754909333008181
 40
3.889736761660684
 40
4.035769602175247
 40
4.187256681197638
 40
4.338733685675987
 40
4.488478734676144
 40
4.634708317831605
 40
4.771493189921294
 40
4.892686571561231
 40
5.199775528944476
 40
5.460353566929657
 40
5.667603142345543
 40
5.814722905404514
 40
5.828990806219812
 40
5.855488336304509
 40
5.869756237118841
 40
6.189796507762805
 40
6.531890469873027
 40
6.883053637016987
 40
7.230512024911492
 40
7.566966656764568
 40
7.885203559707434
 40
8.172887439719233
 40
8.418011594062788
 40
8.443926721190712
 40
8.5107604706132
 40
8.60214539379571
 40
8.701714041647152
 40
8.793098965075385
 40
8.85993271505796
 40
8.88584784260361
 40
9.242301256612812
 40
9.589275455016768
 40
9.921808543164182
 40
10.23479624298469
 40
10.29968150889188
 40
10.35323493887777
 40
10.40154625355161
 40
10.46482922477837
 40
10.55973900668418
 40
10.6923954598563
 40
10.84920353475685
 40
11.01626328594795
 40
11.18672024367457
 40
11.35372582577224
 40
11.5025744229244
 40
11.61866495023303
 40
11.71329869152888
 40
11.82511050573921
 40
11.94464880845729
 40
12.06929242642519
 40
12.19707290435189
 40
12.32562632860541
 40
12.45034565331292
 40
12.56646595170341
 40
12.67099007414648
 40
12.76077625936796
 40
12.82703233506707
 40
12.87429132786006
 40
12.89831990323346
 40
12.92234847860034
 40
13.53984767410339
 40
14.18294284359379
 40
14.18294284359379
 40
14.18294284359379
 40
14.18294284359379
 10
177.3067935648021
 20
14.70898038201729
 10
177.175201975855
 20
14.82265058603235
 10
176.9124193802728
 20
15.04964496316159
 10
176.3997393441021
 20
15.8921446295629
 10
176.4106654595362
 20
15.53423377577024
 10
176.4041226527991
 20
15.39267392272137
 10
176.4028026631771
 20
15.19421305299286
 10
176.4018117602537
 20
15.02150296045987
 10
176.4024101751974
 20
14.87865373257584
 10
176.4038994301883
 20
14.78265005413361
 10
176.4055683588471
 20
14.67545503263144
 10
176.4071934954618
 20
14.56164211517586
 10
176.4092429501685
 20
14.44441572604592
 10
176.4123165501927
 20
14.32656411232974
 10
176.4156339697043
 20
14.21228087320625
 10
176.419360534028
 20
14.10521401867281
 10
176.4217338161424
 20
14.01007408766926
 10
176.4278718888357
 20
13.92558557205699
 10
176.4239784495946
 20
13.86923087298145
 10
176.4455230443077
 20
13.79825022472357
 10
176.3680940058617
 20
13.82902677604488
 10
176.311635324019
 20
13.82011242517616
 10
176.2540495896806
 20
13.82896218398277
 10
176.1690163478472
 20
13.79738225225948
 10
176.2009714146382
 20
13.88095155992194
 10
176.1990705282539
 20
13.94882608968313
 10
176.2107960047299
 20
14.05233256764422
 10
176.2164241053
 20
14.17002125616699
 10
176.2237902178941
 20
14.30388609164427
 10
176.232075970161
 20
14.44764152872636
 10
176.2398851897426
 20
14.5971402284345
 10
176.2457571222657
 20
14.74792549402083
 10
176.2503667817968
 20
14.89699943878442
 10
176.2542632117541
 20
15.04122913163026
 10
176.2570715126564
 20
15.17583905213021
 10
176.2576698755022
 20
15.36469614347359
 10
176.261602386715
 20
15.58975494313158
 10
176.2442175378499
 20
15.86367091125712
 10
176.2850417342582
 20
16.027871120986
 10
176.1995153256003
 20
16.22749661465101
 10
176.2660558907688
 20
16.22385458403982
 10
176.283872427323
 20
16.22413447160858
 10
176.4056801797507
 20
16.22632927398619
 10
176.5080770335459
 20
15.94675118721513
 10
176.7580021509357
 20
15.74563008536012
 10
176.987003533111
 20
15.47792614987916
 10
177.2245151213109
 20
15.22646413862385
 10
177.4486090740771
 20
14.98969974061358
 10
177.6750716283009
 20
14.73218692583085
 10
177.8325687886514
 20
14.61649335056925
 10
178.0472129612675
 20
14.27997152538798
 10
178.0422645974618
 20
14.40464754091608
 10
178.0433931602546
 20
14.46327691935741
 10
178.0428877841517
 20
14.55043662371981
 10
178.0430475158113
 20
14.64416143182877
 10
178.0430054891318
 20
14.7301897129704
 10
178.0430202040372
 20
14.791538919455
 10
178.0429706255983
 20
14.94135231520997
 10
178.045881152281
 20
15.17989612510108
 10
178.0259521041162
 20
15.54486509868704
 10
178.0750433936247
 20
15.80799631993419
 10
177.9177951509179
 20
16.21928904947756
 10
178.0762112872421
 20
16.16398282551754
 10
178.1311680478628
 20
16.1619968650018
 10
178.182788776674
 20
16.16264778248257
 10
178.2713198965365
 20
16.2036952773825
 10
178.2204898303169
 20
16.05696326622991
 10
178.2313389930284
 20
15.95019971954437
 10
178.2166036994846
 20
15.79085705414117
 10
178.2099976446204
 20
15.62853061652878
 10
178.2014961399914
 20
15.45992521892398
 10
178.1943227202198
 20
15.29814814703544
 10
178.1889063215388
 20
15.15422331457936
 10
178.1871713967648
 20
15.03437493466929
 10
178.1875440672319
 20
14.92686101590519
 10
178.1873656126262
 20
14.8182002464559
 10
178.187701086314
 20
14.69953570165535
 10
178.1890040622183
 20
14.57555163512745
 10
178.1908887351574
 20
14.44858294171109
 10
178.192500445485
 20
14.32153861551036
 10
178.194140313743
 20
14.19854884492182
 10
178.1962570745752
 20
14.08300931383763
 10
178.1963848422364
 20
13.98090903955841
 10
178.2006514396554
 20
13.8900984883816
 10
178.190844008529
 20
13.8321362120879
 10
178.2118474771689
 20
13.76517130132032
 10
178.1725639739897
 20
13.77291153966692
 10
177.9595307117748
 20
13.75755254145197
 10
177.7636297943184
 20
14.31403058094467
 10
177.4611197631545
 20
14.57556035348513
 10
177.3067935648021
 20
14.70898038201729
 97
        1
330
B1
 75
     1
 76
     2
 52
45.0
 41
0.1
 77
     0
 78
     1
 53
45.0
 43
0.0
 44
0.0
 45
-0.282842712474619
 46
0.0
 79
     0
 98
        1
 10
0.0
 20
0.0
  0
HATCH
  5
CF
330
48
100
AcDbEntity
  8
1
  6
Continuous
 62
     2
100
AcDbHatch
 10
0.0
 20
0.0
 30
0.0
210
0.0
220
0.0
230
1.0
  2
CUSTOM13
 70
     0
 71
     1
 91
        2
 92
        1
 93
        1
 72
     4
 94
        3
 73
     0
 74
     0
 95
       57
 96
       53
 40
0.0
 40
0.0
 40
0.0
 40
0.0
 40
0.0471632082809513
 40
0.0914861054632997
 40
0.1357762519702948
 40
0.1826527001610674
 40
0.2295203288572583
 40
0.2737751972221605
 40
0.3181310461543344
 40
0.3652607198398499
 40
0.4571007286314538
 40
0.5671851029165266
 40
0.6894623283868286
 40
0.8181758272546055
 40
0.9510087229274119
 40
1.085852229674097
 40
1.218126164475325
 40
1.343545131142383
 40
1.454537202956856
 40
1.567187607530808
 40
1.680710966642427
 40
1.794226869736791
 40
1.900009184247591
 40
2.004085860447984
 40
2.108162674451787
 40
2.214000150155302
 40
2.496038577352134
 40
2.762350745479269
 40
2.997275353279417
 40
3.185110082137759
 40
3.2464078900639
 40
3.312607550212631
 40
3.378877742711561
 40
3.440140399651472
 40
4.100501696006533
 40
4.754913085563582
 40
5.411331693423956
 40
6.077890432568738
 40
6.110575292671017
 40
6.143260152775797
 40
6.367989363395222
 40
6.61052537495162
 40
6.863389136467364
 40
7.119380025547658
 40
7.37603660509115
 40
7.631164770966352
 40
7.876722425456473
 40
8.104953735856006
 40
8.31291668592436
 40
8.497730294941373
 40
8.651018984313922
 40
8.764738853624658
 40
8.764738853624658
 40
8.764738853624658
 40
8.764738853624658
 10
174.7922649500513
 20
13.81626739612931
 10
174.7766616726931
 20
13.81826231079082
 10
174.7463947960302
 20
13.82213201360303
 10
174.7010994202251
 20
13.82341984967271
 10
174.6559553129349
 20
13.82308683554053
 10
174.6099017123399
 20
13.82314658674226
 10
174.5640496172096
 20
13.82325813650004
 10
174.5183711648164
 20
13.82277833456593
 10
174.4750811541608
 20
13.82461109618725
 10
174.4039947951513
 20
13.80049556814661
 10
174.4057477261441
 20
13.92184693977257
 10
174.3586196370569
 20
14.00726239751237
 10
174.3191478251761
 20
14.12486929345139
 10
174.2706635532645
 20
14.24232752540443
 10
174.2201017402523
 20
14.36405935761516
 10
174.1718634610475
 20
14.49075967862465
 10
174.1135232947594
 20
14.59933687784958
 10
174.0980892667261
 20
14.75620657134416
 10
173.9566586330636
 20
14.72373446548326
 10
173.8508397414903
 20
14.73512888682184
 10
173.7358569725222
 20
14.73392591514619
 10
173.625314225214
 20
14.73506945347411
 10
173.5176583522783
 20
14.7341835003753
 10
173.4121322529242
 20
14.73416602390523
 10
173.3109192682012
 20
14.7271403247242
 10
173.1266804827753
 20
14.7513585985987
 10
173.1157393685411
 20
14.4474169112189
 10
173.008769163475
 20
14.223531772534
 10
172.9098148604346
 20
14.03895314292502
 10
172.9225090524006
 20
13.79530204804212
 10
172.8050091716397
 20
13.82508046753201
 10
172.742205586831
 20
13.82258089509605
 10
172.67858720934
 20
13.82344075102809
 10
172.3946014194073
 20
13.78098039941951
 10
173.0251638499382
 20
14.50081952444786
 10
173.1087645289071
 20
15.01276539435732
 10
173.4929252789339
 20
15.53353743550051
 10
173.4777208288563
 20
16.23519626253216
 10
173.7239265722696
 20
16.22345633081261
 10
173.825634615756
 20
16.23225004452777
 10
173.8249752035819
 20
15.98059650730353
 10
173.9428317155827
 20
15.79818020733962
 10
174.0315515260485
 20
15.55563740662869
 10
174.1322292485259
 20
15.32340030530133
 10
174.2311142712242
 20
15.08674644566915
 10
174.3299676990669
 20
14.854617391701
 10
174.4256166390925
 20
14.63122222788793
 10
174.515990457327
 20
14.42272549049317
 10
174.5989944568188
 20
14.23308448529324
 10
174.6726088582799
 20
14.06663106068104
 10
174.7342815895546
 20
13.92917699626102
 10
174.7749458885604
 20
13.84999239430038
 10
174.7922649500513
 20
13.81626739612931
 97
        1
330
B3
 92
       16
 93
        1
 72
     4
 94
        3
 73
     0
 74
     0
 95
       25
 96
       21
 40
0.0
 40
0.0
 40
0.0
 40
0.0
 40
0.0911479969064253
 40
0.1858117896204665
 40
0.2804128399734492
 40
0.3715889190714511
 40
0.4679080494218709
 40
0.5642683809229231
 40
0.6605683222644992
 40
0.7569653015810259
 40
0.8561348172522727
 40
1.092615965104289
 40
1.374867658141871
 40
1.611348812011592
 40
1.71051832842524
 40
1.809403163726555
 40
2.045205463294058
 40
2.326646917622115
 40
2.562449217190575
 40
2.661334043833893
 40
2.661334043833893
 40
2.661334043833893
 40
2.661334043833893
 10
173.2683700567199
 20
14.88614538197297
 10
173.2987525917922
 20
14.88598079714559
 10
173.3606895889111
 20
14.88564528689926
 10
173.4541356960329
 20
14.88269055452005
 10
173.5475095236357
 20
14.87977752877154
 10
173.6417760753476
 20
14.87894201643421
 10
173.7354964790967
 20
14.87996644658051
 10
173.8352040303205
 20
14.87916977470975
 10
173.9188949546312
 20
14.88921410235224
 10
174.0637996315045
 20
14.8623461767417
 10
173.9396132444801
 20
15.03665530280053
 10
173.8965867286282
 20
15.19651711006096
 10
173.780892214221
 20
15.4551845855022
 10
173.7017565431256
 20
15.59231052861862
 10
173.6431576621816
 20
15.80937033134081
 10
173.5864803939437
 20
15.59266134213432
 10
173.5052809900478
 20
15.45327012438241
 10
173.4063701281488
 20
15.20406969370199
 10
173.3253625094258
 20
15.01925830226078
 10
173.2813683325838
 20
14.91650446856121
 10
173.2683700567199
 20
14.88614538197297
 97
        1
330
B2
 75
     1
 76
     2
 52
45.0
 41
0.1
 77
     0
 78
     1
 53
45.0
 43
0.0
 44
0.0
 45
-0.282842712474619
 46
0.0
 79
     0
 98
        1
 10
0.0
 20
0.0
  0
HATCH
  5
D0
330
48
100
AcDbEntity
  8
1
  6
Continuous
 62
     2
100
AcDbHatch
 10
0.0
 20
0.0
 30
0.0
210
0.0
220
0.0
230
1.0
  2
CUSTOM14
 70
     0
 71
     1
 91
        1
 92
        1
 93
        1
 72
     4
 94
        3
 73
     0
 74
     0
 95
       99
 96
       95
 40
0.0
 40
0.0
 40
0.0
 40
0.0
 40
0.0796417172272296
 40
0.1621768542356055
 40
0.248648916095769
 40
0.3404969668524669
 40
0.4381912511164678
 40
0.5434463660244985
 40
0.6518115192847305
 40
0.7530190937886883
 40
0.8492196919724682
 40
0.941929031299819
 40
1.034249663569971
 40
1.129078600620166
 40
1.226697027573198
 40
1.327220425421666
 40
1.47057213493798
 40
1.59548986337118
 40
1.719934125348383
 40
1.850576620127441
 40
1.989059629987338
 40
2.134139054226957
 40
2.280698007207219
 40
2.424529739039433
 40
2.565929576985803
 40
2.708239260773495
 40
2.861717887443636
 40
3.045168540347341
 40
3.183798301138573
 40
3.314813961455414
 40
3.442083470447263
 40
3.569912708372929
 40
3.702177512509373
 40
3.842307559659561
 40
3.992872223245939
 40
4.156750662218271
 40
4.310981861107578
 40
4.445859909322623
 40
4.572393936131617
 40
4.70165671978201
 40
4.768279086008498
 40
4.835960697898443
 40
4.912788918729381
 40
5.006285208481614
 40
5.026909478751662
 40
5.04753374902117
 40
5.101808031471261
 40
5.162325165538542
 40
5.226919745995907
 40
5.294231806596779
 40
5.364544852554885
 40
5.438319055467906
 40
5.517877651324268
 40
5.607647714861637
 40
5.700449642544455
 40
5.788251142364131
 40
5.872714706039761
 40
5.955167292575279
 40
6.037192395190365
 40
6.120669181469101
 40
6.206848616686344
 40
6.296680855416753
 40
6.442558392872582
 40
6.568190371608271
 40
6.692904567360349
 40
6.824220446557129
 40
6.963121850329369
 40
7.107843738851155
 40
7.253431663907269
 40
7.395187468036688
 40
7.533140753237741
 40
7.670550457175226
 40
7.816236511769247
 40
7.987691657359206
 40
8.142277421969238
 40
8.293662615415005
 40
8.442962460879295
 40
8.591598316185305
 40
8.743678992361803
 40
8.903725323699165
 40
9.076307008890511
 40
9.265578604680567
 40
9.459203795360798
 40
9.617619810273528
 40
9.75360967136189
 40
9.87487330000406
 40
9.954520184977731
 40
10.0241641371924
 40
10.0976976440544
 40
10.18909955924967
 40
10.20974586420138
 40
10.23039218263383
 40
10.30057101881268
 40
10.37632012987548
 40
10.37632012987548
 40
10.37632012987548
 40
10.37632012987548
 10
170.1465954835851
 20
14.13795663215998
 10
170.1632217851219
 20
14.11720608845317
 10
170.1970784206577
 20
14.07495111711904
 10
170.2599822541036
 20
14.02029811392077
 10
170.3332500940393
 20
13.97299025121055
 10
170.4175969238636
 20
13.93527231437938
 10
170.5132240615459
 20
13.91040619731956
 10
170.6171853775346
 20
13.90309559345941
 10
170.7224020220405
 20
13.91142322794057
 10
170.8206626371333
 20
13.9414917965153
 10
170.9058986427547
 20
13.98848822971885
 10
170.9779220206103
 20
14.04952991250856
 10
171.0350917709094
 20
14.12412969578596
 10
171.076786874744
 20
14.21002464660173
 10
171.1026952846292
 20
14.30485850432217
 10
171.1118037332653
 20
14.4185497903837
 10
171.0986864796487
 20
14.54332587770783
 10
171.0325330334414
 20
14.66014719171898
 10
170.9369370919568
 20
14.74512539577378
 10
170.8249681022368
 20
14.81416684459162
 10
170.6993659583268
 20
14.87204142045896
 10
170.5656691620856
 20
14.92373723284345
 10
170.431312281883
 20
14.97899092397185
 10
170.3051983986876
 20
15.04939770641654
 10
170.1926579987536
 20
15.13785540731254
 10
170.0969963064457
 20
15.24981067868477
 10
170.0334157151825
 20
15.39949910101385
 10
170.0200706505016
 20
15.55932794385146
 10
170.0320510987448
 20
15.71048405306849
 10
170.071229892884
 20
15.83809244591543
 10
170.135498775091
 20
15.95080874030848
 10
170.2238204999739
 20
16.04648609268693
 10
170.3338091207627
 20
16.12354214985757
 10
170.4632284401265
 20
16.1815139693628
 10
170.6111838967792
 20
16.21739177588827
 10
170.7682069455486
 20
16.22746719050568
 10
170.917494046643
 20
16.21863637762594
 10
171.059625361417
 20
16.19074899340357
 10
171.1595922609625
 20
16.13413314701141
 10
171.3125074736186
 20
16.08674602105512
 10
171.2455131717168
 20
16.00197553001189
 10
171.2296479120269
 20
15.93438901873489
 10
171.1978750531296
 20
15.86926092793194
 10
171.2150202209571
 20
15.76723453256956
 10
171.1666427208231
 20
15.77493211681904
 10
171.1315789440765
 20
15.76806771724812
 10
171.1296697985718
 20
15.832638311582
 10
171.0985692931989
 20
15.87825639621402
 10
171.0664551628454
 20
15.93561036628456
 10
171.0208038475167
 20
15.98540462692561
 10
170.9658508218386
 20
16.02994813719
 10
170.9010841173007
 20
16.06763988836556
 10
170.8232377310596
 20
16.09283375791356
 10
170.7355160553352
 20
16.09931230998115
 10
170.6452903277806
 20
16.09235709285612
 10
170.5594594694065
 20
16.06909190460924
 10
170.4828343638596
 20
16.0313164410755
 10
170.4165265636201
 20
15.98051641089577
 10
170.3622560536963
 20
15.91731143407215
 10
170.3224925345459
 20
15.84276455710371
 10
170.2976775510588
 20
15.75917313997767
 10
170.289212426287
 20
15.65192948382289
 10
170.3019697987103
 20
15.52965457267563
 10
170.3681548409273
 20
15.41149724291216
 10
170.4640977399832
 20
15.32606325709532
 10
170.5757914963182
 20
15.25583362306726
 10
170.7010863668702
 20
15.19659162305307
 10
170.8349823941447
 20
15.14616708086136
 10
170.9689930333149
 20
15.09322516984385
 10
171.0950885316915
 20
15.0275017062518
 10
171.2076216638417
 20
14.94480352537326
 10
171.3031370284233
 20
14.83996006310079
 10
171.3672706486962
 20
14.69937117251574
 10
171.3811103725278
 20
14.54065409451597
 10
171.367395471223
 20
14.3815315521788
 10
171.3244739153985
 20
14.23483828819213
 10
171.2545906329065
 20
14.1011979658715
 10
171.1574592213829
 20
13.98532387699293
 10
171.0347806023657
 20
13.89089981770095
 10
170.8874408413168
 20
13.82179270651983
 10
170.7177132497124
 20
13.77953210858858
 10
170.5317404979597
 20
13.76781736230411
 10
170.3528955926182
 20
13.7780948668344
 10
170.1881733753743
 20
13.81966573769158
 10
170.0834410841057
 20
13.88797642883946
 10
169.9350960790366
 20
13.93675219032108
 10
169.9980378194728
 20
14.02976591290846
 10
170.0072274430058
 20
14.10296536248284
 10
170.0303711301232
 20
14.16936294501349
 10
170.0034588335315
 20
14.26974809527587
 10
170.0521338956339
 20
14.26234033517382
 10
170.0916530580696
 20
14.26894063620898
 10
170.0996204944702
 20
14.19078703218936
 10
170.1305436967923
 20
14.15600927375861
 10
170.1465954835851
 20
14.13795663215998
 97
        1
330
B4
 75
     1
 76
     2
 52
45.0
 41
0.1
 77
     0
 78
     1
 53
45.0
 43
0.0
 44
0.0
 45
-0.282842712474619
 46
0.0
 79
     0
 98
        1
 10
0.0
 20
0.0
  0
ENDBLK
  5
4A
330
48
100
AcDbEntity
  8
0
100
AcDbBlockEnd
  0
BLOCK
  5
4D
330
4B
100
AcDbEntity
  8
0
100
AcDbBlockBegin
  2
開示A4枠
 70
     0
 10
0.0
 20
0.0
 30
0.0
  3
開示A4枠
  1

  0
INSERT
  5
4C
330
4B
100
AcDbEntity
  8
1
100
AcDbBlockReference
  2
開示A4
 10
0.0
 20
0.0
 30
0.0
  0
ENDBLK
  5
4E
330
4B
100
AcDbEntity
  8
0
100
AcDbBlockEnd
  0
BLOCK
  5
50
330
4F
100
AcDbEntity
  8
0
100
AcDbBlockBegin
  2
PLIST
 70
     0
 10
608.2230886850157
 20
174.9797400611623
 30
0.0
  3
PLIST
  1

  0
LINE
  5
D1
330
4F
100
AcDbEntity
  8
1
  6
Continuous
 62
     7
100
AcDbLine
 10
63.47308868501571
 20
125.9797400611623
 30
0.0
 11
63.47308868501571
 21
125.4797400611623
 31
0.0
  0
LINE
  5
D2
330
4F
100
AcDbEntity
  8
1
  6
Continuous
 62
     7
100
AcDbLine
 10
63.47308868501571
 20
125.9797400611623
 30
0.0
 11
92.97308868501571
 21
125.9797400611623
 31
0.0
  0
LINE
  5
D3
330
4F
100
AcDbEntity
  8
1
  6
Continuous
 62
     7
100
AcDbLine
 10
92.97308868501571
 20
125.4797400611623
 30
0.0
 11
63.47308868501571
 21
125.4797400611623
 31
0.0
  0
LINE
  5
D4
330
4F
100
AcDbEntity
  8
1
  6
Continuous
 62
     7
100
AcDbLine
 10
92.97308868501571
 20
125.9797400611623
 30
0.0
 11
92.97308868501571
 21
125.4797400611623
 31
0.0
  0
LINE
  5
D5
330
4F
100
AcDbEntity
  8
1
  6
Continuous
 62
     7
100
AcDbLine
 10
138.4730886850157
 20
127.8297400611623
 30
0.0
 11
136.7230886850157
 21
125.7297400611623
 31
0.0
  0
LINE
  5
D6
330
4F
100
AcDbEntity
  8
1
  6
Continuous
 62
     7
100
AcDbLine
 10
136.7230886850157
 20
125.7297400611623
 30
0.0
 11
136.7230886850157
 21
122.8797400611623
 31
0.0
  0
LINE
  5
D7
330
4F
100
AcDbEntity
  8
1
  6
Continuous
 62
     7
100
AcDbLine
 10
136.7230886850157
 20
122.8797400611623
 30
0.0
 11
165.7230886850157
 21
122.8797400611623
 31
0.0
  0
LINE
  5
D8
330
4F
100
AcDbEntity
  8
1
  6
Continuous
 62
     7
100
AcDbLine
 10
165.7230886850157
 20
122.8797400611623
 30
0.0
 11
165.7230886850157
 21
125.7297400611623
 31
0.0
  0
LINE
  5
D9
330
4F
100
AcDbEntity
  8
1
  6
Continuous
 62
     7
100
AcDbLine
 10
165.7230886850157
 20
125.7297400611623
 30
0.0
 11
163.9730886850157
 21
127.8297400611623
 31
0.0
  0
LINE
  5
DA
330
4F
100
AcDbEntity
  8
1
  6
Continuous
 62
     7
100
AcDbLine
 10
163.9730886850157
 20
127.8297400611623
 30
0.0
 11
138.4730886850157
 21
127.8297400611623
 31
0.0
  0
LINE
  5
DB
330
4F
100
AcDbEntity
  8
1
  6
Continuous
 62
     7
100
AcDbLine
 10
136.7230886850157
 20
125.7297400611623
 30
0.0
 11
165.7230886850157
 21
125.7297400611623
 31
0.0
  0
CIRCLE
  5
DC
330
4F
100
AcDbEntity
  8
1
  6
Continuous
 62
     7
100
AcDbCircle
 10
78.22308868501571
 20
179.7297400611623
 30
0.0
 40
14.75
  0
CIRCLE
  5
DD
330
4F
100
AcDbEntity
  8
1
  6
Continuous
 62
     7
100
AcDbCircle
 10
78.22308868501571
 20
179.7297400611623
 30
0.0
 40
13.0
  0
CIRCLE
  5
DE
330
4F
100
AcDbEntity
  8
1
  6
Continuous
 62
     7
100
AcDbCircle
 10
151.2230886850157
 20
179.7297400611623
 30
0.0
 40
14.5
  0
CIRCLE
  5
DF
330
4F
100
AcDbEntity
  8
1
  6
Continuous
 62
     7
100
AcDbCircle
 10
151.2230886850157
 20
179.7297400611623
 30
0.0
 40
12.75
  0
ENDBLK
  5
51
330
4F
100
AcDbEntity
  8
0
100
AcDbBlockEnd
  0
BLOCK
  5
FC
330
F3
100
AcDbEntity
  8
0
100
AcDbBlockBegin
  2
*D4
 70
     1
 10
0.0
 20
0.0
 30
0.0
  3
*D4
  1

  0
LINE
  5
F4
330
F3
100
AcDbEntity
  8
1
  6
Continuous
 62
     2
100
AcDbLine
 10
125.7230886850157
 20
127.8297400611623
 30
0.0
 11
125.7230886850157
 21
134.8297400611623
 31
0.0
  0
LINE
  5
F5
330
F3
100
AcDbEntity
  8
1
  6
Continuous
 62
     2
100
AcDbLine
 10
125.7230886850157
 20
122.8797400611623
 30
0.0
 11
125.7230886850157
 21
127.8297400611623
 31
0.0
  0
LINE
  5
F6
330
F3
100
AcDbEntity
  8
1
  6
Continuous
 62
     2
100
AcDbLine
 10
125.7230886850157
 20
115.8797400611623
 30
0.0
 11
125.7230886850157
 21
122.8797400611623
 31
0.0
  0
LINE
  5
F7
330
F3
100
AcDbEntity
  8
1
  6
Continuous
 62
     2
100
AcDbLine
 10
138.4730886850157
 20
127.8297400611623
 30
0.0
 11
124.7230886850157
 21
127.8297400611623
 31
0.0
  0
LINE
  5
F8
330
F3
100
AcDbEntity
  8
1
  6
Continuous
 62
     2
100
AcDbLine
 10
136.7230886850157
 20
122.8797400611623
 30
0.0
 11
124.7230886850157
 21
122.8797400611623
 31
0.0
  0
SOLID
  5
F9
330
F3
100
AcDbEntity
  8
1
 62
     2
100
AcDbTrace
 10
126.1838724265716
 20
119.3797400611623
 30
0.0
 11
125.2623049434598
 21
119.3797400611623
 31
0.0
 12
125.7230886850157
 22
122.8797400611623
 32
0.0
 13
125.7230886850157
 23
122.8797400611623
 33
0.0
  0
SOLID
  5
FA
330
F3
100
AcDbEntity
  8
1
 62
     2
100
AcDbTrace
 10
125.2623049434598
 20
131.3297400611623
 30
0.0
 11
126.1838724265716
 21
131.3297400611623
 31
0.0
 12
125.7230886850157
 22
127.8297400611623
 32
0.0
 13
125.7230886850157
 23
127.8297400611623
 33
0.0
  0
MTEXT
  5
FB
330
F3
100
AcDbEntity
  8
1
 62
     7
100
AcDbMText
 10
124.7230886850157
 20
131.5702602494325
 30
0.0
 40
3.5
 41
0.0
 71
     7
 72
     1
  1
5
  7
CONVERTER_12
 11
0.0
 21
1.0
 31
0.0
 73
     1
 44
0.60024009603842
  0
ENDBLK
  5
FD
330
F3
100
AcDbEntity
  8
0
100
AcDbBlockEnd
  0
BLOCK
  5
109
330
100
100
AcDbEntity
  8
0
100
AcDbBlockBegin
  2
*D5
 70
     1
 10
0.0
 20
0.0
 30
0.0
  3
*D5
  1

  0
LINE
  5
101
330
100
100
AcDbEntity
  8
1
  6
Continuous
 62
     2
100
AcDbLine
 10
52.47308868501571
 20
125.9797400611623
 30
0.0
 11
52.47308868501571
 21
132.9797400611623
 31
0.0
  0
LINE
  5
102
330
100
100
AcDbEntity
  8
1
  6
Continuous
 62
     2
100
AcDbLine
 10
52.47308868501571
 20
125.4797400611623
 30
0.0
 11
52.47308868501571
 21
125.9797400611623
 31
0.0
  0
LINE
  5
103
330
100
100
AcDbEntity
  8
1
  6
Continuous
 62
     2
100
AcDbLine
 10
52.47308868501571
 20
118.4797400611623
 30
0.0
 11
52.47308868501571
 21
125.4797400611623
 31
0.0
  0
LINE
  5
104
330
100
100
AcDbEntity
  8
1
  6
Continuous
 62
     2
100
AcDbLine
 10
63.47308868501571
 20
125.9797400611623
 30
0.0
 11
51.47308868501571
 21
125.9797400611623
 31
0.0
  0
LINE
  5
105
330
100
100
AcDbEntity
  8
1
  6
Continuous
 62
     2
100
AcDbLine
 10
63.47308868501571
 20
125.4797400611623
 30
0.0
 11
51.47308868501571
 21
125.4797400611623
 31
0.0
  0
SOLID
  5
106
330
100
100
AcDbEntity
  8
1
 62
     2
100
AcDbTrace
 10
52.9338724265716
 20
121.9797400611623
 30
0.0
 11
52.01230494345982
 21
121.9797400611623
 31
0.0
 12
52.47308868501571
 22
125.4797400611623
 32
0.0
 13
52.47308868501571
 23
125.4797400611623
 33
0.0
  0
SOLID
  5
107
330
100
100
AcDbEntity
  8
1
 62
     2
100
AcDbTrace
 10
52.01230494345982
 20
129.4797400611623
 30
0.0
 11
52.9338724265716
 21
129.4797400611623
 31
0.0
 12
52.47308868501571
 22
125.9797400611623
 32
0.0
 13
52.47308868501571
 23
125.9797400611623
 33
0.0
  0
MTEXT
  5
108
330
100
100
AcDbEntity
  8
1
 62
     7
100
AcDbMText
 10
51.47308868501571
 20
130.6344936956695
 30
0.0
 40
3.5
 41
0.0
 71
     7
 72
     1
  1
1
  7
CONVERTER_12
 11
0.0
 21
1.0
 31
0.0
 73
     1
 44
0.60024009603842
  0
ENDBLK
  5
10A
330
100
100
AcDbEntity
  8
0
100
AcDbBlockEnd
  0
BLOCK
  5
112
330
10D
100
AcDbEntity
  8
0
100
AcDbBlockBegin
  2
*D6
 70
     1
 10
0.0
 20
0.0
 30
0.0
  3
*D6
  1

  0
LINE
  5
10E
330
10D
100
AcDbEntity
  8
1
  6
Continuous
 62
     2
100
AcDbLine
 10
164.4582486602462
 20
191.9293523677095
 30
0.0
 11
131.1350578980828
 21
161.2134404424797
 31
0.0
  0
SOLID
  5
10F
330
10D
100
AcDbEntity
  8
1
 62
     2
100
AcDbTrace
 10
139.5869794298294
 20
168.3773930325585
 30
0.0
 11
138.9623813182581
 21
169.055009314056
 31
0.0
 12
141.8481837025608
 22
171.0883480106914
 32
0.0
 13
141.8481837025608
 23
171.0883480106914
 33
0.0
  0
SOLID
  5
110
330
10D
100
AcDbEntity
  8
1
 62
     2
100
AcDbTrace
 10
162.859197940202
 20
191.0820870897662
 30
0.0
 11
163.4837960517733
 21
190.4044708082687
 31
0.0
 12
160.5979936674707
 22
188.3711321116332
 32
0.0
 13
160.5979936674707
 23
188.3711321116332
 33
0.0
  0
MTEXT
  5
111
330
10D
100
AcDbEntity
  8
1
 62
     7
100
AcDbMText
 10
131.4352329236667
 20
162.8501429059762
 30
0.0
 40
3.5
 41
0.0
 71
     7
 72
     1
  1
\C7;{\Fgdt;n}\C7;26
  7
CONVERTER_12
 11
0.7352866652905834
 21
0.6777562392526192
 31
0.0
 73
     1
 44
0.60024009603842
  0
ENDBLK
  5
113
330
10D
100
AcDbEntity
  8
0
100
AcDbBlockEnd
  0
BLOCK
  5
11A
330
115
100
AcDbEntity
  8
0
100
AcDbBlockBegin
  2
*D7
 70
     1
 10
0.0
 20
0.0
 30
0.0
  3
*D7
  1

  0
LINE
  5
116
330
115
100
AcDbEntity
  8
1
  6
Continuous
 62
     2
100
AcDbLine
 10
91.64469321103297
 20
192.0959452974987
 30
0.0
 11
58.72966299684196
 21
161.7691674372303
 31
0.0
  0
SOLID
  5
117
330
115
100
AcDbEntity
  8
1
 62
     2
100
AcDbTrace
 10
66.40071452821363
 20
168.2104609624921
 30
0.0
 11
65.77626013723861
 21
168.8882096913887
 31
0.0
 12
68.6624936801815
 22
170.9209363311693
 32
0.0
 13
68.6624936801815
 23
170.9209363311693
 33
0.0
  0
SOLID
  5
118
330
115
100
AcDbEntity
  8
1
 62
     2
100
AcDbTrace
 10
90.0454628418178
 20
191.2490191598325
 30
0.0
 11
90.66991723279281
 21
190.5712704309359
 31
0.0
 12
87.78368368984992
 22
188.5385437911553
 32
0.0
 13
87.78368368984992
 23
188.5385437911553
 33
0.0
  0
MTEXT
  5
119
330
115
100
AcDbEntity
  8
1
 62
     7
100
AcDbMText
 10
59.03018512195246
 20
163.4058062038245
 30
0.0
 40
3.5
 41
0.0
 71
     7
 72
     1
  1
\C7;{\Fgdt;n}\C7;26
  7
CONVERTER_12
 11
0.7354303849872474
 21
0.6776002869225404
 31
0.0
 73
     1
 44
0.60024009603842
  0
ENDBLK
  5
11B
330
115
100
AcDbEntity
  8
0
100
AcDbBlockEnd
  0
BLOCK
  5
124
330
11D
100
AcDbEntity
  8
0
100
AcDbBlockBegin
  2
*D8
 70
     1
 10
0.0
 20
0.0
 30
0.0
  3
*D8
  1

  0
LINE
  5
11E
330
11D
100
AcDbEntity
  8
1
  6
Continuous
 62
     2
100
AcDbLine
 10
165.7230886850157
 20
205.4220393906241
 30
0.0
 11
136.7230886850157
 21
205.4220393906241
 31
0.0
  0
LINE
  5
11F
330
11D
100
AcDbEntity
  8
1
  6
Continuous
 62
     2
100
AcDbLine
 10
136.7230886850157
 20
179.7297400611623
 30
0.0
 11
136.7230886850157
 21
206.4220393906241
 31
0.0
  0
LINE
  5
120
330
11D
100
AcDbEntity
  8
1
  6
Continuous
 62
     2
100
AcDbLine
 10
165.7230886850157
 20
179.7297400611623
 30
0.0
 11
165.7230886850157
 21
206.4220393906241
 31
0.0
  0
SOLID
  5
121
330
11D
100
AcDbEntity
  8
1
 62
     2
100
AcDbTrace
 10
162.2230886850157
 20
204.9612556490682
 30
0.0
 11
162.2230886850157
 21
205.88282313218
 31
0.0
 12
165.7230886850157
 22
205.4220393906241
 32
0.0
 13
165.7230886850157
 23
205.4220393906241
 33
0.0
  0
SOLID
  5
122
330
11D
100
AcDbEntity
  8
1
 62
     2
100
AcDbTrace
 10
140.2230886850157
 20
205.88282313218
 30
0.0
 11
140.2230886850157
 21
204.9612556490682
 31
0.0
 12
136.7230886850157
 22
205.4220393906241
 32
0.0
 13
136.7230886850157
 23
205.4220393906241
 33
0.0
  0
MTEXT
  5
123
330
11D
100
AcDbEntity
  8
1
 62
     7
100
AcDbMText
 10
147.6992218668544
 20
206.4220324335478
 30
0.0
 40
3.5
 41
0.0
 71
     7
 72
     1
  1
\C7;{\Fgdt;n}\C7;29
  7
CONVERTER_12
 11
0.9999999999970619
 21
2.424068405545306E-6
 31
0.0
 73
     1
 44
0.60024009603842
  0
ENDBLK
  5
125
330
11D
100
AcDbEntity
  8
0
100
AcDbBlockEnd
  0
BLOCK
  5
12E
330
127
100
AcDbEntity
  8
0
100
AcDbBlockBegin
  2
*D9
 70
     1
 10
0.0
 20
0.0
 30
0.0
  3
*D9
  1

  0
LINE
  5
128
330
127
100
AcDbEntity
  8
1
  6
Continuous
 62
     2
100
AcDbLine
 10
92.97308868501571
 20
205.5897904216822
 30
0.0
 11
63.47308868501571
 21
205.5897904216822
 31
0.0
  0
LINE
  5
129
330
127
100
AcDbEntity
  8
1
  6
Continuous
 62
     2
100
AcDbLine
 10
63.47308868501571
 20
179.7297400611623
 30
0.0
 11
63.47308868501571
 21
206.5897904216822
 31
0.0
  0
LINE
  5
12A
330
127
100
AcDbEntity
  8
1
  6
Continuous
 62
     2
100
AcDbLine
 10
92.97308868501571
 20
179.7297400611623
 30
0.0
 11
92.97308868501571
 21
206.5897904216822
 31
0.0
  0
SOLID
  5
12B
330
127
100
AcDbEntity
  8
1
 62
     2
100
AcDbTrace
 10
89.47308868501571
 20
205.1290066801263
 30
0.0
 11
89.47308868501571
 21
206.0505741632381
 31
0.0
 12
92.97308868501571
 22
205.5897904216822
 32
0.0
 13
92.97308868501571
 23
205.5897904216822
 33
0.0
  0
SOLID
  5
12C
330
127
100
AcDbEntity
  8
1
 62
     2
100
AcDbTrace
 10
66.97308868501571
 20
206.0505741632381
 30
0.0
 11
66.97308868501571
 21
205.1290066801263
 31
0.0
 12
63.47308868501571
 22
205.5897904216822
 32
0.0
 13
63.47308868501571
 23
205.5897904216822
 33
0.0
  0
MTEXT
  5
12D
330
127
100
AcDbEntity
  8
1
 62
     7
100
AcDbMText
 10
74.68217784699014
 20
206.5897834646059
 30
0.0
 40
3.5
 41
0.0
 71
     7
 72
     1
  1
\C7;{\Fgdt;n}\C7;30
  7
CONVERTER_12
 11
0.9999999999970619
 21
2.424068405545306E-6
 31
0.0
 73
     1
 44
0.60024009603842
  0
ENDBLK
  5
12F
330
127
100
AcDbEntity
  8
0
100
AcDbBlockEnd
  0
ENDSEC
  0
SECTION
  2
ENTITIES
  0
INSERT
  5
52
330
1F
100
AcDbEntity
  8
0
100
AcDbBlockReference
  2
開示A4枠
 10
0.0
 20
0.0
 30
0.0
  0
INSERT
  5
53
330
1F
100
AcDbEntity
  8
0
100
AcDbBlockReference
  2
PLIST
 10
608.2230886850157
 20
174.9797400611623
 30
0.0
  0
LINE
  5
E0
330
1F
100
AcDbEntity
  8
1
  6
DASH_CENTER
 62
     2
100
AcDbLine
 10
60.3717686502257
 20
179.7297400611623
 30
0.0
 11
95.8717686502257
 21
179.7297400611623
 31
0.0
  0
LINE
  5
E1
330
1F
100
AcDbEntity
  8
1
  6
DASH_CENTER
 62
     2
100
AcDbLine
 10
78.22308868501571
 20
197.4797400611623
 30
0.0
 11
78.22308868501571
 21
161.9797400611623
 31
0.0
  0
LINE
  5
E2
330
1F
100
AcDbEntity
  8
1
  6
DASH_CENTER
 62
     2
100
AcDbLine
 10
133.6422481272619
 20
179.7297400611623
 30
0.0
 11
168.6422481272619
 21
179.7297400611623
 31
0.0
  0
LINE
  5
E3
330
1F
100
AcDbEntity
  8
1
  6
DASH_CENTER
 62
     2
100
AcDbLine
 10
151.2230886850157
 20
197.1160975811007
 30
0.0
 11
151.2230886850157
 21
162.2302872611003
 31
0.0
  0
LINE
  5
E4
330
1F
100
AcDbEntity
  8
1
  6
DASH_CENTER
 62
     2
100
AcDbLine
 10
151.2230886850157
 20
130.8297400611623
 30
0.0
 11
151.2230886850157
 21
119.8797400611623
 31
0.0
  0
LINE
  5
E5
330
1F
100
AcDbEntity
  8
1
  6
DASH_CENTER
 62
     2
100
AcDbLine
 10
78.22308868501571
 20
128.9797400611623
 30
0.0
 11
78.22308868501571
 21
122.4797400611623
 31
0.0
  0
MTEXT
  5
E7
330
1F
100
AcDbEntity
  8
1
 62
     7
100
AcDbMText
 10
157.5
 20
12.50000000000004
 30
0.0
 40
2.5
 41
0.0
 71
     5
 72
     1
  1
2
  7
CONVERTER_12
 73
     1
 44
0.7202881152461
  0
MTEXT
  5
E8
330
1F
100
AcDbEntity
  8
1
 62
     7
100
AcDbMText
 10
151.75
 20
12.50000000000004
 30
0.0
 40
2.5
 41
0.0
 71
     5
 72
     1
  1
04
  7
CONVERTER_12
 73
     1
 44
0.7202881152461
  0
MTEXT
  5
E9
330
1F
100
AcDbEntity
  8
1
 62
     7
100
AcDbMText
 10
140.5
 20
12.50000000000004
 30
0.0
 40
2.5
 41
0.0
 71
     5
 72
     1
  1
2
  7
CONVERTER_12
 73
     1
 44
0.7202881152461
  0
MTEXT
  5
EA
330
1F
100
AcDbEntity
  8
1
 62
     7
100
AcDbMText
 10
134.75
 20
12.50000000000004
 30
0.0
 40
2.5
 41
0.0
 71
     5
 72
     1
  1
04
  7
CONVERTER_12
 73
     1
 44
0.7202881152461
  0
MTEXT
  5
EB
330
1F
100
AcDbEntity
  8
1
 62
     7
100
AcDbMText
 10
123.5
 20
12.50000000000004
 30
0.0
 40
2.5
 41
0.0
 71
     5
 72
     1
  1
2
  7
CONVERTER_12
 73
     1
 44
0.7202881152461
  0
MTEXT
  5
EC
330
1F
100
AcDbEntity
  8
1
 62
     7
100
AcDbMText
 10
117.75
 20
12.50000000000004
 30
0.0
 40
2.5
 41
0.0
 71
     5
 72
     1
  1
04
  7
CONVERTER_12
 73
     1
 44
0.7202881152461
  0
MTEXT
  5
ED
330
1F
100
AcDbEntity
  8
1
 62
     7
100
AcDbMText
 10
100.75
 20
12.50000000000004
 30
0.0
 40
2.5
 41
0.0
 71
     5
 72
     1
  1
04
  7
CONVERTER_12
 73
     1
 44
0.7202881152461
  0
MTEXT
  5
EE
330
1F
100
AcDbEntity
  8
1
 62
     7
100
AcDbMText
 10
106.5
 20
12.50000000000004
 30
0.0
 40
2.5
 41
0.0
 71
     5
 72
     1
  1
2
  7
CONVERTER_12
 73
     1
 44
0.7202881152461
  0
MTEXT
  5
EF
330
1F
100
AcDbEntity
  8
1
 62
     7
100
AcDbMText
 10
85.24999999999997
 20
17.00000000000004
 30
0.0
 40
3.5
 41
0.0
 71
     5
 72
     1
  1
1
  7
CONVERTER_12
 73
     1
 44
0.7202881152461
  0
MTEXT
  5
F0
330
1F
100
AcDbEntity
  8
1
 62
     7
100
AcDbMText
 10
56.99999999999997
 20
22.75000000000004
 30
0.0
 40
3.5
 41
0.0
 71
     5
 72
     1
  1
排水アジャストパッキン
  7
CONVERTER_11
 73
     1
 44
0.54545454545455
  0
MTEXT
  5
F1
330
1F
100
AcDbEntity
  8
1
 62
     7
100
AcDbMText
 10
56.99999999999997
 20
14.25000000000004
 30
0.0
 40
3.5
 41
0.0
 71
     5
 72
     1
  1
P40-41S-25
  7
CONVERTER_12
 73
     1
 44
0.7202881152461
  0
MTEXT
  5
F2
330
1F
100
AcDbEntity
  8
1
 62
     7
100
AcDbMText
 10
93.74999999999997
 20
17.00000000000004
 30
0.0
 40
3.5
 41
0.0
 71
     5
 72
     1
  1
1
  7
CONVERTER_12
 73
     1
 44
0.7202881152461
  0
DIMENSION
  5
FF
330
1F
100
AcDbEntity
  8
1
100
AcDbDimension
  2
*D4
 10
125.7230886850157
 20
122.8797400611623
 30
0.0
 11
122.9730886850157
 21
132.6202602494325
 31
0.0
 70
    32
  1
5
 71
     5
 42
-1.0
 53
90.0
  3
ME10_DIM_10
100
AcDbAlignedDimension
 13
138.4730886850157
 23
127.8297400611623
 33
0.0
 14
136.7230886850157
 24
122.8797400611623
 34
0.0
 50
90.0
100
AcDbRotatedDimension
  0
DIMENSION
  5
10C
330
1F
100
AcDbEntity
  8
1
100
AcDbDimension
  2
*D5
 10
52.47308868501571
 20
125.4797400611623
 30
0.0
 11
49.72308868501571
 21
131.1594936956695
 31
0.0
 70
    32
  1
1
 71
     5
 42
-1.0
 53
90.0
  3
ME10_DIM_11
100
AcDbAlignedDimension
 13
63.47308868501571
 23
125.9797400611623
 33
0.0
 14
63.47308868501571
 24
125.4797400611623
 34
0.0
 50
90.0
100
AcDbRotatedDimension
  0
INSERT
  5
114
330
1F
100
AcDbEntity
  8
1
100
AcDbBlockReference
  2
*D6
 10
0.0
 20
0.0
 30
0.0
  0
INSERT
  5
11C
330
1F
100
AcDbEntity
  8
1
100
AcDbBlockReference
  2
*D7
 10
0.0
 20
0.0
 30
0.0
  0
INSERT
  5
126
330
1F
100
AcDbEntity
  8
1
100
AcDbBlockReference
  2
*D8
 10
0.0
 20
0.0
 30
0.0
  0
INSERT
  5
130
330
1F
100
AcDbEntity
  8
1
100
AcDbBlockReference
  2
*D9
 10
0.0
 20
0.0
 30
0.0
  0
ENDSEC
  0
SECTION
  2
OBJECTS
  0
DICTIONARY
  5
C
330
0
100
AcDbDictionary
281
     1
  3
ACAD_GROUP
350
D
  3
ACAD_LAYOUT
350
1A
  3
ACAD_MATERIAL
350
3B
  3
ACAD_MLEADERSTYLE
350
133
  3
ACAD_MLINESTYLE
350
17
  3
ACAD_PLOTSETTINGS
350
19
  3
ACAD_PLOTSTYLENAME
350
E
  3
ACAD_VISUALSTYLE
350
2A
  3
AcDbVariableDictionary
350
131
  0
DICTIONARY
  5
D
102
{ACAD_REACTORS
330
C
102
}
330
C
100
AcDbDictionary
281
     1
  0
DICTIONARY
  5
1A
102
{ACAD_REACTORS
330
C
102
}
330
C
100
AcDbDictionary
281
     1
  3
Layout1
350
1E
  3
Layout2
350
26
  3
Model
350
22
  0
DICTIONARY
  5
3B
102
{ACAD_REACTORS
330
C
102
}
330
C
100
AcDbDictionary
281
     1
  3
ByBlock
350
3D
  3
ByLayer
350
3C
  3
Global
350
3E
  0
DICTIONARY
  5
133
102
{ACAD_REACTORS
330
C
102
}
330
C
100
AcDbDictionary
281
     1
  0
DICTIONARY
  5
17
102
{ACAD_REACTORS
330
C
102
}
330
C
100
AcDbDictionary
281
     1
  3
Standard
350
18
  0
DICTIONARY
  5
19
102
{ACAD_REACTORS
330
C
102
}
330
C
100
AcDbDictionary
281
     1
  0
ACDBDICTIONARYWDFLT
  5
E
102
{ACAD_REACTORS
330
C
102
}
330
C
100
AcDbDictionary
281
     1
  3
Normal
350
F
100
AcDbDictionaryWithDefault
340
F
  0
DICTIONARY
  5
2A
102
{ACAD_REACTORS
330
C
102
}
330
C
100
AcDbDictionary
281
     1
  3
2dWireframe
350
2F
  3
3D Hidden
350
31
  3
3dWireframe
350
30
  3
Basic
350
32
  3
Brighten
350
36
  3
ColorChange
350
3A
  3
Conceptual
350
34
  3
Dim
350
35
  3
Facepattern
350
39
  3
Flat
350
2B
  3
FlatWithEdges
350
2C
  3
Gouraud
350
2D
  3
GouraudWithEdges
350
2E
  3
Linepattern
350
38
  3
Realistic
350
33
  3
Thicken
350
37
  0
DICTIONARY
  5
131
102
{ACAD_REACTORS
330
C
102
}
330
C
100
AcDbDictionary
281
     1
  3
DIMASSOC
350
134
  3
HIDETEXT
350
135
  0
LAYOUT
  5
1E
102
{ACAD_REACTORS
330
1A
102
}
330
1A
100
AcDbPlotSettings
  1

  2
none_device
  4

  6

 40
0.0
 41
0.0
 42
0.0
 43
0.0
 44
0.0
 45
0.0
 46
0.0
 47
0.0
 48
0.0
 49
0.0
140
0.0
141
0.0
142
1.0
143
1.0
 70
   688
 72
     0
 73
     0
 74
     5
  7

 75
    16
147
1.0
148
0.0
149
0.0
100
AcDbLayout
  1
Layout1
 70
     1
 71
     1
 10
0.0
 20
0.0
 11
12.0
 21
9.0
 12
0.0
 22
0.0
 32
0.0
 14
1.00000000000000E+20
 24
1.00000000000000E+20
 34
1.00000000000000E+20
 15
-1.00000000000000E+20
 25
-1.00000000000000E+20
 35
-1.00000000000000E+20
146
0.0
 13
0.0
 23
0.0
 33
0.0
 16
1.0
 26
0.0
 36
0.0
 17
0.0
 27
1.0
 37
0.0
 76
     0
330
1B
  0
LAYOUT
  5
26
102
{ACAD_REACTORS
330
1A
102
}
330
1A
100
AcDbPlotSettings
  1

  2
none_device
  4

  6

 40
0.0
 41
0.0
 42
0.0
 43
0.0
 44
0.0
 45
0.0
 46
0.0
 47
0.0
 48
0.0
 49
0.0
140
0.0
141
0.0
142
1.0
143
1.0
 70
   688
 72
     0
 73
     0
 74
     5
  7

 75
    16
147
1.0
148
0.0
149
0.0
100
AcDbLayout
  1
Layout2
 70
     1
 71
     2
 10
0.0
 20
0.0
 11
0.0
 21
0.0
 12
0.0
 22
0.0
 32
0.0
 14
0.0
 24
0.0
 34
0.0
 15
0.0
 25
0.0
 35
0.0
146
0.0
 13
0.0
 23
0.0
 33
0.0
 16
1.0
 26
0.0
 36
0.0
 17
0.0
 27
1.0
 37
0.0
 76
     0
330
23
  0
LAYOUT
  5
22
102
{ACAD_REACTORS
330
1A
102
}
330
1A
100
AcDbPlotSettings
  1

  2
none_device
  4

  6

 40
0.0
 41
0.0
 42
0.0
 43
0.0
 44
0.0
 45
0.0
 46
0.0
 47
0.0
 48
0.0
 49
0.0
140
0.0
141
0.0
142
1.0
143
1.0
 70
  1712
 72
     0
 73
     0
 74
     0
  7

 75
     0
147
1.0
148
0.0
149
0.0
100
AcDbLayout
  1
Model
 70
     1
 71
     0
 10
0.0
 20
0.0
 11
12.0
 21
9.0
 12
0.0
 22
0.0
 32
0.0
 14
0.0
 24
0.0
 34
0.0
 15
210.0
 25
297.0
 35
0.0
146
0.0
 13
0.0
 23
0.0
 33
0.0
 16
1.0
 26
0.0
 36
0.0
 17
0.0
 27
1.0
 37
0.0
 76
     0
330
1F
331
29
  0
MATERIAL
  5
3D
102
{ACAD_REACTORS
330
3B
102
}
102
{ACAD_XDICTIONARY
360
158
102
}
330
3B
100
AcDbMaterial
  1
ByBlock
  0
MATERIAL
  5
3C
102
{ACAD_REACTORS
330
3B
102
}
102
{ACAD_XDICTIONARY
360
156
102
}
330
3B
100
AcDbMaterial
  1
ByLayer
  0
MATERIAL
  5
3E
102
{ACAD_REACTORS
330
3B
102
}
102
{ACAD_XDICTIONARY
360
15A
102
}
330
3B
100
AcDbMaterial
  1
Global
  0
MLINESTYLE
  5
18
102
{ACAD_REACTORS
330
17
102
}
330
17
100
AcDbMlineStyle
  2
Standard
 70
     0
  3

 62
   256
 51
90.0
 52
90.0
 71
     2
 49
0.5
 62
   256
  6
BYLAYER
 49
-0.5
 62
   256
  6
BYLAYER
  0
ACDBPLACEHOLDER
  5
F
102
{ACAD_REACTORS
330
E
102
}
330
E
  0
VISUALSTYLE
  5
2F
102
{ACAD_REACTORS
330
2A
102
}
102
{ACAD_XDICTIONARY
360
13E
102
}
330
2A
100
AcDbVisualStyle
  2
2dWireframe
 70
     4
 71
     0
 72
     2
 73
     0
 90
        0
 40
-0.6
 41
-30.0
 62
     5
 63
     7
 74
     1
 91
        4
 64
     7
 65
   257
 75
     1
175
     1
 42
1.0
 92
        0
 66
   257
 43
1.0
 76
     1
 77
     6
 78
     2
 67
     7
 79
     5
170
     0
171
     0
290
     0
174
     0
 93
        1
 44
0.0
173
     0
291
     0
 45
0.0
1001
ACAD
1000
AcDbSavedByObjectVersion
1070
     0
  0
VISUALSTYLE
  5
31
102
{ACAD_REACTORS
330
2A
102
}
102
{ACAD_XDICTIONARY
360
142
102
}
330
2A
100
AcDbVisualStyle
  2
3D Hidden
 70
     6
 71
     1
 72
     2
 73
     2
 90
        0
 40
-0.6
 41
-30.0
 62
     5
 63
     7
 74
     2
 91
        2
 64
     7
 65
   257
 75
     2
175
     1
 42
40.0
 92
        0
 66
   257
 43
1.0
 76
     1
 77
     6
 78
     2
 67
     7
 79
     3
170
     0
171
     0
290
     0
174
     0
 93
        1
 44
0.0
173
     0
291
     0
 45
0.0
1001
ACAD
1000
AcDbSavedByObjectVersion
1070
     0
  0
VISUALSTYLE
  5
30
102
{ACAD_REACTORS
330
2A
102
}
102
{ACAD_XDICTIONARY
360
140
102
}
330
2A
100
AcDbVisualStyle
  2
3dWireframe
 70
     5
 71
     0
 72
     2
 73
     0
 90
        0
 40
-0.6
 41
-30.0
 62
     5
 63
     7
 74
     1
 91
        4
 64
     7
 65
   257
 75
     1
175
     1
 42
1.0
 92
        0
 66
   257
 43
1.0
 76
     1
 77
     6
 78
     2
 67
     7
 79
     5
170
     0
171
     0
290
     0
174
     0
 93
        1
 44
0.0
173
     0
291
     0
 45
0.0
1001
ACAD
1000
AcDbSavedByObjectVersion
1070
     0
  0
VISUALSTYLE
  5
32
102
{ACAD_REACTORS
330
2A
102
}
102
{ACAD_XDICTIONARY
360
144
102
}
330
2A
100
AcDbVisualStyle
  2
Basic
 70
     7
 71
     1
 72
     0
 73
     1
 90
        0
 40
-0.6
 41
-30.0
 62
     5
 63
     7
 74
     0
 91
        4
 64
     7
 65
   257
 75
     1
175
     1
 42
1.0
 92
        8
 66
     7
 43
1.0
 76
     1
 77
     6
 78
     2
 67
     7
 79
     5
170
     0
171
     0
290
     0
174
     0
 93
        1
 44
0.0
173
     0
291
     1
 45
0.0
1001
ACAD
1000
AcDbSavedByObjectVersion
1070
     0
  0
VISUALSTYLE
  5
36
102
{ACAD_REACTORS
330
2A
102
}
102
{ACAD_XDICTIONARY
360
14C
102
}
330
2A
100
AcDbVisualStyle
  2
Brighten
 70
    12
 71
     2
 72
     2
 73
     0
 90
        0
 40
-0.6
 41
-30.0
 62
     5
 63
     7
 74
     1
 91
        4
 64
     7
 65
   257
 75
     1
175
     1
 42
1.0
 92
        8
 66
     7
 43
1.0
 76
     1
 77
     6
 78
     2
 67
     7
 79
     5
170
     0
171
     0
290
     0
174
     0
 93
        1
 44
50.0
173
     0
291
     1
 45
0.0
1001
ACAD
1000
AcDbSavedByObjectVersion
1070
     0
  0
VISUALSTYLE
  5
3A
102
{ACAD_REACTORS
330
2A
102
}
102
{ACAD_XDICTIONARY
360
154
102
}
330
2A
100
AcDbVisualStyle
  2
ColorChange
 70
    16
 71
     2
 72
     2
 73
     3
 90
        0
 40
-0.6
 41
-30.0
 62
     5
 63
     8
 74
     1
 91
        4
 64
     7
 65
   257
 75
     1
175
     1
 42
1.0
 92
        8
 66
     8
 43
1.0
 76
     1
 77
     6
 78
     2
 67
     7
 79
     5
170
     0
171
     0
290
     0
174
     0
 93
        1
 44
0.0
173
     0
291
     1
 45
0.0
1001
ACAD
1000
AcDbSavedByObjectVersion
1070
     0
  0
VISUALSTYLE
  5
34
102
{ACAD_REACTORS
330
2A
102
}
102
{ACAD_XDICTIONARY
360
148
102
}
330
2A
100
AcDbVisualStyle
  2
Conceptual
 70
     9
 71
     3
 72
     2
 73
     0
 90
        0
 40
-0.6
 41
-30.0
 62
     5
 63
     7
 74
     2
 91
        2
 64
     7
 65
   257
 75
     1
175
     1
 42
40.0
 92
        8
 66
     7
 43
1.0
 76
     1
 77
     6
 78
     2
 67
     7
 79
     3
170
     0
171
     0
290
     0
174
     0
 93
        1
 44
0.0
173
     0
291
     0
 45
0.0
1001
ACAD
1000
AcDbSavedByObjectVersion
1070
     0
  0
VISUALSTYLE
  5
35
102
{ACAD_REACTORS
330
2A
102
}
102
{ACAD_XDICTIONARY
360
14A
102
}
330
2A
100
AcDbVisualStyle
  2
Dim
 70
    11
 71
     2
 72
     2
 73
     0
 90
        0
 40
-0.6
 41
-30.0
 62
     5
 63
     7
 74
     1
 91
        4
 64
     7
 65
   257
 75
     1
175
     1
 42
1.0
 92
        8
 66
     7
 43
1.0
 76
     1
 77
     6
 78
     2
 67
     7
 79
     5
170
     0
171
     0
290
     0
174
     0
 93
        1
 44
-50.0
173
     0
291
     1
 45
0.0
1001
ACAD
1000
AcDbSavedByObjectVersion
1070
     0
  0
VISUALSTYLE
  5
39
102
{ACAD_REACTORS
330
2A
102
}
102
{ACAD_XDICTIONARY
360
152
102
}
330
2A
100
AcDbVisualStyle
  2
Facepattern
 70
    15
 71
     2
 72
     2
 73
     0
 90
        0
 40
-0.6
 41
-30.0
 62
     5
 63
     7
 74
     1
 91
        4
 64
     7
 65
   257
 75
     1
175
     1
 42
1.0
 92
        8
 66
     7
 43
1.0
 76
     1
 77
     6
 78
     2
 67
     7
 79
     5
170
     0
171
     0
290
     0
174
     0
 93
        1
 44
0.0
173
     0
291
     1
 45
0.0
1001
ACAD
1000
AcDbSavedByObjectVersion
1070
     0
  0
VISUALSTYLE
  5
2B
102
{ACAD_REACTORS
330
2A
102
}
102
{ACAD_XDICTIONARY
360
136
102
}
330
2A
100
AcDbVisualStyle
  2
Flat
 70
     0
 71
     2
 72
     1
 73
     1
 90
        2
 40
-0.6
 41
30.0
 62
     5
 63
     7
 74
     0
 91
        4
 64
     7
 65
   257
 75
     1
175
     1
 42
1.0
 92
        8
 66
     7
 43
1.0
 76
     1
 77
     6
 78
     2
 67
     7
 79
     5
170
     0
171
     0
290
     0
174
     0
 93
       13
 44
0.0
173
     0
291
     1
 45
0.0
1001
ACAD
1000
AcDbSavedByObjectVersion
1070
     0
  0
VISUALSTYLE
  5
2C
102
{ACAD_REACTORS
330
2A
102
}
102
{ACAD_XDICTIONARY
360
138
102
}
330
2A
100
AcDbVisualStyle
  2
FlatWithEdges
 70
     1
 71
     2
 72
     1
 73
     1
 90
        2
 40
-0.6
 41
30.0
 62
     5
 63
     7
 74
     1
 91
        4
 64
     7
 65
   257
 75
     1
175
     1
 42
1.0
 92
        0
 66
   257
 43
1.0
 76
     1
 77
     6
 78
     2
 67
     7
 79
     5
170
     0
171
     0
290
     0
174
     0
 93
       13
 44
0.0
173
     0
291
     1
 45
0.0
1001
ACAD
1000
AcDbSavedByObjectVersion
1070
     0
  0
VISUALSTYLE
  5
2D
102
{ACAD_REACTORS
330
2A
102
}
102
{ACAD_XDICTIONARY
360
13A
102
}
330
2A
100
AcDbVisualStyle
  2
Gouraud
 70
     2
 71
     2
 72
     2
 73
     1
 90
        2
 40
-0.6
 41
30.0
 62
     5
 63
     7
 74
     0
 91
        4
 64
     7
 65
   257
 75
     1
175
     1
 42
1.0
 92
        0
 66
     7
 43
1.0
 76
     1
 77
     6
 78
     2
 67
     7
 79
     5
170
     0
171
     0
290
     0
174
     0
 93
       13
 44
0.0
173
     0
291
     1
 45
0.0
1001
ACAD
1000
AcDbSavedByObjectVersion
1070
     0
  0
VISUALSTYLE
  5
2E
102
{ACAD_REACTORS
330
2A
102
}
102
{ACAD_XDICTIONARY
360
13C
102
}
330
2A
100
AcDbVisualStyle
  2
GouraudWithEdges
 70
     3
 71
     2
 72
     2
 73
     1
 90
        2
 40
-0.6
 41
30.0
 62
     5
 63
     7
 74
     1
 91
        4
 64
     7
 65
   257
 75
     1
175
     1
 42
1.0
 92
        0
 66
   257
 43
1.0
 76
     1
 77
     6
 78
     2
 67
     7
 79
     5
170
     0
171
     0
290
     0
174
     0
 93
       13
 44
0.0
173
     0
291
     1
 45
0.0
1001
ACAD
1000
AcDbSavedByObjectVersion
1070
     0
  0
VISUALSTYLE
  5
38
102
{ACAD_REACTORS
330
2A
102
}
102
{ACAD_XDICTIONARY
360
150
102
}
330
2A
100
AcDbVisualStyle
  2
Linepattern
 70
    14
 71
     2
 72
     2
 73
     0
 90
        0
 40
-0.6
 41
-30.0
 62
     5
 63
     7
 74
     1
 91
        4
 64
     7
 65
   257
 75
     7
175
     7
 42
1.0
 92
        8
 66
     7
 43
1.0
 76
     1
 77
     6
 78
     2
 67
     7
 79
     5
170
     0
171
     0
290
     0
174
     0
 93
        1
 44
0.0
173
     0
291
     1
 45
0.0
1001
ACAD
1000
AcDbSavedByObjectVersion
1070
     0
  0
VISUALSTYLE
  5
33
102
{ACAD_REACTORS
330
2A
102
}
102
{ACAD_XDICTIONARY
360
146
102
}
330
2A
100
AcDbVisualStyle
  2
Realistic
 70
     8
 71
     2
 72
     2
 73
     0
 90
        0
 40
-0.6
 41
-30.0
 62
     5
 63
     7
 74
     1
 91
        0
 64
     7
 65
   257
 75
     1
175
     1
 42
1.0
 92
        8
 66
     8
 43
1.0
 76
     1
 77
     6
 78
     2
 67
     7
 79
     5
170
     0
171
     0
290
     0
174
     0
 93
       13
 44
0.0
173
     0
291
     0
 45
0.0
1001
ACAD
1000
AcDbSavedByObjectVersion
1070
     0
  0
VISUALSTYLE
  5
37
102
{ACAD_REACTORS
330
2A
102
}
102
{ACAD_XDICTIONARY
360
14E
102
}
330
2A
100
AcDbVisualStyle
  2
Thicken
 70
    13
 71
     2
 72
     2
 73
     0
 90
        0
 40
-0.6
 41
-30.0
 62
     5
 63
     7
 74
     1
 91
        4
 64
     7
 65
   257
 75
     1
175
     1
 42
1.0
 92
       12
 66
     7
 43
1.0
 76
     1
 77
     6
 78
     2
 67
     7
 79
     5
170
     0
171
     0
290
     0
174
     0
 93
        1
 44
0.0
173
     0
291
     1
 45
0.0
1001
ACAD
1000
AcDbSavedByObjectVersion
1070
     0
  0
DICTIONARYVAR
  5
134
102
{ACAD_REACTORS
330
131
102
}
330
131
100
DictionaryVariables
280
     0
  1
2
  0
DICTIONARYVAR
  5
135
102
{ACAD_REACTORS
330
131
102
}
330
131
100
DictionaryVariables
280
     0
  1
1
  0
DICTIONARY
  5
158
330
3D
100
AcDbDictionary
280
     1
281
     1
  3
ACAD_XREC_ROUNDTRIP
360
159
  0
DICTIONARY
  5
156
330
3C
100
AcDbDictionary
280
     1
281
     1
  3
ACAD_XREC_ROUNDTRIP
360
157
  0
DICTIONARY
  5
15A
330
3E
100
AcDbDictionary
280
     1
281
     1
  3
ACAD_XREC_ROUNDTRIP
360
15B
  0
DICTIONARY
  5
13E
330
2F
100
AcDbDictionary
280
     1
281
     1
  3
ACAD_XREC_ROUNDTRIP
360
13F
  0
DICTIONARY
  5
142
330
31
100
AcDbDictionary
280
     1
281
     1
  3
ACAD_XREC_ROUNDTRIP
360
143
  0
DICTIONARY
  5
140
330
30
100
AcDbDictionary
280
     1
281
     1
  3
ACAD_XREC_ROUNDTRIP
360
141
  0
DICTIONARY
  5
144
330
32
100
AcDbDictionary
280
     1
281
     1
  3
ACAD_XREC_ROUNDTRIP
360
145
  0
DICTIONARY
  5
14C
330
36
100
AcDbDictionary
280
     1
281
     1
  3
ACAD_XREC_ROUNDTRIP
360
14D
  0
DICTIONARY
  5
154
330
3A
100
AcDbDictionary
280
     1
281
     1
  3
ACAD_XREC_ROUNDTRIP
360
155
  0
DICTIONARY
  5
148
330
34
100
AcDbDictionary
280
     1
281
     1
  3
ACAD_XREC_ROUNDTRIP
360
149
  0
DICTIONARY
  5
14A
330
35
100
AcDbDictionary
280
     1
281
     1
  3
ACAD_XREC_ROUNDTRIP
360
14B
  0
DICTIONARY
  5
152
330
39
100
AcDbDictionary
280
     1
281
     1
  3
ACAD_XREC_ROUNDTRIP
360
153
  0
DICTIONARY
  5
136
330
2B
100
AcDbDictionary
280
     1
281
     1
  3
ACAD_XREC_ROUNDTRIP
360
137
  0
DICTIONARY
  5
138
330
2C
100
AcDbDictionary
280
     1
281
     1
  3
ACAD_XREC_ROUNDTRIP
360
139
  0
DICTIONARY
  5
13A
330
2D
100
AcDbDictionary
280
     1
281
     1
  3
ACAD_XREC_ROUNDTRIP
360
13B
  0
DICTIONARY
  5
13C
330
2E
100
AcDbDictionary
280
     1
281
     1
  3
ACAD_XREC_ROUNDTRIP
360
13D
  0
DICTIONARY
  5
150
330
38
100
AcDbDictionary
280
     1
281
     1
  3
ACAD_XREC_ROUNDTRIP
360
151
  0
DICTIONARY
  5
146
330
33
100
AcDbDictionary
280
     1
281
     1
  3
ACAD_XREC_ROUNDTRIP
360
147
  0
DICTIONARY
  5
14E
330
37
100
AcDbDictionary
280
     1
281
     1
  3
ACAD_XREC_ROUNDTRIP
360
14F
  0
XRECORD
  5
159
102
{ACAD_REACTORS
330
158
102
}
330
158
100
AcDbXrecord
280
     1
102
MATERIAL
148
0.0
149
0.0
149
0.0
 93
        0
 94
      127
282
     0
 72
     1
 77
     1
171
     1
175
     1
179
     1
273
     0
  0
XRECORD
  5
157
102
{ACAD_REACTORS
330
156
102
}
330
156
100
AcDbXrecord
280
     1
102
MATERIAL
148
0.0
149
0.0
149
0.0
 93
        0
 94
      127
282
     0
 72
     1
 77
     1
171
     1
175
     1
179
     1
273
     0
  0
XRECORD
  5
15B
102
{ACAD_REACTORS
330
15A
102
}
330
15A
100
AcDbXrecord
280
     1
102
MATERIAL
148
0.0
149
0.0
149
0.0
 93
        0
 94
      127
282
     0
 72
     1
 77
     1
171
     1
175
     1
179
     1
273
     0
  0
XRECORD
  5
13F
102
{ACAD_REACTORS
330
13E
102
}
330
13E
100
AcDbXrecord
280
     1
102
RTVSPropertyOp0
 70
     1
102
RTVSPropertyOp1
 70
     1
102
RTVSPropertyOp2
 70
     1
102
RTVSPropertyOp3
 70
     1
102
RTVSPropertyOp4
 70
     1
102
RTVSPropertyOp5
 70
     1
102
RTVSPropertyOp6
 70
     1
102
RTVSPropertyOp7
 70
     1
102
RTVSPropertyOp8
 70
     1
102
RTVSPropertyOp9
 70
     1
102
RTVSPropertyOp10
 70
     1
102
RTVSPropertyOp11
 70
     1
102
RTVSPropertyOp12
 70
     1
102
RTVSPropertyOp13
 70
     1
102
RTVSPropertyOp14
 70
     1
102
RTVSPropertyOp15
 70
     1
102
RTVSPropertyOp16
 70
     1
102
RTVSPropertyOp17
 70
     1
102
RTVSPropertyOp18
 70
     1
102
RTVSPropertyOp19
 70
     1
102
RTVSPropertyOp20
 70
     1
102
RTVSPropertyOp21
 70
     1
102
RTVSPropertyOp22
 70
     1
102
RTVSPropertyOp23
 70
     1
102
RTVSPropertyOp24
 70
     1
102
RTVSPropertyOp25
 70
     1
102
RTVSPropertyOp26
 70
     1
102
RTVSPropertyOp27
 70
     1
102
RTVSPropertyOp28
 70
     1
102
RTVSPropertyOp29
 70
     1
102
RTVSPropertyOp30
 70
     1
102
RTVSPropertyOp31
 70
     1
102
RTVSPropertyOp32
 70
     1
  0
XRECORD
  5
143
102
{ACAD_REACTORS
330
142
102
}
330
142
100
AcDbXrecord
280
     1
102
RTVSPropertyOp0
 70
     1
102
RTVSPropertyOp1
 70
     1
102
RTVSPropertyOp2
 70
     1
102
RTVSPropertyOp3
 70
     1
102
RTVSPropertyOp4
 70
     1
102
RTVSPropertyOp5
 70
     1
102
RTVSPropertyOp6
 70
     1
102
RTVSPropertyOp7
 70
     1
102
RTVSPropertyOp8
 70
     1
102
RTVSPropertyOp9
 70
     1
102
RTVSPropertyOp10
 70
     1
102
RTVSPropertyOp11
 70
     1
102
RTVSPropertyOp12
 70
     1
102
RTVSPropertyOp13
 70
     1
102
RTVSPropertyOp14
 70
     1
102
RTVSPropertyOp15
 70
     1
102
RTVSPropertyOp16
 70
     1
102
RTVSPropertyOp17
 70
     1
102
RTVSPropertyOp18
 70
     1
102
RTVSPropertyOp19
 70
     1
102
RTVSPropertyOp20
 70
     1
102
RTVSPropertyOp21
 70
     1
102
RTVSPropertyOp22
 70
     1
102
RTVSPropertyOp23
 70
     1
102
RTVSPropertyOp24
 70
     1
102
RTVSPropertyOp25
 70
     1
102
RTVSPropertyOp26
 70
     1
102
RTVSPropertyOp27
 70
     1
102
RTVSPropertyOp28
 70
     1
102
RTVSPropertyOp29
 70
     1
102
RTVSPropertyOp30
 70
     1
102
RTVSPropertyOp31
 70
     1
102
RTVSPropertyOp32
 70
     1
  0
XRECORD
  5
141
102
{ACAD_REACTORS
330
140
102
}
330
140
100
AcDbXrecord
280
     1
102
RTVSPropertyOp0
 70
     1
102
RTVSPropertyOp1
 70
     1
102
RTVSPropertyOp2
 70
     1
102
RTVSPropertyOp3
 70
     1
102
RTVSPropertyOp4
 70
     1
102
RTVSPropertyOp5
 70
     1
102
RTVSPropertyOp6
 70
     1
102
RTVSPropertyOp7
 70
     1
102
RTVSPropertyOp8
 70
     1
102
RTVSPropertyOp9
 70
     1
102
RTVSPropertyOp10
 70
     1
102
RTVSPropertyOp11
 70
     1
102
RTVSPropertyOp12
 70
     1
102
RTVSPropertyOp13
 70
     1
102
RTVSPropertyOp14
 70
     1
102
RTVSPropertyOp15
 70
     1
102
RTVSPropertyOp16
 70
     1
102
RTVSPropertyOp17
 70
     1
102
RTVSPropertyOp18
 70
     1
102
RTVSPropertyOp19
 70
     1
102
RTVSPropertyOp20
 70
     1
102
RTVSPropertyOp21
 70
     1
102
RTVSPropertyOp22
 70
     1
102
RTVSPropertyOp23
 70
     1
102
RTVSPropertyOp24
 70
     1
102
RTVSPropertyOp25
 70
     1
102
RTVSPropertyOp26
 70
     1
102
RTVSPropertyOp27
 70
     1
102
RTVSPropertyOp28
 70
     1
102
RTVSPropertyOp29
 70
     1
102
RTVSPropertyOp30
 70
     1
102
RTVSPropertyOp31
 70
     1
102
RTVSPropertyOp32
 70
     1
  0
XRECORD
  5
145
102
{ACAD_REACTORS
330
144
102
}
330
144
100
AcDbXrecord
280
     1
102
RTVSPropertyOp0
 70
     1
102
RTVSPropertyOp1
 70
     1
102
RTVSPropertyOp2
 70
     1
102
RTVSPropertyOp3
 70
     1
102
RTVSPropertyOp4
 70
     1
102
RTVSPropertyOp5
 70
     1
102
RTVSPropertyOp6
 70
     1
102
RTVSPropertyOp7
 70
     1
102
RTVSPropertyOp8
 70
     1
102
RTVSPropertyOp9
 70
     1
102
RTVSPropertyOp10
 70
     1
102
RTVSPropertyOp11
 70
     1
102
RTVSPropertyOp12
 70
     1
102
RTVSPropertyOp13
 70
     1
102
RTVSPropertyOp14
 70
     1
102
RTVSPropertyOp15
 70
     1
102
RTVSPropertyOp16
 70
     1
102
RTVSPropertyOp17
 70
     1
102
RTVSPropertyOp18
 70
     1
102
RTVSPropertyOp19
 70
     1
102
RTVSPropertyOp20
 70
     1
102
RTVSPropertyOp21
 70
     1
102
RTVSPropertyOp22
 70
     1
102
RTVSPropertyOp23
 70
     1
102
RTVSPropertyOp24
 70
     1
102
RTVSPropertyOp25
 70
     1
102
RTVSPropertyOp26
 70
     1
102
RTVSPropertyOp27
 70
     1
102
RTVSPropertyOp28
 70
     1
102
RTVSPropertyOp29
 70
     1
102
RTVSPropertyOp30
 70
     1
102
RTVSPropertyOp31
 70
     1
102
RTVSPropertyOp32
 70
     1
  0
XRECORD
  5
14D
102
{ACAD_REACTORS
330
14C
102
}
330
14C
100
AcDbXrecord
280
     1
102
RTVSPropertyOp0
 70
     1
102
RTVSPropertyOp1
 70
     1
102
RTVSPropertyOp2
 70
     1
102
RTVSPropertyOp3
 70
     1
102
RTVSPropertyOp4
 70
     1
102
RTVSPropertyOp5
 70
     1
102
RTVSPropertyOp6
 70
     1
102
RTVSPropertyOp7
 70
     1
102
RTVSPropertyOp8
 70
     1
102
RTVSPropertyOp9
 70
     1
102
RTVSPropertyOp10
 70
     1
102
RTVSPropertyOp11
 70
     1
102
RTVSPropertyOp12
 70
     1
102
RTVSPropertyOp13
 70
     1
102
RTVSPropertyOp14
 70
     1
102
RTVSPropertyOp15
 70
     1
102
RTVSPropertyOp16
 70
     1
102
RTVSPropertyOp17
 70
     1
102
RTVSPropertyOp18
 70
     1
102
RTVSPropertyOp19
 70
     1
102
RTVSPropertyOp20
 70
     1
102
RTVSPropertyOp21
 70
     1
102
RTVSPropertyOp22
 70
     1
102
RTVSPropertyOp23
 70
     1
102
RTVSPropertyOp24
 70
     1
102
RTVSPropertyOp25
 70
     1
102
RTVSPropertyOp26
 70
     1
102
RTVSPropertyOp27
 70
     1
102
RTVSPropertyOp28
 70
     1
102
RTVSPropertyOp29
 70
     1
102
RTVSPropertyOp30
 70
     1
102
RTVSPropertyOp31
 70
     1
102
RTVSPropertyOp32
 70
     1
  0
XRECORD
  5
155
102
{ACAD_REACTORS
330
154
102
}
330
154
100
AcDbXrecord
280
     1
102
RTVSPropertyOp0
 70
     1
102
RTVSPropertyOp1
 70
     1
102
RTVSPropertyOp2
 70
     1
102
RTVSPropertyOp3
 70
     1
102
RTVSPropertyOp4
 70
     1
102
RTVSPropertyOp5
 70
     1
102
RTVSPropertyOp6
 70
     1
102
RTVSPropertyOp7
 70
     1
102
RTVSPropertyOp8
 70
     1
102
RTVSPropertyOp9
 70
     1
102
RTVSPropertyOp10
 70
     1
102
RTVSPropertyOp11
 70
     1
102
RTVSPropertyOp12
 70
     1
102
RTVSPropertyOp13
 70
     1
102
RTVSPropertyOp14
 70
     1
102
RTVSPropertyOp15
 70
     1
102
RTVSPropertyOp16
 70
     1
102
RTVSPropertyOp17
 70
     1
102
RTVSPropertyOp18
 70
     1
102
RTVSPropertyOp19
 70
     1
102
RTVSPropertyOp20
 70
     1
102
RTVSPropertyOp21
 70
     1
102
RTVSPropertyOp22
 70
     1
102
RTVSPropertyOp23
 70
     1
102
RTVSPropertyOp24
 70
     1
102
RTVSPropertyOp25
 70
     1
102
RTVSPropertyOp26
 70
     1
102
RTVSPropertyOp27
 70
     1
102
RTVSPropertyOp28
 70
     1
102
RTVSPropertyOp29
 70
     1
102
RTVSPropertyOp30
 70
     1
102
RTVSPropertyOp31
 70
     1
102
RTVSPropertyOp32
 70
     1
  0
XRECORD
  5
149
102
{ACAD_REACTORS
330
148
102
}
330
148
100
AcDbXrecord
280
     1
102
RTVSPropertyOp0
 70
     1
102
RTVSPropertyOp1
 70
     1
102
RTVSPropertyOp2
 70
     1
102
RTVSPropertyOp3
 70
     1
102
RTVSPropertyOp4
 70
     1
102
RTVSPropertyOp5
 70
     1
102
RTVSPropertyOp6
 70
     1
102
RTVSPropertyOp7
 70
     1
102
RTVSPropertyOp8
 70
     1
102
RTVSPropertyOp9
 70
     1
102
RTVSPropertyOp10
 70
     1
102
RTVSPropertyOp11
 70
     1
102
RTVSPropertyOp12
 70
     1
102
RTVSPropertyOp13
 70
     1
102
RTVSPropertyOp14
 70
     1
102
RTVSPropertyOp15
 70
     1
102
RTVSPropertyOp16
 70
     1
102
RTVSPropertyOp17
 70
     1
102
RTVSPropertyOp18
 70
     1
102
RTVSPropertyOp19
 70
     1
102
RTVSPropertyOp20
 70
     1
102
RTVSPropertyOp21
 70
     1
102
RTVSPropertyOp22
 70
     1
102
RTVSPropertyOp23
 70
     1
102
RTVSPropertyOp24
 70
     1
102
RTVSPropertyOp25
 70
     1
102
RTVSPropertyOp26
 70
     1
102
RTVSPropertyOp27
 70
     1
102
RTVSPropertyOp28
 70
     1
102
RTVSPropertyOp29
 70
     1
102
RTVSPropertyOp30
 70
     1
102
RTVSPropertyOp31
 70
     1
102
RTVSPropertyOp32
 70
     1
  0
XRECORD
  5
14B
102
{ACAD_REACTORS
330
14A
102
}
330
14A
100
AcDbXrecord
280
     1
102
RTVSPropertyOp0
 70
     1
102
RTVSPropertyOp1
 70
     1
102
RTVSPropertyOp2
 70
     1
102
RTVSPropertyOp3
 70
     1
102
RTVSPropertyOp4
 70
     1
102
RTVSPropertyOp5
 70
     1
102
RTVSPropertyOp6
 70
     1
102
RTVSPropertyOp7
 70
     1
102
RTVSPropertyOp8
 70
     1
102
RTVSPropertyOp9
 70
     1
102
RTVSPropertyOp10
 70
     1
102
RTVSPropertyOp11
 70
     1
102
RTVSPropertyOp12
 70
     1
102
RTVSPropertyOp13
 70
     1
102
RTVSPropertyOp14
 70
     1
102
RTVSPropertyOp15
 70
     1
102
RTVSPropertyOp16
 70
     1
102
RTVSPropertyOp17
 70
     1
102
RTVSPropertyOp18
 70
     1
102
RTVSPropertyOp19
 70
     1
102
RTVSPropertyOp20
 70
     1
102
RTVSPropertyOp21
 70
     1
102
RTVSPropertyOp22
 70
     1
102
RTVSPropertyOp23
 70
     1
102
RTVSPropertyOp24
 70
     1
102
RTVSPropertyOp25
 70
     1
102
RTVSPropertyOp26
 70
     1
102
RTVSPropertyOp27
 70
     1
102
RTVSPropertyOp28
 70
     1
102
RTVSPropertyOp29
 70
     1
102
RTVSPropertyOp30
 70
     1
102
RTVSPropertyOp31
 70
     1
102
RTVSPropertyOp32
 70
     1
  0
XRECORD
  5
153
102
{ACAD_REACTORS
330
152
102
}
330
152
100
AcDbXrecord
280
     1
102
RTVSPropertyOp0
 70
     1
102
RTVSPropertyOp1
 70
     1
102
RTVSPropertyOp2
 70
     1
102
RTVSPropertyOp3
 70
     1
102
RTVSPropertyOp4
 70
     1
102
RTVSPropertyOp5
 70
     1
102
RTVSPropertyOp6
 70
     1
102
RTVSPropertyOp7
 70
     1
102
RTVSPropertyOp8
 70
     1
102
RTVSPropertyOp9
 70
     1
102
RTVSPropertyOp10
 70
     1
102
RTVSPropertyOp11
 70
     1
102
RTVSPropertyOp12
 70
     1
102
RTVSPropertyOp13
 70
     1
102
RTVSPropertyOp14
 70
     1
102
RTVSPropertyOp15
 70
     1
102
RTVSPropertyOp16
 70
     1
102
RTVSPropertyOp17
 70
     1
102
RTVSPropertyOp18
 70
     1
102
RTVSPropertyOp19
 70
     1
102
RTVSPropertyOp20
 70
     1
102
RTVSPropertyOp21
 70
     1
102
RTVSPropertyOp22
 70
     1
102
RTVSPropertyOp23
 70
     1
102
RTVSPropertyOp24
 70
     1
102
RTVSPropertyOp25
 70
     1
102
RTVSPropertyOp26
 70
     1
102
RTVSPropertyOp27
 70
     1
102
RTVSPropertyOp28
 70
     1
102
RTVSPropertyOp29
 70
     1
102
RTVSPropertyOp30
 70
     1
102
RTVSPropertyOp31
 70
     1
102
RTVSPropertyOp32
 70
     1
  0
XRECORD
  5
137
102
{ACAD_REACTORS
330
136
102
}
330
136
100
AcDbXrecord
280
     1
102
RTVSPropertyOp0
 70
     1
102
RTVSPropertyOp1
 70
     1
102
RTVSPropertyOp2
 70
     1
102
RTVSPropertyOp3
 70
     1
102
RTVSPropertyOp4
 70
     1
102
RTVSPropertyOp5
 70
     1
102
RTVSPropertyOp6
 70
     1
102
RTVSPropertyOp7
 70
     1
102
RTVSPropertyOp8
 70
     1
102
RTVSPropertyOp9
 70
     1
102
RTVSPropertyOp10
 70
     1
102
RTVSPropertyOp11
 70
     1
102
RTVSPropertyOp12
 70
     1
102
RTVSPropertyOp13
 70
     1
102
RTVSPropertyOp14
 70
     1
102
RTVSPropertyOp15
 70
     1
102
RTVSPropertyOp16
 70
     1
102
RTVSPropertyOp17
 70
     1
102
RTVSPropertyOp18
 70
     1
102
RTVSPropertyOp19
 70
     1
102
RTVSPropertyOp20
 70
     1
102
RTVSPropertyOp21
 70
     1
102
RTVSPropertyOp22
 70
     1
102
RTVSPropertyOp23
 70
     1
102
RTVSPropertyOp24
 70
     1
102
RTVSPropertyOp25
 70
     1
102
RTVSPropertyOp26
 70
     1
102
RTVSPropertyOp27
 70
     1
102
RTVSPropertyOp28
 70
     1
102
RTVSPropertyOp29
 70
     1
102
RTVSPropertyOp30
 70
     1
102
RTVSPropertyOp31
 70
     1
102
RTVSPropertyOp32
 70
     1
  0
XRECORD
  5
139
102
{ACAD_REACTORS
330
138
102
}
330
138
100
AcDbXrecord
280
     1
102
RTVSPropertyOp0
 70
     1
102
RTVSPropertyOp1
 70
     1
102
RTVSPropertyOp2
 70
     1
102
RTVSPropertyOp3
 70
     1
102
RTVSPropertyOp4
 70
     1
102
RTVSPropertyOp5
 70
     1
102
RTVSPropertyOp6
 70
     1
102
RTVSPropertyOp7
 70
     1
102
RTVSPropertyOp8
 70
     1
102
RTVSPropertyOp9
 70
     1
102
RTVSPropertyOp10
 70
     1
102
RTVSPropertyOp11
 70
     1
102
RTVSPropertyOp12
 70
     1
102
RTVSPropertyOp13
 70
     1
102
RTVSPropertyOp14
 70
     1
102
RTVSPropertyOp15
 70
     1
102
RTVSPropertyOp16
 70
     1
102
RTVSPropertyOp17
 70
     1
102
RTVSPropertyOp18
 70
     1
102
RTVSPropertyOp19
 70
     1
102
RTVSPropertyOp20
 70
     1
102
RTVSPropertyOp21
 70
     1
102
RTVSPropertyOp22
 70
     1
102
RTVSPropertyOp23
 70
     1
102
RTVSPropertyOp24
 70
     1
102
RTVSPropertyOp25
 70
     1
102
RTVSPropertyOp26
 70
     1
102
RTVSPropertyOp27
 70
     1
102
RTVSPropertyOp28
 70
     1
102
RTVSPropertyOp29
 70
     1
102
RTVSPropertyOp30
 70
     1
102
RTVSPropertyOp31
 70
     1
102
RTVSPropertyOp32
 70
     1
  0
XRECORD
  5
13B
102
{ACAD_REACTORS
330
13A
102
}
330
13A
100
AcDbXrecord
280
     1
102
RTVSPropertyOp0
 70
     1
102
RTVSPropertyOp1
 70
     1
102
RTVSPropertyOp2
 70
     1
102
RTVSPropertyOp3
 70
     1
102
RTVSPropertyOp4
 70
     1
102
RTVSPropertyOp5
 70
     1
102
RTVSPropertyOp6
 70
     1
102
RTVSPropertyOp7
 70
     1
102
RTVSPropertyOp8
 70
     1
102
RTVSPropertyOp9
 70
     1
102
RTVSPropertyOp10
 70
     1
102
RTVSPropertyOp11
 70
     1
102
RTVSPropertyOp12
 70
     1
102
RTVSPropertyOp13
 70
     1
102
RTVSPropertyOp14
 70
     1
102
RTVSPropertyOp15
 70
     1
102
RTVSPropertyOp16
 70
     1
102
RTVSPropertyOp17
 70
     1
102
RTVSPropertyOp18
 70
     1
102
RTVSPropertyOp19
 70
     1
102
RTVSPropertyOp20
 70
     1
102
RTVSPropertyOp21
 70
     1
102
RTVSPropertyOp22
 70
     1
102
RTVSPropertyOp23
 70
     1
102
RTVSPropertyOp24
 70
     1
102
RTVSPropertyOp25
 70
     1
102
RTVSPropertyOp26
 70
     1
102
RTVSPropertyOp27
 70
     1
102
RTVSPropertyOp28
 70
     1
102
RTVSPropertyOp29
 70
     1
102
RTVSPropertyOp30
 70
     1
102
RTVSPropertyOp31
 70
     1
102
RTVSPropertyOp32
 70
     1
  0
XRECORD
  5
13D
102
{ACAD_REACTORS
330
13C
102
}
330
13C
100
AcDbXrecord
280
     1
102
RTVSPropertyOp0
 70
     1
102
RTVSPropertyOp1
 70
     1
102
RTVSPropertyOp2
 70
     1
102
RTVSPropertyOp3
 70
     1
102
RTVSPropertyOp4
 70
     1
102
RTVSPropertyOp5
 70
     1
102
RTVSPropertyOp6
 70
     1
102
RTVSPropertyOp7
 70
     1
102
RTVSPropertyOp8
 70
     1
102
RTVSPropertyOp9
 70
     1
102
RTVSPropertyOp10
 70
     1
102
RTVSPropertyOp11
 70
     1
102
RTVSPropertyOp12
 70
     1
102
RTVSPropertyOp13
 70
     1
102
RTVSPropertyOp14
 70
     1
102
RTVSPropertyOp15
 70
     1
102
RTVSPropertyOp16
 70
     1
102
RTVSPropertyOp17
 70
     1
102
RTVSPropertyOp18
 70
     1
102
RTVSPropertyOp19
 70
     1
102
RTVSPropertyOp20
 70
     1
102
RTVSPropertyOp21
 70
     1
102
RTVSPropertyOp22
 70
     1
102
RTVSPropertyOp23
 70
     1
102
RTVSPropertyOp24
 70
     1
102
RTVSPropertyOp25
 70
     1
102
RTVSPropertyOp26
 70
     1
102
RTVSPropertyOp27
 70
     1
102
RTVSPropertyOp28
 70
     1
102
RTVSPropertyOp29
 70
     1
102
RTVSPropertyOp30
 70
     1
102
RTVSPropertyOp31
 70
     1
102
RTVSPropertyOp32
 70
     1
  0
XRECORD
  5
151
102
{ACAD_REACTORS
330
150
102
}
330
150
100
AcDbXrecord
280
     1
102
RTVSPropertyOp0
 70
     1
102
RTVSPropertyOp1
 70
     1
102
RTVSPropertyOp2
 70
     1
102
RTVSPropertyOp3
 70
     1
102
RTVSPropertyOp4
 70
     1
102
RTVSPropertyOp5
 70
     1
102
RTVSPropertyOp6
 70
     1
102
RTVSPropertyOp7
 70
     1
102
RTVSPropertyOp8
 70
     1
102
RTVSPropertyOp9
 70
     1
102
RTVSPropertyOp10
 70
     1
102
RTVSPropertyOp11
 70
     1
102
RTVSPropertyOp12
 70
     1
102
RTVSPropertyOp13
 70
     1
102
RTVSPropertyOp14
 70
     1
102
RTVSPropertyOp15
 70
     1
102
RTVSPropertyOp16
 70
     1
102
RTVSPropertyOp17
 70
     1
102
RTVSPropertyOp18
 70
     1
102
RTVSPropertyOp19
 70
     1
102
RTVSPropertyOp20
 70
     1
102
RTVSPropertyOp21
 70
     1
102
RTVSPropertyOp22
 70
     1
102
RTVSPropertyOp23
 70
     1
102
RTVSPropertyOp24
 70
     1
102
RTVSPropertyOp25
 70
     1
102
RTVSPropertyOp26
 70
     1
102
RTVSPropertyOp27
 70
     1
102
RTVSPropertyOp28
 70
     1
102
RTVSPropertyOp29
 70
     1
102
RTVSPropertyOp30
 70
     1
102
RTVSPropertyOp31
 70
     1
102
RTVSPropertyOp32
 70
     1
  0
XRECORD
  5
147
102
{ACAD_REACTORS
330
146
102
}
330
146
100
AcDbXrecord
280
     1
102
RTVSPropertyOp0
 70
     1
102
RTVSPropertyOp1
 70
     1
102
RTVSPropertyOp2
 70
     1
102
RTVSPropertyOp3
 70
     1
102
RTVSPropertyOp4
 70
     1
102
RTVSPropertyOp5
 70
     1
102
RTVSPropertyOp6
 70
     1
102
RTVSPropertyOp7
 70
     1
102
RTVSPropertyOp8
 70
     1
102
RTVSPropertyOp9
 70
     1
102
RTVSPropertyOp10
 70
     1
102
RTVSPropertyOp11
 70
     1
102
RTVSPropertyOp12
 70
     1
102
RTVSPropertyOp13
 70
     1
102
RTVSPropertyOp14
 70
     1
102
RTVSPropertyOp15
 70
     1
102
RTVSPropertyOp16
 70
     1
102
RTVSPropertyOp17
 70
     1
102
RTVSPropertyOp18
 70
     1
102
RTVSPropertyOp19
 70
     1
102
RTVSPropertyOp20
 70
     1
102
RTVSPropertyOp21
 70
     1
102
RTVSPropertyOp22
 70
     1
102
RTVSPropertyOp23
 70
     1
102
RTVSPropertyOp24
 70
     1
102
RTVSPropertyOp25
 70
     1
102
RTVSPropertyOp26
 70
     1
102
RTVSPropertyOp27
 70
     1
102
RTVSPropertyOp28
 70
     1
102
RTVSPropertyOp29
 70
     1
102
RTVSPropertyOp30
 70
     1
102
RTVSPropertyOp31
 70
     1
102
RTVSPropertyOp32
 70
     1
  0
XRECORD
  5
14F
102
{ACAD_REACTORS
330
14E
102
}
330
14E
100
AcDbXrecord
280
     1
102
RTVSPropertyOp0
 70
     1
102
RTVSPropertyOp1
 70
     1
102
RTVSPropertyOp2
 70
     1
102
RTVSPropertyOp3
 70
     1
102
RTVSPropertyOp4
 70
     1
102
RTVSPropertyOp5
 70
     1
102
RTVSPropertyOp6
 70
     1
102
RTVSPropertyOp7
 70
     1
102
RTVSPropertyOp8
 70
     1
102
RTVSPropertyOp9
 70
     1
102
RTVSPropertyOp10
 70
     1
102
RTVSPropertyOp11
 70
     1
102
RTVSPropertyOp12
 70
     1
102
RTVSPropertyOp13
 70
     1
102
RTVSPropertyOp14
 70
     1
102
RTVSPropertyOp15
 70
     1
102
RTVSPropertyOp16
 70
     1
102
RTVSPropertyOp17
 70
     1
102
RTVSPropertyOp18
 70
     1
102
RTVSPropertyOp19
 70
     1
102
RTVSPropertyOp20
 70
     1
102
RTVSPropertyOp21
 70
     1
102
RTVSPropertyOp22
 70
     1
102
RTVSPropertyOp23
 70
     1
102
RTVSPropertyOp24
 70
     1
102
RTVSPropertyOp25
 70
     1
102
RTVSPropertyOp26
 70
     1
102
RTVSPropertyOp27
 70
     1
102
RTVSPropertyOp28
 70
     1
102
RTVSPropertyOp29
 70
     1
102
RTVSPropertyOp30
 70
     1
102
RTVSPropertyOp31
 70
     1
102
RTVSPropertyOp32
 70
     1
  0
ENDSEC
  0
EOF
