  0
SECTION
  2
HEADER
  9
$ACADVER
  1
AC1015
  9
$ACADMAINTVER
 70
     6
  9
$DWGCODEPAGE
  3
ANSI_932
  9
$INSBASE
 10
0.0
 20
0.0
 30
0.0
  9
$EXTMIN
 10
0.0
 20
0.0
 30
0.0
  9
$EXTMAX
 10
210.0
 20
297.0
 30
0.0
  9
$LIMMIN
 10
0.0
 20
0.0
  9
$LIMMAX
 10
12.0
 20
9.0
  9
$ORTHOMODE
 70
     0
  9
$REGENMODE
 70
     1
  9
$FILLMODE
 70
     1
  9
$QTEXTMODE
 70
     0
  9
$MIRRTEXT
 70
     1
  9
$LTSCALE
 40
1.0
  9
$ATTMODE
 70
     1
  9
$TEXTSIZE
 40
0.2
  9
$TRACEWID
 40
0.05
  9
$TEXTSTYLE
  7
Standard
  9
$CLAYER
  8
0
  9
$CELTYPE
  6
ByLayer
  9
$CECOLOR
 62
   256
  9
$CELTSCALE
 40
1.0
  9
$DISPSILH
 70
     0
  9
$DIMSCALE
 40
1.0
  9
$DIMASZ
 40
0.18
  9
$DIMEXO
 40
0.0625
  9
$DIMDLI
 40
0.38
  9
$DIMRND
 40
0.0
  9
$DIMDLE
 40
0.0
  9
$DIMEXE
 40
0.18
  9
$DIMTP
 40
0.0
  9
$DIMTM
 40
0.0
  9
$DIMTXT
 40
0.18
  9
$DIMCEN
 40
0.09
  9
$DIMTSZ
 40
0.0
  9
$DIMTOL
 70
     0
  9
$DIMLIM
 70
     0
  9
$DIMTIH
 70
     1
  9
$DIMTOH
 70
     1
  9
$DIMSE1
 70
     0
  9
$DIMSE2
 70
     0
  9
$DIMTAD
 70
     0
  9
$DIMZIN
 70
     0
  9
$DIMBLK
  1

  9
$DIMASO
 70
     1
  9
$DIMSHO
 70
     1
  9
$DIMPOST
  1

  9
$DIMAPOST
  1

  9
$DIMALT
 70
     0
  9
$DIMALTD
 70
     2
  9
$DIMALTF
 40
25.4
  9
$DIMLFAC
 40
1.0
  9
$DIMTOFL
 70
     0
  9
$DIMTVP
 40
0.0
  9
$DIMTIX
 70
     0
  9
$DIMSOXD
 70
     0
  9
$DIMSAH
 70
     0
  9
$DIMBLK1
  1

  9
$DIMBLK2
  1

  9
$DIMSTYLE
  2
Standard
  9
$DIMCLRD
 70
     0
  9
$DIMCLRE
 70
     0
  9
$DIMCLRT
 70
     0
  9
$DIMTFAC
 40
1.0
  9
$DIMGAP
 40
0.09
  9
$DIMJUST
 70
     0
  9
$DIMSD1
 70
     0
  9
$DIMSD2
 70
     0
  9
$DIMTOLJ
 70
     1
  9
$DIMTZIN
 70
     0
  9
$DIMALTZ
 70
     0
  9
$DIMALTTZ
 70
     0
  9
$DIMUPT
 70
     0
  9
$DIMDEC
 70
     4
  9
$DIMTDEC
 70
     4
  9
$DIMALTU
 70
     2
  9
$DIMALTTD
 70
     2
  9
$DIMTXSTY
  7
Standard
  9
$DIMAUNIT
 70
     0
  9
$DIMADEC
 70
     0
  9
$DIMALTRND
 40
0.0
  9
$DIMAZIN
 70
     0
  9
$DIMDSEP
 70
    46
  9
$DIMATFIT
 70
     3
  9
$DIMFRAC
 70
     0
  9
$DIMLDRBLK
  1

  9
$DIMLUNIT
 70
     2
  9
$DIMLWD
 70
    -2
  9
$DIMLWE
 70
    -2
  9
$DIMTMOVE
 70
     0
  9
$LUNITS
 70
     2
  9
$LUPREC
 70
     4
  9
$SKETCHINC
 40
0.1
  9
$FILLETRAD
 40
0.5
  9
$AUNITS
 70
     0
  9
$AUPREC
 70
     0
  9
$MENU
  1
.
  9
$ELEVATION
 40
0.0
  9
$PELEVATION
 40
0.0
  9
$THICKNESS
 40
0.0
  9
$LIMCHECK
 70
     0
  9
$CHAMFERA
 40
0.5
  9
$CHAMFERB
 40
0.5
  9
$CHAMFERC
 40
1.0
  9
$CHAMFERD
 40
0.0
  9
$SKPOLY
 70
     0
  9
$TDCREATE
 40
2459780.594910463
  9
$TDUCREATE
 40
2459780.219910463
  9
$TDUPDATE
 40
2459780.594911551
  9
$TDUUPDATE
 40
2459780.219911551
  9
$TDINDWG
 40
0.0000000116
  9
$TDUSRTIMER
 40
0.0000000116
  9
$USRTIMER
 70
     1
  9
$ANGBASE
 50
0.0
  9
$ANGDIR
 70
     0
  9
$PDMODE
 70
     0
  9
$PDSIZE
 40
0.0
  9
$PLINEWID
 40
0.0
  9
$SPLFRAME
 70
     0
  9
$SPLINETYPE
 70
     6
  9
$SPLINESEGS
 70
     8
  9
$HANDSEED
  5
132
  9
$SURFTAB1
 70
     6
  9
$SURFTAB2
 70
     6
  9
$SURFTYPE
 70
     6
  9
$SURFU
 70
     6
  9
$SURFV
 70
     6
  9
$UCSBASE
  2

  9
$UCSNAME
  2

  9
$UCSORG
 10
0.0
 20
0.0
 30
0.0
  9
$UCSXDIR
 10
1.0
 20
0.0
 30
0.0
  9
$UCSYDIR
 10
0.0
 20
1.0
 30
0.0
  9
$UCSORTHOREF
  2

  9
$UCSORTHOVIEW
 70
     0
  9
$UCSORGTOP
 10
0.0
 20
0.0
 30
0.0
  9
$UCSORGBOTTOM
 10
0.0
 20
0.0
 30
0.0
  9
$UCSORGLEFT
 10
0.0
 20
0.0
 30
0.0
  9
$UCSORGRIGHT
 10
0.0
 20
0.0
 30
0.0
  9
$UCSORGFRONT
 10
0.0
 20
0.0
 30
0.0
  9
$UCSORGBACK
 10
0.0
 20
0.0
 30
0.0
  9
$PUCSBASE
  2

  9
$PUCSNAME
  2

  9
$PUCSORG
 10
0.0
 20
0.0
 30
0.0
  9
$PUCSXDIR
 10
1.0
 20
0.0
 30
0.0
  9
$PUCSYDIR
 10
0.0
 20
1.0
 30
0.0
  9
$PUCSORTHOREF
  2

  9
$PUCSORTHOVIEW
 70
     0
  9
$PUCSORGTOP
 10
0.0
 20
0.0
 30
0.0
  9
$PUCSORGBOTTOM
 10
0.0
 20
0.0
 30
0.0
  9
$PUCSORGLEFT
 10
0.0
 20
0.0
 30
0.0
  9
$PUCSORGRIGHT
 10
0.0
 20
0.0
 30
0.0
  9
$PUCSORGFRONT
 10
0.0
 20
0.0
 30
0.0
  9
$PUCSORGBACK
 10
0.0
 20
0.0
 30
0.0
  9
$USERI1
 70
     0
  9
$USERI2
 70
     0
  9
$USERI3
 70
     0
  9
$USERI4
 70
     0
  9
$USERI5
 70
     0
  9
$USERR1
 40
18.1
  9
$USERR2
 40
0.0
  9
$USERR3
 40
0.0
  9
$USERR4
 40
0.0
  9
$USERR5
 40
0.0
  9
$WORLDVIEW
 70
     1
  9
$SHADEDGE
 70
     3
  9
$SHADEDIF
 70
    70
  9
$TILEMODE
 70
     1
  9
$MAXACTVP
 70
    64
  9
$PINSBASE
 10
0.0
 20
0.0
 30
0.0
  9
$PLIMCHECK
 70
     0
  9
$PEXTMIN
 10
1.00000000000000E+20
 20
1.00000000000000E+20
 30
1.00000000000000E+20
  9
$PEXTMAX
 10
-1.00000000000000E+20
 20
-1.00000000000000E+20
 30
-1.00000000000000E+20
  9
$PLIMMIN
 10
0.0
 20
0.0
  9
$PLIMMAX
 10
12.0
 20
9.0
  9
$UNITMODE
 70
     0
  9
$VISRETAIN
 70
     1
  9
$PLINEGEN
 70
     0
  9
$PSLTSCALE
 70
     1
  9
$TREEDEPTH
 70
  3020
  9
$CMLSTYLE
  2
Standard
  9
$CMLJUST
 70
     0
  9
$CMLSCALE
 40
1.0
  9
$PROXYGRAPHICS
 70
     1
  9
$MEASUREMENT
 70
     1
  9
$CELWEIGHT
370
    -1
  9
$ENDCAPS
280
     0
  9
$JOINSTYLE
280
     0
  9
$LWDISPLAY
290
     0
  9
$INSUNITS
 70
     4
  9
$HYPERLINKBASE
  1

  9
$STYLESHEET
  1

  9
$XEDIT
290
     1
  9
$CEPSNTYPE
380
     0
  9
$PSTYLEMODE
290
     1
  9
$FINGERPRINTGUID
  2
{0DB6487F-E3E7-48B3-A30B-B64930F6076F}
  9
$VERSIONGUID
  2
{FAEB1C32-E019-11D5-929B-00C0DF256EC4}
  9
$EXTNAMES
290
     1
  9
$PSVPSCALE
 40
0.0
  9
$OLESTARTUP
290
     0
  0
ENDSEC
  0
SECTION
  2
CLASSES
  0
CLASS
  1
ACDBDICTIONARYWDFLT
  2
AcDbDictionaryWithDefault
  3
ObjectDBX Classes
 90
        0
280
     0
281
     0
  0
CLASS
  1
VISUALSTYLE
  2
AcDbVisualStyle
  3
ObjectDBX Classes
 90
     4095
280
     0
281
     0
  0
CLASS
  1
MATERIAL
  2
AcDbMaterial
  3
ObjectDBX Classes
 90
     1153
280
     0
281
     0
  0
CLASS
  1
DICTIONARYVAR
  2
AcDbDictionaryVar
  3
ObjectDBX Classes
 90
        0
280
     0
281
     0
  0
CLASS
  1
ACDBPLACEHOLDER
  2
AcDbPlaceHolder
  3
ObjectDBX Classes
 90
        0
280
     0
281
     0
  0
CLASS
  1
LAYOUT
  2
AcDbLayout
  3
ObjectDBX Classes
 90
        0
280
     0
281
     0
  0
ENDSEC
  0
SECTION
  2
TABLES
  0
TABLE
  2
VPORT
  5
8
330
0
100
AcDbSymbolTable
 70
     1
  0
VPORT
  5
29
330
8
100
AcDbSymbolTableRecord
100
AcDbViewportTableRecord
  2
*Active
 70
     0
 10
0.0
 20
0.0
 11
1.0
 21
1.0
 12
105.0
 22
148.5
 13
0.0
 23
0.0
 14
0.5
 24
0.5
 15
0.5
 25
0.5
 16
0.0
 26
0.0
 36
1.0
 17
0.0
 27
0.0
 37
0.0
 40
326.7
 41
1.60267857142857
 42
50.0
 43
0.0
 44
0.0
 50
0.0
 51
0.0
 71
     0
 72
   100
 73
     1
 74
     3
 75
     0
 76
     0
 77
     0
 78
     0
281
     0
 65
     1
110
0.0
120
0.0
130
0.0
111
1.0
121
0.0
131
0.0
112
0.0
122
1.0
132
0.0
 79
     0
146
0.0
  0
ENDTAB
  0
TABLE
  2
LTYPE
  5
5
330
0
100
AcDbSymbolTable
 70
     8
  0
LTYPE
  5
14
330
5
100
AcDbSymbolTableRecord
100
AcDbLinetypeTableRecord
  2
ByBlock
 70
     0
  3

 72
    65
 73
     0
 40
0.0
  0
LTYPE
  5
15
330
5
100
AcDbSymbolTableRecord
100
AcDbLinetypeTableRecord
  2
ByLayer
 70
     0
  3

 72
    65
 73
     0
 40
0.0
  0
LTYPE
  5
16
330
5
100
AcDbSymbolTableRecord
100
AcDbLinetypeTableRecord
  2
Continuous
 70
     0
  3
Solid line
 72
    65
 73
     0
 40
0.0
  0
LTYPE
  5
3F
330
5
100
AcDbSymbolTableRecord
100
AcDbLinetypeTableRecord
  2
DASHED
 70
     0
  3
Dashed
 72
    65
 73
     2
 40
15.0
 49
7.0
 74
     0
 49
-8.0
 74
     0
  0
LTYPE
  5
40
330
5
100
AcDbSymbolTableRecord
100
AcDbLinetypeTableRecord
  2
DOTTED
 70
     0
  3
Dotted
 72
    65
 73
     2
 40
1.0
 49
0.0
 74
     0
 49
-1.0
 74
     0
  0
LTYPE
  5
41
330
5
100
AcDbSymbolTableRecord
100
AcDbLinetypeTableRecord
  2
DOT_CENTER
 70
     0
  3
Dot_Center
 72
    65
 73
     4
 40
14.0
 49
12.0
 74
     0
 49
-1.0
 74
     0
 49
0.0
 74
     0
 49
-1.0
 74
     0
  0
LTYPE
  5
42
330
5
100
AcDbSymbolTableRecord
100
AcDbLinetypeTableRecord
  2
LONG_DASHED
 70
     0
  3
Long_Dashed
 72
    65
 73
     2
 40
15.0
 49
10.0
 74
     0
 49
-5.0
 74
     0
  0
LTYPE
  5
43
330
5
100
AcDbSymbolTableRecord
100
AcDbLinetypeTableRecord
  2
DASH_CENTER
 70
     0
  3
Dash_Center
 72
    65
 73
     4
 40
14.0
 49
11.0
 74
     0
 49
-1.0
 74
     0
 49
1.0
 74
     0
 49
-1.0
 74
     0
  0
LTYPE
  5
44
330
5
100
AcDbSymbolTableRecord
100
AcDbLinetypeTableRecord
  2
PHANTOM
 70
     0
  3
Phantom
 72
    65
 73
     6
 40
13.0
 49
10.0
 74
     0
 49
-1.0
 74
     0
 49
0.0
 74
     0
 49
-1.0
 74
     0
 49
0.0
 74
     0
 49
-1.0
 74
     0
  0
LTYPE
  5
45
330
5
100
AcDbSymbolTableRecord
100
AcDbLinetypeTableRecord
  2
CENTER_DASH_DASH
 70
     0
  3
Center_Dash_Dash
 72
    65
 73
     6
 40
14.0
 49
9.0
 74
     0
 49
-1.0
 74
     0
 49
1.0
 74
     0
 49
-1.0
 74
     0
 49
1.0
 74
     0
 49
-1.0
 74
     0
  0
ENDTAB
  0
TABLE
  2
LAYER
  5
2
330
0
100
AcDbSymbolTable
 70
     3
  0
LAYER
  5
10
330
2
100
AcDbSymbolTableRecord
100
AcDbLayerTableRecord
  2
0
 70
     0
 62
     7
  6
Continuous
370
    -3
390
F
  0
LAYER
  5
46
330
2
100
AcDbSymbolTableRecord
100
AcDbLayerTableRecord
  2
1
 70
     0
 62
     7
  6
Continuous
370
    -3
390
F
  0
LAYER
  5
47
330
2
100
AcDbSymbolTableRecord
100
AcDbLayerTableRecord
  2
_U_30EC_U_30A4_U_30E4_U_30FC_1
 70
     0
 62
     7
  6
Continuous
370
    -3
390
F
  0
ENDTAB
  0
TABLE
  2
STYLE
  5
3
330
0
100
AcDbSymbolTable
 70
     3
  0
STYLE
  5
11
330
3
100
AcDbSymbolTableRecord
100
AcDbTextStyleTableRecord
  2
Standard
 70
     0
 40
0.0
 41
1.0
 50
0.0
 71
     0
 42
0.2
  3
txt
  4

  0
STYLE
  5
B6
330
3
100
AcDbSymbolTableRecord
100
AcDbTextStyleTableRecord
  2
CONVERTER_11
 70
     0
 40
0.0
 41
0.89
 50
0.0
 71
     0
 42
0.2
  3
MS Mincho.ttf
  4

1001
ACAD
1000
MS Mincho
1071
    32785
  0
STYLE
  5
DB
330
3
100
AcDbSymbolTableRecord
100
AcDbTextStyleTableRecord
  2
CONVERTER_12
 70
     0
 40
0.0
 41
0.9
 50
0.0
 71
     0
 42
0.2
  3
txt.shx
  4

  0
ENDTAB
  0
TABLE
  2
VIEW
  5
6
330
0
100
AcDbSymbolTable
 70
     0
  0
ENDTAB
  0
TABLE
  2
UCS
  5
7
330
0
100
AcDbSymbolTable
 70
     0
  0
ENDTAB
  0
TABLE
  2
APPID
  5
9
330
0
100
AcDbSymbolTable
 70
     1
  0
APPID
  5
12
330
9
100
AcDbSymbolTableRecord
100
AcDbRegAppTableRecord
  2
ACAD
 70
     0
  0
ENDTAB
  0
TABLE
  2
DIMSTYLE
  5
A
330
0
100
AcDbSymbolTable
 70
     2
100
AcDbDimStyleTable
  0
DIMSTYLE
105
27
330
A
100
AcDbSymbolTableRecord
100
AcDbDimStyleTableRecord
  2
Standard
 70
     0
178
     0
340
11
  0
DIMSTYLE
105
F3
102
{ACAD_REACTORS
330
F4
102
}
330
A
100
AcDbSymbolTableRecord
100
AcDbDimStyleTableRecord
  2
ME10_DIM_10
 70
     0
 41
3.5
 42
0.0
 44
1.0
 73
     0
 74
     0
 77
     1
 78
     8
140
3.5
147
1.0
172
     1
173
     1
174
     1
175
     1
176
     2
177
     2
271
     2
178
     7
271
     2
340
DB
  0
ENDTAB
  0
TABLE
  2
BLOCK_RECORD
  5
1
330
0
100
AcDbSymbolTable
 70
     7
  0
BLOCK_RECORD
  5
1F
330
1
100
AcDbSymbolTableRecord
100
AcDbBlockTableRecord
  2
*Model_Space
340
22
  0
BLOCK_RECORD
  5
1B
330
1
100
AcDbSymbolTableRecord
100
AcDbBlockTableRecord
  2
*Paper_Space
340
1E
  0
BLOCK_RECORD
  5
23
330
1
100
AcDbSymbolTableRecord
100
AcDbBlockTableRecord
  2
*Paper_Space0
340
26
  0
BLOCK_RECORD
  5
48
330
1
100
AcDbSymbolTableRecord
100
AcDbBlockTableRecord
  2
開示A4
340
0
102
{BLKREFS
331
4C
102
}
  0
BLOCK_RECORD
  5
4B
330
1
100
AcDbSymbolTableRecord
100
AcDbBlockTableRecord
  2
開示A4枠
340
0
102
{BLKREFS
331
52
102
}
  0
BLOCK_RECORD
  5
4F
330
1
100
AcDbSymbolTableRecord
100
AcDbBlockTableRecord
  2
P40-54S-25
340
0
102
{BLKREFS
331
53
102
}
  0
BLOCK_RECORD
  5
E8
330
1
100
AcDbSymbolTableRecord
100
AcDbBlockTableRecord
  2
*D4
340
0
  0
BLOCK_RECORD
  5
F5
330
1
100
AcDbSymbolTableRecord
100
AcDbBlockTableRecord
  2
*D5
340
0
102
{BLKREFS
331
FC
102
}
  0
BLOCK_RECORD
  5
FD
330
1
100
AcDbSymbolTableRecord
100
AcDbBlockTableRecord
  2
*D6
340
0
102
{BLKREFS
331
106
102
}
  0
ENDTAB
  0
ENDSEC
  0
SECTION
  2
BLOCKS
  0
BLOCK
  5
20
330
1F
100
AcDbEntity
  8
0
100
AcDbBlockBegin
  2
*Model_Space
 70
     0
 10
0.0
 20
0.0
 30
0.0
  3
*Model_Space
  1

  0
ENDBLK
  5
21
330
1F
100
AcDbEntity
  8
0
100
AcDbBlockEnd
  0
BLOCK
  5
1C
330
1B
100
AcDbEntity
 67
     1
  8
0
100
AcDbBlockBegin
  2
*Paper_Space
 70
     0
 10
0.0
 20
0.0
 30
0.0
  3
*Paper_Space
  1

  0
ENDBLK
  5
1D
330
1B
100
AcDbEntity
 67
     1
  8
0
100
AcDbBlockEnd
  0
BLOCK
  5
24
330
23
100
AcDbEntity
  8
0
100
AcDbBlockBegin
  2
*Paper_Space0
 70
     0
 10
0.0
 20
0.0
 30
0.0
  3
*Paper_Space0
  1

  0
ENDBLK
  5
25
330
23
100
AcDbEntity
  8
0
100
AcDbBlockEnd
  0
BLOCK
  5
49
330
48
100
AcDbEntity
  8
0
100
AcDbBlockBegin
  2
開示A4
 70
     0
 10
0.0
 20
0.0
 30
0.0
  3
開示A4
  1

  0
POINT
  5
54
330
48
100
AcDbEntity
  8
1
 62
     4
100
AcDbPoint
 10
182.9999999999999
 20
15.00000000000001
 30
0.0
  0
POINT
  5
55
330
48
100
AcDbEntity
  8
1
 62
     4
100
AcDbPoint
 10
93.75
 20
17.0
 30
0.0
  0
POINT
  5
56
330
48
100
AcDbEntity
  8
1
 62
     4
100
AcDbPoint
 10
85.25
 20
17.0
 30
0.0
  0
POINT
  5
57
330
48
100
AcDbEntity
  8
1
 62
     4
100
AcDbPoint
 10
106.5
 20
19.00000000000001
 30
0.0
  0
POINT
  5
58
330
48
100
AcDbEntity
  8
1
 62
     4
100
AcDbPoint
 10
106.5
 20
12.5
 30
0.0
  0
POINT
  5
59
330
48
100
AcDbEntity
  8
1
 62
     4
100
AcDbPoint
 10
112.25
 20
12.5
 30
0.0
  0
POINT
  5
5A
330
48
100
AcDbEntity
  8
1
 62
     4
100
AcDbPoint
 10
100.75
 20
12.5
 30
0.0
  0
POINT
  5
5B
330
48
100
AcDbEntity
  8
1
 62
     4
100
AcDbPoint
 10
123.5
 20
19.00000000000001
 30
0.0
  0
POINT
  5
5C
330
48
100
AcDbEntity
  8
1
 62
     4
100
AcDbPoint
 10
123.5
 20
12.5
 30
0.0
  0
POINT
  5
5D
330
48
100
AcDbEntity
  8
1
 62
     4
100
AcDbPoint
 10
129.25
 20
12.5
 30
0.0
  0
POINT
  5
5E
330
48
100
AcDbEntity
  8
1
 62
     4
100
AcDbPoint
 10
117.75
 20
12.5
 30
0.0
  0
POINT
  5
5F
330
48
100
AcDbEntity
  8
1
 62
     4
100
AcDbPoint
 10
140.5
 20
19.00000000000001
 30
0.0
  0
POINT
  5
60
330
48
100
AcDbEntity
  8
1
 62
     4
100
AcDbPoint
 10
140.5
 20
12.5
 30
0.0
  0
POINT
  5
61
330
48
100
AcDbEntity
  8
1
 62
     4
100
AcDbPoint
 10
146.25
 20
12.5
 30
0.0
  0
POINT
  5
62
330
48
100
AcDbEntity
  8
1
 62
     4
100
AcDbPoint
 10
134.75
 20
12.5
 30
0.0
  0
POINT
  5
63
330
48
100
AcDbEntity
  8
1
 62
     4
100
AcDbPoint
 10
151.75
 20
12.5
 30
0.0
  0
POINT
  5
64
330
48
100
AcDbEntity
  8
1
 62
     4
100
AcDbPoint
 10
163.2499999999999
 20
12.5
 30
0.0
  0
POINT
  5
65
330
48
100
AcDbEntity
  8
1
 62
     4
100
AcDbPoint
 10
157.5
 20
12.5
 30
0.0
  0
POINT
  5
66
330
48
100
AcDbEntity
  8
1
 62
     4
100
AcDbPoint
 10
57.0
 20
14.25
 30
0.0
  0
POINT
  5
67
330
48
100
AcDbEntity
  8
1
 62
     4
100
AcDbPoint
 10
57.0
 20
22.75000000000001
 30
0.0
  0
POINT
  5
68
330
48
100
AcDbEntity
  8
1
 62
     4
100
AcDbPoint
 10
47.5
 20
282.0000000000003
 30
0.0
  0
POINT
  5
69
330
48
100
AcDbEntity
  8
1
 62
     4
100
AcDbPoint
 10
157.5
 20
19.00000000000001
 30
0.0
  0
POINT
  5
6A
330
48
100
AcDbEntity
  8
1
 62
     4
100
AcDbPoint
 10
57.0
 20
16.25
 30
0.0
  0
POINT
  5
6B
330
48
100
AcDbEntity
  8
1
 62
     4
100
AcDbPoint
 10
57.0
 20
24.75000000000001
 30
0.0
  0
POINT
  5
6C
330
48
100
AcDbEntity
  8
1
 62
     4
100
AcDbPoint
 10
57.0
 20
20.75000000000001
 30
0.0
  0
POINT
  5
6D
330
48
100
AcDbEntity
  8
1
 62
     4
100
AcDbPoint
 10
57.0
 20
12.25
 30
0.0
  0
POINT
  5
6E
330
48
100
AcDbEntity
  8
1
 62
     4
100
AcDbPoint
 10
34.0
 20
34.00000000000001
 30
0.0
  0
LINE
  5
73
330
48
100
AcDbEntity
  8
1
  6
Continuous
 62
     7
100
AcDbLine
 10
105.0
 20
10.0
 30
0.0
 11
200.0
 21
10.0
 31
0.0
  0
LINE
  5
74
330
48
100
AcDbEntity
  8
1
  6
Continuous
 62
     2
100
AcDbLine
 10
105.0
 20
10.0
 30
0.0
 11
105.0
 21
5.0
 31
0.0
  0
LINE
  5
75
330
48
100
AcDbEntity
  8
1
  6
Continuous
 62
     7
100
AcDbLine
 10
200.0
 20
148.5
 30
0.0
 11
200.0
 21
287.0000000000003
 31
0.0
  0
LINE
  5
76
330
48
100
AcDbEntity
  8
1
  6
Continuous
 62
     2
100
AcDbLine
 10
200.0
 20
148.5
 30
0.0
 11
205.0
 21
148.5
 31
0.0
  0
LINE
  5
77
330
48
100
AcDbEntity
  8
1
  6
Continuous
 62
     7
100
AcDbLine
 10
25.0
 20
148.5
 30
0.0
 11
25.0
 21
287.0000000000003
 31
0.0
  0
LINE
  5
78
330
48
100
AcDbEntity
  8
1
  6
Continuous
 62
     2
100
AcDbLine
 10
25.0
 20
148.5
 30
0.0
 11
20.0
 21
148.5
 31
0.0
  0
LINE
  5
79
330
48
100
AcDbEntity
  8
1
  6
Continuous
 62
     7
100
AcDbLine
 10
105.0
 20
287.0000000000003
 30
0.0
 11
25.0
 21
287.0000000000003
 31
0.0
  0
LINE
  5
7A
330
48
100
AcDbEntity
  8
1
  6
Continuous
 62
     2
100
AcDbLine
 10
105.0
 20
287.0000000000003
 30
0.0
 11
105.0
 21
292.0000000000003
 31
0.0
  0
LINE
  5
7B
330
48
100
AcDbEntity
  8
1
  6
Continuous
 62
     2
100
AcDbLine
 10
165.9999999999999
 20
20.00000000000001
 30
0.0
 11
200.0
 21
20.00000000000001
 31
0.0
  0
LINE
  5
7C
330
48
100
AcDbEntity
  8
1
  6
Continuous
 62
     2
100
AcDbLine
 10
98.0
 20
27.00000000000001
 30
0.0
 11
98.0
 21
10.0
 31
0.0
  0
LINE
  5
7D
330
48
100
AcDbEntity
  8
1
  6
Continuous
 62
     2
100
AcDbLine
 10
115.0
 20
27.00000000000001
 30
0.0
 11
115.0
 21
9.99999999999999
 31
0.0
  0
LINE
  5
7E
330
48
100
AcDbEntity
  8
1
  6
Continuous
 62
     2
100
AcDbLine
 10
149.0
 20
27.00000000000001
 30
0.0
 11
149.0
 21
10.0
 31
0.0
  0
LINE
  5
7F
330
48
100
AcDbEntity
  8
1
  6
Continuous
 62
     2
100
AcDbLine
 10
132.0
 20
27.00000000000001
 30
0.0
 11
132.0
 21
9.99999999999999
 31
0.0
  0
LINE
  5
80
330
48
100
AcDbEntity
  8
1
  6
Continuous
 62
     2
100
AcDbLine
 10
165.9999999999999
 20
27.00000000000001
 30
0.0
 11
165.9999999999999
 21
10.0
 31
0.0
  0
LINE
  5
81
330
48
100
AcDbEntity
  8
1
  6
Continuous
 62
     2
100
AcDbLine
 10
55.0
 20
277.0000000000003
 30
0.0
 11
25.0
 21
277.0000000000003
 31
0.0
  0
LINE
  5
82
330
48
100
AcDbEntity
  8
1
  6
Continuous
 62
     7
100
AcDbLine
 10
25.0
 20
10.0
 30
0.0
 11
25.0
 21
148.5
 31
0.0
  0
LINE
  5
83
330
48
100
AcDbEntity
  8
1
  6
Continuous
 62
     2
100
AcDbLine
 10
40.0
 20
287.0000000000003
 30
0.0
 11
40.0
 21
277.0000000000003
 31
0.0
  0
LINE
  5
84
330
48
100
AcDbEntity
  8
1
  6
Continuous
 62
     2
100
AcDbLine
 10
55.0
 20
287.0000000000003
 30
0.0
 11
55.0
 21
277.0000000000003
 31
0.0
  0
LINE
  5
85
330
48
100
AcDbEntity
  8
1
  6
Continuous
 62
     2
100
AcDbLine
 10
33.0
 20
41.00000000000001
 30
0.0
 11
33.0
 21
26.99999999999999
 31
0.0
  0
LINE
  5
86
330
48
100
AcDbEntity
  8
1
  6
Continuous
 62
     7
100
AcDbLine
 10
200.0
 20
27.00000000000001
 30
0.0
 11
25.0
 21
27.00000000000001
 31
0.0
  0
LINE
  5
87
330
48
100
AcDbEntity
  8
1
  6
Continuous
 62
     7
100
AcDbLine
 10
25.0
 20
40.99999999999999
 30
0.0
 11
200.0
 21
40.99999999999999
 31
0.0
  0
LINE
  5
88
330
48
100
AcDbEntity
  8
1
  6
PHANTOM
 62
     4
100
AcDbLine
 10
0.0
 20
0.0
 30
0.0
 11
210.0
 21
0.0
 31
0.0
  0
LINE
  5
89
330
48
100
AcDbEntity
  8
1
  6
PHANTOM
 62
     4
100
AcDbLine
 10
210.0
 20
0.0
 30
0.0
 11
210.0
 21
297.0
 31
0.0
  0
LINE
  5
8A
330
48
100
AcDbEntity
  8
1
  6
PHANTOM
 62
     4
100
AcDbLine
 10
210.0
 20
297.0
 30
0.0
 11
0.0
 21
297.0
 31
0.0
  0
LINE
  5
8B
330
48
100
AcDbEntity
  8
1
  6
PHANTOM
 62
     4
100
AcDbLine
 10
0.0
 20
297.0
 30
0.0
 11
0.0
 21
0.0
 31
0.0
  0
LINE
  5
8C
330
48
100
AcDbEntity
  8
1
  6
Continuous
 62
     7
100
AcDbLine
 10
25.0
 20
10.0
 30
0.0
 11
105.0
 21
10.0
 31
0.0
  0
LINE
  5
8D
330
48
100
AcDbEntity
  8
1
  6
Continuous
 62
     7
100
AcDbLine
 10
200.0
 20
10.0
 30
0.0
 11
200.0
 21
148.5
 31
0.0
  0
LINE
  5
8E
330
48
100
AcDbEntity
  8
1
  6
Continuous
 62
     7
100
AcDbLine
 10
200.0
 20
287.0000000000003
 30
0.0
 11
105.0
 21
287.0000000000003
 31
0.0
  0
LINE
  5
8F
330
48
100
AcDbEntity
  8
1
  6
Continuous
 62
     2
100
AcDbLine
 10
25.0
 20
18.50000000000001
 30
0.0
 11
81.0
 21
18.50000000000001
 31
0.0
  0
LINE
  5
90
330
48
100
AcDbEntity
  8
1
  6
Continuous
 62
     2
100
AcDbLine
 10
33.0
 20
26.99999999999999
 30
0.0
 11
33.0
 21
10.0
 31
0.0
  0
LINE
  5
91
330
48
100
AcDbEntity
  8
1
  6
Continuous
 62
     7
100
AcDbLine
 10
191.0
 20
24.7
 30
0.0
 11
191.0
 21
22.30000000000002
 31
0.0
  0
LINE
  5
92
330
48
100
AcDbEntity
  8
1
  6
Continuous
 62
     7
100
AcDbLine
 10
191.0
 20
24.7
 30
0.0
 11
196.0
 21
25.50000000000001
 31
0.0
  0
LINE
  5
93
330
48
100
AcDbEntity
  8
1
  6
Continuous
 62
     7
100
AcDbLine
 10
196.0
 20
25.50000000000001
 30
0.0
 11
196.0
 21
21.50000000000001
 31
0.0
  0
LINE
  5
94
330
48
100
AcDbEntity
  8
1
  6
Continuous
 62
     7
100
AcDbLine
 10
196.0
 20
21.50000000000001
 30
0.0
 11
191.0
 21
22.30000000000002
 31
0.0
  0
LINE
  5
95
330
48
100
AcDbEntity
  8
1
  6
DOT_CENTER
 62
     2
100
AcDbLine
 10
183.9999999999999
 20
23.50000000000001
 30
0.0
 11
197.0
 21
23.50000000000001
 31
0.0
  0
LINE
  5
96
330
48
100
AcDbEntity
  8
1
  6
DOT_CENTER
 62
     2
100
AcDbLine
 10
187.0
 20
26.50000000000001
 30
0.0
 11
187.0
 21
20.50000000000001
 31
0.0
  0
LINE
  5
97
330
48
100
AcDbEntity
  8
1
  6
Continuous
 62
     2
100
AcDbLine
 10
81.0
 20
27.00000000000001
 30
0.0
 11
81.0
 21
10.0
 31
0.0
  0
CIRCLE
  5
98
330
48
100
AcDbEntity
  8
1
  6
Continuous
 62
     7
100
AcDbCircle
 10
103.5
 20
12.5
 30
0.0
 40
0.2999999999999972
  0
CIRCLE
  5
99
330
48
100
AcDbEntity
  8
1
  6
Continuous
 62
     7
100
AcDbCircle
 10
109.5
 20
12.5
 30
0.0
 40
0.2999999999999972
  0
CIRCLE
  5
9A
330
48
100
AcDbEntity
  8
1
  6
Continuous
 62
     7
100
AcDbCircle
 10
120.5
 20
12.5
 30
0.0
 40
0.2999999999999972
  0
CIRCLE
  5
9B
330
48
100
AcDbEntity
  8
1
  6
Continuous
 62
     7
100
AcDbCircle
 10
126.5
 20
12.5
 30
0.0
 40
0.2999999999999972
  0
CIRCLE
  5
9C
330
48
100
AcDbEntity
  8
1
  6
Continuous
 62
     7
100
AcDbCircle
 10
137.5
 20
12.5
 30
0.0
 40
0.3000000000000114
  0
CIRCLE
  5
9D
330
48
100
AcDbEntity
  8
1
  6
Continuous
 62
     7
100
AcDbCircle
 10
143.5
 20
12.5
 30
0.0
 40
0.3000000000000114
  0
CIRCLE
  5
9E
330
48
100
AcDbEntity
  8
1
  6
Continuous
 62
     7
100
AcDbCircle
 10
160.4999999999999
 20
12.5
 30
0.0
 40
0.3000000000002103
  0
CIRCLE
  5
9F
330
48
100
AcDbEntity
  8
1
  6
Continuous
 62
     7
100
AcDbCircle
 10
154.5
 20
12.5
 30
0.0
 40
0.3000000000000114
  0
CIRCLE
  5
A0
330
48
100
AcDbEntity
  8
1
  6
Continuous
 62
     7
100
AcDbCircle
 10
187.0
 20
23.50000000000001
 30
0.0
 40
1.200000000000102
  0
CIRCLE
  5
A1
330
48
100
AcDbEntity
  8
1
  6
Continuous
 62
     7
100
AcDbCircle
 10
187.0
 20
23.50000000000001
 30
0.0
 40
2.0
  0
CIRCLE
  5
A2
330
48
100
AcDbEntity
  8
1
  6
DOT_CENTER
 62
     7
100
AcDbCircle
 10
89.5
 20
16.0
 30
0.0
 40
0.1000000000000227
  0
CIRCLE
  5
A3
330
48
100
AcDbEntity
  8
1
  6
DOT_CENTER
 62
     7
100
AcDbCircle
 10
89.5
 20
18.0
 30
0.0
 40
0.1000000000000227
  0
SPLINE
  5
A4
102
{ACAD_REACTORS
330
C3
102
}
330
48
100
AcDbEntity
  8
_U_30EC_U_30A4_U_30E4_U_30FC_1
  6
Continuous
 62
     2
100
AcDbSpline
210
0.0
220
0.0
230
1.0
 70
     8
 71
     3
 72
    24
 73
    20
 74
    18
 42
0.000000001
 43
0.0000000001
 44
0.00000001
 40
0.0
 40
0.0
 40
0.0
 40
0.0
 40
0.2211075008753937
 40
0.4273218586245432
 40
0.5080174679239443
 40
0.5914835907870358
 40
0.8143265690192794
 40
1.054651302686589
 40
1.295452694023179
 40
1.518109231328832
 40
1.540864321905448
 40
1.595126460622709
 40
1.659890947896022
 40
1.714153085187381
 40
1.736908174961681
 40
1.764951100735332
 40
1.801562291220977
 40
1.953914424543642
 40
2.126104167379713
 40
2.126104167379713
 40
2.126104167379713
 40
2.126104167379713
 10
185.9375369556889
 20
15.58989295113017
 30
0.0
 10
185.9112579081812
 20
15.53097628234375
 30
0.0
 10
185.8604698894425
 20
15.41711139679257
 30
0.0
 10
185.8131784839112
 20
15.14441958233116
 30
0.0
 10
185.7043482802617
 20
15.24445482575454
 30
0.0
 10
185.5514800279638
 20
15.27118593367332
 30
0.0
 10
185.7686155181198
 20
15.48518135017632
 30
0.0
 10
185.7838483674381
 20
15.70332117782487
 30
0.0
 10
185.8906889492001
 20
15.88451579066426
 30
0.0
 10
185.8305380947077
 20
16.16913226311401
 30
0.0
 10
185.9334317395402
 20
16.14114089222451
 30
0.0
 10
185.977993346815
 20
16.13243251602299
 30
0.0
 10
186.0380842395397
 20
16.12139654183355
 30
0.0
 10
186.0756619587438
 20
16.10767523055559
 30
0.0
 10
186.1252466928606
 20
16.10756076160224
 30
0.0
 10
186.0930158919325
 20
16.0730659239862
 30
0.0
 10
186.0171802221881
 20
16.08404104537971
 30
0.0
 10
186.0429447159694
 20
15.89858969582449
 30
0.0
 10
186.005589676385
 20
15.80702313549589
 30
0.0
 10
185.985770496161
 20
15.75844135397705
 30
0.0
 11
185.9375369556889
 21
15.58989295113017
 31
0.0
 11
185.8616471328552
 21
15.3822170831856
 31
0.0
 11
185.7717402238433
 21
15.19663392356192
 31
0.0
 11
185.701149392311
 21
15.23573272563551
 31
0.0
 11
185.6245525192651
 21
15.2688916318772
 31
0.0
 11
185.7214026947455
 21
15.46958801203538
 31
0.0
 11
185.7994641467471
 21
15.69688163177024
 31
0.0
 11
185.858971692972
 21
15.93021436608691
 31
0.0
 11
185.9001601511226
 21
16.14902808999054
 31
0.0
 11
185.9224183822214
 21
16.14429889221395
 31
0.0
 11
185.975495702534
 21
16.13302157443899
 31
0.0
 11
186.0388460525844
 21
16.11956154999792
 31
0.0
 11
186.091923372897
 21
16.10828423222296
 31
0.0
 11
186.1141816039958
 21
16.10355503444637
 31
0.0
 11
186.0964097157461
 21
16.0818625084101
 31
0.0
 11
186.0606122998071
 21
16.07418628445367
 31
0.0
 11
186.028195330148
 21
15.92532288171314
 31
0.0
 11
185.985770496161
 21
15.75844135397705
 31
0.0
  0
SPLINE
  5
A5
102
{ACAD_REACTORS
330
C3
102
}
330
48
100
AcDbEntity
  8
_U_30EC_U_30A4_U_30E4_U_30FC_1
  6
Continuous
 62
     2
100
AcDbSpline
210
0.0
220
0.0
230
1.0
 70
     8
 71
     3
 72
    70
 73
    66
 74
    64
 42
0.000000001
 43
0.0000000001
 44
0.00000001
 40
0.0
 40
0.0
 40
0.0
 40
0.0
 40
0.0241731073021472
 40
0.0846058988986729
 40
0.1631685280352999
 40
0.2417311571788903
 40
0.3021639488291898
 40
0.3263370654894688
 40
0.3533118254248028
 40
0.4228783438921259
 40
0.517999909531255
 40
0.621639823946525
 40
0.7167613891498853
 40
0.7863279069649011
 40
0.8133026791760983
 40
0.8372943998770821
 40
0.8945054261372016
 40
0.962789554196207
 40
1.020000580349073
 40
1.043992300975172
 40
1.071934345522947
 40
1.11312176877296
 40
1.145225199332284
 40
1.225483775412819
 40
1.329819923771528
 40
1.434156071994418
 40
1.514414647795839
 40
1.546518078208447
 40
1.57897476426022
 40
1.662678849314215
 40
1.777131373668436
 40
1.901833377474827
 40
2.016285900500617
 40
2.099989982527984
 40
2.132446666570342
 40
2.158782354486064
 40
2.216720867907855
 40
2.274659381334278
 40
2.300995069256212
 40
2.333451754066184
 40
2.417155836543865
 40
2.531608358985304
 40
2.656310362283799
 40
2.770762886388932
 40
2.854466971340097
 40
2.886923657363904
 40
2.913597976833338
 40
2.98238964287514
 40
3.076451716947002
 40
3.178937260458615
 40
3.272999334740016
 40
3.341791001059236
 40
3.368465320663548
 40
3.396976080738798
 40
3.472140811846034
 40
3.578408190308723
 40
3.700226892456188
 40
3.822045594634434
 40
3.928312973256569
 40
4.003477705314967
 40
4.031988456867032
 40
4.058324144797832
 40
4.116262658237001
 40
4.174201171400807
 40
4.200536849608743
 40
4.200536849608743
 40
4.200536849608743
 40
4.200536849608743
 10
185.985770496161
 20
15.75844135397705
 30
0.0
 10
185.993825954468
 20
15.75844359811686
 30
0.0
 10
186.0220200663241
 20
15.75845146032797
 30
0.0
 10
186.0765534803674
 20
15.75830754828372
 30
0.0
 10
186.1482891808604
 20
15.75909120499898
 30
0.0
 10
186.2236240137062
 20
15.75627570463811
 30
0.0
 10
186.2713052366439
 20
15.76298403400958
 30
0.0
 10
186.3195071245616
 20
15.75197563692432
 30
0.0
 10
186.3062571799873
 20
15.80546402997033
 30
0.0
 10
186.3151093964539
 20
15.86049583543091
 30
0.0
 10
186.3108698036285
 20
15.95419908726109
 30
0.0
 10
186.313348348128
 20
16.04959482218532
 30
0.0
 10
186.309093870606
 20
16.14356821983387
 30
0.0
 10
186.3179818665846
 20
16.19795062438012
 30
0.0
 10
186.3046977409945
 20
16.25233997691461
 30
0.0
 10
186.3514119277108
 20
16.23842216335358
 30
0.0
 10
186.3943254545737
 20
16.24103877374043
 30
0.0
 10
186.4605443456685
 20
16.23648422450754
 30
0.0
 10
186.5013342271799
 20
16.22778162134163
 30
0.0
 10
186.5525145690819
 20
16.23531799890193
 30
0.0
 10
186.52537204872
 20
16.19349970223288
 30
0.0
 10
186.4803096055707
 20
16.20284992072596
 30
0.0
 10
186.4942065045051
 20
16.13841207371838
 30
0.0
 10
186.4858414431654
 20
16.07378219627399
 30
0.0
 10
186.4903632178398
 20
15.97529141193888
 30
0.0
 10
186.4854741311167
 20
15.8759593284257
 30
0.0
 10
186.4950258992082
 20
15.81293115552969
 30
0.0
 10
186.47997614552
 20
15.74964011499788
 30
0.0
 10
186.5449159457208
 20
15.76515072944269
 30
0.0
 10
186.6116246399497
 20
15.75499387697812
 30
0.0
 10
186.7241435470827
 20
15.75988800099367
 30
0.0
 10
186.8390235448954
 20
15.75691204732784
 30
0.0
 10
186.9519871999747
 20
15.76221664184991
 30
0.0
 10
187.0176267597677
 20
15.75107306472089
 30
0.0
 10
187.0816276691053
 20
15.76744532319857
 30
0.0
 10
187.0703142889189
 20
15.71761689905274
 30
0.0
 10
187.077533987151
 20
15.67416715212123
 30
0.0
 10
187.0703142611268
 20
15.63071745587445
 30
0.0
 10
187.0816277175994
 20
15.58088895196876
 30
0.0
 10
187.0176263598971
 20
15.59726166091362
 30
0.0
 10
186.951992124046
 20
15.58611271661588
 30
0.0
 10
186.838997431733
 20
15.59144857206854
 30
0.0
 10
186.7242456548644
 20
15.58834345663822
 30
0.0
 10
186.611318368686
 20
15.59364894682588
 30
0.0
 10
186.5455220903585
 20
15.58257300019594
 30
0.0
 10
186.4816097975358
 20
15.59887597847617
 30
0.0
 10
186.4936015165126
 20
15.54423524395742
 30
0.0
 10
186.4862104613006
 20
15.48854295047842
 30
0.0
 10
186.4892684841982
 20
15.3964968914057
 30
0.0
 10
186.4893422785684
 20
15.30179109873102
 30
0.0
 10
186.4860313578359
 20
15.20952782902265
 30
0.0
 10
186.4939505989904
 20
15.15435768736141
 30
0.0
 10
186.4815076611617
 20
15.10058169100136
 30
0.0
 10
186.5389116551632
 20
15.11453768862782
 30
0.0
 10
186.5994708140383
 20
15.10511457884227
 30
0.0
 10
186.7048680855081
 20
15.10942885928705
 30
0.0
 10
186.8204294070623
 20
15.10835504612032
 30
0.0
 10
186.9359688877798
 20
15.10725965900995
 30
0.0
 10
187.0414181130841
 20
15.11162525770633
 30
0.0
 10
187.1018680471805
 20
15.10209426030672
 30
0.0
 10
187.1592837739111
 20
15.1161728960638
 30
0.0
 10
187.1477773876711
 20
15.06707153265683
 30
0.0
 10
187.153756678175
 20
15.02564658018649
 30
0.0
 10
187.1520311050803
 20
14.97651677966695
 30
0.0
 10
187.1521500122972
 20
14.94854428447607
 30
0.0
 10
187.1521871691834
 20
14.93980288195949
 30
0.0
 11
185.985770496161
 21
15.75844135397705
 31
0.0
 11
186.0099436128282
 21
15.75844135397705
 31
0.0
 11
186.0703764044963
 21
15.75844135397705
 31
0.0
 11
186.1489390336649
 21
15.75844135397705
 31
0.0
 11
186.2275016628334
 21
15.75844135397705
 31
0.0
 11
186.2879344545015
 21
15.75844135397705
 31
0.0
 11
186.3121075711687
 21
15.75844135397705
 31
0.0
 11
186.3121075711687
 21
15.78541612620063
 31
0.0
 11
186.3121075711687
 21
15.85498264404039
 31
0.0
 11
186.3121075711687
 21
15.95010420924985
 31
0.0
 11
186.3121075711687
 21
16.05374412358256
 31
0.0
 11
186.3121075711687
 21
16.14886568879202
 31
0.0
 11
186.3121075711687
 21
16.21843220663178
 31
0.0
 11
186.3121075711687
 21
16.24540697885536
 31
0.0
 11
186.3360407604892
 21
16.243732131078
 31
0.0
 11
186.3931122119458
 21
16.23973826330121
 31
0.0
 11
186.4612297507811
 21
16.23497138885795
 31
0.0
 11
186.5183012022377
 21
16.23097752108117
 31
0.0
 11
186.5422343915582
 21
16.22930267330381
 31
0.0
 11
186.5274972731229
 21
16.2055629337264
 31
0.0
 11
186.4886640249976
 21
16.19183767331312
 31
0.0
 11
186.4886640249976
 21
16.15973424225119
 31
0.0
 11
186.4886640249976
 21
16.07947566459636
 31
0.0
 11
186.4886640249976
 21
15.97513951364509
 31
0.0
 11
186.4886640249976
 21
15.87080336269381
 31
0.0
 11
186.4886640249976
 21
15.79054478503898
 31
0.0
 11
186.4886640249976
 21
15.75844135397705
 31
0.0
 11
186.5211207110824
 21
15.75844135397705
 31
0.0
 11
186.6048247962486
 21
15.75844135397705
 31
0.0
 11
186.7192773208634
 21
15.75844135397705
 31
0.0
 11
186.8439793252946
 21
15.75844135397705
 31
0.0
 11
186.9584318499095
 21
15.75844135397705
 31
0.0
 11
187.0421359350756
 21
15.75844135397705
 31
0.0
 11
187.0745926211604
 21
15.75844135397705
 31
0.0
 11
187.0745926211604
 21
15.73210566604961
 31
0.0
 11
187.0745926211604
 21
15.67416715260924
 31
0.0
 11
187.0745926211604
 21
15.61622863916888
 31
0.0
 11
187.0745926211604
 21
15.58989295124144
 31
0.0
 11
187.0421359350756
 21
15.58989295124144
 31
0.0
 11
186.9584318499095
 21
15.58989295124144
 31
0.0
 11
186.8439793252946
 21
15.58989295124144
 31
0.0
 11
186.7192773208634
 21
15.58989295124144
 31
0.0
 11
186.6048247962485
 21
15.58989295124144
 31
0.0
 11
186.5211207110824
 21
15.58989295124144
 31
0.0
 11
186.4886640249976
 21
15.58989295124144
 31
0.0
 11
186.4886640249976
 21
15.56321863152022
 31
0.0
 11
186.4886640249976
 21
15.49442696487075
 31
0.0
 11
186.4886640249976
 21
15.40036489006434
 31
0.0
 11
186.4886640249976
 21
15.29787934587228
 31
0.0
 11
186.4886640249976
 21
15.20381727106587
 31
0.0
 11
186.4886640249976
 21
15.1350256044164
 31
0.0
 11
186.4886640249976
 21
15.10835128469518
 31
0.0
 11
186.5171747850993
 21
15.10835128469518
 31
0.0
 11
186.5923395162767
 21
15.10835128469518
 31
0.0
 11
186.6986068948376
 21
15.10835128469518
 31
0.0
 11
186.8204255970905
 21
15.10835128469518
 31
0.0
 11
186.9422442993434
 21
15.10835128469518
 31
0.0
 11
187.0485116779044
 21
15.10835128469518
 31
0.0
 11
187.1236764090817
 21
15.10835128469518
 31
0.0
 11
187.1521871691834
 21
15.10835128469518
 31
0.0
 11
187.1521871691834
 21
15.08201559676773
 31
0.0
 11
187.1521871691834
 21
15.02407708332734
 31
0.0
 11
187.1521871691834
 21
14.96613856988694
 31
0.0
 11
187.1521871691834
 21
14.93980288195949
 31
0.0
  0
SPLINE
  5
A6
102
{ACAD_REACTORS
330
C3
102
}
330
48
100
AcDbEntity
  8
_U_30EC_U_30A4_U_30E4_U_30FC_1
  6
Continuous
 62
     2
100
AcDbSpline
210
0.0
220
0.0
230
1.0
 70
     8
 71
     3
 72
    62
 73
    58
 74
    56
 42
0.000000001
 43
0.0000000001
 44
0.00000001
 40
0.0
 40
0.0
 40
0.0
 40
0.0
 40
0.0598250028308769
 40
0.20248464868979
 40
0.3727558389221599
 40
0.5154154847936923
 40
0.5752404975786476
 40
0.933232677548849
 40
1.290451762839598
 40
1.602077253145977
 40
1.699931634112213
 40
1.799359756425145
 40
2.270120149657183
 40
2.804661928461637
 40
2.882342287383346
 40
3.076543185719196
 40
3.329004354835656
 40
3.581465524568482
 40
3.775666424543762
 40
3.853346784558382
 40
3.899120679595128
 40
3.984129341792126
 40
4.029903236817474
 40
4.105797496059631
 40
4.29553314415259
 40
4.542189486611831
 40
4.788845828875778
 40
4.978581476410164
 40
5.054475735244407
 40
5.621734664339408
 40
6.130867242037439
 40
6.225249780948686
 40
6.318913039727446
 40
6.663579954559106
 40
7.04749890022499
 40
7.435230791575962
 40
7.498943906668374
 40
7.650875181210396
 40
7.832212509001935
 40
7.984143783697349
 40
8.047856898903504
 40
8.091554632733015
 40
8.17270756696468
 40
8.21640530076841
 40
8.289021782161294
 40
8.462184160757667
 40
8.668861838005748
 40
8.84202421526434
 40
8.914640695475535
 40
8.989881580861741
 40
9.155411528827644
 40
9.320941477744425
 40
9.396182352487674
 40
9.454709011144221
 40
9.583467660171156
 40
9.712226309013435
 40
9.770752957989888
 40
9.770752957989888
 40
9.770752957989888
 40
9.770752957989888
 10
187.1521871691834
 20
14.93980288195949
 30
0.0
 10
187.1322348171624
 20
14.93980875568671
 30
0.0
 10
187.0647037716466
 20
14.93982863806156
 30
0.0
 10
186.9410612161789
 20
14.93949362520325
 30
0.0
 10
186.7863180150057
 20
14.94107673750511
 30
0.0
 10
186.6697349482479
 20
14.93686078860494
 30
0.0
 10
186.4550942634241
 20
14.95215205331627
 30
0.0
 10
186.8518948407229
 20
14.59198721286193
 30
0.0
 10
186.8945656069268
 20
14.37510503397166
 30
0.0
 10
187.3189162146611
 20
14.19325062511448
 30
0.0
 10
187.1439821496074
 20
14.0898519656807
 30
0.0
 10
187.0194523925084
 20
13.87831523212727
 30
0.0
 10
186.7666277235942
 20
14.34806081001559
 30
0.0
 10
186.4797602893627
 20
14.99511516984521
 30
0.0
 10
186.4906335926659
 20
14.68782672154693
 30
0.0
 10
186.488289277796
 20
14.52288616971778
 30
0.0
 10
186.4861096126411
 20
14.28879670711693
 30
0.0
 10
186.4980774396346
 20
14.04498072421783
 30
0.0
 10
186.468798474063
 20
13.89855796860985
 30
0.0
 10
186.511452262547
 20
13.75113490174538
 30
0.0
 10
186.4239814005639
 20
13.7668579730622
 30
0.0
 10
186.3768527606744
 20
13.76694303543455
 30
0.0
 10
186.2898973207713
 20
13.75109425482909
 30
0.0
 10
186.3313474021722
 20
13.89527771422762
 30
0.0
 10
186.3029875004285
 20
14.03855052698456
 30
0.0
 10
186.3145973775299
 20
14.27674947365264
 30
0.0
 10
186.3124175648272
 20
14.50517235240346
 30
0.0
 10
186.3103111127993
 20
14.66705729375994
 30
0.0
 10
186.3208035438324
 20
14.98153709333752
 30
0.0
 10
186.0128963252894
 20
14.29229470872433
 30
0.0
 10
185.7055258267455
 20
13.81476750243051
 30
0.0
 10
185.5851367066274
 20
14.0374111263743
 30
0.0
 10
185.407460791072
 20
14.15011034955561
 30
0.0
 10
185.8853326362894
 20
14.32548143465462
 30
0.0
 10
185.9353959057207
 20
14.5609192925203
 30
0.0
 10
186.3583799621719
 20
14.95322989344607
 30
0.0
 10
186.1276754273541
 20
14.93655307029064
 30
0.0
 10
186.0049685859342
 20
14.9426951894877
 30
0.0
 10
185.8325483095661
 20
14.93312822699573
 30
0.0
 10
185.7213224694449
 20
14.95448818489665
 30
0.0
 10
185.6025779627448
 20
14.92136265357418
 30
0.0
 10
185.6183169706685
 20
15.00203900606883
 30
0.0
 10
185.6178550933763
 20
15.04645414290854
 30
0.0
 10
185.6027881889931
 20
15.12967081778534
 30
0.0
 10
185.7372380935443
 20
15.09062651983884
 30
0.0
 10
185.8619755545747
 20
15.11739729328423
 30
0.0
 10
186.062875523728
 20
15.10063949044053
 30
0.0
 10
186.1921540949353
 20
15.12204225913005
 30
0.0
 10
186.3328419928294
 20
15.08868778853421
 30
0.0
 10
186.2980927452615
 20
15.22651875785069
 30
0.0
 10
186.3222185666713
 20
15.34963257349481
 30
0.0
 10
186.2967086182393
 20
15.47024055670336
 30
0.0
 10
186.3333251146684
 20
15.60539865141495
 30
0.0
 10
186.2211417027769
 20
15.58094545781891
 30
0.0
 10
186.1280356457136
 20
15.59307749842022
 30
0.0
 10
186.0191547579819
 20
15.58957630069994
 30
0.0
 10
185.9569697640964
 20
15.58981755951603
 30
0.0
 10
185.9375369557246
 20
15.58989295124144
 30
0.0
 11
187.1521871691834
 21
14.93980288195949
 31
0.0
 11
187.0923621563983
 21
14.93980288195949
 31
0.0
 11
186.949702510526
 21
14.93980288195949
 31
0.0
 11
186.7794313202914
 21
14.93980288195949
 31
0.0
 11
186.6367716744192
 21
14.93980288195949
 31
0.0
 11
186.576946661634
 21
14.93980288195949
 31
0.0
 11
186.7679960754843
 21
14.6370512796689
 31
0.0
 11
186.994127278563
 21
14.36051890576684
 31
0.0
 11
187.2244526173371
 21
14.15061253493457
 31
0.0
 11
187.1521596330704
 21
14.08466403668716
 31
0.0
 11
187.0879364402643
 21
14.0087605905256
 31
0.0
 11
186.7732818215558
 21
14.35891458349363
 31
0.0
 11
186.4886640249976
 21
14.811382951436
 31
0.0
 11
186.4886640249976
 21
14.73370259137312
 31
0.0
 11
186.4886640249976
 21
14.53950169121592
 31
0.0
 11
186.4886640249976
 21
14.28704052101156
 31
0.0
 11
186.4886640249976
 21
14.0345793508072
 31
0.0
 11
186.4886640249976
 21
13.84037845065
 31
0.0
 11
186.4886640249976
 21
13.76269809058712
 31
0.0
 11
186.4428901295605
 21
13.76269809058712
 31
0.0
 11
186.3578814666058
 21
13.76269809058712
 31
0.0
 11
186.3121075711687
 21
13.76269809058712
 31
0.0
 11
186.3121075711687
 21
13.8385923498274
 31
0.0
 11
186.3121075711687
 21
14.02832799792811
 31
0.0
 11
186.3121075711687
 21
14.27498434045904
 31
0.0
 11
186.3121075711687
 21
14.52164068298996
 31
0.0
 11
186.3121075711687
 21
14.71137633109067
 31
0.0
 11
186.3121075711687
 21
14.78727059033095
 31
0.0
 11
185.9987626399267
 21
14.31440946197693
 31
0.0
 11
185.6352328662148
 21
13.95795177109382
 31
0.0
 11
185.5773927461627
 21
14.03253450545022
 31
0.0
 11
185.509485230534
 21
14.09704322939243
 31
0.0
 11
185.7750721898319
 21
14.3167221979589
 31
0.0
 11
186.0233764972061
 21
14.60953395971697
 31
0.0
 11
186.2264982805261
 21
14.93980288195949
 31
0.0
 11
186.1627851652722
 21
14.93980288195949
 31
0.0
 11
186.010853890436
 21
14.93980288195949
 31
0.0
 11
185.8295165624056
 21
14.93980288195949
 31
0.0
 11
185.6775852875693
 21
14.93980288195949
 31
0.0
 11
185.6138721723154
 21
14.93980288195949
 31
0.0
 11
185.6138721723154
 21
14.98350061600208
 31
0.0
 11
185.6138721723154
 21
15.06465355065259
 31
0.0
 11
185.6138721723154
 21
15.10835128469518
 31
0.0
 11
185.6864886537961
 21
15.10835128469518
 31
0.0
 11
185.8596510327118
 21
15.10835128469518
 31
0.0
 11
186.0663287107723
 21
15.10835128469518
 31
0.0
 11
186.239491089688
 21
15.10835128469518
 31
0.0
 11
186.3121075711687
 21
15.10835128469518
 31
0.0
 11
186.3121075711687
 21
15.18359217009304
 31
0.0
 11
186.3121075711687
 21
15.34912211796831
 31
0.0
 11
186.3121075711687
 21
15.51465206584359
 31
0.0
 11
186.3121075711687
 21
15.58989295124144
 31
0.0
 11
186.2535809125055
 21
15.58989295124144
 31
0.0
 11
186.1248222634467
 21
15.58989295124144
 31
0.0
 11
185.9960636143877
 21
15.58989295124144
 31
0.0
 11
185.9375369557246
 21
15.58989295124144
 31
0.0
  0
SPLINE
  5
A7
102
{ACAD_REACTORS
330
C4
102
}
330
48
100
AcDbEntity
  8
_U_30EC_U_30A4_U_30E4_U_30FC_1
  6
Continuous
 62
     2
100
AcDbSpline
210
0.0
220
0.0
230
1.0
 70
    11
 71
     3
 72
   124
 73
   120
 74
   118
 42
0.000000001
 43
0.0000000001
 44
0.00000001
 40
0.0
 40
0.0
 40
0.0
 40
0.0
 40
0.027818722962451
 40
0.1011590162384269
 40
0.2048470170590523
 40
0.3237088716559245
 40
0.4425707262522284
 40
0.5462587270700116
 40
0.6195990203312934
 40
0.6474177522579513
 40
0.6750060736116077
 40
0.7357003855243611
 40
0.7963946998055345
 40
0.8239830245572637
 40
0.8540933811104015
 40
0.9373396629410127
 40
1.06309468734335
 40
1.220731268638189
 40
1.399622220914863
 40
1.589140358637848
 40
1.778658496424014
 40
1.957549448940681
 40
2.115186030873331
 40
2.240941056914607
 40
2.324187341760704
 40
2.354297700109554
 40
2.381886024672061
 40
2.442580338710649
 40
2.503274652750673
 40
2.53086297731478
 40
2.560983949278733
 40
2.640393784453079
 40
2.752662861759302
 40
2.881361560118319
 40
3.010060258455366
 40
3.122329335705513
 40
3.201739170818127
 40
3.231860142753487
 40
3.264298024030544
 40
3.352343701778415
 40
3.48209522686894
 40
3.639650650173201
 40
3.811108022565656
 40
3.982565394928165
 40
4.140120818152746
 40
4.269872343141457
 40
4.357918020802519
 40
4.390355902044148
 40
4.423256253992718
 40
4.508104530073239
 40
4.624121560637007
 40
4.750528176031763
 40
4.86654520660221
 40
4.951393482692168
 40
4.984293834645569
 40
5.011450833242482
 40
5.071196230152265
 40
5.130941627057338
 40
5.158098625649003
 40
5.190998977601693
 40
5.275847253689519
 40
5.391864284256953
 40
5.518270899648498
 40
5.634287930209537
 40
5.719136206288211
 40
5.752036558236099
 40
5.782130946283124
 40
5.862783906229299
 40
5.979550131775166
 40
6.117984316640572
 40
6.263641154588117
 40
6.402075339414323
 40
6.518841564908118
 40
6.599494524815699
 40
6.629588912848937
 40
6.654403028226513
 40
6.713575149488308
 40
6.784199939329683
 40
6.843372060493785
 40
6.86818617580303
 40
6.896246243202126
 40
6.939586233758576
 40
6.967846564565204
 40
7.043584251090143
 40
7.153234334452001
 40
7.28323185573475
 40
7.420011856035784
 40
7.550009376580136
 40
7.659659458835535
 40
7.735397144417528
 40
7.7636574748517
 40
7.796409728011358
 40
7.880876065096632
 40
7.996370852466018
 40
8.122208446418913
 40
8.237703224799507
 40
8.3221695620112
 40
8.354921815206215
 40
8.382078813307995
 40
8.441824209207297
 40
8.501569605240444
 40
8.528726603486021
 40
8.56147885669607
 40
8.64594519387812
 40
8.761439980865632
 40
8.887277580764774
 40
9.002772362001295
 40
9.087238696661515
 40
9.11999094923597
 40
9.152428830613669
 40
9.240474508638885
 40
9.370226034149836
 40
9.527781457984721
 40
9.69923883098171
 40
9.870696203978902
 40
10.02825162781432
 40
10.15800315332594
 40
10.24604883135149
 40
10.27848670378552
 40
10.27848670378552
 40
10.27848670378552
 40
10.27848670378552
 10
195.3821827564383
 20
14.01410517385757
 30
0.0
 10
195.3914554737523
 20
14.01410498511274
 30
0.0
 10
195.425174453686
 20
14.01410430876714
 30
0.0
 10
195.4934706812465
 20
14.01411807243305
 30
0.0
 10
195.592014171158
 20
14.01403224219545
 30
0.0
 10
195.7062066464812
 20
14.0144175561225
 30
0.0
 10
195.8185894417071
 20
14.01300835897545
 30
0.0
 10
195.9214376600119
 20
14.01719117422243
 30
0.0
 10
195.9806839874849
 20
14.00823089251982
 30
0.0
 10
196.0371265937034
 20
14.0216443452606
 30
0.0
 10
196.0246255586956
 20
13.97087198613361
 30
0.0
 10
196.0329549635704
 20
13.92589320939067
 30
0.0
 10
196.0248170841121
 20
13.88056752990488
 30
0.0
 10
196.0370529214458
 20
13.82931932408465
 30
0.0
 10
195.9747773490334
 20
13.84447955365276
 30
0.0
 10
195.9060513026869
 20
13.83359750710742
 30
0.0
 10
195.7782756749592
 20
13.83911304747972
 30
0.0
 10
195.6262984511643
 20
13.83700851253698
 30
0.0
 10
195.4502695972523
 20
13.83771002588473
 30
0.0
 10
195.2644431934287
 20
13.83745237531291
 30
0.0
 10
195.0786167437175
 20
13.83771005144603
 30
0.0
 10
194.9025880142169
 20
13.83700841847731
 30
0.0
 10
194.7506104154194
 20
13.83911332229988
 30
0.0
 10
194.6228357664554
 20
13.8335968076764
 30
0.0
 10
194.554107783658
 20
13.84448077125942
 30
0.0
 10
194.4918349042883
 20
13.82931786684209
 30
0.0
 10
194.5040616290017
 20
13.88057510805171
 30
0.0
 10
194.4960004462597
 20
13.92582473272425
 30
0.0
 10
194.5040675809892
 20
13.97106357955323
 30
0.0
 10
194.4918238487083
 20
14.02234176909958
 30
0.0
 10
194.5525017120697
 20
14.00749577363134
 30
0.0
 10
194.6162810745736
 20
14.01756448170735
 30
0.0
 10
194.7277314353502
 20
14.01294644211999
 30
0.0
 10
194.8497533443824
 20
14.01413328905469
 30
0.0
 10
194.9719538137823
 20
14.01515863900634
 30
0.0
 10
195.0829794287392
 20
14.01092475623402
 30
0.0
 10
195.1476517413958
 20
14.02018584521739
 30
0.0
 10
195.2091162810501
 20
14.00604423049682
 30
0.0
 10
195.1930065601336
 20
14.07235527884517
 30
0.0
 10
195.2042980327358
 20
14.14447790121976
 30
0.0
 10
195.1987400822561
 20
14.27513760888286
 30
0.0
 10
195.2008035061691
 20
14.42607323708242
 30
0.0
 10
195.2000167127295
 20
14.59335873107886
 30
0.0
 10
195.2007845215627
 20
14.76061110332304
 30
0.0
 10
195.1988038785628
 20
14.91163289269914
 30
0.0
 10
195.2041306156621
 20
15.04206069552996
 30
0.0
 10
195.1933101388425
 20
15.11465442605899
 30
0.0
 10
195.2090326429875
 20
15.18150469436799
 30
0.0
 10
195.143270813249
 20
15.16580512490825
 30
0.0
 10
195.0756367830764
 20
15.17609243083996
 30
0.0
 10
194.9615885293809
 20
15.17113786847123
 30
0.0
 10
194.8451242674902
 20
15.17414128030475
 30
0.0
 10
194.7306554121477
 20
15.16880303143389
 30
0.0
 10
194.6640324657812
 20
15.18001268074826
 30
0.0
 10
194.5990769715185
 20
15.16349132665012
 30
0.0
 10
194.6107989758708
 20
15.2147372047706
 30
0.0
 10
194.6032830189121
 20
15.25950333784091
 30
0.0
 10
194.6107989878835
 20
15.30426944897962
 30
0.0
 10
194.5990769505347
 20
15.35551536129741
 30
0.0
 10
194.66403263392
 20
15.33899381766815
 30
0.0
 10
194.7306533339821
 20
15.35020571373944
 30
0.0
 10
194.8451352858063
 20
15.34485436710664
 30
0.0
 10
194.9615454436962
 20
15.34791188771117
 30
0.0
 10
195.0757660174641
 20
15.34278499010708
 30
0.0
 10
195.1430150439227
 20
15.35345733355598
 30
0.0
 10
195.2083325941438
 20
15.33742082669077
 30
0.0
 10
195.1941391448553
 20
15.39949685750054
 30
0.0
 10
195.2036059462994
 20
15.46586761628762
 30
0.0
 10
195.1990269004085
 20
15.58239972741966
 30
0.0
 10
195.2007696555948
 20
15.71426685022376
 30
0.0
 10
195.1997551495391
 20
15.85615960150273
 30
0.0
 10
195.2017191344373
 20
15.9876905070258
 30
0.0
 10
195.1964668553851
 20
16.10524577283002
 30
0.0
 10
195.2073408763474
 20
16.16947789001584
 30
0.0
 10
195.1919536641853
 20
16.23108802545047
 30
0.0
 10
195.2407591537799
 20
16.2170240738211
 30
0.0
 10
195.2853995564726
 20
16.21954742075314
 30
0.0
 10
195.3538643946742
 20
16.2151279740171
 30
0.0
 10
195.3959106169103
 20
16.20613025544035
 30
0.0
 10
195.4487544758776
 20
16.2141171486651
 30
0.0
 10
195.4207035002015
 20
16.17113917611672
 30
0.0
 10
195.3749142248594
 20
16.18259552043838
 30
0.0
 10
195.3869539073265
 20
16.12173520005137
 30
0.0
 10
195.3796086070641
 20
16.05769299468773
 30
0.0
 10
195.3831195826162
 20
15.94909368863911
 30
0.0
 10
195.3819806760173
 20
15.82494319144753
 30
0.0
 10
195.3819174780262
 20
15.69189719829878
 30
0.0
 10
195.3832872966867
 20
15.56797381249555
 30
0.0
 10
195.3791638801314
 20
15.45868337849339
 30
0.0
 10
195.3877763103564
 20
15.3960858009417
 30
0.0
 10
195.3746757454401
 20
15.33740133296365
 30
0.0
 10
195.4393884328198
 20
15.35362113810902
 30
0.0
 10
195.5060405953155
 20
15.34270260383311
 30
0.0
 10
195.6198779541103
 20
15.34793740173756
 30
0.0
 10
195.7357259122097
 20
15.34485547516913
 30
0.0
 10
195.849692426328
 20
15.35018259812512
 30
0.0
 10
195.91603410181
 20
15.33904208166543
 30
0.0
 10
195.9807188525479
 20
15.35546979593178
 30
0.0
 10
195.9689820772722
 20
15.30425925210051
 30
0.0
 10
195.9765168063041
 20
15.25950334121001
 30
0.0
 10
195.9689820992258
 20
15.21474739010028
 30
0.0
 10
195.9807188140737
 20
15.16353690871041
 30
0.0
 10
195.9160344075252
 20
15.17996427794221
 30
0.0
 10
195.8496886430824
 20
15.1688278444727
 30
0.0
 10
195.7357459487012
 20
15.17413115893121
 30
0.0
 10
195.6197995623054
 20
15.17114764593544
 30
0.0
 10
195.5062756882122
 20
15.17606892268395
 30
0.0
 10
195.4389231318804
 20
15.1658508751352
 30
0.0
 10
195.3734285122495
 20
15.18145996138816
 30
0.0
 10
195.3891713619218
 20
15.11463851827411
 30
0.0
 10
195.3783275998212
 20
15.04207057815879
 30
0.0
 10
195.3836581629793
 20
14.91162247614417
 30
0.0
 10
195.3817136151854
 20
14.76064558185226
 30
0.0
 10
195.3823133683214
 20
14.59322243934158
 30
0.0
 10
195.3821506559605
 20
14.42656176118372
 30
0.0
 10
195.3821895488135
 20
14.27360142921636
 30
0.0
 10
195.38218164131
 20
14.14849178985705
 30
0.0
 10
195.3821828382744
 20
14.0650789099142
 30
0.0
 10
195.3821827716208
 20
14.02491778281976
 30
0.0
 10
195.3821827564383
 20
14.01410517385757
 30
0.0
 11
195.3821827564383
 21
14.01410517385757
 31
0.0
 11
195.4100014883675
 21
14.01410517385757
 31
0.0
 11
195.4833417816353
 21
14.01410517385757
 31
0.0
 11
195.5870297824623
 21
14.01410517385757
 31
0.0
 11
195.7058916370687
 21
14.01410517385757
 31
0.0
 11
195.8247534916752
 21
14.01410517385757
 31
0.0
 11
195.9284414925021
 21
14.01410517385757
 31
0.0
 11
196.0017817857699
 21
14.01410517385757
 31
0.0
 11
196.0296005176991
 21
14.01410517385757
 31
0.0
 11
196.0296005176991
 21
13.9865168492117
 31
0.0
 11
196.0296005176991
 21
13.92582253499077
 31
0.0
 11
196.0296005176991
 21
13.86512822076984
 31
0.0
 11
196.0296005176991
 21
13.83753989612397
 31
0.0
 11
195.9994901593494
 21
13.83753989612397
 31
0.0
 11
195.9162438745005
 21
13.83753989612397
 31
0.0
 11
195.7904888484522
 21
13.83753989612397
 31
0.0
 11
195.6328522665042
 21
13.83753989612397
 31
0.0
 11
195.4539613139565
 21
13.83753989612397
 31
0.0
 11
195.2644431761089
 21
13.83753989612397
 31
0.0
 11
195.0749250382613
 21
13.83753989612397
 31
0.0
 11
194.8960340857136
 21
13.83753989612397
 31
0.0
 11
194.7383975037656
 21
13.83753989612397
 31
0.0
 11
194.6126424777173
 21
13.83753989612397
 31
0.0
 11
194.5293961928683
 21
13.83753989612397
 31
0.0
 11
194.4992858345187
 21
13.83753989612397
 31
0.0
 11
194.4992858345187
 21
13.86512822076984
 31
0.0
 11
194.4992858345187
 21
13.92582253499077
 31
0.0
 11
194.4992858345187
 21
13.9865168492117
 31
0.0
 11
194.4992858345187
 21
14.01410517385757
 31
0.0
 11
194.5294068064947
 21
14.01410517385757
 31
0.0
 11
194.608816641704
 21
14.01410517385757
 31
0.0
 11
194.721085719069
 21
14.01410517385757
 31
0.0
 11
194.8497844175118
 21
14.01410517385757
 31
0.0
 11
194.9784831159545
 21
14.01410517385757
 31
0.0
 11
195.0907521933195
 21
14.01410517385757
 31
0.0
 11
195.1701620285289
 21
14.01410517385757
 31
0.0
 11
195.2002830005048
 21
14.01410517385757
 31
0.0
 11
195.2002830005048
 21
14.04654305523835
 31
0.0
 11
195.2002830005048
 21
14.1345887332719
 31
0.0
 11
195.2002830005048
 21
14.26434025879503
 31
0.0
 11
195.2002830005048
 21
14.42189568264454
 31
0.0
 11
195.2002830005048
 21
14.59335305565724
 31
0.0
 11
195.2002830005048
 21
14.76481042866994
 31
0.0
 11
195.2002830005048
 21
14.92236585251945
 31
0.0
 11
195.2002830005048
 21
15.05211737804258
 31
0.0
 11
195.2002830005048
 21
15.14016305607613
 31
0.0
 11
195.2002830005048
 21
15.17260093745691
 31
0.0
 11
195.1673826485529
 21
15.17260093745691
 31
0.0
 11
195.0825343724662
 21
15.17260093745691
 31
0.0
 11
194.9665173418988
 21
15.17260093745691
 31
0.0
 11
194.8401107265044
 21
15.17260093745691
 31
0.0
 11
194.724093695937
 21
15.17260093745691
 31
0.0
 11
194.6392454198503
 21
15.17260093745691
 31
0.0
 11
194.6063450678984
 21
15.17260093745691
 31
0.0
 11
194.6063450678984
 21
15.19975793614803
 31
0.0
 11
194.6063450678984
 21
15.2595033332685
 31
0.0
 11
194.6063450678984
 21
15.31924873038898
 31
0.0
 11
194.6063450678984
 21
15.3464057290801
 31
0.0
 11
194.6392454198504
 21
15.3464057290801
 31
0.0
 11
194.724093695937
 21
15.3464057290801
 31
0.0
 11
194.8401107265044
 21
15.3464057290801
 31
0.0
 11
194.9665173418988
 21
15.3464057290801
 31
0.0
 11
195.0825343724662
 21
15.3464057290801
 31
0.0
 11
195.1673826485529
 21
15.3464057290801
 31
0.0
 11
195.2002830005048
 21
15.3464057290801
 31
0.0
 11
195.2002830005048
 21
15.3765001173137
 31
0.0
 11
195.2002830005048
 21
15.45715307777974
 31
0.0
 11
195.2002830005048
 21
15.57391930412609
 31
0.0
 11
195.2002830005048
 21
15.71235349000063
 31
0.0
 11
195.2002830005048
 21
15.85801032905124
 31
0.0
 11
195.2002830005048
 21
15.99644451492578
 31
0.0
 11
195.2002830005048
 21
16.11321074127214
 31
0.0
 11
195.2002830005048
 21
16.19386370173817
 31
0.0
 11
195.2002830005048
 21
16.22395808997177
 31
0.0
 11
195.2250405288618
 21
16.22228324219442
 31
0.0
 11
195.284077711867
 21
16.21828937441765
 31
0.0
 11
195.3545414464215
 21
16.21352249997441
 31
0.0
 11
195.4135786294266
 21
16.20952863219765
 31
0.0
 11
195.4383361577836
 21
16.20785378442029
 31
0.0
 11
195.4233067224031
 21
16.1841581420651
 31
0.0
 11
195.3821827564383
 21
16.17047697887404
 31
0.0
 11
195.3821827564383
 21
16.14221664794832
 31
0.0
 11
195.3821827564383
 21
16.0664789610674
 31
0.0
 11
195.3821827564383
 21
15.95682887707561
 31
0.0
 11
195.3821827564383
 21
15.82683135481731
 31
0.0
 11
195.3821827564383
 21
15.69005135313683
 31
0.0
 11
195.3821827564383
 21
15.56005383087853
 31
0.0
 11
195.3821827564383
 21
15.45040374688674
 31
0.0
 11
195.3821827564383
 21
15.37466606000582
 31
0.0
 11
195.3821827564383
 21
15.3464057290801
 31
0.0
 11
195.4149350096115
 21
15.3464057290801
 31
0.0
 11
195.4994013467422
 21
15.3464057290801
 31
0.0
 11
195.6148961342476
 21
15.3464057290801
 31
0.0
 11
195.7407337385445
 21
15.3464057290801
 31
0.0
 11
195.8562285260498
 21
15.3464057290801
 31
0.0
 11
195.9406948631806
 21
15.3464057290801
 31
0.0
 11
195.9734471163538
 21
15.3464057290801
 31
0.0
 11
195.9734471163538
 21
15.31924873038898
 31
0.0
 11
195.9734471163538
 21
15.2595033332685
 31
0.0
 11
195.9734471163538
 21
15.19975793614803
 31
0.0
 11
195.9734471163538
 21
15.17260093745691
 31
0.0
 11
195.9406948631806
 21
15.17260093745691
 31
0.0
 11
195.8562285260498
 21
15.17260093745691
 31
0.0
 11
195.7407337385445
 21
15.17260093745691
 31
0.0
 11
195.6148961342476
 21
15.17260093745691
 31
0.0
 11
195.4994013467422
 21
15.17260093745691
 31
0.0
 11
195.4149350096114
 21
15.17260093745691
 31
0.0
 11
195.3821827564383
 21
15.17260093745691
 31
0.0
 11
195.3821827564383
 21
15.14016305607613
 31
0.0
 11
195.3821827564383
 21
15.05211737804258
 31
0.0
 11
195.3821827564383
 21
14.92236585251945
 31
0.0
 11
195.3821827564383
 21
14.76481042866994
 31
0.0
 11
195.3821827564383
 21
14.59335305565724
 31
0.0
 11
195.3821827564383
 21
14.42189568264454
 31
0.0
 11
195.3821827564383
 21
14.26434025879503
 31
0.0
 11
195.3821827564383
 21
14.1345887332719
 31
0.0
 11
195.3821827564383
 21
14.04654305523835
 31
0.0
 11
195.3821827564383
 21
14.01410517385757
 31
0.0
  0
SPLINE
  5
A8
102
{ACAD_REACTORS
330
C5
102
}
330
48
100
AcDbEntity
  8
_U_30EC_U_30A4_U_30E4_U_30FC_1
  6
Continuous
 62
     2
100
AcDbSpline
210
0.0
220
0.0
230
1.0
 70
    11
 71
     3
 72
   131
 73
   127
 74
   125
 42
0.000000001
 43
0.0000000001
 44
0.00000001
 40
0.0
 40
0.0
 40
0.0
 40
0.0
 40
0.0195577029826184
 40
0.0426490537461471
 40
0.2863607575856534
 40
0.5344948436189094
 40
0.7842238845573328
 40
0.8737315789467748
 40
0.9803832810313244
 40
1.09284227451707
 40
1.199761146656829
 40
1.289788768186534
 40
1.351573580786205
 40
1.370727117561434
 40
1.416400936017844
 40
1.470914848355988
 40
1.516588666791777
 40
1.535742203552858
 40
1.634216592293168
 40
1.76028334117494
 40
1.897966686682067
 40
2.031216387368868
 40
2.049689751137862
 40
2.101115601646798
 40
2.179502577739915
 40
2.27885931831403
 40
2.393194462258687
 40
2.516516648383801
 40
2.64283451540593
 40
2.766156701983431
 40
2.880491846754546
 40
2.979848588358589
 40
3.058235565443766
 40
3.10966141666892
 40
3.128134780704096
 40
3.146783742386412
 40
3.191254343315273
 40
3.244332157315932
 40
3.288802758225807
 40
3.307451719895079
 40
3.327717853844692
 40
3.383747753580051
 40
3.468388665924441
 40
3.57448783769875
 40
3.694892515728854
 40
3.822449946851993
 40
3.950007377920382
 40
4.070412055800475
 40
4.17651122736803
 40
4.261152139501476
 40
4.31718203907667
 40
4.337448172964589
 40
4.620011002696224
 40
4.885096638397536
 40
4.945373043518326
 40
5.014107710488672
 40
5.070481727652072
 40
5.319246955636596
 40
5.584812164506088
 40
5.85900091205696
 40
6.133746937542159
 40
6.401732212968962
 40
6.420736683995581
 40
6.472845717451146
 40
6.550702743894131
 40
6.646951193874339
 40
6.754234497930635
 40
6.865196086587413
 40
6.972479390357871
 40
7.068727839772033
 40
7.146584865451042
 40
7.198693898189272
 40
7.217698368905412
 40
7.234950401630889
 40
7.276089864269932
 40
7.325191803516039
 40
7.366331266090422
 40
7.383583298769772
 40
7.402779163492178
 40
7.453386443254552
 40
7.524934666445582
 40
7.606953361405894
 40
7.688972056429074
 40
7.760520279784267
 40
7.811127559734538
 40
7.830323424546159
 40
7.847844055299789
 40
7.89479934566683
 40
7.962779392744518
 40
8.043374293560564
 40
8.12817414514947
 40
8.208769044817275
 40
8.276749090376976
 40
8.323704379669534
 40
8.341225010056268
 40
8.358497614800417
 40
8.401679126686593
 40
8.457815092185651
 40
8.513951057728056
 40
8.557132569707955
 40
8.574405174504998
 40
8.602340668616314
 40
8.643455660539857
 40
8.663225271966525
 40
8.715345156564172
 40
8.789031889628507
 40
8.873502045520237
 40
8.95797219432386
 40
9.03165892556775
 40
9.083778811234442
 40
9.103548423002904
 40
9.11955008312347
 40
9.160817522379743
 40
9.217244429110137
 40
9.278724491644622
 40
9.335151398295379
 40
9.376418837357674
 40
9.392420497300462
 40
9.401196302734654
 40
9.417494229384076
 40
9.426270027749348
 40
9.440875075477381
 40
9.47570249699856
 40
9.517270709865722
 40
9.552098131993889
 40
9.566703169884097
 40
9.566703169884097
 40
9.566703169884097
 40
9.566703169884097
 10
194.6170254148479
 20
15.67015871511028
 30
0.0
 10
194.6134345093371
 20
15.6645369070216
 30
0.0
 10
194.6056039123625
 20
15.65227754419112
 30
0.0
 10
194.5129968974546
 20
15.61601916040975
 30
0.0
 10
194.4887622233247
 20
15.40148444212714
 30
0.0
 10
194.3858709845939
 20
15.22197284509706
 30
0.0
 10
194.1220492364305
 20
15.03615573798145
 30
0.0
 10
194.284547156918
 20
14.95959336566082
 30
0.0
 10
194.3607225760838
 20
14.89856693195442
 30
0.0
 10
194.4492171072758
 20
14.83515804544759
 30
0.0
 10
194.5389930233111
 20
14.77525634219561
 30
0.0
 10
194.5883817636046
 20
14.72102154849209
 30
0.0
 10
194.6745708157382
 20
14.69286240541833
 30
0.0
 10
194.6411260674229
 20
14.65713309652811
 30
0.0
 10
194.621467116631
 20
14.62550387991906
 30
0.0
 10
194.5919888217882
 20
14.58475872796069
 30
0.0
 10
194.5688989446032
 20
14.55504663489643
 30
0.0
 10
194.5380205968356
 20
14.50211422668495
 30
0.0
 10
194.4729193365741
 20
14.627403349389
 30
0.0
 10
194.3796000122416
 20
14.68213900233939
 30
0.0
 10
194.2950636285139
 20
14.73916423939337
 30
0.0
 10
194.1722498125744
 20
14.89675287427522
 30
0.0
 10
194.1764450847302
 20
14.82035806766836
 30
0.0
 10
194.1751478652678
 20
14.77361280161296
 30
0.0
 10
194.1758126448077
 20
14.695847858126
 30
0.0
 10
194.1755549986958
 20
14.59902068324423
 30
0.0
 10
194.1756431239922
 20
14.48650279078809
 30
0.0
 10
194.1756077302282
 20
14.365240859457
 30
0.0
 10
194.175651175828
 20
14.24086897858961
 30
0.0
 10
194.1755199942406
 20
14.11967683631337
 30
0.0
 10
194.1759477562047
 20
14.00691148919743
 30
0.0
 10
194.1746678202312
 20
13.91082913768744
 30
0.0
 10
194.1779759851044
 20
13.831138264687
 30
0.0
 10
194.1715197740088
 20
13.78815175788784
 30
0.0
 10
194.1806208705556
 20
13.74955432372043
 30
0.0
 10
194.1447910339936
 20
13.7581088772407
 30
0.0
 10
194.1115223815253
 20
13.75342519985446
 30
0.0
 10
194.0604562576041
 20
13.75351298759784
 30
0.0
 10
194.0269723972815
 20
13.75794430283822
 30
0.0
 10
193.9907585408754
 20
13.74960793842508
 30
0.0
 10
194.0009782568666
 20
13.79145277179284
 30
0.0
 10
193.9936487887773
 20
13.83778560820173
 30
0.0
 10
193.9973633136103
 20
13.92374831106014
 30
0.0
 10
193.9959480554897
 20
14.02605142704849
 30
0.0
 10
193.9964105554639
 20
14.14453223931512
 30
0.0
 10
193.9962773686232
 20
14.26957683153356
 30
0.0
 10
193.9963015910046
 20
14.3947582810705
 30
0.0
 10
193.9963354925552
 20
14.51286645379058
 30
0.0
 10
193.9962060293133
 20
14.61628748709516
 30
0.0
 10
193.9965507549082
 20
14.69932036153667
 30
0.0
 10
193.9958698278691
 20
14.75143368521243
 30
0.0
 10
193.9994586600624
 20
14.87912907821361
 30
0.0
 10
193.7826171386438
 20
14.5804871681962
 30
0.0
 10
193.602135492195
 20
14.35263981511509
 30
0.0
 10
193.5490322295612
 20
14.49373443289817
 30
0.0
 10
193.5200429133149
 20
14.54325767560942
 30
0.0
 10
193.419664806282
 20
14.64641779790108
 30
0.0
 10
193.7405127723262
 20
14.7269503502378
 30
0.0
 10
193.8689897005429
 20
14.91066283036435
 30
0.0
 10
194.0906454325359
 20
15.11931995771763
 30
0.0
 10
194.1770224894069
 20
15.29339211228343
 30
0.0
 10
194.4549394229078
 20
15.56967051342517
 30
0.0
 10
194.3346247839284
 20
15.56534559551114
 30
0.0
 10
194.286319735135
 20
15.56614856202555
 30
0.0
 10
194.2102377454905
 20
15.56574582146584
 30
0.0
 10
194.1167010009752
 20
15.56590275611611
 30
0.0
 10
194.0117594788557
 20
15.56582502576224
 30
0.0
 10
193.9033887738719
 20
15.56595464378556
 30
0.0
 10
193.7981454235898
 20
15.56554393490692
 30
0.0
 10
193.7056237819414
 20
15.56682073671592
 30
0.0
 10
193.6268130800708
 20
15.5634076653485
 30
0.0
 10
193.5839674565381
 20
15.57023350036321
 30
0.0
 10
193.5449499586516
 20
15.56065064201124
 30
0.0
 10
193.5526365271865
 20
15.59420779565543
 30
0.0
 10
193.5485464404313
 20
15.62523550322234
 30
0.0
 10
193.5485531368815
 20
15.672365292709
 30
0.0
 10
193.5526239724912
 20
15.70340941646779
 30
0.0
 10
193.5449495574584
 20
15.73701861635902
 30
0.0
 10
193.5834819405495
 20
15.72748410420872
 30
0.0
 10
193.6241228014481
 20
15.73397435498071
 30
0.0
 10
193.6951471850464
 20
15.73100150650254
 30
0.0
 10
193.7729318149634
 20
15.73174761399157
 30
0.0
 10
193.8507292246476
 20
15.73247814044526
 30
0.0
 10
193.9217232089908
 20
15.7295423551416
 30
0.0
 10
193.9624279791821
 20
15.73595468772952
 30
0.0
 10
194.000985348991
 20
15.72650524176004
 30
0.0
 10
193.9927342754929
 20
15.76264692158784
 30
0.0
 10
193.9982346669358
 20
15.80129837613227
 30
0.0
 10
193.9955754206165
 20
15.86913528561839
 30
0.0
 10
193.9965815471534
 20
15.9459164153874
 30
0.0
 10
193.996017801832
 20
16.02849393582757
 30
0.0
 10
193.9970714526593
 20
16.10517329229878
 30
0.0
 10
193.9942675863131
 20
16.173319907767
 30
0.0
 10
194.0000702721305
 20
16.21132399809346
 30
0.0
 10
193.991565455116
 20
16.24758448077646
 30
0.0
 10
194.0255610233125
 20
16.23755723771853
 30
0.0
 10
194.0594575683099
 20
16.24073266813706
 30
0.0
 10
194.1126669060347
 20
16.2350896564061
 30
0.0
 10
194.1660768574483
 20
16.23434774436425
 30
0.0
 10
194.199591464949
 20
16.2281922348298
 30
0.0
 10
194.2388086183039
 20
16.23346029773593
 30
0.0
 10
194.2120263698493
 20
16.19253380793488
 30
0.0
 10
194.1708111001724
 20
16.20371204538111
 30
0.0
 10
194.1782641540875
 20
16.15867056192124
 30
0.0
 10
194.1742227952185
 20
16.11412278028144
 30
0.0
 10
194.1761714049641
 20
16.04223572621703
 30
0.0
 10
194.1752364849759
 20
15.96168630588771
 30
0.0
 10
194.176510719003
 20
15.88173995404994
 30
0.0
 10
194.1732043793865
 20
15.80841837083183
 30
0.0
 10
194.1802106179961
 20
15.76688643002568
 30
0.0
 10
194.1701440380127
 20
15.72752418568112
 30
0.0
 10
194.2029814803922
 20
15.73468063430981
 30
0.0
 10
194.2364577296482
 20
15.73027243137944
 30
0.0
 10
194.2915053476019
 20
15.73217943347897
 30
0.0
 10
194.3489502595316
 20
15.73185366407289
 30
0.0
 10
194.402302624831
 20
15.73106308733081
 30
0.0
 10
194.4398540896639
 20
15.73313959118074
 30
0.0
 10
194.4623172523238
 20
15.73022338167108
 30
0.0
 10
194.4751678073731
 20
15.73572552644056
 30
0.0
 10
194.4858255685888
 20
15.73801118197791
 30
0.0
 10
194.4986635650144
 20
15.74494972588053
 30
0.0
 10
194.514599103307
 20
15.72853046313672
 30
0.0
 10
194.5410623920892
 20
15.71709122319449
 30
0.0
 10
194.5726805253757
 20
15.6964468783519
 30
0.0
 10
194.5987255892151
 20
15.68116869628295
 30
0.0
 10
194.6128517723973
 20
15.67266976323184
 30
0.0
 10
194.6170254148479
 20
15.67015871511028
 30
0.0
 11
194.6170254148479
 21
15.67015871511028
 31
0.0
 11
194.6049990002243
 21
15.65473571164188
 31
0.0
 11
194.5848961795565
 21
15.64337406233918
 31
0.0
 11
194.4778986355813
 21
15.42440620231159
 31
0.0
 11
194.3477039934325
 21
15.21317201512161
 31
0.0
 11
194.1996540366071
 21
15.01206059027479
 31
0.0
 11
194.2734958253735
 21
14.96147384935379
 31
0.0
 11
194.36056643118
 21
14.89988411653739
 31
0.0
 11
194.4518003750405
 21
14.83413160594426
 31
0.0
 11
194.5381321779688
 21
14.77105653169304
 31
0.0
 11
194.6104963609787
 21
14.71749910790242
 31
0.0
 11
194.6598274450843
 21
14.68029954869104
 31
0.0
 11
194.6486940702213
 21
14.66471410869494
 31
0.0
 11
194.6221452532403
 21
14.62754882870424
 31
0.0
 11
194.5904579555533
 21
14.58319026871533
 31
0.0
 11
194.5639091385723
 21
14.54602498872462
 31
0.0
 11
194.5527757637093
 21
14.53043954872852
 31
0.0
 11
194.4807013362948
 21
14.59754008690618
 31
0.0
 11
194.3852856985382
 21
14.67993354174669
 31
0.0
 11
194.279326415217
 21
14.76785017366916
 31
0.0
 11
194.1756210511091
 21
14.85152024309267
 31
0.0
 11
194.1756210511091
 21
14.83304687900863
 31
0.0
 11
194.1756210511091
 21
14.78162102763955
 31
0.0
 11
194.1756210511091
 21
14.70323405030999
 31
0.0
 11
194.1756210511091
 21
14.60387730834449
 31
0.0
 11
194.1756210511091
 21
14.4895421630676
 31
0.0
 11
194.1756210511091
 21
14.36621997580389
 31
0.0
 11
194.1756210511091
 21
14.2399021078779
 31
0.0
 11
194.1756210511091
 21
14.11657992061419
 31
0.0
 11
194.1756210511091
 21
14.0022447753373
 31
0.0
 11
194.1756210511091
 21
13.9028880333718
 31
0.0
 11
194.1756210511091
 21
13.82450105604223
 31
0.0
 11
194.1756210511091
 21
13.77307520467316
 31
0.0
 11
194.1756210511091
 21
13.75460184058912
 31
0.0
 11
194.1569720893627
 21
13.75460184058912
 31
0.0
 11
194.112501488275
 21
13.75460184058912
 31
0.0
 11
194.0594236740737
 21
13.75460184058912
 31
0.0
 11
194.014953072986
 21
13.75460184058912
 31
0.0
 11
193.9963041112396
 21
13.75460184058912
 31
0.0
 11
193.9963041112396
 21
13.77486797460219
 31
0.0
 11
193.9963041112396
 21
13.83089787452066
 31
0.0
 11
193.9963041112396
 21
13.91553878716347
 31
0.0
 11
193.9963041112396
 21
14.02163795934953
 31
0.0
 11
193.9963041112396
 21
14.14204263789775
 31
0.0
 11
193.9963041112396
 21
14.26960006962705
 31
0.0
 11
193.9963041112396
 21
14.39715750135636
 31
0.0
 11
193.9963041112396
 21
14.51756217990458
 31
0.0
 11
193.9963041112396
 21
14.62366135209064
 31
0.0
 11
193.9963041112396
 21
14.70830226473344
 31
0.0
 11
193.9963041112396
 21
14.76433216465193
 31
0.0
 11
193.9963041112396
 21
14.78459829866499
 31
0.0
 11
193.7883272849482
 21
14.59331998274056
 31
0.0
 11
193.5763486358425
 21
14.43414885430811
 31
0.0
 11
193.5495629014483
 21
14.48814671952095
 31
0.0
 11
193.5138765415024
 21
14.54689140572026
 31
0.0
 11
193.4799697494124
 21
14.59192871537977
 31
0.0
 11
193.6830287742319
 21
14.73563387201055
 31
0.0
 11
193.881853195826
 21
14.91168423529989
 31
0.0
 11
194.0677041444179
 21
15.11327514524951
 31
0.0
 11
194.2318427502304
 21
15.3336019418611
 31
0.0
 11
194.3655301434865
 21
15.56585996513636
 31
0.0
 11
194.3465256724482
 21
15.56585996513636
 31
0.0
 11
194.2944166389563
 21
15.56585996513636
 31
0.0
 11
194.2165596124448
 21
15.56585996513636
 31
0.0
 11
194.1203111623479
 21
15.56585996513636
 31
0.0
 11
194.0130278580998
 21
15.56585996513636
 31
0.0
 11
193.9020662691346
 21
15.56585996513636
 31
0.0
 11
193.7947829648865
 21
15.56585996513636
 31
0.0
 11
193.6985345147896
 21
15.56585996513636
 31
0.0
 11
193.6206774882781
 21
15.56585996513636
 31
0.0
 11
193.5685684547861
 21
15.56585996513636
 31
0.0
 11
193.5495639837479
 21
15.56585996513636
 31
0.0
 11
193.5495639837479
 21
15.58311199790982
 31
0.0
 11
193.5495639837479
 21
15.62425146067732
 31
0.0
 11
193.5495639837479
 21
15.67335340010949
 31
0.0
 11
193.5495639837479
 21
15.71449286287699
 31
0.0
 11
193.5495639837479
 21
15.73174489565045
 31
0.0
 11
193.5687598486011
 21
15.73174489565045
 31
0.0
 11
193.6193671286684
 21
15.73174489565045
 31
0.0
 11
193.6909153522121
 21
15.73174489565045
 31
0.0
 11
193.7729340474937
 21
15.73174489565045
 31
0.0
 11
193.8549527427755
 21
15.73174489565045
 31
0.0
 11
193.926500966319
 21
15.73174489565045
 31
0.0
 11
193.9771082463865
 21
15.73174489565045
 31
0.0
 11
193.9963041112396
 21
15.73174489565045
 31
0.0
 11
193.9963041112396
 21
15.74926552655218
 31
0.0
 11
193.9963041112396
 21
15.79622081736882
 31
0.0
 11
193.9963041112396
 21
15.86420086526753
 31
0.0
 11
193.9963041112396
 21
15.94479576741549
 31
0.0
 11
193.9963041112396
 21
16.02959562097986
 31
0.0
 11
193.9963041112396
 21
16.11019052312782
 31
0.0
 11
193.9963041112396
 21
16.17817057102653
 31
0.0
 11
193.9963041112396
 21
16.22512586184317
 31
0.0
 11
193.9963041112396
 21
16.2426464927449
 31
0.0
 11
194.0135484112112
 21
16.24165806167519
 31
0.0
 11
194.0566591611401
 21
16.23918698400091
 31
0.0
 11
194.1127031360478
 21
16.23597458302435
 31
0.0
 11
194.1687471109554
 21
16.2327621820478
 31
0.0
 11
194.2118578608843
 21
16.23029110437352
 31
0.0
 11
194.2291021608559
 21
16.22930267330381
 31
0.0
 11
194.2143774674852
 21
16.2055629337264
 31
0.0
 11
194.1756210511091
 21
16.19183767331312
 31
0.0
 11
194.1756210511091
 21
16.17206806177293
 31
0.0
 11
194.1756210511091
 21
16.11994817680333
 31
0.0
 11
194.1756210511091
 21
16.04626144288079
 31
0.0
 11
194.1756210511091
 21
15.96179128448179
 31
0.0
 11
194.1756210511091
 21
15.87732112608278
 31
0.0
 11
194.1756210511091
 21
15.80363439216024
 31
0.0
 11
194.1756210511091
 21
15.75151450719064
 31
0.0
 11
194.1756210511091
 21
15.73174489565045
 31
0.0
 11
194.1916227112937
 21
15.73174489565045
 31
0.0
 11
194.2328901507171
 21
15.73174489565045
 31
0.0
 11
194.2893170576838
 21
15.73174489565045
 31
0.0
 11
194.3507971204982
 21
15.73174489565045
 31
0.0
 11
194.4072240274649
 21
15.73174489565045
 31
0.0
 11
194.4484914668883
 21
15.73174489565045
 31
0.0
 11
194.4644931270729
 21
15.73174489565045
 31
0.0
 11
194.4728206422925
 21
15.73451387455921
 31
0.0
 11
194.4882860277004
 21
15.73965626396118
 31
0.0
 11
194.49661354292
 21
15.74242524286994
 31
0.0
 11
194.5091363776005
 21
15.73490952398294
 31
0.0
 11
194.5389985218386
 21
15.71698742509854
 31
0.0
 11
194.5746404359293
 21
15.69559653288168
 31
0.0
 11
194.6045025801674
 21
15.67767443399729
 31
0.0
 11
194.6170254148479
 21
15.67015871511028
 31
0.0
  0
SPLINE
  5
A9
102
{ACAD_REACTORS
330
C6
102
}
330
48
100
AcDbEntity
  8
_U_30EC_U_30A4_U_30E4_U_30FC_1
  6
Continuous
 62
     2
100
AcDbSpline
210
0.0
220
0.0
230
1.0
 70
    11
 71
     3
 72
    91
 73
    87
 74
    85
 42
0.000000001
 43
0.0000000001
 44
0.00000001
 40
0.0
 40
0.0
 40
0.0
 40
0.0
 40
0.0267532254356701
 40
0.0856103386464102
 40
0.1444674521996621
 40
0.1712206856618514
 40
0.2039416005642536
 40
0.2955601971652484
 40
0.4362601844617202
 40
0.6162252844507534
 40
0.8256392189704982
 40
1.054685709844468
 40
1.293548478893588
 40
1.532411247938332
 40
1.761457738799596
 40
1.970871673298593
 40
2.150836773256818
 40
2.291536760495679
 40
2.383155356836757
 40
2.415876284101405
 40
2.44262951748805
 40
2.50148663094918
 40
2.560343744424327
 40
2.5870969778266
 40
2.617068194441027
 40
2.699247336756197
 40
2.822032643466481
 40
2.973822353258039
 40
3.143014704823481
 40
3.31800793688006
 40
3.487200288186894
 40
3.638989997548431
 40
3.76177530379493
 40
3.843954445753265
 40
3.87392566222996
 40
3.890812773500668
 40
3.907699884771846
 40
3.937960767857411
 40
3.980983618142499
 40
4.199085915228644
 40
4.439444339237435
 40
4.677588241261079
 40
5.05069831783805
 40
5.448212454763407
 40
5.855291218044876
 40
6.13857543888552
 40
6.417434507584319
 40
6.444551104393978
 40
6.504207617363254
 40
6.563864130314578
 40
6.590980727104148
 40
6.848609460381573
 40
7.10961199066853
 40
7.352910904446232
 40
7.557830220705587
 40
7.587518925913504
 40
7.652834077375946
 40
7.718149228845929
 40
7.747837934062232
 40
7.854880190301149
 40
7.976511257403677
 40
8.369487896592506
 40
8.757514959223828
 40
9.126072419331262
 40
9.460639380392353
 40
9.746695593036122
 40
9.7775699431189
 40
9.807050320932
 40
9.830377336129123
 40
9.886003295436208
 40
9.952395569430108
 40
10.00802152870646
 40
10.03134854388238
 40
10.21356951009608
 40
10.42203479292894
 40
10.66154556731084
 40
10.91693789564324
 40
11.15832906556583
 40
11.18982674596641
 40
11.27286608520425
 40
11.39026653033367
 40
11.52484752840903
 40
11.65942852648465
 40
11.77682897161501
 40
11.859868310857
 40
11.89136598230446
 40
11.89136598230446
 40
11.89136598230446
 40
11.89136598230446
 10
190.7027885008196
 20
14.70699600701772
 30
0.0
 10
190.7028237765288
 20
14.71587847311985
 30
0.0
 10
190.7029366710796
 20
14.74430237047346
 30
0.0
 10
190.7012984568489
 20
14.79409639169803
 30
0.0
 10
190.7069750292911
 20
14.83657564478154
 30
0.0
 10
190.6956928731706
 20
14.88730154856847
 30
0.0
 10
190.7632296979031
 20
14.87012900740109
 30
0.0
 10
190.8388029210701
 20
14.88290227165996
 30
0.0
 10
190.9828357056001
 20
14.87629729457382
 30
0.0
 10
191.1569419185427
 20
14.87888462206466
 30
0.0
 10
191.3639599611003
 20
14.87800591955553
 30
0.0
 10
191.5894688172378
 20
14.87828207920027
 30
0.0
 10
191.8251162293406
 20
14.87818339658662
 30
0.0
 10
192.0607640531349
 20
14.87828184412767
 30
0.0
 10
192.2862717580626
 20
14.87800678190789
 30
0.0
 10
192.4932934632805
 20
14.87888186270734
 30
0.0
 10
192.667388891529
 20
14.87630522678446
 30
0.0
 10
192.8114492071986
 20
14.88288290449213
 30
0.0
 10
192.8869691915294
 20
14.87016243405604
 30
0.0
 10
192.954577603703
 20
14.88726400191687
 30
0.0
 10
192.9430840140677
 20
14.83674785802941
 30
0.0
 10
192.9505104581733
 20
14.79253252226501
 30
0.0
 10
192.9428838927986
 20
14.7486796650361
 30
0.0
 10
192.9546489459426
 20
14.69878374479327
 30
0.0
 10
192.8930788491983
 20
14.71393227712512
 30
0.0
 10
192.8256791738672
 20
14.70310665350673
 30
0.0
 10
192.7013004056222
 20
14.70852031626237
 30
0.0
 10
192.5554428236572
 20
14.70649205390785
 30
0.0
 10
192.3893576440086
 20
14.70715777578387
 30
0.0
 10
192.2188412621725
 20
14.70689643521242
 30
0.0
 10
192.0519790855389
 20
14.70721553391094
 30
0.0
 10
191.9087346827105
 20
14.70635302590762
 30
0.0
 10
191.7773313869833
 20
14.70863300482988
 30
0.0
 10
191.7239859134657
 20
14.70407704374202
 30
0.0
 10
191.6485188456912
 20
14.70999914992877
 30
0.0
 10
191.6769075779233
 20
14.70094169343353
 30
0.0
 10
191.7033652409542
 20
14.6972591226893
 30
0.0
 10
191.6633522907701
 20
14.66654271968271
 30
0.0
 10
191.5713663691868
 20
14.67667591174643
 30
0.0
 10
191.5439396207069
 20
14.43032502247782
 30
0.0
 10
191.4478793967235
 20
14.27499558764376
 30
0.0
 10
191.1917277964473
 20
13.94525417931566
 30
0.0
 10
191.7627537732763
 20
14.08430022210451
 30
0.0
 10
192.0173656320516
 20
14.08291779973363
 30
0.0
 10
192.6279647048616
 20
13.99790569242085
 30
0.0
 10
192.3340698578084
 20
14.29685417558204
 30
0.0
 10
192.0133304286518
 20
14.44330856901774
 30
0.0
 10
192.1313543360434
 20
14.50025540818287
 30
0.0
 10
192.1724716466261
 20
14.52420099873348
 30
0.0
 10
192.2156812394411
 20
14.54599758811229
 30
0.0
 10
192.317457409445
 20
14.60928721253908
 30
0.0
 10
192.4328867625249
 20
14.35147151408781
 30
0.0
 10
192.6329591642277
 20
14.21616041113681
 30
0.0
 10
192.7269077387228
 20
14.03792795138885
 30
0.0
 10
192.9558829746394
 20
13.87997821027048
 30
0.0
 10
192.8596031846708
 20
13.829159725763
 30
0.0
 10
192.8167959763779
 20
13.79881292523054
 30
0.0
 10
192.771824352878
 20
13.77466130281461
 30
0.0
 10
192.7121720925213
 20
13.72552146747569
 30
0.0
 10
192.6789731061325
 20
13.8599747567361
 30
0.0
 10
192.5582013350797
 20
14.01594265286582
 30
0.0
 10
192.1970976005979
 20
13.88569928059555
 30
0.0
 10
191.8385061955541
 20
13.90224694409483
 30
0.0
 10
191.457092045008
 20
13.89331229351864
 30
0.0
 10
191.1703455282892
 20
13.82882671672408
 30
0.0
 10
190.8592055599713
 20
13.94230668192824
 30
0.0
 10
190.8268737818788
 20
13.83122259927768
 30
0.0
 10
190.7896178253318
 20
13.81196313850013
 30
0.0
 10
190.7865737632754
 20
13.85874784087298
 30
0.0
 10
190.7679892860606
 20
13.89806853919133
 30
0.0
 10
190.7512436616779
 20
13.95765983478234
 30
0.0
 10
190.7383730915753
 20
14.00201969871283
 30
0.0
 10
190.7042327806431
 20
14.09106331120203
 30
0.0
 10
190.9482714457754
 20
14.02181042943768
 30
0.0
 10
191.1441394486673
 20
14.00030369057744
 30
0.0
 10
191.2395426381277
 20
14.28226484478462
 30
0.0
 10
191.2945135769597
 20
14.44363045421122
 30
0.0
 10
191.5159619357156
 20
14.71391177589738
 30
0.0
 10
191.3849239381216
 20
14.70548446853735
 30
0.0
 10
191.3110026555854
 20
14.7077900849697
 30
0.0
 10
191.1977459876244
 20
14.70671378321657
 30
0.0
 10
191.0694251807484
 20
14.7070763907651
 30
0.0
 10
190.9404252030415
 20
14.70697724466086
 30
0.0
 10
190.828784094629
 20
14.70699932712572
 30
0.0
 10
190.7514663970026
 20
14.7069957918967
 30
0.0
 10
190.713287653201
 20
14.70699595845081
 30
0.0
 10
190.7027885008196
 20
14.70699600701772
 30
0.0
 11
190.7027885008196
 21
14.70699600701772
 31
0.0
 11
190.7027885008196
 21
14.73374924051797
 31
0.0
 11
190.7027885008196
 21
14.79260635421853
 31
0.0
 11
190.7027885008196
 21
14.85146346791909
 31
0.0
 11
190.7027885008196
 21
14.87821670141935
 31
0.0
 11
190.7355094280989
 21
14.87821670141935
 31
0.0
 11
190.8271280244809
 21
14.87821670141935
 31
0.0
 11
190.9678280117819
 21
14.87821670141935
 31
0.0
 11
191.147793111818
 21
14.87821670141935
 31
0.0
 11
191.3572070464054
 21
14.87821670141935
 31
0.0
 11
191.5862535373604
 21
14.87821670141935
 31
0.0
 11
191.8251163064993
 21
14.87821670141935
 31
0.0
 11
192.0639790756381
 21
14.87821670141935
 31
0.0
 11
192.2930255665931
 21
14.87821670141935
 31
0.0
 11
192.5024395011806
 21
14.87821670141935
 31
0.0
 11
192.6824046012168
 21
14.87821670141935
 31
0.0
 11
192.8231045885177
 21
14.87821670141935
 31
0.0
 11
192.9147231848997
 21
14.87821670141935
 31
0.0
 11
192.947444112179
 21
14.87821670141935
 31
0.0
 11
192.947444112179
 21
14.85146346791909
 31
0.0
 11
192.947444112179
 21
14.79260635421853
 31
0.0
 11
192.947444112179
 21
14.73374924051797
 31
0.0
 11
192.947444112179
 21
14.70699600701772
 31
0.0
 11
192.9174728954758
 21
14.70699600701772
 31
0.0
 11
192.8352937529027
 21
14.70699600701772
 31
0.0
 11
192.712508445764
 21
14.70699600701772
 31
0.0
 11
192.5607187353642
 21
14.70699600701772
 31
0.0
 11
192.3915263830078
 21
14.70699600701772
 31
0.0
 11
192.2165331499991
 21
14.70699600701772
 31
0.0
 11
192.0473407976427
 21
14.70699600701772
 31
0.0
 11
191.8955510872428
 21
14.70699600701772
 31
0.0
 11
191.7727657801042
 21
14.70699600701772
 31
0.0
 11
191.690586637531
 21
14.70699600701772
 31
0.0
 11
191.6606154208279
 21
14.70699600701772
 31
0.0
 11
191.6766359412525
 21
14.70165583340794
 31
0.0
 11
191.6926564616771
 21
14.69631565979815
 31
0.0
 11
191.6706155681421
 21
14.67558114591443
 31
0.0
 11
191.6284861855363
 21
14.6668587153611
 31
0.0
 11
191.5365235541377
 21
14.46909247312657
 31
0.0
 11
191.4279078521763
 21
14.25467511978509
 31
0.0
 11
191.3127500824807
 21
14.0462255905162
 31
0.0
 11
191.6857366675021
 21
14.05582441253029
 31
0.0
 11
192.0830700036151
 21
14.06781232404995
 31
0.0
 11
192.4899342191145
 21
14.08102711828532
 31
0.0
 11
192.2983119496979
 21
14.2896676130248
 31
0.0
 11
192.0966752013699
 21
14.48229420151831
 31
0.0
 11
192.120494779475
 21
14.49525327269564
 31
0.0
 11
192.1728978513062
 21
14.52376322928576
 31
0.0
 11
192.2253009231374
 21
14.55227318587587
 31
0.0
 11
192.2491205012425
 21
14.5652322570532
 31
0.0
 11
192.4387101558627
 21
14.39079508370268
 31
0.0
 11
192.6200310940436
 21
14.20305846374091
 31
0.0
 11
192.7777729231148
 21
14.01782380992436
 31
0.0
 11
192.8966252504059
 21
13.85089253500949
 31
0.0
 11
192.8715408217924
 21
13.83501202286069
 31
0.0
 11
192.8163550788426
 21
13.80007489613332
 31
0.0
 11
192.7611693358928
 21
13.76513776940596
 31
0.0
 11
192.7360849072793
 21
13.74925725725716
 31
0.0
 11
192.6775518151613
 21
13.83887824681809
 31
0.0
 11
192.6050015078458
 21
13.93650288221032
 31
0.0
 11
192.2125412924095
 21
13.91636286943759
 31
0.0
 11
191.8249474069561
 21
13.89803302999773
 31
0.0
 11
191.4567378976213
 21
13.88202178722395
 31
0.0
 11
191.1224308105413
 21
13.86883756444947
 31
0.0
 11
190.8365441918518
 21
13.8589887850075
 31
0.0
 11
190.821186232174
 21
13.83220523466695
 31
0.0
 11
190.7937434290546
 21
13.82143559057245
 31
0.0
 11
190.786792719232
 21
13.84370299445577
 31
0.0
 11
190.7702179496548
 21
13.89680218833139
 31
0.0
 11
190.7504351601596
 21
13.96017864553777
 31
0.0
 11
190.7338603905825
 21
14.01327783941338
 31
0.0
 11
190.7269096807599
 21
14.0355452432967
 31
0.0
 11
190.9091199859154
 21
14.03751638912953
 31
0.0
 11
191.1174975848589
 21
14.04356211829472
 31
0.0
 11
191.2303203127217
 21
14.25483550301553
 31
0.0
 11
191.3407936722035
 21
14.48509813155879
 31
0.0
 11
191.4358254265627
 21
14.70699600701772
 31
0.0
 11
191.4043277461597
 21
14.70699600701772
 31
0.0
 11
191.3212884069153
 21
14.70699600701772
 31
0.0
 11
191.2038879617768
 21
14.70699600701772
 31
0.0
 11
191.0693069636912
 21
14.70699600701772
 31
0.0
 11
190.9347259656055
 21
14.70699600701772
 31
0.0
 11
190.817325520467
 21
14.70699600701772
 31
0.0
 11
190.7342861812226
 21
14.70699600701772
 31
0.0
 11
190.7027885008196
 21
14.70699600701772
 31
0.0
  0
SPLINE
  5
AA
102
{ACAD_REACTORS
330
C7
102
}
330
48
100
AcDbEntity
  8
_U_30EC_U_30A4_U_30E4_U_30FC_1
  6
Continuous
 62
     2
100
AcDbSpline
210
0.0
220
0.0
230
1.0
 70
    11
 71
     3
 72
    35
 73
    31
 74
    29
 42
0.000000001
 43
0.0000000001
 44
0.00000001
 40
0.0
 40
0.0
 40
0.0
 40
0.0
 40
0.033523103661993
 40
0.0713218571712392
 40
0.4278866681487556
 40
0.8116865841964804
 40
1.198190238000141
 40
1.561379546812799
 40
1.659983174622196
 40
1.759315573807301
 40
2.13271961723121
 40
2.525233363588962
 40
2.910815397779832
 40
3.265244364303455
 40
3.592606723582194
 40
3.964386154604143
 40
4.359942131737965
 40
4.75815411863947
 40
4.843846538700047
 40
4.936650065543406
 40
5.25661660253756
 40
5.58170740441627
 40
5.899719158308365
 40
6.198363494280952
 40
6.466301046615965
 40
6.493895311537287
 40
6.559697020197079
 40
6.638234543442654
 40
6.704036252154407
 40
6.731630508423213
 40
6.731630508423213
 40
6.731630508423213
 40
6.731630508423213
 10
191.9736010568669
 20
16.23463843719134
 30
0.0
 10
191.9676006097789
 20
16.22480690542322
 30
0.0
 10
191.9548344099158
 20
16.20388988579792
 30
0.0
 10
191.7949362006553
 20
16.17127126532715
 30
0.0
 10
192.2322025842338
 20
15.88206680336692
 30
0.0
 10
192.4345394828262
 20
15.68041138358441
 30
0.0
 10
192.6819564267974
 20
15.43749387603277
 30
0.0
 10
193.1831513624608
 20
15.3604766275777
 30
0.0
 10
193.012556219897
 20
15.21876939174659
 30
0.0
 10
192.9383299463203
 20
15.01710366209103
 30
0.0
 10
192.6131432248188
 20
15.36956287174727
 30
0.0
 10
192.3277741670664
 20
15.53175212559561
 30
0.0
 10
192.0337604077658
 20
15.7368713005305
 30
0.0
 10
191.8084452691134
 20
16.21827488595455
 30
0.0
 10
191.5993085055521
 20
15.75343046609223
 30
0.0
 10
191.3207873674835
 20
15.54350952252911
 30
0.0
 10
191.0371383177209
 20
15.37424456359987
 30
0.0
 10
190.7078639527832
 20
15.00142360907933
 30
0.0
 10
190.6277012318224
 20
15.19708014459005
 30
0.0
 10
190.4759724909744
 20
15.32491104190594
 30
0.0
 10
190.9083395826796
 20
15.40454031765934
 30
0.0
 10
191.0962565329766
 20
15.60026634915474
 30
0.0
 10
191.3468477420503
 20
15.81632996916755
 30
0.0
 10
191.5714350470162
 20
15.98190992300059
 30
0.0
 10
191.6259775409711
 20
16.26133964636826
 30
0.0
 10
191.7494661029011
 20
16.24737950408078
 30
0.0
 10
191.806027334452
 20
16.24521268867647
 30
0.0
 10
191.8761870984944
 20
16.2404685988136
 30
0.0
 10
191.9333414022105
 20
16.23709429350541
 30
0.0
 10
191.9644190320839
 20
16.23519854711119
 30
0.0
 10
191.9736010568669
 20
16.23463843719134
 30
0.0
 11
191.9736010568669
 21
16.23463843719134
 31
0.0
 11
191.9525319069885
 21
16.20856374969785
 31
0.0
 11
191.9174464559425
 21
16.19450114553469
 31
0.0
 11
192.1512374769095
 21
15.92527961131382
 31
0.0
 11
192.4414585957567
 21
15.6741340796926
 31
0.0
 11
192.7612797483685
 21
15.45710987618784
 31
0.0
 11
193.083870870629
 21
15.29025232631636
 31
0.0
 11
193.0213299868076
 21
15.21402035584928
 31
0.0
 11
192.9688035818976
 21
15.12971197913424
 31
0.0
 11
192.6436279095814
 21
15.3132640483158
 31
0.0
 11
192.3237227768436
 21
15.54070139743428
 31
0.0
 11
192.0354200158608
 21
15.7967385512331
 31
0.0
 11
191.8050514588095
 21
16.06609003445566
 31
0.0
 11
191.5995531719516
 21
15.81126348721036
 31
0.0
 11
191.3288301341535
 21
15.55645182277756
 31
0.0
 11
191.0119538423246
 21
15.31969466354856
 31
0.0
 11
190.6679957933741
 21
15.11903163191467
 31
0.0
 11
190.6218855341338
 21
15.19126067703553
 31
0.0
 11
190.5636970460348
 21
15.26355586798967
 31
0.0
 11
190.8433040489016
 21
15.41911456961745
 31
0.0
 11
191.1093004621155
 21
15.60601009790405
 31
0.0
 11
191.3499997459747
 21
15.81384496285209
 31
0.0
 11
191.5537153607774
 21
16.03222167446416
 31
0.0
 11
191.7087607668218
 21
16.25074274274287
 31
0.0
 11
191.7363041569865
 21
16.24906789496551
 31
0.0
 11
191.8019845489177
 21
16.24507402718873
 31
0.0
 11
191.880377274771
 21
16.24030715274548
 31
0.0
 11
191.9460576667022
 21
16.2363132849687
 31
0.0
 11
191.9736010568669
 21
16.23463843719134
 31
0.0
  0
SPLINE
  5
AB
102
{ACAD_REACTORS
330
C8
102
}
330
48
100
AcDbEntity
  8
_U_30EC_U_30A4_U_30E4_U_30FC_1
  6
Continuous
 62
     2
100
AcDbSpline
210
0.0
220
0.0
230
1.0
 70
    11
 71
     3
 72
    15
 73
    11
 74
     9
 42
0.000000001
 43
0.0000000001
 44
0.00000001
 40
0.0
 40
0.0
 40
0.0
 40
0.0
 40
0.2785535985096802
 40
0.5215624748198895
 40
0.6076917376040323
 40
0.6938210001741056
 40
0.9405019146455473
 40
1.221691403489115
 40
1.30047187708101
 40
1.379252341684775
 40
1.379252341684775
 40
1.379252341684775
 40
1.379252341684775
 10
189.5681493631
 20
16.22930267330381
 30
0.0
 10
189.6296017794178
 20
16.17691646592715
 30
0.0
 10
189.7446649974115
 20
16.07882876798224
 30
0.0
 10
190.0397348497244
 20
15.92889785897223
 30
0.0
 10
189.9025147631858
 20
15.84343227515013
 30
0.0
 10
189.8041227843779
 20
15.71085785201554
 30
0.0
 10
189.7130033590651
 20
16.01616985781414
 30
0.0
 10
189.3636839480656
 20
16.07967869465374
 30
0.0
 10
189.5119258376571
 20
16.17896509880879
 30
0.0
 10
189.5494081874237
 20
16.21252348402382
 30
0.0
 10
189.5681493631
 20
16.22930267330381
 30
0.0
 11
189.5681493631
 21
16.22930267330381
 31
0.0
 11
189.7919222440597
 21
16.06341774278972
 31
0.0
 11
189.9695046306384
 21
15.89753281227564
 31
0.0
 11
189.906630812798
 21
15.83866743034592
 31
0.0
 11
189.8437569949576
 21
15.7798020484162
 31
0.0
 11
189.6688535117725
 21
15.95375677059491
 31
0.0
 11
189.4478256856141
 21
16.12757920110703
 31
0.0
 11
189.507987524357
 21
16.17844093720542
 31
0.0
 11
189.5681493631
 21
16.22930267330381
 31
0.0
  0
SPLINE
  5
AC
102
{ACAD_REACTORS
330
C9
102
}
330
48
100
AcDbEntity
  8
_U_30EC_U_30A4_U_30E4_U_30FC_1
  6
Continuous
 62
     2
100
AcDbSpline
210
0.0
220
0.0
230
1.0
 70
    11
 71
     3
 72
    75
 73
    71
 74
    69
 42
0.000000001
 43
0.0000000001
 44
0.00000001
 40
0.0
 40
0.0
 40
0.0
 40
0.0
 40
0.0342546099129691
 40
0.1245622414432346
 40
0.2522385480897518
 40
0.398599192294068
 40
0.5449598364980821
 40
0.6726361431438816
 40
0.762943774673696
 40
0.7971983935297973
 40
1.101723623449714
 40
1.408591244036663
 40
1.433332471690367
 40
1.487763172450162
 40
1.542193873081988
 40
1.566935100592536
 40
1.923523931821848
 40
2.271755704953593
 40
2.590579755100835
 40
2.858943305581064
 40
2.889120339309092
 40
2.918305855191039
 40
2.94136664553116
 40
2.996357760973051
 40
3.061992318140594
 40
3.116983433626778
 40
3.140044223997466
 40
3.411273122936359
 40
3.732441619740969
 40
3.761068217532667
 40
3.837787499630232
 40
3.948858699125869
 40
4.080541049104248
 40
4.219093782625635
 40
4.350776132722187
 40
4.461847332405521
 40
4.538566614678254
 40
4.567193212544503
 40
4.594907573998761
 40
4.6663814535573
 40
4.764111044010882
 40
4.870592538125685
 40
4.968322128642079
 40
5.039796008286793
 40
5.067510369784223
 40
5.094263603185436
 40
5.153120716668068
 40
5.211977830150511
 40
5.238731063551516
 40
5.272290535138783
 40
5.363380529444587
 40
5.497618415781293
 40
5.660621563453507
 40
5.838007341749208
 40
6.015393119910588
 40
6.178396267038185
 40
6.312634151842165
 40
6.403724143059154
 40
6.43728361267225
 40
6.464036846260866
 40
6.522893960004479
 40
6.581751071483739
 40
6.608504301590685
 40
6.637253941280832
 40
6.711397748902712
 40
6.812778057283325
 40
6.923237199249101
 40
7.024617507623745
 40
7.098761315207454
 40
7.127510946007405
 40
7.127510946007405
 40
7.127510946007405
 40
7.127510946007405
 10
188.4418622390564
 20
14.95849128473265
 30
0.0
 10
188.4418622819707
 20
14.9470731340872
 30
0.0
 10
188.4418624481129
 20
14.9055525784263
 30
0.0
 10
188.4418593081786
 20
14.82146922003772
 30
0.0
 10
188.44187882798
 20
14.70004497322329
 30
0.0
 10
188.4417912187737
 20
14.55980494047449
 30
0.0
 10
188.442111623523
 20
14.42006556794577
 30
0.0
 10
188.4411605909741
 20
14.2974503889493
 30
0.0
 10
188.4431978595967
 20
14.21587074438044
 30
0.0
 10
188.4349433178746
 20
14.06271267077697
 30
0.0
 10
188.7430797940901
 20
14.22560236054716
 30
0.0
 10
189.0350645173736
 20
14.39482938688003
 30
0.0
 10
189.0408354448707
 20
14.25973235781911
 30
0.0
 10
189.0455471719891
 20
14.21617221160445
 30
0.0
 10
189.0482535411917
 20
14.17211249350545
 30
0.0
 10
189.0672545672961
 20
14.02272590363135
 30
0.0
 10
188.6583942247302
 20
14.08681172241261
 30
0.0
 10
188.3793710348833
 20
13.97296341411016
 30
0.0
 10
188.1018081587167
 20
13.87364095811143
 30
0.0
 10
187.8099837184401
 20
13.91630687596356
 30
0.0
 10
187.7869144678659
 20
13.81321679744541
 30
0.0
 10
187.7537474383334
 20
13.7869109124447
 30
0.0
 10
187.7480653962739
 20
13.83455309036304
 30
0.0
 10
187.7284214559046
 20
13.87180336115069
 30
0.0
 10
187.7095089485623
 20
13.93007387847562
 30
0.0
 10
187.6942849867708
 20
13.97385201007805
 30
0.0
 10
187.6477246372937
 20
14.08759421046305
 30
0.0
 10
187.989089731245
 20
14.05576301120049
 30
0.0
 10
188.2679649367388
 20
14.02161435106481
 30
0.0
 10
188.2617753034907
 20
14.16913976479652
 30
0.0
 10
188.2630935452774
 20
14.24013150908833
 30
0.0
 10
188.2624831689948
 20
14.34719767958662
 30
0.0
 10
188.2625871570725
 20
14.47398529785998
 30
0.0
 10
188.2629987964055
 20
14.6084924349605
 30
0.0
 10
188.2613907841969
 20
14.73395549951185
 30
0.0
 10
188.2659902567924
 20
14.84505246719118
 30
0.0
 10
188.256418650221
 20
14.90761886800689
 30
0.0
 10
188.2704001783691
 20
14.96595388295002
 30
0.0
 10
188.2147384386704
 20
14.95289710582239
 30
0.0
 10
188.1575655197822
 20
14.961363077495
 30
0.0
 10
188.0616048925647
 20
14.95729976080637
 30
0.0
 10
187.9633767522822
 20
14.95970889852475
 30
0.0
 10
187.8672582457561
 20
14.95551600613389
 30
0.0
 10
187.8104648525812
 20
14.96429346441164
 30
0.0
 10
187.7550356873385
 20
14.95094936850123
 30
0.0
 10
187.7670679427918
 20
15.00036910959257
 30
0.0
 10
187.7592003173938
 20
15.04393988030396
 30
0.0
 10
187.766629556383
 20
15.08830469118526
 30
0.0
 10
187.7551930564144
 20
15.13902297763992
 30
0.0
 10
187.8232102370134
 20
15.12162460757743
 30
0.0
 10
187.8968496879747
 20
15.13417450237189
 30
0.0
 10
188.0325064058211
 20
15.12799677011096
 30
0.0
 10
188.1884909024526
 20
15.13029203093085
 30
0.0
 10
188.3615926358144
 20
15.1294096826253
 30
0.0
 10
188.5346942964182
 20
15.13029207142408
 30
0.0
 10
188.6906789811218
 20
15.1279966295555
 30
0.0
 10
188.8263351889797
 20
15.13417486262431
 30
0.0
 10
188.8999756705654
 20
15.12162394218335
 30
0.0
 10
188.9679914174724
 20
15.13902373012143
 30
0.0
 10
188.9565590885923
 20
15.08830130414555
 30
0.0
 10
188.9639539458297
 20
15.04397060811109
 30
0.0
 10
188.9562039912272
 20
15.00028307550196
 30
0.0
 10
188.9681203741877
 20
14.95063590098478
 30
0.0
 10
188.9108170223618
 20
14.96461411338427
 30
0.0
 10
188.8520145789773
 20
14.95539755673254
 30
0.0
 10
188.75252936332
 20
14.9595226816493
 30
0.0
 10
188.649428009835
 20
14.95822760025888
 30
0.0
 10
188.5537846354574
 20
14.95854077077641
 30
0.0
 10
188.4857467971617
 20
14.95848776697146
 30
0.0
 10
188.4514462213443
 20
14.95849051871657
 30
0.0
 10
188.4418622390564
 20
14.95849128473265
 30
0.0
 11
188.4418622390564
 21
14.95849128473265
 31
0.0
 11
188.4418622390564
 21
14.92423666587186
 31
0.0
 11
188.4418622390564
 21
14.83392903432976
 31
0.0
 11
188.4418622390564
 21
14.7062527276668
 31
0.0
 11
188.4418622390564
 21
14.5598920834434
 31
0.0
 11
188.4418622390564
 21
14.41353143922001
 31
0.0
 11
188.4418622390564
 21
14.28585513255705
 31
0.0
 11
188.4418622390564
 21
14.19554750101495
 31
0.0
 11
188.4418622390564
 21
14.16129288215416
 31
0.0
 11
188.7391932644568
 21
14.22709475713768
 31
0.0
 11
189.0384623627245
 21
14.29496038212072
 31
0.0
 11
189.0405487124976
 21
14.27030727882828
 31
0.0
 11
189.0451386819987
 21
14.2160704515849
 31
0.0
 11
189.0497286514996
 21
14.16183362434152
 31
0.0
 11
189.0518150012728
 21
14.13718052104908
 31
0.0
 11
188.705639688924
 21
14.05163370140898
 31
0.0
 11
188.3669653138838
 21
13.97060877629901
 31
0.0
 11
188.0563731516688
 21
13.89862764024929
 31
0.0
 11
187.7944444777956
 21
13.84021218778992
 31
0.0
 11
187.7817515029293
 21
13.81283442738013
 31
0.0
 11
187.7569794787514
 21
13.79740260446735
 31
0.0
 11
187.7491867589502
 21
13.81910683390636
 31
0.0
 11
187.7306041194242
 21
13.87086307333786
 31
0.0
 11
187.7084248399901
 21
13.93263664943351
 31
0.0
 11
187.6898422004641
 21
13.984392888865
 31
0.0
 11
187.6820494806629
 21
14.00609711830401
 31
0.0
 11
187.9482776335932
 21
14.05794001759665
 31
0.0
 11
188.2626334936289
 21
14.1237396877191
 31
0.0
 11
188.2626334936289
 21
14.15236628569624
 31
0.0
 11
188.2626334936289
 21
14.22908556827499
 31
0.0
 11
188.2626334936289
 21
14.34015676842631
 31
0.0
 11
188.2626334936289
 21
14.47183911912118
 31
0.0
 11
188.2626334936289
 21
14.61039185333057
 31
0.0
 11
188.2626334936289
 21
14.74207420402543
 31
0.0
 11
188.2626334936289
 21
14.85314540417675
 31
0.0
 11
188.2626334936289
 21
14.9298646867555
 31
0.0
 11
188.2626334936289
 21
14.95849128473265
 31
0.0
 11
188.2349191321108
 21
14.95849128473265
 31
0.0
 11
188.1634452524063
 21
14.95849128473265
 31
0.0
 11
188.0657156617901
 21
14.95849128473265
 31
0.0
 11
187.9592341675364
 21
14.95849128473265
 31
0.0
 11
187.8615045769201
 21
14.95849128473265
 31
0.0
 11
187.7900306972156
 21
14.95849128473265
 31
0.0
 11
187.7623163356976
 21
14.95849128473265
 31
0.0
 11
187.7623163356976
 21
14.9852445182329
 31
0.0
 11
187.7623163356976
 21
15.04410163193345
 31
0.0
 11
187.7623163356976
 21
15.10295874563399
 31
0.0
 11
187.7623163356976
 21
15.12971197913424
 31
0.0
 11
187.7958758072876
 21
15.12971197913424
 31
0.0
 11
187.8869658016031
 21
15.12971197913424
 31
0.0
 11
188.021203687963
 21
15.12971197913424
 31
0.0
 11
188.1842068356856
 21
15.12971197913424
 31
0.0
 11
188.3615926140897
 21
15.12971197913424
 31
0.0
 11
188.5389783924938
 21
15.12971197913424
 31
0.0
 11
188.7019815402165
 21
15.12971197913424
 31
0.0
 11
188.8362194265763
 21
15.12971197913424
 31
0.0
 11
188.9273094208919
 21
15.12971197913424
 31
0.0
 11
188.9608688924819
 21
15.12971197913424
 31
0.0
 11
188.9608688924819
 21
15.10295874563399
 31
0.0
 11
188.9608688924819
 21
15.04410163193344
 31
0.0
 11
188.9608688924819
 21
14.9852445182329
 31
0.0
 11
188.9608688924819
 21
14.95849128473265
 31
0.0
 11
188.9321192527878
 21
14.95849128473265
 31
0.0
 11
188.8579754451555
 21
14.95849128473265
 31
0.0
 11
188.7565951367605
 21
14.95849128473265
 31
0.0
 11
188.6461359947778
 21
14.95849128473265
 31
0.0
 11
188.5447556863828
 21
14.95849128473265
 31
0.0
 11
188.4706118787505
 21
14.95849128473265
 31
0.0
 11
188.4418622390564
 21
14.95849128473265
 31
0.0
  0
SPLINE
  5
AD
102
{ACAD_REACTORS
330
CA
102
}
330
48
100
AcDbEntity
  8
_U_30EC_U_30A4_U_30E4_U_30FC_1
  6
Continuous
 62
     2
100
AcDbSpline
210
0.0
220
0.0
230
1.0
 70
    11
 71
     3
 72
    91
 73
    87
 74
    85
 42
0.000000001
 43
0.0000000001
 44
0.00000001
 40
0.0
 40
0.0
 40
0.0
 40
0.0
 40
0.0345987051695718
 40
0.1258134969461085
 40
0.2547723404888703
 40
0.4026032099153556
 40
0.550434079341642
 40
0.6793929228835227
 40
0.7706077146570467
 40
0.8052064287780072
 40
1.124852390615188
 40
1.427402236308779
 40
1.706356627453417
 40
1.9555414178751
 40
2.169485938566245
 40
2.344350786664714
 40
2.480568411561883
 40
2.590440557428905
 40
2.64918992715101
 40
2.749320643306214
 40
2.912632739879915
 40
3.147745656000117
 40
3.244827496384922
 40
3.338490056946511
 40
3.583815413206935
 40
3.761423943238295
 40
3.886956104362446
 40
3.985855451886651
 40
4.091766255337536
 40
4.250186473811729
 40
4.422734315084373
 40
4.62828568483845
 40
4.87209322775827
 40
5.152549652145388
 40
5.464967135837364
 40
5.803201477852284
 40
6.160362988813758
 40
6.193449448275813
 40
6.284170385501468
 40
6.419718138764309
 40
6.587285046385559
 40
6.774063446723473
 40
6.967245678113428
 40
7.154024078817442
 40
7.321590987025799
 40
7.457138740890129
 40
7.547859678555866
 40
7.580946138182425
 40
7.608533084714479
 40
7.669224367077462
 40
7.729915649429688
 40
7.757502595949741
 40
7.790278062553223
 40
7.880146277430693
 40
8.014419963180128
 40
8.180411842397628
 40
8.365434637679098
 40
8.55680107162237
 40
8.741823866830455
 40
8.907815745916022
 40
9.042089431507119
 40
9.131957646249244
 40
9.16473311279682
 40
9.41542506313974
 40
9.667986180958206
 40
9.694169807462373
 40
9.756607686047332
 40
9.831130315322223
 40
9.89356819389966
 40
9.919751820398504
 40
9.950967964690335
 40
9.996421631210447
 40
10.22087981037433
 40
10.44341866197521
 40
10.47847970788833
 40
10.57091337438734
 40
10.70159545461208
 40
10.85140174170339
 40
11.00120802880456
 40
11.13189010907362
 40
11.2243237758299
 40
11.25938480938936
 40
11.28697175596125
 40
11.34766303835899
 40
11.4083543204205
 40
11.43594125892085
 40
11.43594125892085
 40
11.43594125892085
 40
11.43594125892085
 10
190.0818114333289
 20
15.55242795125076
 30
0.0
 10
190.070278584494
 20
15.55242790287914
 30
0.0
 10
190.0283409444999
 20
15.55242773704163
 30
0.0
 10
189.9434129719025
 20
15.55243125800907
 30
0.0
 10
189.8207688553129
 20
15.55240926435878
 30
0.0
 10
189.6791206916993
 20
15.55250801177053
 30
0.0
 10
189.537975369849
 20
15.55214686232419
 30
0.0
 10
189.4141351317905
 20
15.55321883609087
 30
0.0
 10
189.3317217825382
 20
15.55092249091268
 30
0.0
 10
189.1727791229694
 20
15.56048569373418
 30
0.0
 10
189.3503402353375
 20
15.19785394311369
 30
0.0
 10
189.3379739205453
 20
14.95243127723113
 30
0.0
 10
189.4064519473865
 20
14.66862501324835
 30
0.0
 10
189.469302432097
 20
14.43250999939035
 30
0.0
 10
189.5452253431729
 20
14.23326740396129
 30
0.0
 10
189.6303189577017
 20
14.07745347451372
 30
0.0
 10
189.7244607592936
 20
13.97657857781394
 30
0.0
 10
189.8282648207729
 20
13.92465852638963
 30
0.0
 10
189.9125872030774
 20
13.97606484379619
 30
0.0
 10
189.9351322179452
 20
14.09144544037517
 30
0.0
 10
189.974573097537
 20
14.21885149702379
 30
0.0
 10
189.9202919734945
 20
14.53622328086759
 30
0.0
 10
190.0451218072473
 20
14.38982180140902
 30
0.0
 10
190.2019291513604
 20
14.35795300331173
 30
0.0
 10
190.0947720007056
 20
14.12421357767627
 30
0.0
 10
190.0808711209868
 20
13.95972776583659
 30
0.0
 10
190.0234709467226
 20
13.8313086912248
 30
0.0
 10
189.9335020145008
 20
13.76018802352828
 30
0.0
 10
189.8095274657878
 20
13.74432324142253
 30
0.0
 10
189.663427319686
 20
13.77993797554172
 30
0.0
 10
189.5243894320284
 20
13.90000570500276
 30
0.0
 10
189.4102003962144
 20
14.0743568255032
 30
0.0
 10
189.3146141301486
 20
14.29946603111241
 30
0.0
 10
189.2318652572627
 20
14.56388246006441
 30
0.0
 10
189.1807179256411
 20
14.88187933098543
 30
0.0
 10
189.0770189207338
 20
15.15543728488911
 30
0.0
 10
189.204284120852
 20
15.56005818612866
 30
0.0
 10
189.0357890623018
 20
15.55112367849677
 30
0.0
 10
188.9511995787077
 20
15.55315961418362
 30
0.0
 10
188.8189876387628
 20
15.55213937388405
 30
0.0
 10
188.6560505094104
 20
15.55253230318428
 30
0.0
 10
188.4733759170533
 20
15.55235696313368
 30
0.0
 10
188.2847057373383
 20
15.55260105307468
 30
0.0
 10
188.1014469020189
 20
15.55185657906235
 30
0.0
 10
187.9404746832719
 20
15.55416360522425
 30
0.0
 10
187.8029808335276
 20
15.54799804883661
 30
0.0
 10
187.7289590372312
 20
15.5603283845821
 30
0.0
 10
187.6613215186857
 20
15.54329323723555
 30
0.0
 10
187.6732373719271
 20
15.59524438447527
 30
0.0
 10
187.6655677285694
 20
15.64071424966528
 30
0.0
 10
187.6732592225117
 20
15.68614453703706
 30
0.0
 10
187.6613141797762
 20
15.73802395984571
 30
0.0
 10
187.7283588305868
 20
15.72119143490264
 30
0.0
 10
187.8017375665677
 20
15.73335409092671
 30
0.0
 10
187.9379128305272
 20
15.72727231074959
 30
0.0
 10
188.0973811801513
 20
15.72954834315058
 30
0.0
 10
188.2789173085837
 20
15.72881233998962
 30
0.0
 10
188.4658034862179
 20
15.72905954196133
 30
0.0
 10
188.6468012316836
 20
15.72886400799254
 30
0.0
 10
188.8080802578879
 20
15.72932234714839
 30
0.0
 10
188.9393882124887
 20
15.72812673751206
 30
0.0
 10
189.0225051322597
 20
15.73051347319743
 30
0.0
 10
189.1556236547813
 20
15.72230605725463
 30
0.0
 10
189.0645893502659
 20
15.97752868952655
 30
0.0
 10
188.9789633074418
 20
16.24164358328246
 30
0.0
 10
189.0990589003455
 20
16.22904442969165
 30
0.0
 10
189.1514264948543
 20
16.22694235763075
 30
0.0
 10
189.2214497569716
 20
16.22535399889657
 30
0.0
 10
189.2671922337818
 20
16.21602567538113
 30
0.0
 10
189.3220812646933
 20
16.22545966915427
 30
0.0
 10
189.2963574785682
 20
16.17733028655173
 30
0.0
 10
189.1825397571453
 20
16.18266829744166
 30
0.0
 10
189.3159346621137
 20
15.95449174576777
 30
0.0
 10
189.194365873547
 20
15.72156856595923
 30
0.0
 10
189.3223188769413
 20
15.73087258884438
 30
0.0
 10
189.4049048406461
 20
15.7280100175468
 30
0.0
 10
189.5307214850824
 20
15.72923437412302
 30
0.0
 10
189.6741469838057
 20
15.72932431888965
 30
0.0
 10
189.8157420951728
 20
15.72746163183853
 30
0.0
 10
189.9459127249967
 20
15.73333075937163
 30
0.0
 10
190.0193452286191
 20
15.72070340823203
 30
0.0
 10
190.0891112922096
 20
15.73877563110412
 30
0.0
 10
190.0775772605396
 20
15.68612850546326
 30
0.0
 10
190.0833184346682
 20
15.64221317686546
 30
0.0
 10
190.0816615770911
 20
15.59089982676548
 30
0.0
 10
190.081775756167
 20
15.56158792021633
 30
0.0
 10
190.0818114333289
 20
15.55242795125076
 30
0.0
 11
190.0818114333289
 21
15.55242795125076
 31
0.0
 11
190.0472127192051
 21
15.55242795125076
 31
0.0
 11
189.9559979274241
 21
15.55242795125076
 31
0.0
 11
189.8270390838717
 21
15.55242795125076
 31
0.0
 11
189.6792082144336
 21
15.55242795125076
 31
0.0
 11
189.5313773449955
 21
15.55242795125076
 31
0.0
 11
189.4024185014431
 21
15.55242795125076
 31
0.0
 11
189.3112037096621
 21
15.55242795125076
 31
0.0
 11
189.2766049955383
 21
15.55242795125076
 31
0.0
 11
189.3083140497694
 21
15.2343586493012
 31
0.0
 11
189.3527866656866
 21
14.9350952278808
 31
0.0
 11
189.409238911832
 21
14.66191269512576
 31
0.0
 11
189.4768868567479
 21
14.42208605917227
 31
0.0
 11
189.5549465689762
 21
14.22289032815654
 31
0.0
 11
189.6426341170592
 21
14.07160051021477
 31
0.0
 11
189.739165569539
 21
13.97549161348317
 31
0.0
 11
189.8437569949576
 21
13.94183864609792
 31
0.0
 11
189.8943077302786
 21
13.97177376978835
 31
0.0
 11
189.9310588991552
 21
14.06491619815047
 31
0.0
 11
189.9562640977528
 21
14.22627151712055
 31
0.0
 11
189.9721769222369
 21
14.46084531263482
 31
0.0
 11
190.0494082682583
 21
14.40202182306617
 31
0.0
 11
190.1327184184385
 21
14.3592188543269
 31
0.0
 11
190.1066365811217
 21
14.1152838866101
 31
0.0
 11
190.0673317805105
 21
13.94207902887562
 31
0.0
 11
190.0105702596765
 21
13.83011272445917
 31
0.0
 11
189.932118261691
 21
13.76989341669645
 31
0.0
 11
189.8277420296256
 21
13.75192954892317
 31
0.0
 11
189.6738595065097
 21
13.78957440012361
 31
0.0
 11
189.5388902376747
 21
13.89707348877403
 31
0.0
 11
189.4221739916163
 21
14.06627361744808
 31
0.0
 11
189.32305053683
 21
14.28902158871943
 31
0.0
 11
189.2408596418113
 21
14.55716420516172
 31
0.0
 11
189.1749410750559
 21
14.86254826934859
 31
0.0
 11
189.1246346050593
 21
15.19702058385372
 31
0.0
 11
189.0892800003171
 21
15.55242795125076
 31
0.0
 11
189.0561935405844
 21
15.55242795125076
 31
0.0
 11
188.9654726026075
 21
15.55242795125076
 31
0.0
 11
188.8299248482185
 21
15.55242795125076
 31
0.0
 11
188.6623579392495
 21
15.55242795125076
 31
0.0
 11
188.4755795375324
 21
15.55242795125076
 31
0.0
 11
188.2823973048993
 21
15.55242795125076
 31
0.0
 11
188.0956189031822
 21
15.55242795125076
 31
0.0
 11
187.9280519942131
 21
15.55242795125076
 31
0.0
 11
187.7925042398242
 21
15.55242795125076
 31
0.0
 11
187.7017833018473
 21
15.55242795125076
 31
0.0
 11
187.6686968421146
 21
15.55242795125076
 31
0.0
 11
187.6686968421146
 21
15.58001489785845
 31
0.0
 11
187.6686968421146
 21
15.64070618039537
 31
0.0
 11
187.6686968421146
 21
15.70139746293229
 31
0.0
 11
187.6686968421146
 21
15.72898440953998
 31
0.0
 11
187.7014723087632
 21
15.72898440953998
 31
0.0
 11
187.7913405237674
 21
15.72898440953998
 31
0.0
 11
187.9256142097149
 21
15.72898440953998
 31
0.0
 11
188.0916060891932
 21
15.72898440953998
 31
0.0
 11
188.2766288847902
 21
15.72898440953998
 31
0.0
 11
188.4679953190932
 21
15.72898440953998
 31
0.0
 11
188.6530181146902
 21
15.72898440953998
 31
0.0
 11
188.8190099941685
 21
15.72898440953998
 31
0.0
 11
188.953283680116
 21
15.72898440953998
 31
0.0
 11
189.0431518951202
 21
15.72898440953998
 31
0.0
 11
189.0759273617688
 21
15.72898440953998
 31
0.0
 11
189.0659183950103
 21
15.97947647544958
 31
0.0
 11
189.0599112510663
 21
16.23196614552531
 31
0.0
 11
189.0860575870659
 21
16.23056921608122
 31
0.0
 11
189.1484065421419
 21
16.22723807663761
 31
0.0
 11
189.22282303691
 21
16.22326220052749
 31
0.0
 11
189.285171991986
 21
16.21993106108388
 31
0.0
 11
189.3113183279856
 21
16.21853413163979
 31
0.0
 11
189.2982931113041
 21
16.1901652861608
 31
0.0
 11
189.2551649266406
 21
16.17581274276164
 31
0.0
 11
189.2574991961822
 21
15.95136670115108
 31
0.0
 11
189.2658452735903
 21
15.72898440953998
 31
0.0
 11
189.3009063195165
 21
15.72898440953998
 31
0.0
 11
189.3933399860495
 21
15.72898440953998
 31
0.0
 11
189.5240220663201
 21
15.72898440953998
 31
0.0
 11
189.6738283534596
 21
15.72898440953998
 31
0.0
 11
189.8236346405991
 21
15.72898440953998
 31
0.0
 11
189.9543167208697
 21
15.72898440953998
 31
0.0
 11
190.0467503874027
 21
15.72898440953998
 31
0.0
 11
190.0818114333289
 21
15.72898440953998
 31
0.0
 11
190.0818114333289
 21
15.70139746293229
 31
0.0
 11
190.0818114333289
 21
15.64070618039537
 31
0.0
 11
190.0818114333289
 21
15.58001489785845
 31
0.0
 11
190.0818114333289
 21
15.55242795125076
 31
0.0
  0
SPLINE
  5
AE
102
{ACAD_REACTORS
330
CB
102
}
330
48
100
AcDbEntity
  8
_U_30EC_U_30A4_U_30E4_U_30FC_1
  6
Continuous
 62
     2
100
AcDbSpline
210
0.0
220
0.0
230
1.0
 70
    11
 71
     3
 72
   118
 73
   114
 74
   112
 42
0.000000001
 43
0.0000000001
 44
0.00000001
 40
0.0
 40
0.0
 40
0.0
 40
0.0
 40
0.1054708162973078
 40
0.2466098270051425
 40
0.3965912874590612
 40
0.528552506975337
 40
0.6156245055641596
 40
0.6431434105796923
 40
0.703685003798581
 40
0.7642265984504405
 40
0.7917455052354891
 40
0.928740431998977
 40
1.106572819087986
 40
1.287544879680941
 40
1.317578308030458
 40
1.399928030857096
 40
1.52296820479987
 40
1.675072986590492
 40
1.844616533180569
 40
2.019973001638633
 40
2.189516548879946
 40
2.341621331585284
 40
2.46466150632042
 40
2.547011229646984
 40
2.577044658167948
 40
2.603797890893047
 40
2.662655002908848
 40
2.721512114949745
 40
2.748265347702925
 40
2.774215307345001
 40
2.845959313407331
 40
2.95433855658853
 40
3.090194227585707
 40
3.244367517100671
 40
3.407699615844431
 40
3.571031714539581
 40
3.725205003920257
 40
3.861060674729757
 40
3.96943991771645
 40
4.041183923629122
 40
4.067133883213115
 40
4.311886746012283
 40
4.547897258335607
 40
4.764747083044076
 40
4.952749679951883
 40
5.045772974196012
 40
5.137862019645052
 40
5.330543169793072
 40
5.553448265244052
 40
5.795083855888228
 40
6.043293412177306
 40
6.285761695541241
 40
6.313902908752753
 40
6.384255941793342
 40
6.475714884766931
 40
6.567173827759022
 40
6.637526860839828
 40
6.665668074074191
 40
6.692018920328166
 40
6.749990782071239
 40
6.807962643790613
 40
6.834313490018087
 40
6.856393084245338
 40
6.91333519564999
 40
6.991194817302625
 40
7.076026942283829
 40
7.153886563725348
 40
7.210828674844874
 40
7.232908268931209
 40
7.25819933492373
 40
7.32487578159238
 40
7.419142481925037
 40
7.527204308841976
 40
7.635266135230554
 40
7.72953283416854
 40
7.796209279292863
 40
7.821500344594809
 40
7.844652988850908
 40
7.899863140541715
 40
7.965759128053882
 40
8.020969279771222
 40
8.044121924046689
 40
8.069356610160764
 40
8.109134395441455
 40
8.132238100191167
 40
8.193147867786532
 40
8.279261678876704
 40
8.377977512673919
 40
8.476693347146702
 40
8.562807160411756
 40
8.623716930826543
 40
8.646820636853494
 40
8.671988793774307
 40
8.73490918582819
 40
8.816705695188904
 40
8.898502204815475
 40
8.961422597377936
 40
8.986590754551049
 40
9.012941600733207
 40
9.070913462380295
 40
9.128885324081791
 40
9.155236170325114
 40
9.180404327929157
 40
9.24332472194823
 40
9.325121234211995
 40
9.40691774663765
 40
9.469838141978105
 40
9.49500628827088
 40
9.517811184379019
 40
9.572192090487015
 40
9.637098333281239
 40
9.691479239515434
 40
9.71428412564347
 40
9.71428412564347
 40
9.71428412564347
 40
9.71428412564347
 10
185.2874469028654
 20
15.2688916318772
 30
0.0
 10
185.3090990569039
 20
15.24111869242812
 30
0.0
 10
185.3597257109474
 20
15.17618054561235
 30
0.0
 10
185.4349383202592
 20
15.06891060312898
 30
0.0
 10
185.5248482274347
 20
14.95377438266625
 30
0.0
 10
185.5709169676673
 20
14.85357045748319
 30
0.0
 10
185.6655825294655
 20
14.78434006814943
 30
0.0
 10
185.6204439320412
 20
14.73771639678273
 30
0.0
 10
185.594704778579
 20
14.69660308866039
 30
0.0
 10
185.5645196708011
 20
14.66065971727938
 30
0.0
 10
185.5193684730561
 20
14.58579782596095
 30
0.0
 10
185.4710504458562
 20
14.80782524253601
 30
0.0
 10
185.3968539713073
 20
14.84510677337711
 30
0.0
 10
185.2836047324608
 20
15.11610202130599
 30
0.0
 10
185.288513357817
 20
15.00095328446228
 30
0.0
 10
185.2868486556307
 20
14.92836675781628
 30
0.0
 10
185.2876830076715
 20
14.80625588483986
 30
0.0
 10
185.2873609540265
 20
14.6591380081046
 30
0.0
 10
185.2875076912457
 20
14.49307063956557
 30
0.0
 10
185.2872950092723
 20
14.32187554608602
 30
0.0
 10
185.2879497252034
 20
14.15552828635498
 30
0.0
 10
185.285919246114
 20
14.00935173055693
 30
0.0
 10
185.2913460399931
 20
13.8847104747461
 30
0.0
 10
185.2804930868709
 20
13.81718656540626
 30
0.0
 10
185.2956739155556
 20
13.75549061417021
 30
0.0
 10
185.2457895108134
 20
13.76727503897003
 30
0.0
 10
185.2017150342521
 20
13.75943822779968
 30
0.0
 10
185.15823716302
 20
13.76760441372704
 30
0.0
 10
185.1092346786487
 20
13.75538056738468
 30
0.0
 10
185.1218731234824
 20
13.80960667249313
 30
0.0
 10
185.1130182968448
 20
13.86936918907558
 30
0.0
 10
185.1175058770312
 20
13.9792202904437
 30
0.0
 10
185.115796013599
 20
14.11029975405679
 30
0.0
 10
185.1163550915985
 20
14.26198011444328
 30
0.0
 10
185.1161928768692
 20
14.42211074929953
 30
0.0
 10
185.1162269924674
 20
14.58236865674566
 30
0.0
 10
185.1162514960125
 20
14.73370247520439
 30
0.0
 10
185.1161453543223
 20
14.86582156338601
 30
0.0
 10
185.116429914193
 20
14.97294802533193
 30
0.0
 10
185.1158675547566
 20
15.03808619579473
 30
0.0
 10
185.1180765083688
 20
15.16618957858675
 30
0.0
 10
185.0319435998601
 20
14.79097610391577
 30
0.0
 10
184.9555140818501
 20
14.63918193123392
 30
0.0
 10
184.8660040767833
 20
14.47766206446307
 30
0.0
 10
184.7640413217327
 20
14.20471848820171
 30
0.0
 10
184.7187976491039
 20
14.36717346596507
 30
0.0
 10
184.6102355941672
 20
14.45605432058124
 30
0.0
 10
184.7995791751752
 20
14.60549794961409
 30
0.0
 10
184.85653405457
 20
14.79749136974927
 30
0.0
 10
184.9717520993352
 20
15.02899622906756
 30
0.0
 10
184.9940151630134
 20
15.21797259759062
 30
0.0
 10
185.1771905152141
 20
15.49454089325929
 30
0.0
 10
185.0538033597552
 20
15.48698978832093
 30
0.0
 10
184.9925684166834
 20
15.48856772366118
 30
0.0
 10
184.9081999617064
 20
15.48882592573671
 30
0.0
 10
184.8204235085966
 20
15.48544845751205
 30
0.0
 10
184.7656768696123
 20
15.49394814982019
 30
0.0
 10
184.7104703026025
 20
15.48048561049787
 30
0.0
 10
184.7222823035536
 20
15.52931442126762
 30
0.0
 10
184.7142496151794
 20
15.57269004896708
 30
0.0
 10
184.7228186104679
 20
15.61509438309572
 30
0.0
 10
184.7102943409157
 20
15.66267796552117
 30
0.0
 10
184.7555101538735
 20
15.65267212995109
 30
0.0
 10
184.8014815562723
 20
15.65894105174061
 30
0.0
 10
184.877722204771
 20
15.65593561405872
 30
0.0
 10
184.9561296131993
 20
15.65770448278541
 30
0.0
 10
185.0323992648932
 20
15.6546479398166
 30
0.0
 10
185.0783009459473
 20
15.66103971376176
 30
0.0
 10
185.1231733965399
 20
15.65093822978896
 30
0.0
 10
185.1105552275633
 20
15.70157201581898
 30
0.0
 10
185.1191936582705
 20
15.7550126188207
 30
0.0
 10
185.1152361595441
 20
15.8486325513168
 30
0.0
 10
185.1162325068334
 20
15.95112606688924
 30
0.0
 10
185.1171927413072
 20
16.05353270248163
 30
0.0
 10
185.1133211458005
 20
16.14735929609321
 30
0.0
 10
185.1217789814363
 20
16.20036542840353
 30
0.0
 10
185.1093075932834
 20
16.25211435651189
 30
0.0
 10
185.1542106389849
 20
16.23850747226756
 30
0.0
 10
185.1955083836771
 20
16.24100480320586
 30
0.0
 10
185.259534428105
 20
16.23648060574487
 30
0.0
 10
185.2986111148786
 20
16.22781003043308
 30
0.0
 10
185.3476543498742
 20
16.23515102070687
 30
0.0
 10
185.3225080030591
 20
16.19602896051761
 30
0.0
 10
185.2815901333725
 20
16.20563842455805
 30
0.0
 10
185.2910109616604
 20
16.15540148169778
 30
0.0
 10
185.2855647318747
 20
16.1038594563949
 30
0.0
 10
185.2881699601805
 20
16.0195970758452
 30
0.0
 10
185.2870102202155
 20
15.92559135583408
 30
0.0
 10
185.2883591064232
 20
15.83196865395525
 30
0.0
 10
185.2849970101508
 20
15.74679517552223
 30
0.0
 10
185.292095991777
 20
15.69716856072044
 30
0.0
 10
185.2812569154547
 20
15.64993694969989
 30
0.0
 10
185.3304010225246
 20
15.66201674936851
 30
0.0
 10
185.3794877630148
 20
15.65447393363012
 30
0.0
 10
185.4573714280642
 20
15.65686070361432
 30
0.0
 10
185.5350365172897
 20
15.65899381905415
 30
0.0
 10
185.5845393931355
 20
15.65193391922454
 30
0.0
 10
185.634459475064
 20
15.66360151936214
 30
0.0
 10
185.6223198516881
 20
15.61540235371391
 30
0.0
 10
185.6305838229144
 20
15.57249219801235
 30
0.0
 10
185.6223198650785
 20
15.52958201851384
 30
0.0
 10
185.6344594549855
 20
15.48138288754863
 30
0.0
 10
185.5845395158747
 20
15.4930503447151
 30
0.0
 10
185.5350350651203
 20
15.48599202435044
 30
0.0
 10
185.4573784382974
 20
15.48811665228602
 30
0.0
 10
185.3794643865762
 20
15.49053389365759
 30
0.0
 10
185.3304500352717
 20
15.48291848194485
 30
0.0
 10
185.2813246108944
 20
15.49507952557591
 30
0.0
 10
185.2915559988571
 20
15.45073013424158
 30
0.0
 10
185.2856677678054
 20
15.40925436202911
 30
0.0
 10
185.287878830557
 20
15.34915394315302
 30
0.0
 10
185.2874109346147
 20
15.30225782762889
 30
0.0
 10
185.2874386992914
 20
15.27650146418197
 30
0.0
 10
185.2874469028654
 20
15.2688916318772
 30
0.0
 11
185.2874469028654
 21
15.2688916318772
 31
0.0
 11
185.3516977534485
 21
15.18524999634257
 31
0.0
 11
185.4348258835499
 21
15.07118889748221
 31
0.0
 11
185.5216831568896
 21
14.94891767195723
 31
0.0
 11
185.5971214371872
 21
14.84064565642876
 31
0.0
 11
185.6459925881626
 21
14.7685821875579
 31
0.0
 11
185.6296821285093
 21
14.74641782124399
 31
0.0
 11
185.5937991172719
 21
14.69765621535339
 31
0.0
 11
185.5579161060346
 21
14.64889460946279
 31
0.0
 11
185.5416056463812
 21
14.62673024314888
 31
0.0
 11
185.4763067109445
 21
14.74716139023813
 31
0.0
 11
185.3848434243235
 21
14.89966983670207
 31
0.0
 11
185.2874469028654
 21
15.05219788193142
 31
0.0
 11
185.2874469028654
 21
15.02216445328253
 31
0.0
 11
185.2874469028654
 21
14.93981472956783
 31
0.0
 11
185.2874469028654
 21
14.81677455413528
 31
0.0
 11
185.2874469028654
 21
14.66466977033283
 31
0.0
 11
185.2874469028654
 21
14.49512622150845
 31
0.0
 11
185.2874469028654
 21
14.31976975101009
 31
0.0
 11
185.2874469028654
 21
14.15022620218571
 31
0.0
 11
185.2874469028654
 21
13.99812141838326
 31
0.0
 11
185.2874469028654
 21
13.87508124295071
 31
0.0
 11
185.2874469028654
 21
13.79273151923601
 31
0.0
 11
185.2874469028654
 21
13.76269809058712
 31
0.0
 11
185.260693670041
 21
13.76269809058712
 31
0.0
 11
185.2018365578271
 21
13.76269809058712
 31
0.0
 11
185.1429794456133
 21
13.76269809058712
 31
0.0
 11
185.1162262127889
 21
13.76269809058712
 31
0.0
 11
185.1162262127889
 21
13.7886480503125
 31
0.0
 11
185.1162262127889
 21
13.86039205661208
 31
0.0
 11
185.1162262127889
 21
13.96877130017102
 31
0.0
 11
185.1162262127889
 21
14.10462697167447
 31
0.0
 11
185.1162262127889
 21
14.25880026180761
 31
0.0
 11
185.1162262127889
 21
14.42213236125558
 31
0.0
 11
185.1162262127889
 21
14.58546446070356
 31
0.0
 11
185.1162262127889
 21
14.7396377508367
 31
0.0
 11
185.1162262127889
 21
14.87549342234015
 31
0.0
 11
185.1162262127889
 21
14.98387266589909
 31
0.0
 11
185.1162262127889
 21
15.05561667219867
 31
0.0
 11
185.1162262127889
 21
15.08156663192405
 31
0.0
 11
185.0379865861721
 21
14.84965603302372
 31
0.0
 11
184.9497110789304
 21
14.63077616328678
 31
0.0
 11
184.8544106930045
 21
14.43598991333546
 31
0.0
 11
184.7550964303356
 21
14.27636017379201
 31
0.0
 11
184.7109198342406
 21
14.35822446196598
 31
0.0
 11
184.6588057383481
 21
14.43414885430811
 31
0.0
 11
184.7627302590299
 21
14.59640087926757
 31
0.0
 11
184.8629319864735
 21
14.79551465421781
 31
0.0
 11
184.9550446607902
 21
15.01890447916196
 31
0.0
 11
185.0347020220913
 21
15.25398465410319
 31
0.0
 11
185.0975378104881
 21
15.48816947904464
 31
0.0
 11
185.0693965972143
 21
15.48816947904464
 31
0.0
 11
184.9990435640298
 21
15.48816947904464
 31
0.0
 11
184.9075846208899
 21
15.48816947904464
 31
0.0
 11
184.81612567775
 21
15.48816947904464
 31
0.0
 11
184.7457726445654
 21
15.48816947904464
 31
0.0
 11
184.7176314312916
 21
15.48816947904464
 31
0.0
 11
184.7176314312916
 21
15.51452032539221
 31
0.0
 11
184.7176314312916
 21
15.57249218735688
 31
0.0
 11
184.7176314312916
 21
15.63046404932155
 31
0.0
 11
184.7176314312916
 21
15.65681489566912
 31
0.0
 11
184.7397110256019
 21
15.65681489566912
 31
0.0
 11
184.7966531372444
 21
15.65681489566912
 31
0.0
 11
184.8745127592862
 21
15.65681489566912
 31
0.0
 11
184.9593448847943
 21
15.65681489566912
 31
0.0
 11
185.0372045068361
 21
15.65681489566912
 31
0.0
 11
185.0941466184785
 21
15.65681489566912
 31
0.0
 11
185.1162262127889
 21
15.65681489566912
 31
0.0
 11
185.1162262127889
 21
15.68210596174353
 31
0.0
 11
185.1162262127889
 21
15.74878240866697
 31
0.0
 11
185.1162262127889
 21
15.84304910948977
 31
0.0
 11
185.1162262127889
 21
15.95111093726224
 31
0.0
 11
185.1162262127889
 21
16.05917276503471
 31
0.0
 11
185.1162262127889
 21
16.15343946585751
 31
0.0
 11
185.1162262127889
 21
16.22011591278095
 31
0.0
 11
185.1162262127889
 21
16.24540697885536
 31
0.0
 11
185.1393181988664
 21
16.243732131078
 31
0.0
 11
185.1943837041284
 21
16.23973826330122
 31
0.0
 11
185.2601070491183
 21
16.23497138885796
 31
0.0
 11
185.3151725543802
 21
16.23097752108117
 31
0.0
 11
185.3382645404578
 21
16.22930267330381
 31
0.0
 11
185.3249012644362
 21
16.20789677921191
 31
0.0
 11
185.2874469028654
 21
16.19450114553469
 31
0.0
 11
185.2874469028654
 21
16.17139743948578
 31
0.0
 11
185.2874469028654
 21
16.11048766899319
 31
0.0
 11
185.2874469028654
 21
16.02437385553816
 31
0.0
 11
185.2874469028654
 21
15.9256580206019
 31
0.0
 11
185.2874469028654
 21
15.82694218566565
 31
0.0
 11
185.2874469028654
 21
15.74082837221061
 31
0.0
 11
185.2874469028654
 21
15.67991860171803
 31
0.0
 11
185.2874469028654
 21
15.65681489566912
 31
0.0
 11
185.312615060481
 21
15.65681489566912
 31
0.0
 11
185.37553545452
 21
15.65681489566912
 31
0.0
 11
185.4573319667707
 21
15.65681489566912
 31
0.0
 11
185.5391284790213
 21
15.65681489566912
 31
0.0
 11
185.6020488730603
 21
15.65681489566912
 31
0.0
 11
185.6272170306759
 21
15.65681489566912
 31
0.0
 11
185.6272170306759
 21
15.63046404932154
 31
0.0
 11
185.6272170306759
 21
15.57249218735688
 31
0.0
 11
185.6272170306759
 21
15.51452032539222
 31
0.0
 11
185.6272170306759
 21
15.48816947904464
 31
0.0
 11
185.6020488730603
 21
15.48816947904464
 31
0.0
 11
185.5391284790213
 21
15.48816947904464
 31
0.0
 11
185.4573319667707
 21
15.48816947904464
 31
0.0
 11
185.37553545452
 21
15.48816947904464
 31
0.0
 11
185.312615060481
 21
15.48816947904464
 31
0.0
 11
185.2874469028654
 21
15.48816947904464
 31
0.0
 11
185.2874469028654
 21
15.46536458293923
 31
0.0
 11
185.2874469028654
 21
15.4109836768417
 31
0.0
 11
185.2874469028654
 21
15.34607743408014
 31
0.0
 11
185.2874469028654
 21
15.29169652798261
 31
0.0
 11
185.2874469028654
 21
15.2688916318772
 31
0.0
  0
SPLINE
  5
AF
102
{ACAD_REACTORS
330
CC
102
}
330
48
100
AcDbEntity
  8
_U_30EC_U_30A4_U_30E4_U_30FC_1
  6
Continuous
 62
     2
100
AcDbSpline
210
0.0
220
0.0
230
1.0
 70
    11
 71
     3
 72
    47
 73
    43
 74
    41
 42
0.000000001
 43
0.0000000001
 44
0.00000001
 40
0.0
 40
0.0
 40
0.0
 40
0.0
 40
0.2207912809957213
 40
0.4459404186303079
 40
0.4902387190459856
 40
0.5327473892721959
 40
0.5742260451226137
 40
0.6155432630561714
 40
0.65681640663172
 40
0.6982511618781562
 40
0.7407663929318066
 40
0.7851366743176126
 40
1.010288833836412
 40
1.231080507002262
 40
1.45176524365249
 40
1.676638205891775
 40
1.720461045359744
 40
1.830018144043609
 40
1.97244237235324
 40
2.11486660067761
 40
2.224423699395234
 40
2.268246538883476
 40
2.493628801207304
 40
2.715602830286706
 40
2.934211330706466
 40
3.149502369855461
 40
3.231387784851023
 40
3.318231873854143
 40
3.405143198198074
 40
3.486970301720653
 40
3.702258172494103
 40
3.920866283534339
 40
4.142839325932133
 40
4.368221903865593
 40
4.412044743360073
 40
4.521601842096088
 40
4.664026070452569
 40
4.806450298809277
 40
4.916007397546969
 40
4.959830237043293
 40
5.184703515847324
 40
5.405387250767702
 40
5.405387250767702
 40
5.405387250767702
 40
5.405387250767702
 10
182.6507427258645
 20
15.73406440953872
 30
0.0
 10
182.6568139420003
 20
15.79758482501211
 30
0.0
 10
182.6690762107243
 20
15.92587938689628
 30
0.0
 10
182.5604706879411
 20
16.20166220174075
 30
0.0
 10
182.6761985896603
 20
16.17188133432055
 30
0.0
 10
182.7171842509015
 20
16.1676555626282
 30
0.0
 10
182.7591205797518
 20
16.16310446389607
 30
0.0
 10
182.800419662571
 20
16.16201982929485
 30
0.0
 10
182.8417032115556
 20
16.16310338195227
 30
0.0
 10
182.8836148270647
 20
16.16766112711344
 30
0.0
 10
182.9245983549019
 20
16.17187430209728
 30
0.0
 10
183.0404922843488
 20
16.20177611317534
 30
0.0
 10
182.9295652727457
 20
15.92339806609889
 30
0.0
 10
182.9574856365266
 20
15.74283140824953
 30
0.0
 10
182.940426734697
 20
15.50961042346471
 30
0.0
 10
182.9414637282103
 20
15.34906622543146
 30
0.0
 10
182.9414099399404
 20
15.22284817558722
 30
0.0
 10
182.9414277372481
 20
15.12428963336241
 30
0.0
 10
182.941418858108
 20
14.99280702442963
 30
0.0
 10
182.9414263928033
 20
14.8613284496865
 30
0.0
 10
182.9414129405129
 20
14.7627622269409
 30
0.0
 10
182.9414531717492
 20
14.63639735624152
 30
0.0
 10
182.9406746403818
 20
14.4748206882287
 30
0.0
 10
182.9565958319267
 20
14.24361821892914
 30
0.0
 10
182.9333468885408
 20
14.05874351972003
 30
0.0
 10
183.0360183444367
 20
13.78935602770055
 30
0.0
 10
182.8820238362836
 20
13.82660112685818
 30
0.0
 10
182.8004129802833
 20
13.82137994680535
 30
0.0
 10
182.7188192292583
 20
13.82660620378351
 30
0.0
 10
182.5648513666842
 20
13.7893706988538
 30
0.0
 10
182.6674183421918
 20
14.05875129862878
 30
0.0
 10
182.6442045316087
 20
14.24361585325415
 30
0.0
 10
182.6600444655139
 20
14.47482218565638
 30
0.0
 10
182.6593296313428
 20
14.63639712308503
 30
0.0
 10
182.6593664569907
 20
14.76276231210521
 30
0.0
 10
182.6593549000271
 20
14.86132756635981
 30
0.0
 10
182.6593575019214
 20
14.9928112741722
 30
0.0
 10
182.659364853178
 20
15.124275480312
 30
0.0
 10
182.6593442541352
 20
15.22287786275325
 30
0.0
 10
182.6594082192029
 20
15.34896149354427
 30
0.0
 10
182.658173394759
 20
15.51210091383771
 30
0.0
 10
182.6532040396745
 20
15.66054183777549
 30
0.0
 10
182.6507427258645
 20
15.73406440953872
 30
0.0
 11
182.6507427258645
 21
15.73406440953872
 31
0.0
 11
182.6417328200379
 21
15.95467178795577
 31
0.0
 11
182.6318769706145
 21
16.17960510387179
 31
0.0
 11
182.6756985840801
 21
16.17312391463728
 31
0.0
 11
182.7178400934214
 21
16.16754892331925
 31
0.0
 11
182.759137140979
 21
16.16367167505631
 31
0.0
 11
182.8004341885365
 21
16.16238072887607
 31
0.0
 11
182.8416871388731
 21
16.16367167505631
 31
0.0
 11
182.8829400892097
 21
16.16754892331925
 31
0.0
 11
182.9250882131343
 21
16.17312391463728
 31
0.0
 11
182.9689825870145
 21
16.17960510387179
 31
0.0
 11
182.9590577693891
 21
15.95467178795577
 31
0.0
 11
182.950038420831
 21
15.73406440953872
 31
0.0
 11
182.9435638463435
 21
15.51347467001054
 31
0.0
 11
182.9414218238286
 21
15.28861190965007
 31
0.0
 11
182.9414218238286
 21
15.24478907015486
 31
0.0
 11
182.9414218238286
 21
15.13523197141682
 31
0.0
 11
182.9414218238286
 21
14.99280774305737
 31
0.0
 11
182.9414218238286
 21
14.85038351469792
 31
0.0
 11
182.9414218238286
 21
14.74082641595989
 31
0.0
 11
182.9414218238286
 21
14.69700357646467
 31
0.0
 11
182.9435638463435
 21
14.47163149318767
 31
0.0
 11
182.950038420831
 21
14.2497519099098
 31
0.0
 11
182.9590577693892
 21
14.03132954885329
 31
0.0
 11
182.9689825870145
 21
13.81626739612926
 31
0.0
 11
182.8872616168771
 21
13.82145433189186
 31
0.0
 11
182.8004341885365
 21
13.82315538223863
 31
0.0
 11
182.713539511934
 21
13.82145433189186
 31
0.0
 11
182.6318769706145
 21
13.81626739612926
 31
0.0
 11
182.6417328200379
 21
14.03132954885329
 31
0.0
 11
182.6507427258645
 21
14.2497519099098
 31
0.0
 11
182.6571833838798
 21
14.47163149318766
 31
0.0
 11
182.6593583588024
 21
14.69700357646467
 31
0.0
 11
182.6593583588024
 21
14.74082641595988
 31
0.0
 11
182.6593583588024
 21
14.85038351469792
 31
0.0
 11
182.6593583588024
 21
14.99280774305737
 31
0.0
 11
182.6593583588024
 21
15.13523197141682
 31
0.0
 11
182.6593583588024
 21
15.24478907015486
 31
0.0
 11
182.6593583588024
 21
15.28861190965007
 31
0.0
 11
182.6571833838798
 21
15.51347467001054
 31
0.0
 11
182.6507427258645
 21
15.73406440953872
 31
0.0
  0
SPLINE
  5
B0
102
{ACAD_REACTORS
330
CD
102
}
330
48
100
AcDbEntity
  8
_U_30EC_U_30A4_U_30E4_U_30FC_1
  6
Continuous
 62
     2
100
AcDbSpline
210
0.0
220
0.0
230
1.0
 70
    11
 71
     3
 72
   110
 73
   106
 74
   104
 42
0.000000001
 43
0.0000000001
 44
0.00000001
 40
0.0
 40
0.0
 40
0.0
 40
0.0
 40
0.2203406257277714
 40
0.4407808782838055
 40
0.5952494494615033
 40
0.7488431659393036
 40
0.9023581831308168
 40
1.056801968670401
 40
1.210736449099873
 40
1.363041386539694
 40
1.515315729683037
 40
1.669377239147988
 40
1.721611652756458
 40
1.773199502942843
 40
1.824933793209889
 40
1.877110426487852
 40
1.982682281206587
 40
2.07878166708731
 40
2.172809640822145
 40
2.271937807378714
 40
2.378349933379107
 40
2.494131557736381
 40
2.626681683943486
 40
2.783145050795857
 40
2.890701232940711
 40
2.993130312454602
 40
3.099869730691595
 40
3.220237816691088
 40
3.352695482737377
 40
3.481732806389628
 40
3.593499473690159
 40
3.674323013331673
 40
3.817951711952651
 40
3.94616712079362
 40
4.061405053453277
 40
4.166480796002946
 40
4.262478775059041
 40
4.350736673550855
 40
4.433071991253826
 40
4.511216293814428
 40
4.564262454117754
 40
4.618474415571364
 40
4.670128488753967
 40
4.722296879126166
 40
4.819540945314035
 40
4.931194984127892
 40
5.049996040257477
 40
5.168643755414966
 40
5.283970811762263
 40
5.392260784910117
 40
5.486512254876192
 40
5.559178233949591
 40
5.591425852853248
 40
5.626215969637624
 40
5.667155838674168
 40
5.717449290213977
 40
5.738402360944591
 40
5.784499116553561
 40
5.830595872164534
 40
5.851548942897392
 40
5.873019280661507
 40
5.924217778408049
 40
5.985325662817428
 40
6.036524160567445
 40
6.057994498333973
 40
6.236847789607222
 40
6.381409928945398
 40
6.493190424178429
 40
6.57406753423024
 40
6.691018086205277
 40
6.814881554220053
 40
6.944307823240176
 40
7.071266716065743
 40
7.193488604461588
 40
7.309042773127815
 40
7.414007203170497
 40
7.505140441886281
 40
7.531150360599458
 40
7.559221645322044
 40
7.587202218920705
 40
7.612569159498916
 40
7.662550809480789
 40
7.702878875763949
 40
7.857328205230848
 40
8.01079956808858
 40
8.165256399657473
 40
8.32223269871367
 40
8.479564855016413
 40
8.635216230290673
 40
8.790882550925563
 40
8.948305154947072
 40
9.168271839032762
 40
9.387358980987031
 40
9.608047961033279
 40
9.832914234792483
 40
9.858338694962818
 40
9.925366817229826
 40
10.02013071422741
 40
10.1287624985898
 40
10.2373942829523
 40
10.33215817995172
 40
10.39918630222375
 40
10.42461076239764
 40
10.64992019336924
 40
10.87188524531169
 40
10.87188524531169
 40
10.87188524531169
 40
10.87188524531169
 10
179.9057788376618
 20
15.7392326039819
 30
0.0
 10
179.9092864933542
 20
15.80616462073804
 30
0.0
 10
179.9163033987663
 20
15.94005891915858
 30
0.0
 10
179.8198027599073
 20
16.2254855497147
 30
0.0
 10
180.051013472611
 20
16.16284386190284
 30
0.0
 10
180.1919290057156
 20
16.17001554055992
 30
0.0
 10
180.3490417757589
 20
16.16235883078244
 30
0.0
 10
180.5025913427287
 20
16.1625275228304
 30
0.0
 10
180.6545104935082
 20
16.16182040535432
 30
0.0
 10
180.814221481323
 20
16.17210158351639
 30
0.0
 10
180.9408972601119
 20
16.1549651108075
 30
0.0
 10
181.1370821122078
 20
16.22727260107148
 30
0.0
 10
181.103439527908
 20
16.12640699080116
 30
0.0
 10
181.1052011317184
 20
16.0761925394767
 30
0.0
 10
181.1027342073459
 20
16.02712335586467
 30
0.0
 10
181.134707696601
 20
15.94063490847
 30
0.0
 10
181.0010399903257
 20
15.98997438608335
 30
0.0
 10
180.9172208688057
 20
15.98430634314168
 30
0.0
 10
180.8173861139325
 20
15.99465516706297
 30
0.0
 10
180.7186576720146
 20
16.00086450411087
 30
0.0
 10
180.6121532771112
 20
16.00697763816778
 30
0.0
 10
180.4910511698059
 20
16.01588883484585
 30
0.0
 10
180.3703381502454
 20
16.00521605912384
 30
0.0
 10
180.1812553843438
 20
16.06468503080365
 30
0.0
 10
180.2129028505311
 20
15.9055832007754
 30
0.0
 10
180.1995563316836
 20
15.80839128339905
 30
0.0
 10
180.1974958426449
 20
15.69634065110103
 30
0.0
 10
180.195818804467
 20
15.5769968562935
 30
0.0
 10
180.1973336794234
 20
15.4503259215511
 30
0.0
 10
180.1956582478669
 20
15.32301588016117
 30
0.0
 10
180.2058844271659
 20
15.22451566404464
 30
0.0
 10
180.1779006596582
 20
15.08388702625629
 30
0.0
 10
180.3508029999305
 20
15.13989551134095
 30
0.0
 10
180.4645020202772
 20
15.12719951478497
 30
0.0
 10
180.5840151672239
 20
15.13448377051255
 30
0.0
 10
180.6888491425072
 20
15.13878017056755
 30
0.0
 10
180.7843084898611
 20
15.14330568258976
 30
0.0
 10
180.8763823507032
 20
15.15149201146201
 30
0.0
 10
180.9476551782438
 20
15.14643850638109
 30
0.0
 10
181.0544931705685
 20
15.18536425031673
 30
0.0
 10
181.0226603598035
 20
15.1051712200588
 30
0.0
 10
181.026616450393
 20
15.05562936846033
 30
0.0
 10
181.0234502392013
 20
15.0055747803982
 30
0.0
 10
181.0550791490584
 20
14.92128847612022
 30
0.0
 10
180.9210133677692
 20
14.97425365495158
 30
0.0
 10
180.82923227932
 20
14.96540080890441
 30
0.0
 10
180.7079729189604
 20
14.97570049965155
 30
0.0
 10
180.5914113119772
 20
14.97748911767502
 30
0.0
 10
180.478337574588
 20
14.97787017109695
 30
0.0
 10
180.3679246308471
 20
14.98415449472177
 30
0.0
 10
180.2898124067841
 20
14.97189133255364
 30
0.0
 10
180.1913625833644
 20
15.00453887616125
 30
0.0
 10
180.2012355173561
 20
14.94769748054206
 30
0.0
 10
180.1973923244402
 20
14.91392130557984
 30
0.0
 10
180.1966789884268
 20
14.87119604709411
 30
0.0
 10
180.1963369642975
 20
14.83401607262154
 30
0.0
 10
180.1963834255345
 20
14.7948723737077
 30
0.0
 10
180.1963649429927
 20
14.75716849497686
 30
0.0
 10
180.1963703431806
 20
14.71944955232402
 30
0.0
 10
180.1963697214201
 20
14.6899432474515
 30
0.0
 10
180.1963698151545
 20
14.65873577699301
 30
0.0
 10
180.1963704287921
 20
14.61414424908085
 30
0.0
 10
180.1963671499336
 20
14.5596395650885
 30
0.0
 10
180.1963759623481
 20
14.51505540201448
 30
0.0
 10
180.1963359653417
 20
14.4311780858574
 30
0.0
 10
180.1976024270256
 20
14.31737520677678
 30
0.0
 10
180.1950274117841
 20
14.16830395933709
 30
0.0
 10
180.206500938172
 20
14.06597203813905
 30
0.0
 10
180.1823506222264
 20
13.93338903885835
 30
0.0
 10
180.3332993946476
 20
13.97895732272019
 30
0.0
 10
180.4428436671556
 20
13.96427012162349
 30
0.0
 10
180.5733970473919
 20
13.96920435125061
 30
0.0
 10
180.6990312209514
 20
13.97257705323363
 30
0.0
 10
180.8188730625601
 20
13.97711497498773
 30
0.0
 10
180.9391362611426
 20
13.99048536182005
 30
0.0
 10
181.0222761663515
 20
13.98068712782595
 30
0.0
 10
181.1456080421076
 20
14.04126214623318
 30
0.0
 10
181.1244269203956
 20
13.98532460134022
 30
0.0
 10
181.1235950270117
 20
13.95939249372346
 30
0.0
 10
181.1218963707557
 20
13.93197256190938
 30
0.0
 10
181.121797488883
 20
13.89738195206385
 30
0.0
 10
181.1203659301329
 20
13.86050408220766
 30
0.0
 10
181.1532804192192
 20
13.76846841021805
 30
0.0
 10
180.9551306988107
 20
13.84132015974832
 30
0.0
 10
180.830054829489
 20
13.81825726508607
 30
0.0
 10
180.6673071295156
 20
13.82454021985786
 30
0.0
 10
180.5129366450001
 20
13.82260943909926
 30
0.0
 10
180.3566670436944
 20
13.82393762599269
 30
0.0
 10
180.1970544465281
 20
13.82059872487862
 30
0.0
 10
180.0540326342237
 20
13.83265795728241
 30
0.0
 10
179.8197144881629
 20
13.76952001976918
 30
0.0
 10
179.9173810751197
 20
14.05620527466317
 30
0.0
 10
179.9006868780059
 20
14.24988308142659
 30
0.0
 10
179.9146296709684
 20
14.47848242880294
 30
0.0
 10
179.9142987846632
 20
14.63384593955048
 30
0.0
 10
179.9143078119264
 20
14.73966336444126
 30
0.0
 10
179.9143055876316
 20
14.80205784124214
 30
0.0
 10
179.9143065551888
 20
14.89220425248327
 30
0.0
 10
179.9143065473261
 20
14.99621167157438
 30
0.0
 10
179.9143053861102
 20
15.10022131375296
 30
0.0
 10
179.9143090971502
 20
15.19036243688768
 30
0.0
 10
179.9143011051051
 20
15.25276803097215
 30
0.0
 10
179.9143334275018
 20
15.35868835961119
 30
0.0
 10
179.9131440788319
 20
15.5162671654474
 30
0.0
 10
179.9082216489256
 20
15.66528219822065
 30
0.0
 10
179.9057788376618
 20
15.7392326039819
 30
0.0
 11
179.9057788376618
 21
15.7392326039819
 31
0.0
 11
179.8966918223741
 21
15.95938578101018
 31
0.0
 11
179.8868249573134
 21
16.17960510387179
 31
0.0
 11
180.0411575141401
 21
16.17312391463728
 31
0.0
 11
180.1946500189047
 21
16.16754892331925
 31
0.0
 11
180.3481160653366
 21
16.16367167505631
 31
0.0
 11
180.502554455494
 21
16.16238072887607
 31
0.0
 11
180.6564835227474
 21
16.16367167505631
 31
0.0
 11
180.80873910046
 21
16.16754892331925
 31
0.0
 11
180.9609113551074
 21
16.17312391463728
 31
0.0
 11
181.1148364762483
 21
16.17960510387179
 31
0.0
 11
181.1070811703125
 21
16.12794961777358
 31
0.0
 11
181.1044991623592
 21
16.07642642334204
 31
0.0
 11
181.1070811703124
 21
16.0247566056466
 31
0.0
 11
181.1148364762483
 21
15.97315954836785
 31
0.0
 11
181.0094874054411
 21
15.98001446156058
 31
0.0
 11
180.9136375700061
 21
15.98693552058657
 31
0.0
 11
180.8198593171903
 21
15.99378381919598
 31
0.0
 11
180.7209679915882
 21
16.0006321178054
 31
0.0
 11
180.6147532199925
 21
16.00710999974824
 31
0.0
 11
180.4991060528038
 21
16.01268829835794
 31
0.0
 11
180.3666126447258
 21
16.01656554662088
 31
0.0
 11
180.2101546018424
 21
16.01785649280112
 31
0.0
 11
180.2062663293722
 21
15.91037061609187
 31
0.0
 11
180.2015380048401
 21
15.80805072896465
 31
0.0
 11
180.1976607566749
 21
15.70138175329687
 31
0.0
 11
180.1963698105272
 21
15.5810205901325
 31
0.0
 11
180.1967799146836
 21
15.44856355891565
 31
0.0
 11
180.1980896021502
 21
15.31953288186455
 31
0.0
 11
180.199407457705
 21
15.20777398432308
 31
0.0
 11
180.199819115366
 21
15.12695149302384
 31
0.0
 11
180.3434452935875
 21
15.1278025694125
 31
0.0
 11
180.4716343930758
 21
15.13039989580076
 31
0.0
 11
180.5868078221795
 21
15.13425509545254
 31
0.0
 11
180.691775631222
 21
15.13901649302076
 31
0.0
 11
180.7876346289422
 21
15.14418027774175
 31
0.0
 11
180.8757413374192
 21
15.14934406246267
 31
0.0
 11
180.9578881438496
 21
15.15491243919739
 31
0.0
 11
181.0357692335571
 21
15.16132086801524
 31
0.0
 11
181.0280180445185
 21
15.10884407115336
 31
0.0
 11
181.0254328449317
 21
15.05469378470858
 31
0.0
 11
181.0280180445186
 21
15.00310444444367
 31
0.0
 11
181.0357692335571
 21
14.95151510417882
 31
0.0
 11
180.9389813454014
 21
14.96092324653757
 31
0.0
 11
180.8275950722015
 21
14.96865128473012
 31
0.0
 11
180.7089261429373
 21
14.97425273438145
 31
0.0
 11
180.5903167449214
 21
14.97726788195011
 31
0.0
 11
180.4750025117521
 21
14.97898767361638
 31
0.0
 11
180.36672619507
 21
14.98070746528256
 31
0.0
 11
180.2724839317708
 21
14.98202486979616
 31
0.0
 11
180.199819115366
 21
14.98243607639328
 31
0.0
 11
180.199407457705
 21
14.95019108508191
 31
0.0
 11
180.1980896021502
 21
14.91542593752118
 31
0.0
 11
180.1967799146836
 21
14.87450702260085
 31
0.0
 11
180.1963698105272
 21
14.82421524309952
 31
0.0
 11
180.1963698105272
 21
14.80326217235822
 31
0.0
 11
180.1963698105272
 21
14.75716541672736
 31
0.0
 11
180.1963698105272
 21
14.71106866109651
 31
0.0
 11
180.1963698105272
 21
14.69011559035521
 31
0.0
 11
180.1963698105272
 21
14.6686452525828
 31
0.0
 11
180.1963698105272
 21
14.61744675481784
 31
0.0
 11
180.1963698105272
 21
14.55633887038868
 31
0.0
 11
180.1963698105272
 21
14.50514037262371
 31
0.0
 11
180.1963698105272
 21
14.4836700348513
 31
0.0
 11
180.1967799146836
 21
14.30481721371548
 31
0.0
 11
180.1980896021502
 21
14.16026100715442
 31
0.0
 11
180.2002868589709
 21
14.04850210961289
 31
0.0
 11
180.2032586986986
 21
13.96767961831365
 31
0.0
 11
180.3202092517448
 21
13.96767961831365
 31
0.0
 11
180.4440727208745
 21
13.96767961831365
 31
0.0
 11
180.5734925526423
 21
13.96897056449389
 31
0.0
 11
180.7003922282244
 21
13.97284781275683
 31
0.0
 11
180.8224658067973
 21
13.97886708358865
 31
0.0
 11
180.9377587499463
 21
13.98663260442002
 31
0.0
 11
181.0421754573519
 21
13.99734161483402
 31
0.0
 11
181.1320599255449
 21
14.01237656274692
 31
0.0
 11
181.1264254031191
 21
13.98698427976715
 31
0.0
 11
181.1234433285423
 21
13.95907184053802
 31
0.0
 11
181.1221339881199
 21
13.93112191867002
 31
0.0
 11
181.1217235369195
 21
13.90575829888472
 31
0.0
 11
181.1243087365064
 21
13.85584355063326
 31
0.0
 11
181.1320599255449
 21
13.81626739612926
 31
0.0
 11
180.9776977178344
 21
13.82145433189186
 31
0.0
 11
180.8242357818764
 21
13.82315538223863
 31
0.0
 11
180.6697789496483
 21
13.82315538223863
 31
0.0
 11
180.5128026496769
 21
13.82315538223863
 31
0.0
 11
180.3554704921537
 21
13.82315538223863
 31
0.0
 11
180.199819115366
 21
13.82315538223863
 31
0.0
 11
180.0441620874242
 21
13.82145433189186
 31
0.0
 11
179.8868249573134
 21
13.81626739612926
 31
0.0
 11
179.896691822374
 21
14.03601267385209
 31
0.0
 11
179.9057788376618
 21
14.2549112849085
 31
0.0
 11
179.91217215184
 21
14.47550763902002
 31
0.0
 11
179.9143063455009
 21
14.70036378479715
 31
0.0
 11
179.9143063455009
 21
14.72578824496874
 31
0.0
 11
179.9143063455009
 21
14.79281636723931
 31
0.0
 11
179.9143063455009
 21
14.88758026424253
 31
0.0
 11
179.9143063455009
 21
14.99621204861207
 31
0.0
 11
179.9143063455009
 21
15.10484383298162
 31
0.0
 11
179.9143063455009
 21
15.19960772998484
 31
0.0
 11
179.9143063455009
 21
15.2666358522554
 31
0.0
 11
179.9143063455009
 21
15.292060312427
 31
0.0
 11
179.91217215184
 21
15.51735963528735
 31
0.0
 11
179.9057788376618
 21
15.7392326039819
 31
0.0
  0
SPLINE
  5
B1
102
{ACAD_REACTORS
330
CE
102
}
330
48
100
AcDbEntity
  8
_U_30EC_U_30A4_U_30E4_U_30FC_1
  6
Continuous
 62
     2
100
AcDbSpline
210
0.0
220
0.0
230
1.0
 70
    11
 71
     3
 72
    95
 73
    91
 74
    89
 42
0.000000001
 43
0.0000000001
 44
0.00000001
 40
0.0
 40
0.0
 40
0.0
 40
0.0
 40
0.6550406656911287
 40
1.308087289031932
 40
1.420803739835803
 40
1.566130759770794
 40
1.757067341888467
 40
2.006513545026474
 40
2.087328263121562
 40
2.185328872295635
 40
2.29461245474837
 40
2.408936380534819
 40
2.526802767798567
 40
2.646360524615615
 40
2.762535723971587
 40
2.870057342870157
 40
2.966883448431652
 40
3.050803243518303
 40
3.115818222436612
 40
3.156030057150267
 40
3.213914225080255
 40
3.276689026450656
 40
3.342960320981376
 40
3.404230667150598
 40
3.453822809493411
 40
3.532499827188452
 40
3.634775188507204
 40
3.754909333008198
 40
3.889736761660699
 40
4.035769602175262
 40
4.187256681197649
 40
4.338733685675998
 40
4.488478734676163
 40
4.634708317831625
 40
4.771493189921312
 40
4.89268657156125
 40
5.199775528944486
 40
5.460353566929676
 40
5.667603142345552
 40
5.814722905404533
 40
5.828990806219831
 40
5.855488336304528
 40
5.86975623711886
 40
6.189796507762884
 40
6.531890469873118
 40
6.883053637017085
 40
7.230512024911459
 40
7.566966656764624
 40
7.885203559707393
 40
8.172887439719236
 40
8.418011594062808
 40
8.44392672119073
 40
8.510760470613217
 40
8.602145393795727
 40
8.701714041647168
 40
8.793098965075398
 40
8.85993271505797
 40
8.88584784260362
 40
9.242301256612839
 40
9.58927545501679
 40
9.921808543164198
 40
10.2347962429847
 40
10.29968150889172
 40
10.35323493887749
 40
10.40154625355136
 40
10.46482922477826
 40
10.55973900668407
 40
10.69239545985619
 40
10.84920353475673
 40
11.01626328594781
 40
11.18672024367445
 40
11.35372582577213
 40
11.50257442292428
 40
11.61866495023293
 40
11.71329869152877
 40
11.82511050573909
 40
11.94464880845718
 40
12.06929242642508
 40
12.19707290435178
 40
12.3256263286053
 40
12.45034565331281
 40
12.56646595170329
 40
12.67099007414637
 40
12.76077625936784
 40
12.82703233506696
 40
12.87429132785995
 40
12.89831990323334
 40
12.92234847860023
 40
13.53984767410328
 40
14.18294284359374
 40
14.18294284359374
 40
14.18294284359374
 40
14.18294284359374
 10
177.3067935648021
 20
14.70898038201725
 30
0.0
 10
177.175201975855
 20
14.82265058603233
 30
0.0
 10
176.9124193802729
 20
15.04964496316159
 30
0.0
 10
176.399739344102
 20
15.89214462956289
 30
0.0
 10
176.4106654595362
 20
15.53423377577019
 30
0.0
 10
176.4041226527989
 20
15.39267392272134
 30
0.0
 10
176.4028026631772
 20
15.1942130529928
 30
0.0
 10
176.4018117602537
 20
15.02150296045982
 30
0.0
 10
176.4024101751974
 20
14.87865373257579
 30
0.0
 10
176.4038994301882
 20
14.78265005413358
 30
0.0
 10
176.4055683588472
 20
14.67545503263141
 30
0.0
 10
176.4071934954616
 20
14.56164211517581
 30
0.0
 10
176.4092429501686
 20
14.44441572604589
 30
0.0
 10
176.4123165501926
 20
14.32656411232969
 30
0.0
 10
176.4156339697045
 20
14.21228087320621
 30
0.0
 10
176.419360534028
 20
14.10521401867277
 30
0.0
 10
176.4217338161424
 20
14.01007408766921
 30
0.0
 10
176.4278718888358
 20
13.92558557205696
 30
0.0
 10
176.4239784495945
 20
13.8692308729814
 30
0.0
 10
176.4455230443079
 20
13.79825022472352
 30
0.0
 10
176.3680940058618
 20
13.82902677604484
 30
0.0
 10
176.3116353240191
 20
13.82011242517614
 30
0.0
 10
176.2540495896808
 20
13.82896218398276
 30
0.0
 10
176.1690163478473
 20
13.79738225225943
 30
0.0
 10
176.2009714146382
 20
13.8809515599219
 30
0.0
 10
176.1990705282539
 20
13.94882608968309
 30
0.0
 10
176.21079600473
 20
14.05233256764418
 30
0.0
 10
176.2164241053
 20
14.17002125616695
 30
0.0
 10
176.2237902178941
 20
14.30388609164423
 30
0.0
 10
176.232075970161
 20
14.44764152872632
 30
0.0
 10
176.2398851897428
 20
14.59714022843445
 30
0.0
 10
176.2457571222658
 20
14.74792549402078
 30
0.0
 10
176.2503667817969
 20
14.89699943878438
 30
0.0
 10
176.2542632117542
 20
15.04122913163023
 30
0.0
 10
176.2570715126564
 20
15.17583905213017
 30
0.0
 10
176.2576698755023
 20
15.36469614347354
 30
0.0
 10
176.261602386715
 20
15.58975494313153
 30
0.0
 10
176.2442175378499
 20
15.86367091125708
 30
0.0
 10
176.2850417342583
 20
16.02787112098596
 30
0.0
 10
176.1995153256002
 20
16.22749661465097
 30
0.0
 10
176.2660558907688
 20
16.22385458403978
 30
0.0
 10
176.283872427323
 20
16.22413447160854
 30
0.0
 10
176.4056801797505
 20
16.22632927398613
 30
0.0
 10
176.5080770335461
 20
15.94675118721513
 30
0.0
 10
176.7580021509357
 20
15.74563008536003
 30
0.0
 10
176.9870035331111
 20
15.47792614987921
 30
0.0
 10
177.2245151213107
 20
15.22646413862367
 30
0.0
 10
177.4486090740772
 20
14.98969974061365
 30
0.0
 10
177.6750716283008
 20
14.73218692583074
 30
0.0
 10
177.8325687886514
 20
14.61649335056923
 30
0.0
 10
178.0472129612675
 20
14.27997152538793
 30
0.0
 10
178.0422645974618
 20
14.40464754091603
 30
0.0
 10
178.0433931602546
 20
14.46327691935737
 30
0.0
 10
178.0428877841516
 20
14.55043662371977
 30
0.0
 10
178.0430475158113
 20
14.64416143182872
 30
0.0
 10
178.0430054891318
 20
14.73018971297035
 30
0.0
 10
178.0430202040373
 20
14.79153891945496
 30
0.0
 10
178.0429706255983
 20
14.94135231520991
 30
0.0
 10
178.0458811522811
 20
15.17989612510105
 30
0.0
 10
178.0259521041162
 20
15.54486509868702
 30
0.0
 10
178.0750433936248
 20
15.80799631993409
 30
0.0
 10
177.9177951509182
 20
16.21928904947753
 30
0.0
 10
178.0762112872421
 20
16.16398282551749
 30
0.0
 10
178.1311680478628
 20
16.16199686500175
 30
0.0
 10
178.182788776674
 20
16.16264778248252
 30
0.0
 10
178.2713198965367
 20
16.20369527738248
 30
0.0
 10
178.220489830317
 20
16.05696326622989
 30
0.0
 10
178.2313389930283
 20
15.95019971954433
 30
0.0
 10
178.2166036994848
 20
15.79085705414113
 30
0.0
 10
178.2099976446204
 20
15.62853061652874
 30
0.0
 10
178.2014961399914
 20
15.45992521892396
 30
0.0
 10
178.1943227202198
 20
15.29814814703541
 30
0.0
 10
178.188906321539
 20
15.15422331457932
 30
0.0
 10
178.1871713967648
 20
15.03437493466925
 30
0.0
 10
178.1875440672318
 20
14.92686101590514
 30
0.0
 10
178.1873656126263
 20
14.81820024645586
 30
0.0
 10
178.1877010863139
 20
14.6995357016553
 30
0.0
 10
178.1890040622186
 20
14.57555163512741
 30
0.0
 10
178.1908887351575
 20
14.44858294171105
 30
0.0
 10
178.192500445485
 20
14.32153861551031
 30
0.0
 10
178.194140313743
 20
14.19854884492177
 30
0.0
 10
178.1962570745753
 20
14.08300931383759
 30
0.0
 10
178.1963848422363
 20
13.98090903955836
 30
0.0
 10
178.2006514396555
 20
13.89009848838156
 30
0.0
 10
178.190844008529
 20
13.83213621208786
 30
0.0
 10
178.211847477169
 20
13.76517130132029
 30
0.0
 10
178.1725639739897
 20
13.77291153966688
 30
0.0
 10
177.9595307117752
 20
13.75755254145193
 30
0.0
 10
177.7636297943183
 20
14.31403058094466
 30
0.0
 10
177.4611197631544
 20
14.5755603534851
 30
0.0
 10
177.3067935648021
 20
14.70898038201725
 30
0.0
 11
177.3067935648021
 21
14.70898038201725
 31
0.0
 11
176.8595529338511
 21
15.18757635411977
 31
0.0
 11
176.4124049070643
 21
15.6635264928897
 31
0.0
 11
176.4089664262494
 21
15.55086249986232
 31
0.0
 11
176.4055610183499
 21
15.40557538184311
 31
0.0
 11
176.4029636920274
 21
15.21465645827968
 31
0.0
 11
176.4021126156603
 21
14.96521170139756
 31
0.0
 11
176.4025239230289
 21
14.88439802954279
 31
0.0
 11
176.4038420329817
 21
14.78640628477561
 31
0.0
 11
176.4055192267718
 21
14.67713557299739
 31
0.0
 11
176.4072367127517
 21
14.56282454872039
 31
0.0
 11
176.4094007838772
 21
14.44497802965266
 31
0.0
 11
176.4124049070643
 21
14.32545802100199
 31
0.0
 11
176.4158359733139
 21
14.20933349846156
 31
0.0
 11
176.4192928929999
 21
14.1018674655023
 31
0.0
 11
176.4227085253088
 21
14.00510162351264
 31
0.0
 11
176.4261896983793
 21
13.92125406276972
 31
0.0
 11
176.4296006184313
 21
13.8563286200776
 31
0.0
 11
176.4330776843149
 21
13.81626739612926
 31
0.0
 11
176.3754263821571
 21
13.82145433189186
 31
0.0
 11
176.3126746318309
 21
13.82315538223863
 31
0.0
 11
176.2464251717157
 21
13.82145433189186
 31
0.0
 11
176.1853747739676
 21
13.81626739612926
 31
0.0
 11
176.1926772737813
 21
13.8653189412559
 31
0.0
 11
176.2008793569054
 21
13.94356725720854
 31
0.0
 11
176.2090098822349
 21
14.04551893253029
 31
0.0
 11
176.2163406441397
 21
14.16542920159752
 31
0.0
 11
176.2236358280421
 21
14.3000591234389
 31
0.0
 11
176.2318444255596
 21
14.44586107652745
 31
0.0
 11
176.2395504149466
 21
14.59715203135073
 31
0.0
 11
176.2455763002094
 21
14.74850913200734
 31
0.0
 11
176.2503046247417
 21
14.89817951391436
 31
0.0
 11
176.254192897212
 21
15.04435739582222
 31
0.0
 11
176.2567527408965
 21
15.18111831592696
 31
0.0
 11
176.2576324804574
 21
15.3023085068689
 31
0.0
 11
176.257192610677
 21
15.60939715262544
 31
0.0
 11
176.2559126888348
 21
15.86997204839365
 31
0.0
 11
176.2528658717893
 21
16.07719922716125
 31
0.0
 11
176.2473049112763
 21
16.22421385386062
 31
0.0
 11
176.2615728121469
 21
16.22421385386062
 31
0.0
 11
176.2880703423352
 21
16.22421385386062
 31
0.0
 11
176.3023382432058
 21
16.22421385386062
 31
0.0
 11
176.5194743650277
 21
15.98910179662773
 31
0.0
 11
176.751274412308
 21
15.73751281231561
 31
0.0
 11
176.989481601884
 21
15.4794955554357
 31
0.0
 11
177.226007455752
 21
15.22497079855489
 31
0.0
 11
177.4555698717705
 21
14.97899759549137
 31
0.0
 11
177.6731797360102
 21
14.74678934034107
 31
0.0
 11
177.8713724913707
 21
14.53826680567099
 31
0.0
 11
178.0430143099086
 21
14.36326697932589
 31
0.0
 11
178.0430143099086
 21
14.38918210687043
 31
0.0
 11
178.0430143099086
 21
14.45601585685371
 31
0.0
 11
178.0430143099086
 21
14.54740078030025
 31
0.0
 11
178.0430143099086
 21
14.64696942823453
 31
0.0
 11
178.0430143099086
 21
14.73835435168106
 31
0.0
 11
178.0430143099086
 21
14.80518810166435
 31
0.0
 11
178.0430143099086
 21
14.83110322920889
 31
0.0
 11
178.0417233637609
 21
15.18755430550867
 31
0.0
 11
178.0378461155959
 21
15.53450684014415
 31
0.0
 11
178.0296197790002
 21
15.86693815950552
 31
0.0
 11
178.0154535467229
 21
16.17960510387179
 31
0.0
 11
178.0790351249618
 21
16.16666367158334
 31
0.0
 11
178.132417015961
 21
16.16238072887607
 31
0.0
 11
178.1805381084832
 21
16.16666367158334
 31
0.0
 11
178.2424836798198
 21
16.17960510387179
 31
0.0
 11
178.2351216487575
 21
16.084981284451
 31
0.0
 11
178.2269790968818
 21
15.95257496503965
 31
0.0
 11
178.2183705364005
 21
15.79600336785656
 31
0.0
 11
178.2097547223215
 21
15.62916593734271
 31
0.0
 11
178.2016187850288
 21
15.4589032550936
 31
0.0
 11
178.1942501393835
 21
15.292060312427
 31
0.0
 11
178.1891406931522
 21
15.1432994357281
 31
0.0
 11
178.1874503478904
 21
15.02722121527101
 31
0.0
 11
178.1874503478904
 21
14.93258747397518
 31
0.0
 11
178.1874503478904
 21
14.82077565976707
 31
0.0
 11
178.1878461204497
 21
14.70123801222749
 31
0.0
 11
178.1890819450709
 21
14.5766005209392
 31
0.0
 11
178.1908392193318
 21
14.44883212687391
 31
0.0
 11
178.1925303477608
 21
14.32028982655879
 31
0.0
 11
178.1942876220215
 21
14.19558288214555
 31
0.0
 11
178.1959787504506
 21
14.07947489606349
 31
0.0
 11
178.1972884379173
 21
13.97495896727017
 31
0.0
 11
178.1976985420736
 21
13.88517371555652
 31
0.0
 11
178.1976985420736
 21
13.81891763918416
 31
0.0
 11
178.1976985420736
 21
13.77165864614041
 31
0.0
 11
178.1736699662977
 21
13.77165864614041
 31
0.0
 11
178.1496413905218
 21
13.77165864614041
 31
0.0
 11
177.7410729200423
 21
14.2346673526219
 31
0.0
 11
177.3067935648021
 21
14.70898038201725
 31
0.0
  0
SPLINE
  5
B2
102
{ACAD_REACTORS
330
CF
102
}
330
48
100
AcDbEntity
  8
_U_30EC_U_30A4_U_30E4_U_30FC_1
  6
Continuous
 62
     2
100
AcDbSpline
210
0.0
220
0.0
230
1.0
 70
    11
 71
     3
 72
    25
 73
    21
 74
    19
 42
0.000000001
 43
0.0000000001
 44
0.00000001
 40
0.0
 40
0.0
 40
0.0
 40
0.0
 40
0.0911479969064821
 40
0.1858117896203816
 40
0.2804128399734491
 40
0.371588919071451
 40
0.4679080494218992
 40
0.5642683809230084
 40
0.6605683222644992
 40
0.7569653015810257
 40
0.856134817252274
 40
1.092615965104292
 40
1.374867658141875
 40
1.611348812011601
 40
1.710518328425249
 40
1.809403163726568
 40
2.04520546329407
 40
2.32664691762213
 40
2.562449217190592
 40
2.661334043833911
 40
2.661334043833911
 40
2.661334043833911
 40
2.661334043833911
 10
173.2683700567199
 20
14.88614538197292
 30
0.0
 10
173.2987525917923
 20
14.88598079714555
 30
0.0
 10
173.3606895889111
 20
14.88564528689922
 30
0.0
 10
173.454135696033
 20
14.88269055451998
 30
0.0
 10
173.5475095236357
 20
14.87977752877151
 30
0.0
 10
173.6417760753477
 20
14.87894201643417
 30
0.0
 10
173.7354964790967
 20
14.87996644658046
 30
0.0
 10
173.8352040303205
 20
14.87916977470972
 30
0.0
 10
173.9188949546312
 20
14.88921410235219
 30
0.0
 10
174.0637996315046
 20
14.86234617674165
 30
0.0
 10
173.93961324448
 20
15.03665530280048
 30
0.0
 10
173.8965867286283
 20
15.19651711006091
 30
0.0
 10
173.780892214221
 20
15.45518458550216
 30
0.0
 10
173.7017565431257
 20
15.59231052861858
 30
0.0
 10
173.6431576621816
 20
15.80937033134077
 30
0.0
 10
173.5864803939438
 20
15.59266134213428
 30
0.0
 10
173.5052809900478
 20
15.45327012438236
 30
0.0
 10
173.4063701281487
 20
15.20406969370194
 30
0.0
 10
173.325362509426
 20
15.01925830226074
 30
0.0
 10
173.2813683325838
 20
14.91650446856116
 30
0.0
 10
173.2683700567199
 20
14.88614538197292
 30
0.0
 11
173.2683700567199
 21
14.88614538197292
 31
0.0
 11
173.359513773782
 21
14.8852612326676
 31
0.0
 11
173.454142829758
 21
14.88269697919598
 31
0.0
 11
173.5487082179706
 21
14.88009965280777
 31
0.0
 11
173.6398803250196
 21
14.8792485764191
 31
0.0
 11
173.7361985777706
 21
14.87965978301621
 31
0.0
 11
173.8325499034377
 21
14.88097718752971
 31
0.0
 11
173.9288262638286
 21
14.88310818579312
 31
0.0
 11
174.0251753846343
 21
14.88614538197292
 31
0.0
 11
173.9854633323141
 21
14.9770164219502
 31
0.0
 11
173.8907653613968
 21
15.19370890189602
 31
0.0
 11
173.7777387509471
 21
15.45234186183135
 31
0.0
 11
173.6830407800297
 21
15.66903434177717
 31
0.0
 11
173.6433287277095
 21
15.75990538175445
 31
0.0
 11
173.6043330259266
 21
15.66903434177717
 31
0.0
 11
173.5113432755212
 21
15.45234186183135
 31
0.0
 11
173.4003555089082
 21
15.19370890189602
 31
0.0
 11
173.3073657585028
 21
14.9770164219502
 31
0.0
 11
173.2683700567199
 21
14.88614538197292
 31
0.0
  0
SPLINE
  5
B3
102
{ACAD_REACTORS
330
CF
102
}
330
48
100
AcDbEntity
  8
_U_30EC_U_30A4_U_30E4_U_30FC_1
  6
Continuous
 62
     2
100
AcDbSpline
210
0.0
220
0.0
230
1.0
 70
    11
 71
     3
 72
    57
 73
    53
 74
    51
 42
0.000000001
 43
0.0000000001
 44
0.00000001
 40
0.0
 40
0.0
 40
0.0
 40
0.0
 40
0.0471632082808685
 40
0.0914861054632173
 40
0.1357762519702125
 40
0.1826527001609851
 40
0.2295203288572044
 40
0.2737751972219645
 40
0.3181310461542808
 40
0.3652607198398549
 40
0.4571007286314639
 40
0.5671851029165417
 40
0.6894623283868201
 40
0.8181758272546104
 40
0.9510087229274276
 40
1.08585222967407
 40
1.218126164475327
 40
1.343545131142397
 40
1.454537202956813
 40
1.567187607530737
 40
1.68071096664247
 40
1.794226869736806
 40
1.900009184247577
 40
2.004085860447799
 40
2.108162674451715
 40
2.214000150155317
 40
2.496038577352153
 40
2.762350745479261
 40
2.997275353279404
 40
3.185110082137752
 40
3.246407890063924
 40
3.312607550212712
 40
3.378877742711528
 40
3.440140399651469
 40
4.100501696006535
 40
4.754913085563579
 40
5.411331693423957
 40
6.07789043256874
 40
6.110575292671019
 40
6.143260152775799
 40
6.367989363395191
 40
6.610525374951588
 40
6.863389136467339
 40
7.119380025547581
 40
7.376036605091139
 40
7.631164770966318
 40
7.876722425456485
 40
8.10495373585603
 40
8.312916685924348
 40
8.497730294941336
 40
8.651018984313907
 40
8.764738853624626
 40
8.764738853624626
 40
8.764738853624626
 40
8.764738853624626
 10
174.7922649500513
 20
13.81626739612926
 30
0.0
 10
174.7766616726931
 20
13.81826231079077
 30
0.0
 10
174.7463947960302
 20
13.822132013603
 30
0.0
 10
174.7010994202253
 20
13.82341984967269
 30
0.0
 10
174.6559553129349
 20
13.82308683554051
 30
0.0
 10
174.60990171234
 20
13.82314658674225
 30
0.0
 10
174.5640496172096
 20
13.82325813650001
 30
0.0
 10
174.5183711648166
 20
13.82277833456591
 30
0.0
 10
174.4750811541608
 20
13.82461109618723
 30
0.0
 10
174.4039947951514
 20
13.80049556814654
 30
0.0
 10
174.4057477261441
 20
13.92184693977252
 30
0.0
 10
174.3586196370569
 20
14.00726239751232
 30
0.0
 10
174.3191478251763
 20
14.12486929345139
 30
0.0
 10
174.2706635532645
 20
14.24232752540438
 30
0.0
 10
174.2201017402521
 20
14.36405935761507
 30
0.0
 10
174.1718634610477
 20
14.49075967862467
 30
0.0
 10
174.1135232947595
 20
14.59933687784952
 30
0.0
 10
174.0980892667261
 20
14.7562065713441
 30
0.0
 10
173.9566586330636
 20
14.72373446548322
 30
0.0
 10
173.8508397414904
 20
14.73512888682181
 30
0.0
 10
173.7358569725222
 20
14.73392591514615
 30
0.0
 10
173.6253142252141
 20
14.73506945347408
 30
0.0
 10
173.5176583522783
 20
14.73418350037526
 30
0.0
 10
173.4121322529243
 20
14.73416602390519
 30
0.0
 10
173.3109192682013
 20
14.72714032472415
 30
0.0
 10
173.1266804827753
 20
14.75135859859869
 30
0.0
 10
173.1157393685411
 20
14.44741691121888
 30
0.0
 10
173.0087691634751
 20
14.22353177253393
 30
0.0
 10
172.9098148604347
 20
14.038953142925
 30
0.0
 10
172.9225090524007
 20
13.79530204804204
 30
0.0
 10
172.8050091716397
 20
13.82508046753199
 30
0.0
 10
172.7422055868311
 20
13.82258089509604
 30
0.0
 10
172.67858720934
 20
13.82344075102805
 30
0.0
 10
172.3946014194076
 20
13.7809803994194
 30
0.0
 10
173.0251638499381
 20
14.50081952444783
 30
0.0
 10
173.1087645289072
 20
15.01276539435727
 30
0.0
 10
173.4929252789338
 20
15.53353743550044
 30
0.0
 10
173.4777208288565
 20
16.23519626253216
 30
0.0
 10
173.7239265722697
 20
16.22345633081256
 30
0.0
 10
173.8256346157561
 20
16.23225004452773
 30
0.0
 10
173.8249752035818
 20
15.98059650730346
 30
0.0
 10
173.9428317155827
 20
15.79818020733958
 30
0.0
 10
174.0315515260485
 20
15.55563740662868
 30
0.0
 10
174.1322292485257
 20
15.32340030530122
 30
0.0
 10
174.2311142712244
 20
15.08674644566918
 30
0.0
 10
174.3299676990669
 20
14.85461739170091
 30
0.0
 10
174.4256166390926
 20
14.6312222278879
 30
0.0
 10
174.5159904573273
 20
14.42272549049319
 30
0.0
 10
174.5989944568189
 20
14.2330844852932
 30
0.0
 10
174.6726088582799
 20
14.06663106068096
 30
0.0
 10
174.7342815895546
 20
13.929176996261
 30
0.0
 10
174.7749458885604
 20
13.84999239430033
 30
0.0
 10
174.7922649500513
 20
13.81626739612926
 30
0.0
 11
174.7922649500513
 21
13.81626739612926
 31
0.0
 11
174.7453878317448
 21
13.82145433189186
 31
0.0
 11
174.7010975896125
 21
13.82315538223863
 31
0.0
 11
174.6568074431729
 21
13.82315538223863
 31
0.0
 11
174.609930994716
 21
13.82315538223863
 31
0.0
 11
174.5630633657034
 21
13.82315538223863
 31
0.0
 11
174.5188084970409
 21
13.82315538223863
 31
0.0
 11
174.4744852776854
 21
13.82145433189186
 31
0.0
 11
174.4276419021443
 21
13.81626739612926
 31
0.0
 11
174.3992532136325
 21
13.90360966173245
 31
0.0
 11
174.3622721815898
 21
14.0072965627482
 31
0.0
 11
174.3188386236702
 21
14.12159987001127
 31
0.0
 11
174.2711055866936
 21
14.24113531268969
 31
0.0
 11
174.2208160133236
 21
14.36408057307564
 31
0.0
 11
174.1696467003932
 21
14.48883822929446
 31
0.0
 11
174.1197531801326
 21
14.61134141502772
 31
0.0
 11
174.0733119111841
 21
14.72784517367917
 31
0.0
 11
173.9623611907589
 21
14.73087465284506
 31
0.0
 11
173.849730922509
 21
14.7330045486779
 31
0.0
 11
173.7362152069449
 21
14.7343219531914
 31
0.0
 11
173.62270004768
 21
14.73473315978852
 31
0.0
 11
173.5169185312816
 21
14.7343219531914
 31
0.0
 11
173.4128501919226
 21
14.7330045486779
 31
0.0
 11
173.3087951724046
 21
14.73087465284506
 31
0.0
 11
173.2030010615596
 21
14.72784517367917
 31
0.0
 11
173.0980914750139
 21
14.4660443751335
 31
0.0
 11
173.0034868690332
 21
14.2171023265846
 31
0.0
 11
172.9252231210298
 21
13.99559756969557
 31
0.0
 11
172.8693431224555
 21
13.81626739612926
 31
0.0
 11
172.8082651639442
 21
13.82145433189186
 31
0.0
 11
172.742087361813
 21
13.82315538223863
 31
0.0
 11
172.6758390041283
 21
13.82145433189186
 31
0.0
 11
172.6147963233938
 21
13.81626739612926
 31
0.0
 11
172.8899684951931
 21
14.41656508695142
 31
0.0
 11
173.1582945734171
 21
15.01343642360774
 31
0.0
 11
173.4240277350405
 21
15.61366245644381
 31
0.0
 11
173.6914740737033
 21
16.22421385386062
 31
0.0
 11
173.7241589339806
 21
16.22421385386062
 31
0.0
 11
173.7568437942579
 21
16.22421385386062
 31
0.0
 11
173.8428300681057
 21
16.01658539037084
 31
0.0
 11
173.9357285813609
 21
15.79254614563517
 31
0.0
 11
174.0328714521463
 21
15.55908663180468
 31
0.0
 11
174.131793645803
 21
15.32298128464146
 31
0.0
 11
174.2315341249927
 21
15.08649780379784
 31
0.0
 11
174.3313071129353
 21
14.85168781253711
 31
0.0
 11
174.4280608257449
 21
14.6259949219685
 31
0.0
 11
174.5188084970409
 21
14.4165805209792
 31
0.0
 11
174.6022150834546
 21
14.22607611130461
 31
0.0
 11
174.6770293263377
 21
14.05708232662467
 31
0.0
 11
174.7410729186604
 21
13.91781337700668
 31
0.0
 11
174.7922649500513
 21
13.81626739612926
 31
0.0
  0
SPLINE
  5
B4
102
{ACAD_REACTORS
330
D0
102
}
330
48
100
AcDbEntity
  8
_U_30EC_U_30A4_U_30E4_U_30FC_1
  6
Continuous
 62
     2
100
AcDbSpline
210
0.0
220
0.0
230
1.0
 70
    11
 71
     3
 72
    99
 73
    95
 74
    93
 42
0.000000001
 43
0.0000000001
 44
0.00000001
 40
0.0
 40
0.0
 40
0.0
 40
0.0
 40
0.0796417172272494
 40
0.1621768542356028
 40
0.2486489160957682
 40
0.3404969668525418
 40
0.4381912511165166
 40
0.54344636602449
 40
0.6518115192846654
 40
0.753019093788677
 40
0.8492196919725059
 40
0.9419290312998031
 40
1.034249663570027
 40
1.129078600620224
 40
1.226697027573262
 40
1.327220425421719
 40
1.470572134938034
 40
1.595489863371226
 40
1.719934125348392
 40
1.850576620127342
 40
1.989059629987333
 40
2.134139054226949
 40
2.280698007207212
 40
2.42452973903943
 40
2.565929576985839
 40
2.7082392607735
 40
2.861717887443652
 40
3.045168540347355
 40
3.183798301138605
 40
3.314813961455452
 40
3.442083470447316
 40
3.569912708373031
 40
3.702177512509363
 40
3.842307559659501
 40
3.992872223245961
 40
4.156750662218293
 40
4.310981861107458
 40
4.445859909322559
 40
4.572393936131578
 40
4.701656719782024
 40
4.768279086008524
 40
4.835960697898448
 40
4.912788918729404
 40
5.006285208481604
 40
5.026909478751652
 40
5.047533749021159
 40
5.101808031471229
 40
5.162325165538548
 40
5.226919745995822
 40
5.294231806596752
 40
5.364544852554899
 40
5.438319055467945
 40
5.517877651324226
 40
5.607647714861595
 40
5.700449642544413
 40
5.788251142364089
 40
5.872714706039746
 40
5.955167292575306
 40
6.037192395190359
 40
6.120669181469117
 40
6.206848616686373
 40
6.296680855416789
 40
6.442558392872614
 40
6.568190371608329
 40
6.692904567360372
 40
6.824220446557124
 40
6.963121850329335
 40
7.107843738851071
 40
7.253431663907286
 40
7.39518746803676
 40
7.53314075323777
 40
7.670550457175239
 40
7.816236511769256
 40
7.98769165735922
 40
8.14227742196925
 40
8.293662615415009
 40
8.442962460879265
 40
8.591598316185255
 40
8.743678992361778
 40
8.903725323699188
 40
9.076307008890508
 40
9.265578604680591
 40
9.459203795360766
 40
9.617619810273634
 40
9.753609671361943
 40
9.87487330000402
 40
9.954520184977705
 40
10.02416413719237
 40
10.09769764405437
 40
10.18909955924964
 40
10.20974586420131
 40
10.2303921826338
 40
10.30057101881264
 40
10.37632012987541
 40
10.37632012987541
 40
10.37632012987541
 40
10.37632012987541
 10
170.1465954835851
 20
14.13795663215994
 30
0.0
 10
170.1632217851219
 20
14.11720608845313
 30
0.0
 10
170.1970784206577
 20
14.07495111711901
 30
0.0
 10
170.2599822541036
 20
14.02029811392073
 30
0.0
 10
170.3332500940393
 20
13.97299025121048
 30
0.0
 10
170.4175969238636
 20
13.93527231437937
 30
0.0
 10
170.5132240615461
 20
13.91040619731951
 30
0.0
 10
170.6171853775345
 20
13.90309559345937
 30
0.0
 10
170.7224020220405
 20
13.91142322794055
 30
0.0
 10
170.8206626371333
 20
13.94149179651527
 30
0.0
 10
170.9058986427548
 20
13.98848822971877
 30
0.0
 10
170.9779220206103
 20
14.04952991250856
 30
0.0
 10
171.0350917709096
 20
14.12412969578584
 30
0.0
 10
171.0767868747441
 20
14.21002464660171
 30
0.0
 10
171.1026952846293
 20
14.30485850432211
 30
0.0
 10
171.1118037332653
 20
14.41854979038367
 30
0.0
 10
171.0986864796487
 20
14.54332587770779
 30
0.0
 10
171.0325330334414
 20
14.66014719171891
 30
0.0
 10
170.9369370919568
 20
14.7451253957737
 30
0.0
 10
170.824968102237
 20
14.81416684459168
 30
0.0
 10
170.6993659583269
 20
14.87204142045887
 30
0.0
 10
170.5656691620856
 20
14.9237372328434
 30
0.0
 10
170.4313122818832
 20
14.97899092397181
 30
0.0
 10
170.3051983986877
 20
15.04939770641653
 30
0.0
 10
170.1926579987535
 20
15.13785540731244
 30
0.0
 10
170.0969963064459
 20
15.24981067868477
 30
0.0
 10
170.0334157151825
 20
15.3994991010138
 30
0.0
 10
170.0200706505015
 20
15.55932794385142
 30
0.0
 10
170.0320510987448
 20
15.71048405306845
 30
0.0
 10
170.071229892884
 20
15.83809244591539
 30
0.0
 10
170.1354987750911
 20
15.95080874030847
 30
0.0
 10
170.2238204999741
 20
16.0464860926868
 30
0.0
 10
170.3338091207628
 20
16.12354214985756
 30
0.0
 10
170.4632284401266
 20
16.18151396936278
 30
0.0
 10
170.6111838967793
 20
16.21739177588821
 30
0.0
 10
170.7682069455487
 20
16.22746719050564
 30
0.0
 10
170.917494046643
 20
16.21863637762589
 30
0.0
 10
171.059625361417
 20
16.19074899340353
 30
0.0
 10
171.1595922609625
 20
16.13413314701138
 30
0.0
 10
171.3125074736186
 20
16.08674602105507
 30
0.0
 10
171.2455131717169
 20
16.00197553001186
 30
0.0
 10
171.229647912027
 20
15.93438901873482
 30
0.0
 10
171.1978750531297
 20
15.86926092793193
 30
0.0
 10
171.2150202209571
 20
15.76723453256955
 30
0.0
 10
171.1666427208232
 20
15.77493211681902
 30
0.0
 10
171.1315789440767
 20
15.7680677172481
 30
0.0
 10
171.1296697985719
 20
15.83263831158199
 30
0.0
 10
171.0985692931988
 20
15.8782563962139
 30
0.0
 10
171.0664551628457
 20
15.93561036628461
 30
0.0
 10
171.0208038475168
 20
15.98540462692555
 30
0.0
 10
170.9658508218386
 20
16.02994813718995
 30
0.0
 10
170.9010841173008
 20
16.06763988836548
 30
0.0
 10
170.8232377310596
 20
16.09283375791354
 30
0.0
 10
170.7355160553353
 20
16.0993123099811
 30
0.0
 10
170.6452903277807
 20
16.09235709285608
 30
0.0
 10
170.5594594694065
 20
16.06909190460919
 30
0.0
 10
170.4828343638597
 20
16.03131644107544
 30
0.0
 10
170.41652656362
 20
15.98051641089577
 30
0.0
 10
170.3622560536965
 20
15.91731143407207
 30
0.0
 10
170.3224925345458
 20
15.84276455710368
 30
0.0
 10
170.2976775510587
 20
15.75917313997764
 30
0.0
 10
170.289212426287
 20
15.65192948382285
 30
0.0
 10
170.3019697987104
 20
15.52965457267557
 30
0.0
 10
170.3681548409274
 20
15.41149724291215
 30
0.0
 10
170.4640977399833
 20
15.32606325709526
 30
0.0
 10
170.5757914963183
 20
15.25583362306722
 30
0.0
 10
170.7010863668702
 20
15.19659162305305
 30
0.0
 10
170.8349823941447
 20
15.14616708086128
 30
0.0
 10
170.968993033315
 20
15.09322516984384
 30
0.0
 10
171.0950885316915
 20
15.02750170625178
 30
0.0
 10
171.2076216638417
 20
14.94480352537319
 30
0.0
 10
171.3031370284233
 20
14.83996006310073
 30
0.0
 10
171.3672706486962
 20
14.69937117251569
 30
0.0
 10
171.3811103725279
 20
14.54065409451592
 30
0.0
 10
171.3673954712229
 20
14.38153155217877
 30
0.0
 10
171.3244739153985
 20
14.23483828819209
 30
0.0
 10
171.2545906329065
 20
14.10119796587146
 30
0.0
 10
171.157459221383
 20
13.98532387699287
 30
0.0
 10
171.0347806023657
 20
13.89089981770089
 30
0.0
 10
170.8874408413168
 20
13.82179270651982
 30
0.0
 10
170.7177132497125
 20
13.77953210858852
 30
0.0
 10
170.5317404979597
 20
13.76781736230407
 30
0.0
 10
170.3528955926182
 20
13.77809486683438
 30
0.0
 10
170.1881733753743
 20
13.81966573769151
 30
0.0
 10
170.0834410841055
 20
13.88797642883938
 30
0.0
 10
169.9350960790367
 20
13.93675219032109
 30
0.0
 10
169.9980378194729
 20
14.02976591290841
 30
0.0
 10
170.0072274430059
 20
14.1029653624828
 30
0.0
 10
170.0303711301231
 20
14.16936294501346
 30
0.0
 10
170.0034588335318
 20
14.26974809527583
 30
0.0
 10
170.0521338956339
 20
14.26234033517378
 30
0.0
 10
170.0916530580698
 20
14.26894063620896
 30
0.0
 10
170.0996204944703
 20
14.19078703218933
 30
0.0
 10
170.1305436967923
 20
14.15600927375857
 30
0.0
 10
170.1465954835851
 20
14.13795663215994
 30
0.0
 11
170.1465954835851
 21
14.13795663215994
 31
0.0
 11
170.1982038075864
 21
14.07729869814736
 31
0.0
 11
170.2601105501335
 21
14.0227129516332
 31
0.0
 11
170.3327764009802
 21
13.97583980928383
 31
0.0
 11
170.4166468655844
 21
13.93839906276537
 31
0.0
 11
170.511221073241
 21
13.91390636311877
 31
0.0
 11
170.6161603327165
 21
13.90575829888472
 31
0.0
 11
170.7240739497551
 21
13.91564048638223
 31
0.0
 11
170.8208419941616
 21
13.94528704887482
 31
0.0
 11
170.9050776083319
 21
13.99175118948819
 31
0.0
 11
170.9756144207686
 21
14.05191413218149
 31
0.0
 11
171.031944210998
 21
14.12505819466319
 31
0.0
 11
171.0736690016004
 21
14.21021434047522
 31
0.0
 11
171.0994680808033
 21
14.30436190989612
 31
0.0
 11
171.1080824729446
 21
14.4045155209822
 31
0.0
 11
171.0878517703357
 21
14.54643250879397
 31
0.0
 11
171.0272522666731
 21
14.65566684036386
 31
0.0
 11
170.9364971286286
 21
14.74081306430094
 31
0.0
 11
170.8260101884741
 21
14.81052746532517
 31
0.0
 11
170.7008523531254
 21
14.86979854169923
 31
0.0
 11
170.5662951950998
 21
14.9240425347412
 31
0.0
 11
170.4316884277007
 21
14.98201274306004
 31
0.0
 11
170.3065802017259
 21
15.05297399304232
 31
0.0
 11
170.196027609828
 21
15.14113315968694
 31
0.0
 11
170.1053381235266
 21
15.25080295132617
 31
0.0
 11
170.0447055469484
 21
15.39179720476315
 31
0.0
 11
170.0245079172553
 21
15.57413260402313
 31
0.0
 11
170.0374030471347
 21
15.71216131926642
 31
0.0
 11
170.0761016659391
 21
15.83733128451289
 31
0.0
 11
170.1393141731507
 21
15.94779262129084
 31
0.0
 11
170.2257499954546
 21
16.04196885390621
 31
0.0
 11
170.3336492808963
 21
16.11846540770651
 31
0.0
 11
170.4613526283328
 21
16.17615670109487
 31
0.0
 11
170.6075393259923
 21
16.21220066809973
 31
0.0
 11
170.770976856545
 21
16.22421385386062
 31
0.0
 11
170.9248918431289
 21
16.21434269066864
 31
0.0
 11
171.0564887242607
 21
16.18477329831497
 31
0.0
 11
171.172563634494
 21
16.13439993895252
 31
0.0
 11
171.2800792741123
 21
16.06264163167877
 31
0.0
 11
171.2516994050445
 21
16.00236624106886
 31
0.0
 11
171.2284855254284
 21
15.93879017337648
 31
0.0
 11
171.2078381040801
 21
15.86478841992269
 31
0.0
 11
171.1871840681487
 21
15.77360197897328
 31
0.0
 11
171.1665597978415
 21
15.77360197897328
 31
0.0
 11
171.1459355275344
 21
15.77360197897328
 31
0.0
 11
171.1256706495791
 21
15.82395108486347
 31
0.0
 11
171.0994658759421
 21
15.87850045116929
 31
0.0
 11
171.0650468924452
 21
15.93316116296115
 31
0.0
 11
171.0203554612937
 21
15.98349593725411
 31
0.0
 11
170.9657333359511
 21
16.02777175321529
 31
0.0
 11
170.9016722004326
 21
16.06436142334501
 31
0.0
 11
170.8259682961141
 21
16.08882545979727
 31
0.0
 11
170.7365722046449
 21
16.09701100667022
 31
0.0
 11
170.6440937174208
 21
16.08926973931101
 31
0.0
 11
170.5594072091646
 21
16.06609003445566
 31
0.0
 11
170.483702448884
 21
16.02863495634008
 31
0.0
 11
170.4183754766516
 21
15.97832774281102
 31
0.0
 11
170.3650487887665
 21
15.9160029337988
 31
0.0
 11
170.3254809233901
 21
15.84249947895607
 31
0.0
 11
170.300952375471
 21
15.75988443557391
 31
0.0
 11
170.2927954104108
 21
15.67042329844352
 31
0.0
 11
170.3130095765618
 21
15.52595308146574
 31
0.0
 11
170.3736256166821
 21
15.41591177072937
 31
0.0
 11
170.4643479320758
 21
15.33033670130631
 31
0.0
 11
170.5748676948813
 21
15.25941954854625
 31
0.0
 11
170.7000089937719
 21
15.19914305550579
 31
0.0
 11
170.8345826882552
 21
15.14590447913021
 31
0.0
 11
170.9691729191968
 21
15.09039489581074
 31
0.0
 11
171.0942976816298
 21
15.0237728124941
 31
0.0
 11
171.2048009079771
 21
14.94118863716749
 31
0.0
 11
171.2955397598288
 21
14.83800003476272
 31
0.0
 11
171.3561557999489
 21
14.70552315979584
 31
0.0
 11
171.3763699660998
 21
14.53526378483839
 31
0.0
 11
171.3621839747998
 21
14.38133030397413
 31
0.0
 11
171.3196087009193
 21
14.23605531269097
 31
0.0
 11
171.2499752884265
 21
14.10398854189068
 31
0.0
 11
171.1544992078714
 21
13.99007218775248
 31
0.0
 11
171.0341060772624
 21
13.89715272597017
 31
0.0
 11
170.8896160201846
 21
13.8283235766818
 31
0.0
 11
170.7223519532714
 21
13.78581275203967
 31
0.0
 11
170.5336103348226
 21
13.77165864614041
 31
0.0
 11
170.3405031726387
 21
13.78581275203967
 31
0.0
 11
170.187897590091
 21
13.8283235766818
 31
0.0
 11
170.0661897942203
 21
13.88899033013889
 31
0.0
 11
169.9660261826364
 21
13.95734322942737
 31
0.0
 11
169.9922320587039
 21
14.03255545163076
 31
0.0
 11
170.0090121537618
 21
14.10014767383612
 31
0.0
 11
170.0206196447852
 21
14.17275926235962
 31
0.0
 11
170.0313606254139
 21
14.26352788212859
 31
0.0
 11
170.0520069443316
 21
14.26352788212859
 31
0.0
 11
170.0726532632493
 21
14.26352788212859
 31
0.0
 11
170.104891639163
 21
14.20119204881083
 31
0.0
 11
170.1465954835851
 21
14.13795663215994
 31
0.0
  0
LWPOLYLINE
  5
B5
102
{ACAD_REACTORS
330
C2
102
}
330
48
100
AcDbEntity
  8
_U_30EC_U_30A4_U_30E4_U_30FC_1
  6
Continuous
 62
     2
100
AcDbPolyline
 90
        5
 70
     1
 43
0.0
 10
192.4578138032672
 20
15.39722336795626
 10
192.4578138032672
 20
15.22875434022058
 10
191.1602971697031
 20
15.22875434022058
 10
191.1602971697031
 20
15.39722336795626
 10
192.4578138032672
 20
15.39722336795626
  0
MTEXT
  5
B7
330
48
100
AcDbEntity
  8
1
 62
     2
100
AcDbMText
 10
32.5
 20
282.0000000000003
 30
0.0
 40
5.0
 41
0.0
 71
     5
 72
     1
  1
図番
  7
CONVERTER_11
 73
     1
 44
0.45454545454545
  0
MTEXT
  5
B8
330
48
100
AcDbEntity
  8
1
 62
     2
100
AcDbMText
 10
29.0
 20
34.00000000000001
 30
0.0
 40
3.5
 41
0.0
 71
     5
 72
     1
  1
備考
  7
CONVERTER_11
 73
     1
 44
0.45454545454545
  0
MTEXT
  5
B9
330
48
100
AcDbEntity
  8
1
 62
     2
100
AcDbMText
 10
29.0
 20
22.74999999999999
 30
0.0
 40
3.5
 41
0.0
 71
     5
 72
     1
  1
品名
  7
CONVERTER_11
 73
     1
 44
0.72727272727273
  0
MTEXT
  5
BA
330
48
100
AcDbEntity
  8
1
 62
     2
100
AcDbMText
 10
29.0
 20
14.25
 30
0.0
 40
3.5
 41
0.0
 71
     5
 72
     1
  1
品番
  7
CONVERTER_11
 73
     1
 44
0.72727272727273
  0
MTEXT
  5
BB
330
48
100
AcDbEntity
  8
1
 62
     2
100
AcDbMText
 10
101.5
 20
25.00000000000001
 30
0.0
 40
3.0
 41
0.0
 71
     5
 72
     1
  1
承認
  7
CONVERTER_11
 73
     1
 44
0.59090909090909
  0
MTEXT
  5
BC
330
48
100
AcDbEntity
  8
1
 62
     2
100
AcDbMText
 10
174.9999999999999
 20
23.50000000000001
 30
0.0
 40
3.5
 41
0.0
 71
     5
 72
     1
  1
第三角法
  7
CONVERTER_11
 73
     1
 44
0.54545454545455
  0
MTEXT
  5
BD
330
48
100
AcDbEntity
  8
1
 62
     2
100
AcDbMText
 10
118.5
 20
25.00000000000001
 30
0.0
 40
3.0
 41
0.0
 71
     5
 72
     1
  1
検図
  7
CONVERTER_11
 73
     1
 44
0.59090909090909
  0
MTEXT
  5
BE
330
48
100
AcDbEntity
  8
1
 62
     2
100
AcDbMText
 10
152.5
 20
25.00000000000001
 30
0.0
 40
3.0
 41
0.0
 71
     5
 72
     1
  1
設計
  7
CONVERTER_11
 73
     1
 44
0.59090909090909
  0
MTEXT
  5
BF
330
48
100
AcDbEntity
  8
1
 62
     2
100
AcDbMText
 10
135.5
 20
25.00000000000001
 30
0.0
 40
3.0
 41
0.0
 71
     5
 72
     1
  1
製図
  7
CONVERTER_11
 73
     1
 44
0.59090909090909
  0
MTEXT
  5
C0
330
48
100
AcDbEntity
  8
1
 62
     2
100
AcDbMText
 10
89.5
 20
24.00000000000001
 30
0.0
 40
3.5
 41
0.0
 71
     5
 72
     1
  1
尺度
  7
CONVERTER_11
 73
     1
 44
0.54545454545455
  0
MTEXT
  5
C1
330
48
100
AcDbEntity
  8
1
 62
   250
100
AcDbMText
 10
25.0
 20
5.0
 30
0.0
 40
3.5
 41
0.0
 71
     4
 72
     1
  1
備考欄の文字列 原点位置=4
  7
CONVERTER_11
 73
     1
 44
0.54545454545455
  0
HATCH
  5
C2
330
48
100
AcDbEntity
  8
1
  6
Continuous
 62
     2
100
AcDbHatch
 10
0.0
 20
0.0
 30
0.0
210
0.0
220
0.0
230
1.0
  2
CUSTOM0
 70
     0
 71
     1
 91
        1
 92
        1
 93
        4
 72
     1
 10
192.4578138032672
 20
15.39722336795626
 11
192.4578138032672
 21
15.22875434022058
 72
     1
 10
192.4578138032672
 20
15.22875434022058
 11
191.1602971697031
 21
15.22875434022058
 72
     1
 10
191.1602971697031
 20
15.22875434022058
 11
191.1602971697031
 21
15.39722336795626
 72
     1
 10
191.1602971697031
 20
15.39722336795626
 11
192.4578138032672
 21
15.39722336795626
 97
        1
330
B5
 75
     1
 76
     2
 52
45.0
 41
0.1
 77
     0
 78
     1
 53
45.0
 43
0.0
 44
0.0
 45
-0.282842712474619
 46
0.0
 79
     0
 98
        1
 10
0.0
 20
0.0
  0
HATCH
  5
C3
330
48
100
AcDbEntity
  8
1
  6
Continuous
 62
     2
100
AcDbHatch
 10
0.0
 20
0.0
 30
0.0
210
0.0
220
0.0
230
1.0
  2
CUSTOM1
 70
     0
 71
     1
 91
        1
 92
        1
 93
        3
 72
     4
 94
        3
 73
     0
 74
     0
 95
       24
 96
       20
 40
0.0
 40
0.0
 40
0.0
 40
0.0
 40
0.2211075008753937
 40
0.4273218586245432
 40
0.5080174679239443
 40
0.5914835907870358
 40
0.8143265690192794
 40
1.054651302686589
 40
1.295452694023179
 40
1.518109231328832
 40
1.540864321905448
 40
1.595126460622709
 40
1.659890947896022
 40
1.714153085187381
 40
1.736908174961681
 40
1.764951100735332
 40
1.801562291220977
 40
1.953914424543642
 40
2.126104167379713
 40
2.126104167379713
 40
2.126104167379713
 40
2.126104167379713
 10
185.9375369556889
 20
15.58989295113017
 10
185.9112579081812
 20
15.53097628234375
 10
185.8604698894425
 20
15.41711139679257
 10
185.8131784839112
 20
15.14441958233116
 10
185.7043482802617
 20
15.24445482575454
 10
185.5514800279638
 20
15.27118593367332
 10
185.7686155181198
 20
15.48518135017632
 10
185.7838483674381
 20
15.70332117782487
 10
185.8906889492001
 20
15.88451579066426
 10
185.8305380947077
 20
16.16913226311401
 10
185.9334317395402
 20
16.14114089222451
 10
185.977993346815
 20
16.13243251602299
 10
186.0380842395397
 20
16.12139654183355
 10
186.0756619587438
 20
16.10767523055559
 10
186.1252466928606
 20
16.10756076160224
 10
186.0930158919325
 20
16.0730659239862
 10
186.0171802221881
 20
16.08404104537971
 10
186.0429447159694
 20
15.89858969582449
 10
186.005589676385
 20
15.80702313549589
 10
185.985770496161
 20
15.75844135397705
 72
     4
 94
        3
 73
     0
 74
     0
 95
       70
 96
       66
 40
0.0
 40
0.0
 40
0.0
 40
0.0
 40
0.0241731073021472
 40
0.0846058988986729
 40
0.1631685280352999
 40
0.2417311571788903
 40
0.3021639488291898
 40
0.3263370654894688
 40
0.3533118254248028
 40
0.4228783438921259
 40
0.517999909531255
 40
0.621639823946525
 40
0.7167613891498853
 40
0.7863279069649011
 40
0.8133026791760983
 40
0.8372943998770821
 40
0.8945054261372016
 40
0.962789554196207
 40
1.020000580349073
 40
1.043992300975172
 40
1.071934345522947
 40
1.11312176877296
 40
1.145225199332284
 40
1.225483775412819
 40
1.329819923771528
 40
1.434156071994418
 40
1.514414647795839
 40
1.546518078208447
 40
1.57897476426022
 40
1.662678849314215
 40
1.777131373668436
 40
1.901833377474827
 40
2.016285900500617
 40
2.099989982527984
 40
2.132446666570342
 40
2.158782354486064
 40
2.216720867907855
 40
2.274659381334278
 40
2.300995069256212
 40
2.333451754066184
 40
2.417155836543865
 40
2.531608358985304
 40
2.656310362283799
 40
2.770762886388932
 40
2.854466971340097
 40
2.886923657363904
 40
2.913597976833338
 40
2.98238964287514
 40
3.076451716947002
 40
3.178937260458615
 40
3.272999334740016
 40
3.341791001059236
 40
3.368465320663548
 40
3.396976080738798
 40
3.472140811846034
 40
3.578408190308723
 40
3.700226892456188
 40
3.822045594634434
 40
3.928312973256569
 40
4.003477705314967
 40
4.031988456867032
 40
4.058324144797832
 40
4.116262658237001
 40
4.174201171400807
 40
4.200536849608743
 40
4.200536849608743
 40
4.200536849608743
 40
4.200536849608743
 10
185.985770496161
 20
15.75844135397705
 10
185.993825954468
 20
15.75844359811686
 10
186.0220200663241
 20
15.75845146032797
 10
186.0765534803674
 20
15.75830754828372
 10
186.1482891808604
 20
15.75909120499898
 10
186.2236240137062
 20
15.75627570463811
 10
186.2713052366439
 20
15.76298403400958
 10
186.3195071245616
 20
15.75197563692432
 10
186.3062571799873
 20
15.80546402997033
 10
186.3151093964539
 20
15.86049583543091
 10
186.3108698036285
 20
15.95419908726109
 10
186.313348348128
 20
16.04959482218532
 10
186.309093870606
 20
16.14356821983387
 10
186.3179818665846
 20
16.19795062438012
 10
186.3046977409945
 20
16.25233997691461
 10
186.3514119277108
 20
16.23842216335358
 10
186.3943254545737
 20
16.24103877374043
 10
186.4605443456685
 20
16.23648422450754
 10
186.5013342271799
 20
16.22778162134163
 10
186.5525145690819
 20
16.23531799890193
 10
186.52537204872
 20
16.19349970223288
 10
186.4803096055707
 20
16.20284992072596
 10
186.4942065045051
 20
16.13841207371838
 10
186.4858414431654
 20
16.07378219627399
 10
186.4903632178398
 20
15.97529141193888
 10
186.4854741311167
 20
15.8759593284257
 10
186.4950258992082
 20
15.81293115552969
 10
186.47997614552
 20
15.74964011499788
 10
186.5449159457208
 20
15.76515072944269
 10
186.6116246399497
 20
15.75499387697812
 10
186.7241435470827
 20
15.75988800099367
 10
186.8390235448954
 20
15.75691204732784
 10
186.9519871999747
 20
15.76221664184991
 10
187.0176267597677
 20
15.75107306472089
 10
187.0816276691053
 20
15.76744532319857
 10
187.0703142889189
 20
15.71761689905274
 10
187.077533987151
 20
15.67416715212123
 10
187.0703142611268
 20
15.63071745587445
 10
187.0816277175994
 20
15.58088895196876
 10
187.0176263598971
 20
15.59726166091362
 10
186.951992124046
 20
15.58611271661588
 10
186.838997431733
 20
15.59144857206854
 10
186.7242456548644
 20
15.58834345663822
 10
186.611318368686
 20
15.59364894682588
 10
186.5455220903585
 20
15.58257300019594
 10
186.4816097975358
 20
15.59887597847617
 10
186.4936015165126
 20
15.54423524395742
 10
186.4862104613006
 20
15.48854295047842
 10
186.4892684841982
 20
15.3964968914057
 10
186.4893422785684
 20
15.30179109873102
 10
186.4860313578359
 20
15.20952782902265
 10
186.4939505989904
 20
15.15435768736141
 10
186.4815076611617
 20
15.10058169100136
 10
186.5389116551632
 20
15.11453768862782
 10
186.5994708140383
 20
15.10511457884227
 10
186.7048680855081
 20
15.10942885928705
 10
186.8204294070623
 20
15.10835504612032
 10
186.9359688877798
 20
15.10725965900995
 10
187.0414181130841
 20
15.11162525770633
 10
187.1018680471805
 20
15.10209426030672
 10
187.1592837739111
 20
15.1161728960638
 10
187.1477773876711
 20
15.06707153265683
 10
187.153756678175
 20
15.02564658018649
 10
187.1520311050803
 20
14.97651677966695
 10
187.1521500122972
 20
14.94854428447607
 10
187.1521871691834
 20
14.93980288195949
 72
     4
 94
        3
 73
     0
 74
     0
 95
       62
 96
       58
 40
0.0
 40
0.0
 40
0.0
 40
0.0
 40
0.0598250028308769
 40
0.20248464868979
 40
0.3727558389221599
 40
0.5154154847936923
 40
0.5752404975786476
 40
0.933232677548849
 40
1.290451762839598
 40
1.602077253145977
 40
1.699931634112213
 40
1.799359756425145
 40
2.270120149657183
 40
2.804661928461637
 40
2.882342287383346
 40
3.076543185719196
 40
3.329004354835656
 40
3.581465524568482
 40
3.775666424543762
 40
3.853346784558382
 40
3.899120679595128
 40
3.984129341792126
 40
4.029903236817474
 40
4.105797496059631
 40
4.29553314415259
 40
4.542189486611831
 40
4.788845828875778
 40
4.978581476410164
 40
5.054475735244407
 40
5.621734664339408
 40
6.130867242037439
 40
6.225249780948686
 40
6.318913039727446
 40
6.663579954559106
 40
7.04749890022499
 40
7.435230791575962
 40
7.498943906668374
 40
7.650875181210396
 40
7.832212509001935
 40
7.984143783697349
 40
8.047856898903504
 40
8.091554632733015
 40
8.17270756696468
 40
8.21640530076841
 40
8.289021782161294
 40
8.462184160757667
 40
8.668861838005748
 40
8.84202421526434
 40
8.914640695475535
 40
8.989881580861741
 40
9.155411528827644
 40
9.320941477744425
 40
9.396182352487674
 40
9.454709011144221
 40
9.583467660171156
 40
9.712226309013435
 40
9.770752957989888
 40
9.770752957989888
 40
9.770752957989888
 40
9.770752957989888
 10
187.1521871691834
 20
14.93980288195949
 10
187.1322348171624
 20
14.93980875568671
 10
187.0647037716466
 20
14.93982863806156
 10
186.9410612161789
 20
14.93949362520325
 10
186.7863180150057
 20
14.94107673750511
 10
186.6697349482479
 20
14.93686078860494
 10
186.4550942634241
 20
14.95215205331627
 10
186.8518948407229
 20
14.59198721286193
 10
186.8945656069268
 20
14.37510503397166
 10
187.3189162146611
 20
14.19325062511448
 10
187.1439821496074
 20
14.0898519656807
 10
187.0194523925084
 20
13.87831523212727
 10
186.7666277235942
 20
14.34806081001559
 10
186.4797602893627
 20
14.99511516984521
 10
186.4906335926659
 20
14.68782672154693
 10
186.488289277796
 20
14.52288616971778
 10
186.4861096126411
 20
14.28879670711693
 10
186.4980774396346
 20
14.04498072421783
 10
186.468798474063
 20
13.89855796860985
 10
186.511452262547
 20
13.75113490174538
 10
186.4239814005639
 20
13.7668579730622
 10
186.3768527606744
 20
13.76694303543455
 10
186.2898973207713
 20
13.75109425482909
 10
186.3313474021722
 20
13.89527771422762
 10
186.3029875004285
 20
14.03855052698456
 10
186.3145973775299
 20
14.27674947365264
 10
186.3124175648272
 20
14.50517235240346
 10
186.3103111127993
 20
14.66705729375994
 10
186.3208035438324
 20
14.98153709333752
 10
186.0128963252894
 20
14.29229470872433
 10
185.7055258267455
 20
13.81476750243051
 10
185.5851367066274
 20
14.0374111263743
 10
185.407460791072
 20
14.15011034955561
 10
185.8853326362894
 20
14.32548143465462
 10
185.9353959057207
 20
14.5609192925203
 10
186.3583799621719
 20
14.95322989344607
 10
186.1276754273541
 20
14.93655307029064
 10
186.0049685859342
 20
14.9426951894877
 10
185.8325483095661
 20
14.93312822699573
 10
185.7213224694449
 20
14.95448818489665
 10
185.6025779627448
 20
14.92136265357418
 10
185.6183169706685
 20
15.00203900606883
 10
185.6178550933763
 20
15.04645414290854
 10
185.6027881889931
 20
15.12967081778534
 10
185.7372380935443
 20
15.09062651983884
 10
185.8619755545747
 20
15.11739729328423
 10
186.062875523728
 20
15.10063949044053
 10
186.1921540949353
 20
15.12204225913005
 10
186.3328419928294
 20
15.08868778853421
 10
186.2980927452615
 20
15.22651875785069
 10
186.3222185666713
 20
15.34963257349481
 10
186.2967086182393
 20
15.47024055670336
 10
186.3333251146684
 20
15.60539865141495
 10
186.2211417027769
 20
15.58094545781891
 10
186.1280356457136
 20
15.59307749842022
 10
186.0191547579819
 20
15.58957630069994
 10
185.9569697640964
 20
15.58981755951603
 10
185.9375369557246
 20
15.58989295124144
 97
        3
330
A6
330
A4
330
A5
 75
     1
 76
     2
 52
45.0
 41
0.1
 77
     0
 78
     1
 53
45.0
 43
0.0
 44
0.0
 45
-0.282842712474619
 46
0.0
 79
     0
 98
        1
 10
0.0
 20
0.0
  0
HATCH
  5
C4
330
48
100
AcDbEntity
  8
1
  6
Continuous
 62
     2
100
AcDbHatch
 10
0.0
 20
0.0
 30
0.0
210
0.0
220
0.0
230
1.0
  2
CUSTOM2
 70
     0
 71
     1
 91
        1
 92
        1
 93
        1
 72
     4
 94
        3
 73
     0
 74
     0
 95
      124
 96
      120
 40
0.0
 40
0.0
 40
0.0
 40
0.0
 40
0.027818722962451
 40
0.1011590162384269
 40
0.2048470170590523
 40
0.3237088716559245
 40
0.4425707262522284
 40
0.5462587270700116
 40
0.6195990203312934
 40
0.6474177522579513
 40
0.6750060736116077
 40
0.7357003855243611
 40
0.7963946998055345
 40
0.8239830245572637
 40
0.8540933811104015
 40
0.9373396629410127
 40
1.06309468734335
 40
1.220731268638189
 40
1.399622220914863
 40
1.589140358637848
 40
1.778658496424014
 40
1.957549448940681
 40
2.115186030873331
 40
2.240941056914607
 40
2.324187341760704
 40
2.354297700109554
 40
2.381886024672061
 40
2.442580338710649
 40
2.503274652750673
 40
2.53086297731478
 40
2.560983949278733
 40
2.640393784453079
 40
2.752662861759302
 40
2.881361560118319
 40
3.010060258455366
 40
3.122329335705513
 40
3.201739170818127
 40
3.231860142753487
 40
3.264298024030544
 40
3.352343701778415
 40
3.48209522686894
 40
3.639650650173201
 40
3.811108022565656
 40
3.982565394928165
 40
4.140120818152746
 40
4.269872343141457
 40
4.357918020802519
 40
4.390355902044148
 40
4.423256253992718
 40
4.508104530073239
 40
4.624121560637007
 40
4.750528176031763
 40
4.86654520660221
 40
4.951393482692168
 40
4.984293834645569
 40
5.011450833242482
 40
5.071196230152265
 40
5.130941627057338
 40
5.158098625649003
 40
5.190998977601693
 40
5.275847253689519
 40
5.391864284256953
 40
5.518270899648498
 40
5.634287930209537
 40
5.719136206288211
 40
5.752036558236099
 40
5.782130946283124
 40
5.862783906229299
 40
5.979550131775166
 40
6.117984316640572
 40
6.263641154588117
 40
6.402075339414323
 40
6.518841564908118
 40
6.599494524815699
 40
6.629588912848937
 40
6.654403028226513
 40
6.713575149488308
 40
6.784199939329683
 40
6.843372060493785
 40
6.86818617580303
 40
6.896246243202126
 40
6.939586233758576
 40
6.967846564565204
 40
7.043584251090143
 40
7.153234334452001
 40
7.28323185573475
 40
7.420011856035784
 40
7.550009376580136
 40
7.659659458835535
 40
7.735397144417528
 40
7.7636574748517
 40
7.796409728011358
 40
7.880876065096632
 40
7.996370852466018
 40
8.122208446418913
 40
8.237703224799507
 40
8.3221695620112
 40
8.354921815206215
 40
8.382078813307995
 40
8.441824209207297
 40
8.501569605240444
 40
8.528726603486021
 40
8.56147885669607
 40
8.64594519387812
 40
8.761439980865632
 40
8.887277580764774
 40
9.002772362001295
 40
9.087238696661515
 40
9.11999094923597
 40
9.152428830613669
 40
9.240474508638885
 40
9.370226034149836
 40
9.527781457984721
 40
9.69923883098171
 40
9.870696203978902
 40
10.02825162781432
 40
10.15800315332594
 40
10.24604883135149
 40
10.27848670378552
 40
10.27848670378552
 40
10.27848670378552
 40
10.27848670378552
 10
195.3821827564383
 20
14.01410517385757
 10
195.3914554737523
 20
14.01410498511274
 10
195.425174453686
 20
14.01410430876714
 10
195.4934706812465
 20
14.01411807243305
 10
195.592014171158
 20
14.01403224219545
 10
195.7062066464812
 20
14.0144175561225
 10
195.8185894417071
 20
14.01300835897545
 10
195.9214376600119
 20
14.01719117422243
 10
195.9806839874849
 20
14.00823089251982
 10
196.0371265937034
 20
14.0216443452606
 10
196.0246255586956
 20
13.97087198613361
 10
196.0329549635704
 20
13.92589320939067
 10
196.0248170841121
 20
13.88056752990488
 10
196.0370529214458
 20
13.82931932408465
 10
195.9747773490334
 20
13.84447955365276
 10
195.9060513026869
 20
13.83359750710742
 10
195.7782756749592
 20
13.83911304747972
 10
195.6262984511643
 20
13.83700851253698
 10
195.4502695972523
 20
13.83771002588473
 10
195.2644431934287
 20
13.83745237531291
 10
195.0786167437175
 20
13.83771005144603
 10
194.9025880142169
 20
13.83700841847731
 10
194.7506104154194
 20
13.83911332229988
 10
194.6228357664554
 20
13.8335968076764
 10
194.554107783658
 20
13.84448077125942
 10
194.4918349042883
 20
13.82931786684209
 10
194.5040616290017
 20
13.88057510805171
 10
194.4960004462597
 20
13.92582473272425
 10
194.5040675809892
 20
13.97106357955323
 10
194.4918238487083
 20
14.02234176909958
 10
194.5525017120697
 20
14.00749577363134
 10
194.6162810745736
 20
14.01756448170735
 10
194.7277314353502
 20
14.01294644211999
 10
194.8497533443824
 20
14.01413328905469
 10
194.9719538137823
 20
14.01515863900634
 10
195.0829794287392
 20
14.01092475623402
 10
195.1476517413958
 20
14.02018584521739
 10
195.2091162810501
 20
14.00604423049682
 10
195.1930065601336
 20
14.07235527884517
 10
195.2042980327358
 20
14.14447790121976
 10
195.1987400822561
 20
14.27513760888286
 10
195.2008035061691
 20
14.42607323708242
 10
195.2000167127295
 20
14.59335873107886
 10
195.2007845215627
 20
14.76061110332304
 10
195.1988038785628
 20
14.91163289269914
 10
195.2041306156621
 20
15.04206069552996
 10
195.1933101388425
 20
15.11465442605899
 10
195.2090326429875
 20
15.18150469436799
 10
195.143270813249
 20
15.16580512490825
 10
195.0756367830764
 20
15.17609243083996
 10
194.9615885293809
 20
15.17113786847123
 10
194.8451242674902
 20
15.17414128030475
 10
194.7306554121477
 20
15.16880303143389
 10
194.6640324657812
 20
15.18001268074826
 10
194.5990769715185
 20
15.16349132665012
 10
194.6107989758708
 20
15.2147372047706
 10
194.6032830189121
 20
15.25950333784091
 10
194.6107989878835
 20
15.30426944897962
 10
194.5990769505347
 20
15.35551536129741
 10
194.66403263392
 20
15.33899381766815
 10
194.7306533339821
 20
15.35020571373944
 10
194.8451352858063
 20
15.34485436710664
 10
194.9615454436962
 20
15.34791188771117
 10
195.0757660174641
 20
15.34278499010708
 10
195.1430150439227
 20
15.35345733355598
 10
195.2083325941438
 20
15.33742082669077
 10
195.1941391448553
 20
15.39949685750054
 10
195.2036059462994
 20
15.46586761628762
 10
195.1990269004085
 20
15.58239972741966
 10
195.2007696555948
 20
15.71426685022376
 10
195.1997551495391
 20
15.85615960150273
 10
195.2017191344373
 20
15.9876905070258
 10
195.1964668553851
 20
16.10524577283002
 10
195.2073408763474
 20
16.16947789001584
 10
195.1919536641853
 20
16.23108802545047
 10
195.2407591537799
 20
16.2170240738211
 10
195.2853995564726
 20
16.21954742075314
 10
195.3538643946742
 20
16.2151279740171
 10
195.3959106169103
 20
16.20613025544035
 10
195.4487544758776
 20
16.2141171486651
 10
195.4207035002015
 20
16.17113917611672
 10
195.3749142248594
 20
16.18259552043838
 10
195.3869539073265
 20
16.12173520005137
 10
195.3796086070641
 20
16.05769299468773
 10
195.3831195826162
 20
15.94909368863911
 10
195.3819806760173
 20
15.82494319144753
 10
195.3819174780262
 20
15.69189719829878
 10
195.3832872966867
 20
15.56797381249555
 10
195.3791638801314
 20
15.45868337849339
 10
195.3877763103564
 20
15.3960858009417
 10
195.3746757454401
 20
15.33740133296365
 10
195.4393884328198
 20
15.35362113810902
 10
195.5060405953155
 20
15.34270260383311
 10
195.6198779541103
 20
15.34793740173756
 10
195.7357259122097
 20
15.34485547516913
 10
195.849692426328
 20
15.35018259812512
 10
195.91603410181
 20
15.33904208166543
 10
195.9807188525479
 20
15.35546979593178
 10
195.9689820772722
 20
15.30425925210051
 10
195.9765168063041
 20
15.25950334121001
 10
195.9689820992258
 20
15.21474739010028
 10
195.9807188140737
 20
15.16353690871041
 10
195.9160344075252
 20
15.17996427794221
 10
195.8496886430824
 20
15.1688278444727
 10
195.7357459487012
 20
15.17413115893121
 10
195.6197995623054
 20
15.17114764593544
 10
195.5062756882122
 20
15.17606892268395
 10
195.4389231318804
 20
15.1658508751352
 10
195.3734285122495
 20
15.18145996138816
 10
195.3891713619218
 20
15.11463851827411
 10
195.3783275998212
 20
15.04207057815879
 10
195.3836581629793
 20
14.91162247614417
 10
195.3817136151854
 20
14.76064558185226
 10
195.3823133683214
 20
14.59322243934158
 10
195.3821506559605
 20
14.42656176118372
 10
195.3821895488135
 20
14.27360142921636
 10
195.38218164131
 20
14.14849178985705
 10
195.3821828382744
 20
14.0650789099142
 10
195.3821827716208
 20
14.02491778281976
 10
195.3821827564383
 20
14.01410517385757
 97
        1
330
A7
 75
     1
 76
     2
 52
45.0
 41
0.1
 77
     0
 78
     1
 53
45.0
 43
0.0
 44
0.0
 45
-0.282842712474619
 46
0.0
 79
     0
 98
        1
 10
0.0
 20
0.0
  0
HATCH
  5
C5
330
48
100
AcDbEntity
  8
1
  6
Continuous
 62
     2
100
AcDbHatch
 10
0.0
 20
0.0
 30
0.0
210
0.0
220
0.0
230
1.0
  2
CUSTOM3
 70
     0
 71
     1
 91
        1
 92
        1
 93
        1
 72
     4
 94
        3
 73
     0
 74
     0
 95
      131
 96
      127
 40
0.0
 40
0.0
 40
0.0
 40
0.0
 40
0.0195577029826184
 40
0.0426490537461471
 40
0.2863607575856534
 40
0.5344948436189094
 40
0.7842238845573328
 40
0.8737315789467748
 40
0.9803832810313244
 40
1.09284227451707
 40
1.199761146656829
 40
1.289788768186534
 40
1.351573580786205
 40
1.370727117561434
 40
1.416400936017844
 40
1.470914848355988
 40
1.516588666791777
 40
1.535742203552858
 40
1.634216592293168
 40
1.76028334117494
 40
1.897966686682067
 40
2.031216387368868
 40
2.049689751137862
 40
2.101115601646798
 40
2.179502577739915
 40
2.27885931831403
 40
2.393194462258687
 40
2.516516648383801
 40
2.64283451540593
 40
2.766156701983431
 40
2.880491846754546
 40
2.979848588358589
 40
3.058235565443766
 40
3.10966141666892
 40
3.128134780704096
 40
3.146783742386412
 40
3.191254343315273
 40
3.244332157315932
 40
3.288802758225807
 40
3.307451719895079
 40
3.327717853844692
 40
3.383747753580051
 40
3.468388665924441
 40
3.57448783769875
 40
3.694892515728854
 40
3.822449946851993
 40
3.950007377920382
 40
4.070412055800475
 40
4.17651122736803
 40
4.261152139501476
 40
4.31718203907667
 40
4.337448172964589
 40
4.620011002696224
 40
4.885096638397536
 40
4.945373043518326
 40
5.014107710488672
 40
5.070481727652072
 40
5.319246955636596
 40
5.584812164506088
 40
5.85900091205696
 40
6.133746937542159
 40
6.401732212968962
 40
6.420736683995581
 40
6.472845717451146
 40
6.550702743894131
 40
6.646951193874339
 40
6.754234497930635
 40
6.865196086587413
 40
6.972479390357871
 40
7.068727839772033
 40
7.146584865451042
 40
7.198693898189272
 40
7.217698368905412
 40
7.234950401630889
 40
7.276089864269932
 40
7.325191803516039
 40
7.366331266090422
 40
7.383583298769772
 40
7.402779163492178
 40
7.453386443254552
 40
7.524934666445582
 40
7.606953361405894
 40
7.688972056429074
 40
7.760520279784267
 40
7.811127559734538
 40
7.830323424546159
 40
7.847844055299789
 40
7.89479934566683
 40
7.962779392744518
 40
8.043374293560564
 40
8.12817414514947
 40
8.208769044817275
 40
8.276749090376976
 40
8.323704379669534
 40
8.341225010056268
 40
8.358497614800417
 40
8.401679126686593
 40
8.457815092185651
 40
8.513951057728056
 40
8.557132569707955
 40
8.574405174504998
 40
8.602340668616314
 40
8.643455660539857
 40
8.663225271966525
 40
8.715345156564172
 40
8.789031889628507
 40
8.873502045520237
 40
8.95797219432386
 40
9.03165892556775
 40
9.083778811234442
 40
9.103548423002904
 40
9.11955008312347
 40
9.160817522379743
 40
9.217244429110137
 40
9.278724491644622
 40
9.335151398295379
 40
9.376418837357674
 40
9.392420497300462
 40
9.401196302734654
 40
9.417494229384076
 40
9.426270027749348
 40
9.440875075477381
 40
9.47570249699856
 40
9.517270709865722
 40
9.552098131993889
 40
9.566703169884097
 40
9.566703169884097
 40
9.566703169884097
 40
9.566703169884097
 10
194.6170254148479
 20
15.67015871511028
 10
194.6134345093371
 20
15.6645369070216
 10
194.6056039123625
 20
15.65227754419112
 10
194.5129968974546
 20
15.61601916040975
 10
194.4887622233247
 20
15.40148444212714
 10
194.3858709845939
 20
15.22197284509706
 10
194.1220492364305
 20
15.03615573798145
 10
194.284547156918
 20
14.95959336566082
 10
194.3607225760838
 20
14.89856693195442
 10
194.4492171072758
 20
14.83515804544759
 10
194.5389930233111
 20
14.77525634219561
 10
194.5883817636046
 20
14.72102154849209
 10
194.6745708157382
 20
14.69286240541833
 10
194.6411260674229
 20
14.65713309652811
 10
194.621467116631
 20
14.62550387991906
 10
194.5919888217882
 20
14.58475872796069
 10
194.5688989446032
 20
14.55504663489643
 10
194.5380205968356
 20
14.50211422668495
 10
194.4729193365741
 20
14.627403349389
 10
194.3796000122416
 20
14.68213900233939
 10
194.2950636285139
 20
14.73916423939337
 10
194.1722498125744
 20
14.89675287427522
 10
194.1764450847302
 20
14.82035806766836
 10
194.1751478652678
 20
14.77361280161296
 10
194.1758126448077
 20
14.695847858126
 10
194.1755549986958
 20
14.59902068324423
 10
194.1756431239922
 20
14.48650279078809
 10
194.1756077302282
 20
14.365240859457
 10
194.175651175828
 20
14.24086897858961
 10
194.1755199942406
 20
14.11967683631337
 10
194.1759477562047
 20
14.00691148919743
 10
194.1746678202312
 20
13.91082913768744
 10
194.1779759851044
 20
13.831138264687
 10
194.1715197740088
 20
13.78815175788784
 10
194.1806208705556
 20
13.74955432372043
 10
194.1447910339936
 20
13.7581088772407
 10
194.1115223815253
 20
13.75342519985446
 10
194.0604562576041
 20
13.75351298759784
 10
194.0269723972815
 20
13.75794430283822
 10
193.9907585408754
 20
13.74960793842508
 10
194.0009782568666
 20
13.79145277179284
 10
193.9936487887773
 20
13.83778560820173
 10
193.9973633136103
 20
13.92374831106014
 10
193.9959480554897
 20
14.02605142704849
 10
193.9964105554639
 20
14.14453223931512
 10
193.9962773686232
 20
14.26957683153356
 10
193.9963015910046
 20
14.3947582810705
 10
193.9963354925552
 20
14.51286645379058
 10
193.9962060293133
 20
14.61628748709516
 10
193.9965507549082
 20
14.69932036153667
 10
193.9958698278691
 20
14.75143368521243
 10
193.9994586600624
 20
14.87912907821361
 10
193.7826171386438
 20
14.5804871681962
 10
193.602135492195
 20
14.35263981511509
 10
193.5490322295612
 20
14.49373443289817
 10
193.5200429133149
 20
14.54325767560942
 10
193.419664806282
 20
14.64641779790108
 10
193.7405127723262
 20
14.7269503502378
 10
193.8689897005429
 20
14.91066283036435
 10
194.0906454325359
 20
15.11931995771763
 10
194.1770224894069
 20
15.29339211228343
 10
194.4549394229078
 20
15.56967051342517
 10
194.3346247839284
 20
15.56534559551114
 10
194.286319735135
 20
15.56614856202555
 10
194.2102377454905
 20
15.56574582146584
 10
194.1167010009752
 20
15.56590275611611
 10
194.0117594788557
 20
15.56582502576224
 10
193.9033887738719
 20
15.56595464378556
 10
193.7981454235898
 20
15.56554393490692
 10
193.7056237819414
 20
15.56682073671592
 10
193.6268130800708
 20
15.5634076653485
 10
193.5839674565381
 20
15.57023350036321
 10
193.5449499586516
 20
15.56065064201124
 10
193.5526365271865
 20
15.59420779565543
 10
193.5485464404313
 20
15.62523550322234
 10
193.5485531368815
 20
15.672365292709
 10
193.5526239724912
 20
15.70340941646779
 10
193.5449495574584
 20
15.73701861635902
 10
193.5834819405495
 20
15.72748410420872
 10
193.6241228014481
 20
15.73397435498071
 10
193.6951471850464
 20
15.73100150650254
 10
193.7729318149634
 20
15.73174761399157
 10
193.8507292246476
 20
15.73247814044526
 10
193.9217232089908
 20
15.7295423551416
 10
193.9624279791821
 20
15.73595468772952
 10
194.000985348991
 20
15.72650524176004
 10
193.9927342754929
 20
15.76264692158784
 10
193.9982346669358
 20
15.80129837613227
 10
193.9955754206165
 20
15.86913528561839
 10
193.9965815471534
 20
15.9459164153874
 10
193.996017801832
 20
16.02849393582757
 10
193.9970714526593
 20
16.10517329229878
 10
193.9942675863131
 20
16.173319907767
 10
194.0000702721305
 20
16.21132399809346
 10
193.991565455116
 20
16.24758448077646
 10
194.0255610233125
 20
16.23755723771853
 10
194.0594575683099
 20
16.24073266813706
 10
194.1126669060347
 20
16.2350896564061
 10
194.1660768574483
 20
16.23434774436425
 10
194.199591464949
 20
16.2281922348298
 10
194.2388086183039
 20
16.23346029773593
 10
194.2120263698493
 20
16.19253380793488
 10
194.1708111001724
 20
16.20371204538111
 10
194.1782641540875
 20
16.15867056192124
 10
194.1742227952185
 20
16.11412278028144
 10
194.1761714049641
 20
16.04223572621703
 10
194.1752364849759
 20
15.96168630588771
 10
194.176510719003
 20
15.88173995404994
 10
194.1732043793865
 20
15.80841837083183
 10
194.1802106179961
 20
15.76688643002568
 10
194.1701440380127
 20
15.72752418568112
 10
194.2029814803922
 20
15.73468063430981
 10
194.2364577296482
 20
15.73027243137944
 10
194.2915053476019
 20
15.73217943347897
 10
194.3489502595316
 20
15.73185366407289
 10
194.402302624831
 20
15.73106308733081
 10
194.4398540896639
 20
15.73313959118074
 10
194.4623172523238
 20
15.73022338167108
 10
194.4751678073731
 20
15.73572552644056
 10
194.4858255685888
 20
15.73801118197791
 10
194.4986635650144
 20
15.74494972588053
 10
194.514599103307
 20
15.72853046313672
 10
194.5410623920892
 20
15.71709122319449
 10
194.5726805253757
 20
15.6964468783519
 10
194.5987255892151
 20
15.68116869628295
 10
194.6128517723973
 20
15.67266976323184
 10
194.6170254148479
 20
15.67015871511028
 97
        1
330
A8
 75
     1
 76
     2
 52
45.0
 41
0.1
 77
     0
 78
     1
 53
45.0
 43
0.0
 44
0.0
 45
-0.282842712474619
 46
0.0
 79
     0
 98
        1
 10
0.0
 20
0.0
  0
HATCH
  5
C6
330
48
100
AcDbEntity
  8
1
  6
Continuous
 62
     2
100
AcDbHatch
 10
0.0
 20
0.0
 30
0.0
210
0.0
220
0.0
230
1.0
  2
CUSTOM4
 70
     0
 71
     1
 91
        1
 92
        1
 93
        1
 72
     4
 94
        3
 73
     0
 74
     0
 95
       91
 96
       87
 40
0.0
 40
0.0
 40
0.0
 40
0.0
 40
0.0267532254356701
 40
0.0856103386464102
 40
0.1444674521996621
 40
0.1712206856618514
 40
0.2039416005642536
 40
0.2955601971652484
 40
0.4362601844617202
 40
0.6162252844507534
 40
0.8256392189704982
 40
1.054685709844468
 40
1.293548478893588
 40
1.532411247938332
 40
1.761457738799596
 40
1.970871673298593
 40
2.150836773256818
 40
2.291536760495679
 40
2.383155356836757
 40
2.415876284101405
 40
2.44262951748805
 40
2.50148663094918
 40
2.560343744424327
 40
2.5870969778266
 40
2.617068194441027
 40
2.699247336756197
 40
2.822032643466481
 40
2.973822353258039
 40
3.143014704823481
 40
3.31800793688006
 40
3.487200288186894
 40
3.638989997548431
 40
3.76177530379493
 40
3.843954445753265
 40
3.87392566222996
 40
3.890812773500668
 40
3.907699884771846
 40
3.937960767857411
 40
3.980983618142499
 40
4.199085915228644
 40
4.439444339237435
 40
4.677588241261079
 40
5.05069831783805
 40
5.448212454763407
 40
5.855291218044876
 40
6.13857543888552
 40
6.417434507584319
 40
6.444551104393978
 40
6.504207617363254
 40
6.563864130314578
 40
6.590980727104148
 40
6.848609460381573
 40
7.10961199066853
 40
7.352910904446232
 40
7.557830220705587
 40
7.587518925913504
 40
7.652834077375946
 40
7.718149228845929
 40
7.747837934062232
 40
7.854880190301149
 40
7.976511257403677
 40
8.369487896592506
 40
8.757514959223828
 40
9.126072419331262
 40
9.460639380392353
 40
9.746695593036122
 40
9.7775699431189
 40
9.807050320932
 40
9.830377336129123
 40
9.886003295436208
 40
9.952395569430108
 40
10.00802152870646
 40
10.03134854388238
 40
10.21356951009608
 40
10.42203479292894
 40
10.66154556731084
 40
10.91693789564324
 40
11.15832906556583
 40
11.18982674596641
 40
11.27286608520425
 40
11.39026653033367
 40
11.52484752840903
 40
11.65942852648465
 40
11.77682897161501
 40
11.859868310857
 40
11.89136598230446
 40
11.89136598230446
 40
11.89136598230446
 40
11.89136598230446
 10
190.7027885008196
 20
14.70699600701772
 10
190.7028237765288
 20
14.71587847311985
 10
190.7029366710796
 20
14.74430237047346
 10
190.7012984568489
 20
14.79409639169803
 10
190.7069750292911
 20
14.83657564478154
 10
190.6956928731706
 20
14.88730154856847
 10
190.7632296979031
 20
14.87012900740109
 10
190.8388029210701
 20
14.88290227165996
 10
190.9828357056001
 20
14.87629729457382
 10
191.1569419185427
 20
14.87888462206466
 10
191.3639599611003
 20
14.87800591955553
 10
191.5894688172378
 20
14.87828207920027
 10
191.8251162293406
 20
14.87818339658662
 10
192.0607640531349
 20
14.87828184412767
 10
192.2862717580626
 20
14.87800678190789
 10
192.4932934632805
 20
14.87888186270734
 10
192.667388891529
 20
14.87630522678446
 10
192.8114492071986
 20
14.88288290449213
 10
192.8869691915294
 20
14.87016243405604
 10
192.954577603703
 20
14.88726400191687
 10
192.9430840140677
 20
14.83674785802941
 10
192.9505104581733
 20
14.79253252226501
 10
192.9428838927986
 20
14.7486796650361
 10
192.9546489459426
 20
14.69878374479327
 10
192.8930788491983
 20
14.71393227712512
 10
192.8256791738672
 20
14.70310665350673
 10
192.7013004056222
 20
14.70852031626237
 10
192.5554428236572
 20
14.70649205390785
 10
192.3893576440086
 20
14.70715777578387
 10
192.2188412621725
 20
14.70689643521242
 10
192.0519790855389
 20
14.70721553391094
 10
191.9087346827105
 20
14.70635302590762
 10
191.7773313869833
 20
14.70863300482988
 10
191.7239859134657
 20
14.70407704374202
 10
191.6485188456912
 20
14.70999914992877
 10
191.6769075779233
 20
14.70094169343353
 10
191.7033652409542
 20
14.6972591226893
 10
191.6633522907701
 20
14.66654271968271
 10
191.5713663691868
 20
14.67667591174643
 10
191.5439396207069
 20
14.43032502247782
 10
191.4478793967235
 20
14.27499558764376
 10
191.1917277964473
 20
13.94525417931566
 10
191.7627537732763
 20
14.08430022210451
 10
192.0173656320516
 20
14.08291779973363
 10
192.6279647048616
 20
13.99790569242085
 10
192.3340698578084
 20
14.29685417558204
 10
192.0133304286518
 20
14.44330856901774
 10
192.1313543360434
 20
14.50025540818287
 10
192.1724716466261
 20
14.52420099873348
 10
192.2156812394411
 20
14.54599758811229
 10
192.317457409445
 20
14.60928721253908
 10
192.4328867625249
 20
14.35147151408781
 10
192.6329591642277
 20
14.21616041113681
 10
192.7269077387228
 20
14.03792795138885
 10
192.9558829746394
 20
13.87997821027048
 10
192.8596031846708
 20
13.829159725763
 10
192.8167959763779
 20
13.79881292523054
 10
192.771824352878
 20
13.77466130281461
 10
192.7121720925213
 20
13.72552146747569
 10
192.6789731061325
 20
13.8599747567361
 10
192.5582013350797
 20
14.01594265286582
 10
192.1970976005979
 20
13.88569928059555
 10
191.8385061955541
 20
13.90224694409483
 10
191.457092045008
 20
13.89331229351864
 10
191.1703455282892
 20
13.82882671672408
 10
190.8592055599713
 20
13.94230668192824
 10
190.8268737818788
 20
13.83122259927768
 10
190.7896178253318
 20
13.81196313850013
 10
190.7865737632754
 20
13.85874784087298
 10
190.7679892860606
 20
13.89806853919133
 10
190.7512436616779
 20
13.95765983478234
 10
190.7383730915753
 20
14.00201969871283
 10
190.7042327806431
 20
14.09106331120203
 10
190.9482714457754
 20
14.02181042943768
 10
191.1441394486673
 20
14.00030369057744
 10
191.2395426381277
 20
14.28226484478462
 10
191.2945135769597
 20
14.44363045421122
 10
191.5159619357156
 20
14.71391177589738
 10
191.3849239381216
 20
14.70548446853735
 10
191.3110026555854
 20
14.7077900849697
 10
191.1977459876244
 20
14.70671378321657
 10
191.0694251807484
 20
14.7070763907651
 10
190.9404252030415
 20
14.70697724466086
 10
190.828784094629
 20
14.70699932712572
 10
190.7514663970026
 20
14.7069957918967
 10
190.713287653201
 20
14.70699595845081
 10
190.7027885008196
 20
14.70699600701772
 97
        1
330
A9
 75
     1
 76
     2
 52
45.0
 41
0.1
 77
     0
 78
     1
 53
45.0
 43
0.0
 44
0.0
 45
-0.282842712474619
 46
0.0
 79
     0
 98
        1
 10
0.0
 20
0.0
  0
HATCH
  5
C7
330
48
100
AcDbEntity
  8
1
  6
Continuous
 62
     2
100
AcDbHatch
 10
0.0
 20
0.0
 30
0.0
210
0.0
220
0.0
230
1.0
  2
CUSTOM5
 70
     0
 71
     1
 91
        1
 92
        1
 93
        1
 72
     4
 94
        3
 73
     0
 74
     0
 95
       35
 96
       31
 40
0.0
 40
0.0
 40
0.0
 40
0.0
 40
0.033523103661993
 40
0.0713218571712392
 40
0.4278866681487556
 40
0.8116865841964804
 40
1.198190238000141
 40
1.561379546812799
 40
1.659983174622196
 40
1.759315573807301
 40
2.13271961723121
 40
2.525233363588962
 40
2.910815397779832
 40
3.265244364303455
 40
3.592606723582194
 40
3.964386154604143
 40
4.359942131737965
 40
4.75815411863947
 40
4.843846538700047
 40
4.936650065543406
 40
5.25661660253756
 40
5.58170740441627
 40
5.899719158308365
 40
6.198363494280952
 40
6.466301046615965
 40
6.493895311537287
 40
6.559697020197079
 40
6.638234543442654
 40
6.704036252154407
 40
6.731630508423213
 40
6.731630508423213
 40
6.731630508423213
 40
6.731630508423213
 10
191.9736010568669
 20
16.23463843719134
 10
191.9676006097789
 20
16.22480690542322
 10
191.9548344099158
 20
16.20388988579792
 10
191.7949362006553
 20
16.17127126532715
 10
192.2322025842338
 20
15.88206680336692
 10
192.4345394828262
 20
15.68041138358441
 10
192.6819564267974
 20
15.43749387603277
 10
193.1831513624608
 20
15.3604766275777
 10
193.012556219897
 20
15.21876939174659
 10
192.9383299463203
 20
15.01710366209103
 10
192.6131432248188
 20
15.36956287174727
 10
192.3277741670664
 20
15.53175212559561
 10
192.0337604077658
 20
15.7368713005305
 10
191.8084452691134
 20
16.21827488595455
 10
191.5993085055521
 20
15.75343046609223
 10
191.3207873674835
 20
15.54350952252911
 10
191.0371383177209
 20
15.37424456359987
 10
190.7078639527832
 20
15.00142360907933
 10
190.6277012318224
 20
15.19708014459005
 10
190.4759724909744
 20
15.32491104190594
 10
190.9083395826796
 20
15.40454031765934
 10
191.0962565329766
 20
15.60026634915474
 10
191.3468477420503
 20
15.81632996916755
 10
191.5714350470162
 20
15.98190992300059
 10
191.6259775409711
 20
16.26133964636826
 10
191.7494661029011
 20
16.24737950408078
 10
191.806027334452
 20
16.24521268867647
 10
191.8761870984944
 20
16.2404685988136
 10
191.9333414022105
 20
16.23709429350541
 10
191.9644190320839
 20
16.23519854711119
 10
191.9736010568669
 20
16.23463843719134
 97
        1
330
AA
 75
     1
 76
     2
 52
45.0
 41
0.1
 77
     0
 78
     1
 53
45.0
 43
0.0
 44
0.0
 45
-0.282842712474619
 46
0.0
 79
     0
 98
        1
 10
0.0
 20
0.0
  0
HATCH
  5
C8
330
48
100
AcDbEntity
  8
1
  6
Continuous
 62
     2
100
AcDbHatch
 10
0.0
 20
0.0
 30
0.0
210
0.0
220
0.0
230
1.0
  2
CUSTOM6
 70
     0
 71
     1
 91
        1
 92
        1
 93
        1
 72
     4
 94
        3
 73
     0
 74
     0
 95
       15
 96
       11
 40
0.0
 40
0.0
 40
0.0
 40
0.0
 40
0.2785535985096802
 40
0.5215624748198895
 40
0.6076917376040323
 40
0.6938210001741056
 40
0.9405019146455473
 40
1.221691403489115
 40
1.30047187708101
 40
1.379252341684775
 40
1.379252341684775
 40
1.379252341684775
 40
1.379252341684775
 10
189.5681493631
 20
16.22930267330381
 10
189.6296017794178
 20
16.17691646592715
 10
189.7446649974115
 20
16.07882876798224
 10
190.0397348497244
 20
15.92889785897223
 10
189.9025147631858
 20
15.84343227515013
 10
189.8041227843779
 20
15.71085785201554
 10
189.7130033590651
 20
16.01616985781414
 10
189.3636839480656
 20
16.07967869465374
 10
189.5119258376571
 20
16.17896509880879
 10
189.5494081874237
 20
16.21252348402382
 10
189.5681493631
 20
16.22930267330381
 97
        1
330
AB
 75
     1
 76
     2
 52
45.0
 41
0.1
 77
     0
 78
     1
 53
45.0
 43
0.0
 44
0.0
 45
-0.282842712474619
 46
0.0
 79
     0
 98
        1
 10
0.0
 20
0.0
  0
HATCH
  5
C9
330
48
100
AcDbEntity
  8
1
  6
Continuous
 62
     2
100
AcDbHatch
 10
0.0
 20
0.0
 30
0.0
210
0.0
220
0.0
230
1.0
  2
CUSTOM7
 70
     0
 71
     1
 91
        1
 92
        1
 93
        1
 72
     4
 94
        3
 73
     0
 74
     0
 95
       75
 96
       71
 40
0.0
 40
0.0
 40
0.0
 40
0.0
 40
0.0342546099129691
 40
0.1245622414432346
 40
0.2522385480897518
 40
0.398599192294068
 40
0.5449598364980821
 40
0.6726361431438816
 40
0.762943774673696
 40
0.7971983935297973
 40
1.101723623449714
 40
1.408591244036663
 40
1.433332471690367
 40
1.487763172450162
 40
1.542193873081988
 40
1.566935100592536
 40
1.923523931821848
 40
2.271755704953593
 40
2.590579755100835
 40
2.858943305581064
 40
2.889120339309092
 40
2.918305855191039
 40
2.94136664553116
 40
2.996357760973051
 40
3.061992318140594
 40
3.116983433626778
 40
3.140044223997466
 40
3.411273122936359
 40
3.732441619740969
 40
3.761068217532667
 40
3.837787499630232
 40
3.948858699125869
 40
4.080541049104248
 40
4.219093782625635
 40
4.350776132722187
 40
4.461847332405521
 40
4.538566614678254
 40
4.567193212544503
 40
4.594907573998761
 40
4.6663814535573
 40
4.764111044010882
 40
4.870592538125685
 40
4.968322128642079
 40
5.039796008286793
 40
5.067510369784223
 40
5.094263603185436
 40
5.153120716668068
 40
5.211977830150511
 40
5.238731063551516
 40
5.272290535138783
 40
5.363380529444587
 40
5.497618415781293
 40
5.660621563453507
 40
5.838007341749208
 40
6.015393119910588
 40
6.178396267038185
 40
6.312634151842165
 40
6.403724143059154
 40
6.43728361267225
 40
6.464036846260866
 40
6.522893960004479
 40
6.581751071483739
 40
6.608504301590685
 40
6.637253941280832
 40
6.711397748902712
 40
6.812778057283325
 40
6.923237199249101
 40
7.024617507623745
 40
7.098761315207454
 40
7.127510946007405
 40
7.127510946007405
 40
7.127510946007405
 40
7.127510946007405
 10
188.4418622390564
 20
14.95849128473265
 10
188.4418622819707
 20
14.9470731340872
 10
188.4418624481129
 20
14.9055525784263
 10
188.4418593081786
 20
14.82146922003772
 10
188.44187882798
 20
14.70004497322329
 10
188.4417912187737
 20
14.55980494047449
 10
188.442111623523
 20
14.42006556794577
 10
188.4411605909741
 20
14.2974503889493
 10
188.4431978595967
 20
14.21587074438044
 10
188.4349433178746
 20
14.06271267077697
 10
188.7430797940901
 20
14.22560236054716
 10
189.0350645173736
 20
14.39482938688003
 10
189.0408354448707
 20
14.25973235781911
 10
189.0455471719891
 20
14.21617221160445
 10
189.0482535411917
 20
14.17211249350545
 10
189.0672545672961
 20
14.02272590363135
 10
188.6583942247302
 20
14.08681172241261
 10
188.3793710348833
 20
13.97296341411016
 10
188.1018081587167
 20
13.87364095811143
 10
187.8099837184401
 20
13.91630687596356
 10
187.7869144678659
 20
13.81321679744541
 10
187.7537474383334
 20
13.7869109124447
 10
187.7480653962739
 20
13.83455309036304
 10
187.7284214559046
 20
13.87180336115069
 10
187.7095089485623
 20
13.93007387847562
 10
187.6942849867708
 20
13.97385201007805
 10
187.6477246372937
 20
14.08759421046305
 10
187.989089731245
 20
14.05576301120049
 10
188.2679649367388
 20
14.02161435106481
 10
188.2617753034907
 20
14.16913976479652
 10
188.2630935452774
 20
14.24013150908833
 10
188.2624831689948
 20
14.34719767958662
 10
188.2625871570725
 20
14.47398529785998
 10
188.2629987964055
 20
14.6084924349605
 10
188.2613907841969
 20
14.73395549951185
 10
188.2659902567924
 20
14.84505246719118
 10
188.256418650221
 20
14.90761886800689
 10
188.2704001783691
 20
14.96595388295002
 10
188.2147384386704
 20
14.95289710582239
 10
188.1575655197822
 20
14.961363077495
 10
188.0616048925647
 20
14.95729976080637
 10
187.9633767522822
 20
14.95970889852475
 10
187.8672582457561
 20
14.95551600613389
 10
187.8104648525812
 20
14.96429346441164
 10
187.7550356873385
 20
14.95094936850123
 10
187.7670679427918
 20
15.00036910959257
 10
187.7592003173938
 20
15.04393988030396
 10
187.766629556383
 20
15.08830469118526
 10
187.7551930564144
 20
15.13902297763992
 10
187.8232102370134
 20
15.12162460757743
 10
187.8968496879747
 20
15.13417450237189
 10
188.0325064058211
 20
15.12799677011096
 10
188.1884909024526
 20
15.13029203093085
 10
188.3615926358144
 20
15.1294096826253
 10
188.5346942964182
 20
15.13029207142408
 10
188.6906789811218
 20
15.1279966295555
 10
188.8263351889797
 20
15.13417486262431
 10
188.8999756705654
 20
15.12162394218335
 10
188.9679914174724
 20
15.13902373012143
 10
188.9565590885923
 20
15.08830130414555
 10
188.9639539458297
 20
15.04397060811109
 10
188.9562039912272
 20
15.00028307550196
 10
188.9681203741877
 20
14.95063590098478
 10
188.9108170223618
 20
14.96461411338427
 10
188.8520145789773
 20
14.95539755673254
 10
188.75252936332
 20
14.9595226816493
 10
188.649428009835
 20
14.95822760025888
 10
188.5537846354574
 20
14.95854077077641
 10
188.4857467971617
 20
14.95848776697146
 10
188.4514462213443
 20
14.95849051871657
 10
188.4418622390564
 20
14.95849128473265
 97
        1
330
AC
 75
     1
 76
     2
 52
45.0
 41
0.1
 77
     0
 78
     1
 53
45.0
 43
0.0
 44
0.0
 45
-0.282842712474619
 46
0.0
 79
     0
 98
        1
 10
0.0
 20
0.0
  0
HATCH
  5
CA
330
48
100
AcDbEntity
  8
1
  6
Continuous
 62
     2
100
AcDbHatch
 10
0.0
 20
0.0
 30
0.0
210
0.0
220
0.0
230
1.0
  2
CUSTOM8
 70
     0
 71
     1
 91
        1
 92
        1
 93
        1
 72
     4
 94
        3
 73
     0
 74
     0
 95
       91
 96
       87
 40
0.0
 40
0.0
 40
0.0
 40
0.0
 40
0.0345987051695718
 40
0.1258134969461085
 40
0.2547723404888703
 40
0.4026032099153556
 40
0.550434079341642
 40
0.6793929228835227
 40
0.7706077146570467
 40
0.8052064287780072
 40
1.124852390615188
 40
1.427402236308779
 40
1.706356627453417
 40
1.9555414178751
 40
2.169485938566245
 40
2.344350786664714
 40
2.480568411561883
 40
2.590440557428905
 40
2.64918992715101
 40
2.749320643306214
 40
2.912632739879915
 40
3.147745656000117
 40
3.244827496384922
 40
3.338490056946511
 40
3.583815413206935
 40
3.761423943238295
 40
3.886956104362446
 40
3.985855451886651
 40
4.091766255337536
 40
4.250186473811729
 40
4.422734315084373
 40
4.62828568483845
 40
4.87209322775827
 40
5.152549652145388
 40
5.464967135837364
 40
5.803201477852284
 40
6.160362988813758
 40
6.193449448275813
 40
6.284170385501468
 40
6.419718138764309
 40
6.587285046385559
 40
6.774063446723473
 40
6.967245678113428
 40
7.154024078817442
 40
7.321590987025799
 40
7.457138740890129
 40
7.547859678555866
 40
7.580946138182425
 40
7.608533084714479
 40
7.669224367077462
 40
7.729915649429688
 40
7.757502595949741
 40
7.790278062553223
 40
7.880146277430693
 40
8.014419963180128
 40
8.180411842397628
 40
8.365434637679098
 40
8.55680107162237
 40
8.741823866830455
 40
8.907815745916022
 40
9.042089431507119
 40
9.131957646249244
 40
9.16473311279682
 40
9.41542506313974
 40
9.667986180958206
 40
9.694169807462373
 40
9.756607686047332
 40
9.831130315322223
 40
9.89356819389966
 40
9.919751820398504
 40
9.950967964690335
 40
9.996421631210447
 40
10.22087981037433
 40
10.44341866197521
 40
10.47847970788833
 40
10.57091337438734
 40
10.70159545461208
 40
10.85140174170339
 40
11.00120802880456
 40
11.13189010907362
 40
11.2243237758299
 40
11.25938480938936
 40
11.28697175596125
 40
11.34766303835899
 40
11.4083543204205
 40
11.43594125892085
 40
11.43594125892085
 40
11.43594125892085
 40
11.43594125892085
 10
190.0818114333289
 20
15.55242795125076
 10
190.070278584494
 20
15.55242790287914
 10
190.0283409444999
 20
15.55242773704163
 10
189.9434129719025
 20
15.55243125800907
 10
189.8207688553129
 20
15.55240926435878
 10
189.6791206916993
 20
15.55250801177053
 10
189.537975369849
 20
15.55214686232419
 10
189.4141351317905
 20
15.55321883609087
 10
189.3317217825382
 20
15.55092249091268
 10
189.1727791229694
 20
15.56048569373418
 10
189.3503402353375
 20
15.19785394311369
 10
189.3379739205453
 20
14.95243127723113
 10
189.4064519473865
 20
14.66862501324835
 10
189.469302432097
 20
14.43250999939035
 10
189.5452253431729
 20
14.23326740396129
 10
189.6303189577017
 20
14.07745347451372
 10
189.7244607592936
 20
13.97657857781394
 10
189.8282648207729
 20
13.92465852638963
 10
189.9125872030774
 20
13.97606484379619
 10
189.9351322179452
 20
14.09144544037517
 10
189.974573097537
 20
14.21885149702379
 10
189.9202919734945
 20
14.53622328086759
 10
190.0451218072473
 20
14.38982180140902
 10
190.2019291513604
 20
14.35795300331173
 10
190.0947720007056
 20
14.12421357767627
 10
190.0808711209868
 20
13.95972776583659
 10
190.0234709467226
 20
13.8313086912248
 10
189.9335020145008
 20
13.76018802352828
 10
189.8095274657878
 20
13.74432324142253
 10
189.663427319686
 20
13.77993797554172
 10
189.5243894320284
 20
13.90000570500276
 10
189.4102003962144
 20
14.0743568255032
 10
189.3146141301486
 20
14.29946603111241
 10
189.2318652572627
 20
14.56388246006441
 10
189.1807179256411
 20
14.88187933098543
 10
189.0770189207338
 20
15.15543728488911
 10
189.204284120852
 20
15.56005818612866
 10
189.0357890623018
 20
15.55112367849677
 10
188.9511995787077
 20
15.55315961418362
 10
188.8189876387628
 20
15.55213937388405
 10
188.6560505094104
 20
15.55253230318428
 10
188.4733759170533
 20
15.55235696313368
 10
188.2847057373383
 20
15.55260105307468
 10
188.1014469020189
 20
15.55185657906235
 10
187.9404746832719
 20
15.55416360522425
 10
187.8029808335276
 20
15.54799804883661
 10
187.7289590372312
 20
15.5603283845821
 10
187.6613215186857
 20
15.54329323723555
 10
187.6732373719271
 20
15.59524438447527
 10
187.6655677285694
 20
15.64071424966528
 10
187.6732592225117
 20
15.68614453703706
 10
187.6613141797762
 20
15.73802395984571
 10
187.7283588305868
 20
15.72119143490264
 10
187.8017375665677
 20
15.73335409092671
 10
187.9379128305272
 20
15.72727231074959
 10
188.0973811801513
 20
15.72954834315058
 10
188.2789173085837
 20
15.72881233998962
 10
188.4658034862179
 20
15.72905954196133
 10
188.6468012316836
 20
15.72886400799254
 10
188.8080802578879
 20
15.72932234714839
 10
188.9393882124887
 20
15.72812673751206
 10
189.0225051322597
 20
15.73051347319743
 10
189.1556236547813
 20
15.72230605725463
 10
189.0645893502659
 20
15.97752868952655
 10
188.9789633074418
 20
16.24164358328246
 10
189.0990589003455
 20
16.22904442969165
 10
189.1514264948543
 20
16.22694235763075
 10
189.2214497569716
 20
16.22535399889657
 10
189.2671922337818
 20
16.21602567538113
 10
189.3220812646933
 20
16.22545966915427
 10
189.2963574785682
 20
16.17733028655173
 10
189.1825397571453
 20
16.18266829744166
 10
189.3159346621137
 20
15.95449174576777
 10
189.194365873547
 20
15.72156856595923
 10
189.3223188769413
 20
15.73087258884438
 10
189.4049048406461
 20
15.7280100175468
 10
189.5307214850824
 20
15.72923437412302
 10
189.6741469838057
 20
15.72932431888965
 10
189.8157420951728
 20
15.72746163183853
 10
189.9459127249967
 20
15.73333075937163
 10
190.0193452286191
 20
15.72070340823203
 10
190.0891112922096
 20
15.73877563110412
 10
190.0775772605396
 20
15.68612850546326
 10
190.0833184346682
 20
15.64221317686546
 10
190.0816615770911
 20
15.59089982676548
 10
190.081775756167
 20
15.56158792021633
 10
190.0818114333289
 20
15.55242795125076
 97
        1
330
AD
 75
     1
 76
     2
 52
45.0
 41
0.1
 77
     0
 78
     1
 53
45.0
 43
0.0
 44
0.0
 45
-0.282842712474619
 46
0.0
 79
     0
 98
        1
 10
0.0
 20
0.0
  0
HATCH
  5
CB
330
48
100
AcDbEntity
  8
1
  6
Continuous
 62
     2
100
AcDbHatch
 10
0.0
 20
0.0
 30
0.0
210
0.0
220
0.0
230
1.0
  2
CUSTOM9
 70
     0
 71
     1
 91
        1
 92
        1
 93
        1
 72
     4
 94
        3
 73
     0
 74
     0
 95
      118
 96
      114
 40
0.0
 40
0.0
 40
0.0
 40
0.0
 40
0.1054708162973078
 40
0.2466098270051425
 40
0.3965912874590612
 40
0.528552506975337
 40
0.6156245055641596
 40
0.6431434105796923
 40
0.703685003798581
 40
0.7642265984504405
 40
0.7917455052354891
 40
0.928740431998977
 40
1.106572819087986
 40
1.287544879680941
 40
1.317578308030458
 40
1.399928030857096
 40
1.52296820479987
 40
1.675072986590492
 40
1.844616533180569
 40
2.019973001638633
 40
2.189516548879946
 40
2.341621331585284
 40
2.46466150632042
 40
2.547011229646984
 40
2.577044658167948
 40
2.603797890893047
 40
2.662655002908848
 40
2.721512114949745
 40
2.748265347702925
 40
2.774215307345001
 40
2.845959313407331
 40
2.95433855658853
 40
3.090194227585707
 40
3.244367517100671
 40
3.407699615844431
 40
3.571031714539581
 40
3.725205003920257
 40
3.861060674729757
 40
3.96943991771645
 40
4.041183923629122
 40
4.067133883213115
 40
4.311886746012283
 40
4.547897258335607
 40
4.764747083044076
 40
4.952749679951883
 40
5.045772974196012
 40
5.137862019645052
 40
5.330543169793072
 40
5.553448265244052
 40
5.795083855888228
 40
6.043293412177306
 40
6.285761695541241
 40
6.313902908752753
 40
6.384255941793342
 40
6.475714884766931
 40
6.567173827759022
 40
6.637526860839828
 40
6.665668074074191
 40
6.692018920328166
 40
6.749990782071239
 40
6.807962643790613
 40
6.834313490018087
 40
6.856393084245338
 40
6.91333519564999
 40
6.991194817302625
 40
7.076026942283829
 40
7.153886563725348
 40
7.210828674844874
 40
7.232908268931209
 40
7.25819933492373
 40
7.32487578159238
 40
7.419142481925037
 40
7.527204308841976
 40
7.635266135230554
 40
7.72953283416854
 40
7.796209279292863
 40
7.821500344594809
 40
7.844652988850908
 40
7.899863140541715
 40
7.965759128053882
 40
8.020969279771222
 40
8.044121924046689
 40
8.069356610160764
 40
8.109134395441455
 40
8.132238100191167
 40
8.193147867786532
 40
8.279261678876704
 40
8.377977512673919
 40
8.476693347146702
 40
8.562807160411756
 40
8.623716930826543
 40
8.646820636853494
 40
8.671988793774307
 40
8.73490918582819
 40
8.816705695188904
 40
8.898502204815475
 40
8.961422597377936
 40
8.986590754551049
 40
9.012941600733207
 40
9.070913462380295
 40
9.128885324081791
 40
9.155236170325114
 40
9.180404327929157
 40
9.24332472194823
 40
9.325121234211995
 40
9.40691774663765
 40
9.469838141978105
 40
9.49500628827088
 40
9.517811184379019
 40
9.572192090487015
 40
9.637098333281239
 40
9.691479239515434
 40
9.71428412564347
 40
9.71428412564347
 40
9.71428412564347
 40
9.71428412564347
 10
185.2874469028654
 20
15.2688916318772
 10
185.3090990569039
 20
15.24111869242812
 10
185.3597257109474
 20
15.17618054561235
 10
185.4349383202592
 20
15.06891060312898
 10
185.5248482274347
 20
14.95377438266625
 10
185.5709169676673
 20
14.85357045748319
 10
185.6655825294655
 20
14.78434006814943
 10
185.6204439320412
 20
14.73771639678273
 10
185.594704778579
 20
14.69660308866039
 10
185.5645196708011
 20
14.66065971727938
 10
185.5193684730561
 20
14.58579782596095
 10
185.4710504458562
 20
14.80782524253601
 10
185.3968539713073
 20
14.84510677337711
 10
185.2836047324608
 20
15.11610202130599
 10
185.288513357817
 20
15.00095328446228
 10
185.2868486556307
 20
14.92836675781628
 10
185.2876830076715
 20
14.80625588483986
 10
185.2873609540265
 20
14.6591380081046
 10
185.2875076912457
 20
14.49307063956557
 10
185.2872950092723
 20
14.32187554608602
 10
185.2879497252034
 20
14.15552828635498
 10
185.285919246114
 20
14.00935173055693
 10
185.2913460399931
 20
13.8847104747461
 10
185.2804930868709
 20
13.81718656540626
 10
185.2956739155556
 20
13.75549061417021
 10
185.2457895108134
 20
13.76727503897003
 10
185.2017150342521
 20
13.75943822779968
 10
185.15823716302
 20
13.76760441372704
 10
185.1092346786487
 20
13.75538056738468
 10
185.1218731234824
 20
13.80960667249313
 10
185.1130182968448
 20
13.86936918907558
 10
185.1175058770312
 20
13.9792202904437
 10
185.115796013599
 20
14.11029975405679
 10
185.1163550915985
 20
14.26198011444328
 10
185.1161928768692
 20
14.42211074929953
 10
185.1162269924674
 20
14.58236865674566
 10
185.1162514960125
 20
14.73370247520439
 10
185.1161453543223
 20
14.86582156338601
 10
185.116429914193
 20
14.97294802533193
 10
185.1158675547566
 20
15.03808619579473
 10
185.1180765083688
 20
15.16618957858675
 10
185.0319435998601
 20
14.79097610391577
 10
184.9555140818501
 20
14.63918193123392
 10
184.8660040767833
 20
14.47766206446307
 10
184.7640413217327
 20
14.20471848820171
 10
184.7187976491039
 20
14.36717346596507
 10
184.6102355941672
 20
14.45605432058124
 10
184.7995791751752
 20
14.60549794961409
 10
184.85653405457
 20
14.79749136974927
 10
184.9717520993352
 20
15.02899622906756
 10
184.9940151630134
 20
15.21797259759062
 10
185.1771905152141
 20
15.49454089325929
 10
185.0538033597552
 20
15.48698978832093
 10
184.9925684166834
 20
15.48856772366118
 10
184.9081999617064
 20
15.48882592573671
 10
184.8204235085966
 20
15.48544845751205
 10
184.7656768696123
 20
15.49394814982019
 10
184.7104703026025
 20
15.48048561049787
 10
184.7222823035536
 20
15.52931442126762
 10
184.7142496151794
 20
15.57269004896708
 10
184.7228186104679
 20
15.61509438309572
 10
184.7102943409157
 20
15.66267796552117
 10
184.7555101538735
 20
15.65267212995109
 10
184.8014815562723
 20
15.65894105174061
 10
184.877722204771
 20
15.65593561405872
 10
184.9561296131993
 20
15.65770448278541
 10
185.0323992648932
 20
15.6546479398166
 10
185.0783009459473
 20
15.66103971376176
 10
185.1231733965399
 20
15.65093822978896
 10
185.1105552275633
 20
15.70157201581898
 10
185.1191936582705
 20
15.7550126188207
 10
185.1152361595441
 20
15.8486325513168
 10
185.1162325068334
 20
15.95112606688924
 10
185.1171927413072
 20
16.05353270248163
 10
185.1133211458005
 20
16.14735929609321
 10
185.1217789814363
 20
16.20036542840353
 10
185.1093075932834
 20
16.25211435651189
 10
185.1542106389849
 20
16.23850747226756
 10
185.1955083836771
 20
16.24100480320586
 10
185.259534428105
 20
16.23648060574487
 10
185.2986111148786
 20
16.22781003043308
 10
185.3476543498742
 20
16.23515102070687
 10
185.3225080030591
 20
16.19602896051761
 10
185.2815901333725
 20
16.20563842455805
 10
185.2910109616604
 20
16.15540148169778
 10
185.2855647318747
 20
16.1038594563949
 10
185.2881699601805
 20
16.0195970758452
 10
185.2870102202155
 20
15.92559135583408
 10
185.2883591064232
 20
15.83196865395525
 10
185.2849970101508
 20
15.74679517552223
 10
185.292095991777
 20
15.69716856072044
 10
185.2812569154547
 20
15.64993694969989
 10
185.3304010225246
 20
15.66201674936851
 10
185.3794877630148
 20
15.65447393363012
 10
185.4573714280642
 20
15.65686070361432
 10
185.5350365172897
 20
15.65899381905415
 10
185.5845393931355
 20
15.65193391922454
 10
185.634459475064
 20
15.66360151936214
 10
185.6223198516881
 20
15.61540235371391
 10
185.6305838229144
 20
15.57249219801235
 10
185.6223198650785
 20
15.52958201851384
 10
185.6344594549855
 20
15.48138288754863
 10
185.5845395158747
 20
15.4930503447151
 10
185.5350350651203
 20
15.48599202435044
 10
185.4573784382974
 20
15.48811665228602
 10
185.3794643865762
 20
15.49053389365759
 10
185.3304500352717
 20
15.48291848194485
 10
185.2813246108944
 20
15.49507952557591
 10
185.2915559988571
 20
15.45073013424158
 10
185.2856677678054
 20
15.40925436202911
 10
185.287878830557
 20
15.34915394315302
 10
185.2874109346147
 20
15.30225782762889
 10
185.2874386992914
 20
15.27650146418197
 10
185.2874469028654
 20
15.2688916318772
 97
        1
330
AE
 75
     1
 76
     2
 52
45.0
 41
0.1
 77
     0
 78
     1
 53
45.0
 43
0.0
 44
0.0
 45
-0.282842712474619
 46
0.0
 79
     0
 98
        1
 10
0.0
 20
0.0
  0
HATCH
  5
CC
330
48
100
AcDbEntity
  8
1
  6
Continuous
 62
     2
100
AcDbHatch
 10
0.0
 20
0.0
 30
0.0
210
0.0
220
0.0
230
1.0
  2
CUSTOM10
 70
     0
 71
     1
 91
        1
 92
        1
 93
        1
 72
     4
 94
        3
 73
     0
 74
     0
 95
       47
 96
       43
 40
0.0
 40
0.0
 40
0.0
 40
0.0
 40
0.2207912809957213
 40
0.4459404186303079
 40
0.4902387190459856
 40
0.5327473892721959
 40
0.5742260451226137
 40
0.6155432630561714
 40
0.65681640663172
 40
0.6982511618781562
 40
0.7407663929318066
 40
0.7851366743176126
 40
1.010288833836412
 40
1.231080507002262
 40
1.45176524365249
 40
1.676638205891775
 40
1.720461045359744
 40
1.830018144043609
 40
1.97244237235324
 40
2.11486660067761
 40
2.224423699395234
 40
2.268246538883476
 40
2.493628801207304
 40
2.715602830286706
 40
2.934211330706466
 40
3.149502369855461
 40
3.231387784851023
 40
3.318231873854143
 40
3.405143198198074
 40
3.486970301720653
 40
3.702258172494103
 40
3.920866283534339
 40
4.142839325932133
 40
4.368221903865593
 40
4.412044743360073
 40
4.521601842096088
 40
4.664026070452569
 40
4.806450298809277
 40
4.916007397546969
 40
4.959830237043293
 40
5.184703515847324
 40
5.405387250767702
 40
5.405387250767702
 40
5.405387250767702
 40
5.405387250767702
 10
182.6507427258645
 20
15.73406440953872
 10
182.6568139420003
 20
15.79758482501211
 10
182.6690762107243
 20
15.92587938689628
 10
182.5604706879411
 20
16.20166220174075
 10
182.6761985896603
 20
16.17188133432055
 10
182.7171842509015
 20
16.1676555626282
 10
182.7591205797518
 20
16.16310446389607
 10
182.800419662571
 20
16.16201982929485
 10
182.8417032115556
 20
16.16310338195227
 10
182.8836148270647
 20
16.16766112711344
 10
182.9245983549019
 20
16.17187430209728
 10
183.0404922843488
 20
16.20177611317534
 10
182.9295652727457
 20
15.92339806609889
 10
182.9574856365266
 20
15.74283140824953
 10
182.940426734697
 20
15.50961042346471
 10
182.9414637282103
 20
15.34906622543146
 10
182.9414099399404
 20
15.22284817558722
 10
182.9414277372481
 20
15.12428963336241
 10
182.941418858108
 20
14.99280702442963
 10
182.9414263928033
 20
14.8613284496865
 10
182.9414129405129
 20
14.7627622269409
 10
182.9414531717492
 20
14.63639735624152
 10
182.9406746403818
 20
14.4748206882287
 10
182.9565958319267
 20
14.24361821892914
 10
182.9333468885408
 20
14.05874351972003
 10
183.0360183444367
 20
13.78935602770055
 10
182.8820238362836
 20
13.82660112685818
 10
182.8004129802833
 20
13.82137994680535
 10
182.7188192292583
 20
13.82660620378351
 10
182.5648513666842
 20
13.7893706988538
 10
182.6674183421918
 20
14.05875129862878
 10
182.6442045316087
 20
14.24361585325415
 10
182.6600444655139
 20
14.47482218565638
 10
182.6593296313428
 20
14.63639712308503
 10
182.6593664569907
 20
14.76276231210521
 10
182.6593549000271
 20
14.86132756635981
 10
182.6593575019214
 20
14.9928112741722
 10
182.659364853178
 20
15.124275480312
 10
182.6593442541352
 20
15.22287786275325
 10
182.6594082192029
 20
15.34896149354427
 10
182.658173394759
 20
15.51210091383771
 10
182.6532040396745
 20
15.66054183777549
 10
182.6507427258645
 20
15.73406440953872
 97
        1
330
AF
 75
     1
 76
     2
 52
45.0
 41
0.1
 77
     0
 78
     1
 53
45.0
 43
0.0
 44
0.0
 45
-0.282842712474619
 46
0.0
 79
     0
 98
        1
 10
0.0
 20
0.0
  0
HATCH
  5
CD
330
48
100
AcDbEntity
  8
1
  6
Continuous
 62
     2
100
AcDbHatch
 10
0.0
 20
0.0
 30
0.0
210
0.0
220
0.0
230
1.0
  2
CUSTOM11
 70
     0
 71
     1
 91
        1
 92
        1
 93
        1
 72
     4
 94
        3
 73
     0
 74
     0
 95
      110
 96
      106
 40
0.0
 40
0.0
 40
0.0
 40
0.0
 40
0.2203406257277714
 40
0.4407808782838055
 40
0.5952494494615033
 40
0.7488431659393036
 40
0.9023581831308168
 40
1.056801968670401
 40
1.210736449099873
 40
1.363041386539694
 40
1.515315729683037
 40
1.669377239147988
 40
1.721611652756458
 40
1.773199502942843
 40
1.824933793209889
 40
1.877110426487852
 40
1.982682281206587
 40
2.07878166708731
 40
2.172809640822145
 40
2.271937807378714
 40
2.378349933379107
 40
2.494131557736381
 40
2.626681683943486
 40
2.783145050795857
 40
2.890701232940711
 40
2.993130312454602
 40
3.099869730691595
 40
3.220237816691088
 40
3.352695482737377
 40
3.481732806389628
 40
3.593499473690159
 40
3.674323013331673
 40
3.817951711952651
 40
3.94616712079362
 40
4.061405053453277
 40
4.166480796002946
 40
4.262478775059041
 40
4.350736673550855
 40
4.433071991253826
 40
4.511216293814428
 40
4.564262454117754
 40
4.618474415571364
 40
4.670128488753967
 40
4.722296879126166
 40
4.819540945314035
 40
4.931194984127892
 40
5.049996040257477
 40
5.168643755414966
 40
5.283970811762263
 40
5.392260784910117
 40
5.486512254876192
 40
5.559178233949591
 40
5.591425852853248
 40
5.626215969637624
 40
5.667155838674168
 40
5.717449290213977
 40
5.738402360944591
 40
5.784499116553561
 40
5.830595872164534
 40
5.851548942897392
 40
5.873019280661507
 40
5.924217778408049
 40
5.985325662817428
 40
6.036524160567445
 40
6.057994498333973
 40
6.236847789607222
 40
6.381409928945398
 40
6.493190424178429
 40
6.57406753423024
 40
6.691018086205277
 40
6.814881554220053
 40
6.944307823240176
 40
7.071266716065743
 40
7.193488604461588
 40
7.309042773127815
 40
7.414007203170497
 40
7.505140441886281
 40
7.531150360599458
 40
7.559221645322044
 40
7.587202218920705
 40
7.612569159498916
 40
7.662550809480789
 40
7.702878875763949
 40
7.857328205230848
 40
8.01079956808858
 40
8.165256399657473
 40
8.32223269871367
 40
8.479564855016413
 40
8.635216230290673
 40
8.790882550925563
 40
8.948305154947072
 40
9.168271839032762
 40
9.387358980987031
 40
9.608047961033279
 40
9.832914234792483
 40
9.858338694962818
 40
9.925366817229826
 40
10.02013071422741
 40
10.1287624985898
 40
10.2373942829523
 40
10.33215817995172
 40
10.39918630222375
 40
10.42461076239764
 40
10.64992019336924
 40
10.87188524531169
 40
10.87188524531169
 40
10.87188524531169
 40
10.87188524531169
 10
179.9057788376618
 20
15.7392326039819
 10
179.9092864933542
 20
15.80616462073804
 10
179.9163033987663
 20
15.94005891915858
 10
179.8198027599073
 20
16.2254855497147
 10
180.051013472611
 20
16.16284386190284
 10
180.1919290057156
 20
16.17001554055992
 10
180.3490417757589
 20
16.16235883078244
 10
180.5025913427287
 20
16.1625275228304
 10
180.6545104935082
 20
16.16182040535432
 10
180.814221481323
 20
16.17210158351639
 10
180.9408972601119
 20
16.1549651108075
 10
181.1370821122078
 20
16.22727260107148
 10
181.103439527908
 20
16.12640699080116
 10
181.1052011317184
 20
16.0761925394767
 10
181.1027342073459
 20
16.02712335586467
 10
181.134707696601
 20
15.94063490847
 10
181.0010399903257
 20
15.98997438608335
 10
180.9172208688057
 20
15.98430634314168
 10
180.8173861139325
 20
15.99465516706297
 10
180.7186576720146
 20
16.00086450411087
 10
180.6121532771112
 20
16.00697763816778
 10
180.4910511698059
 20
16.01588883484585
 10
180.3703381502454
 20
16.00521605912384
 10
180.1812553843438
 20
16.06468503080365
 10
180.2129028505311
 20
15.9055832007754
 10
180.1995563316836
 20
15.80839128339905
 10
180.1974958426449
 20
15.69634065110103
 10
180.195818804467
 20
15.5769968562935
 10
180.1973336794234
 20
15.4503259215511
 10
180.1956582478669
 20
15.32301588016117
 10
180.2058844271659
 20
15.22451566404464
 10
180.1779006596582
 20
15.08388702625629
 10
180.3508029999305
 20
15.13989551134095
 10
180.4645020202772
 20
15.12719951478497
 10
180.5840151672239
 20
15.13448377051255
 10
180.6888491425072
 20
15.13878017056755
 10
180.7843084898611
 20
15.14330568258976
 10
180.8763823507032
 20
15.15149201146201
 10
180.9476551782438
 20
15.14643850638109
 10
181.0544931705685
 20
15.18536425031673
 10
181.0226603598035
 20
15.1051712200588
 10
181.026616450393
 20
15.05562936846033
 10
181.0234502392013
 20
15.0055747803982
 10
181.0550791490584
 20
14.92128847612022
 10
180.9210133677692
 20
14.97425365495158
 10
180.82923227932
 20
14.96540080890441
 10
180.7079729189604
 20
14.97570049965155
 10
180.5914113119772
 20
14.97748911767502
 10
180.478337574588
 20
14.97787017109695
 10
180.3679246308471
 20
14.98415449472177
 10
180.2898124067841
 20
14.97189133255364
 10
180.1913625833644
 20
15.00453887616125
 10
180.2012355173561
 20
14.94769748054206
 10
180.1973923244402
 20
14.91392130557984
 10
180.1966789884268
 20
14.87119604709411
 10
180.1963369642975
 20
14.83401607262154
 10
180.1963834255345
 20
14.7948723737077
 10
180.1963649429927
 20
14.75716849497686
 10
180.1963703431806
 20
14.71944955232402
 10
180.1963697214201
 20
14.6899432474515
 10
180.1963698151545
 20
14.65873577699301
 10
180.1963704287921
 20
14.61414424908085
 10
180.1963671499336
 20
14.5596395650885
 10
180.1963759623481
 20
14.51505540201448
 10
180.1963359653417
 20
14.4311780858574
 10
180.1976024270256
 20
14.31737520677678
 10
180.1950274117841
 20
14.16830395933709
 10
180.206500938172
 20
14.06597203813905
 10
180.1823506222264
 20
13.93338903885835
 10
180.3332993946476
 20
13.97895732272019
 10
180.4428436671556
 20
13.96427012162349
 10
180.5733970473919
 20
13.96920435125061
 10
180.6990312209514
 20
13.97257705323363
 10
180.8188730625601
 20
13.97711497498773
 10
180.9391362611426
 20
13.99048536182005
 10
181.0222761663515
 20
13.98068712782595
 10
181.1456080421076
 20
14.04126214623318
 10
181.1244269203956
 20
13.98532460134022
 10
181.1235950270117
 20
13.95939249372346
 10
181.1218963707557
 20
13.93197256190938
 10
181.121797488883
 20
13.89738195206385
 10
181.1203659301329
 20
13.86050408220766
 10
181.1532804192192
 20
13.76846841021805
 10
180.9551306988107
 20
13.84132015974832
 10
180.830054829489
 20
13.81825726508607
 10
180.6673071295156
 20
13.82454021985786
 10
180.5129366450001
 20
13.82260943909926
 10
180.3566670436944
 20
13.82393762599269
 10
180.1970544465281
 20
13.82059872487862
 10
180.0540326342237
 20
13.83265795728241
 10
179.8197144881629
 20
13.76952001976918
 10
179.9173810751197
 20
14.05620527466317
 10
179.9006868780059
 20
14.24988308142659
 10
179.9146296709684
 20
14.47848242880294
 10
179.9142987846632
 20
14.63384593955048
 10
179.9143078119264
 20
14.73966336444126
 10
179.9143055876316
 20
14.80205784124214
 10
179.9143065551888
 20
14.89220425248327
 10
179.9143065473261
 20
14.99621167157438
 10
179.9143053861102
 20
15.10022131375296
 10
179.9143090971502
 20
15.19036243688768
 10
179.9143011051051
 20
15.25276803097215
 10
179.9143334275018
 20
15.35868835961119
 10
179.9131440788319
 20
15.5162671654474
 10
179.9082216489256
 20
15.66528219822065
 10
179.9057788376618
 20
15.7392326039819
 97
        1
330
B0
 75
     1
 76
     2
 52
45.0
 41
0.1
 77
     0
 78
     1
 53
45.0
 43
0.0
 44
0.0
 45
-0.282842712474619
 46
0.0
 79
     0
 98
        1
 10
0.0
 20
0.0
  0
HATCH
  5
CE
330
48
100
AcDbEntity
  8
1
  6
Continuous
 62
     2
100
AcDbHatch
 10
0.0
 20
0.0
 30
0.0
210
0.0
220
0.0
230
1.0
  2
CUSTOM12
 70
     0
 71
     1
 91
        1
 92
        1
 93
        1
 72
     4
 94
        3
 73
     0
 74
     0
 95
       95
 96
       91
 40
0.0
 40
0.0
 40
0.0
 40
0.0
 40
0.6550406656911287
 40
1.308087289031932
 40
1.420803739835803
 40
1.566130759770794
 40
1.757067341888467
 40
2.006513545026474
 40
2.087328263121562
 40
2.185328872295635
 40
2.29461245474837
 40
2.408936380534819
 40
2.526802767798567
 40
2.646360524615615
 40
2.762535723971587
 40
2.870057342870157
 40
2.966883448431652
 40
3.050803243518303
 40
3.115818222436612
 40
3.156030057150267
 40
3.213914225080255
 40
3.276689026450656
 40
3.342960320981376
 40
3.404230667150598
 40
3.453822809493411
 40
3.532499827188452
 40
3.634775188507204
 40
3.754909333008198
 40
3.889736761660699
 40
4.035769602175262
 40
4.187256681197649
 40
4.338733685675998
 40
4.488478734676163
 40
4.634708317831625
 40
4.771493189921312
 40
4.89268657156125
 40
5.199775528944486
 40
5.460353566929676
 40
5.667603142345552
 40
5.814722905404533
 40
5.828990806219831
 40
5.855488336304528
 40
5.86975623711886
 40
6.189796507762884
 40
6.531890469873118
 40
6.883053637017085
 40
7.230512024911459
 40
7.566966656764624
 40
7.885203559707393
 40
8.172887439719236
 40
8.418011594062808
 40
8.44392672119073
 40
8.510760470613217
 40
8.602145393795727
 40
8.701714041647168
 40
8.793098965075398
 40
8.85993271505797
 40
8.88584784260362
 40
9.242301256612839
 40
9.58927545501679
 40
9.921808543164198
 40
10.2347962429847
 40
10.29968150889172
 40
10.35323493887749
 40
10.40154625355136
 40
10.46482922477826
 40
10.55973900668407
 40
10.69239545985619
 40
10.84920353475673
 40
11.01626328594781
 40
11.18672024367445
 40
11.35372582577213
 40
11.50257442292428
 40
11.61866495023293
 40
11.71329869152877
 40
11.82511050573909
 40
11.94464880845718
 40
12.06929242642508
 40
12.19707290435178
 40
12.3256263286053
 40
12.45034565331281
 40
12.56646595170329
 40
12.67099007414637
 40
12.76077625936784
 40
12.82703233506696
 40
12.87429132785995
 40
12.89831990323334
 40
12.92234847860023
 40
13.53984767410328
 40
14.18294284359374
 40
14.18294284359374
 40
14.18294284359374
 40
14.18294284359374
 10
177.3067935648021
 20
14.70898038201725
 10
177.175201975855
 20
14.82265058603233
 10
176.9124193802729
 20
15.04964496316159
 10
176.399739344102
 20
15.89214462956289
 10
176.4106654595362
 20
15.53423377577019
 10
176.4041226527989
 20
15.39267392272134
 10
176.4028026631772
 20
15.1942130529928
 10
176.4018117602537
 20
15.02150296045982
 10
176.4024101751974
 20
14.87865373257579
 10
176.4038994301882
 20
14.78265005413358
 10
176.4055683588472
 20
14.67545503263141
 10
176.4071934954616
 20
14.56164211517581
 10
176.4092429501686
 20
14.44441572604589
 10
176.4123165501926
 20
14.32656411232969
 10
176.4156339697045
 20
14.21228087320621
 10
176.419360534028
 20
14.10521401867277
 10
176.4217338161424
 20
14.01007408766921
 10
176.4278718888358
 20
13.92558557205696
 10
176.4239784495945
 20
13.8692308729814
 10
176.4455230443079
 20
13.79825022472352
 10
176.3680940058618
 20
13.82902677604484
 10
176.3116353240191
 20
13.82011242517614
 10
176.2540495896808
 20
13.82896218398276
 10
176.1690163478473
 20
13.79738225225943
 10
176.2009714146382
 20
13.8809515599219
 10
176.1990705282539
 20
13.94882608968309
 10
176.21079600473
 20
14.05233256764418
 10
176.2164241053
 20
14.17002125616695
 10
176.2237902178941
 20
14.30388609164423
 10
176.232075970161
 20
14.44764152872632
 10
176.2398851897428
 20
14.59714022843445
 10
176.2457571222658
 20
14.74792549402078
 10
176.2503667817969
 20
14.89699943878438
 10
176.2542632117542
 20
15.04122913163023
 10
176.2570715126564
 20
15.17583905213017
 10
176.2576698755023
 20
15.36469614347354
 10
176.261602386715
 20
15.58975494313153
 10
176.2442175378499
 20
15.86367091125708
 10
176.2850417342583
 20
16.02787112098596
 10
176.1995153256002
 20
16.22749661465097
 10
176.2660558907688
 20
16.22385458403978
 10
176.283872427323
 20
16.22413447160854
 10
176.4056801797505
 20
16.22632927398613
 10
176.5080770335461
 20
15.94675118721513
 10
176.7580021509357
 20
15.74563008536003
 10
176.9870035331111
 20
15.47792614987921
 10
177.2245151213107
 20
15.22646413862367
 10
177.4486090740772
 20
14.98969974061365
 10
177.6750716283008
 20
14.73218692583074
 10
177.8325687886514
 20
14.61649335056923
 10
178.0472129612675
 20
14.27997152538793
 10
178.0422645974618
 20
14.40464754091603
 10
178.0433931602546
 20
14.46327691935737
 10
178.0428877841516
 20
14.55043662371977
 10
178.0430475158113
 20
14.64416143182872
 10
178.0430054891318
 20
14.73018971297035
 10
178.0430202040373
 20
14.79153891945496
 10
178.0429706255983
 20
14.94135231520991
 10
178.0458811522811
 20
15.17989612510105
 10
178.0259521041162
 20
15.54486509868702
 10
178.0750433936248
 20
15.80799631993409
 10
177.9177951509182
 20
16.21928904947753
 10
178.0762112872421
 20
16.16398282551749
 10
178.1311680478628
 20
16.16199686500175
 10
178.182788776674
 20
16.16264778248252
 10
178.2713198965367
 20
16.20369527738248
 10
178.220489830317
 20
16.05696326622989
 10
178.2313389930283
 20
15.95019971954433
 10
178.2166036994848
 20
15.79085705414113
 10
178.2099976446204
 20
15.62853061652874
 10
178.2014961399914
 20
15.45992521892396
 10
178.1943227202198
 20
15.29814814703541
 10
178.188906321539
 20
15.15422331457932
 10
178.1871713967648
 20
15.03437493466925
 10
178.1875440672318
 20
14.92686101590514
 10
178.1873656126263
 20
14.81820024645586
 10
178.1877010863139
 20
14.6995357016553
 10
178.1890040622186
 20
14.57555163512741
 10
178.1908887351575
 20
14.44858294171105
 10
178.192500445485
 20
14.32153861551031
 10
178.194140313743
 20
14.19854884492177
 10
178.1962570745753
 20
14.08300931383759
 10
178.1963848422363
 20
13.98090903955836
 10
178.2006514396555
 20
13.89009848838156
 10
178.190844008529
 20
13.83213621208786
 10
178.211847477169
 20
13.76517130132029
 10
178.1725639739897
 20
13.77291153966688
 10
177.9595307117752
 20
13.75755254145193
 10
177.7636297943183
 20
14.31403058094466
 10
177.4611197631544
 20
14.5755603534851
 10
177.3067935648021
 20
14.70898038201725
 97
        1
330
B1
 75
     1
 76
     2
 52
45.0
 41
0.1
 77
     0
 78
     1
 53
45.0
 43
0.0
 44
0.0
 45
-0.282842712474619
 46
0.0
 79
     0
 98
        1
 10
0.0
 20
0.0
  0
HATCH
  5
CF
330
48
100
AcDbEntity
  8
1
  6
Continuous
 62
     2
100
AcDbHatch
 10
0.0
 20
0.0
 30
0.0
210
0.0
220
0.0
230
1.0
  2
CUSTOM13
 70
     0
 71
     1
 91
        2
 92
        1
 93
        1
 72
     4
 94
        3
 73
     0
 74
     0
 95
       57
 96
       53
 40
0.0
 40
0.0
 40
0.0
 40
0.0
 40
0.0471632082808685
 40
0.0914861054632173
 40
0.1357762519702125
 40
0.1826527001609851
 40
0.2295203288572044
 40
0.2737751972219645
 40
0.3181310461542808
 40
0.3652607198398549
 40
0.4571007286314639
 40
0.5671851029165417
 40
0.6894623283868201
 40
0.8181758272546104
 40
0.9510087229274276
 40
1.08585222967407
 40
1.218126164475327
 40
1.343545131142397
 40
1.454537202956813
 40
1.567187607530737
 40
1.68071096664247
 40
1.794226869736806
 40
1.900009184247577
 40
2.004085860447799
 40
2.108162674451715
 40
2.214000150155317
 40
2.496038577352153
 40
2.762350745479261
 40
2.997275353279404
 40
3.185110082137752
 40
3.246407890063924
 40
3.312607550212712
 40
3.378877742711528
 40
3.440140399651469
 40
4.100501696006535
 40
4.754913085563579
 40
5.411331693423957
 40
6.07789043256874
 40
6.110575292671019
 40
6.143260152775799
 40
6.367989363395191
 40
6.610525374951588
 40
6.863389136467339
 40
7.119380025547581
 40
7.376036605091139
 40
7.631164770966318
 40
7.876722425456485
 40
8.10495373585603
 40
8.312916685924348
 40
8.497730294941336
 40
8.651018984313907
 40
8.764738853624626
 40
8.764738853624626
 40
8.764738853624626
 40
8.764738853624626
 10
174.7922649500513
 20
13.81626739612926
 10
174.7766616726931
 20
13.81826231079077
 10
174.7463947960302
 20
13.822132013603
 10
174.7010994202253
 20
13.82341984967269
 10
174.6559553129349
 20
13.82308683554051
 10
174.60990171234
 20
13.82314658674225
 10
174.5640496172096
 20
13.82325813650001
 10
174.5183711648166
 20
13.82277833456591
 10
174.4750811541608
 20
13.82461109618723
 10
174.4039947951514
 20
13.80049556814654
 10
174.4057477261441
 20
13.92184693977252
 10
174.3586196370569
 20
14.00726239751232
 10
174.3191478251763
 20
14.12486929345139
 10
174.2706635532645
 20
14.24232752540438
 10
174.2201017402521
 20
14.36405935761507
 10
174.1718634610477
 20
14.49075967862467
 10
174.1135232947595
 20
14.59933687784952
 10
174.0980892667261
 20
14.7562065713441
 10
173.9566586330636
 20
14.72373446548322
 10
173.8508397414904
 20
14.73512888682181
 10
173.7358569725222
 20
14.73392591514615
 10
173.6253142252141
 20
14.73506945347408
 10
173.5176583522783
 20
14.73418350037526
 10
173.4121322529243
 20
14.73416602390519
 10
173.3109192682013
 20
14.72714032472415
 10
173.1266804827753
 20
14.75135859859869
 10
173.1157393685411
 20
14.44741691121888
 10
173.0087691634751
 20
14.22353177253393
 10
172.9098148604347
 20
14.038953142925
 10
172.9225090524007
 20
13.79530204804204
 10
172.8050091716397
 20
13.82508046753199
 10
172.7422055868311
 20
13.82258089509604
 10
172.67858720934
 20
13.82344075102805
 10
172.3946014194076
 20
13.7809803994194
 10
173.0251638499381
 20
14.50081952444783
 10
173.1087645289072
 20
15.01276539435727
 10
173.4929252789338
 20
15.53353743550044
 10
173.4777208288565
 20
16.23519626253216
 10
173.7239265722697
 20
16.22345633081256
 10
173.8256346157561
 20
16.23225004452773
 10
173.8249752035818
 20
15.98059650730346
 10
173.9428317155827
 20
15.79818020733958
 10
174.0315515260485
 20
15.55563740662868
 10
174.1322292485257
 20
15.32340030530122
 10
174.2311142712244
 20
15.08674644566918
 10
174.3299676990669
 20
14.85461739170091
 10
174.4256166390926
 20
14.6312222278879
 10
174.5159904573273
 20
14.42272549049319
 10
174.5989944568189
 20
14.2330844852932
 10
174.6726088582799
 20
14.06663106068096
 10
174.7342815895546
 20
13.929176996261
 10
174.7749458885604
 20
13.84999239430033
 10
174.7922649500513
 20
13.81626739612926
 97
        1
330
B3
 92
       16
 93
        1
 72
     4
 94
        3
 73
     0
 74
     0
 95
       25
 96
       21
 40
0.0
 40
0.0
 40
0.0
 40
0.0
 40
0.0911479969064821
 40
0.1858117896203816
 40
0.2804128399734491
 40
0.371588919071451
 40
0.4679080494218992
 40
0.5642683809230084
 40
0.6605683222644992
 40
0.7569653015810257
 40
0.856134817252274
 40
1.092615965104292
 40
1.374867658141875
 40
1.611348812011601
 40
1.710518328425249
 40
1.809403163726568
 40
2.04520546329407
 40
2.32664691762213
 40
2.562449217190592
 40
2.661334043833911
 40
2.661334043833911
 40
2.661334043833911
 40
2.661334043833911
 10
173.2683700567199
 20
14.88614538197292
 10
173.2987525917923
 20
14.88598079714555
 10
173.3606895889111
 20
14.88564528689922
 10
173.454135696033
 20
14.88269055451998
 10
173.5475095236357
 20
14.87977752877151
 10
173.6417760753477
 20
14.87894201643417
 10
173.7354964790967
 20
14.87996644658046
 10
173.8352040303205
 20
14.87916977470972
 10
173.9188949546312
 20
14.88921410235219
 10
174.0637996315046
 20
14.86234617674165
 10
173.93961324448
 20
15.03665530280048
 10
173.8965867286283
 20
15.19651711006091
 10
173.780892214221
 20
15.45518458550216
 10
173.7017565431257
 20
15.59231052861858
 10
173.6431576621816
 20
15.80937033134077
 10
173.5864803939438
 20
15.59266134213428
 10
173.5052809900478
 20
15.45327012438236
 10
173.4063701281487
 20
15.20406969370194
 10
173.325362509426
 20
15.01925830226074
 10
173.2813683325838
 20
14.91650446856116
 10
173.2683700567199
 20
14.88614538197292
 97
        1
330
B2
 75
     1
 76
     2
 52
45.0
 41
0.1
 77
     0
 78
     1
 53
45.0
 43
0.0
 44
0.0
 45
-0.282842712474619
 46
0.0
 79
     0
 98
        1
 10
0.0
 20
0.0
  0
HATCH
  5
D0
330
48
100
AcDbEntity
  8
1
  6
Continuous
 62
     2
100
AcDbHatch
 10
0.0
 20
0.0
 30
0.0
210
0.0
220
0.0
230
1.0
  2
CUSTOM14
 70
     0
 71
     1
 91
        1
 92
        1
 93
        1
 72
     4
 94
        3
 73
     0
 74
     0
 95
       99
 96
       95
 40
0.0
 40
0.0
 40
0.0
 40
0.0
 40
0.0796417172272494
 40
0.1621768542356028
 40
0.2486489160957682
 40
0.3404969668525418
 40
0.4381912511165166
 40
0.54344636602449
 40
0.6518115192846654
 40
0.753019093788677
 40
0.8492196919725059
 40
0.9419290312998031
 40
1.034249663570027
 40
1.129078600620224
 40
1.226697027573262
 40
1.327220425421719
 40
1.470572134938034
 40
1.595489863371226
 40
1.719934125348392
 40
1.850576620127342
 40
1.989059629987333
 40
2.134139054226949
 40
2.280698007207212
 40
2.42452973903943
 40
2.565929576985839
 40
2.7082392607735
 40
2.861717887443652
 40
3.045168540347355
 40
3.183798301138605
 40
3.314813961455452
 40
3.442083470447316
 40
3.569912708373031
 40
3.702177512509363
 40
3.842307559659501
 40
3.992872223245961
 40
4.156750662218293
 40
4.310981861107458
 40
4.445859909322559
 40
4.572393936131578
 40
4.701656719782024
 40
4.768279086008524
 40
4.835960697898448
 40
4.912788918729404
 40
5.006285208481604
 40
5.026909478751652
 40
5.047533749021159
 40
5.101808031471229
 40
5.162325165538548
 40
5.226919745995822
 40
5.294231806596752
 40
5.364544852554899
 40
5.438319055467945
 40
5.517877651324226
 40
5.607647714861595
 40
5.700449642544413
 40
5.788251142364089
 40
5.872714706039746
 40
5.955167292575306
 40
6.037192395190359
 40
6.120669181469117
 40
6.206848616686373
 40
6.296680855416789
 40
6.442558392872614
 40
6.568190371608329
 40
6.692904567360372
 40
6.824220446557124
 40
6.963121850329335
 40
7.107843738851071
 40
7.253431663907286
 40
7.39518746803676
 40
7.53314075323777
 40
7.670550457175239
 40
7.816236511769256
 40
7.98769165735922
 40
8.14227742196925
 40
8.293662615415009
 40
8.442962460879265
 40
8.591598316185255
 40
8.743678992361778
 40
8.903725323699188
 40
9.076307008890508
 40
9.265578604680591
 40
9.459203795360766
 40
9.617619810273634
 40
9.753609671361943
 40
9.87487330000402
 40
9.954520184977705
 40
10.02416413719237
 40
10.09769764405437
 40
10.18909955924964
 40
10.20974586420131
 40
10.2303921826338
 40
10.30057101881264
 40
10.37632012987541
 40
10.37632012987541
 40
10.37632012987541
 40
10.37632012987541
 10
170.1465954835851
 20
14.13795663215994
 10
170.1632217851219
 20
14.11720608845313
 10
170.1970784206577
 20
14.07495111711901
 10
170.2599822541036
 20
14.02029811392073
 10
170.3332500940393
 20
13.97299025121048
 10
170.4175969238636
 20
13.93527231437937
 10
170.5132240615461
 20
13.91040619731951
 10
170.6171853775345
 20
13.90309559345937
 10
170.7224020220405
 20
13.91142322794055
 10
170.8206626371333
 20
13.94149179651527
 10
170.9058986427548
 20
13.98848822971877
 10
170.9779220206103
 20
14.04952991250856
 10
171.0350917709096
 20
14.12412969578584
 10
171.0767868747441
 20
14.21002464660171
 10
171.1026952846293
 20
14.30485850432211
 10
171.1118037332653
 20
14.41854979038367
 10
171.0986864796487
 20
14.54332587770779
 10
171.0325330334414
 20
14.66014719171891
 10
170.9369370919568
 20
14.7451253957737
 10
170.824968102237
 20
14.81416684459168
 10
170.6993659583269
 20
14.87204142045887
 10
170.5656691620856
 20
14.9237372328434
 10
170.4313122818832
 20
14.97899092397181
 10
170.3051983986877
 20
15.04939770641653
 10
170.1926579987535
 20
15.13785540731244
 10
170.0969963064459
 20
15.24981067868477
 10
170.0334157151825
 20
15.3994991010138
 10
170.0200706505015
 20
15.55932794385142
 10
170.0320510987448
 20
15.71048405306845
 10
170.071229892884
 20
15.83809244591539
 10
170.1354987750911
 20
15.95080874030847
 10
170.2238204999741
 20
16.0464860926868
 10
170.3338091207628
 20
16.12354214985756
 10
170.4632284401266
 20
16.18151396936278
 10
170.6111838967793
 20
16.21739177588821
 10
170.7682069455487
 20
16.22746719050564
 10
170.917494046643
 20
16.21863637762589
 10
171.059625361417
 20
16.19074899340353
 10
171.1595922609625
 20
16.13413314701138
 10
171.3125074736186
 20
16.08674602105507
 10
171.2455131717169
 20
16.00197553001186
 10
171.229647912027
 20
15.93438901873482
 10
171.1978750531297
 20
15.86926092793193
 10
171.2150202209571
 20
15.76723453256955
 10
171.1666427208232
 20
15.77493211681902
 10
171.1315789440767
 20
15.7680677172481
 10
171.1296697985719
 20
15.83263831158199
 10
171.0985692931988
 20
15.8782563962139
 10
171.0664551628457
 20
15.93561036628461
 10
171.0208038475168
 20
15.98540462692555
 10
170.9658508218386
 20
16.02994813718995
 10
170.9010841173008
 20
16.06763988836548
 10
170.8232377310596
 20
16.09283375791354
 10
170.7355160553353
 20
16.0993123099811
 10
170.6452903277807
 20
16.09235709285608
 10
170.5594594694065
 20
16.06909190460919
 10
170.4828343638597
 20
16.03131644107544
 10
170.41652656362
 20
15.98051641089577
 10
170.3622560536965
 20
15.91731143407207
 10
170.3224925345458
 20
15.84276455710368
 10
170.2976775510587
 20
15.75917313997764
 10
170.289212426287
 20
15.65192948382285
 10
170.3019697987104
 20
15.52965457267557
 10
170.3681548409274
 20
15.41149724291215
 10
170.4640977399833
 20
15.32606325709526
 10
170.5757914963183
 20
15.25583362306722
 10
170.7010863668702
 20
15.19659162305305
 10
170.8349823941447
 20
15.14616708086128
 10
170.968993033315
 20
15.09322516984384
 10
171.0950885316915
 20
15.02750170625178
 10
171.2076216638417
 20
14.94480352537319
 10
171.3031370284233
 20
14.83996006310073
 10
171.3672706486962
 20
14.69937117251569
 10
171.3811103725279
 20
14.54065409451592
 10
171.3673954712229
 20
14.38153155217877
 10
171.3244739153985
 20
14.23483828819209
 10
171.2545906329065
 20
14.10119796587146
 10
171.157459221383
 20
13.98532387699287
 10
171.0347806023657
 20
13.89089981770089
 10
170.8874408413168
 20
13.82179270651982
 10
170.7177132497125
 20
13.77953210858852
 10
170.5317404979597
 20
13.76781736230407
 10
170.3528955926182
 20
13.77809486683438
 10
170.1881733753743
 20
13.81966573769151
 10
170.0834410841055
 20
13.88797642883938
 10
169.9350960790367
 20
13.93675219032109
 10
169.9980378194729
 20
14.02976591290841
 10
170.0072274430059
 20
14.1029653624828
 10
170.0303711301231
 20
14.16936294501346
 10
170.0034588335318
 20
14.26974809527583
 10
170.0521338956339
 20
14.26234033517378
 10
170.0916530580698
 20
14.26894063620896
 10
170.0996204944703
 20
14.19078703218933
 10
170.1305436967923
 20
14.15600927375857
 10
170.1465954835851
 20
14.13795663215994
 97
        1
330
B4
 75
     1
 76
     2
 52
45.0
 41
0.1
 77
     0
 78
     1
 53
45.0
 43
0.0
 44
0.0
 45
-0.282842712474619
 46
0.0
 79
     0
 98
        1
 10
0.0
 20
0.0
  0
ENDBLK
  5
4A
330
48
100
AcDbEntity
  8
0
100
AcDbBlockEnd
  0
BLOCK
  5
4D
330
4B
100
AcDbEntity
  8
0
100
AcDbBlockBegin
  2
開示A4枠
 70
     0
 10
0.0
 20
0.0
 30
0.0
  3
開示A4枠
  1

  0
INSERT
  5
4C
330
4B
100
AcDbEntity
  8
1
100
AcDbBlockReference
  2
開示A4
 10
0.0
 20
0.0
 30
0.0
  0
ENDBLK
  5
4E
330
4B
100
AcDbEntity
  8
0
100
AcDbBlockEnd
  0
BLOCK
  5
50
330
4F
100
AcDbEntity
  8
0
100
AcDbBlockBegin
  2
P40-54S-25
 70
     0
 10
92.43472533081952
 20
116.9300281788112
 30
0.0
  3
P40-54S-25
  1

  0
LINE
  5
D1
330
4F
100
AcDbEntity
  8
1
  6
Continuous
 62
     7
100
AcDbLine
 10
97.02300752271246
 20
123.9300281788112
 30
0.0
 11
97.02300752271246
 21
125.9300281788112
 31
0.0
  0
LINE
  5
D2
330
4F
100
AcDbEntity
  8
1
  6
Continuous
 62
     7
100
AcDbLine
 10
127.0230075227125
 20
125.9300281788112
 30
0.0
 11
127.0230075227125
 21
123.9300281788112
 31
0.0
  0
LINE
  5
D3
330
4F
100
AcDbEntity
  8
1
  6
Continuous
 62
     7
100
AcDbLine
 10
127.0230075227125
 20
123.9300281788112
 30
0.0
 11
97.02300752271246
 21
123.9300281788112
 31
0.0
  0
LINE
  5
D4
330
4F
100
AcDbEntity
  8
1
  6
Continuous
 62
     7
100
AcDbLine
 10
97.02300752271246
 20
125.9300281788112
 30
0.0
 11
127.0230075227125
 21
125.9300281788112
 31
0.0
  0
CIRCLE
  5
D5
330
4F
100
AcDbEntity
  8
1
  6
Continuous
 62
     7
100
AcDbCircle
 10
112.0230075227125
 20
179.9783859415807
 30
0.0
 40
12.0
  0
CIRCLE
  5
D6
330
4F
100
AcDbEntity
  8
1
  6
Continuous
 62
     7
100
AcDbCircle
 10
112.0230075227125
 20
179.9783859415807
 30
0.0
 40
15.0
  0
ENDBLK
  5
51
330
4F
100
AcDbEntity
  8
0
100
AcDbBlockEnd
  0
BLOCK
  5
F1
330
E8
100
AcDbEntity
  8
0
100
AcDbBlockBegin
  2
*D4
 70
     1
 10
0.0
 20
0.0
 30
0.0
  3
*D4
  1

  0
LINE
  5
E9
330
E8
100
AcDbEntity
  8
1
  6
Continuous
 62
     2
100
AcDbLine
 10
86.02300752271246
 20
123.9300281788112
 30
0.0
 11
86.02300752271246
 21
116.9300281788112
 31
0.0
  0
LINE
  5
EA
330
E8
100
AcDbEntity
  8
1
  6
Continuous
 62
     2
100
AcDbLine
 10
86.02300752271246
 20
125.9300281788112
 30
0.0
 11
86.02300752271246
 21
123.9300281788112
 31
0.0
  0
LINE
  5
EB
330
E8
100
AcDbEntity
  8
1
  6
Continuous
 62
     2
100
AcDbLine
 10
86.02300752271246
 20
132.9300281788112
 30
0.0
 11
86.02300752271246
 21
125.9300281788112
 31
0.0
  0
LINE
  5
EC
330
E8
100
AcDbEntity
  8
1
  6
Continuous
 62
     2
100
AcDbLine
 10
97.02300752271246
 20
123.9300281788112
 30
0.0
 11
85.02300752271246
 21
123.9300281788112
 31
0.0
  0
LINE
  5
ED
330
E8
100
AcDbEntity
  8
1
  6
Continuous
 62
     2
100
AcDbLine
 10
97.02300752271246
 20
125.9300281788112
 30
0.0
 11
85.02300752271246
 21
125.9300281788112
 31
0.0
  0
SOLID
  5
EE
330
E8
100
AcDbEntity
  8
1
 62
     2
100
AcDbTrace
 10
85.56222378115658
 20
129.4300281788112
 30
0.0
 11
86.48379126426835
 21
129.4300281788112
 31
0.0
 12
86.02300752271246
 22
125.9300281788112
 32
0.0
 13
86.02300752271246
 23
125.9300281788112
 33
0.0
  0
SOLID
  5
EF
330
E8
100
AcDbEntity
  8
1
 62
     2
100
AcDbTrace
 10
86.48379126426835
 20
120.4300281788112
 30
0.0
 11
85.56222378115658
 21
120.4300281788112
 31
0.0
 12
86.02300752271246
 22
123.9300281788112
 32
0.0
 13
86.02300752271246
 23
123.9300281788112
 33
0.0
  0
MTEXT
  5
F0
330
E8
100
AcDbEntity
  8
1
 62
     7
100
AcDbMText
 10
85.02300752271246
 20
128.849341641142
 30
0.0
 40
3.5
 41
0.0
 71
     7
 72
     1
  1
2
  7
CONVERTER_12
 11
0.0
 21
1.0
 31
0.0
 73
     1
 44
0.60024009603842
  0
ENDBLK
  5
F2
330
E8
100
AcDbEntity
  8
0
100
AcDbBlockEnd
  0
BLOCK
  5
FA
330
F5
100
AcDbEntity
  8
0
100
AcDbBlockBegin
  2
*D5
 70
     1
 10
0.0
 20
0.0
 30
0.0
  3
*D5
  1

  0
LINE
  5
F6
330
F5
100
AcDbEntity
  8
1
  6
Continuous
 62
     2
100
AcDbLine
 10
124.5229160995985
 20
191.8659755025258
 30
0.0
 11
93.55155568991746
 21
162.4117744233918
 31
0.0
  0
SOLID
  5
F7
330
F5
100
AcDbEntity
  8
1
 62
     2
100
AcDbTrace
 10
101.1087481055669
 20
168.9628849075046
 30
0.0
 11
100.4736631205266
 21
169.6306825472917
 31
0.0
 12
103.3274189474874
 22
171.7087584209233
 32
0.0
 13
103.3274189474874
 23
171.7087584209233
 33
0.0
  0
SOLID
  5
F8
330
F5
100
AcDbEntity
  8
1
 62
     2
100
AcDbTrace
 10
122.937266939858
 20
190.9938869756568
 30
0.0
 11
123.5723519248984
 21
190.3260893358697
 31
0.0
 12
120.7185960979375
 22
188.2480134622382
 32
0.0
 13
120.7185960979375
 23
188.2480134622382
 33
0.0
  0
MTEXT
  5
F9
330
F5
100
AcDbEntity
  8
1
 62
     7
100
AcDbMText
 10
93.82618113028344
 20
164.0529571882001
 30
0.0
 40
3.5
 41
0.0
 71
     7
 72
     1
  1
\C7;{\Fgdt;n}\C7;24
  7
CONVERTER_12
 11
0.7246323812687561
 21
0.6891356267214547
 31
0.0
 73
     1
 44
0.60024009603842
  0
ENDBLK
  5
FB
330
F5
100
AcDbEntity
  8
0
100
AcDbBlockEnd
  0
BLOCK
  5
104
330
FD
100
AcDbEntity
  8
0
100
AcDbBlockBegin
  2
*D6
 70
     1
 10
0.0
 20
0.0
 30
0.0
  3
*D6
  1

  0
LINE
  5
FE
330
FD
100
AcDbEntity
  8
1
  6
Continuous
 62
     2
100
AcDbLine
 10
127.0230075227125
 20
205.8462012565557
 30
0.0
 11
97.02300752271249
 21
205.8462012565557
 31
0.0
  0
LINE
  5
FF
330
FD
100
AcDbEntity
  8
1
  6
Continuous
 62
     2
100
AcDbLine
 10
97.02300752271249
 20
179.9783859415807
 30
0.0
 11
97.02300752271249
 21
206.8462012565557
 31
0.0
  0
LINE
  5
100
330
FD
100
AcDbEntity
  8
1
  6
Continuous
 62
     2
100
AcDbLine
 10
127.0230075227125
 20
179.9783859415807
 30
0.0
 11
127.0230075227125
 21
206.8462012565557
 31
0.0
  0
SOLID
  5
101
330
FD
100
AcDbEntity
  8
1
 62
     2
100
AcDbTrace
 10
123.5230075227125
 20
205.3854175149998
 30
0.0
 11
123.5230075227125
 21
206.3069849981116
 31
0.0
 12
127.0230075227125
 22
205.8462012565557
 32
0.0
 13
127.0230075227125
 23
205.8462012565557
 33
0.0
  0
SOLID
  5
102
330
FD
100
AcDbEntity
  8
1
 62
     2
100
AcDbTrace
 10
100.5230075227125
 20
206.3069849981116
 30
0.0
 11
100.5230075227125
 21
205.3854175149998
 31
0.0
 12
97.02300752271249
 22
205.8462012565557
 32
0.0
 13
97.02300752271249
 23
205.8462012565557
 33
0.0
  0
MTEXT
  5
103
330
FD
100
AcDbEntity
  8
1
 62
     7
100
AcDbMText
 10
108.6059349862032
 20
206.8461942994794
 30
0.0
 40
3.5
 41
0.0
 71
     7
 72
     1
  1
\C7;{\Fgdt;n}\C7;30
  7
CONVERTER_12
 11
0.9999999999970619
 21
2.424068405545306E-6
 31
0.0
 73
     1
 44
0.60024009603842
  0
ENDBLK
  5
105
330
FD
100
AcDbEntity
  8
0
100
AcDbBlockEnd
  0
ENDSEC
  0
SECTION
  2
ENTITIES
  0
INSERT
  5
52
330
1F
100
AcDbEntity
  8
0
100
AcDbBlockReference
  2
開示A4枠
 10
0.0
 20
0.0
 30
0.0
  0
INSERT
  5
53
330
1F
100
AcDbEntity
  8
1
100
AcDbBlockReference
  2
P40-54S-25
 10
92.43472533081952
 20
116.9300281788112
 30
0.0
  0
LINE
  5
D7
330
1F
100
AcDbEntity
  8
1
  6
DASH_CENTER
 62
     2
100
AcDbLine
 10
112.0230075227125
 20
161.9783859415807
 30
0.0
 11
112.0230075227125
 21
175.6338593143617
 31
0.0
  0
LINE
  5
D8
330
1F
100
AcDbEntity
  8
1
  6
DASH_CENTER
 62
     2
100
AcDbLine
 10
94.02300752271246
 20
179.9783859415807
 30
0.0
 11
130.0230075227125
 21
179.9783859415807
 31
0.0
  0
LINE
  5
D9
330
1F
100
AcDbEntity
  8
1
  6
DASH_CENTER
 62
     2
100
AcDbLine
 10
112.0230075227125
 20
175.4783859415807
 30
0.0
 11
112.0230075227125
 21
197.9783859415807
 31
0.0
  0
LINE
  5
DA
330
1F
100
AcDbEntity
  8
1
  6
DASH_CENTER
 62
     2
100
AcDbLine
 10
112.0230075227125
 20
128.9300281788112
 30
0.0
 11
112.0230075227125
 21
120.9300281788112
 31
0.0
  0
MTEXT
  5
DC
330
1F
100
AcDbEntity
  8
1
 62
     7
100
AcDbMText
 10
157.5
 20
12.5
 30
0.0
 40
2.5
 41
0.0
 71
     5
 72
     1
  1
2
  7
CONVERTER_12
 73
     1
 44
0.7202881152461
  0
MTEXT
  5
DD
330
1F
100
AcDbEntity
  8
1
 62
     7
100
AcDbMText
 10
151.75
 20
12.5
 30
0.0
 40
2.5
 41
0.0
 71
     5
 72
     1
  1
04
  7
CONVERTER_12
 73
     1
 44
0.7202881152461
  0
MTEXT
  5
DE
330
1F
100
AcDbEntity
  8
1
 62
     7
100
AcDbMText
 10
140.5
 20
12.5
 30
0.0
 40
2.5
 41
0.0
 71
     5
 72
     1
  1
2
  7
CONVERTER_12
 73
     1
 44
0.7202881152461
  0
MTEXT
  5
DF
330
1F
100
AcDbEntity
  8
1
 62
     7
100
AcDbMText
 10
134.75
 20
12.5
 30
0.0
 40
2.5
 41
0.0
 71
     5
 72
     1
  1
04
  7
CONVERTER_12
 73
     1
 44
0.7202881152461
  0
MTEXT
  5
E0
330
1F
100
AcDbEntity
  8
1
 62
     7
100
AcDbMText
 10
123.5
 20
12.5
 30
0.0
 40
2.5
 41
0.0
 71
     5
 72
     1
  1
2
  7
CONVERTER_12
 73
     1
 44
0.7202881152461
  0
MTEXT
  5
E1
330
1F
100
AcDbEntity
  8
1
 62
     7
100
AcDbMText
 10
117.75
 20
12.5
 30
0.0
 40
2.5
 41
0.0
 71
     5
 72
     1
  1
04
  7
CONVERTER_12
 73
     1
 44
0.7202881152461
  0
MTEXT
  5
E2
330
1F
100
AcDbEntity
  8
1
 62
     7
100
AcDbMText
 10
100.75
 20
12.5
 30
0.0
 40
2.5
 41
0.0
 71
     5
 72
     1
  1
04
  7
CONVERTER_12
 73
     1
 44
0.7202881152461
  0
MTEXT
  5
E3
330
1F
100
AcDbEntity
  8
1
 62
     7
100
AcDbMText
 10
106.5
 20
12.5
 30
0.0
 40
2.5
 41
0.0
 71
     5
 72
     1
  1
2
  7
CONVERTER_12
 73
     1
 44
0.7202881152461
  0
MTEXT
  5
E4
330
1F
100
AcDbEntity
  8
1
 62
     7
100
AcDbMText
 10
85.25
 20
17.0
 30
0.0
 40
3.5
 41
0.0
 71
     5
 72
     1
  1
1
  7
CONVERTER_12
 73
     1
 44
0.7202881152461
  0
MTEXT
  5
E5
330
1F
100
AcDbEntity
  8
1
 62
     7
100
AcDbMText
 10
57.0
 20
22.75000000000001
 30
0.0
 40
3.5
 41
0.0
 71
     5
 72
     1
  1
トラップ用平パッキン
  7
CONVERTER_11
 73
     1
 44
0.54545454545455
  0
MTEXT
  5
E6
330
1F
100
AcDbEntity
  8
1
 62
     7
100
AcDbMText
 10
57.0
 20
14.25
 30
0.0
 40
3.5
 41
0.0
 71
     5
 72
     1
  1
P40-54S-25
  7
CONVERTER_12
 73
     1
 44
0.7202881152461
  0
MTEXT
  5
E7
330
1F
100
AcDbEntity
  8
1
 62
     7
100
AcDbMText
 10
93.75
 20
17.0
 30
0.0
 40
3.5
 41
0.0
 71
     5
 72
     1
  1
1
  7
CONVERTER_12
 73
     1
 44
0.7202881152461
  0
DIMENSION
  5
F4
330
1F
100
AcDbEntity
  8
1
100
AcDbDimension
  2
*D4
 10
86.02300752271246
 20
125.9300281788112
 30
0.0
 11
83.27300752271246
 21
129.899341641142
 31
0.0
 70
    32
  1
<>
 71
     5
 42
-1.0
 53
90.0
  3
ME10_DIM_10
100
AcDbAlignedDimension
 13
97.02300752271246
 23
123.9300281788112
 33
0.0
 14
97.02300752271246
 24
125.9300281788112
 34
0.0
 50
90.0
100
AcDbRotatedDimension
  0
INSERT
  5
FC
330
1F
100
AcDbEntity
  8
1
100
AcDbBlockReference
  2
*D5
 10
0.0
 20
0.0
 30
0.0
  0
INSERT
  5
106
330
1F
100
AcDbEntity
  8
1
100
AcDbBlockReference
  2
*D6
 10
0.0
 20
0.0
 30
0.0
  0
ENDSEC
  0
SECTION
  2
OBJECTS
  0
DICTIONARY
  5
C
330
0
100
AcDbDictionary
281
     1
  3
ACAD_GROUP
350
D
  3
ACAD_LAYOUT
350
1A
  3
ACAD_MATERIAL
350
3B
  3
ACAD_MLEADERSTYLE
350
109
  3
ACAD_MLINESTYLE
350
17
  3
ACAD_PLOTSETTINGS
350
19
  3
ACAD_PLOTSTYLENAME
350
E
  3
ACAD_VISUALSTYLE
350
2A
  3
AcDbVariableDictionary
350
107
  0
DICTIONARY
  5
D
102
{ACAD_REACTORS
330
C
102
}
330
C
100
AcDbDictionary
281
     1
  0
DICTIONARY
  5
1A
102
{ACAD_REACTORS
330
C
102
}
330
C
100
AcDbDictionary
281
     1
  3
Layout1
350
1E
  3
Layout2
350
26
  3
Model
350
22
  0
DICTIONARY
  5
3B
102
{ACAD_REACTORS
330
C
102
}
330
C
100
AcDbDictionary
281
     1
  3
ByBlock
350
3D
  3
ByLayer
350
3C
  3
Global
350
3E
  0
DICTIONARY
  5
109
102
{ACAD_REACTORS
330
C
102
}
330
C
100
AcDbDictionary
281
     1
  0
DICTIONARY
  5
17
102
{ACAD_REACTORS
330
C
102
}
330
C
100
AcDbDictionary
281
     1
  3
Standard
350
18
  0
DICTIONARY
  5
19
102
{ACAD_REACTORS
330
C
102
}
330
C
100
AcDbDictionary
281
     1
  0
ACDBDICTIONARYWDFLT
  5
E
102
{ACAD_REACTORS
330
C
102
}
330
C
100
AcDbDictionary
281
     1
  3
Normal
350
F
100
AcDbDictionaryWithDefault
340
F
  0
DICTIONARY
  5
2A
102
{ACAD_REACTORS
330
C
102
}
330
C
100
AcDbDictionary
281
     1
  3
2dWireframe
350
2F
  3
3D Hidden
350
31
  3
3dWireframe
350
30
  3
Basic
350
32
  3
Brighten
350
36
  3
ColorChange
350
3A
  3
Conceptual
350
34
  3
Dim
350
35
  3
Facepattern
350
39
  3
Flat
350
2B
  3
FlatWithEdges
350
2C
  3
Gouraud
350
2D
  3
GouraudWithEdges
350
2E
  3
Linepattern
350
38
  3
Realistic
350
33
  3
Thicken
350
37
  0
DICTIONARY
  5
107
102
{ACAD_REACTORS
330
C
102
}
330
C
100
AcDbDictionary
281
     1
  3
DIMASSOC
350
10A
  3
HIDETEXT
350
10B
  0
LAYOUT
  5
1E
102
{ACAD_REACTORS
330
1A
102
}
330
1A
100
AcDbPlotSettings
  1

  2
none_device
  4

  6

 40
0.0
 41
0.0
 42
0.0
 43
0.0
 44
0.0
 45
0.0
 46
0.0
 47
0.0
 48
0.0
 49
0.0
140
0.0
141
0.0
142
1.0
143
1.0
 70
   688
 72
     0
 73
     0
 74
     5
  7

 75
    16
147
1.0
148
0.0
149
0.0
100
AcDbLayout
  1
Layout1
 70
     1
 71
     1
 10
0.0
 20
0.0
 11
12.0
 21
9.0
 12
0.0
 22
0.0
 32
0.0
 14
1.00000000000000E+20
 24
1.00000000000000E+20
 34
1.00000000000000E+20
 15
-1.00000000000000E+20
 25
-1.00000000000000E+20
 35
-1.00000000000000E+20
146
0.0
 13
0.0
 23
0.0
 33
0.0
 16
1.0
 26
0.0
 36
0.0
 17
0.0
 27
1.0
 37
0.0
 76
     0
330
1B
  0
LAYOUT
  5
26
102
{ACAD_REACTORS
330
1A
102
}
330
1A
100
AcDbPlotSettings
  1

  2
none_device
  4

  6

 40
0.0
 41
0.0
 42
0.0
 43
0.0
 44
0.0
 45
0.0
 46
0.0
 47
0.0
 48
0.0
 49
0.0
140
0.0
141
0.0
142
1.0
143
1.0
 70
   688
 72
     0
 73
     0
 74
     5
  7

 75
    16
147
1.0
148
0.0
149
0.0
100
AcDbLayout
  1
Layout2
 70
     1
 71
     2
 10
0.0
 20
0.0
 11
0.0
 21
0.0
 12
0.0
 22
0.0
 32
0.0
 14
0.0
 24
0.0
 34
0.0
 15
0.0
 25
0.0
 35
0.0
146
0.0
 13
0.0
 23
0.0
 33
0.0
 16
1.0
 26
0.0
 36
0.0
 17
0.0
 27
1.0
 37
0.0
 76
     0
330
23
  0
LAYOUT
  5
22
102
{ACAD_REACTORS
330
1A
102
}
330
1A
100
AcDbPlotSettings
  1

  2
none_device
  4

  6

 40
0.0
 41
0.0
 42
0.0
 43
0.0
 44
0.0
 45
0.0
 46
0.0
 47
0.0
 48
0.0
 49
0.0
140
0.0
141
0.0
142
1.0
143
1.0
 70
  1712
 72
     0
 73
     0
 74
     0
  7

 75
     0
147
1.0
148
0.0
149
0.0
100
AcDbLayout
  1
Model
 70
     1
 71
     0
 10
0.0
 20
0.0
 11
12.0
 21
9.0
 12
0.0
 22
0.0
 32
0.0
 14
0.0
 24
0.0
 34
0.0
 15
210.0
 25
297.0
 35
0.0
146
0.0
 13
0.0
 23
0.0
 33
0.0
 16
1.0
 26
0.0
 36
0.0
 17
0.0
 27
1.0
 37
0.0
 76
     0
330
1F
331
29
  0
MATERIAL
  5
3D
102
{ACAD_REACTORS
330
3B
102
}
102
{ACAD_XDICTIONARY
360
12E
102
}
330
3B
100
AcDbMaterial
  1
ByBlock
  0
MATERIAL
  5
3C
102
{ACAD_REACTORS
330
3B
102
}
102
{ACAD_XDICTIONARY
360
12C
102
}
330
3B
100
AcDbMaterial
  1
ByLayer
  0
MATERIAL
  5
3E
102
{ACAD_REACTORS
330
3B
102
}
102
{ACAD_XDICTIONARY
360
130
102
}
330
3B
100
AcDbMaterial
  1
Global
  0
MLINESTYLE
  5
18
102
{ACAD_REACTORS
330
17
102
}
330
17
100
AcDbMlineStyle
  2
Standard
 70
     0
  3

 62
   256
 51
90.0
 52
90.0
 71
     2
 49
0.5
 62
   256
  6
BYLAYER
 49
-0.5
 62
   256
  6
BYLAYER
  0
ACDBPLACEHOLDER
  5
F
102
{ACAD_REACTORS
330
E
102
}
330
E
  0
VISUALSTYLE
  5
2F
102
{ACAD_REACTORS
330
2A
102
}
102
{ACAD_XDICTIONARY
360
114
102
}
330
2A
100
AcDbVisualStyle
  2
2dWireframe
 70
     4
 71
     0
 72
     2
 73
     0
 90
        0
 40
-0.6
 41
-30.0
 62
     5
 63
     7
 74
     1
 91
        4
 64
     7
 65
   257
 75
     1
175
     1
 42
1.0
 92
        0
 66
   257
 43
1.0
 76
     1
 77
     6
 78
     2
 67
     7
 79
     5
170
     0
171
     0
290
     0
174
     0
 93
        1
 44
0.0
173
     0
291
     0
 45
0.0
1001
ACAD
1000
AcDbSavedByObjectVersion
1070
     0
  0
VISUALSTYLE
  5
31
102
{ACAD_REACTORS
330
2A
102
}
102
{ACAD_XDICTIONARY
360
118
102
}
330
2A
100
AcDbVisualStyle
  2
3D Hidden
 70
     6
 71
     1
 72
     2
 73
     2
 90
        0
 40
-0.6
 41
-30.0
 62
     5
 63
     7
 74
     2
 91
        2
 64
     7
 65
   257
 75
     2
175
     1
 42
40.0
 92
        0
 66
   257
 43
1.0
 76
     1
 77
     6
 78
     2
 67
     7
 79
     3
170
     0
171
     0
290
     0
174
     0
 93
        1
 44
0.0
173
     0
291
     0
 45
0.0
1001
ACAD
1000
AcDbSavedByObjectVersion
1070
     0
  0
VISUALSTYLE
  5
30
102
{ACAD_REACTORS
330
2A
102
}
102
{ACAD_XDICTIONARY
360
116
102
}
330
2A
100
AcDbVisualStyle
  2
3dWireframe
 70
     5
 71
     0
 72
     2
 73
     0
 90
        0
 40
-0.6
 41
-30.0
 62
     5
 63
     7
 74
     1
 91
        4
 64
     7
 65
   257
 75
     1
175
     1
 42
1.0
 92
        0
 66
   257
 43
1.0
 76
     1
 77
     6
 78
     2
 67
     7
 79
     5
170
     0
171
     0
290
     0
174
     0
 93
        1
 44
0.0
173
     0
291
     0
 45
0.0
1001
ACAD
1000
AcDbSavedByObjectVersion
1070
     0
  0
VISUALSTYLE
  5
32
102
{ACAD_REACTORS
330
2A
102
}
102
{ACAD_XDICTIONARY
360
11A
102
}
330
2A
100
AcDbVisualStyle
  2
Basic
 70
     7
 71
     1
 72
     0
 73
     1
 90
        0
 40
-0.6
 41
-30.0
 62
     5
 63
     7
 74
     0
 91
        4
 64
     7
 65
   257
 75
     1
175
     1
 42
1.0
 92
        8
 66
     7
 43
1.0
 76
     1
 77
     6
 78
     2
 67
     7
 79
     5
170
     0
171
     0
290
     0
174
     0
 93
        1
 44
0.0
173
     0
291
     1
 45
0.0
1001
ACAD
1000
AcDbSavedByObjectVersion
1070
     0
  0
VISUALSTYLE
  5
36
102
{ACAD_REACTORS
330
2A
102
}
102
{ACAD_XDICTIONARY
360
122
102
}
330
2A
100
AcDbVisualStyle
  2
Brighten
 70
    12
 71
     2
 72
     2
 73
     0
 90
        0
 40
-0.6
 41
-30.0
 62
     5
 63
     7
 74
     1
 91
        4
 64
     7
 65
   257
 75
     1
175
     1
 42
1.0
 92
        8
 66
     7
 43
1.0
 76
     1
 77
     6
 78
     2
 67
     7
 79
     5
170
     0
171
     0
290
     0
174
     0
 93
        1
 44
50.0
173
     0
291
     1
 45
0.0
1001
ACAD
1000
AcDbSavedByObjectVersion
1070
     0
  0
VISUALSTYLE
  5
3A
102
{ACAD_REACTORS
330
2A
102
}
102
{ACAD_XDICTIONARY
360
12A
102
}
330
2A
100
AcDbVisualStyle
  2
ColorChange
 70
    16
 71
     2
 72
     2
 73
     3
 90
        0
 40
-0.6
 41
-30.0
 62
     5
 63
     8
 74
     1
 91
        4
 64
     7
 65
   257
 75
     1
175
     1
 42
1.0
 92
        8
 66
     8
 43
1.0
 76
     1
 77
     6
 78
     2
 67
     7
 79
     5
170
     0
171
     0
290
     0
174
     0
 93
        1
 44
0.0
173
     0
291
     1
 45
0.0
1001
ACAD
1000
AcDbSavedByObjectVersion
1070
     0
  0
VISUALSTYLE
  5
34
102
{ACAD_REACTORS
330
2A
102
}
102
{ACAD_XDICTIONARY
360
11E
102
}
330
2A
100
AcDbVisualStyle
  2
Conceptual
 70
     9
 71
     3
 72
     2
 73
     0
 90
        0
 40
-0.6
 41
-30.0
 62
     5
 63
     7
 74
     2
 91
        2
 64
     7
 65
   257
 75
     1
175
     1
 42
40.0
 92
        8
 66
     7
 43
1.0
 76
     1
 77
     6
 78
     2
 67
     7
 79
     3
170
     0
171
     0
290
     0
174
     0
 93
        1
 44
0.0
173
     0
291
     0
 45
0.0
1001
ACAD
1000
AcDbSavedByObjectVersion
1070
     0
  0
VISUALSTYLE
  5
35
102
{ACAD_REACTORS
330
2A
102
}
102
{ACAD_XDICTIONARY
360
120
102
}
330
2A
100
AcDbVisualStyle
  2
Dim
 70
    11
 71
     2
 72
     2
 73
     0
 90
        0
 40
-0.6
 41
-30.0
 62
     5
 63
     7
 74
     1
 91
        4
 64
     7
 65
   257
 75
     1
175
     1
 42
1.0
 92
        8
 66
     7
 43
1.0
 76
     1
 77
     6
 78
     2
 67
     7
 79
     5
170
     0
171
     0
290
     0
174
     0
 93
        1
 44
-50.0
173
     0
291
     1
 45
0.0
1001
ACAD
1000
AcDbSavedByObjectVersion
1070
     0
  0
VISUALSTYLE
  5
39
102
{ACAD_REACTORS
330
2A
102
}
102
{ACAD_XDICTIONARY
360
128
102
}
330
2A
100
AcDbVisualStyle
  2
Facepattern
 70
    15
 71
     2
 72
     2
 73
     0
 90
        0
 40
-0.6
 41
-30.0
 62
     5
 63
     7
 74
     1
 91
        4
 64
     7
 65
   257
 75
     1
175
     1
 42
1.0
 92
        8
 66
     7
 43
1.0
 76
     1
 77
     6
 78
     2
 67
     7
 79
     5
170
     0
171
     0
290
     0
174
     0
 93
        1
 44
0.0
173
     0
291
     1
 45
0.0
1001
ACAD
1000
AcDbSavedByObjectVersion
1070
     0
  0
VISUALSTYLE
  5
2B
102
{ACAD_REACTORS
330
2A
102
}
102
{ACAD_XDICTIONARY
360
10C
102
}
330
2A
100
AcDbVisualStyle
  2
Flat
 70
     0
 71
     2
 72
     1
 73
     1
 90
        2
 40
-0.6
 41
30.0
 62
     5
 63
     7
 74
     0
 91
        4
 64
     7
 65
   257
 75
     1
175
     1
 42
1.0
 92
        8
 66
     7
 43
1.0
 76
     1
 77
     6
 78
     2
 67
     7
 79
     5
170
     0
171
     0
290
     0
174
     0
 93
       13
 44
0.0
173
     0
291
     1
 45
0.0
1001
ACAD
1000
AcDbSavedByObjectVersion
1070
     0
  0
VISUALSTYLE
  5
2C
102
{ACAD_REACTORS
330
2A
102
}
102
{ACAD_XDICTIONARY
360
10E
102
}
330
2A
100
AcDbVisualStyle
  2
FlatWithEdges
 70
     1
 71
     2
 72
     1
 73
     1
 90
        2
 40
-0.6
 41
30.0
 62
     5
 63
     7
 74
     1
 91
        4
 64
     7
 65
   257
 75
     1
175
     1
 42
1.0
 92
        0
 66
   257
 43
1.0
 76
     1
 77
     6
 78
     2
 67
     7
 79
     5
170
     0
171
     0
290
     0
174
     0
 93
       13
 44
0.0
173
     0
291
     1
 45
0.0
1001
ACAD
1000
AcDbSavedByObjectVersion
1070
     0
  0
VISUALSTYLE
  5
2D
102
{ACAD_REACTORS
330
2A
102
}
102
{ACAD_XDICTIONARY
360
110
102
}
330
2A
100
AcDbVisualStyle
  2
Gouraud
 70
     2
 71
     2
 72
     2
 73
     1
 90
        2
 40
-0.6
 41
30.0
 62
     5
 63
     7
 74
     0
 91
        4
 64
     7
 65
   257
 75
     1
175
     1
 42
1.0
 92
        0
 66
     7
 43
1.0
 76
     1
 77
     6
 78
     2
 67
     7
 79
     5
170
     0
171
     0
290
     0
174
     0
 93
       13
 44
0.0
173
     0
291
     1
 45
0.0
1001
ACAD
1000
AcDbSavedByObjectVersion
1070
     0
  0
VISUALSTYLE
  5
2E
102
{ACAD_REACTORS
330
2A
102
}
102
{ACAD_XDICTIONARY
360
112
102
}
330
2A
100
AcDbVisualStyle
  2
GouraudWithEdges
 70
     3
 71
     2
 72
     2
 73
     1
 90
        2
 40
-0.6
 41
30.0
 62
     5
 63
     7
 74
     1
 91
        4
 64
     7
 65
   257
 75
     1
175
     1
 42
1.0
 92
        0
 66
   257
 43
1.0
 76
     1
 77
     6
 78
     2
 67
     7
 79
     5
170
     0
171
     0
290
     0
174
     0
 93
       13
 44
0.0
173
     0
291
     1
 45
0.0
1001
ACAD
1000
AcDbSavedByObjectVersion
1070
     0
  0
VISUALSTYLE
  5
38
102
{ACAD_REACTORS
330
2A
102
}
102
{ACAD_XDICTIONARY
360
126
102
}
330
2A
100
AcDbVisualStyle
  2
Linepattern
 70
    14
 71
     2
 72
     2
 73
     0
 90
        0
 40
-0.6
 41
-30.0
 62
     5
 63
     7
 74
     1
 91
        4
 64
     7
 65
   257
 75
     7
175
     7
 42
1.0
 92
        8
 66
     7
 43
1.0
 76
     1
 77
     6
 78
     2
 67
     7
 79
     5
170
     0
171
     0
290
     0
174
     0
 93
        1
 44
0.0
173
     0
291
     1
 45
0.0
1001
ACAD
1000
AcDbSavedByObjectVersion
1070
     0
  0
VISUALSTYLE
  5
33
102
{ACAD_REACTORS
330
2A
102
}
102
{ACAD_XDICTIONARY
360
11C
102
}
330
2A
100
AcDbVisualStyle
  2
Realistic
 70
     8
 71
     2
 72
     2
 73
     0
 90
        0
 40
-0.6
 41
-30.0
 62
     5
 63
     7
 74
     1
 91
        0
 64
     7
 65
   257
 75
     1
175
     1
 42
1.0
 92
        8
 66
     8
 43
1.0
 76
     1
 77
     6
 78
     2
 67
     7
 79
     5
170
     0
171
     0
290
     0
174
     0
 93
       13
 44
0.0
173
     0
291
     0
 45
0.0
1001
ACAD
1000
AcDbSavedByObjectVersion
1070
     0
  0
VISUALSTYLE
  5
37
102
{ACAD_REACTORS
330
2A
102
}
102
{ACAD_XDICTIONARY
360
124
102
}
330
2A
100
AcDbVisualStyle
  2
Thicken
 70
    13
 71
     2
 72
     2
 73
     0
 90
        0
 40
-0.6
 41
-30.0
 62
     5
 63
     7
 74
     1
 91
        4
 64
     7
 65
   257
 75
     1
175
     1
 42
1.0
 92
       12
 66
     7
 43
1.0
 76
     1
 77
     6
 78
     2
 67
     7
 79
     5
170
     0
171
     0
290
     0
174
     0
 93
        1
 44
0.0
173
     0
291
     1
 45
0.0
1001
ACAD
1000
AcDbSavedByObjectVersion
1070
     0
  0
DICTIONARYVAR
  5
10A
102
{ACAD_REACTORS
330
107
102
}
330
107
100
DictionaryVariables
280
     0
  1
2
  0
DICTIONARYVAR
  5
10B
102
{ACAD_REACTORS
330
107
102
}
330
107
100
DictionaryVariables
280
     0
  1
1
  0
DICTIONARY
  5
12E
330
3D
100
AcDbDictionary
280
     1
281
     1
  3
ACAD_XREC_ROUNDTRIP
360
12F
  0
DICTIONARY
  5
12C
330
3C
100
AcDbDictionary
280
     1
281
     1
  3
ACAD_XREC_ROUNDTRIP
360
12D
  0
DICTIONARY
  5
130
330
3E
100
AcDbDictionary
280
     1
281
     1
  3
ACAD_XREC_ROUNDTRIP
360
131
  0
DICTIONARY
  5
114
330
2F
100
AcDbDictionary
280
     1
281
     1
  3
ACAD_XREC_ROUNDTRIP
360
115
  0
DICTIONARY
  5
118
330
31
100
AcDbDictionary
280
     1
281
     1
  3
ACAD_XREC_ROUNDTRIP
360
119
  0
DICTIONARY
  5
116
330
30
100
AcDbDictionary
280
     1
281
     1
  3
ACAD_XREC_ROUNDTRIP
360
117
  0
DICTIONARY
  5
11A
330
32
100
AcDbDictionary
280
     1
281
     1
  3
ACAD_XREC_ROUNDTRIP
360
11B
  0
DICTIONARY
  5
122
330
36
100
AcDbDictionary
280
     1
281
     1
  3
ACAD_XREC_ROUNDTRIP
360
123
  0
DICTIONARY
  5
12A
330
3A
100
AcDbDictionary
280
     1
281
     1
  3
ACAD_XREC_ROUNDTRIP
360
12B
  0
DICTIONARY
  5
11E
330
34
100
AcDbDictionary
280
     1
281
     1
  3
ACAD_XREC_ROUNDTRIP
360
11F
  0
DICTIONARY
  5
120
330
35
100
AcDbDictionary
280
     1
281
     1
  3
ACAD_XREC_ROUNDTRIP
360
121
  0
DICTIONARY
  5
128
330
39
100
AcDbDictionary
280
     1
281
     1
  3
ACAD_XREC_ROUNDTRIP
360
129
  0
DICTIONARY
  5
10C
330
2B
100
AcDbDictionary
280
     1
281
     1
  3
ACAD_XREC_ROUNDTRIP
360
10D
  0
DICTIONARY
  5
10E
330
2C
100
AcDbDictionary
280
     1
281
     1
  3
ACAD_XREC_ROUNDTRIP
360
10F
  0
DICTIONARY
  5
110
330
2D
100
AcDbDictionary
280
     1
281
     1
  3
ACAD_XREC_ROUNDTRIP
360
111
  0
DICTIONARY
  5
112
330
2E
100
AcDbDictionary
280
     1
281
     1
  3
ACAD_XREC_ROUNDTRIP
360
113
  0
DICTIONARY
  5
126
330
38
100
AcDbDictionary
280
     1
281
     1
  3
ACAD_XREC_ROUNDTRIP
360
127
  0
DICTIONARY
  5
11C
330
33
100
AcDbDictionary
280
     1
281
     1
  3
ACAD_XREC_ROUNDTRIP
360
11D
  0
DICTIONARY
  5
124
330
37
100
AcDbDictionary
280
     1
281
     1
  3
ACAD_XREC_ROUNDTRIP
360
125
  0
XRECORD
  5
12F
102
{ACAD_REACTORS
330
12E
102
}
330
12E
100
AcDbXrecord
280
     1
102
MATERIAL
148
0.0
149
0.0
149
0.0
 93
        0
 94
      127
282
     0
 72
     1
 77
     1
171
     1
175
     1
179
     1
273
     0
  0
XRECORD
  5
12D
102
{ACAD_REACTORS
330
12C
102
}
330
12C
100
AcDbXrecord
280
     1
102
MATERIAL
148
0.0
149
0.0
149
0.0
 93
        0
 94
      127
282
     0
 72
     1
 77
     1
171
     1
175
     1
179
     1
273
     0
  0
XRECORD
  5
131
102
{ACAD_REACTORS
330
130
102
}
330
130
100
AcDbXrecord
280
     1
102
MATERIAL
148
0.0
149
0.0
149
0.0
 93
        0
 94
      127
282
     0
 72
     1
 77
     1
171
     1
175
     1
179
     1
273
     0
  0
XRECORD
  5
115
102
{ACAD_REACTORS
330
114
102
}
330
114
100
AcDbXrecord
280
     1
102
RTVSPropertyOp0
 70
     1
102
RTVSPropertyOp1
 70
     1
102
RTVSPropertyOp2
 70
     1
102
RTVSPropertyOp3
 70
     1
102
RTVSPropertyOp4
 70
     1
102
RTVSPropertyOp5
 70
     1
102
RTVSPropertyOp6
 70
     1
102
RTVSPropertyOp7
 70
     1
102
RTVSPropertyOp8
 70
     1
102
RTVSPropertyOp9
 70
     1
102
RTVSPropertyOp10
 70
     1
102
RTVSPropertyOp11
 70
     1
102
RTVSPropertyOp12
 70
     1
102
RTVSPropertyOp13
 70
     1
102
RTVSPropertyOp14
 70
     1
102
RTVSPropertyOp15
 70
     1
102
RTVSPropertyOp16
 70
     1
102
RTVSPropertyOp17
 70
     1
102
RTVSPropertyOp18
 70
     1
102
RTVSPropertyOp19
 70
     1
102
RTVSPropertyOp20
 70
     1
102
RTVSPropertyOp21
 70
     1
102
RTVSPropertyOp22
 70
     1
102
RTVSPropertyOp23
 70
     1
102
RTVSPropertyOp24
 70
     1
102
RTVSPropertyOp25
 70
     1
102
RTVSPropertyOp26
 70
     1
102
RTVSPropertyOp27
 70
     1
102
RTVSPropertyOp28
 70
     1
102
RTVSPropertyOp29
 70
     1
102
RTVSPropertyOp30
 70
     1
102
RTVSPropertyOp31
 70
     1
102
RTVSPropertyOp32
 70
     1
  0
XRECORD
  5
119
102
{ACAD_REACTORS
330
118
102
}
330
118
100
AcDbXrecord
280
     1
102
RTVSPropertyOp0
 70
     1
102
RTVSPropertyOp1
 70
     1
102
RTVSPropertyOp2
 70
     1
102
RTVSPropertyOp3
 70
     1
102
RTVSPropertyOp4
 70
     1
102
RTVSPropertyOp5
 70
     1
102
RTVSPropertyOp6
 70
     1
102
RTVSPropertyOp7
 70
     1
102
RTVSPropertyOp8
 70
     1
102
RTVSPropertyOp9
 70
     1
102
RTVSPropertyOp10
 70
     1
102
RTVSPropertyOp11
 70
     1
102
RTVSPropertyOp12
 70
     1
102
RTVSPropertyOp13
 70
     1
102
RTVSPropertyOp14
 70
     1
102
RTVSPropertyOp15
 70
     1
102
RTVSPropertyOp16
 70
     1
102
RTVSPropertyOp17
 70
     1
102
RTVSPropertyOp18
 70
     1
102
RTVSPropertyOp19
 70
     1
102
RTVSPropertyOp20
 70
     1
102
RTVSPropertyOp21
 70
     1
102
RTVSPropertyOp22
 70
     1
102
RTVSPropertyOp23
 70
     1
102
RTVSPropertyOp24
 70
     1
102
RTVSPropertyOp25
 70
     1
102
RTVSPropertyOp26
 70
     1
102
RTVSPropertyOp27
 70
     1
102
RTVSPropertyOp28
 70
     1
102
RTVSPropertyOp29
 70
     1
102
RTVSPropertyOp30
 70
     1
102
RTVSPropertyOp31
 70
     1
102
RTVSPropertyOp32
 70
     1
  0
XRECORD
  5
117
102
{ACAD_REACTORS
330
116
102
}
330
116
100
AcDbXrecord
280
     1
102
RTVSPropertyOp0
 70
     1
102
RTVSPropertyOp1
 70
     1
102
RTVSPropertyOp2
 70
     1
102
RTVSPropertyOp3
 70
     1
102
RTVSPropertyOp4
 70
     1
102
RTVSPropertyOp5
 70
     1
102
RTVSPropertyOp6
 70
     1
102
RTVSPropertyOp7
 70
     1
102
RTVSPropertyOp8
 70
     1
102
RTVSPropertyOp9
 70
     1
102
RTVSPropertyOp10
 70
     1
102
RTVSPropertyOp11
 70
     1
102
RTVSPropertyOp12
 70
     1
102
RTVSPropertyOp13
 70
     1
102
RTVSPropertyOp14
 70
     1
102
RTVSPropertyOp15
 70
     1
102
RTVSPropertyOp16
 70
     1
102
RTVSPropertyOp17
 70
     1
102
RTVSPropertyOp18
 70
     1
102
RTVSPropertyOp19
 70
     1
102
RTVSPropertyOp20
 70
     1
102
RTVSPropertyOp21
 70
     1
102
RTVSPropertyOp22
 70
     1
102
RTVSPropertyOp23
 70
     1
102
RTVSPropertyOp24
 70
     1
102
RTVSPropertyOp25
 70
     1
102
RTVSPropertyOp26
 70
     1
102
RTVSPropertyOp27
 70
     1
102
RTVSPropertyOp28
 70
     1
102
RTVSPropertyOp29
 70
     1
102
RTVSPropertyOp30
 70
     1
102
RTVSPropertyOp31
 70
     1
102
RTVSPropertyOp32
 70
     1
  0
XRECORD
  5
11B
102
{ACAD_REACTORS
330
11A
102
}
330
11A
100
AcDbXrecord
280
     1
102
RTVSPropertyOp0
 70
     1
102
RTVSPropertyOp1
 70
     1
102
RTVSPropertyOp2
 70
     1
102
RTVSPropertyOp3
 70
     1
102
RTVSPropertyOp4
 70
     1
102
RTVSPropertyOp5
 70
     1
102
RTVSPropertyOp6
 70
     1
102
RTVSPropertyOp7
 70
     1
102
RTVSPropertyOp8
 70
     1
102
RTVSPropertyOp9
 70
     1
102
RTVSPropertyOp10
 70
     1
102
RTVSPropertyOp11
 70
     1
102
RTVSPropertyOp12
 70
     1
102
RTVSPropertyOp13
 70
     1
102
RTVSPropertyOp14
 70
     1
102
RTVSPropertyOp15
 70
     1
102
RTVSPropertyOp16
 70
     1
102
RTVSPropertyOp17
 70
     1
102
RTVSPropertyOp18
 70
     1
102
RTVSPropertyOp19
 70
     1
102
RTVSPropertyOp20
 70
     1
102
RTVSPropertyOp21
 70
     1
102
RTVSPropertyOp22
 70
     1
102
RTVSPropertyOp23
 70
     1
102
RTVSPropertyOp24
 70
     1
102
RTVSPropertyOp25
 70
     1
102
RTVSPropertyOp26
 70
     1
102
RTVSPropertyOp27
 70
     1
102
RTVSPropertyOp28
 70
     1
102
RTVSPropertyOp29
 70
     1
102
RTVSPropertyOp30
 70
     1
102
RTVSPropertyOp31
 70
     1
102
RTVSPropertyOp32
 70
     1
  0
XRECORD
  5
123
102
{ACAD_REACTORS
330
122
102
}
330
122
100
AcDbXrecord
280
     1
102
RTVSPropertyOp0
 70
     1
102
RTVSPropertyOp1
 70
     1
102
RTVSPropertyOp2
 70
     1
102
RTVSPropertyOp3
 70
     1
102
RTVSPropertyOp4
 70
     1
102
RTVSPropertyOp5
 70
     1
102
RTVSPropertyOp6
 70
     1
102
RTVSPropertyOp7
 70
     1
102
RTVSPropertyOp8
 70
     1
102
RTVSPropertyOp9
 70
     1
102
RTVSPropertyOp10
 70
     1
102
RTVSPropertyOp11
 70
     1
102
RTVSPropertyOp12
 70
     1
102
RTVSPropertyOp13
 70
     1
102
RTVSPropertyOp14
 70
     1
102
RTVSPropertyOp15
 70
     1
102
RTVSPropertyOp16
 70
     1
102
RTVSPropertyOp17
 70
     1
102
RTVSPropertyOp18
 70
     1
102
RTVSPropertyOp19
 70
     1
102
RTVSPropertyOp20
 70
     1
102
RTVSPropertyOp21
 70
     1
102
RTVSPropertyOp22
 70
     1
102
RTVSPropertyOp23
 70
     1
102
RTVSPropertyOp24
 70
     1
102
RTVSPropertyOp25
 70
     1
102
RTVSPropertyOp26
 70
     1
102
RTVSPropertyOp27
 70
     1
102
RTVSPropertyOp28
 70
     1
102
RTVSPropertyOp29
 70
     1
102
RTVSPropertyOp30
 70
     1
102
RTVSPropertyOp31
 70
     1
102
RTVSPropertyOp32
 70
     1
  0
XRECORD
  5
12B
102
{ACAD_REACTORS
330
12A
102
}
330
12A
100
AcDbXrecord
280
     1
102
RTVSPropertyOp0
 70
     1
102
RTVSPropertyOp1
 70
     1
102
RTVSPropertyOp2
 70
     1
102
RTVSPropertyOp3
 70
     1
102
RTVSPropertyOp4
 70
     1
102
RTVSPropertyOp5
 70
     1
102
RTVSPropertyOp6
 70
     1
102
RTVSPropertyOp7
 70
     1
102
RTVSPropertyOp8
 70
     1
102
RTVSPropertyOp9
 70
     1
102
RTVSPropertyOp10
 70
     1
102
RTVSPropertyOp11
 70
     1
102
RTVSPropertyOp12
 70
     1
102
RTVSPropertyOp13
 70
     1
102
RTVSPropertyOp14
 70
     1
102
RTVSPropertyOp15
 70
     1
102
RTVSPropertyOp16
 70
     1
102
RTVSPropertyOp17
 70
     1
102
RTVSPropertyOp18
 70
     1
102
RTVSPropertyOp19
 70
     1
102
RTVSPropertyOp20
 70
     1
102
RTVSPropertyOp21
 70
     1
102
RTVSPropertyOp22
 70
     1
102
RTVSPropertyOp23
 70
     1
102
RTVSPropertyOp24
 70
     1
102
RTVSPropertyOp25
 70
     1
102
RTVSPropertyOp26
 70
     1
102
RTVSPropertyOp27
 70
     1
102
RTVSPropertyOp28
 70
     1
102
RTVSPropertyOp29
 70
     1
102
RTVSPropertyOp30
 70
     1
102
RTVSPropertyOp31
 70
     1
102
RTVSPropertyOp32
 70
     1
  0
XRECORD
  5
11F
102
{ACAD_REACTORS
330
11E
102
}
330
11E
100
AcDbXrecord
280
     1
102
RTVSPropertyOp0
 70
     1
102
RTVSPropertyOp1
 70
     1
102
RTVSPropertyOp2
 70
     1
102
RTVSPropertyOp3
 70
     1
102
RTVSPropertyOp4
 70
     1
102
RTVSPropertyOp5
 70
     1
102
RTVSPropertyOp6
 70
     1
102
RTVSPropertyOp7
 70
     1
102
RTVSPropertyOp8
 70
     1
102
RTVSPropertyOp9
 70
     1
102
RTVSPropertyOp10
 70
     1
102
RTVSPropertyOp11
 70
     1
102
RTVSPropertyOp12
 70
     1
102
RTVSPropertyOp13
 70
     1
102
RTVSPropertyOp14
 70
     1
102
RTVSPropertyOp15
 70
     1
102
RTVSPropertyOp16
 70
     1
102
RTVSPropertyOp17
 70
     1
102
RTVSPropertyOp18
 70
     1
102
RTVSPropertyOp19
 70
     1
102
RTVSPropertyOp20
 70
     1
102
RTVSPropertyOp21
 70
     1
102
RTVSPropertyOp22
 70
     1
102
RTVSPropertyOp23
 70
     1
102
RTVSPropertyOp24
 70
     1
102
RTVSPropertyOp25
 70
     1
102
RTVSPropertyOp26
 70
     1
102
RTVSPropertyOp27
 70
     1
102
RTVSPropertyOp28
 70
     1
102
RTVSPropertyOp29
 70
     1
102
RTVSPropertyOp30
 70
     1
102
RTVSPropertyOp31
 70
     1
102
RTVSPropertyOp32
 70
     1
  0
XRECORD
  5
121
102
{ACAD_REACTORS
330
120
102
}
330
120
100
AcDbXrecord
280
     1
102
RTVSPropertyOp0
 70
     1
102
RTVSPropertyOp1
 70
     1
102
RTVSPropertyOp2
 70
     1
102
RTVSPropertyOp3
 70
     1
102
RTVSPropertyOp4
 70
     1
102
RTVSPropertyOp5
 70
     1
102
RTVSPropertyOp6
 70
     1
102
RTVSPropertyOp7
 70
     1
102
RTVSPropertyOp8
 70
     1
102
RTVSPropertyOp9
 70
     1
102
RTVSPropertyOp10
 70
     1
102
RTVSPropertyOp11
 70
     1
102
RTVSPropertyOp12
 70
     1
102
RTVSPropertyOp13
 70
     1
102
RTVSPropertyOp14
 70
     1
102
RTVSPropertyOp15
 70
     1
102
RTVSPropertyOp16
 70
     1
102
RTVSPropertyOp17
 70
     1
102
RTVSPropertyOp18
 70
     1
102
RTVSPropertyOp19
 70
     1
102
RTVSPropertyOp20
 70
     1
102
RTVSPropertyOp21
 70
     1
102
RTVSPropertyOp22
 70
     1
102
RTVSPropertyOp23
 70
     1
102
RTVSPropertyOp24
 70
     1
102
RTVSPropertyOp25
 70
     1
102
RTVSPropertyOp26
 70
     1
102
RTVSPropertyOp27
 70
     1
102
RTVSPropertyOp28
 70
     1
102
RTVSPropertyOp29
 70
     1
102
RTVSPropertyOp30
 70
     1
102
RTVSPropertyOp31
 70
     1
102
RTVSPropertyOp32
 70
     1
  0
XRECORD
  5
129
102
{ACAD_REACTORS
330
128
102
}
330
128
100
AcDbXrecord
280
     1
102
RTVSPropertyOp0
 70
     1
102
RTVSPropertyOp1
 70
     1
102
RTVSPropertyOp2
 70
     1
102
RTVSPropertyOp3
 70
     1
102
RTVSPropertyOp4
 70
     1
102
RTVSPropertyOp5
 70
     1
102
RTVSPropertyOp6
 70
     1
102
RTVSPropertyOp7
 70
     1
102
RTVSPropertyOp8
 70
     1
102
RTVSPropertyOp9
 70
     1
102
RTVSPropertyOp10
 70
     1
102
RTVSPropertyOp11
 70
     1
102
RTVSPropertyOp12
 70
     1
102
RTVSPropertyOp13
 70
     1
102
RTVSPropertyOp14
 70
     1
102
RTVSPropertyOp15
 70
     1
102
RTVSPropertyOp16
 70
     1
102
RTVSPropertyOp17
 70
     1
102
RTVSPropertyOp18
 70
     1
102
RTVSPropertyOp19
 70
     1
102
RTVSPropertyOp20
 70
     1
102
RTVSPropertyOp21
 70
     1
102
RTVSPropertyOp22
 70
     1
102
RTVSPropertyOp23
 70
     1
102
RTVSPropertyOp24
 70
     1
102
RTVSPropertyOp25
 70
     1
102
RTVSPropertyOp26
 70
     1
102
RTVSPropertyOp27
 70
     1
102
RTVSPropertyOp28
 70
     1
102
RTVSPropertyOp29
 70
     1
102
RTVSPropertyOp30
 70
     1
102
RTVSPropertyOp31
 70
     1
102
RTVSPropertyOp32
 70
     1
  0
XRECORD
  5
10D
102
{ACAD_REACTORS
330
10C
102
}
330
10C
100
AcDbXrecord
280
     1
102
RTVSPropertyOp0
 70
     1
102
RTVSPropertyOp1
 70
     1
102
RTVSPropertyOp2
 70
     1
102
RTVSPropertyOp3
 70
     1
102
RTVSPropertyOp4
 70
     1
102
RTVSPropertyOp5
 70
     1
102
RTVSPropertyOp6
 70
     1
102
RTVSPropertyOp7
 70
     1
102
RTVSPropertyOp8
 70
     1
102
RTVSPropertyOp9
 70
     1
102
RTVSPropertyOp10
 70
     1
102
RTVSPropertyOp11
 70
     1
102
RTVSPropertyOp12
 70
     1
102
RTVSPropertyOp13
 70
     1
102
RTVSPropertyOp14
 70
     1
102
RTVSPropertyOp15
 70
     1
102
RTVSPropertyOp16
 70
     1
102
RTVSPropertyOp17
 70
     1
102
RTVSPropertyOp18
 70
     1
102
RTVSPropertyOp19
 70
     1
102
RTVSPropertyOp20
 70
     1
102
RTVSPropertyOp21
 70
     1
102
RTVSPropertyOp22
 70
     1
102
RTVSPropertyOp23
 70
     1
102
RTVSPropertyOp24
 70
     1
102
RTVSPropertyOp25
 70
     1
102
RTVSPropertyOp26
 70
     1
102
RTVSPropertyOp27
 70
     1
102
RTVSPropertyOp28
 70
     1
102
RTVSPropertyOp29
 70
     1
102
RTVSPropertyOp30
 70
     1
102
RTVSPropertyOp31
 70
     1
102
RTVSPropertyOp32
 70
     1
  0
XRECORD
  5
10F
102
{ACAD_REACTORS
330
10E
102
}
330
10E
100
AcDbXrecord
280
     1
102
RTVSPropertyOp0
 70
     1
102
RTVSPropertyOp1
 70
     1
102
RTVSPropertyOp2
 70
     1
102
RTVSPropertyOp3
 70
     1
102
RTVSPropertyOp4
 70
     1
102
RTVSPropertyOp5
 70
     1
102
RTVSPropertyOp6
 70
     1
102
RTVSPropertyOp7
 70
     1
102
RTVSPropertyOp8
 70
     1
102
RTVSPropertyOp9
 70
     1
102
RTVSPropertyOp10
 70
     1
102
RTVSPropertyOp11
 70
     1
102
RTVSPropertyOp12
 70
     1
102
RTVSPropertyOp13
 70
     1
102
RTVSPropertyOp14
 70
     1
102
RTVSPropertyOp15
 70
     1
102
RTVSPropertyOp16
 70
     1
102
RTVSPropertyOp17
 70
     1
102
RTVSPropertyOp18
 70
     1
102
RTVSPropertyOp19
 70
     1
102
RTVSPropertyOp20
 70
     1
102
RTVSPropertyOp21
 70
     1
102
RTVSPropertyOp22
 70
     1
102
RTVSPropertyOp23
 70
     1
102
RTVSPropertyOp24
 70
     1
102
RTVSPropertyOp25
 70
     1
102
RTVSPropertyOp26
 70
     1
102
RTVSPropertyOp27
 70
     1
102
RTVSPropertyOp28
 70
     1
102
RTVSPropertyOp29
 70
     1
102
RTVSPropertyOp30
 70
     1
102
RTVSPropertyOp31
 70
     1
102
RTVSPropertyOp32
 70
     1
  0
XRECORD
  5
111
102
{ACAD_REACTORS
330
110
102
}
330
110
100
AcDbXrecord
280
     1
102
RTVSPropertyOp0
 70
     1
102
RTVSPropertyOp1
 70
     1
102
RTVSPropertyOp2
 70
     1
102
RTVSPropertyOp3
 70
     1
102
RTVSPropertyOp4
 70
     1
102
RTVSPropertyOp5
 70
     1
102
RTVSPropertyOp6
 70
     1
102
RTVSPropertyOp7
 70
     1
102
RTVSPropertyOp8
 70
     1
102
RTVSPropertyOp9
 70
     1
102
RTVSPropertyOp10
 70
     1
102
RTVSPropertyOp11
 70
     1
102
RTVSPropertyOp12
 70
     1
102
RTVSPropertyOp13
 70
     1
102
RTVSPropertyOp14
 70
     1
102
RTVSPropertyOp15
 70
     1
102
RTVSPropertyOp16
 70
     1
102
RTVSPropertyOp17
 70
     1
102
RTVSPropertyOp18
 70
     1
102
RTVSPropertyOp19
 70
     1
102
RTVSPropertyOp20
 70
     1
102
RTVSPropertyOp21
 70
     1
102
RTVSPropertyOp22
 70
     1
102
RTVSPropertyOp23
 70
     1
102
RTVSPropertyOp24
 70
     1
102
RTVSPropertyOp25
 70
     1
102
RTVSPropertyOp26
 70
     1
102
RTVSPropertyOp27
 70
     1
102
RTVSPropertyOp28
 70
     1
102
RTVSPropertyOp29
 70
     1
102
RTVSPropertyOp30
 70
     1
102
RTVSPropertyOp31
 70
     1
102
RTVSPropertyOp32
 70
     1
  0
XRECORD
  5
113
102
{ACAD_REACTORS
330
112
102
}
330
112
100
AcDbXrecord
280
     1
102
RTVSPropertyOp0
 70
     1
102
RTVSPropertyOp1
 70
     1
102
RTVSPropertyOp2
 70
     1
102
RTVSPropertyOp3
 70
     1
102
RTVSPropertyOp4
 70
     1
102
RTVSPropertyOp5
 70
     1
102
RTVSPropertyOp6
 70
     1
102
RTVSPropertyOp7
 70
     1
102
RTVSPropertyOp8
 70
     1
102
RTVSPropertyOp9
 70
     1
102
RTVSPropertyOp10
 70
     1
102
RTVSPropertyOp11
 70
     1
102
RTVSPropertyOp12
 70
     1
102
RTVSPropertyOp13
 70
     1
102
RTVSPropertyOp14
 70
     1
102
RTVSPropertyOp15
 70
     1
102
RTVSPropertyOp16
 70
     1
102
RTVSPropertyOp17
 70
     1
102
RTVSPropertyOp18
 70
     1
102
RTVSPropertyOp19
 70
     1
102
RTVSPropertyOp20
 70
     1
102
RTVSPropertyOp21
 70
     1
102
RTVSPropertyOp22
 70
     1
102
RTVSPropertyOp23
 70
     1
102
RTVSPropertyOp24
 70
     1
102
RTVSPropertyOp25
 70
     1
102
RTVSPropertyOp26
 70
     1
102
RTVSPropertyOp27
 70
     1
102
RTVSPropertyOp28
 70
     1
102
RTVSPropertyOp29
 70
     1
102
RTVSPropertyOp30
 70
     1
102
RTVSPropertyOp31
 70
     1
102
RTVSPropertyOp32
 70
     1
  0
XRECORD
  5
127
102
{ACAD_REACTORS
330
126
102
}
330
126
100
AcDbXrecord
280
     1
102
RTVSPropertyOp0
 70
     1
102
RTVSPropertyOp1
 70
     1
102
RTVSPropertyOp2
 70
     1
102
RTVSPropertyOp3
 70
     1
102
RTVSPropertyOp4
 70
     1
102
RTVSPropertyOp5
 70
     1
102
RTVSPropertyOp6
 70
     1
102
RTVSPropertyOp7
 70
     1
102
RTVSPropertyOp8
 70
     1
102
RTVSPropertyOp9
 70
     1
102
RTVSPropertyOp10
 70
     1
102
RTVSPropertyOp11
 70
     1
102
RTVSPropertyOp12
 70
     1
102
RTVSPropertyOp13
 70
     1
102
RTVSPropertyOp14
 70
     1
102
RTVSPropertyOp15
 70
     1
102
RTVSPropertyOp16
 70
     1
102
RTVSPropertyOp17
 70
     1
102
RTVSPropertyOp18
 70
     1
102
RTVSPropertyOp19
 70
     1
102
RTVSPropertyOp20
 70
     1
102
RTVSPropertyOp21
 70
     1
102
RTVSPropertyOp22
 70
     1
102
RTVSPropertyOp23
 70
     1
102
RTVSPropertyOp24
 70
     1
102
RTVSPropertyOp25
 70
     1
102
RTVSPropertyOp26
 70
     1
102
RTVSPropertyOp27
 70
     1
102
RTVSPropertyOp28
 70
     1
102
RTVSPropertyOp29
 70
     1
102
RTVSPropertyOp30
 70
     1
102
RTVSPropertyOp31
 70
     1
102
RTVSPropertyOp32
 70
     1
  0
XRECORD
  5
11D
102
{ACAD_REACTORS
330
11C
102
}
330
11C
100
AcDbXrecord
280
     1
102
RTVSPropertyOp0
 70
     1
102
RTVSPropertyOp1
 70
     1
102
RTVSPropertyOp2
 70
     1
102
RTVSPropertyOp3
 70
     1
102
RTVSPropertyOp4
 70
     1
102
RTVSPropertyOp5
 70
     1
102
RTVSPropertyOp6
 70
     1
102
RTVSPropertyOp7
 70
     1
102
RTVSPropertyOp8
 70
     1
102
RTVSPropertyOp9
 70
     1
102
RTVSPropertyOp10
 70
     1
102
RTVSPropertyOp11
 70
     1
102
RTVSPropertyOp12
 70
     1
102
RTVSPropertyOp13
 70
     1
102
RTVSPropertyOp14
 70
     1
102
RTVSPropertyOp15
 70
     1
102
RTVSPropertyOp16
 70
     1
102
RTVSPropertyOp17
 70
     1
102
RTVSPropertyOp18
 70
     1
102
RTVSPropertyOp19
 70
     1
102
RTVSPropertyOp20
 70
     1
102
RTVSPropertyOp21
 70
     1
102
RTVSPropertyOp22
 70
     1
102
RTVSPropertyOp23
 70
     1
102
RTVSPropertyOp24
 70
     1
102
RTVSPropertyOp25
 70
     1
102
RTVSPropertyOp26
 70
     1
102
RTVSPropertyOp27
 70
     1
102
RTVSPropertyOp28
 70
     1
102
RTVSPropertyOp29
 70
     1
102
RTVSPropertyOp30
 70
     1
102
RTVSPropertyOp31
 70
     1
102
RTVSPropertyOp32
 70
     1
  0
XRECORD
  5
125
102
{ACAD_REACTORS
330
124
102
}
330
124
100
AcDbXrecord
280
     1
102
RTVSPropertyOp0
 70
     1
102
RTVSPropertyOp1
 70
     1
102
RTVSPropertyOp2
 70
     1
102
RTVSPropertyOp3
 70
     1
102
RTVSPropertyOp4
 70
     1
102
RTVSPropertyOp5
 70
     1
102
RTVSPropertyOp6
 70
     1
102
RTVSPropertyOp7
 70
     1
102
RTVSPropertyOp8
 70
     1
102
RTVSPropertyOp9
 70
     1
102
RTVSPropertyOp10
 70
     1
102
RTVSPropertyOp11
 70
     1
102
RTVSPropertyOp12
 70
     1
102
RTVSPropertyOp13
 70
     1
102
RTVSPropertyOp14
 70
     1
102
RTVSPropertyOp15
 70
     1
102
RTVSPropertyOp16
 70
     1
102
RTVSPropertyOp17
 70
     1
102
RTVSPropertyOp18
 70
     1
102
RTVSPropertyOp19
 70
     1
102
RTVSPropertyOp20
 70
     1
102
RTVSPropertyOp21
 70
     1
102
RTVSPropertyOp22
 70
     1
102
RTVSPropertyOp23
 70
     1
102
RTVSPropertyOp24
 70
     1
102
RTVSPropertyOp25
 70
     1
102
RTVSPropertyOp26
 70
     1
102
RTVSPropertyOp27
 70
     1
102
RTVSPropertyOp28
 70
     1
102
RTVSPropertyOp29
 70
     1
102
RTVSPropertyOp30
 70
     1
102
RTVSPropertyOp31
 70
     1
102
RTVSPropertyOp32
 70
     1
  0
ENDSEC
  0
EOF
