  0
SECTION
  2
HEADER
  9
$ACADVER
  1
AC1015
  9
$ACADMAINTVER
 70
     6
  9
$DWGCODEPAGE
  3
ANSI_932
  9
$INSBASE
 10
0.0
 20
0.0
 30
0.0
  9
$EXTMIN
 10
0.0
 20
-0.00000000000001
 30
0.0
  9
$EXTMAX
 10
210.0
 20
297.0
 30
0.0
  9
$LIMMIN
 10
0.0
 20
0.0
  9
$LIMMAX
 10
12.0
 20
9.0
  9
$ORTHOMODE
 70
     0
  9
$REGENMODE
 70
     1
  9
$FILLMODE
 70
     1
  9
$QTEXTMODE
 70
     0
  9
$MIRRTEXT
 70
     1
  9
$LTSCALE
 40
1.0
  9
$ATTMODE
 70
     1
  9
$TEXTSIZE
 40
0.2
  9
$TRACEWID
 40
0.05
  9
$TEXTSTYLE
  7
Standard
  9
$CLAYER
  8
0
  9
$CELTYPE
  6
ByLayer
  9
$CECOLOR
 62
   256
  9
$CELTSCALE
 40
1.0
  9
$DISPSILH
 70
     0
  9
$DIMSCALE
 40
1.0
  9
$DIMASZ
 40
0.18
  9
$DIMEXO
 40
0.0625
  9
$DIMDLI
 40
0.38
  9
$DIMRND
 40
0.0
  9
$DIMDLE
 40
0.0
  9
$DIMEXE
 40
0.18
  9
$DIMTP
 40
0.0
  9
$DIMTM
 40
0.0
  9
$DIMTXT
 40
0.18
  9
$DIMCEN
 40
0.09
  9
$DIMTSZ
 40
0.0
  9
$DIMTOL
 70
     0
  9
$DIMLIM
 70
     0
  9
$DIMTIH
 70
     1
  9
$DIMTOH
 70
     1
  9
$DIMSE1
 70
     0
  9
$DIMSE2
 70
     0
  9
$DIMTAD
 70
     0
  9
$DIMZIN
 70
     0
  9
$DIMBLK
  1

  9
$DIMASO
 70
     1
  9
$DIMSHO
 70
     1
  9
$DIMPOST
  1

  9
$DIMAPOST
  1

  9
$DIMALT
 70
     0
  9
$DIMALTD
 70
     2
  9
$DIMALTF
 40
25.4
  9
$DIMLFAC
 40
1.0
  9
$DIMTOFL
 70
     0
  9
$DIMTVP
 40
0.0
  9
$DIMTIX
 70
     0
  9
$DIMSOXD
 70
     0
  9
$DIMSAH
 70
     0
  9
$DIMBLK1
  1

  9
$DIMBLK2
  1

  9
$DIMSTYLE
  2
Standard
  9
$DIMCLRD
 70
     0
  9
$DIMCLRE
 70
     0
  9
$DIMCLRT
 70
     0
  9
$DIMTFAC
 40
1.0
  9
$DIMGAP
 40
0.09
  9
$DIMJUST
 70
     0
  9
$DIMSD1
 70
     0
  9
$DIMSD2
 70
     0
  9
$DIMTOLJ
 70
     1
  9
$DIMTZIN
 70
     0
  9
$DIMALTZ
 70
     0
  9
$DIMALTTZ
 70
     0
  9
$DIMUPT
 70
     0
  9
$DIMDEC
 70
     4
  9
$DIMTDEC
 70
     4
  9
$DIMALTU
 70
     2
  9
$DIMALTTD
 70
     2
  9
$DIMTXSTY
  7
Standard
  9
$DIMAUNIT
 70
     0
  9
$DIMADEC
 70
     0
  9
$DIMALTRND
 40
0.0
  9
$DIMAZIN
 70
     0
  9
$DIMDSEP
 70
    46
  9
$DIMATFIT
 70
     3
  9
$DIMFRAC
 70
     0
  9
$DIMLDRBLK
  1

  9
$DIMLUNIT
 70
     2
  9
$DIMLWD
 70
    -2
  9
$DIMLWE
 70
    -2
  9
$DIMTMOVE
 70
     0
  9
$LUNITS
 70
     2
  9
$LUPREC
 70
     4
  9
$SKETCHINC
 40
0.1
  9
$FILLETRAD
 40
0.5
  9
$AUNITS
 70
     0
  9
$AUPREC
 70
     0
  9
$MENU
  1
.
  9
$ELEVATION
 40
0.0
  9
$PELEVATION
 40
0.0
  9
$THICKNESS
 40
0.0
  9
$LIMCHECK
 70
     0
  9
$CHAMFERA
 40
0.5
  9
$CHAMFERB
 40
0.5
  9
$CHAMFERC
 40
1.0
  9
$CHAMFERD
 40
0.0
  9
$SKPOLY
 70
     0
  9
$TDCREATE
 40
2459787.404626632
  9
$TDUCREATE
 40
2459787.029626632
  9
$TDUPDATE
 40
2459787.404627905
  9
$TDUUPDATE
 40
2459787.029627905
  9
$TDINDWG
 40
0.0000000116
  9
$TDUSRTIMER
 40
0.0000000116
  9
$USRTIMER
 70
     1
  9
$ANGBASE
 50
0.0
  9
$ANGDIR
 70
     0
  9
$PDMODE
 70
     0
  9
$PDSIZE
 40
0.0
  9
$PLINEWID
 40
0.0
  9
$SPLFRAME
 70
     0
  9
$SPLINETYPE
 70
     6
  9
$SPLINESEGS
 70
     8
  9
$HANDSEED
  5
157
  9
$SURFTAB1
 70
     6
  9
$SURFTAB2
 70
     6
  9
$SURFTYPE
 70
     6
  9
$SURFU
 70
     6
  9
$SURFV
 70
     6
  9
$UCSBASE
  2

  9
$UCSNAME
  2

  9
$UCSORG
 10
0.0
 20
0.0
 30
0.0
  9
$UCSXDIR
 10
1.0
 20
0.0
 30
0.0
  9
$UCSYDIR
 10
0.0
 20
1.0
 30
0.0
  9
$UCSORTHOREF
  2

  9
$UCSORTHOVIEW
 70
     0
  9
$UCSORGTOP
 10
0.0
 20
0.0
 30
0.0
  9
$UCSORGBOTTOM
 10
0.0
 20
0.0
 30
0.0
  9
$UCSORGLEFT
 10
0.0
 20
0.0
 30
0.0
  9
$UCSORGRIGHT
 10
0.0
 20
0.0
 30
0.0
  9
$UCSORGFRONT
 10
0.0
 20
0.0
 30
0.0
  9
$UCSORGBACK
 10
0.0
 20
0.0
 30
0.0
  9
$PUCSBASE
  2

  9
$PUCSNAME
  2

  9
$PUCSORG
 10
0.0
 20
0.0
 30
0.0
  9
$PUCSXDIR
 10
1.0
 20
0.0
 30
0.0
  9
$PUCSYDIR
 10
0.0
 20
1.0
 30
0.0
  9
$PUCSORTHOREF
  2

  9
$PUCSORTHOVIEW
 70
     0
  9
$PUCSORGTOP
 10
0.0
 20
0.0
 30
0.0
  9
$PUCSORGBOTTOM
 10
0.0
 20
0.0
 30
0.0
  9
$PUCSORGLEFT
 10
0.0
 20
0.0
 30
0.0
  9
$PUCSORGRIGHT
 10
0.0
 20
0.0
 30
0.0
  9
$PUCSORGFRONT
 10
0.0
 20
0.0
 30
0.0
  9
$PUCSORGBACK
 10
0.0
 20
0.0
 30
0.0
  9
$USERI1
 70
     0
  9
$USERI2
 70
     0
  9
$USERI3
 70
     0
  9
$USERI4
 70
     0
  9
$USERI5
 70
     0
  9
$USERR1
 40
18.1
  9
$USERR2
 40
0.0
  9
$USERR3
 40
0.0
  9
$USERR4
 40
0.0
  9
$USERR5
 40
0.0
  9
$WORLDVIEW
 70
     1
  9
$SHADEDGE
 70
     3
  9
$SHADEDIF
 70
    70
  9
$TILEMODE
 70
     1
  9
$MAXACTVP
 70
    64
  9
$PINSBASE
 10
0.0
 20
0.0
 30
0.0
  9
$PLIMCHECK
 70
     0
  9
$PEXTMIN
 10
1.00000000000000E+20
 20
1.00000000000000E+20
 30
1.00000000000000E+20
  9
$PEXTMAX
 10
-1.00000000000000E+20
 20
-1.00000000000000E+20
 30
-1.00000000000000E+20
  9
$PLIMMIN
 10
0.0
 20
0.0
  9
$PLIMMAX
 10
12.0
 20
9.0
  9
$UNITMODE
 70
     0
  9
$VISRETAIN
 70
     1
  9
$PLINEGEN
 70
     0
  9
$PSLTSCALE
 70
     1
  9
$TREEDEPTH
 70
  3020
  9
$CMLSTYLE
  2
Standard
  9
$CMLJUST
 70
     0
  9
$CMLSCALE
 40
1.0
  9
$PROXYGRAPHICS
 70
     1
  9
$MEASUREMENT
 70
     1
  9
$CELWEIGHT
370
    -1
  9
$ENDCAPS
280
     0
  9
$JOINSTYLE
280
     0
  9
$LWDISPLAY
290
     0
  9
$INSUNITS
 70
     4
  9
$HYPERLINKBASE
  1

  9
$STYLESHEET
  1

  9
$XEDIT
290
     1
  9
$CEPSNTYPE
380
     0
  9
$PSTYLEMODE
290
     1
  9
$FINGERPRINTGUID
  2
{97066F14-2CC6-473D-99FB-B210F176EA54}
  9
$VERSIONGUID
  2
{FAEB1C32-E019-11D5-929B-00C0DF256EC4}
  9
$EXTNAMES
290
     1
  9
$PSVPSCALE
 40
0.0
  9
$OLESTARTUP
290
     0
  0
ENDSEC
  0
SECTION
  2
CLASSES
  0
CLASS
  1
ACDBDICTIONARYWDFLT
  2
AcDbDictionaryWithDefault
  3
ObjectDBX Classes
 90
        0
280
     0
281
     0
  0
CLASS
  1
VISUALSTYLE
  2
AcDbVisualStyle
  3
ObjectDBX Classes
 90
     4095
280
     0
281
     0
  0
CLASS
  1
MATERIAL
  2
AcDbMaterial
  3
ObjectDBX Classes
 90
     1153
280
     0
281
     0
  0
CLASS
  1
DICTIONARYVAR
  2
AcDbDictionaryVar
  3
ObjectDBX Classes
 90
        0
280
     0
281
     0
  0
CLASS
  1
ACDBPLACEHOLDER
  2
AcDbPlaceHolder
  3
ObjectDBX Classes
 90
        0
280
     0
281
     0
  0
CLASS
  1
LAYOUT
  2
AcDbLayout
  3
ObjectDBX Classes
 90
        0
280
     0
281
     0
  0
ENDSEC
  0
SECTION
  2
TABLES
  0
TABLE
  2
VPORT
  5
8
330
0
100
AcDbSymbolTable
 70
     1
  0
VPORT
  5
29
330
8
100
AcDbSymbolTableRecord
100
AcDbViewportTableRecord
  2
*Active
 70
     0
 10
0.0
 20
0.0
 11
1.0
 21
1.0
 12
105.0
 22
148.5
 13
0.0
 23
0.0
 14
0.5
 24
0.5
 15
0.5
 25
0.5
 16
0.0
 26
0.0
 36
1.0
 17
0.0
 27
0.0
 37
0.0
 40
326.7
 41
1.60267857142857
 42
50.0
 43
0.0
 44
0.0
 50
0.0
 51
0.0
 71
     0
 72
   100
 73
     1
 74
     3
 75
     0
 76
     0
 77
     0
 78
     0
281
     0
 65
     1
110
0.0
120
0.0
130
0.0
111
1.0
121
0.0
131
0.0
112
0.0
122
1.0
132
0.0
 79
     0
146
0.0
  0
ENDTAB
  0
TABLE
  2
LTYPE
  5
5
330
0
100
AcDbSymbolTable
 70
     8
  0
LTYPE
  5
14
330
5
100
AcDbSymbolTableRecord
100
AcDbLinetypeTableRecord
  2
ByBlock
 70
     0
  3

 72
    65
 73
     0
 40
0.0
  0
LTYPE
  5
15
330
5
100
AcDbSymbolTableRecord
100
AcDbLinetypeTableRecord
  2
ByLayer
 70
     0
  3

 72
    65
 73
     0
 40
0.0
  0
LTYPE
  5
16
330
5
100
AcDbSymbolTableRecord
100
AcDbLinetypeTableRecord
  2
Continuous
 70
     0
  3
Solid line
 72
    65
 73
     0
 40
0.0
  0
LTYPE
  5
3F
330
5
100
AcDbSymbolTableRecord
100
AcDbLinetypeTableRecord
  2
DASHED
 70
     0
  3
Dashed
 72
    65
 73
     2
 40
15.0
 49
7.0
 74
     0
 49
-8.0
 74
     0
  0
LTYPE
  5
40
330
5
100
AcDbSymbolTableRecord
100
AcDbLinetypeTableRecord
  2
DOTTED
 70
     0
  3
Dotted
 72
    65
 73
     2
 40
1.0
 49
0.0
 74
     0
 49
-1.0
 74
     0
  0
LTYPE
  5
41
330
5
100
AcDbSymbolTableRecord
100
AcDbLinetypeTableRecord
  2
DOT_CENTER
 70
     0
  3
Dot_Center
 72
    65
 73
     4
 40
14.0
 49
12.0
 74
     0
 49
-1.0
 74
     0
 49
0.0
 74
     0
 49
-1.0
 74
     0
  0
LTYPE
  5
42
330
5
100
AcDbSymbolTableRecord
100
AcDbLinetypeTableRecord
  2
LONG_DASHED
 70
     0
  3
Long_Dashed
 72
    65
 73
     2
 40
15.0
 49
10.0
 74
     0
 49
-5.0
 74
     0
  0
LTYPE
  5
43
330
5
100
AcDbSymbolTableRecord
100
AcDbLinetypeTableRecord
  2
DASH_CENTER
 70
     0
  3
Dash_Center
 72
    65
 73
     4
 40
14.0
 49
11.0
 74
     0
 49
-1.0
 74
     0
 49
1.0
 74
     0
 49
-1.0
 74
     0
  0
LTYPE
  5
44
330
5
100
AcDbSymbolTableRecord
100
AcDbLinetypeTableRecord
  2
PHANTOM
 70
     0
  3
Phantom
 72
    65
 73
     6
 40
13.0
 49
10.0
 74
     0
 49
-1.0
 74
     0
 49
0.0
 74
     0
 49
-1.0
 74
     0
 49
0.0
 74
     0
 49
-1.0
 74
     0
  0
LTYPE
  5
45
330
5
100
AcDbSymbolTableRecord
100
AcDbLinetypeTableRecord
  2
CENTER_DASH_DASH
 70
     0
  3
Center_Dash_Dash
 72
    65
 73
     6
 40
14.0
 49
9.0
 74
     0
 49
-1.0
 74
     0
 49
1.0
 74
     0
 49
-1.0
 74
     0
 49
1.0
 74
     0
 49
-1.0
 74
     0
  0
ENDTAB
  0
TABLE
  2
LAYER
  5
2
330
0
100
AcDbSymbolTable
 70
     3
  0
LAYER
  5
10
330
2
100
AcDbSymbolTableRecord
100
AcDbLayerTableRecord
  2
0
 70
     0
 62
     7
  6
Continuous
370
    -3
390
F
  0
LAYER
  5
46
330
2
100
AcDbSymbolTableRecord
100
AcDbLayerTableRecord
  2
1
 70
     0
 62
     7
  6
Continuous
370
    -3
390
F
  0
LAYER
  5
47
330
2
100
AcDbSymbolTableRecord
100
AcDbLayerTableRecord
  2
_U_30EC_U_30A4_U_30E4_U_30FC_1
 70
     0
 62
     7
  6
Continuous
370
    -3
390
F
  0
ENDTAB
  0
TABLE
  2
STYLE
  5
3
330
0
100
AcDbSymbolTable
 70
     3
  0
STYLE
  5
11
330
3
100
AcDbSymbolTableRecord
100
AcDbTextStyleTableRecord
  2
Standard
 70
     0
 40
0.0
 41
1.0
 50
0.0
 71
     0
 42
0.2
  3
txt
  4

  0
STYLE
  5
B2
330
3
100
AcDbSymbolTableRecord
100
AcDbTextStyleTableRecord
  2
CONVERTER_11
 70
     0
 40
0.0
 41
0.89
 50
0.0
 71
     0
 42
0.2
  3
MS Mincho.ttf
  4

1001
ACAD
1000
MS Mincho
1071
    32785
  0
STYLE
  5
E1
330
3
100
AcDbSymbolTableRecord
100
AcDbTextStyleTableRecord
  2
CONVERTER_12
 70
     0
 40
0.0
 41
0.9
 50
0.0
 71
     0
 42
0.2
  3
txt.shx
  4

  0
ENDTAB
  0
TABLE
  2
VIEW
  5
6
330
0
100
AcDbSymbolTable
 70
     0
  0
ENDTAB
  0
TABLE
  2
UCS
  5
7
330
0
100
AcDbSymbolTable
 70
     0
  0
ENDTAB
  0
TABLE
  2
APPID
  5
9
330
0
100
AcDbSymbolTable
 70
     1
  0
APPID
  5
12
330
9
100
AcDbSymbolTableRecord
100
AcDbRegAppTableRecord
  2
ACAD
 70
     0
  0
ENDTAB
  0
TABLE
  2
DIMSTYLE
  5
A
330
0
100
AcDbSymbolTable
 70
     3
100
AcDbDimStyleTable
  0
DIMSTYLE
105
27
330
A
100
AcDbSymbolTableRecord
100
AcDbDimStyleTableRecord
  2
Standard
 70
     0
178
     0
340
11
  0
DIMSTYLE
105
F9
102
{ACAD_REACTORS
330
FA
102
}
330
A
100
AcDbSymbolTableRecord
100
AcDbDimStyleTableRecord
  2
ME10_DIM_10
 70
     0
 41
3.5
 42
0.0
 44
1.0
 73
     0
 74
     0
 77
     1
 78
     8
140
3.5
147
1.0
172
     1
173
     1
174
     1
175
     1
176
     2
177
     2
271
     2
178
     7
271
     2
340
E1
  0
DIMSTYLE
105
106
102
{ACAD_REACTORS
330
107
102
}
330
A
100
AcDbSymbolTableRecord
100
AcDbDimStyleTableRecord
  2
ME10_DIM_11
 70
     0
 41
3.5
 42
0.0
 44
1.0
 73
     0
 74
     0
 77
     1
 78
     8
140
3.5
147
1.0
172
     1
173
     1
174
     1
175
     1
176
     2
177
     2
271
     2
178
     7
271
     2
340
E1
  0
ENDTAB
  0
TABLE
  2
BLOCK_RECORD
  5
1
330
0
100
AcDbSymbolTable
 70
     9
  0
BLOCK_RECORD
  5
1F
330
1
100
AcDbSymbolTableRecord
100
AcDbBlockTableRecord
  2
*Model_Space
340
22
  0
BLOCK_RECORD
  5
1B
330
1
100
AcDbSymbolTableRecord
100
AcDbBlockTableRecord
  2
*Paper_Space
340
1E
  0
BLOCK_RECORD
  5
23
330
1
100
AcDbSymbolTableRecord
100
AcDbBlockTableRecord
  2
*Paper_Space0
340
26
  0
BLOCK_RECORD
  5
48
330
1
100
AcDbSymbolTableRecord
100
AcDbBlockTableRecord
  2
開示A4
340
0
102
{BLKREFS
331
4C
102
}
  0
BLOCK_RECORD
  5
4B
330
1
100
AcDbSymbolTableRecord
100
AcDbBlockTableRecord
  2
開示A4枠
340
0
102
{BLKREFS
331
4F
102
}
  0
BLOCK_RECORD
  5
EE
330
1
100
AcDbSymbolTableRecord
100
AcDbBlockTableRecord
  2
*D3
340
0
  0
BLOCK_RECORD
  5
FB
330
1
100
AcDbSymbolTableRecord
100
AcDbBlockTableRecord
  2
*D4
340
0
  0
BLOCK_RECORD
  5
108
330
1
100
AcDbSymbolTableRecord
100
AcDbBlockTableRecord
  2
*D5
340
0
102
{BLKREFS
331
10F
102
}
  0
BLOCK_RECORD
  5
110
330
1
100
AcDbSymbolTableRecord
100
AcDbBlockTableRecord
  2
*D6
340
0
102
{BLKREFS
331
117
102
}
  0
BLOCK_RECORD
  5
118
330
1
100
AcDbSymbolTableRecord
100
AcDbBlockTableRecord
  2
*D7
340
0
102
{BLKREFS
331
121
102
}
  0
BLOCK_RECORD
  5
122
330
1
100
AcDbSymbolTableRecord
100
AcDbBlockTableRecord
  2
*D8
340
0
102
{BLKREFS
331
12B
102
}
  0
ENDTAB
  0
ENDSEC
  0
SECTION
  2
BLOCKS
  0
BLOCK
  5
20
330
1F
100
AcDbEntity
  8
0
100
AcDbBlockBegin
  2
*Model_Space
 70
     0
 10
0.0
 20
0.0
 30
0.0
  3
*Model_Space
  1

  0
ENDBLK
  5
21
330
1F
100
AcDbEntity
  8
0
100
AcDbBlockEnd
  0
BLOCK
  5
1C
330
1B
100
AcDbEntity
 67
     1
  8
0
100
AcDbBlockBegin
  2
*Paper_Space
 70
     0
 10
0.0
 20
0.0
 30
0.0
  3
*Paper_Space
  1

  0
ENDBLK
  5
1D
330
1B
100
AcDbEntity
 67
     1
  8
0
100
AcDbBlockEnd
  0
BLOCK
  5
24
330
23
100
AcDbEntity
  8
0
100
AcDbBlockBegin
  2
*Paper_Space0
 70
     0
 10
0.0
 20
0.0
 30
0.0
  3
*Paper_Space0
  1

  0
ENDBLK
  5
25
330
23
100
AcDbEntity
  8
0
100
AcDbBlockEnd
  0
BLOCK
  5
49
330
48
100
AcDbEntity
  8
0
100
AcDbBlockBegin
  2
開示A4
 70
     0
 10
0.0
 20
-0.00000000000001
 30
0.0
  3
開示A4
  1

  0
POINT
  5
50
330
48
100
AcDbEntity
  8
1
 62
     4
100
AcDbPoint
 10
183.0
 20
15.00000000000004
 30
0.0
  0
POINT
  5
51
330
48
100
AcDbEntity
  8
1
 62
     4
100
AcDbPoint
 10
93.74999999999997
 20
17.00000000000003
 30
0.0
  0
POINT
  5
52
330
48
100
AcDbEntity
  8
1
 62
     4
100
AcDbPoint
 10
85.24999999999997
 20
17.00000000000003
 30
0.0
  0
POINT
  5
53
330
48
100
AcDbEntity
  8
1
 62
     4
100
AcDbPoint
 10
106.5
 20
19.00000000000004
 30
0.0
  0
POINT
  5
54
330
48
100
AcDbEntity
  8
1
 62
     4
100
AcDbPoint
 10
106.5
 20
12.50000000000003
 30
0.0
  0
POINT
  5
55
330
48
100
AcDbEntity
  8
1
 62
     4
100
AcDbPoint
 10
112.25
 20
12.50000000000003
 30
0.0
  0
POINT
  5
56
330
48
100
AcDbEntity
  8
1
 62
     4
100
AcDbPoint
 10
100.75
 20
12.50000000000003
 30
0.0
  0
POINT
  5
57
330
48
100
AcDbEntity
  8
1
 62
     4
100
AcDbPoint
 10
123.5
 20
19.00000000000004
 30
0.0
  0
POINT
  5
58
330
48
100
AcDbEntity
  8
1
 62
     4
100
AcDbPoint
 10
123.5
 20
12.50000000000003
 30
0.0
  0
POINT
  5
59
330
48
100
AcDbEntity
  8
1
 62
     4
100
AcDbPoint
 10
129.25
 20
12.50000000000003
 30
0.0
  0
POINT
  5
5A
330
48
100
AcDbEntity
  8
1
 62
     4
100
AcDbPoint
 10
117.75
 20
12.50000000000003
 30
0.0
  0
POINT
  5
5B
330
48
100
AcDbEntity
  8
1
 62
     4
100
AcDbPoint
 10
140.5
 20
19.00000000000004
 30
0.0
  0
POINT
  5
5C
330
48
100
AcDbEntity
  8
1
 62
     4
100
AcDbPoint
 10
140.5
 20
12.50000000000003
 30
0.0
  0
POINT
  5
5D
330
48
100
AcDbEntity
  8
1
 62
     4
100
AcDbPoint
 10
146.25
 20
12.50000000000003
 30
0.0
  0
POINT
  5
5E
330
48
100
AcDbEntity
  8
1
 62
     4
100
AcDbPoint
 10
134.75
 20
12.50000000000003
 30
0.0
  0
POINT
  5
5F
330
48
100
AcDbEntity
  8
1
 62
     4
100
AcDbPoint
 10
151.75
 20
12.50000000000003
 30
0.0
  0
POINT
  5
60
330
48
100
AcDbEntity
  8
1
 62
     4
100
AcDbPoint
 10
163.25
 20
12.50000000000003
 30
0.0
  0
POINT
  5
61
330
48
100
AcDbEntity
  8
1
 62
     4
100
AcDbPoint
 10
157.5
 20
12.50000000000003
 30
0.0
  0
POINT
  5
62
330
48
100
AcDbEntity
  8
1
 62
     4
100
AcDbPoint
 10
56.99999999999999
 20
14.25000000000003
 30
0.0
  0
POINT
  5
63
330
48
100
AcDbEntity
  8
1
 62
     4
100
AcDbPoint
 10
56.99999999999999
 20
22.75000000000004
 30
0.0
  0
POINT
  5
64
330
48
100
AcDbEntity
  8
1
 62
     4
100
AcDbPoint
 10
47.50000000000001
 20
282.0000000000003
 30
0.0
  0
POINT
  5
65
330
48
100
AcDbEntity
  8
1
 62
     4
100
AcDbPoint
 10
157.5
 20
19.00000000000004
 30
0.0
  0
POINT
  5
66
330
48
100
AcDbEntity
  8
1
 62
     4
100
AcDbPoint
 10
56.99999999999999
 20
16.25000000000003
 30
0.0
  0
POINT
  5
67
330
48
100
AcDbEntity
  8
1
 62
     4
100
AcDbPoint
 10
56.99999999999999
 20
24.75000000000004
 30
0.0
  0
POINT
  5
68
330
48
100
AcDbEntity
  8
1
 62
     4
100
AcDbPoint
 10
56.99999999999999
 20
20.75000000000004
 30
0.0
  0
POINT
  5
69
330
48
100
AcDbEntity
  8
1
 62
     4
100
AcDbPoint
 10
56.99999999999999
 20
12.25000000000003
 30
0.0
  0
POINT
  5
6A
330
48
100
AcDbEntity
  8
1
 62
     4
100
AcDbPoint
 10
34.00000000000001
 20
34.00000000000003
 30
0.0
  0
LINE
  5
6F
330
48
100
AcDbEntity
  8
1
  6
Continuous
 62
     7
100
AcDbLine
 10
105.0
 20
10.00000000000003
 30
0.0
 11
200.0
 21
10.00000000000003
 31
0.0
  0
LINE
  5
70
330
48
100
AcDbEntity
  8
1
  6
Continuous
 62
     2
100
AcDbLine
 10
105.0
 20
10.00000000000003
 30
0.0
 11
105.0
 21
4.99999999999999
 31
0.0
  0
LINE
  5
71
330
48
100
AcDbEntity
  8
1
  6
Continuous
 62
     7
100
AcDbLine
 10
200.0
 20
148.5
 30
0.0
 11
200.0
 21
287.0000000000003
 31
0.0
  0
LINE
  5
72
330
48
100
AcDbEntity
  8
1
  6
Continuous
 62
     2
100
AcDbLine
 10
200.0
 20
148.5
 30
0.0
 11
205.0
 21
148.5
 31
0.0
  0
LINE
  5
73
330
48
100
AcDbEntity
  8
1
  6
Continuous
 62
     7
100
AcDbLine
 10
25.0
 20
148.5
 30
0.0
 11
25.0
 21
287.0000000000003
 31
0.0
  0
LINE
  5
74
330
48
100
AcDbEntity
  8
1
  6
Continuous
 62
     2
100
AcDbLine
 10
25.0
 20
148.5
 30
0.0
 11
20.0
 21
148.5
 31
0.0
  0
LINE
  5
75
330
48
100
AcDbEntity
  8
1
  6
Continuous
 62
     7
100
AcDbLine
 10
105.0
 20
287.0000000000003
 30
0.0
 11
25.0
 21
287.0000000000003
 31
0.0
  0
LINE
  5
76
330
48
100
AcDbEntity
  8
1
  6
Continuous
 62
     2
100
AcDbLine
 10
105.0
 20
287.0000000000003
 30
0.0
 11
105.0
 21
292.0000000000003
 31
0.0
  0
LINE
  5
77
330
48
100
AcDbEntity
  8
1
  6
Continuous
 62
     2
100
AcDbLine
 10
166.0
 20
20.00000000000004
 30
0.0
 11
200.0
 21
20.00000000000004
 31
0.0
  0
LINE
  5
78
330
48
100
AcDbEntity
  8
1
  6
Continuous
 62
     2
100
AcDbLine
 10
97.99999999999997
 20
27.00000000000004
 30
0.0
 11
97.99999999999997
 21
10.00000000000003
 31
0.0
  0
LINE
  5
79
330
48
100
AcDbEntity
  8
1
  6
Continuous
 62
     2
100
AcDbLine
 10
115.0
 20
27.00000000000004
 30
0.0
 11
115.0
 21
10.00000000000003
 31
0.0
  0
LINE
  5
7A
330
48
100
AcDbEntity
  8
1
  6
Continuous
 62
     2
100
AcDbLine
 10
149.0
 20
27.00000000000004
 30
0.0
 11
149.0
 21
10.00000000000003
 31
0.0
  0
LINE
  5
7B
330
48
100
AcDbEntity
  8
1
  6
Continuous
 62
     2
100
AcDbLine
 10
132.0
 20
27.00000000000004
 30
0.0
 11
132.0
 21
10.00000000000001
 31
0.0
  0
LINE
  5
7C
330
48
100
AcDbEntity
  8
1
  6
Continuous
 62
     2
100
AcDbLine
 10
166.0
 20
27.00000000000004
 30
0.0
 11
166.0
 21
10.00000000000003
 31
0.0
  0
LINE
  5
7D
330
48
100
AcDbEntity
  8
1
  6
Continuous
 62
     2
100
AcDbLine
 10
54.99999999999999
 20
277.0000000000003
 30
0.0
 11
25.0
 21
277.0000000000003
 31
0.0
  0
LINE
  5
7E
330
48
100
AcDbEntity
  8
1
  6
Continuous
 62
     7
100
AcDbLine
 10
25.0
 20
10.00000000000003
 30
0.0
 11
25.0
 21
148.5
 31
0.0
  0
LINE
  5
7F
330
48
100
AcDbEntity
  8
1
  6
Continuous
 62
     2
100
AcDbLine
 10
40.00000000000001
 20
287.0000000000003
 30
0.0
 11
40.00000000000001
 21
277.0000000000003
 31
0.0
  0
LINE
  5
80
330
48
100
AcDbEntity
  8
1
  6
Continuous
 62
     2
100
AcDbLine
 10
54.99999999999999
 20
287.0000000000003
 30
0.0
 11
54.99999999999999
 21
277.0000000000003
 31
0.0
  0
LINE
  5
81
330
48
100
AcDbEntity
  8
1
  6
Continuous
 62
     2
100
AcDbLine
 10
33.00000000000001
 20
41.00000000000003
 30
0.0
 11
33.00000000000001
 21
27.00000000000003
 31
0.0
  0
LINE
  5
82
330
48
100
AcDbEntity
  8
1
  6
Continuous
 62
     7
100
AcDbLine
 10
200.0
 20
27.00000000000004
 30
0.0
 11
25.0
 21
27.00000000000004
 31
0.0
  0
LINE
  5
83
330
48
100
AcDbEntity
  8
1
  6
Continuous
 62
     7
100
AcDbLine
 10
25.0
 20
41.00000000000003
 30
0.0
 11
200.0
 21
41.00000000000003
 31
0.0
  0
LINE
  5
84
330
48
100
AcDbEntity
  8
1
  6
PHANTOM
 62
     4
100
AcDbLine
 10
0.0
 20
-0.00000000000001
 30
0.0
 11
210.0
 21
-0.00000000000001
 31
0.0
  0
LINE
  5
85
330
48
100
AcDbEntity
  8
1
  6
PHANTOM
 62
     4
100
AcDbLine
 10
210.0
 20
-0.00000000000001
 30
0.0
 11
210.0
 21
297.0
 31
0.0
  0
LINE
  5
86
330
48
100
AcDbEntity
  8
1
  6
PHANTOM
 62
     4
100
AcDbLine
 10
210.0
 20
297.0
 30
0.0
 11
0.0
 21
297.0
 31
0.0
  0
LINE
  5
87
330
48
100
AcDbEntity
  8
1
  6
PHANTOM
 62
     4
100
AcDbLine
 10
0.0
 20
297.0
 30
0.0
 11
0.0
 21
-0.00000000000001
 31
0.0
  0
LINE
  5
88
330
48
100
AcDbEntity
  8
1
  6
Continuous
 62
     7
100
AcDbLine
 10
25.0
 20
10.00000000000003
 30
0.0
 11
105.0
 21
10.00000000000003
 31
0.0
  0
LINE
  5
89
330
48
100
AcDbEntity
  8
1
  6
Continuous
 62
     7
100
AcDbLine
 10
200.0
 20
10.00000000000003
 30
0.0
 11
200.0
 21
148.5
 31
0.0
  0
LINE
  5
8A
330
48
100
AcDbEntity
  8
1
  6
Continuous
 62
     7
100
AcDbLine
 10
200.0
 20
287.0000000000003
 30
0.0
 11
105.0
 21
287.0000000000003
 31
0.0
  0
LINE
  5
8B
330
48
100
AcDbEntity
  8
1
  6
Continuous
 62
     2
100
AcDbLine
 10
25.0
 20
18.50000000000004
 30
0.0
 11
80.99999999999997
 21
18.50000000000004
 31
0.0
  0
LINE
  5
8C
330
48
100
AcDbEntity
  8
1
  6
Continuous
 62
     2
100
AcDbLine
 10
33.00000000000001
 20
27.00000000000003
 30
0.0
 11
33.00000000000001
 21
10.00000000000003
 31
0.0
  0
LINE
  5
8D
330
48
100
AcDbEntity
  8
1
  6
Continuous
 62
     7
100
AcDbLine
 10
191.0
 20
24.70000000000005
 30
0.0
 11
191.0
 21
22.30000000000004
 31
0.0
  0
LINE
  5
8E
330
48
100
AcDbEntity
  8
1
  6
Continuous
 62
     7
100
AcDbLine
 10
191.0
 20
24.70000000000005
 30
0.0
 11
196.0
 21
25.50000000000004
 31
0.0
  0
LINE
  5
8F
330
48
100
AcDbEntity
  8
1
  6
Continuous
 62
     7
100
AcDbLine
 10
196.0
 20
25.50000000000004
 30
0.0
 11
196.0
 21
21.50000000000004
 31
0.0
  0
LINE
  5
90
330
48
100
AcDbEntity
  8
1
  6
Continuous
 62
     7
100
AcDbLine
 10
196.0
 20
21.50000000000004
 30
0.0
 11
191.0
 21
22.30000000000004
 31
0.0
  0
LINE
  5
91
330
48
100
AcDbEntity
  8
1
  6
DOT_CENTER
 62
     2
100
AcDbLine
 10
184.0
 20
23.50000000000004
 30
0.0
 11
197.0
 21
23.50000000000004
 31
0.0
  0
LINE
  5
92
330
48
100
AcDbEntity
  8
1
  6
DOT_CENTER
 62
     2
100
AcDbLine
 10
187.0
 20
26.50000000000004
 30
0.0
 11
187.0
 21
20.50000000000004
 31
0.0
  0
LINE
  5
93
330
48
100
AcDbEntity
  8
1
  6
Continuous
 62
     2
100
AcDbLine
 10
80.99999999999997
 20
27.00000000000004
 30
0.0
 11
80.99999999999997
 21
10.00000000000003
 31
0.0
  0
CIRCLE
  5
94
330
48
100
AcDbEntity
  8
1
  6
Continuous
 62
     7
100
AcDbCircle
 10
103.5
 20
12.50000000000003
 30
0.0
 40
0.2999999999999972
  0
CIRCLE
  5
95
330
48
100
AcDbEntity
  8
1
  6
Continuous
 62
     7
100
AcDbCircle
 10
109.5
 20
12.50000000000003
 30
0.0
 40
0.2999999999999972
  0
CIRCLE
  5
96
330
48
100
AcDbEntity
  8
1
  6
Continuous
 62
     7
100
AcDbCircle
 10
120.5
 20
12.50000000000003
 30
0.0
 40
0.2999999999999972
  0
CIRCLE
  5
97
330
48
100
AcDbEntity
  8
1
  6
Continuous
 62
     7
100
AcDbCircle
 10
126.5
 20
12.50000000000003
 30
0.0
 40
0.2999999999999972
  0
CIRCLE
  5
98
330
48
100
AcDbEntity
  8
1
  6
Continuous
 62
     7
100
AcDbCircle
 10
137.5
 20
12.50000000000003
 30
0.0
 40
0.3000000000000114
  0
CIRCLE
  5
99
330
48
100
AcDbEntity
  8
1
  6
Continuous
 62
     7
100
AcDbCircle
 10
143.5
 20
12.50000000000003
 30
0.0
 40
0.3000000000000114
  0
CIRCLE
  5
9A
330
48
100
AcDbEntity
  8
1
  6
Continuous
 62
     7
100
AcDbCircle
 10
160.5
 20
12.50000000000003
 30
0.0
 40
0.3000000000000114
  0
CIRCLE
  5
9B
330
48
100
AcDbEntity
  8
1
  6
Continuous
 62
     7
100
AcDbCircle
 10
154.5
 20
12.50000000000003
 30
0.0
 40
0.3000000000000114
  0
CIRCLE
  5
9C
330
48
100
AcDbEntity
  8
1
  6
Continuous
 62
     7
100
AcDbCircle
 10
187.0
 20
23.50000000000004
 30
0.0
 40
1.200000000000102
  0
CIRCLE
  5
9D
330
48
100
AcDbEntity
  8
1
  6
Continuous
 62
     7
100
AcDbCircle
 10
187.0
 20
23.50000000000004
 30
0.0
 40
2.0
  0
CIRCLE
  5
9E
330
48
100
AcDbEntity
  8
1
  6
DOT_CENTER
 62
     7
100
AcDbCircle
 10
89.49999999999997
 20
16.00000000000003
 30
0.0
 40
0.1000000000000227
  0
CIRCLE
  5
9F
330
48
100
AcDbEntity
  8
1
  6
DOT_CENTER
 62
     7
100
AcDbCircle
 10
89.49999999999997
 20
18.00000000000003
 30
0.0
 40
0.1000000000000227
  0
SPLINE
  5
A0
102
{ACAD_REACTORS
330
BF
102
}
330
48
100
AcDbEntity
  8
_U_30EC_U_30A4_U_30E4_U_30FC_1
  6
Continuous
 62
     2
100
AcDbSpline
210
0.0
220
0.0
230
1.0
 70
     8
 71
     3
 72
    24
 73
    20
 74
    18
 42
0.000000001
 43
0.0000000001
 44
0.00000001
 40
0.0
 40
0.0
 40
0.0
 40
0.0
 40
0.221107500875397
 40
0.4273218586245434
 40
0.5080174679239428
 40
0.591483590787028
 40
0.8143265690192859
 40
1.0546513026866
 40
1.295452694023189
 40
1.51810923132884
 40
1.540864321905456
 40
1.595126460622716
 40
1.65989094789603
 40
1.714153085187388
 40
1.736908174961688
 40
1.764951100735378
 40
1.801562291220968
 40
1.953914424543646
 40
2.126104167379723
 40
2.126104167379723
 40
2.126104167379723
 40
2.126104167379723
 10
185.9375369556889
 20
15.5898929511302
 30
0.0
 10
185.9112579081811
 20
15.53097628234377
 30
0.0
 10
185.8604698894425
 20
15.4171113967926
 30
0.0
 10
185.8131784839111
 20
15.14441958233119
 30
0.0
 10
185.7043482802618
 20
15.24445482575457
 30
0.0
 10
185.5514800279637
 20
15.27118593367332
 30
0.0
 10
185.7686155181199
 20
15.48518135017635
 30
0.0
 10
185.7838483674381
 20
15.7033211778249
 30
0.0
 10
185.8906889492001
 20
15.88451579066429
 30
0.0
 10
185.8305380947077
 20
16.16913226311404
 30
0.0
 10
185.9334317395402
 20
16.14114089222454
 30
0.0
 10
185.9779933468149
 20
16.13243251602303
 30
0.0
 10
186.0380842395397
 20
16.12139654183358
 30
0.0
 10
186.0756619587437
 20
16.10767523055562
 30
0.0
 10
186.1252466928606
 20
16.10756076160226
 30
0.0
 10
186.0930158919325
 20
16.07306592398626
 30
0.0
 10
186.0171802221882
 20
16.08404104537967
 30
0.0
 10
186.0429447159693
 20
15.89858969582451
 30
0.0
 10
186.0055896763849
 20
15.80702313549592
 30
0.0
 10
185.9857704961609
 20
15.75844135397708
 30
0.0
 11
185.9375369556889
 21
15.5898929511302
 31
0.0
 11
185.8616471328552
 21
15.38221708318562
 31
0.0
 11
185.7717402238433
 21
15.19663392356195
 31
0.0
 11
185.701149392311
 21
15.23573272563553
 31
0.0
 11
185.6245525192651
 21
15.26889163187721
 31
0.0
 11
185.7214026947455
 21
15.46958801203541
 31
0.0
 11
185.7994641467471
 21
15.69688163177027
 31
0.0
 11
185.858971692972
 21
15.93021436608694
 31
0.0
 11
185.9001601511226
 21
16.14902808999057
 31
0.0
 11
185.9224183822214
 21
16.14429889221397
 31
0.0
 11
185.975495702534
 21
16.13302157443902
 31
0.0
 11
186.0388460525844
 21
16.11956154999795
 31
0.0
 11
186.091923372897
 21
16.108284232223
 31
0.0
 11
186.1141816039958
 21
16.1035550344464
 31
0.0
 11
186.096409715746
 21
16.08186250841013
 31
0.0
 11
186.0606122998071
 21
16.0741862844537
 31
0.0
 11
186.028195330148
 21
15.92532288171316
 31
0.0
 11
185.9857704961609
 21
15.75844135397708
 31
0.0
  0
SPLINE
  5
A1
102
{ACAD_REACTORS
330
BF
102
}
330
48
100
AcDbEntity
  8
_U_30EC_U_30A4_U_30E4_U_30FC_1
  6
Continuous
 62
     2
100
AcDbSpline
210
0.0
220
0.0
230
1.0
 70
     8
 71
     3
 72
    70
 73
    66
 74
    64
 42
0.000000001
 43
0.0000000001
 44
0.00000001
 40
0.0
 40
0.0
 40
0.0
 40
0.0
 40
0.0241731073021472
 40
0.0846058988987013
 40
0.1631685280353284
 40
0.2417311571789756
 40
0.3021639488292751
 40
0.3263370654895541
 40
0.3533118254248881
 40
0.4228783438922111
 40
0.5179999095313402
 40
0.6216398239466084
 40
0.7167613891499688
 40
0.7863279069649846
 40
0.8133026791761818
 40
0.8372943998771656
 40
0.8945054261372849
 40
0.9627895541962619
 40
1.020000580349072
 40
1.04399230097517
 40
1.071934345522903
 40
1.113121768772916
 40
1.14522519933224
 40
1.225483775412775
 40
1.329819923771484
 40
1.434156071994374
 40
1.514414647795793
 40
1.546518078208401
 40
1.578974764260175
 40
1.66267884931417
 40
1.77713137366839
 40
1.901833377474781
 40
2.016285900500571
 40
2.099989982527938
 40
2.132446666570297
 40
2.158782354486021
 40
2.216720867907809
 40
2.274659381334232
 40
2.300995069256166
 40
2.333451754066139
 40
2.417155836543819
 40
2.531608358985259
 40
2.656310362283754
 40
2.770762886388886
 40
2.854466971340051
 40
2.886923657363858
 40
2.913597976833292
 40
2.982389642875096
 40
3.076451716946962
 40
3.178937260458574
 40
3.272999334739979
 40
3.341791001059202
 40
3.368465320663513
 40
3.396976080738734
 40
3.47214081184597
 40
3.57840819030866
 40
3.700226892456096
 40
3.822045594634313
 40
3.92831297325642
 40
4.003477705314817
 40
4.031988456866883
 40
4.058324144797681
 40
4.116262658236837
 40
4.174201171400633
 40
4.200536849608564
 40
4.200536849608564
 40
4.200536849608564
 40
4.200536849608564
 10
185.9857704961609
 20
15.75844135397708
 30
0.0
 10
185.9938259544679
 20
15.75844359811689
 30
0.0
 10
186.0220200663241
 20
15.758451460328
 30
0.0
 10
186.0765534803672
 20
15.75830754828375
 30
0.0
 10
186.1482891808604
 20
15.75909120499901
 30
0.0
 10
186.2236240137062
 20
15.75627570463814
 30
0.0
 10
186.2713052366438
 20
15.7629840340096
 30
0.0
 10
186.3195071245616
 20
15.75197563692436
 30
0.0
 10
186.3062571799873
 20
15.80546402997036
 30
0.0
 10
186.3151093964539
 20
15.86049583543095
 30
0.0
 10
186.3108698036286
 20
15.95419908726112
 30
0.0
 10
186.313348348128
 20
16.04959482218535
 30
0.0
 10
186.309093870606
 20
16.1435682198339
 30
0.0
 10
186.3179818665846
 20
16.19795062438015
 30
0.0
 10
186.3046977409946
 20
16.25233997691463
 30
0.0
 10
186.3514119277108
 20
16.2384221633536
 30
0.0
 10
186.3943254545737
 20
16.24103877374047
 30
0.0
 10
186.4605443456685
 20
16.23648422450758
 30
0.0
 10
186.5013342271798
 20
16.22778162134165
 30
0.0
 10
186.5525145690819
 20
16.23531799890198
 30
0.0
 10
186.52537204872
 20
16.19349970223288
 30
0.0
 10
186.4803096055707
 20
16.202849920726
 30
0.0
 10
186.4942065045051
 20
16.1384120737184
 30
0.0
 10
186.4858414431653
 20
16.07378219627402
 30
0.0
 10
186.4903632178398
 20
15.9752914119389
 30
0.0
 10
186.4854741311167
 20
15.87595932842573
 30
0.0
 10
186.4950258992082
 20
15.81293115552972
 30
0.0
 10
186.47997614552
 20
15.74964011499792
 30
0.0
 10
186.5449159457208
 20
15.76515072944272
 30
0.0
 10
186.6116246399496
 20
15.75499387697815
 30
0.0
 10
186.7241435470828
 20
15.7598880009937
 30
0.0
 10
186.8390235448954
 20
15.75691204732787
 30
0.0
 10
186.9519871999747
 20
15.76221664184994
 30
0.0
 10
187.0176267597678
 20
15.75107306472092
 30
0.0
 10
187.0816276691053
 20
15.7674453231986
 30
0.0
 10
187.070314288919
 20
15.71761689905279
 30
0.0
 10
187.0775339871509
 20
15.67416715212125
 30
0.0
 10
187.0703142611269
 20
15.63071745587448
 30
0.0
 10
187.0816277175994
 20
15.5808889519688
 30
0.0
 10
187.0176263598971
 20
15.59726166091365
 30
0.0
 10
186.951992124046
 20
15.58611271661592
 30
0.0
 10
186.838997431733
 20
15.59144857206856
 30
0.0
 10
186.7242456548644
 20
15.58834345663825
 30
0.0
 10
186.611318368686
 20
15.59364894682591
 30
0.0
 10
186.5455220903585
 20
15.58257300019597
 30
0.0
 10
186.4816097975358
 20
15.5988759784762
 30
0.0
 10
186.4936015165126
 20
15.54423524395745
 30
0.0
 10
186.4862104613005
 20
15.48854295047844
 30
0.0
 10
186.4892684841984
 20
15.39649689140574
 30
0.0
 10
186.4893422785683
 20
15.30179109873103
 30
0.0
 10
186.4860313578359
 20
15.20952782902268
 30
0.0
 10
186.4939505989904
 20
15.15435768736142
 30
0.0
 10
186.4815076611617
 20
15.10058169100139
 30
0.0
 10
186.5389116551632
 20
15.11453768862784
 30
0.0
 10
186.5994708140383
 20
15.10511457884229
 30
0.0
 10
186.7048680855081
 20
15.10942885928707
 30
0.0
 10
186.8204294070622
 20
15.10835504612034
 30
0.0
 10
186.9359688877797
 20
15.10725965900998
 30
0.0
 10
187.0414181130841
 20
15.11162525770635
 30
0.0
 10
187.1018680471804
 20
15.10209426030673
 30
0.0
 10
187.159283773911
 20
15.11617289606382
 30
0.0
 10
187.1477773876709
 20
15.06707153265686
 30
0.0
 10
187.1537566781749
 20
15.02564658018652
 30
0.0
 10
187.1520311050801
 20
14.97651677966699
 30
0.0
 10
187.1521500122971
 20
14.94854428447612
 30
0.0
 10
187.1521871691833
 20
14.93980288195954
 30
0.0
 11
185.9857704961609
 21
15.75844135397708
 31
0.0
 11
186.0099436128282
 21
15.75844135397708
 31
0.0
 11
186.0703764044962
 21
15.75844135397708
 31
0.0
 11
186.1489390336648
 21
15.75844135397708
 31
0.0
 11
186.2275016628334
 21
15.75844135397708
 31
0.0
 11
186.2879344545015
 21
15.75844135397708
 31
0.0
 11
186.3121075711687
 21
15.75844135397708
 31
0.0
 11
186.3121075711687
 21
15.78541612620066
 31
0.0
 11
186.3121075711687
 21
15.85498264404042
 31
0.0
 11
186.3121075711687
 21
15.95010420924988
 31
0.0
 11
186.3121075711687
 21
16.05374412358259
 31
0.0
 11
186.3121075711687
 21
16.14886568879205
 31
0.0
 11
186.3121075711687
 21
16.21843220663181
 31
0.0
 11
186.3121075711687
 21
16.24540697885539
 31
0.0
 11
186.3360407604892
 21
16.24373213107803
 31
0.0
 11
186.3931122119458
 21
16.23973826330124
 31
0.0
 11
186.461229750781
 21
16.23497138885799
 31
0.0
 11
186.5183012022376
 21
16.2309775210812
 31
0.0
 11
186.5422343915581
 21
16.22930267330384
 31
0.0
 11
186.5274972731229
 21
16.20556293372643
 31
0.0
 11
186.4886640249976
 21
16.19183767331315
 31
0.0
 11
186.4886640249976
 21
16.15973424225121
 31
0.0
 11
186.4886640249976
 21
16.07947566459639
 31
0.0
 11
186.4886640249976
 21
15.97513951364511
 31
0.0
 11
186.4886640249976
 21
15.87080336269384
 31
0.0
 11
186.4886640249976
 21
15.79054478503901
 31
0.0
 11
186.4886640249976
 21
15.75844135397708
 31
0.0
 11
186.5211207110824
 21
15.75844135397708
 31
0.0
 11
186.6048247962486
 21
15.75844135397708
 31
0.0
 11
186.7192773208634
 21
15.75844135397708
 31
0.0
 11
186.8439793252946
 21
15.75844135397708
 31
0.0
 11
186.9584318499095
 21
15.75844135397708
 31
0.0
 11
187.0421359350756
 21
15.75844135397708
 31
0.0
 11
187.0745926211604
 21
15.75844135397708
 31
0.0
 11
187.0745926211604
 21
15.73210566604964
 31
0.0
 11
187.0745926211604
 21
15.67416715260928
 31
0.0
 11
187.0745926211604
 21
15.61622863916891
 31
0.0
 11
187.0745926211604
 21
15.58989295124147
 31
0.0
 11
187.0421359350756
 21
15.58989295124147
 31
0.0
 11
186.9584318499095
 21
15.58989295124147
 31
0.0
 11
186.8439793252946
 21
15.58989295124147
 31
0.0
 11
186.7192773208634
 21
15.58989295124147
 31
0.0
 11
186.6048247962485
 21
15.58989295124147
 31
0.0
 11
186.5211207110824
 21
15.58989295124147
 31
0.0
 11
186.4886640249976
 21
15.58989295124147
 31
0.0
 11
186.4886640249976
 21
15.56321863152025
 31
0.0
 11
186.4886640249976
 21
15.49442696487078
 31
0.0
 11
186.4886640249976
 21
15.40036489006437
 31
0.0
 11
186.4886640249976
 21
15.2978793458723
 31
0.0
 11
186.4886640249976
 21
15.20381727106589
 31
0.0
 11
186.4886640249976
 21
15.13502560441642
 31
0.0
 11
186.4886640249976
 21
15.1083512846952
 31
0.0
 11
186.5171747850993
 21
15.1083512846952
 31
0.0
 11
186.5923395162766
 21
15.1083512846952
 31
0.0
 11
186.6986068948376
 21
15.1083512846952
 31
0.0
 11
186.8204255970904
 21
15.1083512846952
 31
0.0
 11
186.9422442993433
 21
15.1083512846952
 31
0.0
 11
187.0485116779043
 21
15.1083512846952
 31
0.0
 11
187.1236764090816
 21
15.1083512846952
 31
0.0
 11
187.1521871691833
 21
15.1083512846952
 31
0.0
 11
187.1521871691833
 21
15.08201559676775
 31
0.0
 11
187.1521871691833
 21
15.02407708332737
 31
0.0
 11
187.1521871691833
 21
14.96613856988699
 31
0.0
 11
187.1521871691833
 21
14.93980288195954
 31
0.0
  0
SPLINE
  5
A2
102
{ACAD_REACTORS
330
BF
102
}
330
48
100
AcDbEntity
  8
_U_30EC_U_30A4_U_30E4_U_30FC_1
  6
Continuous
 62
     2
100
AcDbSpline
210
0.0
220
0.0
230
1.0
 70
     8
 71
     3
 72
    62
 73
    58
 74
    56
 42
0.000000001
 43
0.0000000001
 44
0.00000001
 40
0.0
 40
0.0
 40
0.0
 40
0.0
 40
0.0598250028308485
 40
0.2024846486897331
 40
0.3727558389221031
 40
0.515415484793607
 40
0.5752404975785339
 40
0.9332326775487306
 40
1.290451762839484
 40
1.602077253145885
 40
1.69993163411214
 40
1.799359756425056
 40
2.270120149657097
 40
2.804661928461547
 40
2.88234228738326
 40
3.076543185719107
 40
3.329004354835567
 40
3.58146552456839
 40
3.775666424543672
 40
3.853346784558292
 40
3.899120679595038
 40
3.984129341792036
 40
4.029903236817384
 40
4.105797496059541
 40
4.2955331441525
 40
4.542189486611742
 40
4.78884582887569
 40
4.978581476410076
 40
5.054475735244317
 40
5.621734664339333
 40
6.130867242037345
 40
6.22524978094859
 40
6.318913039727289
 40
6.663579954558907
 40
7.047498900224757
 40
7.435230791575696
 40
7.498943906668108
 40
7.650875181210102
 40
7.832212509001613
 40
7.984143783696998
 40
8.047856898903126
 40
8.09155463273263
 40
8.17270756696428
 40
8.216405300768
 40
8.289021782160885
 40
8.462184160757259
 40
8.66886183800534
 40
8.842024215263931
 40
8.914640695475127
 40
8.989881580861333
 40
9.15541152882724
 40
9.320941477744023
 40
9.396182352487276
 40
9.454709011143823
 40
9.583467660170758
 40
9.712226309013037
 40
9.77075295798949
 40
9.77075295798949
 40
9.77075295798949
 40
9.77075295798949
 10
187.1521871691833
 20
14.93980288195954
 30
0.0
 10
187.1322348171623
 20
14.93980875568676
 30
0.0
 10
187.0647037716466
 20
14.93982863806161
 30
0.0
 10
186.9410612161788
 20
14.9394936252033
 30
0.0
 10
186.7863180150056
 20
14.94107673750516
 30
0.0
 10
186.669734948248
 20
14.93686078860499
 30
0.0
 10
186.455094263424
 20
14.9521520533163
 30
0.0
 10
186.8518948407229
 20
14.59198721286195
 30
0.0
 10
186.8945656069267
 20
14.37510503397169
 30
0.0
 10
187.3189162146612
 20
14.1932506251145
 30
0.0
 10
187.1439821496073
 20
14.08985196568075
 30
0.0
 10
187.0194523925084
 20
13.87831523212727
 30
0.0
 10
186.7666277235943
 20
14.34806081001565
 30
0.0
 10
186.4797602893626
 20
14.99511516984523
 30
0.0
 10
186.490633592666
 20
14.68782672154696
 30
0.0
 10
186.488289277796
 20
14.5228861697178
 30
0.0
 10
186.4861096126411
 20
14.28879670711696
 30
0.0
 10
186.4980774396346
 20
14.04498072421786
 30
0.0
 10
186.4687984740631
 20
13.89855796860988
 30
0.0
 10
186.511452262547
 20
13.75113490174541
 30
0.0
 10
186.423981400564
 20
13.76685797306224
 30
0.0
 10
186.3768527606744
 20
13.76694303543457
 30
0.0
 10
186.2898973207713
 20
13.75109425482912
 30
0.0
 10
186.3313474021722
 20
13.89527771422765
 30
0.0
 10
186.3029875004285
 20
14.03855052698458
 30
0.0
 10
186.31459737753
 20
14.27674947365268
 30
0.0
 10
186.3124175648272
 20
14.50517235240349
 30
0.0
 10
186.3103111127993
 20
14.66705729375997
 30
0.0
 10
186.3208035438325
 20
14.98153709333756
 30
0.0
 10
186.0128963252892
 20
14.29229470872438
 30
0.0
 10
185.7055258267455
 20
13.81476750243057
 30
0.0
 10
185.5851367066274
 20
14.03741112637429
 30
0.0
 10
185.4074607910722
 20
14.15011034955572
 30
0.0
 10
185.8853326362894
 20
14.32548143465463
 30
0.0
 10
185.9353959057208
 20
14.56091929252035
 30
0.0
 10
186.3583799621715
 20
14.9532298934461
 30
0.0
 10
186.1276754273541
 20
14.9365530702907
 30
0.0
 10
186.004968585934
 20
14.94269518948775
 30
0.0
 10
185.8325483095662
 20
14.93312822699577
 30
0.0
 10
185.7213224694449
 20
14.9544881848967
 30
0.0
 10
185.6025779627448
 20
14.92136265357423
 30
0.0
 10
185.6183169706686
 20
15.00203900606887
 30
0.0
 10
185.6178550933762
 20
15.04645414290857
 30
0.0
 10
185.6027881889931
 20
15.12967081778536
 30
0.0
 10
185.7372380935443
 20
15.09062651983886
 30
0.0
 10
185.8619755545747
 20
15.11739729328425
 30
0.0
 10
186.062875523728
 20
15.10063949044055
 30
0.0
 10
186.1921540949352
 20
15.12204225913007
 30
0.0
 10
186.3328419928295
 20
15.08868778853423
 30
0.0
 10
186.2980927452614
 20
15.22651875785071
 30
0.0
 10
186.3222185666714
 20
15.34963257349484
 30
0.0
 10
186.2967086182391
 20
15.47024055670338
 30
0.0
 10
186.3333251146685
 20
15.60539865141498
 30
0.0
 10
186.2211417027769
 20
15.58094545781894
 30
0.0
 10
186.1280356457136
 20
15.59307749842026
 30
0.0
 10
186.0191547579819
 20
15.58957630069996
 30
0.0
 10
185.9569697640964
 20
15.58981755951606
 30
0.0
 10
185.9375369557246
 20
15.58989295124147
 30
0.0
 11
187.1521871691833
 21
14.93980288195954
 31
0.0
 11
187.0923621563982
 21
14.93980288195954
 31
0.0
 11
186.949702510526
 21
14.93980288195954
 31
0.0
 11
186.7794313202913
 21
14.93980288195954
 31
0.0
 11
186.6367716744191
 21
14.93980288195954
 31
0.0
 11
186.576946661634
 21
14.93980288195954
 31
0.0
 11
186.7679960754842
 21
14.63705127966894
 31
0.0
 11
186.994127278563
 21
14.36051890576687
 31
0.0
 11
187.2244526173371
 21
14.1506125349346
 31
0.0
 11
187.1521596330704
 21
14.08466403668719
 31
0.0
 11
187.0879364402643
 21
14.00876059052563
 31
0.0
 11
186.7732818215558
 21
14.35891458349366
 31
0.0
 11
186.4886640249976
 21
14.81138295143603
 31
0.0
 11
186.4886640249976
 21
14.73370259137315
 31
0.0
 11
186.4886640249976
 21
14.53950169121595
 31
0.0
 11
186.4886640249976
 21
14.28704052101159
 31
0.0
 11
186.4886640249976
 21
14.03457935080723
 31
0.0
 11
186.4886640249976
 21
13.84037845065003
 31
0.0
 11
186.4886640249976
 21
13.76269809058715
 31
0.0
 11
186.4428901295605
 21
13.76269809058715
 31
0.0
 11
186.3578814666058
 21
13.76269809058715
 31
0.0
 11
186.3121075711687
 21
13.76269809058715
 31
0.0
 11
186.3121075711687
 21
13.83859234982743
 31
0.0
 11
186.3121075711687
 21
14.02832799792814
 31
0.0
 11
186.3121075711687
 21
14.27498434045907
 31
0.0
 11
186.3121075711687
 21
14.52164068298999
 31
0.0
 11
186.3121075711687
 21
14.7113763310907
 31
0.0
 11
186.3121075711687
 21
14.78727059033098
 31
0.0
 11
185.9987626399266
 21
14.31440946197696
 31
0.0
 11
185.6352328662148
 21
13.95795177109385
 31
0.0
 11
185.5773927461627
 21
14.03253450545025
 31
0.0
 11
185.5094852305341
 21
14.09704322939246
 31
0.0
 11
185.7750721898319
 21
14.31672219795893
 31
0.0
 11
186.0233764972061
 21
14.60953395971701
 31
0.0
 11
186.226498280526
 21
14.93980288195954
 31
0.0
 11
186.1627851652721
 21
14.93980288195954
 31
0.0
 11
186.0108538904359
 21
14.93980288195954
 31
0.0
 11
185.8295165624055
 21
14.93980288195954
 31
0.0
 11
185.6775852875693
 21
14.93980288195954
 31
0.0
 11
185.6138721723154
 21
14.93980288195954
 31
0.0
 11
185.6138721723154
 21
14.98350061600212
 31
0.0
 11
185.6138721723154
 21
15.06465355065262
 31
0.0
 11
185.6138721723154
 21
15.1083512846952
 31
0.0
 11
185.6864886537961
 21
15.1083512846952
 31
0.0
 11
185.8596510327118
 21
15.1083512846952
 31
0.0
 11
186.0663287107723
 21
15.1083512846952
 31
0.0
 11
186.239491089688
 21
15.1083512846952
 31
0.0
 11
186.3121075711687
 21
15.1083512846952
 31
0.0
 11
186.3121075711687
 21
15.18359217009306
 31
0.0
 11
186.3121075711687
 21
15.34912211796834
 31
0.0
 11
186.3121075711687
 21
15.51465206584361
 31
0.0
 11
186.3121075711687
 21
15.58989295124147
 31
0.0
 11
186.2535809125055
 21
15.58989295124147
 31
0.0
 11
186.1248222634467
 21
15.58989295124147
 31
0.0
 11
185.9960636143877
 21
15.58989295124147
 31
0.0
 11
185.9375369557246
 21
15.58989295124147
 31
0.0
  0
SPLINE
  5
A3
102
{ACAD_REACTORS
330
C0
102
}
330
48
100
AcDbEntity
  8
_U_30EC_U_30A4_U_30E4_U_30FC_1
  6
Continuous
 62
     2
100
AcDbSpline
210
0.0
220
0.0
230
1.0
 70
    11
 71
     3
 72
   124
 73
   120
 74
   118
 42
0.000000001
 43
0.0000000001
 44
0.00000001
 40
0.0
 40
0.0
 40
0.0
 40
0.0
 40
0.027818722962451
 40
0.1011590162384269
 40
0.2048470170590239
 40
0.3237088716559245
 40
0.4425707262522
 40
0.5462587270699547
 40
0.6195990203311798
 40
0.647417752257866
 40
0.6750060736115242
 40
0.7357003855242759
 40
0.7963946998054456
 40
0.8239830245571766
 40
0.854093381110286
 40
0.937339662940954
 40
1.063094687343235
 40
1.220731268638073
 40
1.399622220914748
 40
1.589140358637732
 40
1.778658496423898
 40
1.957549448940509
 40
2.115186030873159
 40
2.240941056914463
 40
2.324187341760532
 40
2.354297700109382
 40
2.38188602467189
 40
2.442580338710475
 40
2.503274652750497
 40
2.530862977314606
 40
2.560983949278559
 40
2.640393784452905
 40
2.752662861759128
 40
2.881361560118145
 40
3.010060258455192
 40
3.122329335705339
 40
3.201739170817953
 40
3.231860142753313
 40
3.26429802403037
 40
3.352343701778239
 40
3.482095226868762
 40
3.639650650173023
 40
3.811108022565478
 40
3.982565394927986
 40
4.140120818152568
 40
4.269872343141276
 40
4.35791802080234
 40
4.390355902043967
 40
4.423256253992537
 40
4.508104530073058
 40
4.624121560636826
 40
4.750528176031582
 40
4.866545206602029
 40
4.951393482691986
 40
4.984293834645388
 40
5.011450833242303
 40
5.071196230152089
 40
5.130941627057164
 40
5.15809862564883
 40
5.190998977601521
 40
5.275847253689347
 40
5.391864284256781
 40
5.518270899648326
 40
5.634287930209365
 40
5.719136206288039
 40
5.752036558235926
 40
5.782130946282952
 40
5.862783906229125
 40
5.979550131774993
 40
6.117984316640398
 40
6.263641154587941
 40
6.402075339414147
 40
6.518841564907944
 40
6.599494524815525
 40
6.629588912848763
 40
6.65440302822634
 40
6.713575149488107
 40
6.784199939329424
 40
6.843372060493526
 40
6.868186175802772
 40
6.896246243201858
 40
6.939586233758255
 40
6.967846564564886
 40
7.043584251089817
 40
7.153234334451677
 40
7.283231855734425
 40
7.420011856035457
 40
7.550009376579806
 40
7.659659458835207
 40
7.7353971444172
 40
7.76365747485137
 40
7.796409728011027
 40
7.880876065096301
 40
7.996370852465687
 40
8.122208446418583
 40
8.237703224799176
 40
8.32216956201087
 40
8.354921815205884
 40
8.382078813307666
 40
8.441824209206972
 40
8.50156960524012
 40
8.5287266034857
 40
8.561478856695748
 40
8.645945193877798
 40
8.76143998086531
 40
8.887277580764453
 40
9.002772362000973
 40
9.087238696661194
 40
9.119990949235648
 40
9.152428830613347
 40
9.240474508638563
 40
9.370226034149512
 40
9.527781457984396
 40
9.699238830981384
 40
9.870696203978575
 40
10.028251627814
 40
10.15800315332561
 40
10.24604883135116
 40
10.27848670378519
 40
10.27848670378519
 40
10.27848670378519
 40
10.27848670378519
 10
195.3821827564383
 20
14.0141051738576
 30
0.0
 10
195.3914554737523
 20
14.01410498511277
 30
0.0
 10
195.4251744536861
 20
14.01410430876717
 30
0.0
 10
195.4934706812465
 20
14.01411807243307
 30
0.0
 10
195.592014171158
 20
14.01403224219548
 30
0.0
 10
195.7062066464812
 20
14.01441755612253
 30
0.0
 10
195.818589441707
 20
14.01300835897548
 30
0.0
 10
195.9214376600118
 20
14.01719117422245
 30
0.0
 10
195.9806839874849
 20
14.00823089251985
 30
0.0
 10
196.0371265937033
 20
14.02164434526064
 30
0.0
 10
196.0246255586954
 20
13.97087198613364
 30
0.0
 10
196.0329549635703
 20
13.9258932093907
 30
0.0
 10
196.024817084112
 20
13.88056752990491
 30
0.0
 10
196.0370529214457
 20
13.82931932408469
 30
0.0
 10
195.9747773490333
 20
13.84447955365279
 30
0.0
 10
195.9060513026868
 20
13.83359750710746
 30
0.0
 10
195.7782756749592
 20
13.83911304747975
 30
0.0
 10
195.6262984511643
 20
13.83700851253701
 30
0.0
 10
195.4502695972523
 20
13.83771002588476
 30
0.0
 10
195.2644431934287
 20
13.83745237531295
 30
0.0
 10
195.0786167437175
 20
13.83771005144606
 30
0.0
 10
194.9025880142168
 20
13.83700841847734
 30
0.0
 10
194.7506104154195
 20
13.83911332229992
 30
0.0
 10
194.6228357664554
 20
13.83359680767643
 30
0.0
 10
194.5541077836581
 20
13.84448077125945
 30
0.0
 10
194.4918349042883
 20
13.82931786684212
 30
0.0
 10
194.5040616290017
 20
13.88057510805175
 30
0.0
 10
194.4960004462597
 20
13.92582473272428
 30
0.0
 10
194.5040675809893
 20
13.97106357955326
 30
0.0
 10
194.4918238487083
 20
14.02234176909961
 30
0.0
 10
194.5525017120697
 20
14.00749577363138
 30
0.0
 10
194.6162810745736
 20
14.01756448170738
 30
0.0
 10
194.7277314353502
 20
14.01294644212002
 30
0.0
 10
194.8497533443824
 20
14.01413328905472
 30
0.0
 10
194.9719538137823
 20
14.01515863900637
 30
0.0
 10
195.0829794287392
 20
14.01092475623404
 30
0.0
 10
195.1476517413958
 20
14.02018584521742
 30
0.0
 10
195.2091162810501
 20
14.00604423049685
 30
0.0
 10
195.1930065601337
 20
14.0723552788452
 30
0.0
 10
195.2042980327358
 20
14.14447790121978
 30
0.0
 10
195.198740082256
 20
14.27513760888289
 30
0.0
 10
195.200803506169
 20
14.42607323708244
 30
0.0
 10
195.2000167127295
 20
14.59335873107889
 30
0.0
 10
195.2007845215627
 20
14.76061110332305
 30
0.0
 10
195.1988038785628
 20
14.91163289269917
 30
0.0
 10
195.2041306156621
 20
15.04206069552998
 30
0.0
 10
195.1933101388425
 20
15.11465442605902
 30
0.0
 10
195.2090326429876
 20
15.18150469436801
 30
0.0
 10
195.143270813249
 20
15.16580512490827
 30
0.0
 10
195.0756367830764
 20
15.17609243083998
 30
0.0
 10
194.9615885293809
 20
15.17113786847125
 30
0.0
 10
194.8451242674902
 20
15.17414128030478
 30
0.0
 10
194.7306554121477
 20
15.16880303143391
 30
0.0
 10
194.6640324657812
 20
15.18001268074828
 30
0.0
 10
194.5990769715186
 20
15.16349132665014
 30
0.0
 10
194.6107989758707
 20
15.21473720477062
 30
0.0
 10
194.6032830189121
 20
15.25950333784094
 30
0.0
 10
194.6107989878835
 20
15.30426944897965
 30
0.0
 10
194.5990769505346
 20
15.35551536129744
 30
0.0
 10
194.66403263392
 20
15.33899381766818
 30
0.0
 10
194.7306533339821
 20
15.35020571373946
 30
0.0
 10
194.8451352858063
 20
15.34485436710668
 30
0.0
 10
194.9615454436962
 20
15.3479118877112
 30
0.0
 10
195.0757660174641
 20
15.34278499010711
 30
0.0
 10
195.1430150439226
 20
15.35345733355601
 30
0.0
 10
195.2083325941438
 20
15.3374208266908
 30
0.0
 10
195.1941391448553
 20
15.39949685750057
 30
0.0
 10
195.2036059462995
 20
15.46586761628765
 30
0.0
 10
195.1990269004085
 20
15.58239972741969
 30
0.0
 10
195.2007696555948
 20
15.71426685022379
 30
0.0
 10
195.1997551495391
 20
15.85615960150276
 30
0.0
 10
195.2017191344373
 20
15.98769050702583
 30
0.0
 10
195.196466855385
 20
16.10524577283005
 30
0.0
 10
195.2073408763475
 20
16.16947789001587
 30
0.0
 10
195.1919536641853
 20
16.2310880254505
 30
0.0
 10
195.24075915378
 20
16.21702407382113
 30
0.0
 10
195.2853995564726
 20
16.21954742075317
 30
0.0
 10
195.3538643946742
 20
16.21512797401713
 30
0.0
 10
195.3959106169102
 20
16.20613025544038
 30
0.0
 10
195.4487544758775
 20
16.21411714866514
 30
0.0
 10
195.4207035002014
 20
16.17113917611676
 30
0.0
 10
195.3749142248594
 20
16.18259552043839
 30
0.0
 10
195.3869539073265
 20
16.12173520005139
 30
0.0
 10
195.3796086070641
 20
16.05769299468776
 30
0.0
 10
195.3831195826162
 20
15.94909368863913
 30
0.0
 10
195.3819806760173
 20
15.82494319144755
 30
0.0
 10
195.3819174780262
 20
15.69189719829881
 30
0.0
 10
195.3832872966868
 20
15.56797381249558
 30
0.0
 10
195.3791638801313
 20
15.45868337849341
 30
0.0
 10
195.3877763103564
 20
15.39608580094173
 30
0.0
 10
195.3746757454402
 20
15.33740133296368
 30
0.0
 10
195.4393884328198
 20
15.35362113810905
 30
0.0
 10
195.5060405953156
 20
15.34270260383314
 30
0.0
 10
195.6198779541103
 20
15.34793740173759
 30
0.0
 10
195.7357259122097
 20
15.34485547516916
 30
0.0
 10
195.849692426328
 20
15.35018259812515
 30
0.0
 10
195.9160341018099
 20
15.33904208166545
 30
0.0
 10
195.980718852548
 20
15.35546979593181
 30
0.0
 10
195.9689820772722
 20
15.30425925210053
 30
0.0
 10
195.9765168063041
 20
15.25950334121004
 30
0.0
 10
195.9689820992257
 20
15.2147473901003
 30
0.0
 10
195.9807188140737
 20
15.16353690871043
 30
0.0
 10
195.9160344075252
 20
15.17996427794223
 30
0.0
 10
195.8496886430824
 20
15.16882784447272
 30
0.0
 10
195.7357459487012
 20
15.17413115893123
 30
0.0
 10
195.6197995623054
 20
15.17114764593547
 30
0.0
 10
195.5062756882122
 20
15.17606892268396
 30
0.0
 10
195.4389231318804
 20
15.16585087513523
 30
0.0
 10
195.3734285122495
 20
15.18145996138818
 30
0.0
 10
195.3891713619218
 20
15.11463851827414
 30
0.0
 10
195.3783275998212
 20
15.04207057815881
 30
0.0
 10
195.3836581629792
 20
14.91162247614419
 30
0.0
 10
195.3817136151854
 20
14.76064558185229
 30
0.0
 10
195.3823133683214
 20
14.59322243934161
 30
0.0
 10
195.3821506559604
 20
14.42656176118374
 30
0.0
 10
195.3821895488136
 20
14.27360142921638
 30
0.0
 10
195.38218164131
 20
14.14849178985708
 30
0.0
 10
195.3821828382744
 20
14.06507890991422
 30
0.0
 10
195.3821827716208
 20
14.02491778281978
 30
0.0
 10
195.3821827564383
 20
14.0141051738576
 30
0.0
 11
195.3821827564383
 21
14.0141051738576
 31
0.0
 11
195.4100014883675
 21
14.0141051738576
 31
0.0
 11
195.4833417816353
 21
14.0141051738576
 31
0.0
 11
195.5870297824622
 21
14.0141051738576
 31
0.0
 11
195.7058916370687
 21
14.0141051738576
 31
0.0
 11
195.8247534916751
 21
14.0141051738576
 31
0.0
 11
195.928441492502
 21
14.0141051738576
 31
0.0
 11
196.0017817857698
 21
14.0141051738576
 31
0.0
 11
196.029600517699
 21
14.0141051738576
 31
0.0
 11
196.029600517699
 21
13.98651684921172
 31
0.0
 11
196.029600517699
 21
13.9258225349908
 31
0.0
 11
196.029600517699
 21
13.86512822076988
 31
0.0
 11
196.029600517699
 21
13.837539896124
 31
0.0
 11
195.9994901593494
 21
13.837539896124
 31
0.0
 11
195.9162438745004
 21
13.837539896124
 31
0.0
 11
195.7904888484521
 21
13.837539896124
 31
0.0
 11
195.6328522665041
 21
13.837539896124
 31
0.0
 11
195.4539613139564
 21
13.837539896124
 31
0.0
 11
195.2644431761089
 21
13.837539896124
 31
0.0
 11
195.0749250382613
 21
13.837539896124
 31
0.0
 11
194.8960340857136
 21
13.837539896124
 31
0.0
 11
194.7383975037656
 21
13.837539896124
 31
0.0
 11
194.6126424777172
 21
13.837539896124
 31
0.0
 11
194.5293961928683
 21
13.837539896124
 31
0.0
 11
194.4992858345187
 21
13.837539896124
 31
0.0
 11
194.4992858345187
 21
13.86512822076988
 31
0.0
 11
194.4992858345187
 21
13.9258225349908
 31
0.0
 11
194.4992858345187
 21
13.98651684921172
 31
0.0
 11
194.4992858345187
 21
14.0141051738576
 31
0.0
 11
194.5294068064947
 21
14.0141051738576
 31
0.0
 11
194.608816641704
 21
14.0141051738576
 31
0.0
 11
194.721085719069
 21
14.0141051738576
 31
0.0
 11
194.8497844175118
 21
14.0141051738576
 31
0.0
 11
194.9784831159545
 21
14.0141051738576
 31
0.0
 11
195.0907521933195
 21
14.0141051738576
 31
0.0
 11
195.1701620285289
 21
14.0141051738576
 31
0.0
 11
195.2002830005048
 21
14.0141051738576
 31
0.0
 11
195.2002830005048
 21
14.04654305523838
 31
0.0
 11
195.2002830005048
 21
14.13458873327193
 31
0.0
 11
195.2002830005048
 21
14.26434025879505
 31
0.0
 11
195.2002830005048
 21
14.42189568264457
 31
0.0
 11
195.2002830005048
 21
14.59335305565726
 31
0.0
 11
195.2002830005048
 21
14.76481042866997
 31
0.0
 11
195.2002830005048
 21
14.92236585251948
 31
0.0
 11
195.2002830005048
 21
15.0521173780426
 31
0.0
 11
195.2002830005048
 21
15.14016305607615
 31
0.0
 11
195.2002830005048
 21
15.17260093745693
 31
0.0
 11
195.1673826485529
 21
15.17260093745693
 31
0.0
 11
195.0825343724662
 21
15.17260093745693
 31
0.0
 11
194.9665173418988
 21
15.17260093745693
 31
0.0
 11
194.8401107265044
 21
15.17260093745693
 31
0.0
 11
194.724093695937
 21
15.17260093745693
 31
0.0
 11
194.6392454198503
 21
15.17260093745693
 31
0.0
 11
194.6063450678984
 21
15.17260093745693
 31
0.0
 11
194.6063450678984
 21
15.19975793614806
 31
0.0
 11
194.6063450678984
 21
15.25950333326853
 31
0.0
 11
194.6063450678984
 21
15.31924873038901
 31
0.0
 11
194.6063450678984
 21
15.34640572908013
 31
0.0
 11
194.6392454198504
 21
15.34640572908013
 31
0.0
 11
194.724093695937
 21
15.34640572908013
 31
0.0
 11
194.8401107265044
 21
15.34640572908013
 31
0.0
 11
194.9665173418988
 21
15.34640572908013
 31
0.0
 11
195.0825343724662
 21
15.34640572908013
 31
0.0
 11
195.1673826485529
 21
15.34640572908013
 31
0.0
 11
195.2002830005048
 21
15.34640572908013
 31
0.0
 11
195.2002830005048
 21
15.37650011731373
 31
0.0
 11
195.2002830005048
 21
15.45715307777976
 31
0.0
 11
195.2002830005048
 21
15.57391930412612
 31
0.0
 11
195.2002830005048
 21
15.71235349000066
 31
0.0
 11
195.2002830005048
 21
15.85801032905126
 31
0.0
 11
195.2002830005048
 21
15.99644451492581
 31
0.0
 11
195.2002830005048
 21
16.11321074127217
 31
0.0
 11
195.2002830005048
 21
16.1938637017382
 31
0.0
 11
195.2002830005048
 21
16.2239580899718
 31
0.0
 11
195.2250405288618
 21
16.22228324219444
 31
0.0
 11
195.2840777118669
 21
16.21828937441768
 31
0.0
 11
195.3545414464214
 21
16.21352249997444
 31
0.0
 11
195.4135786294265
 21
16.20952863219767
 31
0.0
 11
195.4383361577835
 21
16.20785378442032
 31
0.0
 11
195.423306722403
 21
16.18415814206512
 31
0.0
 11
195.3821827564383
 21
16.17047697887406
 31
0.0
 11
195.3821827564383
 21
16.14221664794834
 31
0.0
 11
195.3821827564383
 21
16.06647896106742
 31
0.0
 11
195.3821827564383
 21
15.95682887707563
 31
0.0
 11
195.3821827564383
 21
15.82683135481733
 31
0.0
 11
195.3821827564383
 21
15.69005135313686
 31
0.0
 11
195.3821827564383
 21
15.56005383087856
 31
0.0
 11
195.3821827564383
 21
15.45040374688677
 31
0.0
 11
195.3821827564383
 21
15.37466606000585
 31
0.0
 11
195.3821827564383
 21
15.34640572908013
 31
0.0
 11
195.4149350096115
 21
15.34640572908013
 31
0.0
 11
195.4994013467422
 21
15.34640572908013
 31
0.0
 11
195.6148961342476
 21
15.34640572908013
 31
0.0
 11
195.7407337385445
 21
15.34640572908013
 31
0.0
 11
195.8562285260498
 21
15.34640572908013
 31
0.0
 11
195.9406948631806
 21
15.34640572908013
 31
0.0
 11
195.9734471163538
 21
15.34640572908013
 31
0.0
 11
195.9734471163538
 21
15.319248730389
 31
0.0
 11
195.9734471163538
 21
15.25950333326853
 31
0.0
 11
195.9734471163538
 21
15.19975793614806
 31
0.0
 11
195.9734471163538
 21
15.17260093745693
 31
0.0
 11
195.9406948631806
 21
15.17260093745693
 31
0.0
 11
195.8562285260498
 21
15.17260093745693
 31
0.0
 11
195.7407337385445
 21
15.17260093745693
 31
0.0
 11
195.6148961342476
 21
15.17260093745693
 31
0.0
 11
195.4994013467422
 21
15.17260093745693
 31
0.0
 11
195.4149350096114
 21
15.17260093745693
 31
0.0
 11
195.3821827564383
 21
15.17260093745693
 31
0.0
 11
195.3821827564383
 21
15.14016305607615
 31
0.0
 11
195.3821827564383
 21
15.0521173780426
 31
0.0
 11
195.3821827564383
 21
14.92236585251948
 31
0.0
 11
195.3821827564383
 21
14.76481042866997
 31
0.0
 11
195.3821827564383
 21
14.59335305565727
 31
0.0
 11
195.3821827564383
 21
14.42189568264456
 31
0.0
 11
195.3821827564383
 21
14.26434025879506
 31
0.0
 11
195.3821827564383
 21
14.13458873327193
 31
0.0
 11
195.3821827564383
 21
14.04654305523838
 31
0.0
 11
195.3821827564383
 21
14.0141051738576
 31
0.0
  0
SPLINE
  5
A4
102
{ACAD_REACTORS
330
C1
102
}
330
48
100
AcDbEntity
  8
_U_30EC_U_30A4_U_30E4_U_30FC_1
  6
Continuous
 62
     2
100
AcDbSpline
210
0.0
220
0.0
230
1.0
 70
    11
 71
     3
 72
   131
 73
   127
 74
   125
 42
0.000000001
 43
0.0000000001
 44
0.00000001
 40
0.0
 40
0.0
 40
0.0
 40
0.0
 40
0.0195577029826086
 40
0.0426490537461338
 40
0.2863607575856525
 40
0.5344948436189296
 40
0.7842238845573223
 40
0.8737315789467378
 40
0.9803832810312875
 40
1.092842274517031
 40
1.199761146656788
 40
1.289788768186494
 40
1.351573580786189
 40
1.370727117561415
 40
1.416400936017829
 40
1.470914848355969
 40
1.51658866679176
 40
1.535742203552841
 40
1.634216592293189
 40
1.760283341175026
 40
1.897966686682085
 40
2.031216387368906
 40
2.049689751137902
 40
2.101115601646836
 40
2.179502577739953
 40
2.278859318314068
 40
2.393194462258722
 40
2.516516648383833
 40
2.642834515405961
 40
2.766156701983464
 40
2.880491846754575
 40
2.979848588358618
 40
3.058235565443793
 40
3.109661416668946
 40
3.128134780704123
 40
3.14678374238644
 40
3.191254343315301
 40
3.24433215731596
 40
3.288802758225863
 40
3.307451719895106
 40
3.327717853844718
 40
3.383747753580078
 40
3.468388665924472
 40
3.574487837698776
 40
3.694892515728882
 40
3.82244994685202
 40
3.950007377920409
 40
4.070412055800499
 40
4.176511227368055
 40
4.261152139501503
 40
4.317182039076695
 40
4.337448172964615
 40
4.620011002696227
 40
4.885096638397501
 40
4.945373043518318
 40
5.014107710488631
 40
5.070481727652031
 40
5.319246955636555
 40
5.584812164506027
 40
5.859000912056877
 40
6.133746937542059
 40
6.401732212968864
 40
6.420736683995455
 40
6.472845717451105
 40
6.550702743894033
 40
6.646951193874242
 40
6.754234497930566
 40
6.865196086587344
 40
6.972479390357802
 40
7.068727839771964
 40
7.146584865450973
 40
7.198693898189203
 40
7.217698368905343
 40
7.23495040163082
 40
7.276089864269866
 40
7.325191803515977
 40
7.366331266090362
 40
7.383583298769714
 40
7.402779163492091
 40
7.453386443254522
 40
7.524934666445524
 40
7.606953361405863
 40
7.688972056429015
 40
7.760520279784266
 40
7.811127559734508
 40
7.830323424546129
 40
7.847844055299757
 40
7.8947993456668
 40
7.962779392744488
 40
8.043374293560536
 40
8.128174145149442
 40
8.208769044817243
 40
8.276749090376947
 40
8.32370437966951
 40
8.34122501005624
 40
8.358497614800388
 40
8.401679126686593
 40
8.457815092185651
 40
8.513951057728056
 40
8.557132569708012
 40
8.574405174505054
 40
8.602340668616419
 40
8.643455660539962
 40
8.66322527196663
 40
8.715345156564274
 40
8.789031889628612
 40
8.87350204552034
 40
8.957972194323965
 40
9.031658925567855
 40
9.083778811234543
 40
9.103548423003007
 40
9.119550083123544
 40
9.160817522379846
 40
9.217244429110211
 40
9.278724491644697
 40
9.335151398295482
 40
9.376418837357777
 40
9.392420497300565
 40
9.401196302734784
 40
9.417494229384259
 40
9.426270027749531
 40
9.440875075477564
 40
9.475702496998746
 40
9.51727070986591
 40
9.55209813199408
 40
9.56670316988429
 40
9.56670316988429
 40
9.56670316988429
 40
9.56670316988429
 10
194.6170254148479
 20
15.67015871511029
 30
0.0
 10
194.613434509337
 20
15.66453690702161
 30
0.0
 10
194.6056039123625
 20
15.65227754419115
 30
0.0
 10
194.5129968974543
 20
15.61601916040979
 30
0.0
 10
194.4887622233248
 20
15.40148444212716
 30
0.0
 10
194.3858709845938
 20
15.22197284509711
 30
0.0
 10
194.1220492364305
 20
15.03615573798147
 30
0.0
 10
194.284547156918
 20
14.95959336566083
 30
0.0
 10
194.3607225760838
 20
14.89856693195445
 30
0.0
 10
194.4492171072758
 20
14.83515804544762
 30
0.0
 10
194.5389930233111
 20
14.77525634219564
 30
0.0
 10
194.5883817636046
 20
14.72102154849211
 30
0.0
 10
194.6745708157382
 20
14.69286240541837
 30
0.0
 10
194.6411260674229
 20
14.65713309652815
 30
0.0
 10
194.6214671166312
 20
14.62550387991909
 30
0.0
 10
194.5919888217881
 20
14.58475872796072
 30
0.0
 10
194.5688989446031
 20
14.55504663489647
 30
0.0
 10
194.5380205968356
 20
14.50211422668497
 30
0.0
 10
194.472919336574
 20
14.62740334938904
 30
0.0
 10
194.3796000122414
 20
14.68213900233937
 30
0.0
 10
194.2950636285139
 20
14.73916423939346
 30
0.0
 10
194.1722498125742
 20
14.89675287427525
 30
0.0
 10
194.1764450847301
 20
14.82035806766838
 30
0.0
 10
194.1751478652677
 20
14.77361280161298
 30
0.0
 10
194.1758126448076
 20
14.69584785812603
 30
0.0
 10
194.1755549986956
 20
14.59902068324425
 30
0.0
 10
194.1756431239922
 20
14.48650279078811
 30
0.0
 10
194.1756077302281
 20
14.36524085945702
 30
0.0
 10
194.1756511758279
 20
14.24086897858964
 30
0.0
 10
194.1755199942406
 20
14.11967683631339
 30
0.0
 10
194.1759477562046
 20
14.00691148919746
 30
0.0
 10
194.174667820231
 20
13.91082913768746
 30
0.0
 10
194.1779759851044
 20
13.83113826468703
 30
0.0
 10
194.1715197740085
 20
13.78815175788786
 30
0.0
 10
194.1806208705556
 20
13.74955432372046
 30
0.0
 10
194.1447910339934
 20
13.75810887724073
 30
0.0
 10
194.1115223815252
 20
13.7534251998545
 30
0.0
 10
194.0604562576041
 20
13.75351298759787
 30
0.0
 10
194.0269723972812
 20
13.75794430283824
 30
0.0
 10
193.9907585408754
 20
13.74960793842513
 30
0.0
 10
194.0009782568665
 20
13.79145277179287
 30
0.0
 10
193.9936487887773
 20
13.83778560820177
 30
0.0
 10
193.9973633136103
 20
13.92374831106017
 30
0.0
 10
193.9959480554896
 20
14.02605142704852
 30
0.0
 10
193.9964105554638
 20
14.14453223931515
 30
0.0
 10
193.996277368623
 20
14.26957683153359
 30
0.0
 10
193.9963015910045
 20
14.39475828107052
 30
0.0
 10
193.9963354925551
 20
14.51286645379061
 30
0.0
 10
193.9962060293132
 20
14.61628748709519
 30
0.0
 10
193.9965507549082
 20
14.6993203615367
 30
0.0
 10
193.995869827869
 20
14.75143368521246
 30
0.0
 10
193.9994586600623
 20
14.87912907821363
 30
0.0
 10
193.7826171386436
 20
14.58048716819623
 30
0.0
 10
193.6021354921951
 20
14.35263981511518
 30
0.0
 10
193.5490322295611
 20
14.49373443289816
 30
0.0
 10
193.5200429133149
 20
14.54325767560946
 30
0.0
 10
193.419664806282
 20
14.64641779790109
 30
0.0
 10
193.7405127723261
 20
14.72695035023782
 30
0.0
 10
193.8689897005429
 20
14.91066283036437
 30
0.0
 10
194.0906454325358
 20
15.11931995771765
 30
0.0
 10
194.1770224894068
 20
15.29339211228346
 30
0.0
 10
194.4549394229075
 20
15.56967051342515
 30
0.0
 10
194.3346247839283
 20
15.56534559551116
 30
0.0
 10
194.2863197351349
 20
15.56614856202556
 30
0.0
 10
194.2102377454905
 20
15.56574582146587
 30
0.0
 10
194.116701000975
 20
15.56590275611612
 30
0.0
 10
194.0117594788557
 20
15.56582502576227
 30
0.0
 10
193.9033887738717
 20
15.56595464378557
 30
0.0
 10
193.7981454235897
 20
15.56554393490694
 30
0.0
 10
193.7056237819412
 20
15.56682073671594
 30
0.0
 10
193.6268130800707
 20
15.56340766534853
 30
0.0
 10
193.5839674565379
 20
15.57023350036323
 30
0.0
 10
193.5449499586516
 20
15.56065064201126
 30
0.0
 10
193.5526365271863
 20
15.59420779565546
 30
0.0
 10
193.5485464404312
 20
15.62523550322235
 30
0.0
 10
193.5485531368814
 20
15.67236529270903
 30
0.0
 10
193.5526239724911
 20
15.70340941646781
 30
0.0
 10
193.5449495574583
 20
15.73701861635905
 30
0.0
 10
193.5834819405494
 20
15.72748410420875
 30
0.0
 10
193.624122801448
 20
15.73397435498074
 30
0.0
 10
193.6951471850463
 20
15.73100150650257
 30
0.0
 10
193.7729318149633
 20
15.7317476139916
 30
0.0
 10
193.8507292246474
 20
15.73247814044529
 30
0.0
 10
193.9217232089908
 20
15.72954235514163
 30
0.0
 10
193.9624279791819
 20
15.73595468772955
 30
0.0
 10
194.0009853489909
 20
15.72650524176007
 30
0.0
 10
193.9927342754928
 20
15.76264692158788
 30
0.0
 10
193.9982346669358
 20
15.8012983761323
 30
0.0
 10
193.9955754206163
 20
15.86913528561842
 30
0.0
 10
193.9965815471532
 20
15.94591641538743
 30
0.0
 10
193.996017801832
 20
16.0284939358276
 30
0.0
 10
193.9970714526593
 20
16.10517329229881
 30
0.0
 10
193.994267586313
 20
16.17331990776703
 30
0.0
 10
194.0000702721303
 20
16.21132399809349
 30
0.0
 10
193.9915654551159
 20
16.24758448077649
 30
0.0
 10
194.0255610233125
 20
16.23755723771855
 30
0.0
 10
194.0594575683099
 20
16.2407326681371
 30
0.0
 10
194.1126669060346
 20
16.23508965640612
 30
0.0
 10
194.1660768574482
 20
16.23434774436428
 30
0.0
 10
194.1995914649491
 20
16.22819223482984
 30
0.0
 10
194.2388086183039
 20
16.23346029773596
 30
0.0
 10
194.2120263698491
 20
16.19253380793492
 30
0.0
 10
194.1708111001724
 20
16.20371204538114
 30
0.0
 10
194.1782641540874
 20
16.15867056192127
 30
0.0
 10
194.1742227952184
 20
16.11412278028147
 30
0.0
 10
194.1761714049641
 20
16.04223572621706
 30
0.0
 10
194.1752364849758
 20
15.96168630588773
 30
0.0
 10
194.176510719003
 20
15.88173995404998
 30
0.0
 10
194.1732043793864
 20
15.80841837083185
 30
0.0
 10
194.1802106179961
 20
15.76688643002571
 30
0.0
 10
194.1701440380125
 20
15.72752418568115
 30
0.0
 10
194.2029814803921
 20
15.73468063430985
 30
0.0
 10
194.236457729648
 20
15.73027243137947
 30
0.0
 10
194.2915053476019
 20
15.73217943347901
 30
0.0
 10
194.3489502595314
 20
15.73185366407291
 30
0.0
 10
194.4023026248309
 20
15.73106308733085
 30
0.0
 10
194.4398540896639
 20
15.73313959118077
 30
0.0
 10
194.4623172523237
 20
15.73022338167112
 30
0.0
 10
194.4751678073731
 20
15.73572552644059
 30
0.0
 10
194.4858255685888
 20
15.73801118197793
 30
0.0
 10
194.4986635650144
 20
15.74494972588056
 30
0.0
 10
194.514599103307
 20
15.72853046313674
 30
0.0
 10
194.5410623920891
 20
15.7170912231945
 30
0.0
 10
194.5726805253758
 20
15.69644687835194
 30
0.0
 10
194.5987255892151
 20
15.68116869628296
 30
0.0
 10
194.6128517723973
 20
15.67266976323186
 30
0.0
 10
194.6170254148479
 20
15.67015871511029
 30
0.0
 11
194.6170254148479
 21
15.67015871511029
 31
0.0
 11
194.6049990002243
 21
15.6547357116419
 31
0.0
 11
194.5848961795565
 21
15.64337406233921
 31
0.0
 11
194.4778986355813
 21
15.42440620231162
 31
0.0
 11
194.3477039934324
 21
15.21317201512163
 31
0.0
 11
194.1996540366071
 21
15.01206059027481
 31
0.0
 11
194.2734958253735
 21
14.96147384935381
 31
0.0
 11
194.36056643118
 21
14.89988411653742
 31
0.0
 11
194.4518003750404
 21
14.83413160594429
 31
0.0
 11
194.5381321779687
 21
14.77105653169308
 31
0.0
 11
194.6104963609787
 21
14.71749910790245
 31
0.0
 11
194.6598274450843
 21
14.68029954869107
 31
0.0
 11
194.6486940702213
 21
14.66471410869497
 31
0.0
 11
194.6221452532403
 21
14.62754882870426
 31
0.0
 11
194.5904579555533
 21
14.58319026871536
 31
0.0
 11
194.5639091385723
 21
14.54602498872465
 31
0.0
 11
194.5527757637093
 21
14.53043954872855
 31
0.0
 11
194.4807013362947
 21
14.5975400869062
 31
0.0
 11
194.385285698538
 21
14.67993354174672
 31
0.0
 11
194.279326415217
 21
14.76785017366918
 31
0.0
 11
194.175621051109
 21
14.85152024309269
 31
0.0
 11
194.175621051109
 21
14.83304687900865
 31
0.0
 11
194.175621051109
 21
14.78162102763957
 31
0.0
 11
194.175621051109
 21
14.70323405031001
 31
0.0
 11
194.175621051109
 21
14.60387730834451
 31
0.0
 11
194.175621051109
 21
14.48954216306763
 31
0.0
 11
194.175621051109
 21
14.36621997580392
 31
0.0
 11
194.175621051109
 21
14.23990210787793
 31
0.0
 11
194.175621051109
 21
14.11657992061421
 31
0.0
 11
194.175621051109
 21
14.00224477533733
 31
0.0
 11
194.175621051109
 21
13.90288803337183
 31
0.0
 11
194.175621051109
 21
13.82450105604226
 31
0.0
 11
194.175621051109
 21
13.77307520467319
 31
0.0
 11
194.175621051109
 21
13.75460184058915
 31
0.0
 11
194.1569720893626
 21
13.75460184058915
 31
0.0
 11
194.1125014882749
 21
13.75460184058915
 31
0.0
 11
194.0594236740736
 21
13.75460184058915
 31
0.0
 11
194.0149530729859
 21
13.75460184058915
 31
0.0
 11
193.9963041112395
 21
13.75460184058915
 31
0.0
 11
193.9963041112395
 21
13.77486797460222
 31
0.0
 11
193.9963041112395
 21
13.83089787452069
 31
0.0
 11
193.9963041112395
 21
13.91553878716351
 31
0.0
 11
193.9963041112395
 21
14.02163795934956
 31
0.0
 11
193.9963041112395
 21
14.14204263789778
 31
0.0
 11
193.9963041112395
 21
14.26960006962709
 31
0.0
 11
193.9963041112395
 21
14.39715750135639
 31
0.0
 11
193.9963041112395
 21
14.51756217990461
 31
0.0
 11
193.9963041112395
 21
14.62366135209066
 31
0.0
 11
193.9963041112395
 21
14.70830226473347
 31
0.0
 11
193.9963041112395
 21
14.76433216465195
 31
0.0
 11
193.9963041112395
 21
14.78459829866502
 31
0.0
 11
193.7883272849481
 21
14.59331998274059
 31
0.0
 11
193.5763486358425
 21
14.43414885430813
 31
0.0
 11
193.5495629014482
 21
14.48814671952097
 31
0.0
 11
193.5138765415024
 21
14.54689140572028
 31
0.0
 11
193.4799697494124
 21
14.59192871537979
 31
0.0
 11
193.6830287742319
 21
14.73563387201057
 31
0.0
 11
193.881853195826
 21
14.91168423529991
 31
0.0
 11
194.0677041444178
 21
15.11327514524952
 31
0.0
 11
194.2318427502303
 21
15.33360194186112
 31
0.0
 11
194.3655301434864
 21
15.56585996513638
 31
0.0
 11
194.3465256724482
 21
15.56585996513638
 31
0.0
 11
194.2944166389562
 21
15.56585996513638
 31
0.0
 11
194.2165596124447
 21
15.56585996513638
 31
0.0
 11
194.1203111623478
 21
15.56585996513638
 31
0.0
 11
194.0130278580997
 21
15.56585996513638
 31
0.0
 11
193.9020662691345
 21
15.56585996513638
 31
0.0
 11
193.7947829648864
 21
15.56585996513638
 31
0.0
 11
193.6985345147895
 21
15.56585996513638
 31
0.0
 11
193.620677488278
 21
15.56585996513638
 31
0.0
 11
193.568568454786
 21
15.56585996513638
 31
0.0
 11
193.5495639837478
 21
15.56585996513638
 31
0.0
 11
193.5495639837478
 21
15.58311199790984
 31
0.0
 11
193.5495639837478
 21
15.62425146067734
 31
0.0
 11
193.5495639837478
 21
15.67335340010952
 31
0.0
 11
193.5495639837478
 21
15.71449286287701
 31
0.0
 11
193.5495639837478
 21
15.73174489565048
 31
0.0
 11
193.5687598486009
 21
15.73174489565048
 31
0.0
 11
193.6193671286684
 21
15.73174489565048
 31
0.0
 11
193.690915352212
 21
15.73174489565048
 31
0.0
 11
193.7729340474937
 21
15.73174489565048
 31
0.0
 11
193.8549527427753
 21
15.73174489565048
 31
0.0
 11
193.9265009663189
 21
15.73174489565048
 31
0.0
 11
193.9771082463864
 21
15.73174489565048
 31
0.0
 11
193.9963041112395
 21
15.73174489565048
 31
0.0
 11
193.9963041112395
 21
15.74926552655221
 31
0.0
 11
193.9963041112395
 21
15.79622081736885
 31
0.0
 11
193.9963041112395
 21
15.86420086526756
 31
0.0
 11
193.9963041112395
 21
15.94479576741552
 31
0.0
 11
193.9963041112395
 21
16.02959562097989
 31
0.0
 11
193.9963041112395
 21
16.11019052312785
 31
0.0
 11
193.9963041112395
 21
16.17817057102657
 31
0.0
 11
193.9963041112395
 21
16.2251258618432
 31
0.0
 11
193.9963041112395
 21
16.24264649274493
 31
0.0
 11
194.0135484112111
 21
16.24165806167522
 31
0.0
 11
194.0566591611401
 21
16.23918698400094
 31
0.0
 11
194.1127031360477
 21
16.23597458302439
 31
0.0
 11
194.1687471109553
 21
16.23276218204783
 31
0.0
 11
194.2118578608843
 21
16.23029110437355
 31
0.0
 11
194.2291021608559
 21
16.22930267330384
 31
0.0
 11
194.2143774674851
 21
16.20556293372643
 31
0.0
 11
194.175621051109
 21
16.19183767331315
 31
0.0
 11
194.175621051109
 21
16.17206806177296
 31
0.0
 11
194.175621051109
 21
16.11994817680336
 31
0.0
 11
194.175621051109
 21
16.04626144288082
 31
0.0
 11
194.175621051109
 21
15.96179128448182
 31
0.0
 11
194.175621051109
 21
15.87732112608281
 31
0.0
 11
194.175621051109
 21
15.80363439216027
 31
0.0
 11
194.175621051109
 21
15.75151450719067
 31
0.0
 11
194.175621051109
 21
15.73174489565048
 31
0.0
 11
194.1916227112935
 21
15.73174489565048
 31
0.0
 11
194.232890150717
 21
15.73174489565048
 31
0.0
 11
194.2893170576837
 21
15.73174489565048
 31
0.0
 11
194.3507971204981
 21
15.73174489565048
 31
0.0
 11
194.4072240274648
 21
15.73174489565048
 31
0.0
 11
194.4484914668882
 21
15.73174489565048
 31
0.0
 11
194.4644931270728
 21
15.73174489565048
 31
0.0
 11
194.4728206422924
 21
15.73451387455924
 31
0.0
 11
194.4882860277004
 21
15.73965626396121
 31
0.0
 11
194.49661354292
 21
15.74242524286997
 31
0.0
 11
194.5091363776005
 21
15.73490952398296
 31
0.0
 11
194.5389985218386
 21
15.71698742509856
 31
0.0
 11
194.5746404359293
 21
15.6955965328817
 31
0.0
 11
194.6045025801674
 21
15.6776744339973
 31
0.0
 11
194.6170254148479
 21
15.67015871511029
 31
0.0
  0
SPLINE
  5
A5
102
{ACAD_REACTORS
330
C2
102
}
330
48
100
AcDbEntity
  8
_U_30EC_U_30A4_U_30E4_U_30FC_1
  6
Continuous
 62
     2
100
AcDbSpline
210
0.0
220
0.0
230
1.0
 70
    11
 71
     3
 72
    91
 73
    87
 74
    85
 42
0.000000001
 43
0.0000000001
 44
0.00000001
 40
0.0
 40
0.0
 40
0.0
 40
0.0
 40
0.0267532254356701
 40
0.0856103386464102
 40
0.1444674521996621
 40
0.1712206856618514
 40
0.2039416005642536
 40
0.2955601971652484
 40
0.4362601844616918
 40
0.616225284450725
 40
0.8256392189704698
 40
1.054685709844411
 40
1.293548478893531
 40
1.532411247938303
 40
1.761457738799568
 40
1.970871673298537
 40
2.150836773256732
 40
2.291536760495593
 40
2.3831553568367
 40
2.41587628410132
 40
2.442629517487961
 40
2.501486630949095
 40
2.560343744424244
 40
2.587096977826515
 40
2.617068194440942
 40
2.699247336756083
 40
2.822032643466396
 40
2.973822353257925
 40
3.143014704823368
 40
3.318007936879947
 40
3.48720028818678
 40
3.63898999754826
 40
3.761775303794759
 40
3.843954445753094
 40
3.87392566222979
 40
3.890812773500496
 40
3.907699884771674
 40
3.937960767857287
 40
3.980983618142319
 40
4.199085915228463
 40
4.439444339237253
 40
4.677588241260899
 40
5.050698317837785
 40
5.448212454763171
 40
5.855291218044696
 40
6.138575438885361
 40
6.417434507584214
 40
6.444551104393896
 40
6.504207617363194
 40
6.563864130314516
 40
6.590980727104109
 40
6.848609460381493
 40
7.109611990668451
 40
7.352910904446114
 40
7.557830220705485
 40
7.587518925913405
 40
7.652834077375824
 40
7.718149228845763
 40
7.747837934062068
 40
7.85488019030103
 40
7.976511257403577
 40
8.369487896592378
 40
8.757514959223672
 40
9.126072419331134
 40
9.460639380392196
 40
9.746695593035938
 40
9.777569943118714
 40
9.807050320931813
 40
9.830377336128947
 40
9.88600329543602
 40
9.952395569429932
 40
10.00802152870628
 40
10.03134854388221
 40
10.21356951009591
 40
10.42203479292874
 40
10.66154556731066
 40
10.91693789564308
 40
11.15832906556569
 40
11.18982674596626
 40
11.27286608520411
 40
11.39026653033353
 40
11.52484752840889
 40
11.65942852648451
 40
11.77682897161487
 40
11.85986831085686
 40
11.89136598230431
 40
11.89136598230431
 40
11.89136598230431
 40
11.89136598230431
 10
190.7027885008196
 20
14.70699600701775
 30
0.0
 10
190.7028237765288
 20
14.71587847311988
 30
0.0
 10
190.7029366710796
 20
14.74430237047349
 30
0.0
 10
190.7012984568489
 20
14.79409639169806
 30
0.0
 10
190.7069750292911
 20
14.83657564478157
 30
0.0
 10
190.6956928731706
 20
14.8873015485685
 30
0.0
 10
190.7632296979031
 20
14.87012900740112
 30
0.0
 10
190.83880292107
 20
14.88290227165999
 30
0.0
 10
190.9828357056
 20
14.87629729457384
 30
0.0
 10
191.1569419185427
 20
14.87888462206469
 30
0.0
 10
191.3639599611003
 20
14.87800591955556
 30
0.0
 10
191.5894688172378
 20
14.87828207920031
 30
0.0
 10
191.8251162293406
 20
14.87818339658665
 30
0.0
 10
192.0607640531348
 20
14.8782818441277
 30
0.0
 10
192.2862717580626
 20
14.87800678190792
 30
0.0
 10
192.4932934632805
 20
14.87888186270738
 30
0.0
 10
192.6673888915288
 20
14.8763052267845
 30
0.0
 10
192.8114492071986
 20
14.88288290449217
 30
0.0
 10
192.8869691915293
 20
14.87016243405607
 30
0.0
 10
192.9545776037029
 20
14.88726400191689
 30
0.0
 10
192.9430840140676
 20
14.83674785802944
 30
0.0
 10
192.9505104581732
 20
14.79253252226504
 30
0.0
 10
192.9428838927987
 20
14.74867966503613
 30
0.0
 10
192.9546489459424
 20
14.69878374479331
 30
0.0
 10
192.8930788491983
 20
14.71393227712515
 30
0.0
 10
192.8256791738672
 20
14.70310665350677
 30
0.0
 10
192.7013004056221
 20
14.70852031626239
 30
0.0
 10
192.555442823657
 20
14.70649205390787
 30
0.0
 10
192.3893576440085
 20
14.7071577757839
 30
0.0
 10
192.2188412621724
 20
14.70689643521245
 30
0.0
 10
192.0519790855388
 20
14.70721553391097
 30
0.0
 10
191.9087346827105
 20
14.70635302590765
 30
0.0
 10
191.7773313869835
 20
14.70863300482991
 30
0.0
 10
191.7239859134655
 20
14.70407704374205
 30
0.0
 10
191.6485188456913
 20
14.70999914992881
 30
0.0
 10
191.6769075779231
 20
14.70094169343356
 30
0.0
 10
191.7033652409543
 20
14.69725912268934
 30
0.0
 10
191.6633522907701
 20
14.66654271968277
 30
0.0
 10
191.5713663691868
 20
14.67667591174638
 30
0.0
 10
191.5439396207069
 20
14.43032502247788
 30
0.0
 10
191.4478793967234
 20
14.27499558764378
 30
0.0
 10
191.1917277964473
 20
13.94525417931571
 30
0.0
 10
191.7627537732763
 20
14.08430022210455
 30
0.0
 10
192.0173656320516
 20
14.08291779973366
 30
0.0
 10
192.6279647048617
 20
13.99790569242089
 30
0.0
 10
192.3340698578084
 20
14.29685417558206
 30
0.0
 10
192.0133304286516
 20
14.44330856901785
 30
0.0
 10
192.1313543360434
 20
14.50025540818291
 30
0.0
 10
192.1724716466261
 20
14.52420099873352
 30
0.0
 10
192.2156812394411
 20
14.54599758811234
 30
0.0
 10
192.317457409445
 20
14.60928721253906
 30
0.0
 10
192.4328867625247
 20
14.35147151408783
 30
0.0
 10
192.6329591642277
 20
14.21616041113686
 30
0.0
 10
192.7269077387228
 20
14.03792795138884
 30
0.0
 10
192.9558829746392
 20
13.87997821027052
 30
0.0
 10
192.8596031846708
 20
13.82915972576302
 30
0.0
 10
192.8167959763779
 20
13.79881292523057
 30
0.0
 10
192.7718243528779
 20
13.7746613028146
 30
0.0
 10
192.7121720925213
 20
13.7255214674757
 30
0.0
 10
192.6789731061324
 20
13.85997475673611
 30
0.0
 10
192.5582013350796
 20
14.01594265286584
 30
0.0
 10
192.1970976005978
 20
13.88569928059559
 30
0.0
 10
191.8385061955541
 20
13.90224694409486
 30
0.0
 10
191.4570920450081
 20
13.89331229351869
 30
0.0
 10
191.170345528289
 20
13.8288267167241
 30
0.0
 10
190.8592055599715
 20
13.94230668192829
 30
0.0
 10
190.8268737818788
 20
13.83122259927771
 30
0.0
 10
190.7896178253318
 20
13.81196313850016
 30
0.0
 10
190.7865737632754
 20
13.858747840873
 30
0.0
 10
190.7679892860607
 20
13.89806853919138
 30
0.0
 10
190.7512436616778
 20
13.95765983478235
 30
0.0
 10
190.7383730915753
 20
14.00201969871285
 30
0.0
 10
190.704232780643
 20
14.09106331120203
 30
0.0
 10
190.9482714457753
 20
14.02181042943772
 30
0.0
 10
191.1441394486671
 20
14.00030369057746
 30
0.0
 10
191.2395426381276
 20
14.28226484478465
 30
0.0
 10
191.2945135769597
 20
14.44363045421126
 30
0.0
 10
191.5159619357156
 20
14.71391177589741
 30
0.0
 10
191.3849239381216
 20
14.70548446853738
 30
0.0
 10
191.3110026555854
 20
14.70779008496973
 30
0.0
 10
191.1977459876244
 20
14.7067137832166
 30
0.0
 10
191.0694251807484
 20
14.70707639076513
 30
0.0
 10
190.9404252030415
 20
14.70697724466088
 30
0.0
 10
190.828784094629
 20
14.70699932712575
 30
0.0
 10
190.7514663970026
 20
14.70699579189673
 30
0.0
 10
190.713287653201
 20
14.70699595845084
 30
0.0
 10
190.7027885008196
 20
14.70699600701775
 30
0.0
 11
190.7027885008196
 21
14.70699600701775
 31
0.0
 11
190.7027885008196
 21
14.73374924051801
 31
0.0
 11
190.7027885008196
 21
14.79260635421856
 31
0.0
 11
190.7027885008196
 21
14.85146346791912
 31
0.0
 11
190.7027885008196
 21
14.87821670141938
 31
0.0
 11
190.7355094280989
 21
14.87821670141938
 31
0.0
 11
190.8271280244809
 21
14.87821670141938
 31
0.0
 11
190.9678280117818
 21
14.87821670141938
 31
0.0
 11
191.1477931118179
 21
14.87821670141938
 31
0.0
 11
191.3572070464054
 21
14.87821670141938
 31
0.0
 11
191.5862535373604
 21
14.87821670141938
 31
0.0
 11
191.8251163064992
 21
14.87821670141938
 31
0.0
 11
192.0639790756381
 21
14.87821670141938
 31
0.0
 11
192.2930255665931
 21
14.87821670141938
 31
0.0
 11
192.5024395011806
 21
14.87821670141938
 31
0.0
 11
192.6824046012167
 21
14.87821670141938
 31
0.0
 11
192.8231045885176
 21
14.87821670141938
 31
0.0
 11
192.9147231848996
 21
14.87821670141938
 31
0.0
 11
192.9474441121789
 21
14.87821670141938
 31
0.0
 11
192.9474441121789
 21
14.85146346791913
 31
0.0
 11
192.9474441121789
 21
14.79260635421856
 31
0.0
 11
192.9474441121789
 21
14.733749240518
 31
0.0
 11
192.9474441121789
 21
14.70699600701775
 31
0.0
 11
192.9174728954758
 21
14.70699600701775
 31
0.0
 11
192.8352937529027
 21
14.70699600701775
 31
0.0
 11
192.7125084457639
 21
14.70699600701775
 31
0.0
 11
192.5607187353642
 21
14.70699600701775
 31
0.0
 11
192.3915263830077
 21
14.70699600701775
 31
0.0
 11
192.2165331499991
 21
14.70699600701775
 31
0.0
 11
192.0473407976426
 21
14.70699600701775
 31
0.0
 11
191.8955510872428
 21
14.70699600701775
 31
0.0
 11
191.7727657801042
 21
14.70699600701775
 31
0.0
 11
191.690586637531
 21
14.70699600701775
 31
0.0
 11
191.6606154208279
 21
14.70699600701775
 31
0.0
 11
191.6766359412525
 21
14.70165583340797
 31
0.0
 11
191.6926564616771
 21
14.69631565979819
 31
0.0
 11
191.670615568142
 21
14.67558114591445
 31
0.0
 11
191.6284861855363
 21
14.66685871536113
 31
0.0
 11
191.5365235541377
 21
14.4690924731266
 31
0.0
 11
191.4279078521763
 21
14.25467511978512
 31
0.0
 11
191.3127500824807
 21
14.04622559051623
 31
0.0
 11
191.685736667502
 21
14.05582441253032
 31
0.0
 11
192.083070003615
 21
14.06781232404997
 31
0.0
 11
192.4899342191145
 21
14.08102711828535
 31
0.0
 11
192.2983119496978
 21
14.28966761302483
 31
0.0
 11
192.0966752013698
 21
14.48229420151836
 31
0.0
 11
192.1204947794749
 21
14.49525327269568
 31
0.0
 11
192.1728978513061
 21
14.52376322928579
 31
0.0
 11
192.2253009231374
 21
14.55227318587591
 31
0.0
 11
192.2491205012425
 21
14.56523225705323
 31
0.0
 11
192.4387101558627
 21
14.39079508370271
 31
0.0
 11
192.6200310940435
 21
14.20305846374094
 31
0.0
 11
192.7777729231147
 21
14.01782380992439
 31
0.0
 11
192.8966252504058
 21
13.85089253500952
 31
0.0
 11
192.8715408217923
 21
13.83501202286071
 31
0.0
 11
192.8163550788425
 21
13.80007489613335
 31
0.0
 11
192.7611693358928
 21
13.76513776940597
 31
0.0
 11
192.7360849072793
 21
13.74925725725717
 31
0.0
 11
192.6775518151612
 21
13.83887824681812
 31
0.0
 11
192.6050015078457
 21
13.93650288221035
 31
0.0
 11
192.2125412924095
 21
13.91636286943762
 31
0.0
 11
191.824947406956
 21
13.89803302999776
 31
0.0
 11
191.4567378976213
 21
13.88202178722398
 31
0.0
 11
191.1224308105412
 21
13.8688375644495
 31
0.0
 11
190.8365441918518
 21
13.85898878500753
 31
0.0
 11
190.821186232174
 21
13.83220523466698
 31
0.0
 11
190.7937434290546
 21
13.82143559057248
 31
0.0
 11
190.7867927192319
 21
13.8437029944558
 31
0.0
 11
190.7702179496548
 21
13.89680218833141
 31
0.0
 11
190.7504351601596
 21
13.96017864553779
 31
0.0
 11
190.7338603905825
 21
14.0132778394134
 31
0.0
 11
190.7269096807598
 21
14.03554524329672
 31
0.0
 11
190.9091199859153
 21
14.03751638912955
 31
0.0
 11
191.1174975848588
 21
14.04356211829474
 31
0.0
 11
191.2303203127216
 21
14.25483550301556
 31
0.0
 11
191.3407936722035
 21
14.48509813155882
 31
0.0
 11
191.4358254265627
 21
14.70699600701775
 31
0.0
 11
191.4043277461597
 21
14.70699600701775
 31
0.0
 11
191.3212884069153
 21
14.70699600701775
 31
0.0
 11
191.2038879617768
 21
14.70699600701775
 31
0.0
 11
191.0693069636912
 21
14.70699600701775
 31
0.0
 11
190.9347259656055
 21
14.70699600701775
 31
0.0
 11
190.817325520467
 21
14.70699600701775
 31
0.0
 11
190.7342861812226
 21
14.70699600701775
 31
0.0
 11
190.7027885008196
 21
14.70699600701775
 31
0.0
  0
SPLINE
  5
A6
102
{ACAD_REACTORS
330
C3
102
}
330
48
100
AcDbEntity
  8
_U_30EC_U_30A4_U_30E4_U_30FC_1
  6
Continuous
 62
     2
100
AcDbSpline
210
0.0
220
0.0
230
1.0
 70
    11
 71
     3
 72
    35
 73
    31
 74
    29
 42
0.000000001
 43
0.0000000001
 44
0.00000001
 40
0.0
 40
0.0
 40
0.0
 40
0.0
 40
0.033523103662059
 40
0.0713218571711996
 40
0.4278866681487027
 40
0.8116865841964048
 40
1.198190238000063
 40
1.561379546812695
 40
1.65998317462205
 40
1.759315573807192
 40
2.132719617231076
 40
2.525233363588828
 40
2.910815397779696
 40
3.265244364303279
 40
3.592606723582016
 40
3.964386154603964
 40
4.359942131737787
 40
4.758154118639299
 40
4.843846538699915
 40
4.936650065543231
 40
5.256616602537314
 40
5.581707404416052
 40
5.899719158308149
 40
6.198363494280754
 40
6.466301046615786
 40
6.493895311537108
 40
6.559697020196901
 40
6.638234543442477
 40
6.704036252154229
 40
6.731630508423036
 40
6.731630508423036
 40
6.731630508423036
 40
6.731630508423036
 10
191.9736010568669
 20
16.23463843719136
 30
0.0
 10
191.9676006097788
 20
16.22480690542325
 30
0.0
 10
191.9548344099157
 20
16.20388988579801
 30
0.0
 10
191.7949362006554
 20
16.17127126532691
 30
0.0
 10
192.2322025842337
 20
15.88206680336705
 30
0.0
 10
192.4345394828262
 20
15.6804113835844
 30
0.0
 10
192.6819564267973
 20
15.4374938760328
 30
0.0
 10
193.1831513624606
 20
15.36047662757777
 30
0.0
 10
193.012556219897
 20
15.21876939174659
 30
0.0
 10
192.9383299463201
 20
15.0171036620911
 30
0.0
 10
192.6131432248188
 20
15.36956287174729
 30
0.0
 10
192.3277741670664
 20
15.53175212559565
 30
0.0
 10
192.0337604077658
 20
15.73687130053051
 30
0.0
 10
191.8084452691134
 20
16.21827488595456
 30
0.0
 10
191.5993085055522
 20
15.75343046609225
 30
0.0
 10
191.3207873674834
 20
15.54350952252914
 30
0.0
 10
191.0371383177208
 20
15.37424456359987
 30
0.0
 10
190.7078639527832
 20
15.00142360907938
 30
0.0
 10
190.6277012318224
 20
15.19708014459004
 30
0.0
 10
190.4759724909744
 20
15.32491104190597
 30
0.0
 10
190.9083395826795
 20
15.40454031765938
 30
0.0
 10
191.0962565329766
 20
15.60026634915475
 30
0.0
 10
191.3468477420502
 20
15.81632996916758
 30
0.0
 10
191.5714350470162
 20
15.98190992300061
 30
0.0
 10
191.6259775409712
 20
16.26133964636831
 30
0.0
 10
191.7494661029011
 20
16.24737950408081
 30
0.0
 10
191.806027334452
 20
16.2452126886765
 30
0.0
 10
191.8761870984945
 20
16.24046859881363
 30
0.0
 10
191.9333414022105
 20
16.23709429350544
 30
0.0
 10
191.9644190320839
 20
16.23519854711121
 30
0.0
 10
191.9736010568669
 20
16.23463843719136
 30
0.0
 11
191.9736010568669
 21
16.23463843719136
 31
0.0
 11
191.9525319069884
 21
16.20856374969788
 31
0.0
 11
191.9174464559425
 21
16.19450114553472
 31
0.0
 11
192.1512374769094
 21
15.92527961131384
 31
0.0
 11
192.4414585957566
 21
15.67413407969262
 31
0.0
 11
192.7612797483684
 21
15.45710987618786
 31
0.0
 11
193.0838708706289
 21
15.29025232631639
 31
0.0
 11
193.0213299868076
 21
15.21402035584932
 31
0.0
 11
192.9688035818975
 21
15.12971197913427
 31
0.0
 11
192.6436279095814
 21
15.31326404831582
 31
0.0
 11
192.3237227768436
 21
15.54070139743431
 31
0.0
 11
192.0354200158608
 21
15.79673855123313
 31
0.0
 11
191.8050514588095
 21
16.06609003445568
 31
0.0
 11
191.5995531719516
 21
15.81126348721038
 31
0.0
 11
191.3288301341535
 21
15.55645182277758
 31
0.0
 11
191.0119538423246
 21
15.31969466354858
 31
0.0
 11
190.6679957933741
 21
15.11903163191468
 31
0.0
 11
190.6218855341338
 21
15.19126067703556
 31
0.0
 11
190.5636970460348
 21
15.26355586798968
 31
0.0
 11
190.8433040489015
 21
15.41911456961747
 31
0.0
 11
191.1093004621154
 21
15.60601009790408
 31
0.0
 11
191.3499997459746
 21
15.81384496285212
 31
0.0
 11
191.5537153607774
 21
16.03222167446419
 31
0.0
 11
191.7087607668218
 21
16.2507427427429
 31
0.0
 11
191.7363041569865
 21
16.24906789496554
 31
0.0
 11
191.8019845489177
 21
16.24507402718876
 31
0.0
 11
191.880377274771
 21
16.2403071527455
 31
0.0
 11
191.9460576667022
 21
16.23631328496872
 31
0.0
 11
191.9736010568669
 21
16.23463843719136
 31
0.0
  0
SPLINE
  5
A7
102
{ACAD_REACTORS
330
C4
102
}
330
48
100
AcDbEntity
  8
_U_30EC_U_30A4_U_30E4_U_30FC_1
  6
Continuous
 62
     2
100
AcDbSpline
210
0.0
220
0.0
230
1.0
 70
    11
 71
     3
 72
    15
 73
    11
 74
     9
 42
0.000000001
 43
0.0000000001
 44
0.00000001
 40
0.0
 40
0.0
 40
0.0
 40
0.0
 40
0.2785535985096574
 40
0.5215624748198886
 40
0.6076917376040522
 40
0.6938210001741256
 40
0.9405019146455045
 40
1.221691403489136
 40
1.300471877081055
 40
1.379252341684825
 40
1.379252341684825
 40
1.379252341684825
 40
1.379252341684825
 10
189.5681493630999
 20
16.22930267330384
 30
0.0
 10
189.6296017794178
 20
16.17691646592719
 30
0.0
 10
189.7446649974113
 20
16.07882876798225
 30
0.0
 10
190.0397348497244
 20
15.92889785897226
 30
0.0
 10
189.9025147631857
 20
15.84343227515016
 30
0.0
 10
189.8041227843778
 20
15.71085785201559
 30
0.0
 10
189.713003359065
 20
16.01616985781423
 30
0.0
 10
189.3636839480655
 20
16.07967869465377
 30
0.0
 10
189.511925837657
 20
16.17896509880881
 30
0.0
 10
189.5494081874236
 20
16.21252348402385
 30
0.0
 10
189.5681493630999
 20
16.22930267330384
 30
0.0
 11
189.5681493630999
 21
16.22930267330384
 31
0.0
 11
189.7919222440596
 21
16.06341774278976
 31
0.0
 11
189.9695046306383
 21
15.89753281227567
 31
0.0
 11
189.9066308127979
 21
15.83866743034595
 31
0.0
 11
189.8437569949575
 21
15.77980204841623
 31
0.0
 11
189.6688535117725
 21
15.95375677059494
 31
0.0
 11
189.447825685614
 21
16.12757920110705
 31
0.0
 11
189.507987524357
 21
16.17844093720544
 31
0.0
 11
189.5681493630999
 21
16.22930267330384
 31
0.0
  0
SPLINE
  5
A8
102
{ACAD_REACTORS
330
C5
102
}
330
48
100
AcDbEntity
  8
_U_30EC_U_30A4_U_30E4_U_30FC_1
  6
Continuous
 62
     2
100
AcDbSpline
210
0.0
220
0.0
230
1.0
 70
    11
 71
     3
 72
    75
 73
    71
 74
    69
 42
0.000000001
 43
0.0000000001
 44
0.00000001
 40
0.0
 40
0.0
 40
0.0
 40
0.0
 40
0.0342546099129691
 40
0.1245622414432346
 40
0.25223854808975
 40
0.3985991922940627
 40
0.5449598364980768
 40
0.6726361431438745
 40
0.7629437746736871
 40
0.7971983935297884
 40
1.10172362344965
 40
1.408591244036655
 40
1.433332471690361
 40
1.487763172450162
 40
1.542193873081997
 40
1.566935100592546
 40
1.923523931821856
 40
2.271755704953655
 40
2.590579755100897
 40
2.858943305581153
 40
2.889120339309175
 40
2.918305855191127
 40
2.94136664553125
 40
2.996357760973139
 40
3.061992318140682
 40
3.116983433626876
 40
3.140044223997555
 40
3.411273122936477
 40
3.732441619741144
 40
3.761068217532842
 40
3.837787499630404
 40
3.948858699126041
 40
4.080541049104416
 40
4.219093782625797
 40
4.350776132722348
 40
4.461847332405678
 40
4.53856661467841
 40
4.567193212544656
 40
4.594907573998914
 40
4.666381453557453
 40
4.764111044011064
 40
4.870592538125867
 40
4.968322128642318
 40
5.039796008287003
 40
5.067510369784462
 40
5.094263603185678
 40
5.153120716668311
 40
5.211977830150759
 40
5.238731063551763
 40
5.272290535139002
 40
5.363380529444863
 40
5.497618415781541
 40
5.660621563453783
 40
5.838007341749484
 40
6.015393119910835
 40
6.178396267038461
 40
6.312634151842412
 40
6.403724143059402
 40
6.437283612672497
 40
6.464036846261114
 40
6.522893960004731
 40
6.581751071483995
 40
6.608504301590941
 40
6.637253941281089
 40
6.71139774890294
 40
6.812778057283553
 40
6.923237199249329
 40
7.024617507623973
 40
7.098761315207626
 40
7.127510946007576
 40
7.127510946007576
 40
7.127510946007576
 40
7.127510946007576
 10
188.4418622390564
 20
14.95849128473267
 30
0.0
 10
188.4418622819707
 20
14.94707313408723
 30
0.0
 10
188.4418624481129
 20
14.90555257842632
 30
0.0
 10
188.4418593081786
 20
14.82146922003775
 30
0.0
 10
188.4418788279801
 20
14.70004497322331
 30
0.0
 10
188.4417912187737
 20
14.55980494047451
 30
0.0
 10
188.442111623523
 20
14.4200655679458
 30
0.0
 10
188.441160590974
 20
14.29745038894933
 30
0.0
 10
188.4431978595968
 20
14.21587074438047
 30
0.0
 10
188.4349433178744
 20
14.06271267077701
 30
0.0
 10
188.7430797940902
 20
14.22560236054724
 30
0.0
 10
189.0350645173735
 20
14.39482938688005
 30
0.0
 10
189.0408354448708
 20
14.25973235781914
 30
0.0
 10
189.0455471719891
 20
14.21617221160446
 30
0.0
 10
189.0482535411918
 20
14.17211249350547
 30
0.0
 10
189.0672545672958
 20
14.02272590363135
 30
0.0
 10
188.6583942247302
 20
14.08681172241264
 30
0.0
 10
188.3793710348832
 20
13.9729634141102
 30
0.0
 10
188.1018081587165
 20
13.87364095811145
 30
0.0
 10
187.8099837184402
 20
13.91630687596359
 30
0.0
 10
187.7869144678657
 20
13.81321679744545
 30
0.0
 10
187.7537474383334
 20
13.78691091244472
 30
0.0
 10
187.7480653962737
 20
13.83455309036306
 30
0.0
 10
187.7284214559045
 20
13.87180336115072
 30
0.0
 10
187.7095089485622
 20
13.93007387847567
 30
0.0
 10
187.6942849867707
 20
13.97385201007807
 30
0.0
 10
187.6477246372936
 20
14.08759421046314
 30
0.0
 10
187.989089731245
 20
14.0557630112005
 30
0.0
 10
188.2679649367386
 20
14.02161435106483
 30
0.0
 10
188.2617753034907
 20
14.16913976479656
 30
0.0
 10
188.2630935452773
 20
14.24013150908836
 30
0.0
 10
188.2624831689949
 20
14.34719767958666
 30
0.0
 10
188.2625871570724
 20
14.47398529786001
 30
0.0
 10
188.2629987964055
 20
14.60849243496054
 30
0.0
 10
188.2613907841969
 20
14.73395549951187
 30
0.0
 10
188.2659902567925
 20
14.84505246719121
 30
0.0
 10
188.2564186502211
 20
14.90761886800692
 30
0.0
 10
188.2704001783691
 20
14.96595388295004
 30
0.0
 10
188.2147384386704
 20
14.9528971058224
 30
0.0
 10
188.1575655197821
 20
14.96136307749501
 30
0.0
 10
188.0616048925648
 20
14.95729976080639
 30
0.0
 10
187.963376752282
 20
14.95970889852477
 30
0.0
 10
187.8672582457561
 20
14.95551600613391
 30
0.0
 10
187.8104648525811
 20
14.96429346441165
 30
0.0
 10
187.7550356873384
 20
14.95094936850124
 30
0.0
 10
187.7670679427916
 20
15.00036910959259
 30
0.0
 10
187.7592003173938
 20
15.04393988030399
 30
0.0
 10
187.7666295563828
 20
15.08830469118528
 30
0.0
 10
187.7551930564144
 20
15.13902297763994
 30
0.0
 10
187.8232102370133
 20
15.12162460757745
 30
0.0
 10
187.8968496879747
 20
15.13417450237191
 30
0.0
 10
188.0325064058211
 20
15.127996770111
 30
0.0
 10
188.1884909024525
 20
15.13029203093087
 30
0.0
 10
188.3615926358143
 20
15.12940968262533
 30
0.0
 10
188.5346942964181
 20
15.13029207142411
 30
0.0
 10
188.6906789811216
 20
15.12799662955553
 30
0.0
 10
188.8263351889797
 20
15.13417486262434
 30
0.0
 10
188.8999756705652
 20
15.12162394218338
 30
0.0
 10
188.9679914174724
 20
15.13902373012145
 30
0.0
 10
188.9565590885922
 20
15.08830130414558
 30
0.0
 10
188.9639539458297
 20
15.04397060811111
 30
0.0
 10
188.9562039912271
 20
15.00028307550199
 30
0.0
 10
188.9681203741876
 20
14.95063590098479
 30
0.0
 10
188.9108170223617
 20
14.96461411338429
 30
0.0
 10
188.8520145789772
 20
14.95539755673256
 30
0.0
 10
188.7525293633199
 20
14.95952268164932
 30
0.0
 10
188.649428009835
 20
14.95822760025891
 30
0.0
 10
188.5537846354573
 20
14.95854077077644
 30
0.0
 10
188.4857467971617
 20
14.95848776697148
 30
0.0
 10
188.4514462213443
 20
14.95849051871659
 30
0.0
 10
188.4418622390564
 20
14.95849128473267
 30
0.0
 11
188.4418622390564
 21
14.95849128473267
 31
0.0
 11
188.4418622390564
 21
14.92423666587188
 31
0.0
 11
188.4418622390564
 21
14.83392903432978
 31
0.0
 11
188.4418622390564
 21
14.70625272766682
 31
0.0
 11
188.4418622390564
 21
14.55989208344343
 31
0.0
 11
188.4418622390564
 21
14.41353143922004
 31
0.0
 11
188.4418622390564
 21
14.28585513255708
 31
0.0
 11
188.4418622390564
 21
14.19554750101498
 31
0.0
 11
188.4418622390564
 21
14.16129288215419
 31
0.0
 11
188.7391932644567
 21
14.22709475713771
 31
0.0
 11
189.0384623627245
 21
14.29496038212075
 31
0.0
 11
189.0405487124976
 21
14.27030727882831
 31
0.0
 11
189.0451386819987
 21
14.21607045158492
 31
0.0
 11
189.0497286514996
 21
14.16183362434154
 31
0.0
 11
189.0518150012728
 21
14.13718052104909
 31
0.0
 11
188.705639688924
 21
14.051633701409
 31
0.0
 11
188.3669653138838
 21
13.97060877629904
 31
0.0
 11
188.0563731516688
 21
13.89862764024932
 31
0.0
 11
187.7944444777955
 21
13.84021218778995
 31
0.0
 11
187.7817515029292
 21
13.81283442738017
 31
0.0
 11
187.7569794787513
 21
13.79740260446738
 31
0.0
 11
187.7491867589501
 21
13.81910683390639
 31
0.0
 11
187.7306041194242
 21
13.87086307333789
 31
0.0
 11
187.70842483999
 21
13.93263664943354
 31
0.0
 11
187.689842200464
 21
13.98439288886503
 31
0.0
 11
187.6820494806628
 21
14.00609711830404
 31
0.0
 11
187.9482776335931
 21
14.05794001759669
 31
0.0
 11
188.2626334936289
 21
14.12373968771914
 31
0.0
 11
188.2626334936289
 21
14.15236628569629
 31
0.0
 11
188.2626334936289
 21
14.22908556827503
 31
0.0
 11
188.2626334936289
 21
14.34015676842635
 31
0.0
 11
188.2626334936289
 21
14.47183911912122
 31
0.0
 11
188.2626334936289
 21
14.61039185333059
 31
0.0
 11
188.2626334936289
 21
14.74207420402546
 31
0.0
 11
188.2626334936289
 21
14.85314540417678
 31
0.0
 11
188.2626334936289
 21
14.92986468675553
 31
0.0
 11
188.2626334936289
 21
14.95849128473267
 31
0.0
 11
188.2349191321108
 21
14.95849128473267
 31
0.0
 11
188.1634452524063
 21
14.95849128473267
 31
0.0
 11
188.06571566179
 21
14.95849128473267
 31
0.0
 11
187.9592341675364
 21
14.95849128473267
 31
0.0
 11
187.8615045769201
 21
14.95849128473267
 31
0.0
 11
187.7900306972156
 21
14.95849128473267
 31
0.0
 11
187.7623163356975
 21
14.95849128473267
 31
0.0
 11
187.7623163356975
 21
14.98524451823292
 31
0.0
 11
187.7623163356975
 21
15.04410163193347
 31
0.0
 11
187.7623163356975
 21
15.10295874563402
 31
0.0
 11
187.7623163356975
 21
15.12971197913427
 31
0.0
 11
187.7958758072874
 21
15.12971197913427
 31
0.0
 11
187.8869658016031
 21
15.12971197913427
 31
0.0
 11
188.0212036879629
 21
15.12971197913427
 31
0.0
 11
188.1842068356856
 21
15.12971197913427
 31
0.0
 11
188.3615926140897
 21
15.12971197913427
 31
0.0
 11
188.5389783924938
 21
15.12971197913427
 31
0.0
 11
188.7019815402164
 21
15.12971197913427
 31
0.0
 11
188.8362194265763
 21
15.12971197913427
 31
0.0
 11
188.9273094208918
 21
15.12971197913427
 31
0.0
 11
188.9608688924818
 21
15.12971197913427
 31
0.0
 11
188.9608688924818
 21
15.10295874563402
 31
0.0
 11
188.9608688924818
 21
15.04410163193347
 31
0.0
 11
188.9608688924818
 21
14.98524451823292
 31
0.0
 11
188.9608688924818
 21
14.95849128473267
 31
0.0
 11
188.9321192527877
 21
14.95849128473267
 31
0.0
 11
188.8579754451555
 21
14.95849128473267
 31
0.0
 11
188.7565951367604
 21
14.95849128473267
 31
0.0
 11
188.6461359947778
 21
14.95849128473267
 31
0.0
 11
188.5447556863827
 21
14.95849128473267
 31
0.0
 11
188.4706118787505
 21
14.95849128473267
 31
0.0
 11
188.4418622390564
 21
14.95849128473267
 31
0.0
  0
SPLINE
  5
A9
102
{ACAD_REACTORS
330
C6
102
}
330
48
100
AcDbEntity
  8
_U_30EC_U_30A4_U_30E4_U_30FC_1
  6
Continuous
 62
     2
100
AcDbSpline
210
0.0
220
0.0
230
1.0
 70
    11
 71
     3
 72
    91
 73
    87
 74
    85
 42
0.000000001
 43
0.0000000001
 44
0.00000001
 40
0.0
 40
0.0
 40
0.0
 40
0.0
 40
0.0345987051695718
 40
0.1258134969461369
 40
0.2547723404888987
 40
0.4026032099154125
 40
0.5504340793416704
 40
0.679392922883608
 40
0.7706077146571035
 40
0.8052064287780925
 40
1.124852390615274
 40
1.427402236308867
 40
1.706356627453505
 40
1.955541417875187
 40
2.169485938566332
 40
2.344350786664787
 40
2.480568411561936
 40
2.590440557428958
 40
2.649189927151113
 40
2.749320643306315
 40
2.91263273988002
 40
3.147745656000216
 40
3.244827496385112
 40
3.3384900569467
 40
3.583815413207128
 40
3.761423943238487
 40
3.88695610436265
 40
3.985855451886811
 40
4.091766255337696
 40
4.25018647381189
 40
4.422734315084534
 40
4.62828568483863
 40
4.872093227758462
 40
5.15254965214557
 40
5.46496713583755
 40
5.803201477852463
 40
6.16036298881393
 40
6.193449448275985
 40
6.28417038550164
 40
6.41971813876451
 40
6.58728504638576
 40
6.774063446723674
 40
6.967245678113657
 40
7.154024078817643
 40
7.321590987026029
 40
7.457138740890387
 40
7.547859678556123
 40
7.580946138182683
 40
7.608533084714737
 40
7.669224367077715
 40
7.729915649429937
 40
7.757502595949989
 40
7.790278062553443
 40
7.880146277430941
 40
8.014419963180405
 40
8.180411842397906
 40
8.365434637679375
 40
8.556801071622676
 40
8.741823866830789
 40
8.907815745916299
 40
9.042089431507453
 40
9.131957646249578
 40
9.164733112797155
 40
9.415425063140082
 40
9.66798618095854
 40
9.694169807462707
 40
9.756607686047666
 40
9.831130315322472
 40
9.893568193899936
 40
9.919751820398753
 40
9.95096796469058
 40
9.996421631210692
 40
10.22087981037457
 40
10.44341866197546
 40
10.47847970788858
 40
10.57091337438758
 40
10.70159545461233
 40
10.85140174170364
 40
11.00120802880481
 40
11.13189010907386
 40
11.22432377583014
 40
11.2593848093896
 40
11.28697175596149
 40
11.34766303835923
 40
11.40835432042074
 40
11.43594125892109
 40
11.43594125892109
 40
11.43594125892109
 40
11.43594125892109
 10
190.0818114333289
 20
15.55242795125079
 30
0.0
 10
190.0702785844941
 20
15.55242790287917
 30
0.0
 10
190.0283409444998
 20
15.55242773704166
 30
0.0
 10
189.9434129719026
 20
15.55243125800911
 30
0.0
 10
189.8207688553128
 20
15.5524092643588
 30
0.0
 10
189.6791206916993
 20
15.55250801177056
 30
0.0
 10
189.537975369849
 20
15.55214686232423
 30
0.0
 10
189.4141351317905
 20
15.55321883609091
 30
0.0
 10
189.3317217825382
 20
15.5509224909127
 30
0.0
 10
189.1727791229692
 20
15.56048569373422
 30
0.0
 10
189.3503402353376
 20
15.19785394311373
 30
0.0
 10
189.3379739205452
 20
14.95243127723116
 30
0.0
 10
189.4064519473864
 20
14.66862501324837
 30
0.0
 10
189.469302432097
 20
14.43250999939038
 30
0.0
 10
189.5452253431729
 20
14.23326740396133
 30
0.0
 10
189.6303189577015
 20
14.07745347451376
 30
0.0
 10
189.7244607592935
 20
13.97657857781396
 30
0.0
 10
189.8282648207727
 20
13.92465852638968
 30
0.0
 10
189.9125872030773
 20
13.9760648437962
 30
0.0
 10
189.9351322179452
 20
14.09144544037521
 30
0.0
 10
189.9745730975371
 20
14.21885149702383
 30
0.0
 10
189.9202919734942
 20
14.53622328086759
 30
0.0
 10
190.0451218072473
 20
14.38982180140908
 30
0.0
 10
190.2019291513603
 20
14.35795300331175
 30
0.0
 10
190.0947720007056
 20
14.12421357767631
 30
0.0
 10
190.0808711209867
 20
13.9597277658366
 30
0.0
 10
190.0234709467225
 20
13.83130869122487
 30
0.0
 10
189.9335020145008
 20
13.76018802352829
 30
0.0
 10
189.8095274657877
 20
13.74432324142257
 30
0.0
 10
189.663427319686
 20
13.77993797554175
 30
0.0
 10
189.5243894320284
 20
13.9000057050028
 30
0.0
 10
189.4102003962144
 20
14.07435682550323
 30
0.0
 10
189.3146141301486
 20
14.29946603111244
 30
0.0
 10
189.2318652572626
 20
14.56388246006446
 30
0.0
 10
189.1807179256411
 20
14.88187933098546
 30
0.0
 10
189.0770189207338
 20
15.15543728488915
 30
0.0
 10
189.2042841208521
 20
15.56005818612869
 30
0.0
 10
189.0357890623019
 20
15.5511236784968
 30
0.0
 10
188.9511995787077
 20
15.55315961418365
 30
0.0
 10
188.8189876387627
 20
15.55213937388408
 30
0.0
 10
188.6560505094104
 20
15.55253230318431
 30
0.0
 10
188.4733759170532
 20
15.5523569631337
 30
0.0
 10
188.2847057373383
 20
15.5526010530747
 30
0.0
 10
188.1014469020189
 20
15.55185657906239
 30
0.0
 10
187.9404746832718
 20
15.55416360522427
 30
0.0
 10
187.8029808335276
 20
15.54799804883665
 30
0.0
 10
187.728959037231
 20
15.56032838458212
 30
0.0
 10
187.6613215186857
 20
15.54329323723558
 30
0.0
 10
187.6732373719269
 20
15.59524438447529
 30
0.0
 10
187.6655677285694
 20
15.64071424966531
 30
0.0
 10
187.6732592225115
 20
15.68614453703707
 30
0.0
 10
187.6613141797762
 20
15.73802395984572
 30
0.0
 10
187.7283588305867
 20
15.72119143490266
 30
0.0
 10
187.8017375665676
 20
15.73335409092672
 30
0.0
 10
187.9379128305272
 20
15.72727231074961
 30
0.0
 10
188.0973811801512
 20
15.7295483431506
 30
0.0
 10
188.2789173085836
 20
15.72881233998964
 30
0.0
 10
188.4658034862179
 20
15.72905954196136
 30
0.0
 10
188.6468012316836
 20
15.72886400799256
 30
0.0
 10
188.8080802578878
 20
15.72932234714841
 30
0.0
 10
188.9393882124887
 20
15.72812673751208
 30
0.0
 10
189.0225051322596
 20
15.73051347319744
 30
0.0
 10
189.1556236547814
 20
15.72230605725466
 30
0.0
 10
189.0645893502659
 20
15.97752868952658
 30
0.0
 10
188.9789633074418
 20
16.24164358328247
 30
0.0
 10
189.0990589003455
 20
16.22904442969168
 30
0.0
 10
189.1514264948544
 20
16.22694235763077
 30
0.0
 10
189.2214497569715
 20
16.22535399889658
 30
0.0
 10
189.2671922337817
 20
16.21602567538115
 30
0.0
 10
189.3220812646933
 20
16.22545966915428
 30
0.0
 10
189.2963574785681
 20
16.17733028655176
 30
0.0
 10
189.1825397571453
 20
16.18266829744168
 30
0.0
 10
189.3159346621136
 20
15.95449174576779
 30
0.0
 10
189.1943658735472
 20
15.72156856595925
 30
0.0
 10
189.3223188769412
 20
15.73087258884441
 30
0.0
 10
189.4049048406461
 20
15.72801001754683
 30
0.0
 10
189.5307214850824
 20
15.72923437412304
 30
0.0
 10
189.6741469838057
 20
15.72932431888966
 30
0.0
 10
189.8157420951728
 20
15.72746163183855
 30
0.0
 10
189.9459127249967
 20
15.73333075937165
 30
0.0
 10
190.0193452286191
 20
15.72070340823206
 30
0.0
 10
190.0891112922096
 20
15.73877563110414
 30
0.0
 10
190.0775772605396
 20
15.68612850546328
 30
0.0
 10
190.0833184346682
 20
15.64221317686549
 30
0.0
 10
190.081661577091
 20
15.5908998267655
 30
0.0
 10
190.081775756167
 20
15.56158792021636
 30
0.0
 10
190.0818114333289
 20
15.55242795125079
 30
0.0
 11
190.0818114333289
 21
15.55242795125079
 31
0.0
 11
190.0472127192051
 21
15.55242795125079
 31
0.0
 11
189.9559979274241
 21
15.55242795125079
 31
0.0
 11
189.8270390838717
 21
15.55242795125079
 31
0.0
 11
189.6792082144335
 21
15.55242795125079
 31
0.0
 11
189.5313773449954
 21
15.55242795125079
 31
0.0
 11
189.402418501443
 21
15.55242795125079
 31
0.0
 11
189.311203709662
 21
15.55242795125079
 31
0.0
 11
189.2766049955382
 21
15.55242795125079
 31
0.0
 11
189.3083140497693
 21
15.23435864930123
 31
0.0
 11
189.3527866656865
 21
14.93509522788083
 31
0.0
 11
189.4092389118319
 21
14.66191269512579
 31
0.0
 11
189.4768868567478
 21
14.4220860591723
 31
0.0
 11
189.5549465689761
 21
14.22289032815657
 31
0.0
 11
189.6426341170591
 21
14.0716005102148
 31
0.0
 11
189.7391655695388
 21
13.9754916134832
 31
0.0
 11
189.8437569949575
 21
13.94183864609795
 31
0.0
 11
189.8943077302786
 21
13.97177376978838
 31
0.0
 11
189.9310588991551
 21
14.0649161981505
 31
0.0
 11
189.9562640977528
 21
14.22627151712058
 31
0.0
 11
189.9721769222368
 21
14.46084531263485
 31
0.0
 11
190.0494082682583
 21
14.4020218230662
 31
0.0
 11
190.1327184184385
 21
14.35921885432693
 31
0.0
 11
190.1066365811217
 21
14.11528388661013
 31
0.0
 11
190.0673317805105
 21
13.94207902887565
 31
0.0
 11
190.0105702596765
 21
13.8301127244592
 31
0.0
 11
189.932118261691
 21
13.76989341669649
 31
0.0
 11
189.8277420296256
 21
13.7519295489232
 31
0.0
 11
189.6738595065097
 21
13.78957440012364
 31
0.0
 11
189.5388902376747
 21
13.89707348877406
 31
0.0
 11
189.4221739916163
 21
14.06627361744812
 31
0.0
 11
189.32305053683
 21
14.28902158871947
 31
0.0
 11
189.2408596418113
 21
14.55716420516175
 31
0.0
 11
189.1749410750559
 21
14.86254826934863
 31
0.0
 11
189.1246346050593
 21
15.19702058385376
 31
0.0
 11
189.0892800003171
 21
15.55242795125079
 31
0.0
 11
189.0561935405844
 21
15.55242795125079
 31
0.0
 11
188.9654726026075
 21
15.55242795125079
 31
0.0
 11
188.8299248482185
 21
15.55242795125079
 31
0.0
 11
188.6623579392495
 21
15.55242795125079
 31
0.0
 11
188.4755795375324
 21
15.55242795125079
 31
0.0
 11
188.2823973048992
 21
15.55242795125079
 31
0.0
 11
188.0956189031822
 21
15.55242795125079
 31
0.0
 11
187.9280519942131
 21
15.55242795125079
 31
0.0
 11
187.7925042398241
 21
15.55242795125079
 31
0.0
 11
187.7017833018473
 21
15.55242795125079
 31
0.0
 11
187.6686968421145
 21
15.55242795125079
 31
0.0
 11
187.6686968421145
 21
15.58001489785848
 31
0.0
 11
187.6686968421145
 21
15.64070618039539
 31
0.0
 11
187.6686968421145
 21
15.70139746293231
 31
0.0
 11
187.6686968421145
 21
15.72898440954
 31
0.0
 11
187.7014723087631
 21
15.72898440954
 31
0.0
 11
187.7913405237673
 21
15.72898440954
 31
0.0
 11
187.9256142097148
 21
15.72898440954
 31
0.0
 11
188.0916060891932
 21
15.72898440954
 31
0.0
 11
188.2766288847901
 21
15.72898440954
 31
0.0
 11
188.4679953190932
 21
15.72898440954
 31
0.0
 11
188.6530181146902
 21
15.72898440954
 31
0.0
 11
188.8190099941685
 21
15.72898440954
 31
0.0
 11
188.953283680116
 21
15.72898440954
 31
0.0
 11
189.0431518951202
 21
15.72898440954
 31
0.0
 11
189.0759273617688
 21
15.72898440954
 31
0.0
 11
189.0659183950103
 21
15.97947647544961
 31
0.0
 11
189.0599112510663
 21
16.23196614552533
 31
0.0
 11
189.0860575870659
 21
16.23056921608124
 31
0.0
 11
189.1484065421419
 21
16.22723807663763
 31
0.0
 11
189.2228230369099
 21
16.22326220052751
 31
0.0
 11
189.2851719919859
 21
16.2199310610839
 31
0.0
 11
189.3113183279855
 21
16.21853413163981
 31
0.0
 11
189.298293111304
 21
16.19016528616082
 31
0.0
 11
189.2551649266405
 21
16.17581274276166
 31
0.0
 11
189.2574991961821
 21
15.9513667011511
 31
0.0
 11
189.2658452735903
 21
15.72898440954
 31
0.0
 11
189.3009063195165
 21
15.72898440954
 31
0.0
 11
189.3933399860495
 21
15.72898440954
 31
0.0
 11
189.5240220663201
 21
15.72898440954
 31
0.0
 11
189.6738283534596
 21
15.72898440954
 31
0.0
 11
189.8236346405991
 21
15.72898440954
 31
0.0
 11
189.9543167208697
 21
15.72898440954
 31
0.0
 11
190.0467503874027
 21
15.72898440954
 31
0.0
 11
190.0818114333289
 21
15.72898440954
 31
0.0
 11
190.0818114333289
 21
15.70139746293231
 31
0.0
 11
190.0818114333289
 21
15.64070618039539
 31
0.0
 11
190.0818114333289
 21
15.58001489785848
 31
0.0
 11
190.0818114333289
 21
15.55242795125079
 31
0.0
  0
SPLINE
  5
AA
102
{ACAD_REACTORS
330
C7
102
}
330
48
100
AcDbEntity
  8
_U_30EC_U_30A4_U_30E4_U_30FC_1
  6
Continuous
 62
     2
100
AcDbSpline
210
0.0
220
0.0
230
1.0
 70
    11
 71
     3
 72
   118
 73
   114
 74
   112
 42
0.000000001
 43
0.0000000001
 44
0.00000001
 40
0.0
 40
0.0
 40
0.0
 40
0.0
 40
0.105470816297341
 40
0.2466098270051881
 40
0.396591287459119
 40
0.5285525069753918
 40
0.6156245055642114
 40
0.6431434105797427
 40
0.7036850037986088
 40
0.7642265984504443
 40
0.7917455052354747
 40
0.9287404319989636
 40
1.106572819088014
 40
1.287544879681012
 40
1.317578308030531
 40
1.399928030857168
 40
1.522968204799942
 40
1.675072986590563
 40
1.844616533180639
 40
2.019973001638705
 40
2.189516548880017
 40
2.341621331585356
 40
2.464661506320492
 40
2.547011229647054
 40
2.57704465816802
 40
2.60379789089309
 40
2.662655002908777
 40
2.721512114949589
 40
2.748265347702769
 40
2.774215307344844
 40
2.845959313407175
 40
2.954338556588374
 40
3.090194227585553
 40
3.244367517100517
 40
3.407699615844275
 40
3.571031714539424
 40
3.7252050039201
 40
3.861060674729601
 40
3.969439917716293
 40
4.041183923628968
 40
4.06713388321296
 40
4.311886746012146
 40
4.547897258335512
 40
4.764747083043948
 40
4.952749679951745
 40
5.045772974195862
 40
5.137862019644939
 40
5.330543169792994
 40
5.553448265243987
 40
5.795083855888144
 40
6.043293412177203
 40
6.285761695541146
 40
6.31390290875263
 40
6.38425594179322
 40
6.475714884766808
 40
6.567173827758871
 40
6.637526860839649
 40
6.665668074074012
 40
6.69201892032799
 40
6.749990782071065
 40
6.80796264379044
 40
6.834313490017919
 40
6.856393084245197
 40
6.913335195649821
 40
6.991194817302484
 40
7.076026942283746
 40
7.153886563725236
 40
7.210828674844818
 40
7.232908268931154
 40
7.258199334923673
 40
7.324875781592321
 40
7.419142481924978
 40
7.527204308841916
 40
7.63526613523049
 40
7.729532834168476
 40
7.796209279292795
 40
7.821500344594742
 40
7.844652988850812
 40
7.899863140541591
 40
7.965759128053757
 40
8.020969279771041
 40
8.044121924046507
 40
8.0693566101606
 40
8.109134395441371
 40
8.132238100191083
 40
8.193147867786445
 40
8.279261678876614
 40
8.377977512673828
 40
8.476693347146613
 40
8.562807160411662
 40
8.623716930826445
 40
8.646820636853398
 40
8.671988793774212
 40
8.734909185828123
 40
8.816705695188837
 40
8.898502204815408
 40
8.961422597377869
 40
8.986590754550981
 40
9.01294160073314
 40
9.070913462380233
 40
9.128885324081732
 40
9.155236170325058
 40
9.1804043279291
 40
9.243324721948174
 40
9.325121234211966
 40
9.406917746637621
 40
9.469838141978077
 40
9.49500628827085
 40
9.517811184378994
 40
9.572192090486993
 40
9.637098333281221
 40
9.691479239515422
 40
9.714284125643461
 40
9.714284125643461
 40
9.714284125643461
 40
9.714284125643461
 10
185.2874469028653
 20
15.26889163187721
 30
0.0
 10
185.3090990569037
 20
15.24111869242813
 30
0.0
 10
185.3597257109474
 20
15.17618054561238
 30
0.0
 10
185.4349383202591
 20
15.068910603129
 30
0.0
 10
185.5248482274346
 20
14.95377438266627
 30
0.0
 10
185.5709169676672
 20
14.85357045748322
 30
0.0
 10
185.6655825294656
 20
14.78434006814946
 30
0.0
 10
185.6204439320412
 20
14.73771639678276
 30
0.0
 10
185.594704778579
 20
14.69660308866042
 30
0.0
 10
185.5645196708012
 20
14.66065971727943
 30
0.0
 10
185.5193684730562
 20
14.58579782596097
 30
0.0
 10
185.4710504458562
 20
14.80782524253608
 30
0.0
 10
185.3968539713074
 20
14.84510677337713
 30
0.0
 10
185.2836047324605
 20
15.11610202130602
 30
0.0
 10
185.288513357817
 20
15.00095328446232
 30
0.0
 10
185.2868486556306
 20
14.9283667578163
 30
0.0
 10
185.2876830076713
 20
14.80625588483989
 30
0.0
 10
185.2873609540265
 20
14.65913800810463
 30
0.0
 10
185.2875076912456
 20
14.4930706395656
 30
0.0
 10
185.2872950092722
 20
14.32187554608605
 30
0.0
 10
185.2879497252034
 20
14.15552828635501
 30
0.0
 10
185.2859192461138
 20
14.00935173055696
 30
0.0
 10
185.2913460399931
 20
13.88471047474614
 30
0.0
 10
185.2804930868708
 20
13.81718656540629
 30
0.0
 10
185.2956739155554
 20
13.75549061417025
 30
0.0
 10
185.2457895108134
 20
13.76727503897004
 30
0.0
 10
185.2017150342522
 20
13.75943822779973
 30
0.0
 10
185.1582371630201
 20
13.76760441372706
 30
0.0
 10
185.1092346786488
 20
13.7553805673847
 30
0.0
 10
185.1218731234825
 20
13.80960667249316
 30
0.0
 10
185.1130182968449
 20
13.86936918907561
 30
0.0
 10
185.1175058770314
 20
13.97922029044373
 30
0.0
 10
185.1157960135991
 20
14.11029975405681
 30
0.0
 10
185.1163550915986
 20
14.26198011444331
 30
0.0
 10
185.1161928768694
 20
14.42211074929956
 30
0.0
 10
185.1162269924674
 20
14.58236865674569
 30
0.0
 10
185.1162514960126
 20
14.73370247520442
 30
0.0
 10
185.1161453543226
 20
14.86582156338604
 30
0.0
 10
185.1164299141931
 20
14.97294802533196
 30
0.0
 10
185.1158675547568
 20
15.03808619579477
 30
0.0
 10
185.1180765083689
 20
15.16618957858678
 30
0.0
 10
185.0319435998603
 20
14.79097610391578
 30
0.0
 10
184.9555140818499
 20
14.63918193123398
 30
0.0
 10
184.8660040767833
 20
14.47766206446309
 30
0.0
 10
184.7640413217326
 20
14.20471848820176
 30
0.0
 10
184.7187976491039
 20
14.36717346596514
 30
0.0
 10
184.610235594167
 20
14.45605432058122
 30
0.0
 10
184.7995791751752
 20
14.60549794961412
 30
0.0
 10
184.85653405457
 20
14.79749136974928
 30
0.0
 10
184.9717520993352
 20
15.02899622906759
 30
0.0
 10
184.9940151630132
 20
15.21797259759066
 30
0.0
 10
185.177190515214
 20
15.49454089325932
 30
0.0
 10
185.0538033597552
 20
15.48698978832096
 30
0.0
 10
184.9925684166834
 20
15.48856772366121
 30
0.0
 10
184.9081999617064
 20
15.48882592573675
 30
0.0
 10
184.8204235085966
 20
15.48544845751207
 30
0.0
 10
184.7656768696122
 20
15.49394814982022
 30
0.0
 10
184.7104703026025
 20
15.4804856104979
 30
0.0
 10
184.7222823035536
 20
15.52931442126766
 30
0.0
 10
184.7142496151794
 20
15.57269004896711
 30
0.0
 10
184.7228186104679
 20
15.61509438309577
 30
0.0
 10
184.7102943409156
 20
15.66267796552122
 30
0.0
 10
184.7555101538736
 20
15.65267212995114
 30
0.0
 10
184.8014815562723
 20
15.65894105174065
 30
0.0
 10
184.877722204771
 20
15.65593561405876
 30
0.0
 10
184.9561296131993
 20
15.65770448278545
 30
0.0
 10
185.0323992648932
 20
15.65464793981664
 30
0.0
 10
185.0783009459475
 20
15.66103971376181
 30
0.0
 10
185.12317339654
 20
15.650938229789
 30
0.0
 10
185.1105552275633
 20
15.70157201581902
 30
0.0
 10
185.1191936582707
 20
15.75501261882073
 30
0.0
 10
185.1152361595443
 20
15.84863255131684
 30
0.0
 10
185.1162325068335
 20
15.95112606688927
 30
0.0
 10
185.1171927413073
 20
16.05353270248166
 30
0.0
 10
185.1133211458005
 20
16.14735929609324
 30
0.0
 10
185.1217789814365
 20
16.20036542840356
 30
0.0
 10
185.1093075932835
 20
16.25211435651191
 30
0.0
 10
185.154210638985
 20
16.2385074722676
 30
0.0
 10
185.1955083836772
 20
16.24100480320588
 30
0.0
 10
185.259534428105
 20
16.23648060574491
 30
0.0
 10
185.2986111148787
 20
16.22781003043312
 30
0.0
 10
185.3476543498741
 20
16.23515102070689
 30
0.0
 10
185.3225080030591
 20
16.19602896051761
 30
0.0
 10
185.2815901333723
 20
16.20563842455811
 30
0.0
 10
185.2910109616604
 20
16.15540148169781
 30
0.0
 10
185.2855647318746
 20
16.10385945639493
 30
0.0
 10
185.2881699601803
 20
16.01959707584524
 30
0.0
 10
185.2870102202154
 20
15.92559135583412
 30
0.0
 10
185.2883591064231
 20
15.83196865395528
 30
0.0
 10
185.2849970101509
 20
15.74679517552228
 30
0.0
 10
185.2920959917769
 20
15.69716856072048
 30
0.0
 10
185.2812569154545
 20
15.64993694969993
 30
0.0
 10
185.3304010225245
 20
15.66201674936856
 30
0.0
 10
185.3794877630147
 20
15.65447393363015
 30
0.0
 10
185.4573714280641
 20
15.65686070361437
 30
0.0
 10
185.5350365172896
 20
15.65899381905419
 30
0.0
 10
185.5845393931354
 20
15.65193391922458
 30
0.0
 10
185.6344594750639
 20
15.66360151936219
 30
0.0
 10
185.622319851688
 20
15.61540235371396
 30
0.0
 10
185.6305838229143
 20
15.57249219801238
 30
0.0
 10
185.6223198650783
 20
15.52958201851387
 30
0.0
 10
185.6344594549854
 20
15.48138288754867
 30
0.0
 10
185.5845395158746
 20
15.49305034471513
 30
0.0
 10
185.5350350651202
 20
15.48599202435047
 30
0.0
 10
185.4573784382973
 20
15.48811665228605
 30
0.0
 10
185.379464386576
 20
15.49053389365762
 30
0.0
 10
185.3304500352716
 20
15.48291848194487
 30
0.0
 10
185.2813246108943
 20
15.49507952557594
 30
0.0
 10
185.2915559988571
 20
15.4507301342416
 30
0.0
 10
185.2856677678053
 20
15.40925436202913
 30
0.0
 10
185.2878788305569
 20
15.34915394315305
 30
0.0
 10
185.2874109346146
 20
15.30225782762891
 30
0.0
 10
185.2874386992913
 20
15.27650146418198
 30
0.0
 10
185.2874469028653
 20
15.26889163187721
 30
0.0
 11
185.2874469028653
 21
15.26889163187721
 31
0.0
 11
185.3516977534484
 21
15.18524999634258
 31
0.0
 11
185.4348258835499
 21
15.07118889748223
 31
0.0
 11
185.5216831568896
 21
14.94891767195726
 31
0.0
 11
185.5971214371872
 21
14.84064565642879
 31
0.0
 11
185.6459925881626
 21
14.76858218755793
 31
0.0
 11
185.6296821285093
 21
14.74641782124402
 31
0.0
 11
185.5937991172719
 21
14.69765621535343
 31
0.0
 11
185.5579161060346
 21
14.64889460946284
 31
0.0
 11
185.5416056463813
 21
14.62673024314893
 31
0.0
 11
185.4763067109446
 21
14.74716139023816
 31
0.0
 11
185.3848434243234
 21
14.8996698367021
 31
0.0
 11
185.2874469028653
 21
15.05219788193145
 31
0.0
 11
185.2874469028653
 21
15.02216445328256
 31
0.0
 11
185.2874469028653
 21
14.93981472956786
 31
0.0
 11
185.2874469028653
 21
14.81677455413531
 31
0.0
 11
185.2874469028653
 21
14.66466977033286
 31
0.0
 11
185.2874469028653
 21
14.49512622150848
 31
0.0
 11
185.2874469028653
 21
14.31976975101012
 31
0.0
 11
185.2874469028653
 21
14.15022620218574
 31
0.0
 11
185.2874469028653
 21
13.99812141838329
 31
0.0
 11
185.2874469028653
 21
13.87508124295074
 31
0.0
 11
185.2874469028653
 21
13.79273151923604
 31
0.0
 11
185.2874469028653
 21
13.76269809058715
 31
0.0
 11
185.2606936700409
 21
13.76269809058715
 31
0.0
 11
185.2018365578272
 21
13.76269809058715
 31
0.0
 11
185.1429794456134
 21
13.76269809058715
 31
0.0
 11
185.116226212789
 21
13.76269809058715
 31
0.0
 11
185.116226212789
 21
13.78864805031253
 31
0.0
 11
185.116226212789
 21
13.86039205661211
 31
0.0
 11
185.116226212789
 21
13.96877130017105
 31
0.0
 11
185.116226212789
 21
14.1046269716745
 31
0.0
 11
185.116226212789
 21
14.25880026180764
 31
0.0
 11
185.116226212789
 21
14.42213236125562
 31
0.0
 11
185.116226212789
 21
14.58546446070359
 31
0.0
 11
185.116226212789
 21
14.73963775083673
 31
0.0
 11
185.116226212789
 21
14.87549342234018
 31
0.0
 11
185.116226212789
 21
14.98387266589912
 31
0.0
 11
185.116226212789
 21
15.0556166721987
 31
0.0
 11
185.116226212789
 21
15.08156663192408
 31
0.0
 11
185.0379865861721
 21
14.84965603302375
 31
0.0
 11
184.9497110789303
 21
14.63077616328681
 31
0.0
 11
184.8544106930045
 21
14.4359899133355
 31
0.0
 11
184.7550964303356
 21
14.27636017379206
 31
0.0
 11
184.7109198342406
 21
14.35822446196602
 31
0.0
 11
184.658805738348
 21
14.43414885430813
 31
0.0
 11
184.7627302590299
 21
14.5964008792676
 31
0.0
 11
184.8629319864735
 21
14.79551465421783
 31
0.0
 11
184.9550446607901
 21
15.01890447916199
 31
0.0
 11
185.0347020220912
 21
15.25398465410322
 31
0.0
 11
185.097537810488
 21
15.48816947904467
 31
0.0
 11
185.0693965972142
 21
15.48816947904467
 31
0.0
 11
184.9990435640297
 21
15.48816947904467
 31
0.0
 11
184.9075846208898
 21
15.48816947904467
 31
0.0
 11
184.8161256777499
 21
15.48816947904467
 31
0.0
 11
184.7457726445654
 21
15.48816947904467
 31
0.0
 11
184.7176314312916
 21
15.48816947904467
 31
0.0
 11
184.7176314312916
 21
15.51452032539225
 31
0.0
 11
184.7176314312916
 21
15.57249218735691
 31
0.0
 11
184.7176314312916
 21
15.63046404932158
 31
0.0
 11
184.7176314312916
 21
15.65681489566916
 31
0.0
 11
184.739711025602
 21
15.65681489566916
 31
0.0
 11
184.7966531372444
 21
15.65681489566916
 31
0.0
 11
184.8745127592862
 21
15.65681489566916
 31
0.0
 11
184.9593448847944
 21
15.65681489566916
 31
0.0
 11
185.0372045068361
 21
15.65681489566916
 31
0.0
 11
185.0941466184786
 21
15.65681489566916
 31
0.0
 11
185.116226212789
 21
15.65681489566916
 31
0.0
 11
185.116226212789
 21
15.68210596174357
 31
0.0
 11
185.116226212789
 21
15.74878240866701
 31
0.0
 11
185.116226212789
 21
15.8430491094898
 31
0.0
 11
185.116226212789
 21
15.95111093726227
 31
0.0
 11
185.116226212789
 21
16.05917276503475
 31
0.0
 11
185.116226212789
 21
16.15343946585754
 31
0.0
 11
185.116226212789
 21
16.22011591278098
 31
0.0
 11
185.116226212789
 21
16.24540697885539
 31
0.0
 11
185.1393181988665
 21
16.24373213107803
 31
0.0
 11
185.1943837041284
 21
16.23973826330125
 31
0.0
 11
185.2601070491184
 21
16.23497138885799
 31
0.0
 11
185.3151725543802
 21
16.2309775210812
 31
0.0
 11
185.3382645404578
 21
16.22930267330384
 31
0.0
 11
185.3249012644362
 21
16.20789677921194
 31
0.0
 11
185.2874469028653
 21
16.19450114553472
 31
0.0
 11
185.2874469028653
 21
16.17139743948581
 31
0.0
 11
185.2874469028653
 21
16.11048766899323
 31
0.0
 11
185.2874469028653
 21
16.0243738555382
 31
0.0
 11
185.2874469028653
 21
15.92565802060194
 31
0.0
 11
185.2874469028653
 21
15.82694218566568
 31
0.0
 11
185.2874469028653
 21
15.74082837221065
 31
0.0
 11
185.2874469028653
 21
15.67991860171807
 31
0.0
 11
185.2874469028653
 21
15.65681489566916
 31
0.0
 11
185.3126150604809
 21
15.65681489566916
 31
0.0
 11
185.3755354545199
 21
15.65681489566916
 31
0.0
 11
185.4573319667706
 21
15.65681489566916
 31
0.0
 11
185.5391284790212
 21
15.65681489566916
 31
0.0
 11
185.6020488730602
 21
15.65681489566916
 31
0.0
 11
185.6272170306758
 21
15.65681489566916
 31
0.0
 11
185.6272170306758
 21
15.63046404932158
 31
0.0
 11
185.6272170306758
 21
15.57249218735691
 31
0.0
 11
185.6272170306758
 21
15.51452032539225
 31
0.0
 11
185.6272170306758
 21
15.48816947904467
 31
0.0
 11
185.6020488730602
 21
15.48816947904467
 31
0.0
 11
185.5391284790212
 21
15.48816947904467
 31
0.0
 11
185.4573319667705
 21
15.48816947904467
 31
0.0
 11
185.3755354545199
 21
15.48816947904467
 31
0.0
 11
185.3126150604809
 21
15.48816947904467
 31
0.0
 11
185.2874469028653
 21
15.48816947904467
 31
0.0
 11
185.2874469028653
 21
15.46536458293925
 31
0.0
 11
185.2874469028653
 21
15.41098367684172
 31
0.0
 11
185.2874469028653
 21
15.34607743408016
 31
0.0
 11
185.2874469028653
 21
15.29169652798263
 31
0.0
 11
185.2874469028653
 21
15.26889163187721
 31
0.0
  0
SPLINE
  5
AB
102
{ACAD_REACTORS
330
C8
102
}
330
48
100
AcDbEntity
  8
_U_30EC_U_30A4_U_30E4_U_30FC_1
  6
Continuous
 62
     2
100
AcDbSpline
210
0.0
220
0.0
230
1.0
 70
    11
 71
     3
 72
    47
 73
    43
 74
    41
 42
0.000000001
 43
0.0000000001
 44
0.00000001
 40
0.0
 40
0.0
 40
0.0
 40
0.0
 40
0.2207912809957213
 40
0.4459404186303024
 40
0.4902387190459244
 40
0.5327473892722198
 40
0.5742260451225519
 40
0.6155432630560811
 40
0.6568164066315727
 40
0.6982511618780651
 40
0.740766392931716
 40
0.7851366743175225
 40
1.01028883383632
 40
1.23108050700217
 40
1.451765243652391
 40
1.676638205891684
 40
1.720461045359655
 40
1.830018144043519
 40
1.972442372353151
 40
2.114866600677519
 40
2.224423699395143
 40
2.268246538883385
 40
2.493628801207217
 40
2.715602830286616
 40
2.934211330706374
 40
3.149502369855373
 40
3.23138778485102
 40
3.318231873854055
 40
3.405143198198043
 40
3.48697030172048
 40
3.702258172493928
 40
3.920866283534163
 40
4.142839325931952
 40
4.368221903865416
 40
4.412044743359895
 40
4.521601842095909
 40
4.664026070452389
 40
4.806450298809099
 40
4.916007397546793
 40
4.959830237043115
 40
5.184703515847153
 40
5.405387250767523
 40
5.405387250767523
 40
5.405387250767523
 40
5.405387250767523
 10
182.6507427258645
 20
15.73406440953875
 30
0.0
 10
182.6568139420003
 20
15.79758482501214
 30
0.0
 10
182.6690762107242
 20
15.92587938689629
 30
0.0
 10
182.5604706879411
 20
16.20166220174079
 30
0.0
 10
182.6761985896604
 20
16.17188133432056
 30
0.0
 10
182.7171842509015
 20
16.16765556262823
 30
0.0
 10
182.7591205797518
 20
16.16310446389609
 30
0.0
 10
182.800419662571
 20
16.16201982929488
 30
0.0
 10
182.8417032115555
 20
16.16310338195229
 30
0.0
 10
182.8836148270647
 20
16.16766112711347
 30
0.0
 10
182.9245983549019
 20
16.1718743020973
 30
0.0
 10
183.0404922843488
 20
16.20177611317538
 30
0.0
 10
182.9295652727457
 20
15.92339806609892
 30
0.0
 10
182.9574856365267
 20
15.74283140824956
 30
0.0
 10
182.9404267346969
 20
15.50961042346474
 30
0.0
 10
182.9414637282103
 20
15.34906622543149
 30
0.0
 10
182.9414099399404
 20
15.22284817558725
 30
0.0
 10
182.941427737248
 20
15.12428963336244
 30
0.0
 10
182.9414188581081
 20
14.99280702442967
 30
0.0
 10
182.9414263928033
 20
14.86132844968652
 30
0.0
 10
182.9414129405129
 20
14.76276222694094
 30
0.0
 10
182.9414531717492
 20
14.63639735624154
 30
0.0
 10
182.9406746403817
 20
14.47482068822873
 30
0.0
 10
182.9565958319266
 20
14.24361821892917
 30
0.0
 10
182.9333468885407
 20
14.05874351972005
 30
0.0
 10
183.0360183444366
 20
13.78935602770056
 30
0.0
 10
182.8820238362836
 20
13.8266011268582
 30
0.0
 10
182.8004129802832
 20
13.82137994680535
 30
0.0
 10
182.7188192292583
 20
13.82660620378354
 30
0.0
 10
182.5648513666842
 20
13.78937069885387
 30
0.0
 10
182.6674183421917
 20
14.05875129862883
 30
0.0
 10
182.6442045316088
 20
14.24361585325417
 30
0.0
 10
182.6600444655138
 20
14.47482218565641
 30
0.0
 10
182.6593296313427
 20
14.63639712308506
 30
0.0
 10
182.6593664569907
 20
14.76276231210523
 30
0.0
 10
182.659354900027
 20
14.86132756635984
 30
0.0
 10
182.6593575019213
 20
14.99281127417223
 30
0.0
 10
182.6593648531779
 20
15.12427548031202
 30
0.0
 10
182.6593442541351
 20
15.22287786275329
 30
0.0
 10
182.6594082192028
 20
15.3489614935443
 30
0.0
 10
182.658173394759
 20
15.51210091383775
 30
0.0
 10
182.6532040396745
 20
15.66054183777553
 30
0.0
 10
182.6507427258645
 20
15.73406440953875
 30
0.0
 11
182.6507427258645
 21
15.73406440953875
 31
0.0
 11
182.6417328200379
 21
15.9546717879558
 31
0.0
 11
182.6318769706146
 21
16.17960510387182
 31
0.0
 11
182.6756985840801
 21
16.17312391463731
 31
0.0
 11
182.7178400934215
 21
16.16754892331927
 31
0.0
 11
182.759137140979
 21
16.16367167505634
 31
0.0
 11
182.8004341885365
 21
16.1623807288761
 31
0.0
 11
182.841687138873
 21
16.16367167505633
 31
0.0
 11
182.8829400892097
 21
16.16754892331927
 31
0.0
 11
182.9250882131343
 21
16.17312391463731
 31
0.0
 11
182.9689825870145
 21
16.17960510387182
 31
0.0
 11
182.9590577693891
 21
15.9546717879558
 31
0.0
 11
182.950038420831
 21
15.73406440953875
 31
0.0
 11
182.9435638463435
 21
15.51347467001058
 31
0.0
 11
182.9414218238286
 21
15.2886119096501
 31
0.0
 11
182.9414218238286
 21
15.24478907015489
 31
0.0
 11
182.9414218238286
 21
15.13523197141685
 31
0.0
 11
182.9414218238286
 21
14.9928077430574
 31
0.0
 11
182.9414218238286
 21
14.85038351469795
 31
0.0
 11
182.9414218238286
 21
14.74082641595992
 31
0.0
 11
182.9414218238286
 21
14.6970035764647
 31
0.0
 11
182.9435638463435
 21
14.47163149318769
 31
0.0
 11
182.950038420831
 21
14.24975190990983
 31
0.0
 11
182.9590577693891
 21
14.03132954885332
 31
0.0
 11
182.9689825870145
 21
13.81626739612929
 31
0.0
 11
182.887261616877
 21
13.82145433189188
 31
0.0
 11
182.8004341885365
 21
13.82315538223864
 31
0.0
 11
182.7135395119339
 21
13.82145433189188
 31
0.0
 11
182.6318769706146
 21
13.81626739612929
 31
0.0
 11
182.6417328200379
 21
14.03132954885332
 31
0.0
 11
182.6507427258645
 21
14.24975190990983
 31
0.0
 11
182.6571833838798
 21
14.47163149318769
 31
0.0
 11
182.6593583588023
 21
14.6970035764647
 31
0.0
 11
182.6593583588023
 21
14.74082641595991
 31
0.0
 11
182.6593583588023
 21
14.85038351469795
 31
0.0
 11
182.6593583588023
 21
14.9928077430574
 31
0.0
 11
182.6593583588023
 21
15.13523197141685
 31
0.0
 11
182.6593583588023
 21
15.24478907015489
 31
0.0
 11
182.6593583588023
 21
15.2886119096501
 31
0.0
 11
182.6571833838798
 21
15.51347467001058
 31
0.0
 11
182.6507427258645
 21
15.73406440953875
 31
0.0
  0
SPLINE
  5
AC
102
{ACAD_REACTORS
330
C9
102
}
330
48
100
AcDbEntity
  8
_U_30EC_U_30A4_U_30E4_U_30FC_1
  6
Continuous
 62
     2
100
AcDbSpline
210
0.0
220
0.0
230
1.0
 70
    11
 71
     3
 72
   110
 73
   106
 74
   104
 42
0.000000001
 43
0.0000000001
 44
0.00000001
 40
0.0
 40
0.0
 40
0.0
 40
0.0
 40
0.2203406257277737
 40
0.4407808782838073
 40
0.5952494494615053
 40
0.7488431659393057
 40
0.902358183130904
 40
1.056801968670403
 40
1.210736449099903
 40
1.363041386539781
 40
1.515315729683124
 40
1.669377239148075
 40
1.721611652756562
 40
1.773199502942942
 40
1.824933793209992
 40
1.877110426487965
 40
1.982682281206729
 40
2.078781667087537
 40
2.172809640822258
 40
2.271937807378912
 40
2.378349933379305
 40
2.494131557736494
 40
2.626681683943628
 40
2.783145050796055
 40
2.890701232940905
 40
2.993130312454804
 40
3.099869730691784
 40
3.220237816691276
 40
3.352695482737561
 40
3.481732806389815
 40
3.593499473690341
 40
3.67432301333186
 40
3.81795171195281
 40
3.946167120793807
 40
4.061405053453493
 40
4.166480796003134
 40
4.262478775059171
 40
4.350736673551127
 40
4.433071991254013
 40
4.511216293814615
 40
4.564262454117932
 40
4.618474415571558
 40
4.670128488754161
 40
4.722296879126352
 40
4.819540945314222
 40
4.931194984128079
 40
5.04999604025772
 40
5.168643755415266
 40
5.283970811762477
 40
5.392260784910302
 40
5.486512254876377
 40
5.559178233949776
 40
5.591425852853454
 40
5.626215969637831
 40
5.667155838674383
 40
5.717449290214203
 40
5.738402360944811
 40
5.784499116553773
 40
5.830595872164736
 40
5.85154894289759
 40
5.873019280661707
 40
5.924217778408252
 40
5.985325662817631
 40
6.03652416056765
 40
6.05799449833418
 40
6.236847789607435
 40
6.381409928945605
 40
6.493190424178635
 40
6.574067534230444
 40
6.691018086205538
 40
6.814881554220456
 40
6.944307823240409
 40
7.071266716066032
 40
7.193488604461877
 40
7.309042773128104
 40
7.41400720317073
 40
7.505140441886486
 40
7.531150360599645
 40
7.559221645322237
 40
7.58720221892088
 40
7.612569159499099
 40
7.662550809480972
 40
7.702878875764116
 40
7.857328205230931
 40
8.010799568088576
 40
8.165256399657526
 40
8.322232698713865
 40
8.479564855016552
 40
8.635216230290755
 40
8.790882550925673
 40
8.948305154947239
 40
9.16827183903294
 40
9.387358980987202
 40
9.608047961033447
 40
9.832914234792653
 40
9.85833869496299
 40
9.925366817229994
 40
10.02013071422758
 40
10.12876249858997
 40
10.23739428295247
 40
10.33215817995189
 40
10.39918630222392
 40
10.42461076239781
 40
10.64992019336941
 40
10.87188524531186
 40
10.87188524531186
 40
10.87188524531186
 40
10.87188524531186
 10
179.9057788376618
 20
15.73923260398193
 30
0.0
 10
179.9092864933541
 20
15.80616462073807
 30
0.0
 10
179.9163033987662
 20
15.94005891915861
 30
0.0
 10
179.8198027599073
 20
16.22548554971473
 30
0.0
 10
180.0510134726108
 20
16.16284386190286
 30
0.0
 10
180.1919290057156
 20
16.17001554055993
 30
0.0
 10
180.3490417757588
 20
16.16235883078247
 30
0.0
 10
180.5025913427287
 20
16.16252752283043
 30
0.0
 10
180.6545104935081
 20
16.16182040535434
 30
0.0
 10
180.8142214813231
 20
16.17210158351642
 30
0.0
 10
180.9408972601117
 20
16.15496511080753
 30
0.0
 10
181.137082112208
 20
16.22727260107149
 30
0.0
 10
181.1034395279078
 20
16.1264069908012
 30
0.0
 10
181.1052011317184
 20
16.07619253947674
 30
0.0
 10
181.1027342073458
 20
16.02712335586469
 30
0.0
 10
181.1347076966011
 20
15.94063490847002
 30
0.0
 10
181.0010399903256
 20
15.9899743860834
 30
0.0
 10
180.9172208688057
 20
15.9843063431417
 30
0.0
 10
180.8173861139324
 20
15.99465516706302
 30
0.0
 10
180.7186576720145
 20
16.00086450411088
 30
0.0
 10
180.612153277111
 20
16.0069776381678
 30
0.0
 10
180.491051169806
 20
16.01588883484589
 30
0.0
 10
180.3703381502453
 20
16.00521605912385
 30
0.0
 10
180.1812553843437
 20
16.06468503080369
 30
0.0
 10
180.2129028505311
 20
15.90558320077542
 30
0.0
 10
180.1995563316834
 20
15.80839128339907
 30
0.0
 10
180.197495842645
 20
15.69634065110106
 30
0.0
 10
180.195818804467
 20
15.57699685629353
 30
0.0
 10
180.1973336794233
 20
15.45032592155113
 30
0.0
 10
180.195658247867
 20
15.3230158801612
 30
0.0
 10
180.2058844271657
 20
15.22451566404467
 30
0.0
 10
180.1779006596582
 20
15.08388702625633
 30
0.0
 10
180.3508029999305
 20
15.13989551134098
 30
0.0
 10
180.4645020202772
 20
15.127199514785
 30
0.0
 10
180.5840151672239
 20
15.13448377051259
 30
0.0
 10
180.6888491425071
 20
15.13878017056758
 30
0.0
 10
180.7843084898612
 20
15.1433056825898
 30
0.0
 10
180.8763823507032
 20
15.15149201146202
 30
0.0
 10
180.9476551782438
 20
15.14643850638114
 30
0.0
 10
181.0544931705685
 20
15.18536425031677
 30
0.0
 10
181.0226603598036
 20
15.10517122005882
 30
0.0
 10
181.0266164503929
 20
15.05562936846036
 30
0.0
 10
181.0234502392013
 20
15.00557478039822
 30
0.0
 10
181.0550791490584
 20
14.92128847612025
 30
0.0
 10
180.9210133677691
 20
14.9742536549516
 30
0.0
 10
180.82923227932
 20
14.96540080890446
 30
0.0
 10
180.7079729189602
 20
14.97570049965156
 30
0.0
 10
180.5914113119771
 20
14.97748911767506
 30
0.0
 10
180.4783375745879
 20
14.97787017109696
 30
0.0
 10
180.3679246308471
 20
14.98415449472181
 30
0.0
 10
180.2898124067841
 20
14.97189133255367
 30
0.0
 10
180.1913625833643
 20
15.00453887616129
 30
0.0
 10
180.2012355173561
 20
14.9476974805421
 30
0.0
 10
180.1973923244402
 20
14.91392130557987
 30
0.0
 10
180.1966789884268
 20
14.87119604709414
 30
0.0
 10
180.1963369642976
 20
14.83401607262155
 30
0.0
 10
180.1963834255345
 20
14.79487237370773
 30
0.0
 10
180.1963649429927
 20
14.75716849497688
 30
0.0
 10
180.1963703431806
 20
14.71944955232406
 30
0.0
 10
180.1963697214201
 20
14.68994324745153
 30
0.0
 10
180.1963698151545
 20
14.65873577699305
 30
0.0
 10
180.1963704287921
 20
14.61414424908089
 30
0.0
 10
180.1963671499336
 20
14.55963956508854
 30
0.0
 10
180.1963759623481
 20
14.51505540201451
 30
0.0
 10
180.1963359653416
 20
14.43117808585743
 30
0.0
 10
180.1976024270255
 20
14.31737520677681
 30
0.0
 10
180.1950274117842
 20
14.16830395933712
 30
0.0
 10
180.2065009381719
 20
14.06597203813908
 30
0.0
 10
180.1823506222264
 20
13.93338903885837
 30
0.0
 10
180.3332993946476
 20
13.97895732272024
 30
0.0
 10
180.4428436671556
 20
13.96427012162352
 30
0.0
 10
180.573397047392
 20
13.96920435125066
 30
0.0
 10
180.6990312209514
 20
13.97257705323362
 30
0.0
 10
180.8188730625601
 20
13.97711497498776
 30
0.0
 10
180.9391362611426
 20
13.99048536182008
 30
0.0
 10
181.0222761663515
 20
13.98068712782598
 30
0.0
 10
181.1456080421075
 20
14.04126214623322
 30
0.0
 10
181.1244269203956
 20
13.98532460134023
 30
0.0
 10
181.1235950270117
 20
13.95939249372349
 30
0.0
 10
181.1218963707558
 20
13.93197256190942
 30
0.0
 10
181.121797488883
 20
13.89738195206388
 30
0.0
 10
181.1203659301329
 20
13.86050408220771
 30
0.0
 10
181.153280419219
 20
13.76846841021807
 30
0.0
 10
180.9551306988107
 20
13.84132015974835
 30
0.0
 10
180.8300548294891
 20
13.81825726508607
 30
0.0
 10
180.6673071295155
 20
13.82454021985788
 30
0.0
 10
180.5129366450001
 20
13.82260943909928
 30
0.0
 10
180.3566670436943
 20
13.8239376259927
 30
0.0
 10
180.1970544465282
 20
13.82059872487864
 30
0.0
 10
180.0540326342236
 20
13.83265795728243
 30
0.0
 10
179.8197144881628
 20
13.7695200197692
 30
0.0
 10
179.9173810751197
 20
14.0562052746632
 30
0.0
 10
179.9006868780058
 20
14.24988308142662
 30
0.0
 10
179.9146296709685
 20
14.47848242880298
 30
0.0
 10
179.9142987846631
 20
14.63384593955051
 30
0.0
 10
179.9143078119264
 20
14.73966336444129
 30
0.0
 10
179.9143055876315
 20
14.80205784124217
 30
0.0
 10
179.9143065551889
 20
14.8922042524833
 30
0.0
 10
179.9143065473261
 20
14.9962116715744
 30
0.0
 10
179.9143053861102
 20
15.10022131375299
 30
0.0
 10
179.9143090971503
 20
15.19036243688771
 30
0.0
 10
179.9143011051051
 20
15.25276803097218
 30
0.0
 10
179.9143334275018
 20
15.35868835961121
 30
0.0
 10
179.9131440788319
 20
15.51626716544742
 30
0.0
 10
179.9082216489256
 20
15.66528219822068
 30
0.0
 10
179.9057788376618
 20
15.73923260398193
 30
0.0
 11
179.9057788376618
 21
15.73923260398193
 31
0.0
 11
179.896691822374
 21
15.95938578101021
 31
0.0
 11
179.8868249573133
 21
16.17960510387182
 31
0.0
 11
180.04115751414
 21
16.17312391463731
 31
0.0
 11
180.1946500189046
 21
16.16754892331927
 31
0.0
 11
180.3481160653366
 21
16.16367167505634
 31
0.0
 11
180.5025544554939
 21
16.1623807288761
 31
0.0
 11
180.6564835227473
 21
16.16367167505633
 31
0.0
 11
180.80873910046
 21
16.16754892331927
 31
0.0
 11
180.9609113551074
 21
16.17312391463731
 31
0.0
 11
181.1148364762483
 21
16.17960510387182
 31
0.0
 11
181.1070811703123
 21
16.12794961777361
 31
0.0
 11
181.1044991623591
 21
16.07642642334207
 31
0.0
 11
181.1070811703123
 21
16.02475660564663
 31
0.0
 11
181.1148364762483
 21
15.97315954836788
 31
0.0
 11
181.0094874054411
 21
15.98001446156061
 31
0.0
 11
180.913637570006
 21
15.9869355205866
 31
0.0
 11
180.8198593171903
 21
15.99378381919602
 31
0.0
 11
180.7209679915881
 21
16.00063211780542
 31
0.0
 11
180.6147532199924
 21
16.00710999974827
 31
0.0
 11
180.4991060528038
 21
16.01268829835797
 31
0.0
 11
180.3666126447258
 21
16.0165655466209
 31
0.0
 11
180.2101546018423
 21
16.01785649280114
 31
0.0
 11
180.2062663293721
 21
15.91037061609189
 31
0.0
 11
180.20153800484
 21
15.80805072896467
 31
0.0
 11
180.1976607566749
 21
15.7013817532969
 31
0.0
 11
180.1963698105272
 21
15.58102059013253
 31
0.0
 11
180.1967799146836
 21
15.44856355891568
 31
0.0
 11
180.1980896021502
 21
15.31953288186458
 31
0.0
 11
180.1994074577049
 21
15.20777398432312
 31
0.0
 11
180.199819115366
 21
15.12695149302387
 31
0.0
 11
180.3434452935874
 21
15.12780256941253
 31
0.0
 11
180.4716343930758
 21
15.13039989580079
 31
0.0
 11
180.5868078221795
 21
15.13425509545257
 31
0.0
 11
180.691775631222
 21
15.13901649302079
 31
0.0
 11
180.7876346289421
 21
15.14418027774178
 31
0.0
 11
180.8757413374193
 21
15.1493440624627
 31
0.0
 11
180.9578881438496
 21
15.15491243919742
 31
0.0
 11
181.0357692335571
 21
15.16132086801527
 31
0.0
 11
181.0280180445186
 21
15.1088440711534
 31
0.0
 11
181.0254328449317
 21
15.0546937847086
 31
0.0
 11
181.0280180445186
 21
15.00310444444369
 31
0.0
 11
181.0357692335571
 21
14.95151510417885
 31
0.0
 11
180.9389813454014
 21
14.9609232465376
 31
0.0
 11
180.8275950722015
 21
14.96865128473016
 31
0.0
 11
180.7089261429373
 21
14.97425273438148
 31
0.0
 11
180.5903167449213
 21
14.97726788195014
 31
0.0
 11
180.4750025117521
 21
14.9789876736164
 31
0.0
 11
180.36672619507
 21
14.98070746528259
 31
0.0
 11
180.2724839317708
 21
14.9820248697962
 31
0.0
 11
180.199819115366
 21
14.98243607639333
 31
0.0
 11
180.199407457705
 21
14.95019108508194
 31
0.0
 11
180.1980896021502
 21
14.91542593752121
 31
0.0
 11
180.1967799146836
 21
14.87450702260087
 31
0.0
 11
180.1963698105272
 21
14.82421524309953
 31
0.0
 11
180.1963698105272
 21
14.80326217235824
 31
0.0
 11
180.1963698105272
 21
14.75716541672739
 31
0.0
 11
180.1963698105272
 21
14.71106866109654
 31
0.0
 11
180.1963698105272
 21
14.69011559035525
 31
0.0
 11
180.1963698105272
 21
14.66864525258284
 31
0.0
 11
180.1963698105272
 21
14.61744675481787
 31
0.0
 11
180.1963698105272
 21
14.55633887038871
 31
0.0
 11
180.1963698105272
 21
14.50514037262374
 31
0.0
 11
180.1963698105272
 21
14.48367003485133
 31
0.0
 11
180.1967799146836
 21
14.3048172137155
 31
0.0
 11
180.1980896021502
 21
14.16026100715445
 31
0.0
 11
180.2002868589709
 21
14.04850210961292
 31
0.0
 11
180.2032586986985
 21
13.96767961831368
 31
0.0
 11
180.3202092517447
 21
13.96767961831368
 31
0.0
 11
180.4440727208746
 21
13.96767961831368
 31
0.0
 11
180.5734925526422
 21
13.96897056449393
 31
0.0
 11
180.7003922282244
 21
13.97284781275684
 31
0.0
 11
180.8224658067973
 21
13.97886708358868
 31
0.0
 11
180.9377587499463
 21
13.98663260442005
 31
0.0
 11
181.0421754573518
 21
13.99734161483405
 31
0.0
 11
181.1320599255448
 21
14.01237656274695
 31
0.0
 11
181.1264254031191
 21
13.98698427976718
 31
0.0
 11
181.1234433285423
 21
13.95907184053804
 31
0.0
 11
181.12213398812
 21
13.93112191867006
 31
0.0
 11
181.1217235369195
 21
13.90575829888475
 31
0.0
 11
181.1243087365064
 21
13.85584355063329
 31
0.0
 11
181.1320599255448
 21
13.81626739612929
 31
0.0
 11
180.9776977178344
 21
13.82145433189188
 31
0.0
 11
180.8242357818765
 21
13.82315538223864
 31
0.0
 11
180.6697789496483
 21
13.82315538223864
 31
0.0
 11
180.5128026496768
 21
13.82315538223864
 31
0.0
 11
180.3554704921536
 21
13.82315538223864
 31
0.0
 11
180.199819115366
 21
13.82315538223864
 31
0.0
 11
180.0441620874241
 21
13.82145433189188
 31
0.0
 11
179.8868249573133
 21
13.81626739612929
 31
0.0
 11
179.896691822374
 21
14.03601267385213
 31
0.0
 11
179.9057788376618
 21
14.25491128490853
 31
0.0
 11
179.91217215184
 21
14.47550763902005
 31
0.0
 11
179.9143063455009
 21
14.70036378479718
 31
0.0
 11
179.9143063455009
 21
14.72578824496878
 31
0.0
 11
179.9143063455009
 21
14.79281636723934
 31
0.0
 11
179.9143063455009
 21
14.88758026424256
 31
0.0
 11
179.9143063455009
 21
14.9962120486121
 31
0.0
 11
179.9143063455009
 21
15.10484383298165
 31
0.0
 11
179.9143063455009
 21
15.19960772998487
 31
0.0
 11
179.9143063455009
 21
15.26663585225544
 31
0.0
 11
179.9143063455009
 21
15.29206031242703
 31
0.0
 11
179.91217215184
 21
15.51735963528737
 31
0.0
 11
179.9057788376618
 21
15.73923260398193
 31
0.0
  0
SPLINE
  5
AD
102
{ACAD_REACTORS
330
CA
102
}
330
48
100
AcDbEntity
  8
_U_30EC_U_30A4_U_30E4_U_30FC_1
  6
Continuous
 62
     2
100
AcDbSpline
210
0.0
220
0.0
230
1.0
 70
    11
 71
     3
 72
    95
 73
    91
 74
    89
 42
0.000000001
 43
0.0000000001
 44
0.00000001
 40
0.0
 40
0.0
 40
0.0
 40
0.0
 40
0.6550406656911559
 40
1.308087289031939
 40
1.420803739835811
 40
1.566130759770802
 40
1.757067341888474
 40
2.006513545026461
 40
2.087328263121565
 40
2.185328872295641
 40
2.294612454748392
 40
2.408936380534835
 40
2.526802767798578
 40
2.646360524615621
 40
2.762535723971598
 40
2.870057342870172
 40
2.966883448431668
 40
3.05080324351831
 40
3.115818222436625
 40
3.156030057150268
 40
3.213914225080171
 40
3.276689026450571
 40
3.342960320981348
 40
3.404230667150598
 40
3.453822809493421
 40
3.532499827188464
 40
3.634775188507211
 40
3.75490933300821
 40
3.889736761660702
 40
4.035769602175274
 40
4.187256681197657
 40
4.338733685676006
 40
4.488478734676171
 40
4.634708317831635
 40
4.77149318992132
 40
4.89268657156126
 40
5.199775528944494
 40
5.460353566929686
 40
5.667603142345563
 40
5.814722905404542
 40
5.82899080621984
 40
5.855488336304537
 40
5.869756237118869
 40
6.189796507762873
 40
6.531890469873055
 40
6.883053637017053
 40
7.230512024911528
 40
7.566966656764642
 40
7.885203559707462
 40
8.172887439719268
 40
8.418011594062824
 40
8.443926721190747
 40
8.510760470613235
 40
8.602145393795746
 40
8.70171404164719
 40
8.793098965075423
 40
8.859932715057996
 40
8.885847842603646
 40
9.242301256612851
 40
9.589275455016814
 40
9.921808543164222
 40
10.23479624298472
 40
10.29968150889183
 40
10.35323493887771
 40
10.40154625355156
 40
10.46482922477832
 40
10.55973900668412
 40
10.69239545985624
 40
10.84920353475678
 40
11.01626328594788
 40
11.1867202436745
 40
11.35372582577217
 40
11.50257442292434
 40
11.61866495023298
 40
11.71329869152882
 40
11.82511050573915
 40
11.94464880845723
 40
12.06929242642514
 40
12.19707290435183
 40
12.32562632860536
 40
12.45034565331286
 40
12.56646595170334
 40
12.67099007414642
 40
12.7607762593679
 40
12.82703233506701
 40
12.87429132786
 40
12.89831990323339
 40
12.92234847860028
 40
13.53984767410327
 40
14.18294284359372
 40
14.18294284359372
 40
14.18294284359372
 40
14.18294284359372
 10
177.3067935648021
 20
14.70898038201727
 30
0.0
 10
177.1752019758551
 20
14.82265058603235
 30
0.0
 10
176.9124193802728
 20
15.0496449631616
 30
0.0
 10
176.3997393441021
 20
15.89214462956291
 30
0.0
 10
176.4106654595362
 20
15.53423377577023
 30
0.0
 10
176.4041226527991
 20
15.39267392272136
 30
0.0
 10
176.4028026631773
 20
15.19421305299285
 30
0.0
 10
176.4018117602538
 20
15.02150296045986
 30
0.0
 10
176.4024101751974
 20
14.87865373257583
 30
0.0
 10
176.4038994301883
 20
14.7826500541336
 30
0.0
 10
176.4055683588472
 20
14.67545503263143
 30
0.0
 10
176.4071934954618
 20
14.56164211517584
 30
0.0
 10
176.4092429501685
 20
14.44441572604591
 30
0.0
 10
176.4123165501927
 20
14.32656411232973
 30
0.0
 10
176.4156339697041
 20
14.21228087320622
 30
0.0
 10
176.419360534028
 20
14.10521401867279
 30
0.0
 10
176.4217338161424
 20
14.01007408766924
 30
0.0
 10
176.4278718888357
 20
13.92558557205698
 30
0.0
 10
176.4239784495947
 20
13.86923087298144
 30
0.0
 10
176.4455230443077
 20
13.79825022472357
 30
0.0
 10
176.3680940058618
 20
13.82902677604487
 30
0.0
 10
176.3116353240191
 20
13.82011242517615
 30
0.0
 10
176.2540495896807
 20
13.82896218398278
 30
0.0
 10
176.1690163478472
 20
13.79738225225946
 30
0.0
 10
176.2009714146382
 20
13.88095155992192
 30
0.0
 10
176.1990705282539
 20
13.94882608968312
 30
0.0
 10
176.21079600473
 20
14.05233256764421
 30
0.0
 10
176.2164241053
 20
14.17002125616697
 30
0.0
 10
176.2237902178941
 20
14.30388609164426
 30
0.0
 10
176.2320759701611
 20
14.44764152872634
 30
0.0
 10
176.2398851897426
 20
14.59714022843448
 30
0.0
 10
176.2457571222658
 20
14.74792549402081
 30
0.0
 10
176.2503667817968
 20
14.89699943878441
 30
0.0
 10
176.2542632117542
 20
15.04122913163025
 30
0.0
 10
176.2570715126564
 20
15.17583905213021
 30
0.0
 10
176.2576698755022
 20
15.36469614347357
 30
0.0
 10
176.2616023867151
 20
15.58975494313157
 30
0.0
 10
176.2442175378497
 20
15.8636709112571
 30
0.0
 10
176.2850417342584
 20
16.02787112098601
 30
0.0
 10
176.1995153256001
 20
16.22749661465098
 30
0.0
 10
176.2660558907688
 20
16.22385458403982
 30
0.0
 10
176.283872427323
 20
16.22413447160857
 30
0.0
 10
176.4056801797506
 20
16.22632927398618
 30
0.0
 10
176.508077033546
 20
15.94675118721517
 30
0.0
 10
176.7580021509356
 20
15.74563008536006
 30
0.0
 10
176.987003533111
 20
15.4779261498792
 30
0.0
 10
177.2245151213108
 20
15.22646413862379
 30
0.0
 10
177.4486090740772
 20
14.9896997406136
 30
0.0
 10
177.6750716283009
 20
14.73218692583082
 30
0.0
 10
177.8325687886514
 20
14.61649335056924
 30
0.0
 10
178.0472129612675
 20
14.27997152538795
 30
0.0
 10
178.0422645974618
 20
14.40464754091606
 30
0.0
 10
178.0433931602546
 20
14.46327691935739
 30
0.0
 10
178.0428877841517
 20
14.55043662371979
 30
0.0
 10
178.0430475158113
 20
14.64416143182875
 30
0.0
 10
178.0430054891318
 20
14.73018971297038
 30
0.0
 10
178.0430202040372
 20
14.79153891945498
 30
0.0
 10
178.0429706255983
 20
14.94135231520995
 30
0.0
 10
178.0458811522811
 20
15.17989612510107
 30
0.0
 10
178.0259521041161
 20
15.54486509868704
 30
0.0
 10
178.0750433936248
 20
15.80799631993415
 30
0.0
 10
177.9177951509179
 20
16.21928904947754
 30
0.0
 10
178.0762112872421
 20
16.1639828255175
 30
0.0
 10
178.1311680478628
 20
16.16199686500179
 30
0.0
 10
178.182788776674
 20
16.16264778248255
 30
0.0
 10
178.2713198965365
 20
16.20369527738248
 30
0.0
 10
178.2204898303169
 20
16.0569632662299
 30
0.0
 10
178.2313389930283
 20
15.95019971954435
 30
0.0
 10
178.2166036994848
 20
15.79085705414115
 30
0.0
 10
178.2099976446204
 20
15.62853061652876
 30
0.0
 10
178.2014961399915
 20
15.45992521892398
 30
0.0
 10
178.1943227202199
 20
15.29814814703543
 30
0.0
 10
178.1889063215389
 20
15.15422331457935
 30
0.0
 10
178.1871713967648
 20
15.03437493466927
 30
0.0
 10
178.1875440672319
 20
14.92686101590517
 30
0.0
 10
178.1873656126262
 20
14.81820024645588
 30
0.0
 10
178.187701086314
 20
14.69953570165532
 30
0.0
 10
178.1890040622184
 20
14.57555163512744
 30
0.0
 10
178.1908887351574
 20
14.44858294171107
 30
0.0
 10
178.1925004454851
 20
14.32153861551035
 30
0.0
 10
178.1941403137429
 20
14.19854884492181
 30
0.0
 10
178.1962570745752
 20
14.08300931383762
 30
0.0
 10
178.1963848422363
 20
13.98090903955839
 30
0.0
 10
178.2006514396554
 20
13.89009848838159
 30
0.0
 10
178.1908440085289
 20
13.83213621208789
 30
0.0
 10
178.2118474771689
 20
13.76517130132031
 30
0.0
 10
178.1725639739897
 20
13.77291153966691
 30
0.0
 10
177.9595307117746
 20
13.75755254145195
 30
0.0
 10
177.7636297943186
 20
14.31403058094473
 30
0.0
 10
177.4611197631544
 20
14.57556035348513
 30
0.0
 10
177.3067935648021
 20
14.70898038201727
 30
0.0
 11
177.3067935648021
 21
14.70898038201727
 31
0.0
 11
176.8595529338511
 21
15.1875763541198
 31
0.0
 11
176.4124049070643
 21
15.66352649288973
 31
0.0
 11
176.4089664262494
 21
15.55086249986235
 31
0.0
 11
176.40556101835
 21
15.40557538184314
 31
0.0
 11
176.4029636920274
 21
15.21465645827971
 31
0.0
 11
176.4021126156603
 21
14.96521170139761
 31
0.0
 11
176.4025239230289
 21
14.88439802954283
 31
0.0
 11
176.4038420329817
 21
14.78640628477564
 31
0.0
 11
176.4055192267718
 21
14.67713557299741
 31
0.0
 11
176.4072367127518
 21
14.56282454872041
 31
0.0
 11
176.4094007838772
 21
14.44497802965268
 31
0.0
 11
176.4124049070643
 21
14.32545802100202
 31
0.0
 11
176.4158359733138
 21
14.20933349846159
 31
0.0
 11
176.4192928929998
 21
14.10186746550232
 31
0.0
 11
176.4227085253088
 21
14.00510162351267
 31
0.0
 11
176.4261896983793
 21
13.92125406276975
 31
0.0
 11
176.4296006184313
 21
13.85632862007762
 31
0.0
 11
176.4330776843148
 21
13.81626739612929
 31
0.0
 11
176.3754263821571
 21
13.82145433189188
 31
0.0
 11
176.3126746318309
 21
13.82315538223864
 31
0.0
 11
176.2464251717157
 21
13.82145433189188
 31
0.0
 11
176.1853747739675
 21
13.81626739612929
 31
0.0
 11
176.1926772737812
 21
13.86531894125593
 31
0.0
 11
176.2008793569054
 21
13.94356725720857
 31
0.0
 11
176.2090098822348
 21
14.04551893253032
 31
0.0
 11
176.2163406441397
 21
14.16542920159755
 31
0.0
 11
176.2236358280421
 21
14.30005912343892
 31
0.0
 11
176.2318444255596
 21
14.44586107652748
 31
0.0
 11
176.2395504149465
 21
14.59715203135076
 31
0.0
 11
176.2455763002093
 21
14.74850913200737
 31
0.0
 11
176.2503046247416
 21
14.89817951391439
 31
0.0
 11
176.254192897212
 21
15.04435739582225
 31
0.0
 11
176.2567527408965
 21
15.18111831592699
 31
0.0
 11
176.2576324804574
 21
15.30230850686893
 31
0.0
 11
176.257192610677
 21
15.60939715262547
 31
0.0
 11
176.2559126888347
 21
15.86997204839368
 31
0.0
 11
176.2528658717893
 21
16.07719922716128
 31
0.0
 11
176.2473049112763
 21
16.22421385386065
 31
0.0
 11
176.2615728121469
 21
16.22421385386065
 31
0.0
 11
176.2880703423352
 21
16.22421385386065
 31
0.0
 11
176.3023382432058
 21
16.22421385386065
 31
0.0
 11
176.5194743650277
 21
15.98910179662776
 31
0.0
 11
176.7512744123079
 21
15.73751281231566
 31
0.0
 11
176.9894816018839
 21
15.47949555543574
 31
0.0
 11
177.2260074557521
 21
15.22497079855492
 31
0.0
 11
177.4555698717705
 21
14.9789975954914
 31
0.0
 11
177.6731797360103
 21
14.7467893403411
 31
0.0
 11
177.8713724913707
 21
14.53826680567102
 31
0.0
 11
178.0430143099086
 21
14.36326697932591
 31
0.0
 11
178.0430143099086
 21
14.38918210687045
 31
0.0
 11
178.0430143099086
 21
14.45601585685374
 31
0.0
 11
178.0430143099086
 21
14.54740078030027
 31
0.0
 11
178.0430143099086
 21
14.64696942823456
 31
0.0
 11
178.0430143099086
 21
14.73835435168109
 31
0.0
 11
178.0430143099086
 21
14.80518810166438
 31
0.0
 11
178.0430143099086
 21
14.83110322920892
 31
0.0
 11
178.0417233637609
 21
15.18755430550869
 31
0.0
 11
178.0378461155958
 21
15.53450684014418
 31
0.0
 11
178.0296197790002
 21
15.86693815950555
 31
0.0
 11
178.0154535467228
 21
16.17960510387182
 31
0.0
 11
178.0790351249618
 21
16.16666367158337
 31
0.0
 11
178.1324170159611
 21
16.1623807288761
 31
0.0
 11
178.1805381084833
 21
16.16666367158337
 31
0.0
 11
178.2424836798197
 21
16.17960510387182
 31
0.0
 11
178.2351216487575
 21
16.08498128445103
 31
0.0
 11
178.2269790968818
 21
15.95257496503967
 31
0.0
 11
178.2183705364004
 21
15.79600336785659
 31
0.0
 11
178.2097547223215
 21
15.62916593734272
 31
0.0
 11
178.2016187850288
 21
15.45890325509363
 31
0.0
 11
178.1942501393835
 21
15.29206031242703
 31
0.0
 11
178.1891406931522
 21
15.14329943572812
 31
0.0
 11
178.1874503478904
 21
15.02722121527104
 31
0.0
 11
178.1874503478904
 21
14.93258747397521
 31
0.0
 11
178.1874503478904
 21
14.82077565976709
 31
0.0
 11
178.1878461204497
 21
14.70123801222752
 31
0.0
 11
178.1890819450708
 21
14.57660052093922
 31
0.0
 11
178.1908392193317
 21
14.44883212687394
 31
0.0
 11
178.1925303477608
 21
14.32028982655882
 31
0.0
 11
178.1942876220214
 21
14.19558288214558
 31
0.0
 11
178.1959787504505
 21
14.07947489606352
 31
0.0
 11
178.1972884379172
 21
13.97495896727021
 31
0.0
 11
178.1976985420735
 21
13.88517371555655
 31
0.0
 11
178.1976985420735
 21
13.81891763918419
 31
0.0
 11
178.1976985420735
 21
13.77165864614044
 31
0.0
 11
178.1736699662976
 21
13.77165864614044
 31
0.0
 11
178.1496413905217
 21
13.77165864614044
 31
0.0
 11
177.7410729200423
 21
14.23466735262193
 31
0.0
 11
177.3067935648021
 21
14.70898038201727
 31
0.0
  0
SPLINE
  5
AE
102
{ACAD_REACTORS
330
CB
102
}
330
48
100
AcDbEntity
  8
_U_30EC_U_30A4_U_30E4_U_30FC_1
  6
Continuous
 62
     2
100
AcDbSpline
210
0.0
220
0.0
230
1.0
 70
    11
 71
     3
 72
    25
 73
    21
 74
    19
 42
0.000000001
 43
0.0000000001
 44
0.00000001
 40
0.0
 40
0.0
 40
0.0
 40
0.0
 40
0.0911479969064821
 40
0.1858117896204663
 40
0.2804128399734491
 40
0.371588919071451
 40
0.4679080494218708
 40
0.5642683809229231
 40
0.6605683222644991
 40
0.7569653015810256
 40
0.8561348172522724
 40
1.092615965104294
 40
1.374867658141877
 40
1.611348812011599
 40
1.710518328425249
 40
1.809403163726568
 40
2.045205463294068
 40
2.32664691762213
 40
2.562449217190593
 40
2.661334043833911
 40
2.661334043833911
 40
2.661334043833911
 40
2.661334043833911
 10
173.2683700567199
 20
14.88614538197295
 30
0.0
 10
173.2987525917923
 20
14.88598079714557
 30
0.0
 10
173.3606895889112
 20
14.88564528689924
 30
0.0
 10
173.454135696033
 20
14.88269055452004
 30
0.0
 10
173.5475095236357
 20
14.87977752877153
 30
0.0
 10
173.6417760753476
 20
14.8789420164342
 30
0.0
 10
173.7354964790967
 20
14.87996644658049
 30
0.0
 10
173.8352040303204
 20
14.87916977470975
 30
0.0
 10
173.9188949546312
 20
14.88921410235222
 30
0.0
 10
174.0637996315045
 20
14.86234617674168
 30
0.0
 10
173.9396132444801
 20
15.03665530280051
 30
0.0
 10
173.8965867286283
 20
15.19651711006095
 30
0.0
 10
173.7808922142209
 20
15.45518458550219
 30
0.0
 10
173.7017565431257
 20
15.59231052861861
 30
0.0
 10
173.6431576621816
 20
15.8093703313408
 30
0.0
 10
173.5864803939438
 20
15.59266134213431
 30
0.0
 10
173.5052809900477
 20
15.4532701243824
 30
0.0
 10
173.4063701281488
 20
15.20406969370197
 30
0.0
 10
173.3253625094259
 20
15.01925830226075
 30
0.0
 10
173.2813683325838
 20
14.91650446856119
 30
0.0
 10
173.2683700567199
 20
14.88614538197295
 30
0.0
 11
173.2683700567199
 21
14.88614538197295
 31
0.0
 11
173.359513773782
 21
14.88526123266763
 31
0.0
 11
173.4541428297581
 21
14.88269697919603
 31
0.0
 11
173.5487082179706
 21
14.88009965280781
 31
0.0
 11
173.6398803250196
 21
14.87924857641913
 31
0.0
 11
173.7361985777706
 21
14.87965978301624
 31
0.0
 11
173.8325499034376
 21
14.88097718752974
 31
0.0
 11
173.9288262638286
 21
14.88310818579315
 31
0.0
 11
174.0251753846343
 21
14.88614538197295
 31
0.0
 11
173.9854633323141
 21
14.97701642195023
 31
0.0
 11
173.8907653613968
 21
15.19370890189605
 31
0.0
 11
173.7777387509471
 21
15.45234186183138
 31
0.0
 11
173.6830407800297
 21
15.6690343417772
 31
0.0
 11
173.6433287277095
 21
15.75990538175448
 31
0.0
 11
173.6043330259266
 21
15.6690343417772
 31
0.0
 11
173.5113432755212
 21
15.45234186183138
 31
0.0
 11
173.4003555089082
 21
15.19370890189605
 31
0.0
 11
173.3073657585028
 21
14.97701642195023
 31
0.0
 11
173.2683700567199
 21
14.88614538197295
 31
0.0
  0
SPLINE
  5
AF
102
{ACAD_REACTORS
330
CB
102
}
330
48
100
AcDbEntity
  8
_U_30EC_U_30A4_U_30E4_U_30FC_1
  6
Continuous
 62
     2
100
AcDbSpline
210
0.0
220
0.0
230
1.0
 70
    11
 71
     3
 72
    57
 73
    53
 74
    51
 42
0.000000001
 43
0.0000000001
 44
0.00000001
 40
0.0
 40
0.0
 40
0.0
 40
0.0
 40
0.0471632082809242
 40
0.0914861054632158
 40
0.1357762519702394
 40
0.1826527001610689
 40
0.2295203288572598
 40
0.2737751972220767
 40
0.3181310461543074
 40
0.3652607198398524
 40
0.4571007286314615
 40
0.5671851029165309
 40
0.6894623283868413
 40
0.8181758272546082
 40
0.951008722927404
 40
1.085852229674068
 40
1.218126164475325
 40
1.343545131142395
 40
1.454537202956811
 40
1.56718760753082
 40
1.680710966642439
 40
1.794226869736803
 40
1.900009184247603
 40
2.004085860447882
 40
2.10816267445177
 40
2.214000150155314
 40
2.496038577352147
 40
2.76235074547928
 40
2.997275353279421
 40
3.185110082137755
 40
3.246407890063983
 40
3.312607550212713
 40
3.378877742711615
 40
3.440140399651471
 40
4.100501696006503
 40
4.754913085563547
 40
5.41133169342396
 40
6.077890432568744
 40
6.110575292671023
 40
6.143260152775803
 40
6.367989363395199
 40
6.610525374951594
 40
6.863389136467353
 40
7.119380025547632
 40
7.376036605091143
 40
7.631164770966326
 40
7.87672242545646
 40
8.104953735856013
 40
8.312916685924346
 40
8.497730294941347
 40
8.651018984313893
 40
8.764738853624642
 40
8.764738853624642
 40
8.764738853624642
 40
8.764738853624642
 10
174.7922649500513
 20
13.81626739612929
 30
0.0
 10
174.7766616726931
 20
13.8182623107908
 30
0.0
 10
174.7463947960302
 20
13.82213201360302
 30
0.0
 10
174.7010994202252
 20
13.8234198496727
 30
0.0
 10
174.6559553129349
 20
13.82308683554053
 30
0.0
 10
174.6099017123399
 20
13.82314658674225
 30
0.0
 10
174.5640496172097
 20
13.82325813650003
 30
0.0
 10
174.5183711648165
 20
13.82277833456592
 30
0.0
 10
174.4750811541608
 20
13.82461109618725
 30
0.0
 10
174.4039947951513
 20
13.80049556814657
 30
0.0
 10
174.4057477261441
 20
13.92184693977254
 30
0.0
 10
174.3586196370569
 20
14.00726239751235
 30
0.0
 10
174.3191478251762
 20
14.12486929345138
 30
0.0
 10
174.2706635532644
 20
14.24232752540441
 30
0.0
 10
174.2201017402523
 20
14.36405935761512
 30
0.0
 10
174.1718634610477
 20
14.49075967862468
 30
0.0
 10
174.1135232947594
 20
14.59933687784955
 30
0.0
 10
174.0980892667261
 20
14.75620657134413
 30
0.0
 10
173.9566586330636
 20
14.72373446548324
 30
0.0
 10
173.8508397414903
 20
14.73512888682183
 30
0.0
 10
173.7358569725222
 20
14.73392591514618
 30
0.0
 10
173.6253142252141
 20
14.73506945347411
 30
0.0
 10
173.5176583522783
 20
14.73418350037529
 30
0.0
 10
173.4121322529242
 20
14.73416602390522
 30
0.0
 10
173.3109192682012
 20
14.72714032472417
 30
0.0
 10
173.1266804827753
 20
14.75135859859871
 30
0.0
 10
173.1157393685411
 20
14.44741691121889
 30
0.0
 10
173.008769163475
 20
14.223531772534
 30
0.0
 10
172.9098148604347
 20
14.03895314292501
 30
0.0
 10
172.9225090524007
 20
13.79530204804206
 30
0.0
 10
172.8050091716397
 20
13.825080467532
 30
0.0
 10
172.742205586831
 20
13.82258089509605
 30
0.0
 10
172.67858720934
 20
13.82344075102808
 30
0.0
 10
172.3946014194075
 20
13.78098039941944
 30
0.0
 10
173.0251638499381
 20
14.5008195244479
 30
0.0
 10
173.1087645289071
 20
15.01276539435731
 30
0.0
 10
173.4929252789341
 20
15.53353743550047
 30
0.0
 10
173.4777208288563
 20
16.23519626253214
 30
0.0
 10
173.7239265722697
 20
16.2234563308126
 30
0.0
 10
173.825634615756
 20
16.23225004452775
 30
0.0
 10
173.8249752035818
 20
15.98059650730349
 30
0.0
 10
173.9428317155828
 20
15.79818020733961
 30
0.0
 10
174.0315515260485
 20
15.55563740662869
 30
0.0
 10
174.1322292485259
 20
15.32340030530131
 30
0.0
 10
174.2311142712243
 20
15.08674644566916
 30
0.0
 10
174.3299676990669
 20
14.85461739170097
 30
0.0
 10
174.4256166390926
 20
14.63122222788791
 30
0.0
 10
174.5159904573271
 20
14.42272549049318
 30
0.0
 10
174.5989944568189
 20
14.23308448529322
 30
0.0
 10
174.6726088582799
 20
14.06663106068102
 30
0.0
 10
174.7342815895546
 20
13.929176996261
 30
0.0
 10
174.7749458885604
 20
13.84999239430036
 30
0.0
 10
174.7922649500513
 20
13.81626739612929
 30
0.0
 11
174.7922649500513
 21
13.81626739612929
 31
0.0
 11
174.7453878317448
 21
13.82145433189188
 31
0.0
 11
174.7010975896125
 21
13.82315538223864
 31
0.0
 11
174.6568074431729
 21
13.82315538223864
 31
0.0
 11
174.6099309947159
 21
13.82315538223864
 31
0.0
 11
174.5630633657033
 21
13.82315538223864
 31
0.0
 11
174.5188084970408
 21
13.82315538223864
 31
0.0
 11
174.4744852776854
 21
13.82145433189188
 31
0.0
 11
174.4276419021443
 21
13.81626739612929
 31
0.0
 11
174.3992532136325
 21
13.90360966173247
 31
0.0
 11
174.3622721815898
 21
14.00729656274822
 31
0.0
 11
174.3188386236701
 21
14.12159987001129
 31
0.0
 11
174.2711055866936
 21
14.24113531268972
 31
0.0
 11
174.2208160133237
 21
14.36408057307567
 31
0.0
 11
174.1696467003932
 21
14.48883822929449
 31
0.0
 11
174.1197531801326
 21
14.61134141502775
 31
0.0
 11
174.0733119111841
 21
14.7278451736792
 31
0.0
 11
173.9623611907589
 21
14.73087465284508
 31
0.0
 11
173.8497309225089
 21
14.73300454867793
 31
0.0
 11
173.7362152069449
 21
14.73432195319143
 31
0.0
 11
173.62270004768
 21
14.73473315978855
 31
0.0
 11
173.5169185312816
 21
14.73432195319143
 31
0.0
 11
173.4128501919225
 21
14.73300454867793
 31
0.0
 11
173.3087951724045
 21
14.73087465284508
 31
0.0
 11
173.2030010615596
 21
14.7278451736792
 31
0.0
 11
173.0980914750139
 21
14.46604437513354
 31
0.0
 11
173.0034868690331
 21
14.21710232658464
 31
0.0
 11
172.9252231210298
 21
13.9955975696956
 31
0.0
 11
172.8693431224555
 21
13.81626739612929
 31
0.0
 11
172.8082651639442
 21
13.82145433189188
 31
0.0
 11
172.742087361813
 21
13.82315538223864
 31
0.0
 11
172.6758390041282
 21
13.82145433189188
 31
0.0
 11
172.6147963233938
 21
13.81626739612929
 31
0.0
 11
172.889968495193
 21
14.41656508695145
 31
0.0
 11
173.158294573417
 21
15.01343642360777
 31
0.0
 11
173.4240277350405
 21
15.61366245644384
 31
0.0
 11
173.6914740737033
 21
16.22421385386065
 31
0.0
 11
173.7241589339806
 21
16.22421385386065
 31
0.0
 11
173.7568437942579
 21
16.22421385386065
 31
0.0
 11
173.8428300681057
 21
16.01658539037086
 31
0.0
 11
173.9357285813609
 21
15.7925461456352
 31
0.0
 11
174.0328714521463
 21
15.55908663180472
 31
0.0
 11
174.1317936458031
 21
15.32298128464149
 31
0.0
 11
174.2315341249927
 21
15.08649780379786
 31
0.0
 11
174.3313071129353
 21
14.85168781253714
 31
0.0
 11
174.4280608257448
 21
14.62599492196853
 31
0.0
 11
174.5188084970408
 21
14.41658052097921
 31
0.0
 11
174.6022150834546
 21
14.22607611130463
 31
0.0
 11
174.6770293263377
 21
14.0570823266247
 31
0.0
 11
174.7410729186603
 21
13.91781337700671
 31
0.0
 11
174.7922649500513
 21
13.81626739612929
 31
0.0
  0
SPLINE
  5
B0
102
{ACAD_REACTORS
330
CC
102
}
330
48
100
AcDbEntity
  8
_U_30EC_U_30A4_U_30E4_U_30FC_1
  6
Continuous
 62
     2
100
AcDbSpline
210
0.0
220
0.0
230
1.0
 70
    11
 71
     3
 72
    99
 73
    95
 74
    93
 42
0.000000001
 43
0.0000000001
 44
0.00000001
 40
0.0
 40
0.0
 40
0.0
 40
0.0
 40
0.0796417172272467
 40
0.1621768542356083
 40
0.2486489160957689
 40
0.3404969668524647
 40
0.4381912511164674
 40
0.5434463660244975
 40
0.6518115192847295
 40
0.7530190937886867
 40
0.8492196919725138
 40
0.941929031299826
 40
1.034249663570042
 40
1.129078600620193
 40
1.226697027573239
 40
1.327220425421701
 40
1.47057213493801
 40
1.595489863371207
 40
1.719934125348393
 40
1.850576620127405
 40
1.9890596299873
 40
2.134139054226918
 40
2.280698007207206
 40
2.42452973903947
 40
2.56592957698584
 40
2.70823926077353
 40
2.861717887443656
 40
3.04516854034736
 40
3.183798301138602
 40
3.314813961455448
 40
3.442083470447306
 40
3.569912708372966
 40
3.702177512509361
 40
3.842307559659528
 40
3.992872223245933
 40
4.156750662218322
 40
4.310981861107543
 40
4.44585990932259
 40
4.572393936131581
 40
4.701656719781976
 40
4.768279086008467
 40
4.83596069789841
 40
4.912788918729337
 40
5.006285208481553
 40
5.026909478751629
 40
5.047533749021194
 40
5.101808031471275
 40
5.162325165538565
 40
5.226919745995885
 40
5.29423180659675
 40
5.364544852554901
 40
5.438319055467945
 40
5.517877651324281
 40
5.607647714861593
 40
5.70044964254444
 40
5.788251142364172
 40
5.872714706039798
 40
5.955167292575314
 40
6.037192395190407
 40
6.120669181469135
 40
6.206848616686376
 40
6.296680855416795
 40
6.442558392872622
 40
6.568190371608314
 40
6.692904567360387
 40
6.824220446557166
 40
6.963121850329405
 40
7.107843738851192
 40
7.253431663907305
 40
7.395187468036725
 40
7.53314075323778
 40
7.670550457175261
 40
7.816236511769287
 40
7.987691657359251
 40
8.142277421969276
 40
8.293662615415043
 40
8.442962460879306
 40
8.59159831618536
 40
8.743678992361831
 40
8.903725323699215
 40
9.076307008890563
 40
9.265578604680618
 40
9.459203795360793
 40
9.61761981027358
 40
9.753609671361938
 40
9.874873300004104
 40
9.954520184977815
 40
10.02416413719249
 40
10.09769764405448
 40
10.18909955924975
 40
10.20974586420136
 40
10.23039218263382
 40
10.30057101881267
 40
10.37632012987547
 40
10.37632012987547
 40
10.37632012987547
 40
10.37632012987547
 10
170.1465954835851
 20
14.13795663215997
 30
0.0
 10
170.1632217851219
 20
14.11720608845316
 30
0.0
 10
170.1970784206577
 20
14.07495111711905
 30
0.0
 10
170.2599822541035
 20
14.02029811392073
 30
0.0
 10
170.3332500940393
 20
13.97299025121054
 30
0.0
 10
170.4175969238636
 20
13.93527231437938
 30
0.0
 10
170.513224061546
 20
13.91040619731953
 30
0.0
 10
170.6171853775346
 20
13.9030955934594
 30
0.0
 10
170.7224020220405
 20
13.91142322794056
 30
0.0
 10
170.8206626371334
 20
13.94149179651532
 30
0.0
 10
170.9058986427548
 20
13.98848822971878
 30
0.0
 10
170.9779220206103
 20
14.04952991250862
 30
0.0
 10
171.0350917709096
 20
14.12412969578586
 30
0.0
 10
171.076786874744
 20
14.21002464660178
 30
0.0
 10
171.1026952846292
 20
14.30485850432213
 30
0.0
 10
171.1118037332653
 20
14.41854979038369
 30
0.0
 10
171.0986864796487
 20
14.54332587770781
 30
0.0
 10
171.0325330334414
 20
14.66014719171895
 30
0.0
 10
170.9369370919569
 20
14.74512539577377
 30
0.0
 10
170.8249681022369
 20
14.81416684459162
 30
0.0
 10
170.699365958327
 20
14.87204142045894
 30
0.0
 10
170.5656691620856
 20
14.92373723284343
 30
0.0
 10
170.4313122818831
 20
14.97899092397184
 30
0.0
 10
170.3051983986877
 20
15.04939770641651
 30
0.0
 10
170.1926579987535
 20
15.13785540731252
 30
0.0
 10
170.0969963064458
 20
15.24981067868475
 30
0.0
 10
170.0334157151825
 20
15.39949910101385
 30
0.0
 10
170.0200706505015
 20
15.55932794385144
 30
0.0
 10
170.0320510987448
 20
15.71048405306847
 30
0.0
 10
170.0712298928841
 20
15.83809244591541
 30
0.0
 10
170.135498775091
 20
15.95080874030847
 30
0.0
 10
170.223820499974
 20
16.0464860926869
 30
0.0
 10
170.3338091207627
 20
16.12354214985755
 30
0.0
 10
170.4632284401264
 20
16.1815139693628
 30
0.0
 10
170.6111838967793
 20
16.21739177588826
 30
0.0
 10
170.7682069455486
 20
16.22746719050567
 30
0.0
 10
170.917494046643
 20
16.21863637762593
 30
0.0
 10
171.059625361417
 20
16.19074899340354
 30
0.0
 10
171.1595922609625
 20
16.13413314701141
 30
0.0
 10
171.3125074736185
 20
16.0867460210551
 30
0.0
 10
171.2455131717168
 20
16.00197553001188
 30
0.0
 10
171.2296479120269
 20
15.93438901873486
 30
0.0
 10
171.1978750531297
 20
15.86926092793192
 30
0.0
 10
171.2150202209571
 20
15.76723453256955
 30
0.0
 10
171.1666427208232
 20
15.77493211681903
 30
0.0
 10
171.1315789440765
 20
15.76806771724809
 30
0.0
 10
171.1296697985718
 20
15.83263831158198
 30
0.0
 10
171.0985692931989
 20
15.87825639621398
 30
0.0
 10
171.0664551628456
 20
15.93561036628458
 30
0.0
 10
171.0208038475168
 20
15.98540462692561
 30
0.0
 10
170.9658508218387
 20
16.02994813718997
 30
0.0
 10
170.9010841173007
 20
16.06763988836552
 30
0.0
 10
170.8232377310597
 20
16.09283375791354
 30
0.0
 10
170.7355160553352
 20
16.09931230998113
 30
0.0
 10
170.6452903277806
 20
16.09235709285609
 30
0.0
 10
170.5594594694065
 20
16.06909190460923
 30
0.0
 10
170.4828343638595
 20
16.03131644107548
 30
0.0
 10
170.4165265636201
 20
15.98051641089577
 30
0.0
 10
170.3622560536964
 20
15.91731143407212
 30
0.0
 10
170.3224925345459
 20
15.8427645571037
 30
0.0
 10
170.2976775510588
 20
15.75917313997766
 30
0.0
 10
170.2892124262869
 20
15.65192948382287
 30
0.0
 10
170.3019697987104
 20
15.52965457267562
 30
0.0
 10
170.3681548409273
 20
15.41149724291213
 30
0.0
 10
170.4640977399832
 20
15.32606325709531
 30
0.0
 10
170.5757914963182
 20
15.25583362306724
 30
0.0
 10
170.7010863668702
 20
15.19659162305306
 30
0.0
 10
170.8349823941447
 20
15.14616708086135
 30
0.0
 10
170.9689930333149
 20
15.09322516984384
 30
0.0
 10
171.0950885316915
 20
15.02750170625179
 30
0.0
 10
171.2076216638417
 20
14.94480352537325
 30
0.0
 10
171.3031370284232
 20
14.83996006310077
 30
0.0
 10
171.3672706486962
 20
14.69937117251573
 30
0.0
 10
171.3811103725279
 20
14.54065409451595
 30
0.0
 10
171.367395471223
 20
14.38153155217879
 30
0.0
 10
171.3244739153984
 20
14.23483828819214
 30
0.0
 10
171.2545906329066
 20
14.10119796587145
 30
0.0
 10
171.1574592213829
 20
13.98532387699294
 30
0.0
 10
171.0347806023657
 20
13.89089981770091
 30
0.0
 10
170.8874408413168
 20
13.82179270651984
 30
0.0
 10
170.7177132497125
 20
13.77953210858856
 30
0.0
 10
170.5317404979596
 20
13.7678173623041
 30
0.0
 10
170.3528955926183
 20
13.7780948668344
 30
0.0
 10
170.1881733753743
 20
13.81966573769156
 30
0.0
 10
170.0834410841056
 20
13.88797642883944
 30
0.0
 10
169.9350960790365
 20
13.93675219032108
 30
0.0
 10
169.9980378194729
 20
14.02976591290844
 30
0.0
 10
170.0072274430059
 20
14.10296536248283
 30
0.0
 10
170.0303711301232
 20
14.16936294501349
 30
0.0
 10
170.0034588335316
 20
14.26974809527582
 30
0.0
 10
170.0521338956339
 20
14.26234033517381
 30
0.0
 10
170.0916530580697
 20
14.26894063620896
 30
0.0
 10
170.0996204944702
 20
14.19078703218934
 30
0.0
 10
170.1305436967923
 20
14.15600927375859
 30
0.0
 10
170.1465954835851
 20
14.13795663215997
 30
0.0
 11
170.1465954835851
 21
14.13795663215997
 31
0.0
 11
170.1982038075864
 21
14.07729869814739
 31
0.0
 11
170.2601105501335
 21
14.02271295163322
 31
0.0
 11
170.3327764009802
 21
13.97583980928386
 31
0.0
 11
170.4166468655843
 21
13.9383990627654
 31
0.0
 11
170.511221073241
 21
13.9139063631188
 31
0.0
 11
170.6161603327165
 21
13.90575829888475
 31
0.0
 11
170.7240739497552
 21
13.91564048638226
 31
0.0
 11
170.8208419941616
 21
13.94528704887485
 31
0.0
 11
170.9050776083319
 21
13.99175118948822
 31
0.0
 11
170.9756144207686
 21
14.05191413218154
 31
0.0
 11
171.031944210998
 21
14.12505819466323
 31
0.0
 11
171.0736690016003
 21
14.21021434047525
 31
0.0
 11
171.0994680808032
 21
14.30436190989615
 31
0.0
 11
171.1080824729446
 21
14.40451552098223
 31
0.0
 11
171.0878517703357
 21
14.546432508794
 31
0.0
 11
171.0272522666731
 21
14.65566684036389
 31
0.0
 11
170.9364971286285
 21
14.74081306430097
 31
0.0
 11
170.826010188474
 21
14.81052746532518
 31
0.0
 11
170.7008523531254
 21
14.86979854169925
 31
0.0
 11
170.5662951950998
 21
14.92404253474123
 31
0.0
 11
170.4316884277007
 21
14.98201274306007
 31
0.0
 11
170.3065802017258
 21
15.05297399304234
 31
0.0
 11
170.196027609828
 21
15.14113315968697
 31
0.0
 11
170.1053381235265
 21
15.25080295132619
 31
0.0
 11
170.0447055469484
 21
15.39179720476318
 31
0.0
 11
170.0245079172553
 21
15.57413260402316
 31
0.0
 11
170.0374030471347
 21
15.71216131926644
 31
0.0
 11
170.0761016659391
 21
15.83733128451291
 31
0.0
 11
170.1393141731506
 21
15.94779262129087
 31
0.0
 11
170.2257499954545
 21
16.04196885390624
 31
0.0
 11
170.3336492808962
 21
16.11846540770653
 31
0.0
 11
170.4613526283328
 21
16.1761567010949
 31
0.0
 11
170.6075393259923
 21
16.21220066809977
 31
0.0
 11
170.770976856545
 21
16.22421385386065
 31
0.0
 11
170.9248918431289
 21
16.21434269066867
 31
0.0
 11
171.0564887242607
 21
16.18477329831499
 31
0.0
 11
171.172563634494
 21
16.13439993895255
 31
0.0
 11
171.2800792741122
 21
16.0626416316788
 31
0.0
 11
171.2516994050444
 21
16.00236624106889
 31
0.0
 11
171.2284855254283
 21
15.9387901733765
 31
0.0
 11
171.2078381040801
 21
15.86478841992272
 31
0.0
 11
171.1871840681487
 21
15.77360197897329
 31
0.0
 11
171.1665597978415
 21
15.77360197897329
 31
0.0
 11
171.1459355275343
 21
15.77360197897329
 31
0.0
 11
171.1256706495791
 21
15.82395108486349
 31
0.0
 11
171.0994658759421
 21
15.87850045116932
 31
0.0
 11
171.0650468924451
 21
15.93316116296118
 31
0.0
 11
171.0203554612937
 21
15.98349593725413
 31
0.0
 11
170.9657333359511
 21
16.02777175321531
 31
0.0
 11
170.9016722004326
 21
16.06436142334503
 31
0.0
 11
170.825968296114
 21
16.08882545979729
 31
0.0
 11
170.7365722046449
 21
16.09701100667024
 31
0.0
 11
170.6440937174207
 21
16.08926973931104
 31
0.0
 11
170.5594072091645
 21
16.06609003445568
 31
0.0
 11
170.483702448884
 21
16.02863495634011
 31
0.0
 11
170.4183754766516
 21
15.97832774281105
 31
0.0
 11
170.3650487887664
 21
15.91600293379882
 31
0.0
 11
170.3254809233901
 21
15.8424994789561
 31
0.0
 11
170.3009523754711
 21
15.75988443557394
 31
0.0
 11
170.2927954104108
 21
15.67042329844355
 31
0.0
 11
170.3130095765617
 21
15.52595308146576
 31
0.0
 11
170.373625616682
 21
15.41591177072939
 31
0.0
 11
170.4643479320758
 21
15.33033670130635
 31
0.0
 11
170.5748676948813
 21
15.25941954854628
 31
0.0
 11
170.7000089937719
 21
15.19914305550581
 31
0.0
 11
170.8345826882553
 21
15.14590447913024
 31
0.0
 11
170.9691729191968
 21
15.09039489581076
 31
0.0
 11
171.0942976816297
 21
15.02377281249413
 31
0.0
 11
171.204800907977
 21
14.94118863716753
 31
0.0
 11
171.2955397598288
 21
14.83800003476276
 31
0.0
 11
171.3561557999489
 21
14.70552315979587
 31
0.0
 11
171.3763699660998
 21
14.53526378483842
 31
0.0
 11
171.3621839747998
 21
14.38133030397416
 31
0.0
 11
171.3196087009193
 21
14.23605531269101
 31
0.0
 11
171.2499752884265
 21
14.10398854189071
 31
0.0
 11
171.1544992078713
 21
13.9900721877525
 31
0.0
 11
171.0341060772624
 21
13.8971527259702
 31
0.0
 11
170.8896160201846
 21
13.82832357668183
 31
0.0
 11
170.7223519532713
 21
13.7858127520397
 31
0.0
 11
170.5336103348226
 21
13.77165864614044
 31
0.0
 11
170.3405031726387
 21
13.7858127520397
 31
0.0
 11
170.1878975900911
 21
13.82832357668183
 31
0.0
 11
170.0661897942203
 21
13.88899033013892
 31
0.0
 11
169.9660261826363
 21
13.95734322942739
 31
0.0
 11
169.9922320587039
 21
14.03255545163079
 31
0.0
 11
170.0090121537618
 21
14.10014767383615
 31
0.0
 11
170.0206196447852
 21
14.17275926235964
 31
0.0
 11
170.0313606254139
 21
14.26352788212861
 31
0.0
 11
170.0520069443315
 21
14.26352788212861
 31
0.0
 11
170.0726532632492
 21
14.26352788212861
 31
0.0
 11
170.1048916391629
 21
14.20119204881086
 31
0.0
 11
170.1465954835851
 21
14.13795663215997
 31
0.0
  0
LWPOLYLINE
  5
B1
102
{ACAD_REACTORS
330
BE
102
}
330
48
100
AcDbEntity
  8
_U_30EC_U_30A4_U_30E4_U_30FC_1
  6
Continuous
 62
     2
100
AcDbPolyline
 90
        5
 70
     1
 43
0.0
 10
192.4578138032672
 20
15.39722336795629
 10
192.4578138032672
 20
15.2287543402206
 10
191.1602971697031
 20
15.2287543402206
 10
191.1602971697031
 20
15.39722336795629
 10
192.4578138032672
 20
15.39722336795629
  0
MTEXT
  5
B3
330
48
100
AcDbEntity
  8
1
 62
     2
100
AcDbMText
 10
32.50000000000001
 20
282.0000000000003
 30
0.0
 40
5.0
 41
0.0
 71
     5
 72
     1
  1
図番
  7
CONVERTER_11
 73
     1
 44
0.45454545454545
  0
MTEXT
  5
B4
330
48
100
AcDbEntity
  8
1
 62
     2
100
AcDbMText
 10
29.00000000000001
 20
34.00000000000003
 30
0.0
 40
3.5
 41
0.0
 71
     5
 72
     1
  1
備考
  7
CONVERTER_11
 73
     1
 44
0.45454545454545
  0
MTEXT
  5
B5
330
48
100
AcDbEntity
  8
1
 62
     2
100
AcDbMText
 10
29.00000000000001
 20
22.75000000000003
 30
0.0
 40
3.5
 41
0.0
 71
     5
 72
     1
  1
品名
  7
CONVERTER_11
 73
     1
 44
0.72727272727273
  0
MTEXT
  5
B6
330
48
100
AcDbEntity
  8
1
 62
     2
100
AcDbMText
 10
29.00000000000001
 20
14.25000000000003
 30
0.0
 40
3.5
 41
0.0
 71
     5
 72
     1
  1
品番
  7
CONVERTER_11
 73
     1
 44
0.72727272727273
  0
MTEXT
  5
B7
330
48
100
AcDbEntity
  8
1
 62
     2
100
AcDbMText
 10
101.5
 20
25.00000000000004
 30
0.0
 40
3.0
 41
0.0
 71
     5
 72
     1
  1
承認
  7
CONVERTER_11
 73
     1
 44
0.59090909090909
  0
MTEXT
  5
B8
330
48
100
AcDbEntity
  8
1
 62
     2
100
AcDbMText
 10
175.0
 20
23.50000000000004
 30
0.0
 40
3.5
 41
0.0
 71
     5
 72
     1
  1
第三角法
  7
CONVERTER_11
 73
     1
 44
0.54545454545455
  0
MTEXT
  5
B9
330
48
100
AcDbEntity
  8
1
 62
     2
100
AcDbMText
 10
118.5
 20
25.00000000000004
 30
0.0
 40
3.0
 41
0.0
 71
     5
 72
     1
  1
検図
  7
CONVERTER_11
 73
     1
 44
0.59090909090909
  0
MTEXT
  5
BA
330
48
100
AcDbEntity
  8
1
 62
     2
100
AcDbMText
 10
152.5
 20
25.00000000000004
 30
0.0
 40
3.0
 41
0.0
 71
     5
 72
     1
  1
設計
  7
CONVERTER_11
 73
     1
 44
0.59090909090909
  0
MTEXT
  5
BB
330
48
100
AcDbEntity
  8
1
 62
     2
100
AcDbMText
 10
135.5
 20
25.00000000000004
 30
0.0
 40
3.0
 41
0.0
 71
     5
 72
     1
  1
製図
  7
CONVERTER_11
 73
     1
 44
0.59090909090909
  0
MTEXT
  5
BC
330
48
100
AcDbEntity
  8
1
 62
     2
100
AcDbMText
 10
89.49999999999997
 20
24.00000000000004
 30
0.0
 40
3.5
 41
0.0
 71
     5
 72
     1
  1
尺度
  7
CONVERTER_11
 73
     1
 44
0.54545454545455
  0
MTEXT
  5
BD
330
48
100
AcDbEntity
  8
1
 62
   250
100
AcDbMText
 10
25.0
 20
4.99999999999999
 30
0.0
 40
3.5
 41
0.0
 71
     4
 72
     1
  1
備考欄の文字列 原点位置=4
  7
CONVERTER_11
 73
     1
 44
0.54545454545455
  0
HATCH
  5
BE
330
48
100
AcDbEntity
  8
1
  6
Continuous
 62
     2
100
AcDbHatch
 10
0.0
 20
0.0
 30
0.0
210
0.0
220
0.0
230
1.0
  2
CUSTOM0
 70
     0
 71
     1
 91
        1
 92
        1
 93
        4
 72
     1
 10
192.4578138032672
 20
15.39722336795629
 11
192.4578138032672
 21
15.2287543402206
 72
     1
 10
192.4578138032672
 20
15.2287543402206
 11
191.1602971697031
 21
15.2287543402206
 72
     1
 10
191.1602971697031
 20
15.2287543402206
 11
191.1602971697031
 21
15.39722336795629
 72
     1
 10
191.1602971697031
 20
15.39722336795629
 11
192.4578138032672
 21
15.39722336795629
 97
        1
330
B1
 75
     1
 76
     2
 52
45.0
 41
0.1
 77
     0
 78
     1
 53
45.0
 43
0.0
 44
0.0
 45
-0.282842712474619
 46
0.0
 79
     0
 98
        1
 10
0.0
 20
0.0
  0
HATCH
  5
BF
330
48
100
AcDbEntity
  8
1
  6
Continuous
 62
     2
100
AcDbHatch
 10
0.0
 20
0.0
 30
0.0
210
0.0
220
0.0
230
1.0
  2
CUSTOM1
 70
     0
 71
     1
 91
        1
 92
        1
 93
        3
 72
     4
 94
        3
 73
     0
 74
     0
 95
       24
 96
       20
 40
0.0
 40
0.0
 40
0.0
 40
0.0
 40
0.221107500875397
 40
0.4273218586245434
 40
0.5080174679239428
 40
0.591483590787028
 40
0.8143265690192859
 40
1.0546513026866
 40
1.295452694023189
 40
1.51810923132884
 40
1.540864321905456
 40
1.595126460622716
 40
1.65989094789603
 40
1.714153085187388
 40
1.736908174961688
 40
1.764951100735378
 40
1.801562291220968
 40
1.953914424543646
 40
2.126104167379723
 40
2.126104167379723
 40
2.126104167379723
 40
2.126104167379723
 10
185.9375369556889
 20
15.5898929511302
 10
185.9112579081811
 20
15.53097628234377
 10
185.8604698894425
 20
15.4171113967926
 10
185.8131784839111
 20
15.14441958233119
 10
185.7043482802618
 20
15.24445482575457
 10
185.5514800279637
 20
15.27118593367332
 10
185.7686155181199
 20
15.48518135017635
 10
185.7838483674381
 20
15.7033211778249
 10
185.8906889492001
 20
15.88451579066429
 10
185.8305380947077
 20
16.16913226311404
 10
185.9334317395402
 20
16.14114089222454
 10
185.9779933468149
 20
16.13243251602303
 10
186.0380842395397
 20
16.12139654183358
 10
186.0756619587437
 20
16.10767523055562
 10
186.1252466928606
 20
16.10756076160226
 10
186.0930158919325
 20
16.07306592398626
 10
186.0171802221882
 20
16.08404104537967
 10
186.0429447159693
 20
15.89858969582451
 10
186.0055896763849
 20
15.80702313549592
 10
185.9857704961609
 20
15.75844135397708
 72
     4
 94
        3
 73
     0
 74
     0
 95
       70
 96
       66
 40
0.0
 40
0.0
 40
0.0
 40
0.0
 40
0.0241731073021472
 40
0.0846058988987013
 40
0.1631685280353284
 40
0.2417311571789756
 40
0.3021639488292751
 40
0.3263370654895541
 40
0.3533118254248881
 40
0.4228783438922111
 40
0.5179999095313402
 40
0.6216398239466084
 40
0.7167613891499688
 40
0.7863279069649846
 40
0.8133026791761818
 40
0.8372943998771656
 40
0.8945054261372849
 40
0.9627895541962619
 40
1.020000580349072
 40
1.04399230097517
 40
1.071934345522903
 40
1.113121768772916
 40
1.14522519933224
 40
1.225483775412775
 40
1.329819923771484
 40
1.434156071994374
 40
1.514414647795793
 40
1.546518078208401
 40
1.578974764260175
 40
1.66267884931417
 40
1.77713137366839
 40
1.901833377474781
 40
2.016285900500571
 40
2.099989982527938
 40
2.132446666570297
 40
2.158782354486021
 40
2.216720867907809
 40
2.274659381334232
 40
2.300995069256166
 40
2.333451754066139
 40
2.417155836543819
 40
2.531608358985259
 40
2.656310362283754
 40
2.770762886388886
 40
2.854466971340051
 40
2.886923657363858
 40
2.913597976833292
 40
2.982389642875096
 40
3.076451716946962
 40
3.178937260458574
 40
3.272999334739979
 40
3.341791001059202
 40
3.368465320663513
 40
3.396976080738734
 40
3.47214081184597
 40
3.57840819030866
 40
3.700226892456096
 40
3.822045594634313
 40
3.92831297325642
 40
4.003477705314817
 40
4.031988456866883
 40
4.058324144797681
 40
4.116262658236837
 40
4.174201171400633
 40
4.200536849608564
 40
4.200536849608564
 40
4.200536849608564
 40
4.200536849608564
 10
185.9857704961609
 20
15.75844135397708
 10
185.9938259544679
 20
15.75844359811689
 10
186.0220200663241
 20
15.758451460328
 10
186.0765534803672
 20
15.75830754828375
 10
186.1482891808604
 20
15.75909120499901
 10
186.2236240137062
 20
15.75627570463814
 10
186.2713052366438
 20
15.7629840340096
 10
186.3195071245616
 20
15.75197563692436
 10
186.3062571799873
 20
15.80546402997036
 10
186.3151093964539
 20
15.86049583543095
 10
186.3108698036286
 20
15.95419908726112
 10
186.313348348128
 20
16.04959482218535
 10
186.309093870606
 20
16.1435682198339
 10
186.3179818665846
 20
16.19795062438015
 10
186.3046977409946
 20
16.25233997691463
 10
186.3514119277108
 20
16.2384221633536
 10
186.3943254545737
 20
16.24103877374047
 10
186.4605443456685
 20
16.23648422450758
 10
186.5013342271798
 20
16.22778162134165
 10
186.5525145690819
 20
16.23531799890198
 10
186.52537204872
 20
16.19349970223288
 10
186.4803096055707
 20
16.202849920726
 10
186.4942065045051
 20
16.1384120737184
 10
186.4858414431653
 20
16.07378219627402
 10
186.4903632178398
 20
15.9752914119389
 10
186.4854741311167
 20
15.87595932842573
 10
186.4950258992082
 20
15.81293115552972
 10
186.47997614552
 20
15.74964011499792
 10
186.5449159457208
 20
15.76515072944272
 10
186.6116246399496
 20
15.75499387697815
 10
186.7241435470828
 20
15.7598880009937
 10
186.8390235448954
 20
15.75691204732787
 10
186.9519871999747
 20
15.76221664184994
 10
187.0176267597678
 20
15.75107306472092
 10
187.0816276691053
 20
15.7674453231986
 10
187.070314288919
 20
15.71761689905279
 10
187.0775339871509
 20
15.67416715212125
 10
187.0703142611269
 20
15.63071745587448
 10
187.0816277175994
 20
15.5808889519688
 10
187.0176263598971
 20
15.59726166091365
 10
186.951992124046
 20
15.58611271661592
 10
186.838997431733
 20
15.59144857206856
 10
186.7242456548644
 20
15.58834345663825
 10
186.611318368686
 20
15.59364894682591
 10
186.5455220903585
 20
15.58257300019597
 10
186.4816097975358
 20
15.5988759784762
 10
186.4936015165126
 20
15.54423524395745
 10
186.4862104613005
 20
15.48854295047844
 10
186.4892684841984
 20
15.39649689140574
 10
186.4893422785683
 20
15.30179109873103
 10
186.4860313578359
 20
15.20952782902268
 10
186.4939505989904
 20
15.15435768736142
 10
186.4815076611617
 20
15.10058169100139
 10
186.5389116551632
 20
15.11453768862784
 10
186.5994708140383
 20
15.10511457884229
 10
186.7048680855081
 20
15.10942885928707
 10
186.8204294070622
 20
15.10835504612034
 10
186.9359688877797
 20
15.10725965900998
 10
187.0414181130841
 20
15.11162525770635
 10
187.1018680471804
 20
15.10209426030673
 10
187.159283773911
 20
15.11617289606382
 10
187.1477773876709
 20
15.06707153265686
 10
187.1537566781749
 20
15.02564658018652
 10
187.1520311050801
 20
14.97651677966699
 10
187.1521500122971
 20
14.94854428447612
 10
187.1521871691833
 20
14.93980288195954
 72
     4
 94
        3
 73
     0
 74
     0
 95
       62
 96
       58
 40
0.0
 40
0.0
 40
0.0
 40
0.0
 40
0.0598250028308485
 40
0.2024846486897331
 40
0.3727558389221031
 40
0.515415484793607
 40
0.5752404975785339
 40
0.9332326775487306
 40
1.290451762839484
 40
1.602077253145885
 40
1.69993163411214
 40
1.799359756425056
 40
2.270120149657097
 40
2.804661928461547
 40
2.88234228738326
 40
3.076543185719107
 40
3.329004354835567
 40
3.58146552456839
 40
3.775666424543672
 40
3.853346784558292
 40
3.899120679595038
 40
3.984129341792036
 40
4.029903236817384
 40
4.105797496059541
 40
4.2955331441525
 40
4.542189486611742
 40
4.78884582887569
 40
4.978581476410076
 40
5.054475735244317
 40
5.621734664339333
 40
6.130867242037345
 40
6.22524978094859
 40
6.318913039727289
 40
6.663579954558907
 40
7.047498900224757
 40
7.435230791575696
 40
7.498943906668108
 40
7.650875181210102
 40
7.832212509001613
 40
7.984143783696998
 40
8.047856898903126
 40
8.09155463273263
 40
8.17270756696428
 40
8.216405300768
 40
8.289021782160885
 40
8.462184160757259
 40
8.66886183800534
 40
8.842024215263931
 40
8.914640695475127
 40
8.989881580861333
 40
9.15541152882724
 40
9.320941477744023
 40
9.396182352487276
 40
9.454709011143823
 40
9.583467660170758
 40
9.712226309013037
 40
9.77075295798949
 40
9.77075295798949
 40
9.77075295798949
 40
9.77075295798949
 10
187.1521871691833
 20
14.93980288195954
 10
187.1322348171623
 20
14.93980875568676
 10
187.0647037716466
 20
14.93982863806161
 10
186.9410612161788
 20
14.9394936252033
 10
186.7863180150056
 20
14.94107673750516
 10
186.669734948248
 20
14.93686078860499
 10
186.455094263424
 20
14.9521520533163
 10
186.8518948407229
 20
14.59198721286195
 10
186.8945656069267
 20
14.37510503397169
 10
187.3189162146612
 20
14.1932506251145
 10
187.1439821496073
 20
14.08985196568075
 10
187.0194523925084
 20
13.87831523212727
 10
186.7666277235943
 20
14.34806081001565
 10
186.4797602893626
 20
14.99511516984523
 10
186.490633592666
 20
14.68782672154696
 10
186.488289277796
 20
14.5228861697178
 10
186.4861096126411
 20
14.28879670711696
 10
186.4980774396346
 20
14.04498072421786
 10
186.4687984740631
 20
13.89855796860988
 10
186.511452262547
 20
13.75113490174541
 10
186.423981400564
 20
13.76685797306224
 10
186.3768527606744
 20
13.76694303543457
 10
186.2898973207713
 20
13.75109425482912
 10
186.3313474021722
 20
13.89527771422765
 10
186.3029875004285
 20
14.03855052698458
 10
186.31459737753
 20
14.27674947365268
 10
186.3124175648272
 20
14.50517235240349
 10
186.3103111127993
 20
14.66705729375997
 10
186.3208035438325
 20
14.98153709333756
 10
186.0128963252892
 20
14.29229470872438
 10
185.7055258267455
 20
13.81476750243057
 10
185.5851367066274
 20
14.03741112637429
 10
185.4074607910722
 20
14.15011034955572
 10
185.8853326362894
 20
14.32548143465463
 10
185.9353959057208
 20
14.56091929252035
 10
186.3583799621715
 20
14.9532298934461
 10
186.1276754273541
 20
14.9365530702907
 10
186.004968585934
 20
14.94269518948775
 10
185.8325483095662
 20
14.93312822699577
 10
185.7213224694449
 20
14.9544881848967
 10
185.6025779627448
 20
14.92136265357423
 10
185.6183169706686
 20
15.00203900606887
 10
185.6178550933762
 20
15.04645414290857
 10
185.6027881889931
 20
15.12967081778536
 10
185.7372380935443
 20
15.09062651983886
 10
185.8619755545747
 20
15.11739729328425
 10
186.062875523728
 20
15.10063949044055
 10
186.1921540949352
 20
15.12204225913007
 10
186.3328419928295
 20
15.08868778853423
 10
186.2980927452614
 20
15.22651875785071
 10
186.3222185666714
 20
15.34963257349484
 10
186.2967086182391
 20
15.47024055670338
 10
186.3333251146685
 20
15.60539865141498
 10
186.2211417027769
 20
15.58094545781894
 10
186.1280356457136
 20
15.59307749842026
 10
186.0191547579819
 20
15.58957630069996
 10
185.9569697640964
 20
15.58981755951606
 10
185.9375369557246
 20
15.58989295124147
 97
        3
330
A2
330
A0
330
A1
 75
     1
 76
     2
 52
45.0
 41
0.1
 77
     0
 78
     1
 53
45.0
 43
0.0
 44
0.0
 45
-0.282842712474619
 46
0.0
 79
     0
 98
        1
 10
0.0
 20
0.0
  0
HATCH
  5
C0
330
48
100
AcDbEntity
  8
1
  6
Continuous
 62
     2
100
AcDbHatch
 10
0.0
 20
0.0
 30
0.0
210
0.0
220
0.0
230
1.0
  2
CUSTOM2
 70
     0
 71
     1
 91
        1
 92
        1
 93
        1
 72
     4
 94
        3
 73
     0
 74
     0
 95
      124
 96
      120
 40
0.0
 40
0.0
 40
0.0
 40
0.0
 40
0.027818722962451
 40
0.1011590162384269
 40
0.2048470170590239
 40
0.3237088716559245
 40
0.4425707262522
 40
0.5462587270699547
 40
0.6195990203311798
 40
0.647417752257866
 40
0.6750060736115242
 40
0.7357003855242759
 40
0.7963946998054456
 40
0.8239830245571766
 40
0.854093381110286
 40
0.937339662940954
 40
1.063094687343235
 40
1.220731268638073
 40
1.399622220914748
 40
1.589140358637732
 40
1.778658496423898
 40
1.957549448940509
 40
2.115186030873159
 40
2.240941056914463
 40
2.324187341760532
 40
2.354297700109382
 40
2.38188602467189
 40
2.442580338710475
 40
2.503274652750497
 40
2.530862977314606
 40
2.560983949278559
 40
2.640393784452905
 40
2.752662861759128
 40
2.881361560118145
 40
3.010060258455192
 40
3.122329335705339
 40
3.201739170817953
 40
3.231860142753313
 40
3.26429802403037
 40
3.352343701778239
 40
3.482095226868762
 40
3.639650650173023
 40
3.811108022565478
 40
3.982565394927986
 40
4.140120818152568
 40
4.269872343141276
 40
4.35791802080234
 40
4.390355902043967
 40
4.423256253992537
 40
4.508104530073058
 40
4.624121560636826
 40
4.750528176031582
 40
4.866545206602029
 40
4.951393482691986
 40
4.984293834645388
 40
5.011450833242303
 40
5.071196230152089
 40
5.130941627057164
 40
5.15809862564883
 40
5.190998977601521
 40
5.275847253689347
 40
5.391864284256781
 40
5.518270899648326
 40
5.634287930209365
 40
5.719136206288039
 40
5.752036558235926
 40
5.782130946282952
 40
5.862783906229125
 40
5.979550131774993
 40
6.117984316640398
 40
6.263641154587941
 40
6.402075339414147
 40
6.518841564907944
 40
6.599494524815525
 40
6.629588912848763
 40
6.65440302822634
 40
6.713575149488107
 40
6.784199939329424
 40
6.843372060493526
 40
6.868186175802772
 40
6.896246243201858
 40
6.939586233758255
 40
6.967846564564886
 40
7.043584251089817
 40
7.153234334451677
 40
7.283231855734425
 40
7.420011856035457
 40
7.550009376579806
 40
7.659659458835207
 40
7.7353971444172
 40
7.76365747485137
 40
7.796409728011027
 40
7.880876065096301
 40
7.996370852465687
 40
8.122208446418583
 40
8.237703224799176
 40
8.32216956201087
 40
8.354921815205884
 40
8.382078813307666
 40
8.441824209206972
 40
8.50156960524012
 40
8.5287266034857
 40
8.561478856695748
 40
8.645945193877798
 40
8.76143998086531
 40
8.887277580764453
 40
9.002772362000973
 40
9.087238696661194
 40
9.119990949235648
 40
9.152428830613347
 40
9.240474508638563
 40
9.370226034149512
 40
9.527781457984396
 40
9.699238830981384
 40
9.870696203978575
 40
10.028251627814
 40
10.15800315332561
 40
10.24604883135116
 40
10.27848670378519
 40
10.27848670378519
 40
10.27848670378519
 40
10.27848670378519
 10
195.3821827564383
 20
14.0141051738576
 10
195.3914554737523
 20
14.01410498511277
 10
195.4251744536861
 20
14.01410430876717
 10
195.4934706812465
 20
14.01411807243307
 10
195.592014171158
 20
14.01403224219548
 10
195.7062066464812
 20
14.01441755612253
 10
195.818589441707
 20
14.01300835897548
 10
195.9214376600118
 20
14.01719117422245
 10
195.9806839874849
 20
14.00823089251985
 10
196.0371265937033
 20
14.02164434526064
 10
196.0246255586954
 20
13.97087198613364
 10
196.0329549635703
 20
13.9258932093907
 10
196.024817084112
 20
13.88056752990491
 10
196.0370529214457
 20
13.82931932408469
 10
195.9747773490333
 20
13.84447955365279
 10
195.9060513026868
 20
13.83359750710746
 10
195.7782756749592
 20
13.83911304747975
 10
195.6262984511643
 20
13.83700851253701
 10
195.4502695972523
 20
13.83771002588476
 10
195.2644431934287
 20
13.83745237531295
 10
195.0786167437175
 20
13.83771005144606
 10
194.9025880142168
 20
13.83700841847734
 10
194.7506104154195
 20
13.83911332229992
 10
194.6228357664554
 20
13.83359680767643
 10
194.5541077836581
 20
13.84448077125945
 10
194.4918349042883
 20
13.82931786684212
 10
194.5040616290017
 20
13.88057510805175
 10
194.4960004462597
 20
13.92582473272428
 10
194.5040675809893
 20
13.97106357955326
 10
194.4918238487083
 20
14.02234176909961
 10
194.5525017120697
 20
14.00749577363138
 10
194.6162810745736
 20
14.01756448170738
 10
194.7277314353502
 20
14.01294644212002
 10
194.8497533443824
 20
14.01413328905472
 10
194.9719538137823
 20
14.01515863900637
 10
195.0829794287392
 20
14.01092475623404
 10
195.1476517413958
 20
14.02018584521742
 10
195.2091162810501
 20
14.00604423049685
 10
195.1930065601337
 20
14.0723552788452
 10
195.2042980327358
 20
14.14447790121978
 10
195.198740082256
 20
14.27513760888289
 10
195.200803506169
 20
14.42607323708244
 10
195.2000167127295
 20
14.59335873107889
 10
195.2007845215627
 20
14.76061110332305
 10
195.1988038785628
 20
14.91163289269917
 10
195.2041306156621
 20
15.04206069552998
 10
195.1933101388425
 20
15.11465442605902
 10
195.2090326429876
 20
15.18150469436801
 10
195.143270813249
 20
15.16580512490827
 10
195.0756367830764
 20
15.17609243083998
 10
194.9615885293809
 20
15.17113786847125
 10
194.8451242674902
 20
15.17414128030478
 10
194.7306554121477
 20
15.16880303143391
 10
194.6640324657812
 20
15.18001268074828
 10
194.5990769715186
 20
15.16349132665014
 10
194.6107989758707
 20
15.21473720477062
 10
194.6032830189121
 20
15.25950333784094
 10
194.6107989878835
 20
15.30426944897965
 10
194.5990769505346
 20
15.35551536129744
 10
194.66403263392
 20
15.33899381766818
 10
194.7306533339821
 20
15.35020571373946
 10
194.8451352858063
 20
15.34485436710668
 10
194.9615454436962
 20
15.3479118877112
 10
195.0757660174641
 20
15.34278499010711
 10
195.1430150439226
 20
15.35345733355601
 10
195.2083325941438
 20
15.3374208266908
 10
195.1941391448553
 20
15.39949685750057
 10
195.2036059462995
 20
15.46586761628765
 10
195.1990269004085
 20
15.58239972741969
 10
195.2007696555948
 20
15.71426685022379
 10
195.1997551495391
 20
15.85615960150276
 10
195.2017191344373
 20
15.98769050702583
 10
195.196466855385
 20
16.10524577283005
 10
195.2073408763475
 20
16.16947789001587
 10
195.1919536641853
 20
16.2310880254505
 10
195.24075915378
 20
16.21702407382113
 10
195.2853995564726
 20
16.21954742075317
 10
195.3538643946742
 20
16.21512797401713
 10
195.3959106169102
 20
16.20613025544038
 10
195.4487544758775
 20
16.21411714866514
 10
195.4207035002014
 20
16.17113917611676
 10
195.3749142248594
 20
16.18259552043839
 10
195.3869539073265
 20
16.12173520005139
 10
195.3796086070641
 20
16.05769299468776
 10
195.3831195826162
 20
15.94909368863913
 10
195.3819806760173
 20
15.82494319144755
 10
195.3819174780262
 20
15.69189719829881
 10
195.3832872966868
 20
15.56797381249558
 10
195.3791638801313
 20
15.45868337849341
 10
195.3877763103564
 20
15.39608580094173
 10
195.3746757454402
 20
15.33740133296368
 10
195.4393884328198
 20
15.35362113810905
 10
195.5060405953156
 20
15.34270260383314
 10
195.6198779541103
 20
15.34793740173759
 10
195.7357259122097
 20
15.34485547516916
 10
195.849692426328
 20
15.35018259812515
 10
195.9160341018099
 20
15.33904208166545
 10
195.980718852548
 20
15.35546979593181
 10
195.9689820772722
 20
15.30425925210053
 10
195.9765168063041
 20
15.25950334121004
 10
195.9689820992257
 20
15.2147473901003
 10
195.9807188140737
 20
15.16353690871043
 10
195.9160344075252
 20
15.17996427794223
 10
195.8496886430824
 20
15.16882784447272
 10
195.7357459487012
 20
15.17413115893123
 10
195.6197995623054
 20
15.17114764593547
 10
195.5062756882122
 20
15.17606892268396
 10
195.4389231318804
 20
15.16585087513523
 10
195.3734285122495
 20
15.18145996138818
 10
195.3891713619218
 20
15.11463851827414
 10
195.3783275998212
 20
15.04207057815881
 10
195.3836581629792
 20
14.91162247614419
 10
195.3817136151854
 20
14.76064558185229
 10
195.3823133683214
 20
14.59322243934161
 10
195.3821506559604
 20
14.42656176118374
 10
195.3821895488136
 20
14.27360142921638
 10
195.38218164131
 20
14.14849178985708
 10
195.3821828382744
 20
14.06507890991422
 10
195.3821827716208
 20
14.02491778281978
 10
195.3821827564383
 20
14.0141051738576
 97
        1
330
A3
 75
     1
 76
     2
 52
45.0
 41
0.1
 77
     0
 78
     1
 53
45.0
 43
0.0
 44
0.0
 45
-0.282842712474619
 46
0.0
 79
     0
 98
        1
 10
0.0
 20
0.0
  0
HATCH
  5
C1
330
48
100
AcDbEntity
  8
1
  6
Continuous
 62
     2
100
AcDbHatch
 10
0.0
 20
0.0
 30
0.0
210
0.0
220
0.0
230
1.0
  2
CUSTOM3
 70
     0
 71
     1
 91
        1
 92
        1
 93
        1
 72
     4
 94
        3
 73
     0
 74
     0
 95
      131
 96
      127
 40
0.0
 40
0.0
 40
0.0
 40
0.0
 40
0.0195577029826086
 40
0.0426490537461338
 40
0.2863607575856525
 40
0.5344948436189296
 40
0.7842238845573223
 40
0.8737315789467378
 40
0.9803832810312875
 40
1.092842274517031
 40
1.199761146656788
 40
1.289788768186494
 40
1.351573580786189
 40
1.370727117561415
 40
1.416400936017829
 40
1.470914848355969
 40
1.51658866679176
 40
1.535742203552841
 40
1.634216592293189
 40
1.760283341175026
 40
1.897966686682085
 40
2.031216387368906
 40
2.049689751137902
 40
2.101115601646836
 40
2.179502577739953
 40
2.278859318314068
 40
2.393194462258722
 40
2.516516648383833
 40
2.642834515405961
 40
2.766156701983464
 40
2.880491846754575
 40
2.979848588358618
 40
3.058235565443793
 40
3.109661416668946
 40
3.128134780704123
 40
3.14678374238644
 40
3.191254343315301
 40
3.24433215731596
 40
3.288802758225863
 40
3.307451719895106
 40
3.327717853844718
 40
3.383747753580078
 40
3.468388665924472
 40
3.574487837698776
 40
3.694892515728882
 40
3.82244994685202
 40
3.950007377920409
 40
4.070412055800499
 40
4.176511227368055
 40
4.261152139501503
 40
4.317182039076695
 40
4.337448172964615
 40
4.620011002696227
 40
4.885096638397501
 40
4.945373043518318
 40
5.014107710488631
 40
5.070481727652031
 40
5.319246955636555
 40
5.584812164506027
 40
5.859000912056877
 40
6.133746937542059
 40
6.401732212968864
 40
6.420736683995455
 40
6.472845717451105
 40
6.550702743894033
 40
6.646951193874242
 40
6.754234497930566
 40
6.865196086587344
 40
6.972479390357802
 40
7.068727839771964
 40
7.146584865450973
 40
7.198693898189203
 40
7.217698368905343
 40
7.23495040163082
 40
7.276089864269866
 40
7.325191803515977
 40
7.366331266090362
 40
7.383583298769714
 40
7.402779163492091
 40
7.453386443254522
 40
7.524934666445524
 40
7.606953361405863
 40
7.688972056429015
 40
7.760520279784266
 40
7.811127559734508
 40
7.830323424546129
 40
7.847844055299757
 40
7.8947993456668
 40
7.962779392744488
 40
8.043374293560536
 40
8.128174145149442
 40
8.208769044817243
 40
8.276749090376947
 40
8.32370437966951
 40
8.34122501005624
 40
8.358497614800388
 40
8.401679126686593
 40
8.457815092185651
 40
8.513951057728056
 40
8.557132569708012
 40
8.574405174505054
 40
8.602340668616419
 40
8.643455660539962
 40
8.66322527196663
 40
8.715345156564274
 40
8.789031889628612
 40
8.87350204552034
 40
8.957972194323965
 40
9.031658925567855
 40
9.083778811234543
 40
9.103548423003007
 40
9.119550083123544
 40
9.160817522379846
 40
9.217244429110211
 40
9.278724491644697
 40
9.335151398295482
 40
9.376418837357777
 40
9.392420497300565
 40
9.401196302734784
 40
9.417494229384259
 40
9.426270027749531
 40
9.440875075477564
 40
9.475702496998746
 40
9.51727070986591
 40
9.55209813199408
 40
9.56670316988429
 40
9.56670316988429
 40
9.56670316988429
 40
9.56670316988429
 10
194.6170254148479
 20
15.67015871511029
 10
194.613434509337
 20
15.66453690702161
 10
194.6056039123625
 20
15.65227754419115
 10
194.5129968974543
 20
15.61601916040979
 10
194.4887622233248
 20
15.40148444212716
 10
194.3858709845938
 20
15.22197284509711
 10
194.1220492364305
 20
15.03615573798147
 10
194.284547156918
 20
14.95959336566083
 10
194.3607225760838
 20
14.89856693195445
 10
194.4492171072758
 20
14.83515804544762
 10
194.5389930233111
 20
14.77525634219564
 10
194.5883817636046
 20
14.72102154849211
 10
194.6745708157382
 20
14.69286240541837
 10
194.6411260674229
 20
14.65713309652815
 10
194.6214671166312
 20
14.62550387991909
 10
194.5919888217881
 20
14.58475872796072
 10
194.5688989446031
 20
14.55504663489647
 10
194.5380205968356
 20
14.50211422668497
 10
194.472919336574
 20
14.62740334938904
 10
194.3796000122414
 20
14.68213900233937
 10
194.2950636285139
 20
14.73916423939346
 10
194.1722498125742
 20
14.89675287427525
 10
194.1764450847301
 20
14.82035806766838
 10
194.1751478652677
 20
14.77361280161298
 10
194.1758126448076
 20
14.69584785812603
 10
194.1755549986956
 20
14.59902068324425
 10
194.1756431239922
 20
14.48650279078811
 10
194.1756077302281
 20
14.36524085945702
 10
194.1756511758279
 20
14.24086897858964
 10
194.1755199942406
 20
14.11967683631339
 10
194.1759477562046
 20
14.00691148919746
 10
194.174667820231
 20
13.91082913768746
 10
194.1779759851044
 20
13.83113826468703
 10
194.1715197740085
 20
13.78815175788786
 10
194.1806208705556
 20
13.74955432372046
 10
194.1447910339934
 20
13.75810887724073
 10
194.1115223815252
 20
13.7534251998545
 10
194.0604562576041
 20
13.75351298759787
 10
194.0269723972812
 20
13.75794430283824
 10
193.9907585408754
 20
13.74960793842513
 10
194.0009782568665
 20
13.79145277179287
 10
193.9936487887773
 20
13.83778560820177
 10
193.9973633136103
 20
13.92374831106017
 10
193.9959480554896
 20
14.02605142704852
 10
193.9964105554638
 20
14.14453223931515
 10
193.996277368623
 20
14.26957683153359
 10
193.9963015910045
 20
14.39475828107052
 10
193.9963354925551
 20
14.51286645379061
 10
193.9962060293132
 20
14.61628748709519
 10
193.9965507549082
 20
14.6993203615367
 10
193.995869827869
 20
14.75143368521246
 10
193.9994586600623
 20
14.87912907821363
 10
193.7826171386436
 20
14.58048716819623
 10
193.6021354921951
 20
14.35263981511518
 10
193.5490322295611
 20
14.49373443289816
 10
193.5200429133149
 20
14.54325767560946
 10
193.419664806282
 20
14.64641779790109
 10
193.7405127723261
 20
14.72695035023782
 10
193.8689897005429
 20
14.91066283036437
 10
194.0906454325358
 20
15.11931995771765
 10
194.1770224894068
 20
15.29339211228346
 10
194.4549394229075
 20
15.56967051342515
 10
194.3346247839283
 20
15.56534559551116
 10
194.2863197351349
 20
15.56614856202556
 10
194.2102377454905
 20
15.56574582146587
 10
194.116701000975
 20
15.56590275611612
 10
194.0117594788557
 20
15.56582502576227
 10
193.9033887738717
 20
15.56595464378557
 10
193.7981454235897
 20
15.56554393490694
 10
193.7056237819412
 20
15.56682073671594
 10
193.6268130800707
 20
15.56340766534853
 10
193.5839674565379
 20
15.57023350036323
 10
193.5449499586516
 20
15.56065064201126
 10
193.5526365271863
 20
15.59420779565546
 10
193.5485464404312
 20
15.62523550322235
 10
193.5485531368814
 20
15.67236529270903
 10
193.5526239724911
 20
15.70340941646781
 10
193.5449495574583
 20
15.73701861635905
 10
193.5834819405494
 20
15.72748410420875
 10
193.624122801448
 20
15.73397435498074
 10
193.6951471850463
 20
15.73100150650257
 10
193.7729318149633
 20
15.7317476139916
 10
193.8507292246474
 20
15.73247814044529
 10
193.9217232089908
 20
15.72954235514163
 10
193.9624279791819
 20
15.73595468772955
 10
194.0009853489909
 20
15.72650524176007
 10
193.9927342754928
 20
15.76264692158788
 10
193.9982346669358
 20
15.8012983761323
 10
193.9955754206163
 20
15.86913528561842
 10
193.9965815471532
 20
15.94591641538743
 10
193.996017801832
 20
16.0284939358276
 10
193.9970714526593
 20
16.10517329229881
 10
193.994267586313
 20
16.17331990776703
 10
194.0000702721303
 20
16.21132399809349
 10
193.9915654551159
 20
16.24758448077649
 10
194.0255610233125
 20
16.23755723771855
 10
194.0594575683099
 20
16.2407326681371
 10
194.1126669060346
 20
16.23508965640612
 10
194.1660768574482
 20
16.23434774436428
 10
194.1995914649491
 20
16.22819223482984
 10
194.2388086183039
 20
16.23346029773596
 10
194.2120263698491
 20
16.19253380793492
 10
194.1708111001724
 20
16.20371204538114
 10
194.1782641540874
 20
16.15867056192127
 10
194.1742227952184
 20
16.11412278028147
 10
194.1761714049641
 20
16.04223572621706
 10
194.1752364849758
 20
15.96168630588773
 10
194.176510719003
 20
15.88173995404998
 10
194.1732043793864
 20
15.80841837083185
 10
194.1802106179961
 20
15.76688643002571
 10
194.1701440380125
 20
15.72752418568115
 10
194.2029814803921
 20
15.73468063430985
 10
194.236457729648
 20
15.73027243137947
 10
194.2915053476019
 20
15.73217943347901
 10
194.3489502595314
 20
15.73185366407291
 10
194.4023026248309
 20
15.73106308733085
 10
194.4398540896639
 20
15.73313959118077
 10
194.4623172523237
 20
15.73022338167112
 10
194.4751678073731
 20
15.73572552644059
 10
194.4858255685888
 20
15.73801118197793
 10
194.4986635650144
 20
15.74494972588056
 10
194.514599103307
 20
15.72853046313674
 10
194.5410623920891
 20
15.7170912231945
 10
194.5726805253758
 20
15.69644687835194
 10
194.5987255892151
 20
15.68116869628296
 10
194.6128517723973
 20
15.67266976323186
 10
194.6170254148479
 20
15.67015871511029
 97
        1
330
A4
 75
     1
 76
     2
 52
45.0
 41
0.1
 77
     0
 78
     1
 53
45.0
 43
0.0
 44
0.0
 45
-0.282842712474619
 46
0.0
 79
     0
 98
        1
 10
0.0
 20
0.0
  0
HATCH
  5
C2
330
48
100
AcDbEntity
  8
1
  6
Continuous
 62
     2
100
AcDbHatch
 10
0.0
 20
0.0
 30
0.0
210
0.0
220
0.0
230
1.0
  2
CUSTOM4
 70
     0
 71
     1
 91
        1
 92
        1
 93
        1
 72
     4
 94
        3
 73
     0
 74
     0
 95
       91
 96
       87
 40
0.0
 40
0.0
 40
0.0
 40
0.0
 40
0.0267532254356701
 40
0.0856103386464102
 40
0.1444674521996621
 40
0.1712206856618514
 40
0.2039416005642536
 40
0.2955601971652484
 40
0.4362601844616918
 40
0.616225284450725
 40
0.8256392189704698
 40
1.054685709844411
 40
1.293548478893531
 40
1.532411247938303
 40
1.761457738799568
 40
1.970871673298537
 40
2.150836773256732
 40
2.291536760495593
 40
2.3831553568367
 40
2.41587628410132
 40
2.442629517487961
 40
2.501486630949095
 40
2.560343744424244
 40
2.587096977826515
 40
2.617068194440942
 40
2.699247336756083
 40
2.822032643466396
 40
2.973822353257925
 40
3.143014704823368
 40
3.318007936879947
 40
3.48720028818678
 40
3.63898999754826
 40
3.761775303794759
 40
3.843954445753094
 40
3.87392566222979
 40
3.890812773500496
 40
3.907699884771674
 40
3.937960767857287
 40
3.980983618142319
 40
4.199085915228463
 40
4.439444339237253
 40
4.677588241260899
 40
5.050698317837785
 40
5.448212454763171
 40
5.855291218044696
 40
6.138575438885361
 40
6.417434507584214
 40
6.444551104393896
 40
6.504207617363194
 40
6.563864130314516
 40
6.590980727104109
 40
6.848609460381493
 40
7.109611990668451
 40
7.352910904446114
 40
7.557830220705485
 40
7.587518925913405
 40
7.652834077375824
 40
7.718149228845763
 40
7.747837934062068
 40
7.85488019030103
 40
7.976511257403577
 40
8.369487896592378
 40
8.757514959223672
 40
9.126072419331134
 40
9.460639380392196
 40
9.746695593035938
 40
9.777569943118714
 40
9.807050320931813
 40
9.830377336128947
 40
9.88600329543602
 40
9.952395569429932
 40
10.00802152870628
 40
10.03134854388221
 40
10.21356951009591
 40
10.42203479292874
 40
10.66154556731066
 40
10.91693789564308
 40
11.15832906556569
 40
11.18982674596626
 40
11.27286608520411
 40
11.39026653033353
 40
11.52484752840889
 40
11.65942852648451
 40
11.77682897161487
 40
11.85986831085686
 40
11.89136598230431
 40
11.89136598230431
 40
11.89136598230431
 40
11.89136598230431
 10
190.7027885008196
 20
14.70699600701775
 10
190.7028237765288
 20
14.71587847311988
 10
190.7029366710796
 20
14.74430237047349
 10
190.7012984568489
 20
14.79409639169806
 10
190.7069750292911
 20
14.83657564478157
 10
190.6956928731706
 20
14.8873015485685
 10
190.7632296979031
 20
14.87012900740112
 10
190.83880292107
 20
14.88290227165999
 10
190.9828357056
 20
14.87629729457384
 10
191.1569419185427
 20
14.87888462206469
 10
191.3639599611003
 20
14.87800591955556
 10
191.5894688172378
 20
14.87828207920031
 10
191.8251162293406
 20
14.87818339658665
 10
192.0607640531348
 20
14.8782818441277
 10
192.2862717580626
 20
14.87800678190792
 10
192.4932934632805
 20
14.87888186270738
 10
192.6673888915288
 20
14.8763052267845
 10
192.8114492071986
 20
14.88288290449217
 10
192.8869691915293
 20
14.87016243405607
 10
192.9545776037029
 20
14.88726400191689
 10
192.9430840140676
 20
14.83674785802944
 10
192.9505104581732
 20
14.79253252226504
 10
192.9428838927987
 20
14.74867966503613
 10
192.9546489459424
 20
14.69878374479331
 10
192.8930788491983
 20
14.71393227712515
 10
192.8256791738672
 20
14.70310665350677
 10
192.7013004056221
 20
14.70852031626239
 10
192.555442823657
 20
14.70649205390787
 10
192.3893576440085
 20
14.7071577757839
 10
192.2188412621724
 20
14.70689643521245
 10
192.0519790855388
 20
14.70721553391097
 10
191.9087346827105
 20
14.70635302590765
 10
191.7773313869835
 20
14.70863300482991
 10
191.7239859134655
 20
14.70407704374205
 10
191.6485188456913
 20
14.70999914992881
 10
191.6769075779231
 20
14.70094169343356
 10
191.7033652409543
 20
14.69725912268934
 10
191.6633522907701
 20
14.66654271968277
 10
191.5713663691868
 20
14.67667591174638
 10
191.5439396207069
 20
14.43032502247788
 10
191.4478793967234
 20
14.27499558764378
 10
191.1917277964473
 20
13.94525417931571
 10
191.7627537732763
 20
14.08430022210455
 10
192.0173656320516
 20
14.08291779973366
 10
192.6279647048617
 20
13.99790569242089
 10
192.3340698578084
 20
14.29685417558206
 10
192.0133304286516
 20
14.44330856901785
 10
192.1313543360434
 20
14.50025540818291
 10
192.1724716466261
 20
14.52420099873352
 10
192.2156812394411
 20
14.54599758811234
 10
192.317457409445
 20
14.60928721253906
 10
192.4328867625247
 20
14.35147151408783
 10
192.6329591642277
 20
14.21616041113686
 10
192.7269077387228
 20
14.03792795138884
 10
192.9558829746392
 20
13.87997821027052
 10
192.8596031846708
 20
13.82915972576302
 10
192.8167959763779
 20
13.79881292523057
 10
192.7718243528779
 20
13.7746613028146
 10
192.7121720925213
 20
13.7255214674757
 10
192.6789731061324
 20
13.85997475673611
 10
192.5582013350796
 20
14.01594265286584
 10
192.1970976005978
 20
13.88569928059559
 10
191.8385061955541
 20
13.90224694409486
 10
191.4570920450081
 20
13.89331229351869
 10
191.170345528289
 20
13.8288267167241
 10
190.8592055599715
 20
13.94230668192829
 10
190.8268737818788
 20
13.83122259927771
 10
190.7896178253318
 20
13.81196313850016
 10
190.7865737632754
 20
13.858747840873
 10
190.7679892860607
 20
13.89806853919138
 10
190.7512436616778
 20
13.95765983478235
 10
190.7383730915753
 20
14.00201969871285
 10
190.704232780643
 20
14.09106331120203
 10
190.9482714457753
 20
14.02181042943772
 10
191.1441394486671
 20
14.00030369057746
 10
191.2395426381276
 20
14.28226484478465
 10
191.2945135769597
 20
14.44363045421126
 10
191.5159619357156
 20
14.71391177589741
 10
191.3849239381216
 20
14.70548446853738
 10
191.3110026555854
 20
14.70779008496973
 10
191.1977459876244
 20
14.7067137832166
 10
191.0694251807484
 20
14.70707639076513
 10
190.9404252030415
 20
14.70697724466088
 10
190.828784094629
 20
14.70699932712575
 10
190.7514663970026
 20
14.70699579189673
 10
190.713287653201
 20
14.70699595845084
 10
190.7027885008196
 20
14.70699600701775
 97
        1
330
A5
 75
     1
 76
     2
 52
45.0
 41
0.1
 77
     0
 78
     1
 53
45.0
 43
0.0
 44
0.0
 45
-0.282842712474619
 46
0.0
 79
     0
 98
        1
 10
0.0
 20
0.0
  0
HATCH
  5
C3
330
48
100
AcDbEntity
  8
1
  6
Continuous
 62
     2
100
AcDbHatch
 10
0.0
 20
0.0
 30
0.0
210
0.0
220
0.0
230
1.0
  2
CUSTOM5
 70
     0
 71
     1
 91
        1
 92
        1
 93
        1
 72
     4
 94
        3
 73
     0
 74
     0
 95
       35
 96
       31
 40
0.0
 40
0.0
 40
0.0
 40
0.0
 40
0.033523103662059
 40
0.0713218571711996
 40
0.4278866681487027
 40
0.8116865841964048
 40
1.198190238000063
 40
1.561379546812695
 40
1.65998317462205
 40
1.759315573807192
 40
2.132719617231076
 40
2.525233363588828
 40
2.910815397779696
 40
3.265244364303279
 40
3.592606723582016
 40
3.964386154603964
 40
4.359942131737787
 40
4.758154118639299
 40
4.843846538699915
 40
4.936650065543231
 40
5.256616602537314
 40
5.581707404416052
 40
5.899719158308149
 40
6.198363494280754
 40
6.466301046615786
 40
6.493895311537108
 40
6.559697020196901
 40
6.638234543442477
 40
6.704036252154229
 40
6.731630508423036
 40
6.731630508423036
 40
6.731630508423036
 40
6.731630508423036
 10
191.9736010568669
 20
16.23463843719136
 10
191.9676006097788
 20
16.22480690542325
 10
191.9548344099157
 20
16.20388988579801
 10
191.7949362006554
 20
16.17127126532691
 10
192.2322025842337
 20
15.88206680336705
 10
192.4345394828262
 20
15.6804113835844
 10
192.6819564267973
 20
15.4374938760328
 10
193.1831513624606
 20
15.36047662757777
 10
193.012556219897
 20
15.21876939174659
 10
192.9383299463201
 20
15.0171036620911
 10
192.6131432248188
 20
15.36956287174729
 10
192.3277741670664
 20
15.53175212559565
 10
192.0337604077658
 20
15.73687130053051
 10
191.8084452691134
 20
16.21827488595456
 10
191.5993085055522
 20
15.75343046609225
 10
191.3207873674834
 20
15.54350952252914
 10
191.0371383177208
 20
15.37424456359987
 10
190.7078639527832
 20
15.00142360907938
 10
190.6277012318224
 20
15.19708014459004
 10
190.4759724909744
 20
15.32491104190597
 10
190.9083395826795
 20
15.40454031765938
 10
191.0962565329766
 20
15.60026634915475
 10
191.3468477420502
 20
15.81632996916758
 10
191.5714350470162
 20
15.98190992300061
 10
191.6259775409712
 20
16.26133964636831
 10
191.7494661029011
 20
16.24737950408081
 10
191.806027334452
 20
16.2452126886765
 10
191.8761870984945
 20
16.24046859881363
 10
191.9333414022105
 20
16.23709429350544
 10
191.9644190320839
 20
16.23519854711121
 10
191.9736010568669
 20
16.23463843719136
 97
        1
330
A6
 75
     1
 76
     2
 52
45.0
 41
0.1
 77
     0
 78
     1
 53
45.0
 43
0.0
 44
0.0
 45
-0.282842712474619
 46
0.0
 79
     0
 98
        1
 10
0.0
 20
0.0
  0
HATCH
  5
C4
330
48
100
AcDbEntity
  8
1
  6
Continuous
 62
     2
100
AcDbHatch
 10
0.0
 20
0.0
 30
0.0
210
0.0
220
0.0
230
1.0
  2
CUSTOM6
 70
     0
 71
     1
 91
        1
 92
        1
 93
        1
 72
     4
 94
        3
 73
     0
 74
     0
 95
       15
 96
       11
 40
0.0
 40
0.0
 40
0.0
 40
0.0
 40
0.2785535985096574
 40
0.5215624748198886
 40
0.6076917376040522
 40
0.6938210001741256
 40
0.9405019146455045
 40
1.221691403489136
 40
1.300471877081055
 40
1.379252341684825
 40
1.379252341684825
 40
1.379252341684825
 40
1.379252341684825
 10
189.5681493630999
 20
16.22930267330384
 10
189.6296017794178
 20
16.17691646592719
 10
189.7446649974113
 20
16.07882876798225
 10
190.0397348497244
 20
15.92889785897226
 10
189.9025147631857
 20
15.84343227515016
 10
189.8041227843778
 20
15.71085785201559
 10
189.713003359065
 20
16.01616985781423
 10
189.3636839480655
 20
16.07967869465377
 10
189.511925837657
 20
16.17896509880881
 10
189.5494081874236
 20
16.21252348402385
 10
189.5681493630999
 20
16.22930267330384
 97
        1
330
A7
 75
     1
 76
     2
 52
45.0
 41
0.1
 77
     0
 78
     1
 53
45.0
 43
0.0
 44
0.0
 45
-0.282842712474619
 46
0.0
 79
     0
 98
        1
 10
0.0
 20
0.0
  0
HATCH
  5
C5
330
48
100
AcDbEntity
  8
1
  6
Continuous
 62
     2
100
AcDbHatch
 10
0.0
 20
0.0
 30
0.0
210
0.0
220
0.0
230
1.0
  2
CUSTOM7
 70
     0
 71
     1
 91
        1
 92
        1
 93
        1
 72
     4
 94
        3
 73
     0
 74
     0
 95
       75
 96
       71
 40
0.0
 40
0.0
 40
0.0
 40
0.0
 40
0.0342546099129691
 40
0.1245622414432346
 40
0.25223854808975
 40
0.3985991922940627
 40
0.5449598364980768
 40
0.6726361431438745
 40
0.7629437746736871
 40
0.7971983935297884
 40
1.10172362344965
 40
1.408591244036655
 40
1.433332471690361
 40
1.487763172450162
 40
1.542193873081997
 40
1.566935100592546
 40
1.923523931821856
 40
2.271755704953655
 40
2.590579755100897
 40
2.858943305581153
 40
2.889120339309175
 40
2.918305855191127
 40
2.94136664553125
 40
2.996357760973139
 40
3.061992318140682
 40
3.116983433626876
 40
3.140044223997555
 40
3.411273122936477
 40
3.732441619741144
 40
3.761068217532842
 40
3.837787499630404
 40
3.948858699126041
 40
4.080541049104416
 40
4.219093782625797
 40
4.350776132722348
 40
4.461847332405678
 40
4.53856661467841
 40
4.567193212544656
 40
4.594907573998914
 40
4.666381453557453
 40
4.764111044011064
 40
4.870592538125867
 40
4.968322128642318
 40
5.039796008287003
 40
5.067510369784462
 40
5.094263603185678
 40
5.153120716668311
 40
5.211977830150759
 40
5.238731063551763
 40
5.272290535139002
 40
5.363380529444863
 40
5.497618415781541
 40
5.660621563453783
 40
5.838007341749484
 40
6.015393119910835
 40
6.178396267038461
 40
6.312634151842412
 40
6.403724143059402
 40
6.437283612672497
 40
6.464036846261114
 40
6.522893960004731
 40
6.581751071483995
 40
6.608504301590941
 40
6.637253941281089
 40
6.71139774890294
 40
6.812778057283553
 40
6.923237199249329
 40
7.024617507623973
 40
7.098761315207626
 40
7.127510946007576
 40
7.127510946007576
 40
7.127510946007576
 40
7.127510946007576
 10
188.4418622390564
 20
14.95849128473267
 10
188.4418622819707
 20
14.94707313408723
 10
188.4418624481129
 20
14.90555257842632
 10
188.4418593081786
 20
14.82146922003775
 10
188.4418788279801
 20
14.70004497322331
 10
188.4417912187737
 20
14.55980494047451
 10
188.442111623523
 20
14.4200655679458
 10
188.441160590974
 20
14.29745038894933
 10
188.4431978595968
 20
14.21587074438047
 10
188.4349433178744
 20
14.06271267077701
 10
188.7430797940902
 20
14.22560236054724
 10
189.0350645173735
 20
14.39482938688005
 10
189.0408354448708
 20
14.25973235781914
 10
189.0455471719891
 20
14.21617221160446
 10
189.0482535411918
 20
14.17211249350547
 10
189.0672545672958
 20
14.02272590363135
 10
188.6583942247302
 20
14.08681172241264
 10
188.3793710348832
 20
13.9729634141102
 10
188.1018081587165
 20
13.87364095811145
 10
187.8099837184402
 20
13.91630687596359
 10
187.7869144678657
 20
13.81321679744545
 10
187.7537474383334
 20
13.78691091244472
 10
187.7480653962737
 20
13.83455309036306
 10
187.7284214559045
 20
13.87180336115072
 10
187.7095089485622
 20
13.93007387847567
 10
187.6942849867707
 20
13.97385201007807
 10
187.6477246372936
 20
14.08759421046314
 10
187.989089731245
 20
14.0557630112005
 10
188.2679649367386
 20
14.02161435106483
 10
188.2617753034907
 20
14.16913976479656
 10
188.2630935452773
 20
14.24013150908836
 10
188.2624831689949
 20
14.34719767958666
 10
188.2625871570724
 20
14.47398529786001
 10
188.2629987964055
 20
14.60849243496054
 10
188.2613907841969
 20
14.73395549951187
 10
188.2659902567925
 20
14.84505246719121
 10
188.2564186502211
 20
14.90761886800692
 10
188.2704001783691
 20
14.96595388295004
 10
188.2147384386704
 20
14.9528971058224
 10
188.1575655197821
 20
14.96136307749501
 10
188.0616048925648
 20
14.95729976080639
 10
187.963376752282
 20
14.95970889852477
 10
187.8672582457561
 20
14.95551600613391
 10
187.8104648525811
 20
14.96429346441165
 10
187.7550356873384
 20
14.95094936850124
 10
187.7670679427916
 20
15.00036910959259
 10
187.7592003173938
 20
15.04393988030399
 10
187.7666295563828
 20
15.08830469118528
 10
187.7551930564144
 20
15.13902297763994
 10
187.8232102370133
 20
15.12162460757745
 10
187.8968496879747
 20
15.13417450237191
 10
188.0325064058211
 20
15.127996770111
 10
188.1884909024525
 20
15.13029203093087
 10
188.3615926358143
 20
15.12940968262533
 10
188.5346942964181
 20
15.13029207142411
 10
188.6906789811216
 20
15.12799662955553
 10
188.8263351889797
 20
15.13417486262434
 10
188.8999756705652
 20
15.12162394218338
 10
188.9679914174724
 20
15.13902373012145
 10
188.9565590885922
 20
15.08830130414558
 10
188.9639539458297
 20
15.04397060811111
 10
188.9562039912271
 20
15.00028307550199
 10
188.9681203741876
 20
14.95063590098479
 10
188.9108170223617
 20
14.96461411338429
 10
188.8520145789772
 20
14.95539755673256
 10
188.7525293633199
 20
14.95952268164932
 10
188.649428009835
 20
14.95822760025891
 10
188.5537846354573
 20
14.95854077077644
 10
188.4857467971617
 20
14.95848776697148
 10
188.4514462213443
 20
14.95849051871659
 10
188.4418622390564
 20
14.95849128473267
 97
        1
330
A8
 75
     1
 76
     2
 52
45.0
 41
0.1
 77
     0
 78
     1
 53
45.0
 43
0.0
 44
0.0
 45
-0.282842712474619
 46
0.0
 79
     0
 98
        1
 10
0.0
 20
0.0
  0
HATCH
  5
C6
330
48
100
AcDbEntity
  8
1
  6
Continuous
 62
     2
100
AcDbHatch
 10
0.0
 20
0.0
 30
0.0
210
0.0
220
0.0
230
1.0
  2
CUSTOM8
 70
     0
 71
     1
 91
        1
 92
        1
 93
        1
 72
     4
 94
        3
 73
     0
 74
     0
 95
       91
 96
       87
 40
0.0
 40
0.0
 40
0.0
 40
0.0
 40
0.0345987051695718
 40
0.1258134969461369
 40
0.2547723404888987
 40
0.4026032099154125
 40
0.5504340793416704
 40
0.679392922883608
 40
0.7706077146571035
 40
0.8052064287780925
 40
1.124852390615274
 40
1.427402236308867
 40
1.706356627453505
 40
1.955541417875187
 40
2.169485938566332
 40
2.344350786664787
 40
2.480568411561936
 40
2.590440557428958
 40
2.649189927151113
 40
2.749320643306315
 40
2.91263273988002
 40
3.147745656000216
 40
3.244827496385112
 40
3.3384900569467
 40
3.583815413207128
 40
3.761423943238487
 40
3.88695610436265
 40
3.985855451886811
 40
4.091766255337696
 40
4.25018647381189
 40
4.422734315084534
 40
4.62828568483863
 40
4.872093227758462
 40
5.15254965214557
 40
5.46496713583755
 40
5.803201477852463
 40
6.16036298881393
 40
6.193449448275985
 40
6.28417038550164
 40
6.41971813876451
 40
6.58728504638576
 40
6.774063446723674
 40
6.967245678113657
 40
7.154024078817643
 40
7.321590987026029
 40
7.457138740890387
 40
7.547859678556123
 40
7.580946138182683
 40
7.608533084714737
 40
7.669224367077715
 40
7.729915649429937
 40
7.757502595949989
 40
7.790278062553443
 40
7.880146277430941
 40
8.014419963180405
 40
8.180411842397906
 40
8.365434637679375
 40
8.556801071622676
 40
8.741823866830789
 40
8.907815745916299
 40
9.042089431507453
 40
9.131957646249578
 40
9.164733112797155
 40
9.415425063140082
 40
9.66798618095854
 40
9.694169807462707
 40
9.756607686047666
 40
9.831130315322472
 40
9.893568193899936
 40
9.919751820398753
 40
9.95096796469058
 40
9.996421631210692
 40
10.22087981037457
 40
10.44341866197546
 40
10.47847970788858
 40
10.57091337438758
 40
10.70159545461233
 40
10.85140174170364
 40
11.00120802880481
 40
11.13189010907386
 40
11.22432377583014
 40
11.2593848093896
 40
11.28697175596149
 40
11.34766303835923
 40
11.40835432042074
 40
11.43594125892109
 40
11.43594125892109
 40
11.43594125892109
 40
11.43594125892109
 10
190.0818114333289
 20
15.55242795125079
 10
190.0702785844941
 20
15.55242790287917
 10
190.0283409444998
 20
15.55242773704166
 10
189.9434129719026
 20
15.55243125800911
 10
189.8207688553128
 20
15.5524092643588
 10
189.6791206916993
 20
15.55250801177056
 10
189.537975369849
 20
15.55214686232423
 10
189.4141351317905
 20
15.55321883609091
 10
189.3317217825382
 20
15.5509224909127
 10
189.1727791229692
 20
15.56048569373422
 10
189.3503402353376
 20
15.19785394311373
 10
189.3379739205452
 20
14.95243127723116
 10
189.4064519473864
 20
14.66862501324837
 10
189.469302432097
 20
14.43250999939038
 10
189.5452253431729
 20
14.23326740396133
 10
189.6303189577015
 20
14.07745347451376
 10
189.7244607592935
 20
13.97657857781396
 10
189.8282648207727
 20
13.92465852638968
 10
189.9125872030773
 20
13.9760648437962
 10
189.9351322179452
 20
14.09144544037521
 10
189.9745730975371
 20
14.21885149702383
 10
189.9202919734942
 20
14.53622328086759
 10
190.0451218072473
 20
14.38982180140908
 10
190.2019291513603
 20
14.35795300331175
 10
190.0947720007056
 20
14.12421357767631
 10
190.0808711209867
 20
13.9597277658366
 10
190.0234709467225
 20
13.83130869122487
 10
189.9335020145008
 20
13.76018802352829
 10
189.8095274657877
 20
13.74432324142257
 10
189.663427319686
 20
13.77993797554175
 10
189.5243894320284
 20
13.9000057050028
 10
189.4102003962144
 20
14.07435682550323
 10
189.3146141301486
 20
14.29946603111244
 10
189.2318652572626
 20
14.56388246006446
 10
189.1807179256411
 20
14.88187933098546
 10
189.0770189207338
 20
15.15543728488915
 10
189.2042841208521
 20
15.56005818612869
 10
189.0357890623019
 20
15.5511236784968
 10
188.9511995787077
 20
15.55315961418365
 10
188.8189876387627
 20
15.55213937388408
 10
188.6560505094104
 20
15.55253230318431
 10
188.4733759170532
 20
15.5523569631337
 10
188.2847057373383
 20
15.5526010530747
 10
188.1014469020189
 20
15.55185657906239
 10
187.9404746832718
 20
15.55416360522427
 10
187.8029808335276
 20
15.54799804883665
 10
187.728959037231
 20
15.56032838458212
 10
187.6613215186857
 20
15.54329323723558
 10
187.6732373719269
 20
15.59524438447529
 10
187.6655677285694
 20
15.64071424966531
 10
187.6732592225115
 20
15.68614453703707
 10
187.6613141797762
 20
15.73802395984572
 10
187.7283588305867
 20
15.72119143490266
 10
187.8017375665676
 20
15.73335409092672
 10
187.9379128305272
 20
15.72727231074961
 10
188.0973811801512
 20
15.7295483431506
 10
188.2789173085836
 20
15.72881233998964
 10
188.4658034862179
 20
15.72905954196136
 10
188.6468012316836
 20
15.72886400799256
 10
188.8080802578878
 20
15.72932234714841
 10
188.9393882124887
 20
15.72812673751208
 10
189.0225051322596
 20
15.73051347319744
 10
189.1556236547814
 20
15.72230605725466
 10
189.0645893502659
 20
15.97752868952658
 10
188.9789633074418
 20
16.24164358328247
 10
189.0990589003455
 20
16.22904442969168
 10
189.1514264948544
 20
16.22694235763077
 10
189.2214497569715
 20
16.22535399889658
 10
189.2671922337817
 20
16.21602567538115
 10
189.3220812646933
 20
16.22545966915428
 10
189.2963574785681
 20
16.17733028655176
 10
189.1825397571453
 20
16.18266829744168
 10
189.3159346621136
 20
15.95449174576779
 10
189.1943658735472
 20
15.72156856595925
 10
189.3223188769412
 20
15.73087258884441
 10
189.4049048406461
 20
15.72801001754683
 10
189.5307214850824
 20
15.72923437412304
 10
189.6741469838057
 20
15.72932431888966
 10
189.8157420951728
 20
15.72746163183855
 10
189.9459127249967
 20
15.73333075937165
 10
190.0193452286191
 20
15.72070340823206
 10
190.0891112922096
 20
15.73877563110414
 10
190.0775772605396
 20
15.68612850546328
 10
190.0833184346682
 20
15.64221317686549
 10
190.081661577091
 20
15.5908998267655
 10
190.081775756167
 20
15.56158792021636
 10
190.0818114333289
 20
15.55242795125079
 97
        1
330
A9
 75
     1
 76
     2
 52
45.0
 41
0.1
 77
     0
 78
     1
 53
45.0
 43
0.0
 44
0.0
 45
-0.282842712474619
 46
0.0
 79
     0
 98
        1
 10
0.0
 20
0.0
  0
HATCH
  5
C7
330
48
100
AcDbEntity
  8
1
  6
Continuous
 62
     2
100
AcDbHatch
 10
0.0
 20
0.0
 30
0.0
210
0.0
220
0.0
230
1.0
  2
CUSTOM9
 70
     0
 71
     1
 91
        1
 92
        1
 93
        1
 72
     4
 94
        3
 73
     0
 74
     0
 95
      118
 96
      114
 40
0.0
 40
0.0
 40
0.0
 40
0.0
 40
0.105470816297341
 40
0.2466098270051881
 40
0.396591287459119
 40
0.5285525069753918
 40
0.6156245055642114
 40
0.6431434105797427
 40
0.7036850037986088
 40
0.7642265984504443
 40
0.7917455052354747
 40
0.9287404319989636
 40
1.106572819088014
 40
1.287544879681012
 40
1.317578308030531
 40
1.399928030857168
 40
1.522968204799942
 40
1.675072986590563
 40
1.844616533180639
 40
2.019973001638705
 40
2.189516548880017
 40
2.341621331585356
 40
2.464661506320492
 40
2.547011229647054
 40
2.57704465816802
 40
2.60379789089309
 40
2.662655002908777
 40
2.721512114949589
 40
2.748265347702769
 40
2.774215307344844
 40
2.845959313407175
 40
2.954338556588374
 40
3.090194227585553
 40
3.244367517100517
 40
3.407699615844275
 40
3.571031714539424
 40
3.7252050039201
 40
3.861060674729601
 40
3.969439917716293
 40
4.041183923628968
 40
4.06713388321296
 40
4.311886746012146
 40
4.547897258335512
 40
4.764747083043948
 40
4.952749679951745
 40
5.045772974195862
 40
5.137862019644939
 40
5.330543169792994
 40
5.553448265243987
 40
5.795083855888144
 40
6.043293412177203
 40
6.285761695541146
 40
6.31390290875263
 40
6.38425594179322
 40
6.475714884766808
 40
6.567173827758871
 40
6.637526860839649
 40
6.665668074074012
 40
6.69201892032799
 40
6.749990782071065
 40
6.80796264379044
 40
6.834313490017919
 40
6.856393084245197
 40
6.913335195649821
 40
6.991194817302484
 40
7.076026942283746
 40
7.153886563725236
 40
7.210828674844818
 40
7.232908268931154
 40
7.258199334923673
 40
7.324875781592321
 40
7.419142481924978
 40
7.527204308841916
 40
7.63526613523049
 40
7.729532834168476
 40
7.796209279292795
 40
7.821500344594742
 40
7.844652988850812
 40
7.899863140541591
 40
7.965759128053757
 40
8.020969279771041
 40
8.044121924046507
 40
8.0693566101606
 40
8.109134395441371
 40
8.132238100191083
 40
8.193147867786445
 40
8.279261678876614
 40
8.377977512673828
 40
8.476693347146613
 40
8.562807160411662
 40
8.623716930826445
 40
8.646820636853398
 40
8.671988793774212
 40
8.734909185828123
 40
8.816705695188837
 40
8.898502204815408
 40
8.961422597377869
 40
8.986590754550981
 40
9.01294160073314
 40
9.070913462380233
 40
9.128885324081732
 40
9.155236170325058
 40
9.1804043279291
 40
9.243324721948174
 40
9.325121234211966
 40
9.406917746637621
 40
9.469838141978077
 40
9.49500628827085
 40
9.517811184378994
 40
9.572192090486993
 40
9.637098333281221
 40
9.691479239515422
 40
9.714284125643461
 40
9.714284125643461
 40
9.714284125643461
 40
9.714284125643461
 10
185.2874469028653
 20
15.26889163187721
 10
185.3090990569037
 20
15.24111869242813
 10
185.3597257109474
 20
15.17618054561238
 10
185.4349383202591
 20
15.068910603129
 10
185.5248482274346
 20
14.95377438266627
 10
185.5709169676672
 20
14.85357045748322
 10
185.6655825294656
 20
14.78434006814946
 10
185.6204439320412
 20
14.73771639678276
 10
185.594704778579
 20
14.69660308866042
 10
185.5645196708012
 20
14.66065971727943
 10
185.5193684730562
 20
14.58579782596097
 10
185.4710504458562
 20
14.80782524253608
 10
185.3968539713074
 20
14.84510677337713
 10
185.2836047324605
 20
15.11610202130602
 10
185.288513357817
 20
15.00095328446232
 10
185.2868486556306
 20
14.9283667578163
 10
185.2876830076713
 20
14.80625588483989
 10
185.2873609540265
 20
14.65913800810463
 10
185.2875076912456
 20
14.4930706395656
 10
185.2872950092722
 20
14.32187554608605
 10
185.2879497252034
 20
14.15552828635501
 10
185.2859192461138
 20
14.00935173055696
 10
185.2913460399931
 20
13.88471047474614
 10
185.2804930868708
 20
13.81718656540629
 10
185.2956739155554
 20
13.75549061417025
 10
185.2457895108134
 20
13.76727503897004
 10
185.2017150342522
 20
13.75943822779973
 10
185.1582371630201
 20
13.76760441372706
 10
185.1092346786488
 20
13.7553805673847
 10
185.1218731234825
 20
13.80960667249316
 10
185.1130182968449
 20
13.86936918907561
 10
185.1175058770314
 20
13.97922029044373
 10
185.1157960135991
 20
14.11029975405681
 10
185.1163550915986
 20
14.26198011444331
 10
185.1161928768694
 20
14.42211074929956
 10
185.1162269924674
 20
14.58236865674569
 10
185.1162514960126
 20
14.73370247520442
 10
185.1161453543226
 20
14.86582156338604
 10
185.1164299141931
 20
14.97294802533196
 10
185.1158675547568
 20
15.03808619579477
 10
185.1180765083689
 20
15.16618957858678
 10
185.0319435998603
 20
14.79097610391578
 10
184.9555140818499
 20
14.63918193123398
 10
184.8660040767833
 20
14.47766206446309
 10
184.7640413217326
 20
14.20471848820176
 10
184.7187976491039
 20
14.36717346596514
 10
184.610235594167
 20
14.45605432058122
 10
184.7995791751752
 20
14.60549794961412
 10
184.85653405457
 20
14.79749136974928
 10
184.9717520993352
 20
15.02899622906759
 10
184.9940151630132
 20
15.21797259759066
 10
185.177190515214
 20
15.49454089325932
 10
185.0538033597552
 20
15.48698978832096
 10
184.9925684166834
 20
15.48856772366121
 10
184.9081999617064
 20
15.48882592573675
 10
184.8204235085966
 20
15.48544845751207
 10
184.7656768696122
 20
15.49394814982022
 10
184.7104703026025
 20
15.4804856104979
 10
184.7222823035536
 20
15.52931442126766
 10
184.7142496151794
 20
15.57269004896711
 10
184.7228186104679
 20
15.61509438309577
 10
184.7102943409156
 20
15.66267796552122
 10
184.7555101538736
 20
15.65267212995114
 10
184.8014815562723
 20
15.65894105174065
 10
184.877722204771
 20
15.65593561405876
 10
184.9561296131993
 20
15.65770448278545
 10
185.0323992648932
 20
15.65464793981664
 10
185.0783009459475
 20
15.66103971376181
 10
185.12317339654
 20
15.650938229789
 10
185.1105552275633
 20
15.70157201581902
 10
185.1191936582707
 20
15.75501261882073
 10
185.1152361595443
 20
15.84863255131684
 10
185.1162325068335
 20
15.95112606688927
 10
185.1171927413073
 20
16.05353270248166
 10
185.1133211458005
 20
16.14735929609324
 10
185.1217789814365
 20
16.20036542840356
 10
185.1093075932835
 20
16.25211435651191
 10
185.154210638985
 20
16.2385074722676
 10
185.1955083836772
 20
16.24100480320588
 10
185.259534428105
 20
16.23648060574491
 10
185.2986111148787
 20
16.22781003043312
 10
185.3476543498741
 20
16.23515102070689
 10
185.3225080030591
 20
16.19602896051761
 10
185.2815901333723
 20
16.20563842455811
 10
185.2910109616604
 20
16.15540148169781
 10
185.2855647318746
 20
16.10385945639493
 10
185.2881699601803
 20
16.01959707584524
 10
185.2870102202154
 20
15.92559135583412
 10
185.2883591064231
 20
15.83196865395528
 10
185.2849970101509
 20
15.74679517552228
 10
185.2920959917769
 20
15.69716856072048
 10
185.2812569154545
 20
15.64993694969993
 10
185.3304010225245
 20
15.66201674936856
 10
185.3794877630147
 20
15.65447393363015
 10
185.4573714280641
 20
15.65686070361437
 10
185.5350365172896
 20
15.65899381905419
 10
185.5845393931354
 20
15.65193391922458
 10
185.6344594750639
 20
15.66360151936219
 10
185.622319851688
 20
15.61540235371396
 10
185.6305838229143
 20
15.57249219801238
 10
185.6223198650783
 20
15.52958201851387
 10
185.6344594549854
 20
15.48138288754867
 10
185.5845395158746
 20
15.49305034471513
 10
185.5350350651202
 20
15.48599202435047
 10
185.4573784382973
 20
15.48811665228605
 10
185.379464386576
 20
15.49053389365762
 10
185.3304500352716
 20
15.48291848194487
 10
185.2813246108943
 20
15.49507952557594
 10
185.2915559988571
 20
15.4507301342416
 10
185.2856677678053
 20
15.40925436202913
 10
185.2878788305569
 20
15.34915394315305
 10
185.2874109346146
 20
15.30225782762891
 10
185.2874386992913
 20
15.27650146418198
 10
185.2874469028653
 20
15.26889163187721
 97
        1
330
AA
 75
     1
 76
     2
 52
45.0
 41
0.1
 77
     0
 78
     1
 53
45.0
 43
0.0
 44
0.0
 45
-0.282842712474619
 46
0.0
 79
     0
 98
        1
 10
0.0
 20
0.0
  0
HATCH
  5
C8
330
48
100
AcDbEntity
  8
1
  6
Continuous
 62
     2
100
AcDbHatch
 10
0.0
 20
0.0
 30
0.0
210
0.0
220
0.0
230
1.0
  2
CUSTOM10
 70
     0
 71
     1
 91
        1
 92
        1
 93
        1
 72
     4
 94
        3
 73
     0
 74
     0
 95
       47
 96
       43
 40
0.0
 40
0.0
 40
0.0
 40
0.0
 40
0.2207912809957213
 40
0.4459404186303024
 40
0.4902387190459244
 40
0.5327473892722198
 40
0.5742260451225519
 40
0.6155432630560811
 40
0.6568164066315727
 40
0.6982511618780651
 40
0.740766392931716
 40
0.7851366743175225
 40
1.01028883383632
 40
1.23108050700217
 40
1.451765243652391
 40
1.676638205891684
 40
1.720461045359655
 40
1.830018144043519
 40
1.972442372353151
 40
2.114866600677519
 40
2.224423699395143
 40
2.268246538883385
 40
2.493628801207217
 40
2.715602830286616
 40
2.934211330706374
 40
3.149502369855373
 40
3.23138778485102
 40
3.318231873854055
 40
3.405143198198043
 40
3.48697030172048
 40
3.702258172493928
 40
3.920866283534163
 40
4.142839325931952
 40
4.368221903865416
 40
4.412044743359895
 40
4.521601842095909
 40
4.664026070452389
 40
4.806450298809099
 40
4.916007397546793
 40
4.959830237043115
 40
5.184703515847153
 40
5.405387250767523
 40
5.405387250767523
 40
5.405387250767523
 40
5.405387250767523
 10
182.6507427258645
 20
15.73406440953875
 10
182.6568139420003
 20
15.79758482501214
 10
182.6690762107242
 20
15.92587938689629
 10
182.5604706879411
 20
16.20166220174079
 10
182.6761985896604
 20
16.17188133432056
 10
182.7171842509015
 20
16.16765556262823
 10
182.7591205797518
 20
16.16310446389609
 10
182.800419662571
 20
16.16201982929488
 10
182.8417032115555
 20
16.16310338195229
 10
182.8836148270647
 20
16.16766112711347
 10
182.9245983549019
 20
16.1718743020973
 10
183.0404922843488
 20
16.20177611317538
 10
182.9295652727457
 20
15.92339806609892
 10
182.9574856365267
 20
15.74283140824956
 10
182.9404267346969
 20
15.50961042346474
 10
182.9414637282103
 20
15.34906622543149
 10
182.9414099399404
 20
15.22284817558725
 10
182.941427737248
 20
15.12428963336244
 10
182.9414188581081
 20
14.99280702442967
 10
182.9414263928033
 20
14.86132844968652
 10
182.9414129405129
 20
14.76276222694094
 10
182.9414531717492
 20
14.63639735624154
 10
182.9406746403817
 20
14.47482068822873
 10
182.9565958319266
 20
14.24361821892917
 10
182.9333468885407
 20
14.05874351972005
 10
183.0360183444366
 20
13.78935602770056
 10
182.8820238362836
 20
13.8266011268582
 10
182.8004129802832
 20
13.82137994680535
 10
182.7188192292583
 20
13.82660620378354
 10
182.5648513666842
 20
13.78937069885387
 10
182.6674183421917
 20
14.05875129862883
 10
182.6442045316088
 20
14.24361585325417
 10
182.6600444655138
 20
14.47482218565641
 10
182.6593296313427
 20
14.63639712308506
 10
182.6593664569907
 20
14.76276231210523
 10
182.659354900027
 20
14.86132756635984
 10
182.6593575019213
 20
14.99281127417223
 10
182.6593648531779
 20
15.12427548031202
 10
182.6593442541351
 20
15.22287786275329
 10
182.6594082192028
 20
15.3489614935443
 10
182.658173394759
 20
15.51210091383775
 10
182.6532040396745
 20
15.66054183777553
 10
182.6507427258645
 20
15.73406440953875
 97
        1
330
AB
 75
     1
 76
     2
 52
45.0
 41
0.1
 77
     0
 78
     1
 53
45.0
 43
0.0
 44
0.0
 45
-0.282842712474619
 46
0.0
 79
     0
 98
        1
 10
0.0
 20
0.0
  0
HATCH
  5
C9
330
48
100
AcDbEntity
  8
1
  6
Continuous
 62
     2
100
AcDbHatch
 10
0.0
 20
0.0
 30
0.0
210
0.0
220
0.0
230
1.0
  2
CUSTOM11
 70
     0
 71
     1
 91
        1
 92
        1
 93
        1
 72
     4
 94
        3
 73
     0
 74
     0
 95
      110
 96
      106
 40
0.0
 40
0.0
 40
0.0
 40
0.0
 40
0.2203406257277737
 40
0.4407808782838073
 40
0.5952494494615053
 40
0.7488431659393057
 40
0.902358183130904
 40
1.056801968670403
 40
1.210736449099903
 40
1.363041386539781
 40
1.515315729683124
 40
1.669377239148075
 40
1.721611652756562
 40
1.773199502942942
 40
1.824933793209992
 40
1.877110426487965
 40
1.982682281206729
 40
2.078781667087537
 40
2.172809640822258
 40
2.271937807378912
 40
2.378349933379305
 40
2.494131557736494
 40
2.626681683943628
 40
2.783145050796055
 40
2.890701232940905
 40
2.993130312454804
 40
3.099869730691784
 40
3.220237816691276
 40
3.352695482737561
 40
3.481732806389815
 40
3.593499473690341
 40
3.67432301333186
 40
3.81795171195281
 40
3.946167120793807
 40
4.061405053453493
 40
4.166480796003134
 40
4.262478775059171
 40
4.350736673551127
 40
4.433071991254013
 40
4.511216293814615
 40
4.564262454117932
 40
4.618474415571558
 40
4.670128488754161
 40
4.722296879126352
 40
4.819540945314222
 40
4.931194984128079
 40
5.04999604025772
 40
5.168643755415266
 40
5.283970811762477
 40
5.392260784910302
 40
5.486512254876377
 40
5.559178233949776
 40
5.591425852853454
 40
5.626215969637831
 40
5.667155838674383
 40
5.717449290214203
 40
5.738402360944811
 40
5.784499116553773
 40
5.830595872164736
 40
5.85154894289759
 40
5.873019280661707
 40
5.924217778408252
 40
5.985325662817631
 40
6.03652416056765
 40
6.05799449833418
 40
6.236847789607435
 40
6.381409928945605
 40
6.493190424178635
 40
6.574067534230444
 40
6.691018086205538
 40
6.814881554220456
 40
6.944307823240409
 40
7.071266716066032
 40
7.193488604461877
 40
7.309042773128104
 40
7.41400720317073
 40
7.505140441886486
 40
7.531150360599645
 40
7.559221645322237
 40
7.58720221892088
 40
7.612569159499099
 40
7.662550809480972
 40
7.702878875764116
 40
7.857328205230931
 40
8.010799568088576
 40
8.165256399657526
 40
8.322232698713865
 40
8.479564855016552
 40
8.635216230290755
 40
8.790882550925673
 40
8.948305154947239
 40
9.16827183903294
 40
9.387358980987202
 40
9.608047961033447
 40
9.832914234792653
 40
9.85833869496299
 40
9.925366817229994
 40
10.02013071422758
 40
10.12876249858997
 40
10.23739428295247
 40
10.33215817995189
 40
10.39918630222392
 40
10.42461076239781
 40
10.64992019336941
 40
10.87188524531186
 40
10.87188524531186
 40
10.87188524531186
 40
10.87188524531186
 10
179.9057788376618
 20
15.73923260398193
 10
179.9092864933541
 20
15.80616462073807
 10
179.9163033987662
 20
15.94005891915861
 10
179.8198027599073
 20
16.22548554971473
 10
180.0510134726108
 20
16.16284386190286
 10
180.1919290057156
 20
16.17001554055993
 10
180.3490417757588
 20
16.16235883078247
 10
180.5025913427287
 20
16.16252752283043
 10
180.6545104935081
 20
16.16182040535434
 10
180.8142214813231
 20
16.17210158351642
 10
180.9408972601117
 20
16.15496511080753
 10
181.137082112208
 20
16.22727260107149
 10
181.1034395279078
 20
16.1264069908012
 10
181.1052011317184
 20
16.07619253947674
 10
181.1027342073458
 20
16.02712335586469
 10
181.1347076966011
 20
15.94063490847002
 10
181.0010399903256
 20
15.9899743860834
 10
180.9172208688057
 20
15.9843063431417
 10
180.8173861139324
 20
15.99465516706302
 10
180.7186576720145
 20
16.00086450411088
 10
180.612153277111
 20
16.0069776381678
 10
180.491051169806
 20
16.01588883484589
 10
180.3703381502453
 20
16.00521605912385
 10
180.1812553843437
 20
16.06468503080369
 10
180.2129028505311
 20
15.90558320077542
 10
180.1995563316834
 20
15.80839128339907
 10
180.197495842645
 20
15.69634065110106
 10
180.195818804467
 20
15.57699685629353
 10
180.1973336794233
 20
15.45032592155113
 10
180.195658247867
 20
15.3230158801612
 10
180.2058844271657
 20
15.22451566404467
 10
180.1779006596582
 20
15.08388702625633
 10
180.3508029999305
 20
15.13989551134098
 10
180.4645020202772
 20
15.127199514785
 10
180.5840151672239
 20
15.13448377051259
 10
180.6888491425071
 20
15.13878017056758
 10
180.7843084898612
 20
15.1433056825898
 10
180.8763823507032
 20
15.15149201146202
 10
180.9476551782438
 20
15.14643850638114
 10
181.0544931705685
 20
15.18536425031677
 10
181.0226603598036
 20
15.10517122005882
 10
181.0266164503929
 20
15.05562936846036
 10
181.0234502392013
 20
15.00557478039822
 10
181.0550791490584
 20
14.92128847612025
 10
180.9210133677691
 20
14.9742536549516
 10
180.82923227932
 20
14.96540080890446
 10
180.7079729189602
 20
14.97570049965156
 10
180.5914113119771
 20
14.97748911767506
 10
180.4783375745879
 20
14.97787017109696
 10
180.3679246308471
 20
14.98415449472181
 10
180.2898124067841
 20
14.97189133255367
 10
180.1913625833643
 20
15.00453887616129
 10
180.2012355173561
 20
14.9476974805421
 10
180.1973923244402
 20
14.91392130557987
 10
180.1966789884268
 20
14.87119604709414
 10
180.1963369642976
 20
14.83401607262155
 10
180.1963834255345
 20
14.79487237370773
 10
180.1963649429927
 20
14.75716849497688
 10
180.1963703431806
 20
14.71944955232406
 10
180.1963697214201
 20
14.68994324745153
 10
180.1963698151545
 20
14.65873577699305
 10
180.1963704287921
 20
14.61414424908089
 10
180.1963671499336
 20
14.55963956508854
 10
180.1963759623481
 20
14.51505540201451
 10
180.1963359653416
 20
14.43117808585743
 10
180.1976024270255
 20
14.31737520677681
 10
180.1950274117842
 20
14.16830395933712
 10
180.2065009381719
 20
14.06597203813908
 10
180.1823506222264
 20
13.93338903885837
 10
180.3332993946476
 20
13.97895732272024
 10
180.4428436671556
 20
13.96427012162352
 10
180.573397047392
 20
13.96920435125066
 10
180.6990312209514
 20
13.97257705323362
 10
180.8188730625601
 20
13.97711497498776
 10
180.9391362611426
 20
13.99048536182008
 10
181.0222761663515
 20
13.98068712782598
 10
181.1456080421075
 20
14.04126214623322
 10
181.1244269203956
 20
13.98532460134023
 10
181.1235950270117
 20
13.95939249372349
 10
181.1218963707558
 20
13.93197256190942
 10
181.121797488883
 20
13.89738195206388
 10
181.1203659301329
 20
13.86050408220771
 10
181.153280419219
 20
13.76846841021807
 10
180.9551306988107
 20
13.84132015974835
 10
180.8300548294891
 20
13.81825726508607
 10
180.6673071295155
 20
13.82454021985788
 10
180.5129366450001
 20
13.82260943909928
 10
180.3566670436943
 20
13.8239376259927
 10
180.1970544465282
 20
13.82059872487864
 10
180.0540326342236
 20
13.83265795728243
 10
179.8197144881628
 20
13.7695200197692
 10
179.9173810751197
 20
14.0562052746632
 10
179.9006868780058
 20
14.24988308142662
 10
179.9146296709685
 20
14.47848242880298
 10
179.9142987846631
 20
14.63384593955051
 10
179.9143078119264
 20
14.73966336444129
 10
179.9143055876315
 20
14.80205784124217
 10
179.9143065551889
 20
14.8922042524833
 10
179.9143065473261
 20
14.9962116715744
 10
179.9143053861102
 20
15.10022131375299
 10
179.9143090971503
 20
15.19036243688771
 10
179.9143011051051
 20
15.25276803097218
 10
179.9143334275018
 20
15.35868835961121
 10
179.9131440788319
 20
15.51626716544742
 10
179.9082216489256
 20
15.66528219822068
 10
179.9057788376618
 20
15.73923260398193
 97
        1
330
AC
 75
     1
 76
     2
 52
45.0
 41
0.1
 77
     0
 78
     1
 53
45.0
 43
0.0
 44
0.0
 45
-0.282842712474619
 46
0.0
 79
     0
 98
        1
 10
0.0
 20
0.0
  0
HATCH
  5
CA
330
48
100
AcDbEntity
  8
1
  6
Continuous
 62
     2
100
AcDbHatch
 10
0.0
 20
0.0
 30
0.0
210
0.0
220
0.0
230
1.0
  2
CUSTOM12
 70
     0
 71
     1
 91
        1
 92
        1
 93
        1
 72
     4
 94
        3
 73
     0
 74
     0
 95
       95
 96
       91
 40
0.0
 40
0.0
 40
0.0
 40
0.0
 40
0.6550406656911559
 40
1.308087289031939
 40
1.420803739835811
 40
1.566130759770802
 40
1.757067341888474
 40
2.006513545026461
 40
2.087328263121565
 40
2.185328872295641
 40
2.294612454748392
 40
2.408936380534835
 40
2.526802767798578
 40
2.646360524615621
 40
2.762535723971598
 40
2.870057342870172
 40
2.966883448431668
 40
3.05080324351831
 40
3.115818222436625
 40
3.156030057150268
 40
3.213914225080171
 40
3.276689026450571
 40
3.342960320981348
 40
3.404230667150598
 40
3.453822809493421
 40
3.532499827188464
 40
3.634775188507211
 40
3.75490933300821
 40
3.889736761660702
 40
4.035769602175274
 40
4.187256681197657
 40
4.338733685676006
 40
4.488478734676171
 40
4.634708317831635
 40
4.77149318992132
 40
4.89268657156126
 40
5.199775528944494
 40
5.460353566929686
 40
5.667603142345563
 40
5.814722905404542
 40
5.82899080621984
 40
5.855488336304537
 40
5.869756237118869
 40
6.189796507762873
 40
6.531890469873055
 40
6.883053637017053
 40
7.230512024911528
 40
7.566966656764642
 40
7.885203559707462
 40
8.172887439719268
 40
8.418011594062824
 40
8.443926721190747
 40
8.510760470613235
 40
8.602145393795746
 40
8.70171404164719
 40
8.793098965075423
 40
8.859932715057996
 40
8.885847842603646
 40
9.242301256612851
 40
9.589275455016814
 40
9.921808543164222
 40
10.23479624298472
 40
10.29968150889183
 40
10.35323493887771
 40
10.40154625355156
 40
10.46482922477832
 40
10.55973900668412
 40
10.69239545985624
 40
10.84920353475678
 40
11.01626328594788
 40
11.1867202436745
 40
11.35372582577217
 40
11.50257442292434
 40
11.61866495023298
 40
11.71329869152882
 40
11.82511050573915
 40
11.94464880845723
 40
12.06929242642514
 40
12.19707290435183
 40
12.32562632860536
 40
12.45034565331286
 40
12.56646595170334
 40
12.67099007414642
 40
12.7607762593679
 40
12.82703233506701
 40
12.87429132786
 40
12.89831990323339
 40
12.92234847860028
 40
13.53984767410327
 40
14.18294284359372
 40
14.18294284359372
 40
14.18294284359372
 40
14.18294284359372
 10
177.3067935648021
 20
14.70898038201727
 10
177.1752019758551
 20
14.82265058603235
 10
176.9124193802728
 20
15.0496449631616
 10
176.3997393441021
 20
15.89214462956291
 10
176.4106654595362
 20
15.53423377577023
 10
176.4041226527991
 20
15.39267392272136
 10
176.4028026631773
 20
15.19421305299285
 10
176.4018117602538
 20
15.02150296045986
 10
176.4024101751974
 20
14.87865373257583
 10
176.4038994301883
 20
14.7826500541336
 10
176.4055683588472
 20
14.67545503263143
 10
176.4071934954618
 20
14.56164211517584
 10
176.4092429501685
 20
14.44441572604591
 10
176.4123165501927
 20
14.32656411232973
 10
176.4156339697041
 20
14.21228087320622
 10
176.419360534028
 20
14.10521401867279
 10
176.4217338161424
 20
14.01007408766924
 10
176.4278718888357
 20
13.92558557205698
 10
176.4239784495947
 20
13.86923087298144
 10
176.4455230443077
 20
13.79825022472357
 10
176.3680940058618
 20
13.82902677604487
 10
176.3116353240191
 20
13.82011242517615
 10
176.2540495896807
 20
13.82896218398278
 10
176.1690163478472
 20
13.79738225225946
 10
176.2009714146382
 20
13.88095155992192
 10
176.1990705282539
 20
13.94882608968312
 10
176.21079600473
 20
14.05233256764421
 10
176.2164241053
 20
14.17002125616697
 10
176.2237902178941
 20
14.30388609164426
 10
176.2320759701611
 20
14.44764152872634
 10
176.2398851897426
 20
14.59714022843448
 10
176.2457571222658
 20
14.74792549402081
 10
176.2503667817968
 20
14.89699943878441
 10
176.2542632117542
 20
15.04122913163025
 10
176.2570715126564
 20
15.17583905213021
 10
176.2576698755022
 20
15.36469614347357
 10
176.2616023867151
 20
15.58975494313157
 10
176.2442175378497
 20
15.8636709112571
 10
176.2850417342584
 20
16.02787112098601
 10
176.1995153256001
 20
16.22749661465098
 10
176.2660558907688
 20
16.22385458403982
 10
176.283872427323
 20
16.22413447160857
 10
176.4056801797506
 20
16.22632927398618
 10
176.508077033546
 20
15.94675118721517
 10
176.7580021509356
 20
15.74563008536006
 10
176.987003533111
 20
15.4779261498792
 10
177.2245151213108
 20
15.22646413862379
 10
177.4486090740772
 20
14.9896997406136
 10
177.6750716283009
 20
14.73218692583082
 10
177.8325687886514
 20
14.61649335056924
 10
178.0472129612675
 20
14.27997152538795
 10
178.0422645974618
 20
14.40464754091606
 10
178.0433931602546
 20
14.46327691935739
 10
178.0428877841517
 20
14.55043662371979
 10
178.0430475158113
 20
14.64416143182875
 10
178.0430054891318
 20
14.73018971297038
 10
178.0430202040372
 20
14.79153891945498
 10
178.0429706255983
 20
14.94135231520995
 10
178.0458811522811
 20
15.17989612510107
 10
178.0259521041161
 20
15.54486509868704
 10
178.0750433936248
 20
15.80799631993415
 10
177.9177951509179
 20
16.21928904947754
 10
178.0762112872421
 20
16.1639828255175
 10
178.1311680478628
 20
16.16199686500179
 10
178.182788776674
 20
16.16264778248255
 10
178.2713198965365
 20
16.20369527738248
 10
178.2204898303169
 20
16.0569632662299
 10
178.2313389930283
 20
15.95019971954435
 10
178.2166036994848
 20
15.79085705414115
 10
178.2099976446204
 20
15.62853061652876
 10
178.2014961399915
 20
15.45992521892398
 10
178.1943227202199
 20
15.29814814703543
 10
178.1889063215389
 20
15.15422331457935
 10
178.1871713967648
 20
15.03437493466927
 10
178.1875440672319
 20
14.92686101590517
 10
178.1873656126262
 20
14.81820024645588
 10
178.187701086314
 20
14.69953570165532
 10
178.1890040622184
 20
14.57555163512744
 10
178.1908887351574
 20
14.44858294171107
 10
178.1925004454851
 20
14.32153861551035
 10
178.1941403137429
 20
14.19854884492181
 10
178.1962570745752
 20
14.08300931383762
 10
178.1963848422363
 20
13.98090903955839
 10
178.2006514396554
 20
13.89009848838159
 10
178.1908440085289
 20
13.83213621208789
 10
178.2118474771689
 20
13.76517130132031
 10
178.1725639739897
 20
13.77291153966691
 10
177.9595307117746
 20
13.75755254145195
 10
177.7636297943186
 20
14.31403058094473
 10
177.4611197631544
 20
14.57556035348513
 10
177.3067935648021
 20
14.70898038201727
 97
        1
330
AD
 75
     1
 76
     2
 52
45.0
 41
0.1
 77
     0
 78
     1
 53
45.0
 43
0.0
 44
0.0
 45
-0.282842712474619
 46
0.0
 79
     0
 98
        1
 10
0.0
 20
0.0
  0
HATCH
  5
CB
330
48
100
AcDbEntity
  8
1
  6
Continuous
 62
     2
100
AcDbHatch
 10
0.0
 20
0.0
 30
0.0
210
0.0
220
0.0
230
1.0
  2
CUSTOM13
 70
     0
 71
     1
 91
        2
 92
        1
 93
        1
 72
     4
 94
        3
 73
     0
 74
     0
 95
       57
 96
       53
 40
0.0
 40
0.0
 40
0.0
 40
0.0
 40
0.0471632082809242
 40
0.0914861054632158
 40
0.1357762519702394
 40
0.1826527001610689
 40
0.2295203288572598
 40
0.2737751972220767
 40
0.3181310461543074
 40
0.3652607198398524
 40
0.4571007286314615
 40
0.5671851029165309
 40
0.6894623283868413
 40
0.8181758272546082
 40
0.951008722927404
 40
1.085852229674068
 40
1.218126164475325
 40
1.343545131142395
 40
1.454537202956811
 40
1.56718760753082
 40
1.680710966642439
 40
1.794226869736803
 40
1.900009184247603
 40
2.004085860447882
 40
2.10816267445177
 40
2.214000150155314
 40
2.496038577352147
 40
2.76235074547928
 40
2.997275353279421
 40
3.185110082137755
 40
3.246407890063983
 40
3.312607550212713
 40
3.378877742711615
 40
3.440140399651471
 40
4.100501696006503
 40
4.754913085563547
 40
5.41133169342396
 40
6.077890432568744
 40
6.110575292671023
 40
6.143260152775803
 40
6.367989363395199
 40
6.610525374951594
 40
6.863389136467353
 40
7.119380025547632
 40
7.376036605091143
 40
7.631164770966326
 40
7.87672242545646
 40
8.104953735856013
 40
8.312916685924346
 40
8.497730294941347
 40
8.651018984313893
 40
8.764738853624642
 40
8.764738853624642
 40
8.764738853624642
 40
8.764738853624642
 10
174.7922649500513
 20
13.81626739612929
 10
174.7766616726931
 20
13.8182623107908
 10
174.7463947960302
 20
13.82213201360302
 10
174.7010994202252
 20
13.8234198496727
 10
174.6559553129349
 20
13.82308683554053
 10
174.6099017123399
 20
13.82314658674225
 10
174.5640496172097
 20
13.82325813650003
 10
174.5183711648165
 20
13.82277833456592
 10
174.4750811541608
 20
13.82461109618725
 10
174.4039947951513
 20
13.80049556814657
 10
174.4057477261441
 20
13.92184693977254
 10
174.3586196370569
 20
14.00726239751235
 10
174.3191478251762
 20
14.12486929345138
 10
174.2706635532644
 20
14.24232752540441
 10
174.2201017402523
 20
14.36405935761512
 10
174.1718634610477
 20
14.49075967862468
 10
174.1135232947594
 20
14.59933687784955
 10
174.0980892667261
 20
14.75620657134413
 10
173.9566586330636
 20
14.72373446548324
 10
173.8508397414903
 20
14.73512888682183
 10
173.7358569725222
 20
14.73392591514618
 10
173.6253142252141
 20
14.73506945347411
 10
173.5176583522783
 20
14.73418350037529
 10
173.4121322529242
 20
14.73416602390522
 10
173.3109192682012
 20
14.72714032472417
 10
173.1266804827753
 20
14.75135859859871
 10
173.1157393685411
 20
14.44741691121889
 10
173.008769163475
 20
14.223531772534
 10
172.9098148604347
 20
14.03895314292501
 10
172.9225090524007
 20
13.79530204804206
 10
172.8050091716397
 20
13.825080467532
 10
172.742205586831
 20
13.82258089509605
 10
172.67858720934
 20
13.82344075102808
 10
172.3946014194075
 20
13.78098039941944
 10
173.0251638499381
 20
14.5008195244479
 10
173.1087645289071
 20
15.01276539435731
 10
173.4929252789341
 20
15.53353743550047
 10
173.4777208288563
 20
16.23519626253214
 10
173.7239265722697
 20
16.2234563308126
 10
173.825634615756
 20
16.23225004452775
 10
173.8249752035818
 20
15.98059650730349
 10
173.9428317155828
 20
15.79818020733961
 10
174.0315515260485
 20
15.55563740662869
 10
174.1322292485259
 20
15.32340030530131
 10
174.2311142712243
 20
15.08674644566916
 10
174.3299676990669
 20
14.85461739170097
 10
174.4256166390926
 20
14.63122222788791
 10
174.5159904573271
 20
14.42272549049318
 10
174.5989944568189
 20
14.23308448529322
 10
174.6726088582799
 20
14.06663106068102
 10
174.7342815895546
 20
13.929176996261
 10
174.7749458885604
 20
13.84999239430036
 10
174.7922649500513
 20
13.81626739612929
 97
        1
330
AF
 92
       16
 93
        1
 72
     4
 94
        3
 73
     0
 74
     0
 95
       25
 96
       21
 40
0.0
 40
0.0
 40
0.0
 40
0.0
 40
0.0911479969064821
 40
0.1858117896204663
 40
0.2804128399734491
 40
0.371588919071451
 40
0.4679080494218708
 40
0.5642683809229231
 40
0.6605683222644991
 40
0.7569653015810256
 40
0.8561348172522724
 40
1.092615965104294
 40
1.374867658141877
 40
1.611348812011599
 40
1.710518328425249
 40
1.809403163726568
 40
2.045205463294068
 40
2.32664691762213
 40
2.562449217190593
 40
2.661334043833911
 40
2.661334043833911
 40
2.661334043833911
 40
2.661334043833911
 10
173.2683700567199
 20
14.88614538197295
 10
173.2987525917923
 20
14.88598079714557
 10
173.3606895889112
 20
14.88564528689924
 10
173.454135696033
 20
14.88269055452004
 10
173.5475095236357
 20
14.87977752877153
 10
173.6417760753476
 20
14.8789420164342
 10
173.7354964790967
 20
14.87996644658049
 10
173.8352040303204
 20
14.87916977470975
 10
173.9188949546312
 20
14.88921410235222
 10
174.0637996315045
 20
14.86234617674168
 10
173.9396132444801
 20
15.03665530280051
 10
173.8965867286283
 20
15.19651711006095
 10
173.7808922142209
 20
15.45518458550219
 10
173.7017565431257
 20
15.59231052861861
 10
173.6431576621816
 20
15.8093703313408
 10
173.5864803939438
 20
15.59266134213431
 10
173.5052809900477
 20
15.4532701243824
 10
173.4063701281488
 20
15.20406969370197
 10
173.3253625094259
 20
15.01925830226075
 10
173.2813683325838
 20
14.91650446856119
 10
173.2683700567199
 20
14.88614538197295
 97
        1
330
AE
 75
     1
 76
     2
 52
45.0
 41
0.1
 77
     0
 78
     1
 53
45.0
 43
0.0
 44
0.0
 45
-0.282842712474619
 46
0.0
 79
     0
 98
        1
 10
0.0
 20
0.0
  0
HATCH
  5
CC
330
48
100
AcDbEntity
  8
1
  6
Continuous
 62
     2
100
AcDbHatch
 10
0.0
 20
0.0
 30
0.0
210
0.0
220
0.0
230
1.0
  2
CUSTOM14
 70
     0
 71
     1
 91
        1
 92
        1
 93
        1
 72
     4
 94
        3
 73
     0
 74
     0
 95
       99
 96
       95
 40
0.0
 40
0.0
 40
0.0
 40
0.0
 40
0.0796417172272467
 40
0.1621768542356083
 40
0.2486489160957689
 40
0.3404969668524647
 40
0.4381912511164674
 40
0.5434463660244975
 40
0.6518115192847295
 40
0.7530190937886867
 40
0.8492196919725138
 40
0.941929031299826
 40
1.034249663570042
 40
1.129078600620193
 40
1.226697027573239
 40
1.327220425421701
 40
1.47057213493801
 40
1.595489863371207
 40
1.719934125348393
 40
1.850576620127405
 40
1.9890596299873
 40
2.134139054226918
 40
2.280698007207206
 40
2.42452973903947
 40
2.56592957698584
 40
2.70823926077353
 40
2.861717887443656
 40
3.04516854034736
 40
3.183798301138602
 40
3.314813961455448
 40
3.442083470447306
 40
3.569912708372966
 40
3.702177512509361
 40
3.842307559659528
 40
3.992872223245933
 40
4.156750662218322
 40
4.310981861107543
 40
4.44585990932259
 40
4.572393936131581
 40
4.701656719781976
 40
4.768279086008467
 40
4.83596069789841
 40
4.912788918729337
 40
5.006285208481553
 40
5.026909478751629
 40
5.047533749021194
 40
5.101808031471275
 40
5.162325165538565
 40
5.226919745995885
 40
5.29423180659675
 40
5.364544852554901
 40
5.438319055467945
 40
5.517877651324281
 40
5.607647714861593
 40
5.70044964254444
 40
5.788251142364172
 40
5.872714706039798
 40
5.955167292575314
 40
6.037192395190407
 40
6.120669181469135
 40
6.206848616686376
 40
6.296680855416795
 40
6.442558392872622
 40
6.568190371608314
 40
6.692904567360387
 40
6.824220446557166
 40
6.963121850329405
 40
7.107843738851192
 40
7.253431663907305
 40
7.395187468036725
 40
7.53314075323778
 40
7.670550457175261
 40
7.816236511769287
 40
7.987691657359251
 40
8.142277421969276
 40
8.293662615415043
 40
8.442962460879306
 40
8.59159831618536
 40
8.743678992361831
 40
8.903725323699215
 40
9.076307008890563
 40
9.265578604680618
 40
9.459203795360793
 40
9.61761981027358
 40
9.753609671361938
 40
9.874873300004104
 40
9.954520184977815
 40
10.02416413719249
 40
10.09769764405448
 40
10.18909955924975
 40
10.20974586420136
 40
10.23039218263382
 40
10.30057101881267
 40
10.37632012987547
 40
10.37632012987547
 40
10.37632012987547
 40
10.37632012987547
 10
170.1465954835851
 20
14.13795663215997
 10
170.1632217851219
 20
14.11720608845316
 10
170.1970784206577
 20
14.07495111711905
 10
170.2599822541035
 20
14.02029811392073
 10
170.3332500940393
 20
13.97299025121054
 10
170.4175969238636
 20
13.93527231437938
 10
170.513224061546
 20
13.91040619731953
 10
170.6171853775346
 20
13.9030955934594
 10
170.7224020220405
 20
13.91142322794056
 10
170.8206626371334
 20
13.94149179651532
 10
170.9058986427548
 20
13.98848822971878
 10
170.9779220206103
 20
14.04952991250862
 10
171.0350917709096
 20
14.12412969578586
 10
171.076786874744
 20
14.21002464660178
 10
171.1026952846292
 20
14.30485850432213
 10
171.1118037332653
 20
14.41854979038369
 10
171.0986864796487
 20
14.54332587770781
 10
171.0325330334414
 20
14.66014719171895
 10
170.9369370919569
 20
14.74512539577377
 10
170.8249681022369
 20
14.81416684459162
 10
170.699365958327
 20
14.87204142045894
 10
170.5656691620856
 20
14.92373723284343
 10
170.4313122818831
 20
14.97899092397184
 10
170.3051983986877
 20
15.04939770641651
 10
170.1926579987535
 20
15.13785540731252
 10
170.0969963064458
 20
15.24981067868475
 10
170.0334157151825
 20
15.39949910101385
 10
170.0200706505015
 20
15.55932794385144
 10
170.0320510987448
 20
15.71048405306847
 10
170.0712298928841
 20
15.83809244591541
 10
170.135498775091
 20
15.95080874030847
 10
170.223820499974
 20
16.0464860926869
 10
170.3338091207627
 20
16.12354214985755
 10
170.4632284401264
 20
16.1815139693628
 10
170.6111838967793
 20
16.21739177588826
 10
170.7682069455486
 20
16.22746719050567
 10
170.917494046643
 20
16.21863637762593
 10
171.059625361417
 20
16.19074899340354
 10
171.1595922609625
 20
16.13413314701141
 10
171.3125074736185
 20
16.0867460210551
 10
171.2455131717168
 20
16.00197553001188
 10
171.2296479120269
 20
15.93438901873486
 10
171.1978750531297
 20
15.86926092793192
 10
171.2150202209571
 20
15.76723453256955
 10
171.1666427208232
 20
15.77493211681903
 10
171.1315789440765
 20
15.76806771724809
 10
171.1296697985718
 20
15.83263831158198
 10
171.0985692931989
 20
15.87825639621398
 10
171.0664551628456
 20
15.93561036628458
 10
171.0208038475168
 20
15.98540462692561
 10
170.9658508218387
 20
16.02994813718997
 10
170.9010841173007
 20
16.06763988836552
 10
170.8232377310597
 20
16.09283375791354
 10
170.7355160553352
 20
16.09931230998113
 10
170.6452903277806
 20
16.09235709285609
 10
170.5594594694065
 20
16.06909190460923
 10
170.4828343638595
 20
16.03131644107548
 10
170.4165265636201
 20
15.98051641089577
 10
170.3622560536964
 20
15.91731143407212
 10
170.3224925345459
 20
15.8427645571037
 10
170.2976775510588
 20
15.75917313997766
 10
170.2892124262869
 20
15.65192948382287
 10
170.3019697987104
 20
15.52965457267562
 10
170.3681548409273
 20
15.41149724291213
 10
170.4640977399832
 20
15.32606325709531
 10
170.5757914963182
 20
15.25583362306724
 10
170.7010863668702
 20
15.19659162305306
 10
170.8349823941447
 20
15.14616708086135
 10
170.9689930333149
 20
15.09322516984384
 10
171.0950885316915
 20
15.02750170625179
 10
171.2076216638417
 20
14.94480352537325
 10
171.3031370284232
 20
14.83996006310077
 10
171.3672706486962
 20
14.69937117251573
 10
171.3811103725279
 20
14.54065409451595
 10
171.367395471223
 20
14.38153155217879
 10
171.3244739153984
 20
14.23483828819214
 10
171.2545906329066
 20
14.10119796587145
 10
171.1574592213829
 20
13.98532387699294
 10
171.0347806023657
 20
13.89089981770091
 10
170.8874408413168
 20
13.82179270651984
 10
170.7177132497125
 20
13.77953210858856
 10
170.5317404979596
 20
13.7678173623041
 10
170.3528955926183
 20
13.7780948668344
 10
170.1881733753743
 20
13.81966573769156
 10
170.0834410841056
 20
13.88797642883944
 10
169.9350960790365
 20
13.93675219032108
 10
169.9980378194729
 20
14.02976591290844
 10
170.0072274430059
 20
14.10296536248283
 10
170.0303711301232
 20
14.16936294501349
 10
170.0034588335316
 20
14.26974809527582
 10
170.0521338956339
 20
14.26234033517381
 10
170.0916530580697
 20
14.26894063620896
 10
170.0996204944702
 20
14.19078703218934
 10
170.1305436967923
 20
14.15600927375859
 10
170.1465954835851
 20
14.13795663215997
 97
        1
330
B0
 75
     1
 76
     2
 52
45.0
 41
0.1
 77
     0
 78
     1
 53
45.0
 43
0.0
 44
0.0
 45
-0.282842712474619
 46
0.0
 79
     0
 98
        1
 10
0.0
 20
0.0
  0
ENDBLK
  5
4A
330
48
100
AcDbEntity
  8
0
100
AcDbBlockEnd
  0
BLOCK
  5
4D
330
4B
100
AcDbEntity
  8
0
100
AcDbBlockBegin
  2
開示A4枠
 70
     0
 10
0.0
 20
-0.00000000000001
 30
0.0
  3
開示A4枠
  1

  0
INSERT
  5
4C
330
4B
100
AcDbEntity
  8
1
100
AcDbBlockReference
  2
開示A4
 10
0.0
 20
-0.00000000000001
 30
0.0
  0
ENDBLK
  5
4E
330
4B
100
AcDbEntity
  8
0
100
AcDbBlockEnd
  0
BLOCK
  5
F7
330
EE
100
AcDbEntity
  8
0
100
AcDbBlockBegin
  2
*D3
 70
     1
 10
0.0
 20
0.0
 30
0.0
  3
*D3
  1

  0
LINE
  5
EF
330
EE
100
AcDbEntity
  8
1
  6
Continuous
 62
     2
100
AcDbLine
 10
192.245985186432
 20
111.6917431192664
 30
0.0
 11
192.245985186432
 21
104.6917431192664
 31
0.0
  0
LINE
  5
F0
330
EE
100
AcDbEntity
  8
1
  6
Continuous
 62
     2
100
AcDbLine
 10
192.245985186432
 20
118.6917431192664
 30
0.0
 11
192.245985186432
 21
111.6917431192664
 31
0.0
  0
LINE
  5
F1
330
EE
100
AcDbEntity
  8
1
  6
Continuous
 62
     2
100
AcDbLine
 10
192.245985186432
 20
125.6917431192664
 30
0.0
 11
192.245985186432
 21
118.6917431192664
 31
0.0
  0
LINE
  5
F2
330
EE
100
AcDbEntity
  8
1
  6
Continuous
 62
     2
100
AcDbLine
 10
183.2230886850157
 20
111.6917431192664
 30
0.0
 11
193.245985186432
 21
111.6917431192664
 31
0.0
  0
LINE
  5
F3
330
EE
100
AcDbEntity
  8
1
  6
Continuous
 62
     2
100
AcDbLine
 10
169.2230886850157
 20
118.6917431192664
 30
0.0
 11
193.245985186432
 21
118.6917431192664
 31
0.0
  0
SOLID
  5
F4
330
EE
100
AcDbEntity
  8
1
 62
     2
100
AcDbTrace
 10
191.7852014448761
 20
122.1917431192664
 30
0.0
 11
192.7067689279879
 21
122.1917431192664
 31
0.0
 12
192.245985186432
 22
118.6917431192664
 32
0.0
 13
192.245985186432
 23
118.6917431192664
 33
0.0
  0
SOLID
  5
F5
330
EE
100
AcDbEntity
  8
1
 62
     2
100
AcDbTrace
 10
192.7067689279879
 20
108.1917431192664
 30
0.0
 11
191.7852014448761
 21
108.1917431192664
 31
0.0
 12
192.245985186432
 22
111.6917431192664
 32
0.0
 13
192.245985186432
 23
111.6917431192664
 33
0.0
  0
MTEXT
  5
F6
330
EE
100
AcDbEntity
  8
1
 62
     7
100
AcDbMText
 10
191.245985186432
 20
114.4732009090147
 30
0.0
 40
3.5
 41
0.0
 71
     7
 72
     1
  1
7
  7
CONVERTER_12
 11
0.0
 21
1.0
 31
0.0
 73
     1
 44
0.60024009603842
  0
ENDBLK
  5
F8
330
EE
100
AcDbEntity
  8
0
100
AcDbBlockEnd
  0
BLOCK
  5
104
330
FB
100
AcDbEntity
  8
0
100
AcDbBlockBegin
  2
*D4
 70
     1
 10
0.0
 20
0.0
 30
0.0
  3
*D4
  1

  0
LINE
  5
FC
330
FB
100
AcDbEntity
  8
1
  6
Continuous
 62
     2
100
AcDbLine
 10
107.7316387509467
 20
115.1917431192664
 30
0.0
 11
107.7316387509467
 21
108.1917431192664
 31
0.0
  0
LINE
  5
FD
330
FB
100
AcDbEntity
  8
1
  6
Continuous
 62
     2
100
AcDbLine
 10
107.7316387509467
 20
116.6917431192664
 30
0.0
 11
107.7316387509467
 21
115.1917431192664
 31
0.0
  0
LINE
  5
FE
330
FB
100
AcDbEntity
  8
1
  6
Continuous
 62
     2
100
AcDbLine
 10
107.7316387509467
 20
123.6917431192664
 30
0.0
 11
107.7316387509467
 21
116.6917431192664
 31
0.0
  0
LINE
  5
FF
330
FB
100
AcDbEntity
  8
1
  6
Continuous
 62
     2
100
AcDbLine
 10
98.7230886850157
 20
115.1917431192664
 30
0.0
 11
108.7316387509467
 21
115.1917431192664
 31
0.0
  0
LINE
  5
100
330
FB
100
AcDbEntity
  8
1
  6
Continuous
 62
     2
100
AcDbLine
 10
98.7230886850157
 20
116.6917431192664
 30
0.0
 11
108.7316387509467
 21
116.6917431192664
 31
0.0
  0
SOLID
  5
101
330
FB
100
AcDbEntity
  8
1
 62
     2
100
AcDbTrace
 10
107.2708550093908
 20
120.1917431192664
 30
0.0
 11
108.1924224925026
 21
120.1917431192664
 31
0.0
 12
107.7316387509467
 22
116.6917431192664
 32
0.0
 13
107.7316387509467
 23
116.6917431192664
 33
0.0
  0
SOLID
  5
102
330
FB
100
AcDbEntity
  8
1
 62
     2
100
AcDbTrace
 10
108.1924224925026
 20
111.6917431192664
 30
0.0
 11
107.2708550093908
 21
111.6917431192664
 31
0.0
 12
107.7316387509467
 22
115.1917431192664
 32
0.0
 13
107.7316387509467
 23
115.1917431192664
 33
0.0
  0
MTEXT
  5
103
330
FB
100
AcDbEntity
  8
1
 62
     7
100
AcDbMText
 10
106.7316387509467
 20
118.8273405717817
 30
0.0
 40
3.5
 41
0.0
 71
     7
 72
     1
  1
2
  7
CONVERTER_12
 11
0.0
 21
1.0
 31
0.0
 73
     1
 44
0.60024009603842
  0
ENDBLK
  5
105
330
FB
100
AcDbEntity
  8
0
100
AcDbBlockEnd
  0
BLOCK
  5
10D
330
108
100
AcDbEntity
  8
0
100
AcDbBlockBegin
  2
*D5
 70
     1
 10
0.0
 20
0.0
 30
0.0
  3
*D5
  1

  0
LINE
  5
109
330
108
100
AcDbEntity
  8
1
  6
Continuous
 62
     2
100
AcDbLine
 10
168.5050224166009
 20
199.4954097521529
 30
0.0
 11
121.8325932303353
 21
154.3996983621612
 31
0.0
  0
SOLID
  5
10A
330
108
100
AcDbEntity
  8
1
 62
     2
100
AcDbTrace
 10
139.5198450502337
 20
170.8486941516392
 30
0.0
 11
138.8794892359473
 21
171.5114392436909
 31
0.0
 12
141.7166915224104
 22
173.6120593526517
 32
0.0
 13
141.7166915224104
 23
173.6120593526517
 33
0.0
  0
SOLID
  5
10B
330
108
100
AcDbEntity
  8
1
 62
     2
100
AcDbTrace
 10
166.9263323197978
 20
198.6107859706854
 30
0.0
 11
167.5666881340842
 21
197.9480408786337
 31
0.0
 12
164.729485847621
 22
195.8474207696729
 32
0.0
 13
164.729485847621
 23
195.8474207696729
 33
0.0
  0
MTEXT
  5
10C
330
108
100
AcDbEntity
  8
1
 62
     7
100
AcDbMText
 10
122.094207450195
 20
156.043005393719
 30
0.0
 40
3.5
 41
0.0
 71
     7
 72
     1
  1
\C7;{\Fgdt;n}\C7;32
  7
CONVERTER_12
 11
0.7191498226628337
 21
0.6948550442819097
 31
0.0
 73
     1
 44
0.60024009603842
  0
ENDBLK
  5
10E
330
108
100
AcDbEntity
  8
0
100
AcDbBlockEnd
  0
BLOCK
  5
115
330
110
100
AcDbEntity
  8
0
100
AcDbBlockBegin
  2
*D6
 70
     1
 10
0.0
 20
0.0
 30
0.0
  3
*D6
  1

  0
LINE
  5
111
330
110
100
AcDbEntity
  8
1
  6
Continuous
 62
     2
100
AcDbLine
 10
86.5947894556441
 20
199.4019353780963
 30
0.0
 11
41.55007786588569
 21
156.4070308908369
 31
0.0
  0
SOLID
  5
112
330
110
100
AcDbEntity
  8
1
 62
     2
100
AcDbTrace
 10
57.43544369808497
 20
170.932524132909
 30
0.0
 11
56.79914166938138
 21
171.5991622312777
 31
0.0
 12
59.64910222242493
 22
173.6824400578236
 32
0.0
 13
59.64910222242493
 23
173.6824400578236
 33
0.0
  0
SOLID
  5
113
330
110
100
AcDbEntity
  8
1
 62
     2
100
AcDbTrace
 10
85.01073367194645
 20
198.5269559894156
 30
0.0
 11
85.64703570065004
 21
197.8603178910468
 31
0.0
 12
82.7970751476065
 22
195.7770400645009
 32
0.0
 13
82.7970751476065
 23
195.7770400645009
 33
0.0
  0
MTEXT
  5
114
330
110
100
AcDbEntity
  8
1
 62
     7
100
AcDbMText
 10
41.8217092403799
 20
158.0487118575263
 30
0.0
 40
3.5
 41
0.0
 71
     7
 72
     1
  1
\C7;{\Fgdt;n}\C7;32
  7
CONVERTER_12
 11
0.7233741539119242
 21
0.690456250208663
 31
0.0
 73
     1
 44
0.60024009603842
  0
ENDBLK
  5
116
330
110
100
AcDbEntity
  8
0
100
AcDbBlockEnd
  0
BLOCK
  5
11F
330
118
100
AcDbEntity
  8
0
100
AcDbBlockBegin
  2
*D7
 70
     1
 10
0.0
 20
0.0
 30
0.0
  3
*D7
  1

  0
LINE
  5
119
330
118
100
AcDbEntity
  8
1
  6
Continuous
 62
     2
100
AcDbLine
 10
98.72308868501571
 20
225.7642201834867
 30
0.0
 11
43.72308868501571
 21
225.7642201834867
 31
0.0
  0
LINE
  5
11A
330
118
100
AcDbEntity
  8
1
  6
Continuous
 62
     2
100
AcDbLine
 10
43.72308868501571
 20
184.7297400611623
 30
0.0
 11
43.72308868501571
 21
226.7642201834867
 31
0.0
  0
LINE
  5
11B
330
118
100
AcDbEntity
  8
1
  6
Continuous
 62
     2
100
AcDbLine
 10
98.72308868501571
 20
184.7297400611623
 30
0.0
 11
98.72308868501571
 21
226.7642201834867
 31
0.0
  0
SOLID
  5
11C
330
118
100
AcDbEntity
  8
1
 62
     2
100
AcDbTrace
 10
95.22308868501571
 20
225.3034364419308
 30
0.0
 11
95.22308868501571
 21
226.2250039250426
 31
0.0
 12
98.72308868501571
 22
225.7642201834867
 32
0.0
 13
98.72308868501571
 23
225.7642201834867
 33
0.0
  0
SOLID
  5
11D
330
118
100
AcDbEntity
  8
1
 62
     2
100
AcDbTrace
 10
47.22308868501571
 20
226.2250039250426
 30
0.0
 11
47.22308868501571
 21
225.3034364419308
 31
0.0
 12
43.72308868501571
 22
225.7642201834867
 32
0.0
 13
43.72308868501571
 23
225.7642201834867
 33
0.0
  0
MTEXT
  5
11E
330
118
100
AcDbEntity
  8
1
 62
     7
100
AcDbMText
 10
67.98160550459514
 20
226.7642132264104
 30
0.0
 40
3.5
 41
0.0
 71
     7
 72
     1
  1
\C7;{\Fgdt;n}\C7;55
  7
CONVERTER_12
 11
0.9999999999970619
 21
2.424068405545306E-6
 31
0.0
 73
     1
 44
0.60024009603842
  0
ENDBLK
  5
120
330
118
100
AcDbEntity
  8
0
100
AcDbBlockEnd
  0
BLOCK
  5
129
330
122
100
AcDbEntity
  8
0
100
AcDbBlockBegin
  2
*D8
 70
     1
 10
0.0
 20
0.0
 30
0.0
  3
*D8
  1

  0
LINE
  5
123
330
122
100
AcDbEntity
  8
1
  6
Continuous
 62
     2
100
AcDbLine
 10
183.2230886850157
 20
225.7642201834867
 30
0.0
 11
123.2230886850157
 21
225.7642201834867
 31
0.0
  0
LINE
  5
124
330
122
100
AcDbEntity
  8
1
  6
Continuous
 62
     2
100
AcDbLine
 10
123.2230886850157
 20
184.7297400611623
 30
0.0
 11
123.2230886850157
 21
226.7642201834867
 31
0.0
  0
LINE
  5
125
330
122
100
AcDbEntity
  8
1
  6
Continuous
 62
     2
100
AcDbLine
 10
183.2230886850157
 20
184.7297400611623
 30
0.0
 11
183.2230886850157
 21
226.7642201834867
 31
0.0
  0
SOLID
  5
126
330
122
100
AcDbEntity
  8
1
 62
     2
100
AcDbTrace
 10
179.7230886850157
 20
225.3034364419308
 30
0.0
 11
179.7230886850157
 21
226.2250039250426
 31
0.0
 12
183.2230886850157
 22
225.7642201834867
 32
0.0
 13
183.2230886850157
 23
225.7642201834867
 33
0.0
  0
SOLID
  5
127
330
122
100
AcDbEntity
  8
1
 62
     2
100
AcDbTrace
 10
126.7230886850157
 20
226.2250039250426
 30
0.0
 11
126.7230886850157
 21
225.3034364419308
 31
0.0
 12
123.2230886850157
 22
225.7642201834867
 32
0.0
 13
123.2230886850157
 23
225.7642201834867
 33
0.0
  0
MTEXT
  5
128
330
122
100
AcDbEntity
  8
1
 62
     7
100
AcDbMText
 10
149.8972018348706
 20
226.7642132264104
 30
0.0
 40
3.5
 41
0.0
 71
     7
 72
     1
  1
\C7;{\Fgdt;n}\C7;60
  7
CONVERTER_12
 11
0.9999999999970619
 21
2.424068405545306E-6
 31
0.0
 73
     1
 44
0.60024009603842
  0
ENDBLK
  5
12A
330
122
100
AcDbEntity
  8
0
100
AcDbBlockEnd
  0
ENDSEC
  0
SECTION
  2
ENTITIES
  0
INSERT
  5
4F
330
1F
100
AcDbEntity
  8
0
100
AcDbBlockReference
  2
開示A4枠
 10
0.0
 20
-0.00000000000001
 30
0.0
  0
LINE
  5
CD
330
1F
100
AcDbEntity
  8
1
  6
DASH_CENTER
 62
     2
100
AcDbLine
 10
153.2230886850157
 20
214.7297400611623
 30
0.0
 11
153.2230886850157
 21
151.7297400611623
 31
0.0
  0
LINE
  5
CE
330
1F
100
AcDbEntity
  8
1
  6
DASH_CENTER
 62
     2
100
AcDbLine
 10
120.4100622843193
 20
184.7297400611623
 30
0.0
 11
186.4100622843193
 21
184.7297400611623
 31
0.0
  0
LINE
  5
CF
330
1F
100
AcDbEntity
  8
1
  6
DASH_CENTER
 62
     2
100
AcDbLine
 10
71.22308868501571
 20
215.2297400611623
 30
0.0
 11
71.22308868501571
 21
154.2297400611623
 31
0.0
  0
LINE
  5
D0
330
1F
100
AcDbEntity
  8
1
  6
DASH_CENTER
 62
     2
100
AcDbLine
 10
40.82458968100271
 20
184.7297400611623
 30
0.0
 11
101.8245896810027
 21
184.7297400611623
 31
0.0
  0
LINE
  5
D1
330
1F
100
AcDbEntity
  8
1
  6
DASH_CENTER
 62
     2
100
AcDbLine
 10
71.22308868501571
 20
119.6917431192664
 30
0.0
 11
71.22308868501571
 21
112.1917431192664
 31
0.0
  0
LINE
  5
D2
330
1F
100
AcDbEntity
  8
1
  6
DASH_CENTER
 62
     2
100
AcDbLine
 10
153.2230886850157
 20
121.6917431192664
 30
0.0
 11
153.2230886850157
 21
108.6917431192664
 31
0.0
  0
LINE
  5
D3
330
1F
100
AcDbEntity
  8
1
  6
Continuous
 62
     7
100
AcDbLine
 10
43.72308868501571
 20
116.6917431192664
 30
0.0
 11
98.72308868501571
 21
116.6917431192664
 31
0.0
  0
LINE
  5
D4
330
1F
100
AcDbEntity
  8
1
  6
Continuous
 62
     7
100
AcDbLine
 10
98.72308868501571
 20
116.6917431192664
 30
0.0
 11
98.72308868501571
 21
115.1917431192664
 31
0.0
  0
LINE
  5
D5
330
1F
100
AcDbEntity
  8
1
  6
Continuous
 62
     7
100
AcDbLine
 10
98.72308868501571
 20
115.1917431192664
 30
0.0
 11
43.72308868501571
 21
115.1917431192664
 31
0.0
  0
LINE
  5
D6
330
1F
100
AcDbEntity
  8
1
  6
Continuous
 62
     7
100
AcDbLine
 10
43.72308868501571
 20
115.1917431192664
 30
0.0
 11
43.72308868501571
 21
116.6917431192664
 31
0.0
  0
LINE
  5
D7
330
1F
100
AcDbEntity
  8
1
  6
Continuous
 62
     7
100
AcDbLine
 10
137.2230886850157
 20
118.6917431192664
 30
0.0
 11
153.2230886850157
 21
118.6917431192664
 31
0.0
  0
LINE
  5
D8
330
1F
100
AcDbEntity
  8
1
  6
Continuous
 62
     7
100
AcDbLine
 10
183.2230886850157
 20
111.6917431192664
 30
0.0
 11
123.2230886850157
 21
111.6917431192664
 31
0.0
  0
LINE
  5
D9
330
1F
100
AcDbEntity
  8
1
  6
Continuous
 62
     7
100
AcDbLine
 10
153.2230886850157
 20
118.6917431192664
 30
0.0
 11
169.2230886850157
 21
118.6917431192664
 31
0.0
  0
LINE
  5
DA
330
1F
100
AcDbEntity
  8
1
  6
DASH_CENTER
 62
     2
100
AcDbLine
 10
153.2230886850157
 20
214.7297400611623
 30
0.0
 11
153.2230886850157
 21
217.7297400611623
 31
0.0
  0
ARC
  5
DB
330
1F
100
AcDbEntity
  8
1
  6
Continuous
 62
     7
100
AcDbCircle
 10
158.6802838921669
 20
80.10613353356871
 30
0.0
 40
40.00000000000001
100
AcDbArc
 50
52.15190403224862
 51
74.7179936135955
  0
ARC
  5
DC
330
1F
100
AcDbEntity
  8
1
  6
Continuous
 62
     7
100
AcDbCircle
 10
147.7658934778646
 20
80.10613353356871
 30
0.0
 40
40.00000000000004
100
AcDbArc
 50
105.2820063864046
 51
127.8480959677515
  0
CIRCLE
  5
DD
330
1F
100
AcDbEntity
  8
1
  6
Continuous
 62
     7
100
AcDbCircle
 10
71.22308868501571
 20
184.7297400611623
 30
0.0
 40
27.5
  0
CIRCLE
  5
DE
330
1F
100
AcDbEntity
  8
1
  6
Continuous
 62
     7
100
AcDbCircle
 10
71.22308868501571
 20
184.7297400611623
 30
0.0
 40
16.0
  0
CIRCLE
  5
DF
330
1F
100
AcDbEntity
  8
1
  6
Continuous
 62
     7
100
AcDbCircle
 10
153.2230886850157
 20
184.7297400611623
 30
0.0
 40
30.0
  0
CIRCLE
  5
E0
330
1F
100
AcDbEntity
  8
1
  6
Continuous
 62
     7
100
AcDbCircle
 10
153.2230886850157
 20
184.7297400611623
 30
0.0
 40
16.0
  0
MTEXT
  5
E2
330
1F
100
AcDbEntity
  8
1
 62
     7
100
AcDbMText
 10
157.5
 20
12.50000000000003
 30
0.0
 40
2.5
 41
0.0
 71
     5
 72
     1
  1
2
  7
CONVERTER_12
 73
     1
 44
0.7202881152461
  0
MTEXT
  5
E3
330
1F
100
AcDbEntity
  8
1
 62
     7
100
AcDbMText
 10
151.75
 20
12.50000000000003
 30
0.0
 40
2.5
 41
0.0
 71
     5
 72
     1
  1
04
  7
CONVERTER_12
 73
     1
 44
0.7202881152461
  0
MTEXT
  5
E4
330
1F
100
AcDbEntity
  8
1
 62
     7
100
AcDbMText
 10
140.5
 20
12.50000000000003
 30
0.0
 40
2.5
 41
0.0
 71
     5
 72
     1
  1
2
  7
CONVERTER_12
 73
     1
 44
0.7202881152461
  0
MTEXT
  5
E5
330
1F
100
AcDbEntity
  8
1
 62
     7
100
AcDbMText
 10
134.75
 20
12.50000000000003
 30
0.0
 40
2.5
 41
0.0
 71
     5
 72
     1
  1
04
  7
CONVERTER_12
 73
     1
 44
0.7202881152461
  0
MTEXT
  5
E6
330
1F
100
AcDbEntity
  8
1
 62
     7
100
AcDbMText
 10
123.5
 20
12.50000000000003
 30
0.0
 40
2.5
 41
0.0
 71
     5
 72
     1
  1
2
  7
CONVERTER_12
 73
     1
 44
0.7202881152461
  0
MTEXT
  5
E7
330
1F
100
AcDbEntity
  8
1
 62
     7
100
AcDbMText
 10
117.75
 20
12.50000000000003
 30
0.0
 40
2.5
 41
0.0
 71
     5
 72
     1
  1
04
  7
CONVERTER_12
 73
     1
 44
0.7202881152461
  0
MTEXT
  5
E8
330
1F
100
AcDbEntity
  8
1
 62
     7
100
AcDbMText
 10
100.75
 20
12.50000000000003
 30
0.0
 40
2.5
 41
0.0
 71
     5
 72
     1
  1
04
  7
CONVERTER_12
 73
     1
 44
0.7202881152461
  0
MTEXT
  5
E9
330
1F
100
AcDbEntity
  8
1
 62
     7
100
AcDbMText
 10
106.5
 20
12.50000000000003
 30
0.0
 40
2.5
 41
0.0
 71
     5
 72
     1
  1
2
  7
CONVERTER_12
 73
     1
 44
0.7202881152461
  0
MTEXT
  5
EA
330
1F
100
AcDbEntity
  8
1
 62
     7
100
AcDbMText
 10
85.24999999999997
 20
17.00000000000003
 30
0.0
 40
3.5
 41
0.0
 71
     5
 72
     1
  1
1
  7
CONVERTER_12
 73
     1
 44
0.7202881152461
  0
MTEXT
  5
EB
330
1F
100
AcDbEntity
  8
1
 62
     7
100
AcDbMText
 10
56.99999999999997
 20
22.75000000000003
 30
0.0
 40
3.5
 41
0.0
 71
     5
 72
     1
  1
排水栓取付パッキン
  7
CONVERTER_11
 73
     1
 44
0.54545454545455
  0
MTEXT
  5
EC
330
1F
100
AcDbEntity
  8
1
 62
     7
100
AcDbMText
 10
56.99999999999997
 20
14.25000000000003
 30
0.0
 40
3.5
 41
0.0
 71
     5
 72
     1
  1
P42-14S-25
  7
CONVERTER_12
 73
     1
 44
0.7202881152461
  0
MTEXT
  5
ED
330
1F
100
AcDbEntity
  8
1
 62
     7
100
AcDbMText
 10
93.74999999999997
 20
17.00000000000003
 30
0.0
 40
3.5
 41
0.0
 71
     5
 72
     1
  1
1
  7
CONVERTER_12
 73
     1
 44
0.7202881152461
  0
DIMENSION
  5
FA
330
1F
100
AcDbEntity
  8
1
100
AcDbDimension
  2
*D3
 10
192.245985186432
 20
118.6917431192664
 30
0.0
 11
189.495985186432
 21
115.5232009090147
 31
0.0
 70
    32
  1
<>
 71
     5
 42
-1.0
 53
90.0
  3
ME10_DIM_10
100
AcDbAlignedDimension
 13
183.2230886850157
 23
111.6917431192664
 33
0.0
 14
169.2230886850157
 24
118.6917431192664
 34
0.0
 50
90.0
100
AcDbRotatedDimension
  0
DIMENSION
  5
107
330
1F
100
AcDbEntity
  8
1
100
AcDbDimension
  2
*D4
 10
107.7316387509467
 20
116.6917431192664
 30
0.0
 11
104.9816387509467
 21
119.8773405717817
 31
0.0
 70
    32
  1
2
 71
     5
 42
-1.0
 53
90.0
  3
ME10_DIM_11
100
AcDbAlignedDimension
 13
98.72308868501571
 23
115.1917431192664
 33
0.0
 14
98.72308868501571
 24
116.6917431192664
 34
0.0
 50
90.0
100
AcDbRotatedDimension
  0
INSERT
  5
10F
330
1F
100
AcDbEntity
  8
1
100
AcDbBlockReference
  2
*D5
 10
0.0
 20
0.0
 30
0.0
  0
INSERT
  5
117
330
1F
100
AcDbEntity
  8
1
100
AcDbBlockReference
  2
*D6
 10
0.0
 20
0.0
 30
0.0
  0
INSERT
  5
121
330
1F
100
AcDbEntity
  8
1
100
AcDbBlockReference
  2
*D7
 10
0.0
 20
0.0
 30
0.0
  0
INSERT
  5
12B
330
1F
100
AcDbEntity
  8
1
100
AcDbBlockReference
  2
*D8
 10
0.0
 20
0.0
 30
0.0
  0
ENDSEC
  0
SECTION
  2
OBJECTS
  0
DICTIONARY
  5
C
330
0
100
AcDbDictionary
281
     1
  3
ACAD_GROUP
350
D
  3
ACAD_LAYOUT
350
1A
  3
ACAD_MATERIAL
350
3B
  3
ACAD_MLEADERSTYLE
350
12E
  3
ACAD_MLINESTYLE
350
17
  3
ACAD_PLOTSETTINGS
350
19
  3
ACAD_PLOTSTYLENAME
350
E
  3
ACAD_VISUALSTYLE
350
2A
  3
AcDbVariableDictionary
350
12C
  0
DICTIONARY
  5
D
102
{ACAD_REACTORS
330
C
102
}
330
C
100
AcDbDictionary
281
     1
  0
DICTIONARY
  5
1A
102
{ACAD_REACTORS
330
C
102
}
330
C
100
AcDbDictionary
281
     1
  3
Layout1
350
1E
  3
Layout2
350
26
  3
Model
350
22
  0
DICTIONARY
  5
3B
102
{ACAD_REACTORS
330
C
102
}
330
C
100
AcDbDictionary
281
     1
  3
ByBlock
350
3D
  3
ByLayer
350
3C
  3
Global
350
3E
  0
DICTIONARY
  5
12E
102
{ACAD_REACTORS
330
C
102
}
330
C
100
AcDbDictionary
281
     1
  0
DICTIONARY
  5
17
102
{ACAD_REACTORS
330
C
102
}
330
C
100
AcDbDictionary
281
     1
  3
Standard
350
18
  0
DICTIONARY
  5
19
102
{ACAD_REACTORS
330
C
102
}
330
C
100
AcDbDictionary
281
     1
  0
ACDBDICTIONARYWDFLT
  5
E
102
{ACAD_REACTORS
330
C
102
}
330
C
100
AcDbDictionary
281
     1
  3
Normal
350
F
100
AcDbDictionaryWithDefault
340
F
  0
DICTIONARY
  5
2A
102
{ACAD_REACTORS
330
C
102
}
330
C
100
AcDbDictionary
281
     1
  3
2dWireframe
350
2F
  3
3D Hidden
350
31
  3
3dWireframe
350
30
  3
Basic
350
32
  3
Brighten
350
36
  3
ColorChange
350
3A
  3
Conceptual
350
34
  3
Dim
350
35
  3
Facepattern
350
39
  3
Flat
350
2B
  3
FlatWithEdges
350
2C
  3
Gouraud
350
2D
  3
GouraudWithEdges
350
2E
  3
Linepattern
350
38
  3
Realistic
350
33
  3
Thicken
350
37
  0
DICTIONARY
  5
12C
102
{ACAD_REACTORS
330
C
102
}
330
C
100
AcDbDictionary
281
     1
  3
DIMASSOC
350
12F
  3
HIDETEXT
350
130
  0
LAYOUT
  5
1E
102
{ACAD_REACTORS
330
1A
102
}
330
1A
100
AcDbPlotSettings
  1

  2
none_device
  4

  6

 40
0.0
 41
0.0
 42
0.0
 43
0.0
 44
0.0
 45
0.0
 46
0.0
 47
0.0
 48
0.0
 49
0.0
140
0.0
141
0.0
142
1.0
143
1.0
 70
   688
 72
     0
 73
     0
 74
     5
  7

 75
    16
147
1.0
148
0.0
149
0.0
100
AcDbLayout
  1
Layout1
 70
     1
 71
     1
 10
0.0
 20
0.0
 11
12.0
 21
9.0
 12
0.0
 22
0.0
 32
0.0
 14
1.00000000000000E+20
 24
1.00000000000000E+20
 34
1.00000000000000E+20
 15
-1.00000000000000E+20
 25
-1.00000000000000E+20
 35
-1.00000000000000E+20
146
0.0
 13
0.0
 23
0.0
 33
0.0
 16
1.0
 26
0.0
 36
0.0
 17
0.0
 27
1.0
 37
0.0
 76
     0
330
1B
  0
LAYOUT
  5
26
102
{ACAD_REACTORS
330
1A
102
}
330
1A
100
AcDbPlotSettings
  1

  2
none_device
  4

  6

 40
0.0
 41
0.0
 42
0.0
 43
0.0
 44
0.0
 45
0.0
 46
0.0
 47
0.0
 48
0.0
 49
0.0
140
0.0
141
0.0
142
1.0
143
1.0
 70
   688
 72
     0
 73
     0
 74
     5
  7

 75
    16
147
1.0
148
0.0
149
0.0
100
AcDbLayout
  1
Layout2
 70
     1
 71
     2
 10
0.0
 20
0.0
 11
0.0
 21
0.0
 12
0.0
 22
0.0
 32
0.0
 14
0.0
 24
0.0
 34
0.0
 15
0.0
 25
0.0
 35
0.0
146
0.0
 13
0.0
 23
0.0
 33
0.0
 16
1.0
 26
0.0
 36
0.0
 17
0.0
 27
1.0
 37
0.0
 76
     0
330
23
  0
LAYOUT
  5
22
102
{ACAD_REACTORS
330
1A
102
}
330
1A
100
AcDbPlotSettings
  1

  2
none_device
  4

  6

 40
0.0
 41
0.0
 42
0.0
 43
0.0
 44
0.0
 45
0.0
 46
0.0
 47
0.0
 48
0.0
 49
0.0
140
0.0
141
0.0
142
1.0
143
1.0
 70
  1712
 72
     0
 73
     0
 74
     0
  7

 75
     0
147
1.0
148
0.0
149
0.0
100
AcDbLayout
  1
Model
 70
     1
 71
     0
 10
0.0
 20
0.0
 11
12.0
 21
9.0
 12
0.0
 22
0.0
 32
0.0
 14
0.0
 24
-0.00000000000001
 34
0.0
 15
210.0
 25
297.0
 35
0.0
146
0.0
 13
0.0
 23
0.0
 33
0.0
 16
1.0
 26
0.0
 36
0.0
 17
0.0
 27
1.0
 37
0.0
 76
     0
330
1F
331
29
  0
MATERIAL
  5
3D
102
{ACAD_REACTORS
330
3B
102
}
102
{ACAD_XDICTIONARY
360
153
102
}
330
3B
100
AcDbMaterial
  1
ByBlock
  0
MATERIAL
  5
3C
102
{ACAD_REACTORS
330
3B
102
}
102
{ACAD_XDICTIONARY
360
151
102
}
330
3B
100
AcDbMaterial
  1
ByLayer
  0
MATERIAL
  5
3E
102
{ACAD_REACTORS
330
3B
102
}
102
{ACAD_XDICTIONARY
360
155
102
}
330
3B
100
AcDbMaterial
  1
Global
  0
MLINESTYLE
  5
18
102
{ACAD_REACTORS
330
17
102
}
330
17
100
AcDbMlineStyle
  2
Standard
 70
     0
  3

 62
   256
 51
90.0
 52
90.0
 71
     2
 49
0.5
 62
   256
  6
BYLAYER
 49
-0.5
 62
   256
  6
BYLAYER
  0
ACDBPLACEHOLDER
  5
F
102
{ACAD_REACTORS
330
E
102
}
330
E
  0
VISUALSTYLE
  5
2F
102
{ACAD_REACTORS
330
2A
102
}
102
{ACAD_XDICTIONARY
360
139
102
}
330
2A
100
AcDbVisualStyle
  2
2dWireframe
 70
     4
 71
     0
 72
     2
 73
     0
 90
        0
 40
-0.6
 41
-30.0
 62
     5
 63
     7
 74
     1
 91
        4
 64
     7
 65
   257
 75
     1
175
     1
 42
1.0
 92
        0
 66
   257
 43
1.0
 76
     1
 77
     6
 78
     2
 67
     7
 79
     5
170
     0
171
     0
290
     0
174
     0
 93
        1
 44
0.0
173
     0
291
     0
 45
0.0
1001
ACAD
1000
AcDbSavedByObjectVersion
1070
     0
  0
VISUALSTYLE
  5
31
102
{ACAD_REACTORS
330
2A
102
}
102
{ACAD_XDICTIONARY
360
13D
102
}
330
2A
100
AcDbVisualStyle
  2
3D Hidden
 70
     6
 71
     1
 72
     2
 73
     2
 90
        0
 40
-0.6
 41
-30.0
 62
     5
 63
     7
 74
     2
 91
        2
 64
     7
 65
   257
 75
     2
175
     1
 42
40.0
 92
        0
 66
   257
 43
1.0
 76
     1
 77
     6
 78
     2
 67
     7
 79
     3
170
     0
171
     0
290
     0
174
     0
 93
        1
 44
0.0
173
     0
291
     0
 45
0.0
1001
ACAD
1000
AcDbSavedByObjectVersion
1070
     0
  0
VISUALSTYLE
  5
30
102
{ACAD_REACTORS
330
2A
102
}
102
{ACAD_XDICTIONARY
360
13B
102
}
330
2A
100
AcDbVisualStyle
  2
3dWireframe
 70
     5
 71
     0
 72
     2
 73
     0
 90
        0
 40
-0.6
 41
-30.0
 62
     5
 63
     7
 74
     1
 91
        4
 64
     7
 65
   257
 75
     1
175
     1
 42
1.0
 92
        0
 66
   257
 43
1.0
 76
     1
 77
     6
 78
     2
 67
     7
 79
     5
170
     0
171
     0
290
     0
174
     0
 93
        1
 44
0.0
173
     0
291
     0
 45
0.0
1001
ACAD
1000
AcDbSavedByObjectVersion
1070
     0
  0
VISUALSTYLE
  5
32
102
{ACAD_REACTORS
330
2A
102
}
102
{ACAD_XDICTIONARY
360
13F
102
}
330
2A
100
AcDbVisualStyle
  2
Basic
 70
     7
 71
     1
 72
     0
 73
     1
 90
        0
 40
-0.6
 41
-30.0
 62
     5
 63
     7
 74
     0
 91
        4
 64
     7
 65
   257
 75
     1
175
     1
 42
1.0
 92
        8
 66
     7
 43
1.0
 76
     1
 77
     6
 78
     2
 67
     7
 79
     5
170
     0
171
     0
290
     0
174
     0
 93
        1
 44
0.0
173
     0
291
     1
 45
0.0
1001
ACAD
1000
AcDbSavedByObjectVersion
1070
     0
  0
VISUALSTYLE
  5
36
102
{ACAD_REACTORS
330
2A
102
}
102
{ACAD_XDICTIONARY
360
147
102
}
330
2A
100
AcDbVisualStyle
  2
Brighten
 70
    12
 71
     2
 72
     2
 73
     0
 90
        0
 40
-0.6
 41
-30.0
 62
     5
 63
     7
 74
     1
 91
        4
 64
     7
 65
   257
 75
     1
175
     1
 42
1.0
 92
        8
 66
     7
 43
1.0
 76
     1
 77
     6
 78
     2
 67
     7
 79
     5
170
     0
171
     0
290
     0
174
     0
 93
        1
 44
50.0
173
     0
291
     1
 45
0.0
1001
ACAD
1000
AcDbSavedByObjectVersion
1070
     0
  0
VISUALSTYLE
  5
3A
102
{ACAD_REACTORS
330
2A
102
}
102
{ACAD_XDICTIONARY
360
14F
102
}
330
2A
100
AcDbVisualStyle
  2
ColorChange
 70
    16
 71
     2
 72
     2
 73
     3
 90
        0
 40
-0.6
 41
-30.0
 62
     5
 63
     8
 74
     1
 91
        4
 64
     7
 65
   257
 75
     1
175
     1
 42
1.0
 92
        8
 66
     8
 43
1.0
 76
     1
 77
     6
 78
     2
 67
     7
 79
     5
170
     0
171
     0
290
     0
174
     0
 93
        1
 44
0.0
173
     0
291
     1
 45
0.0
1001
ACAD
1000
AcDbSavedByObjectVersion
1070
     0
  0
VISUALSTYLE
  5
34
102
{ACAD_REACTORS
330
2A
102
}
102
{ACAD_XDICTIONARY
360
143
102
}
330
2A
100
AcDbVisualStyle
  2
Conceptual
 70
     9
 71
     3
 72
     2
 73
     0
 90
        0
 40
-0.6
 41
-30.0
 62
     5
 63
     7
 74
     2
 91
        2
 64
     7
 65
   257
 75
     1
175
     1
 42
40.0
 92
        8
 66
     7
 43
1.0
 76
     1
 77
     6
 78
     2
 67
     7
 79
     3
170
     0
171
     0
290
     0
174
     0
 93
        1
 44
0.0
173
     0
291
     0
 45
0.0
1001
ACAD
1000
AcDbSavedByObjectVersion
1070
     0
  0
VISUALSTYLE
  5
35
102
{ACAD_REACTORS
330
2A
102
}
102
{ACAD_XDICTIONARY
360
145
102
}
330
2A
100
AcDbVisualStyle
  2
Dim
 70
    11
 71
     2
 72
     2
 73
     0
 90
        0
 40
-0.6
 41
-30.0
 62
     5
 63
     7
 74
     1
 91
        4
 64
     7
 65
   257
 75
     1
175
     1
 42
1.0
 92
        8
 66
     7
 43
1.0
 76
     1
 77
     6
 78
     2
 67
     7
 79
     5
170
     0
171
     0
290
     0
174
     0
 93
        1
 44
-50.0
173
     0
291
     1
 45
0.0
1001
ACAD
1000
AcDbSavedByObjectVersion
1070
     0
  0
VISUALSTYLE
  5
39
102
{ACAD_REACTORS
330
2A
102
}
102
{ACAD_XDICTIONARY
360
14D
102
}
330
2A
100
AcDbVisualStyle
  2
Facepattern
 70
    15
 71
     2
 72
     2
 73
     0
 90
        0
 40
-0.6
 41
-30.0
 62
     5
 63
     7
 74
     1
 91
        4
 64
     7
 65
   257
 75
     1
175
     1
 42
1.0
 92
        8
 66
     7
 43
1.0
 76
     1
 77
     6
 78
     2
 67
     7
 79
     5
170
     0
171
     0
290
     0
174
     0
 93
        1
 44
0.0
173
     0
291
     1
 45
0.0
1001
ACAD
1000
AcDbSavedByObjectVersion
1070
     0
  0
VISUALSTYLE
  5
2B
102
{ACAD_REACTORS
330
2A
102
}
102
{ACAD_XDICTIONARY
360
131
102
}
330
2A
100
AcDbVisualStyle
  2
Flat
 70
     0
 71
     2
 72
     1
 73
     1
 90
        2
 40
-0.6
 41
30.0
 62
     5
 63
     7
 74
     0
 91
        4
 64
     7
 65
   257
 75
     1
175
     1
 42
1.0
 92
        8
 66
     7
 43
1.0
 76
     1
 77
     6
 78
     2
 67
     7
 79
     5
170
     0
171
     0
290
     0
174
     0
 93
       13
 44
0.0
173
     0
291
     1
 45
0.0
1001
ACAD
1000
AcDbSavedByObjectVersion
1070
     0
  0
VISUALSTYLE
  5
2C
102
{ACAD_REACTORS
330
2A
102
}
102
{ACAD_XDICTIONARY
360
133
102
}
330
2A
100
AcDbVisualStyle
  2
FlatWithEdges
 70
     1
 71
     2
 72
     1
 73
     1
 90
        2
 40
-0.6
 41
30.0
 62
     5
 63
     7
 74
     1
 91
        4
 64
     7
 65
   257
 75
     1
175
     1
 42
1.0
 92
        0
 66
   257
 43
1.0
 76
     1
 77
     6
 78
     2
 67
     7
 79
     5
170
     0
171
     0
290
     0
174
     0
 93
       13
 44
0.0
173
     0
291
     1
 45
0.0
1001
ACAD
1000
AcDbSavedByObjectVersion
1070
     0
  0
VISUALSTYLE
  5
2D
102
{ACAD_REACTORS
330
2A
102
}
102
{ACAD_XDICTIONARY
360
135
102
}
330
2A
100
AcDbVisualStyle
  2
Gouraud
 70
     2
 71
     2
 72
     2
 73
     1
 90
        2
 40
-0.6
 41
30.0
 62
     5
 63
     7
 74
     0
 91
        4
 64
     7
 65
   257
 75
     1
175
     1
 42
1.0
 92
        0
 66
     7
 43
1.0
 76
     1
 77
     6
 78
     2
 67
     7
 79
     5
170
     0
171
     0
290
     0
174
     0
 93
       13
 44
0.0
173
     0
291
     1
 45
0.0
1001
ACAD
1000
AcDbSavedByObjectVersion
1070
     0
  0
VISUALSTYLE
  5
2E
102
{ACAD_REACTORS
330
2A
102
}
102
{ACAD_XDICTIONARY
360
137
102
}
330
2A
100
AcDbVisualStyle
  2
GouraudWithEdges
 70
     3
 71
     2
 72
     2
 73
     1
 90
        2
 40
-0.6
 41
30.0
 62
     5
 63
     7
 74
     1
 91
        4
 64
     7
 65
   257
 75
     1
175
     1
 42
1.0
 92
        0
 66
   257
 43
1.0
 76
     1
 77
     6
 78
     2
 67
     7
 79
     5
170
     0
171
     0
290
     0
174
     0
 93
       13
 44
0.0
173
     0
291
     1
 45
0.0
1001
ACAD
1000
AcDbSavedByObjectVersion
1070
     0
  0
VISUALSTYLE
  5
38
102
{ACAD_REACTORS
330
2A
102
}
102
{ACAD_XDICTIONARY
360
14B
102
}
330
2A
100
AcDbVisualStyle
  2
Linepattern
 70
    14
 71
     2
 72
     2
 73
     0
 90
        0
 40
-0.6
 41
-30.0
 62
     5
 63
     7
 74
     1
 91
        4
 64
     7
 65
   257
 75
     7
175
     7
 42
1.0
 92
        8
 66
     7
 43
1.0
 76
     1
 77
     6
 78
     2
 67
     7
 79
     5
170
     0
171
     0
290
     0
174
     0
 93
        1
 44
0.0
173
     0
291
     1
 45
0.0
1001
ACAD
1000
AcDbSavedByObjectVersion
1070
     0
  0
VISUALSTYLE
  5
33
102
{ACAD_REACTORS
330
2A
102
}
102
{ACAD_XDICTIONARY
360
141
102
}
330
2A
100
AcDbVisualStyle
  2
Realistic
 70
     8
 71
     2
 72
     2
 73
     0
 90
        0
 40
-0.6
 41
-30.0
 62
     5
 63
     7
 74
     1
 91
        0
 64
     7
 65
   257
 75
     1
175
     1
 42
1.0
 92
        8
 66
     8
 43
1.0
 76
     1
 77
     6
 78
     2
 67
     7
 79
     5
170
     0
171
     0
290
     0
174
     0
 93
       13
 44
0.0
173
     0
291
     0
 45
0.0
1001
ACAD
1000
AcDbSavedByObjectVersion
1070
     0
  0
VISUALSTYLE
  5
37
102
{ACAD_REACTORS
330
2A
102
}
102
{ACAD_XDICTIONARY
360
149
102
}
330
2A
100
AcDbVisualStyle
  2
Thicken
 70
    13
 71
     2
 72
     2
 73
     0
 90
        0
 40
-0.6
 41
-30.0
 62
     5
 63
     7
 74
     1
 91
        4
 64
     7
 65
   257
 75
     1
175
     1
 42
1.0
 92
       12
 66
     7
 43
1.0
 76
     1
 77
     6
 78
     2
 67
     7
 79
     5
170
     0
171
     0
290
     0
174
     0
 93
        1
 44
0.0
173
     0
291
     1
 45
0.0
1001
ACAD
1000
AcDbSavedByObjectVersion
1070
     0
  0
DICTIONARYVAR
  5
12F
102
{ACAD_REACTORS
330
12C
102
}
330
12C
100
DictionaryVariables
280
     0
  1
2
  0
DICTIONARYVAR
  5
130
102
{ACAD_REACTORS
330
12C
102
}
330
12C
100
DictionaryVariables
280
     0
  1
1
  0
DICTIONARY
  5
153
330
3D
100
AcDbDictionary
280
     1
281
     1
  3
ACAD_XREC_ROUNDTRIP
360
154
  0
DICTIONARY
  5
151
330
3C
100
AcDbDictionary
280
     1
281
     1
  3
ACAD_XREC_ROUNDTRIP
360
152
  0
DICTIONARY
  5
155
330
3E
100
AcDbDictionary
280
     1
281
     1
  3
ACAD_XREC_ROUNDTRIP
360
156
  0
DICTIONARY
  5
139
330
2F
100
AcDbDictionary
280
     1
281
     1
  3
ACAD_XREC_ROUNDTRIP
360
13A
  0
DICTIONARY
  5
13D
330
31
100
AcDbDictionary
280
     1
281
     1
  3
ACAD_XREC_ROUNDTRIP
360
13E
  0
DICTIONARY
  5
13B
330
30
100
AcDbDictionary
280
     1
281
     1
  3
ACAD_XREC_ROUNDTRIP
360
13C
  0
DICTIONARY
  5
13F
330
32
100
AcDbDictionary
280
     1
281
     1
  3
ACAD_XREC_ROUNDTRIP
360
140
  0
DICTIONARY
  5
147
330
36
100
AcDbDictionary
280
     1
281
     1
  3
ACAD_XREC_ROUNDTRIP
360
148
  0
DICTIONARY
  5
14F
330
3A
100
AcDbDictionary
280
     1
281
     1
  3
ACAD_XREC_ROUNDTRIP
360
150
  0
DICTIONARY
  5
143
330
34
100
AcDbDictionary
280
     1
281
     1
  3
ACAD_XREC_ROUNDTRIP
360
144
  0
DICTIONARY
  5
145
330
35
100
AcDbDictionary
280
     1
281
     1
  3
ACAD_XREC_ROUNDTRIP
360
146
  0
DICTIONARY
  5
14D
330
39
100
AcDbDictionary
280
     1
281
     1
  3
ACAD_XREC_ROUNDTRIP
360
14E
  0
DICTIONARY
  5
131
330
2B
100
AcDbDictionary
280
     1
281
     1
  3
ACAD_XREC_ROUNDTRIP
360
132
  0
DICTIONARY
  5
133
330
2C
100
AcDbDictionary
280
     1
281
     1
  3
ACAD_XREC_ROUNDTRIP
360
134
  0
DICTIONARY
  5
135
330
2D
100
AcDbDictionary
280
     1
281
     1
  3
ACAD_XREC_ROUNDTRIP
360
136
  0
DICTIONARY
  5
137
330
2E
100
AcDbDictionary
280
     1
281
     1
  3
ACAD_XREC_ROUNDTRIP
360
138
  0
DICTIONARY
  5
14B
330
38
100
AcDbDictionary
280
     1
281
     1
  3
ACAD_XREC_ROUNDTRIP
360
14C
  0
DICTIONARY
  5
141
330
33
100
AcDbDictionary
280
     1
281
     1
  3
ACAD_XREC_ROUNDTRIP
360
142
  0
DICTIONARY
  5
149
330
37
100
AcDbDictionary
280
     1
281
     1
  3
ACAD_XREC_ROUNDTRIP
360
14A
  0
XRECORD
  5
154
102
{ACAD_REACTORS
330
153
102
}
330
153
100
AcDbXrecord
280
     1
102
MATERIAL
148
0.0
149
0.0
149
0.0
 93
        0
 94
      127
282
     0
 72
     1
 77
     1
171
     1
175
     1
179
     1
273
     0
  0
XRECORD
  5
152
102
{ACAD_REACTORS
330
151
102
}
330
151
100
AcDbXrecord
280
     1
102
MATERIAL
148
0.0
149
0.0
149
0.0
 93
        0
 94
      127
282
     0
 72
     1
 77
     1
171
     1
175
     1
179
     1
273
     0
  0
XRECORD
  5
156
102
{ACAD_REACTORS
330
155
102
}
330
155
100
AcDbXrecord
280
     1
102
MATERIAL
148
0.0
149
0.0
149
0.0
 93
        0
 94
      127
282
     0
 72
     1
 77
     1
171
     1
175
     1
179
     1
273
     0
  0
XRECORD
  5
13A
102
{ACAD_REACTORS
330
139
102
}
330
139
100
AcDbXrecord
280
     1
102
RTVSPropertyOp0
 70
     1
102
RTVSPropertyOp1
 70
     1
102
RTVSPropertyOp2
 70
     1
102
RTVSPropertyOp3
 70
     1
102
RTVSPropertyOp4
 70
     1
102
RTVSPropertyOp5
 70
     1
102
RTVSPropertyOp6
 70
     1
102
RTVSPropertyOp7
 70
     1
102
RTVSPropertyOp8
 70
     1
102
RTVSPropertyOp9
 70
     1
102
RTVSPropertyOp10
 70
     1
102
RTVSPropertyOp11
 70
     1
102
RTVSPropertyOp12
 70
     1
102
RTVSPropertyOp13
 70
     1
102
RTVSPropertyOp14
 70
     1
102
RTVSPropertyOp15
 70
     1
102
RTVSPropertyOp16
 70
     1
102
RTVSPropertyOp17
 70
     1
102
RTVSPropertyOp18
 70
     1
102
RTVSPropertyOp19
 70
     1
102
RTVSPropertyOp20
 70
     1
102
RTVSPropertyOp21
 70
     1
102
RTVSPropertyOp22
 70
     1
102
RTVSPropertyOp23
 70
     1
102
RTVSPropertyOp24
 70
     1
102
RTVSPropertyOp25
 70
     1
102
RTVSPropertyOp26
 70
     1
102
RTVSPropertyOp27
 70
     1
102
RTVSPropertyOp28
 70
     1
102
RTVSPropertyOp29
 70
     1
102
RTVSPropertyOp30
 70
     1
102
RTVSPropertyOp31
 70
     1
102
RTVSPropertyOp32
 70
     1
  0
XRECORD
  5
13E
102
{ACAD_REACTORS
330
13D
102
}
330
13D
100
AcDbXrecord
280
     1
102
RTVSPropertyOp0
 70
     1
102
RTVSPropertyOp1
 70
     1
102
RTVSPropertyOp2
 70
     1
102
RTVSPropertyOp3
 70
     1
102
RTVSPropertyOp4
 70
     1
102
RTVSPropertyOp5
 70
     1
102
RTVSPropertyOp6
 70
     1
102
RTVSPropertyOp7
 70
     1
102
RTVSPropertyOp8
 70
     1
102
RTVSPropertyOp9
 70
     1
102
RTVSPropertyOp10
 70
     1
102
RTVSPropertyOp11
 70
     1
102
RTVSPropertyOp12
 70
     1
102
RTVSPropertyOp13
 70
     1
102
RTVSPropertyOp14
 70
     1
102
RTVSPropertyOp15
 70
     1
102
RTVSPropertyOp16
 70
     1
102
RTVSPropertyOp17
 70
     1
102
RTVSPropertyOp18
 70
     1
102
RTVSPropertyOp19
 70
     1
102
RTVSPropertyOp20
 70
     1
102
RTVSPropertyOp21
 70
     1
102
RTVSPropertyOp22
 70
     1
102
RTVSPropertyOp23
 70
     1
102
RTVSPropertyOp24
 70
     1
102
RTVSPropertyOp25
 70
     1
102
RTVSPropertyOp26
 70
     1
102
RTVSPropertyOp27
 70
     1
102
RTVSPropertyOp28
 70
     1
102
RTVSPropertyOp29
 70
     1
102
RTVSPropertyOp30
 70
     1
102
RTVSPropertyOp31
 70
     1
102
RTVSPropertyOp32
 70
     1
  0
XRECORD
  5
13C
102
{ACAD_REACTORS
330
13B
102
}
330
13B
100
AcDbXrecord
280
     1
102
RTVSPropertyOp0
 70
     1
102
RTVSPropertyOp1
 70
     1
102
RTVSPropertyOp2
 70
     1
102
RTVSPropertyOp3
 70
     1
102
RTVSPropertyOp4
 70
     1
102
RTVSPropertyOp5
 70
     1
102
RTVSPropertyOp6
 70
     1
102
RTVSPropertyOp7
 70
     1
102
RTVSPropertyOp8
 70
     1
102
RTVSPropertyOp9
 70
     1
102
RTVSPropertyOp10
 70
     1
102
RTVSPropertyOp11
 70
     1
102
RTVSPropertyOp12
 70
     1
102
RTVSPropertyOp13
 70
     1
102
RTVSPropertyOp14
 70
     1
102
RTVSPropertyOp15
 70
     1
102
RTVSPropertyOp16
 70
     1
102
RTVSPropertyOp17
 70
     1
102
RTVSPropertyOp18
 70
     1
102
RTVSPropertyOp19
 70
     1
102
RTVSPropertyOp20
 70
     1
102
RTVSPropertyOp21
 70
     1
102
RTVSPropertyOp22
 70
     1
102
RTVSPropertyOp23
 70
     1
102
RTVSPropertyOp24
 70
     1
102
RTVSPropertyOp25
 70
     1
102
RTVSPropertyOp26
 70
     1
102
RTVSPropertyOp27
 70
     1
102
RTVSPropertyOp28
 70
     1
102
RTVSPropertyOp29
 70
     1
102
RTVSPropertyOp30
 70
     1
102
RTVSPropertyOp31
 70
     1
102
RTVSPropertyOp32
 70
     1
  0
XRECORD
  5
140
102
{ACAD_REACTORS
330
13F
102
}
330
13F
100
AcDbXrecord
280
     1
102
RTVSPropertyOp0
 70
     1
102
RTVSPropertyOp1
 70
     1
102
RTVSPropertyOp2
 70
     1
102
RTVSPropertyOp3
 70
     1
102
RTVSPropertyOp4
 70
     1
102
RTVSPropertyOp5
 70
     1
102
RTVSPropertyOp6
 70
     1
102
RTVSPropertyOp7
 70
     1
102
RTVSPropertyOp8
 70
     1
102
RTVSPropertyOp9
 70
     1
102
RTVSPropertyOp10
 70
     1
102
RTVSPropertyOp11
 70
     1
102
RTVSPropertyOp12
 70
     1
102
RTVSPropertyOp13
 70
     1
102
RTVSPropertyOp14
 70
     1
102
RTVSPropertyOp15
 70
     1
102
RTVSPropertyOp16
 70
     1
102
RTVSPropertyOp17
 70
     1
102
RTVSPropertyOp18
 70
     1
102
RTVSPropertyOp19
 70
     1
102
RTVSPropertyOp20
 70
     1
102
RTVSPropertyOp21
 70
     1
102
RTVSPropertyOp22
 70
     1
102
RTVSPropertyOp23
 70
     1
102
RTVSPropertyOp24
 70
     1
102
RTVSPropertyOp25
 70
     1
102
RTVSPropertyOp26
 70
     1
102
RTVSPropertyOp27
 70
     1
102
RTVSPropertyOp28
 70
     1
102
RTVSPropertyOp29
 70
     1
102
RTVSPropertyOp30
 70
     1
102
RTVSPropertyOp31
 70
     1
102
RTVSPropertyOp32
 70
     1
  0
XRECORD
  5
148
102
{ACAD_REACTORS
330
147
102
}
330
147
100
AcDbXrecord
280
     1
102
RTVSPropertyOp0
 70
     1
102
RTVSPropertyOp1
 70
     1
102
RTVSPropertyOp2
 70
     1
102
RTVSPropertyOp3
 70
     1
102
RTVSPropertyOp4
 70
     1
102
RTVSPropertyOp5
 70
     1
102
RTVSPropertyOp6
 70
     1
102
RTVSPropertyOp7
 70
     1
102
RTVSPropertyOp8
 70
     1
102
RTVSPropertyOp9
 70
     1
102
RTVSPropertyOp10
 70
     1
102
RTVSPropertyOp11
 70
     1
102
RTVSPropertyOp12
 70
     1
102
RTVSPropertyOp13
 70
     1
102
RTVSPropertyOp14
 70
     1
102
RTVSPropertyOp15
 70
     1
102
RTVSPropertyOp16
 70
     1
102
RTVSPropertyOp17
 70
     1
102
RTVSPropertyOp18
 70
     1
102
RTVSPropertyOp19
 70
     1
102
RTVSPropertyOp20
 70
     1
102
RTVSPropertyOp21
 70
     1
102
RTVSPropertyOp22
 70
     1
102
RTVSPropertyOp23
 70
     1
102
RTVSPropertyOp24
 70
     1
102
RTVSPropertyOp25
 70
     1
102
RTVSPropertyOp26
 70
     1
102
RTVSPropertyOp27
 70
     1
102
RTVSPropertyOp28
 70
     1
102
RTVSPropertyOp29
 70
     1
102
RTVSPropertyOp30
 70
     1
102
RTVSPropertyOp31
 70
     1
102
RTVSPropertyOp32
 70
     1
  0
XRECORD
  5
150
102
{ACAD_REACTORS
330
14F
102
}
330
14F
100
AcDbXrecord
280
     1
102
RTVSPropertyOp0
 70
     1
102
RTVSPropertyOp1
 70
     1
102
RTVSPropertyOp2
 70
     1
102
RTVSPropertyOp3
 70
     1
102
RTVSPropertyOp4
 70
     1
102
RTVSPropertyOp5
 70
     1
102
RTVSPropertyOp6
 70
     1
102
RTVSPropertyOp7
 70
     1
102
RTVSPropertyOp8
 70
     1
102
RTVSPropertyOp9
 70
     1
102
RTVSPropertyOp10
 70
     1
102
RTVSPropertyOp11
 70
     1
102
RTVSPropertyOp12
 70
     1
102
RTVSPropertyOp13
 70
     1
102
RTVSPropertyOp14
 70
     1
102
RTVSPropertyOp15
 70
     1
102
RTVSPropertyOp16
 70
     1
102
RTVSPropertyOp17
 70
     1
102
RTVSPropertyOp18
 70
     1
102
RTVSPropertyOp19
 70
     1
102
RTVSPropertyOp20
 70
     1
102
RTVSPropertyOp21
 70
     1
102
RTVSPropertyOp22
 70
     1
102
RTVSPropertyOp23
 70
     1
102
RTVSPropertyOp24
 70
     1
102
RTVSPropertyOp25
 70
     1
102
RTVSPropertyOp26
 70
     1
102
RTVSPropertyOp27
 70
     1
102
RTVSPropertyOp28
 70
     1
102
RTVSPropertyOp29
 70
     1
102
RTVSPropertyOp30
 70
     1
102
RTVSPropertyOp31
 70
     1
102
RTVSPropertyOp32
 70
     1
  0
XRECORD
  5
144
102
{ACAD_REACTORS
330
143
102
}
330
143
100
AcDbXrecord
280
     1
102
RTVSPropertyOp0
 70
     1
102
RTVSPropertyOp1
 70
     1
102
RTVSPropertyOp2
 70
     1
102
RTVSPropertyOp3
 70
     1
102
RTVSPropertyOp4
 70
     1
102
RTVSPropertyOp5
 70
     1
102
RTVSPropertyOp6
 70
     1
102
RTVSPropertyOp7
 70
     1
102
RTVSPropertyOp8
 70
     1
102
RTVSPropertyOp9
 70
     1
102
RTVSPropertyOp10
 70
     1
102
RTVSPropertyOp11
 70
     1
102
RTVSPropertyOp12
 70
     1
102
RTVSPropertyOp13
 70
     1
102
RTVSPropertyOp14
 70
     1
102
RTVSPropertyOp15
 70
     1
102
RTVSPropertyOp16
 70
     1
102
RTVSPropertyOp17
 70
     1
102
RTVSPropertyOp18
 70
     1
102
RTVSPropertyOp19
 70
     1
102
RTVSPropertyOp20
 70
     1
102
RTVSPropertyOp21
 70
     1
102
RTVSPropertyOp22
 70
     1
102
RTVSPropertyOp23
 70
     1
102
RTVSPropertyOp24
 70
     1
102
RTVSPropertyOp25
 70
     1
102
RTVSPropertyOp26
 70
     1
102
RTVSPropertyOp27
 70
     1
102
RTVSPropertyOp28
 70
     1
102
RTVSPropertyOp29
 70
     1
102
RTVSPropertyOp30
 70
     1
102
RTVSPropertyOp31
 70
     1
102
RTVSPropertyOp32
 70
     1
  0
XRECORD
  5
146
102
{ACAD_REACTORS
330
145
102
}
330
145
100
AcDbXrecord
280
     1
102
RTVSPropertyOp0
 70
     1
102
RTVSPropertyOp1
 70
     1
102
RTVSPropertyOp2
 70
     1
102
RTVSPropertyOp3
 70
     1
102
RTVSPropertyOp4
 70
     1
102
RTVSPropertyOp5
 70
     1
102
RTVSPropertyOp6
 70
     1
102
RTVSPropertyOp7
 70
     1
102
RTVSPropertyOp8
 70
     1
102
RTVSPropertyOp9
 70
     1
102
RTVSPropertyOp10
 70
     1
102
RTVSPropertyOp11
 70
     1
102
RTVSPropertyOp12
 70
     1
102
RTVSPropertyOp13
 70
     1
102
RTVSPropertyOp14
 70
     1
102
RTVSPropertyOp15
 70
     1
102
RTVSPropertyOp16
 70
     1
102
RTVSPropertyOp17
 70
     1
102
RTVSPropertyOp18
 70
     1
102
RTVSPropertyOp19
 70
     1
102
RTVSPropertyOp20
 70
     1
102
RTVSPropertyOp21
 70
     1
102
RTVSPropertyOp22
 70
     1
102
RTVSPropertyOp23
 70
     1
102
RTVSPropertyOp24
 70
     1
102
RTVSPropertyOp25
 70
     1
102
RTVSPropertyOp26
 70
     1
102
RTVSPropertyOp27
 70
     1
102
RTVSPropertyOp28
 70
     1
102
RTVSPropertyOp29
 70
     1
102
RTVSPropertyOp30
 70
     1
102
RTVSPropertyOp31
 70
     1
102
RTVSPropertyOp32
 70
     1
  0
XRECORD
  5
14E
102
{ACAD_REACTORS
330
14D
102
}
330
14D
100
AcDbXrecord
280
     1
102
RTVSPropertyOp0
 70
     1
102
RTVSPropertyOp1
 70
     1
102
RTVSPropertyOp2
 70
     1
102
RTVSPropertyOp3
 70
     1
102
RTVSPropertyOp4
 70
     1
102
RTVSPropertyOp5
 70
     1
102
RTVSPropertyOp6
 70
     1
102
RTVSPropertyOp7
 70
     1
102
RTVSPropertyOp8
 70
     1
102
RTVSPropertyOp9
 70
     1
102
RTVSPropertyOp10
 70
     1
102
RTVSPropertyOp11
 70
     1
102
RTVSPropertyOp12
 70
     1
102
RTVSPropertyOp13
 70
     1
102
RTVSPropertyOp14
 70
     1
102
RTVSPropertyOp15
 70
     1
102
RTVSPropertyOp16
 70
     1
102
RTVSPropertyOp17
 70
     1
102
RTVSPropertyOp18
 70
     1
102
RTVSPropertyOp19
 70
     1
102
RTVSPropertyOp20
 70
     1
102
RTVSPropertyOp21
 70
     1
102
RTVSPropertyOp22
 70
     1
102
RTVSPropertyOp23
 70
     1
102
RTVSPropertyOp24
 70
     1
102
RTVSPropertyOp25
 70
     1
102
RTVSPropertyOp26
 70
     1
102
RTVSPropertyOp27
 70
     1
102
RTVSPropertyOp28
 70
     1
102
RTVSPropertyOp29
 70
     1
102
RTVSPropertyOp30
 70
     1
102
RTVSPropertyOp31
 70
     1
102
RTVSPropertyOp32
 70
     1
  0
XRECORD
  5
132
102
{ACAD_REACTORS
330
131
102
}
330
131
100
AcDbXrecord
280
     1
102
RTVSPropertyOp0
 70
     1
102
RTVSPropertyOp1
 70
     1
102
RTVSPropertyOp2
 70
     1
102
RTVSPropertyOp3
 70
     1
102
RTVSPropertyOp4
 70
     1
102
RTVSPropertyOp5
 70
     1
102
RTVSPropertyOp6
 70
     1
102
RTVSPropertyOp7
 70
     1
102
RTVSPropertyOp8
 70
     1
102
RTVSPropertyOp9
 70
     1
102
RTVSPropertyOp10
 70
     1
102
RTVSPropertyOp11
 70
     1
102
RTVSPropertyOp12
 70
     1
102
RTVSPropertyOp13
 70
     1
102
RTVSPropertyOp14
 70
     1
102
RTVSPropertyOp15
 70
     1
102
RTVSPropertyOp16
 70
     1
102
RTVSPropertyOp17
 70
     1
102
RTVSPropertyOp18
 70
     1
102
RTVSPropertyOp19
 70
     1
102
RTVSPropertyOp20
 70
     1
102
RTVSPropertyOp21
 70
     1
102
RTVSPropertyOp22
 70
     1
102
RTVSPropertyOp23
 70
     1
102
RTVSPropertyOp24
 70
     1
102
RTVSPropertyOp25
 70
     1
102
RTVSPropertyOp26
 70
     1
102
RTVSPropertyOp27
 70
     1
102
RTVSPropertyOp28
 70
     1
102
RTVSPropertyOp29
 70
     1
102
RTVSPropertyOp30
 70
     1
102
RTVSPropertyOp31
 70
     1
102
RTVSPropertyOp32
 70
     1
  0
XRECORD
  5
134
102
{ACAD_REACTORS
330
133
102
}
330
133
100
AcDbXrecord
280
     1
102
RTVSPropertyOp0
 70
     1
102
RTVSPropertyOp1
 70
     1
102
RTVSPropertyOp2
 70
     1
102
RTVSPropertyOp3
 70
     1
102
RTVSPropertyOp4
 70
     1
102
RTVSPropertyOp5
 70
     1
102
RTVSPropertyOp6
 70
     1
102
RTVSPropertyOp7
 70
     1
102
RTVSPropertyOp8
 70
     1
102
RTVSPropertyOp9
 70
     1
102
RTVSPropertyOp10
 70
     1
102
RTVSPropertyOp11
 70
     1
102
RTVSPropertyOp12
 70
     1
102
RTVSPropertyOp13
 70
     1
102
RTVSPropertyOp14
 70
     1
102
RTVSPropertyOp15
 70
     1
102
RTVSPropertyOp16
 70
     1
102
RTVSPropertyOp17
 70
     1
102
RTVSPropertyOp18
 70
     1
102
RTVSPropertyOp19
 70
     1
102
RTVSPropertyOp20
 70
     1
102
RTVSPropertyOp21
 70
     1
102
RTVSPropertyOp22
 70
     1
102
RTVSPropertyOp23
 70
     1
102
RTVSPropertyOp24
 70
     1
102
RTVSPropertyOp25
 70
     1
102
RTVSPropertyOp26
 70
     1
102
RTVSPropertyOp27
 70
     1
102
RTVSPropertyOp28
 70
     1
102
RTVSPropertyOp29
 70
     1
102
RTVSPropertyOp30
 70
     1
102
RTVSPropertyOp31
 70
     1
102
RTVSPropertyOp32
 70
     1
  0
XRECORD
  5
136
102
{ACAD_REACTORS
330
135
102
}
330
135
100
AcDbXrecord
280
     1
102
RTVSPropertyOp0
 70
     1
102
RTVSPropertyOp1
 70
     1
102
RTVSPropertyOp2
 70
     1
102
RTVSPropertyOp3
 70
     1
102
RTVSPropertyOp4
 70
     1
102
RTVSPropertyOp5
 70
     1
102
RTVSPropertyOp6
 70
     1
102
RTVSPropertyOp7
 70
     1
102
RTVSPropertyOp8
 70
     1
102
RTVSPropertyOp9
 70
     1
102
RTVSPropertyOp10
 70
     1
102
RTVSPropertyOp11
 70
     1
102
RTVSPropertyOp12
 70
     1
102
RTVSPropertyOp13
 70
     1
102
RTVSPropertyOp14
 70
     1
102
RTVSPropertyOp15
 70
     1
102
RTVSPropertyOp16
 70
     1
102
RTVSPropertyOp17
 70
     1
102
RTVSPropertyOp18
 70
     1
102
RTVSPropertyOp19
 70
     1
102
RTVSPropertyOp20
 70
     1
102
RTVSPropertyOp21
 70
     1
102
RTVSPropertyOp22
 70
     1
102
RTVSPropertyOp23
 70
     1
102
RTVSPropertyOp24
 70
     1
102
RTVSPropertyOp25
 70
     1
102
RTVSPropertyOp26
 70
     1
102
RTVSPropertyOp27
 70
     1
102
RTVSPropertyOp28
 70
     1
102
RTVSPropertyOp29
 70
     1
102
RTVSPropertyOp30
 70
     1
102
RTVSPropertyOp31
 70
     1
102
RTVSPropertyOp32
 70
     1
  0
XRECORD
  5
138
102
{ACAD_REACTORS
330
137
102
}
330
137
100
AcDbXrecord
280
     1
102
RTVSPropertyOp0
 70
     1
102
RTVSPropertyOp1
 70
     1
102
RTVSPropertyOp2
 70
     1
102
RTVSPropertyOp3
 70
     1
102
RTVSPropertyOp4
 70
     1
102
RTVSPropertyOp5
 70
     1
102
RTVSPropertyOp6
 70
     1
102
RTVSPropertyOp7
 70
     1
102
RTVSPropertyOp8
 70
     1
102
RTVSPropertyOp9
 70
     1
102
RTVSPropertyOp10
 70
     1
102
RTVSPropertyOp11
 70
     1
102
RTVSPropertyOp12
 70
     1
102
RTVSPropertyOp13
 70
     1
102
RTVSPropertyOp14
 70
     1
102
RTVSPropertyOp15
 70
     1
102
RTVSPropertyOp16
 70
     1
102
RTVSPropertyOp17
 70
     1
102
RTVSPropertyOp18
 70
     1
102
RTVSPropertyOp19
 70
     1
102
RTVSPropertyOp20
 70
     1
102
RTVSPropertyOp21
 70
     1
102
RTVSPropertyOp22
 70
     1
102
RTVSPropertyOp23
 70
     1
102
RTVSPropertyOp24
 70
     1
102
RTVSPropertyOp25
 70
     1
102
RTVSPropertyOp26
 70
     1
102
RTVSPropertyOp27
 70
     1
102
RTVSPropertyOp28
 70
     1
102
RTVSPropertyOp29
 70
     1
102
RTVSPropertyOp30
 70
     1
102
RTVSPropertyOp31
 70
     1
102
RTVSPropertyOp32
 70
     1
  0
XRECORD
  5
14C
102
{ACAD_REACTORS
330
14B
102
}
330
14B
100
AcDbXrecord
280
     1
102
RTVSPropertyOp0
 70
     1
102
RTVSPropertyOp1
 70
     1
102
RTVSPropertyOp2
 70
     1
102
RTVSPropertyOp3
 70
     1
102
RTVSPropertyOp4
 70
     1
102
RTVSPropertyOp5
 70
     1
102
RTVSPropertyOp6
 70
     1
102
RTVSPropertyOp7
 70
     1
102
RTVSPropertyOp8
 70
     1
102
RTVSPropertyOp9
 70
     1
102
RTVSPropertyOp10
 70
     1
102
RTVSPropertyOp11
 70
     1
102
RTVSPropertyOp12
 70
     1
102
RTVSPropertyOp13
 70
     1
102
RTVSPropertyOp14
 70
     1
102
RTVSPropertyOp15
 70
     1
102
RTVSPropertyOp16
 70
     1
102
RTVSPropertyOp17
 70
     1
102
RTVSPropertyOp18
 70
     1
102
RTVSPropertyOp19
 70
     1
102
RTVSPropertyOp20
 70
     1
102
RTVSPropertyOp21
 70
     1
102
RTVSPropertyOp22
 70
     1
102
RTVSPropertyOp23
 70
     1
102
RTVSPropertyOp24
 70
     1
102
RTVSPropertyOp25
 70
     1
102
RTVSPropertyOp26
 70
     1
102
RTVSPropertyOp27
 70
     1
102
RTVSPropertyOp28
 70
     1
102
RTVSPropertyOp29
 70
     1
102
RTVSPropertyOp30
 70
     1
102
RTVSPropertyOp31
 70
     1
102
RTVSPropertyOp32
 70
     1
  0
XRECORD
  5
142
102
{ACAD_REACTORS
330
141
102
}
330
141
100
AcDbXrecord
280
     1
102
RTVSPropertyOp0
 70
     1
102
RTVSPropertyOp1
 70
     1
102
RTVSPropertyOp2
 70
     1
102
RTVSPropertyOp3
 70
     1
102
RTVSPropertyOp4
 70
     1
102
RTVSPropertyOp5
 70
     1
102
RTVSPropertyOp6
 70
     1
102
RTVSPropertyOp7
 70
     1
102
RTVSPropertyOp8
 70
     1
102
RTVSPropertyOp9
 70
     1
102
RTVSPropertyOp10
 70
     1
102
RTVSPropertyOp11
 70
     1
102
RTVSPropertyOp12
 70
     1
102
RTVSPropertyOp13
 70
     1
102
RTVSPropertyOp14
 70
     1
102
RTVSPropertyOp15
 70
     1
102
RTVSPropertyOp16
 70
     1
102
RTVSPropertyOp17
 70
     1
102
RTVSPropertyOp18
 70
     1
102
RTVSPropertyOp19
 70
     1
102
RTVSPropertyOp20
 70
     1
102
RTVSPropertyOp21
 70
     1
102
RTVSPropertyOp22
 70
     1
102
RTVSPropertyOp23
 70
     1
102
RTVSPropertyOp24
 70
     1
102
RTVSPropertyOp25
 70
     1
102
RTVSPropertyOp26
 70
     1
102
RTVSPropertyOp27
 70
     1
102
RTVSPropertyOp28
 70
     1
102
RTVSPropertyOp29
 70
     1
102
RTVSPropertyOp30
 70
     1
102
RTVSPropertyOp31
 70
     1
102
RTVSPropertyOp32
 70
     1
  0
XRECORD
  5
14A
102
{ACAD_REACTORS
330
149
102
}
330
149
100
AcDbXrecord
280
     1
102
RTVSPropertyOp0
 70
     1
102
RTVSPropertyOp1
 70
     1
102
RTVSPropertyOp2
 70
     1
102
RTVSPropertyOp3
 70
     1
102
RTVSPropertyOp4
 70
     1
102
RTVSPropertyOp5
 70
     1
102
RTVSPropertyOp6
 70
     1
102
RTVSPropertyOp7
 70
     1
102
RTVSPropertyOp8
 70
     1
102
RTVSPropertyOp9
 70
     1
102
RTVSPropertyOp10
 70
     1
102
RTVSPropertyOp11
 70
     1
102
RTVSPropertyOp12
 70
     1
102
RTVSPropertyOp13
 70
     1
102
RTVSPropertyOp14
 70
     1
102
RTVSPropertyOp15
 70
     1
102
RTVSPropertyOp16
 70
     1
102
RTVSPropertyOp17
 70
     1
102
RTVSPropertyOp18
 70
     1
102
RTVSPropertyOp19
 70
     1
102
RTVSPropertyOp20
 70
     1
102
RTVSPropertyOp21
 70
     1
102
RTVSPropertyOp22
 70
     1
102
RTVSPropertyOp23
 70
     1
102
RTVSPropertyOp24
 70
     1
102
RTVSPropertyOp25
 70
     1
102
RTVSPropertyOp26
 70
     1
102
RTVSPropertyOp27
 70
     1
102
RTVSPropertyOp28
 70
     1
102
RTVSPropertyOp29
 70
     1
102
RTVSPropertyOp30
 70
     1
102
RTVSPropertyOp31
 70
     1
102
RTVSPropertyOp32
 70
     1
  0
ENDSEC
  0
EOF
