  0
SECTION
  2
HEADER
  9
$ACADVER
  1
AC1015
  9
$ACADMAINTVER
 70
     6
  9
$DWGCODEPAGE
  3
ANSI_932
  9
$INSBASE
 10
0.0
 20
0.0
 30
0.0
  9
$EXTMIN
 10
0.0
 20
0.0
 30
0.0
  9
$EXTMAX
 10
210.0000000000001
 20
297.0
 30
0.0
  9
$LIMMIN
 10
0.0
 20
0.0
  9
$LIMMAX
 10
12.0
 20
9.0
  9
$ORTHOMODE
 70
     0
  9
$REGENMODE
 70
     1
  9
$FILLMODE
 70
     1
  9
$QTEXTMODE
 70
     0
  9
$MIRRTEXT
 70
     1
  9
$LTSCALE
 40
1.0
  9
$ATTMODE
 70
     1
  9
$TEXTSIZE
 40
0.2
  9
$TRACEWID
 40
0.05
  9
$TEXTSTYLE
  7
Standard
  9
$CLAYER
  8
0
  9
$CELTYPE
  6
ByLayer
  9
$CECOLOR
 62
   256
  9
$CELTSCALE
 40
1.0
  9
$DISPSILH
 70
     0
  9
$DIMSCALE
 40
1.0
  9
$DIMASZ
 40
0.18
  9
$DIMEXO
 40
0.0625
  9
$DIMDLI
 40
0.38
  9
$DIMRND
 40
0.0
  9
$DIMDLE
 40
0.0
  9
$DIMEXE
 40
0.18
  9
$DIMTP
 40
0.0
  9
$DIMTM
 40
0.0
  9
$DIMTXT
 40
0.18
  9
$DIMCEN
 40
0.09
  9
$DIMTSZ
 40
0.0
  9
$DIMTOL
 70
     0
  9
$DIMLIM
 70
     0
  9
$DIMTIH
 70
     1
  9
$DIMTOH
 70
     1
  9
$DIMSE1
 70
     0
  9
$DIMSE2
 70
     0
  9
$DIMTAD
 70
     0
  9
$DIMZIN
 70
     0
  9
$DIMBLK
  1

  9
$DIMASO
 70
     1
  9
$DIMSHO
 70
     1
  9
$DIMPOST
  1

  9
$DIMAPOST
  1

  9
$DIMALT
 70
     0
  9
$DIMALTD
 70
     2
  9
$DIMALTF
 40
25.4
  9
$DIMLFAC
 40
1.0
  9
$DIMTOFL
 70
     0
  9
$DIMTVP
 40
0.0
  9
$DIMTIX
 70
     0
  9
$DIMSOXD
 70
     0
  9
$DIMSAH
 70
     0
  9
$DIMBLK1
  1

  9
$DIMBLK2
  1

  9
$DIMSTYLE
  2
Standard
  9
$DIMCLRD
 70
     0
  9
$DIMCLRE
 70
     0
  9
$DIMCLRT
 70
     0
  9
$DIMTFAC
 40
1.0
  9
$DIMGAP
 40
0.09
  9
$DIMJUST
 70
     0
  9
$DIMSD1
 70
     0
  9
$DIMSD2
 70
     0
  9
$DIMTOLJ
 70
     1
  9
$DIMTZIN
 70
     0
  9
$DIMALTZ
 70
     0
  9
$DIMALTTZ
 70
     0
  9
$DIMUPT
 70
     0
  9
$DIMDEC
 70
     4
  9
$DIMTDEC
 70
     4
  9
$DIMALTU
 70
     2
  9
$DIMALTTD
 70
     2
  9
$DIMTXSTY
  7
Standard
  9
$DIMAUNIT
 70
     0
  9
$DIMADEC
 70
     0
  9
$DIMALTRND
 40
0.0
  9
$DIMAZIN
 70
     0
  9
$DIMDSEP
 70
    46
  9
$DIMATFIT
 70
     3
  9
$DIMFRAC
 70
     0
  9
$DIMLDRBLK
  1

  9
$DIMLUNIT
 70
     2
  9
$DIMLWD
 70
    -2
  9
$DIMLWE
 70
    -2
  9
$DIMTMOVE
 70
     0
  9
$LUNITS
 70
     2
  9
$LUPREC
 70
     4
  9
$SKETCHINC
 40
0.1
  9
$FILLETRAD
 40
0.5
  9
$AUNITS
 70
     0
  9
$AUPREC
 70
     0
  9
$MENU
  1
.
  9
$ELEVATION
 40
0.0
  9
$PELEVATION
 40
0.0
  9
$THICKNESS
 40
0.0
  9
$LIMCHECK
 70
     0
  9
$CHAMFERA
 40
0.5
  9
$CHAMFERB
 40
0.5
  9
$CHAMFERC
 40
1.0
  9
$CHAMFERD
 40
0.0
  9
$SKPOLY
 70
     0
  9
$TDCREATE
 40
2459787.440862951
  9
$TDUCREATE
 40
2459787.065862951
  9
$TDUPDATE
 40
2459787.440864398
  9
$TDUUPDATE
 40
2459787.065864398
  9
$TDINDWG
 40
0.0000000116
  9
$TDUSRTIMER
 40
0.0000000116
  9
$USRTIMER
 70
     1
  9
$ANGBASE
 50
0.0
  9
$ANGDIR
 70
     0
  9
$PDMODE
 70
     0
  9
$PDSIZE
 40
0.0
  9
$PLINEWID
 40
0.0
  9
$SPLFRAME
 70
     0
  9
$SPLINETYPE
 70
     6
  9
$SPLINESEGS
 70
     8
  9
$HANDSEED
  5
163
  9
$SURFTAB1
 70
     6
  9
$SURFTAB2
 70
     6
  9
$SURFTYPE
 70
     6
  9
$SURFU
 70
     6
  9
$SURFV
 70
     6
  9
$UCSBASE
  2

  9
$UCSNAME
  2

  9
$UCSORG
 10
0.0
 20
0.0
 30
0.0
  9
$UCSXDIR
 10
1.0
 20
0.0
 30
0.0
  9
$UCSYDIR
 10
0.0
 20
1.0
 30
0.0
  9
$UCSORTHOREF
  2

  9
$UCSORTHOVIEW
 70
     0
  9
$UCSORGTOP
 10
0.0
 20
0.0
 30
0.0
  9
$UCSORGBOTTOM
 10
0.0
 20
0.0
 30
0.0
  9
$UCSORGLEFT
 10
0.0
 20
0.0
 30
0.0
  9
$UCSORGRIGHT
 10
0.0
 20
0.0
 30
0.0
  9
$UCSORGFRONT
 10
0.0
 20
0.0
 30
0.0
  9
$UCSORGBACK
 10
0.0
 20
0.0
 30
0.0
  9
$PUCSBASE
  2

  9
$PUCSNAME
  2

  9
$PUCSORG
 10
0.0
 20
0.0
 30
0.0
  9
$PUCSXDIR
 10
1.0
 20
0.0
 30
0.0
  9
$PUCSYDIR
 10
0.0
 20
1.0
 30
0.0
  9
$PUCSORTHOREF
  2

  9
$PUCSORTHOVIEW
 70
     0
  9
$PUCSORGTOP
 10
0.0
 20
0.0
 30
0.0
  9
$PUCSORGBOTTOM
 10
0.0
 20
0.0
 30
0.0
  9
$PUCSORGLEFT
 10
0.0
 20
0.0
 30
0.0
  9
$PUCSORGRIGHT
 10
0.0
 20
0.0
 30
0.0
  9
$PUCSORGFRONT
 10
0.0
 20
0.0
 30
0.0
  9
$PUCSORGBACK
 10
0.0
 20
0.0
 30
0.0
  9
$USERI1
 70
     0
  9
$USERI2
 70
     0
  9
$USERI3
 70
     0
  9
$USERI4
 70
     0
  9
$USERI5
 70
     0
  9
$USERR1
 40
18.1
  9
$USERR2
 40
0.0
  9
$USERR3
 40
0.0
  9
$USERR4
 40
0.0
  9
$USERR5
 40
0.0
  9
$WORLDVIEW
 70
     1
  9
$SHADEDGE
 70
     3
  9
$SHADEDIF
 70
    70
  9
$TILEMODE
 70
     1
  9
$MAXACTVP
 70
    64
  9
$PINSBASE
 10
0.0
 20
0.0
 30
0.0
  9
$PLIMCHECK
 70
     0
  9
$PEXTMIN
 10
1.00000000000000E+20
 20
1.00000000000000E+20
 30
1.00000000000000E+20
  9
$PEXTMAX
 10
-1.00000000000000E+20
 20
-1.00000000000000E+20
 30
-1.00000000000000E+20
  9
$PLIMMIN
 10
0.0
 20
0.0
  9
$PLIMMAX
 10
12.0
 20
9.0
  9
$UNITMODE
 70
     0
  9
$VISRETAIN
 70
     1
  9
$PLINEGEN
 70
     0
  9
$PSLTSCALE
 70
     1
  9
$TREEDEPTH
 70
  3020
  9
$CMLSTYLE
  2
Standard
  9
$CMLJUST
 70
     0
  9
$CMLSCALE
 40
1.0
  9
$PROXYGRAPHICS
 70
     1
  9
$MEASUREMENT
 70
     1
  9
$CELWEIGHT
370
    -1
  9
$ENDCAPS
280
     0
  9
$JOINSTYLE
280
     0
  9
$LWDISPLAY
290
     0
  9
$INSUNITS
 70
     4
  9
$HYPERLINKBASE
  1

  9
$STYLESHEET
  1

  9
$XEDIT
290
     1
  9
$CEPSNTYPE
380
     0
  9
$PSTYLEMODE
290
     1
  9
$FINGERPRINTGUID
  2
{85B1CCD4-A7AE-43A0-B719-8827A49BF49A}
  9
$VERSIONGUID
  2
{FAEB1C32-E019-11D5-929B-00C0DF256EC4}
  9
$EXTNAMES
290
     1
  9
$PSVPSCALE
 40
0.0
  9
$OLESTARTUP
290
     0
  0
ENDSEC
  0
SECTION
  2
CLASSES
  0
CLASS
  1
ACDBDICTIONARYWDFLT
  2
AcDbDictionaryWithDefault
  3
ObjectDBX Classes
 90
        0
280
     0
281
     0
  0
CLASS
  1
VISUALSTYLE
  2
AcDbVisualStyle
  3
ObjectDBX Classes
 90
     4095
280
     0
281
     0
  0
CLASS
  1
MATERIAL
  2
AcDbMaterial
  3
ObjectDBX Classes
 90
     1153
280
     0
281
     0
  0
CLASS
  1
DICTIONARYVAR
  2
AcDbDictionaryVar
  3
ObjectDBX Classes
 90
        0
280
     0
281
     0
  0
CLASS
  1
ACDBPLACEHOLDER
  2
AcDbPlaceHolder
  3
ObjectDBX Classes
 90
        0
280
     0
281
     0
  0
CLASS
  1
LAYOUT
  2
AcDbLayout
  3
ObjectDBX Classes
 90
        0
280
     0
281
     0
  0
ENDSEC
  0
SECTION
  2
TABLES
  0
TABLE
  2
VPORT
  5
8
330
0
100
AcDbSymbolTable
 70
     1
  0
VPORT
  5
29
330
8
100
AcDbSymbolTableRecord
100
AcDbViewportTableRecord
  2
*Active
 70
     0
 10
0.0
 20
0.0
 11
1.0
 21
1.0
 12
105.0000000000001
 22
148.5
 13
0.0
 23
0.0
 14
0.5
 24
0.5
 15
0.5
 25
0.5
 16
0.0
 26
0.0
 36
1.0
 17
0.0
 27
0.0
 37
0.0
 40
326.7
 41
1.60267857142857
 42
50.0
 43
0.0
 44
0.0
 50
0.0
 51
0.0
 71
     0
 72
   100
 73
     1
 74
     3
 75
     0
 76
     0
 77
     0
 78
     0
281
     0
 65
     1
110
0.0
120
0.0
130
0.0
111
1.0
121
0.0
131
0.0
112
0.0
122
1.0
132
0.0
 79
     0
146
0.0
  0
ENDTAB
  0
TABLE
  2
LTYPE
  5
5
330
0
100
AcDbSymbolTable
 70
     8
  0
LTYPE
  5
14
330
5
100
AcDbSymbolTableRecord
100
AcDbLinetypeTableRecord
  2
ByBlock
 70
     0
  3

 72
    65
 73
     0
 40
0.0
  0
LTYPE
  5
15
330
5
100
AcDbSymbolTableRecord
100
AcDbLinetypeTableRecord
  2
ByLayer
 70
     0
  3

 72
    65
 73
     0
 40
0.0
  0
LTYPE
  5
16
330
5
100
AcDbSymbolTableRecord
100
AcDbLinetypeTableRecord
  2
Continuous
 70
     0
  3
Solid line
 72
    65
 73
     0
 40
0.0
  0
LTYPE
  5
3F
330
5
100
AcDbSymbolTableRecord
100
AcDbLinetypeTableRecord
  2
DASHED
 70
     0
  3
Dashed
 72
    65
 73
     2
 40
15.0
 49
7.0
 74
     0
 49
-8.0
 74
     0
  0
LTYPE
  5
40
330
5
100
AcDbSymbolTableRecord
100
AcDbLinetypeTableRecord
  2
DOTTED
 70
     0
  3
Dotted
 72
    65
 73
     2
 40
1.0
 49
0.0
 74
     0
 49
-1.0
 74
     0
  0
LTYPE
  5
41
330
5
100
AcDbSymbolTableRecord
100
AcDbLinetypeTableRecord
  2
DOT_CENTER
 70
     0
  3
Dot_Center
 72
    65
 73
     4
 40
14.0
 49
12.0
 74
     0
 49
-1.0
 74
     0
 49
0.0
 74
     0
 49
-1.0
 74
     0
  0
LTYPE
  5
42
330
5
100
AcDbSymbolTableRecord
100
AcDbLinetypeTableRecord
  2
LONG_DASHED
 70
     0
  3
Long_Dashed
 72
    65
 73
     2
 40
15.0
 49
10.0
 74
     0
 49
-5.0
 74
     0
  0
LTYPE
  5
43
330
5
100
AcDbSymbolTableRecord
100
AcDbLinetypeTableRecord
  2
DASH_CENTER
 70
     0
  3
Dash_Center
 72
    65
 73
     4
 40
14.0
 49
11.0
 74
     0
 49
-1.0
 74
     0
 49
1.0
 74
     0
 49
-1.0
 74
     0
  0
LTYPE
  5
44
330
5
100
AcDbSymbolTableRecord
100
AcDbLinetypeTableRecord
  2
PHANTOM
 70
     0
  3
Phantom
 72
    65
 73
     6
 40
13.0
 49
10.0
 74
     0
 49
-1.0
 74
     0
 49
0.0
 74
     0
 49
-1.0
 74
     0
 49
0.0
 74
     0
 49
-1.0
 74
     0
  0
LTYPE
  5
45
330
5
100
AcDbSymbolTableRecord
100
AcDbLinetypeTableRecord
  2
CENTER_DASH_DASH
 70
     0
  3
Center_Dash_Dash
 72
    65
 73
     6
 40
14.0
 49
9.0
 74
     0
 49
-1.0
 74
     0
 49
1.0
 74
     0
 49
-1.0
 74
     0
 49
1.0
 74
     0
 49
-1.0
 74
     0
  0
ENDTAB
  0
TABLE
  2
LAYER
  5
2
330
0
100
AcDbSymbolTable
 70
     3
  0
LAYER
  5
10
330
2
100
AcDbSymbolTableRecord
100
AcDbLayerTableRecord
  2
0
 70
     0
 62
     7
  6
Continuous
370
    -3
390
F
  0
LAYER
  5
46
330
2
100
AcDbSymbolTableRecord
100
AcDbLayerTableRecord
  2
1
 70
     0
 62
     7
  6
Continuous
370
    -3
390
F
  0
LAYER
  5
47
330
2
100
AcDbSymbolTableRecord
100
AcDbLayerTableRecord
  2
_U_30EC_U_30A4_U_30E4_U_30FC_1
 70
     0
 62
     7
  6
Continuous
370
    -3
390
F
  0
ENDTAB
  0
TABLE
  2
STYLE
  5
3
330
0
100
AcDbSymbolTable
 70
     3
  0
STYLE
  5
11
330
3
100
AcDbSymbolTableRecord
100
AcDbTextStyleTableRecord
  2
Standard
 70
     0
 40
0.0
 41
1.0
 50
0.0
 71
     0
 42
0.2
  3
txt
  4

  0
STYLE
  5
BA
330
3
100
AcDbSymbolTableRecord
100
AcDbTextStyleTableRecord
  2
CONVERTER_11
 70
     0
 40
0.0
 41
0.89
 50
0.0
 71
     0
 42
0.2
  3
MS Mincho.ttf
  4

1001
ACAD
1000
MS Mincho
1071
    32785
  0
STYLE
  5
EA
330
3
100
AcDbSymbolTableRecord
100
AcDbTextStyleTableRecord
  2
CONVERTER_12
 70
     0
 40
0.0
 41
0.9
 50
0.0
 71
     0
 42
0.2
  3
txt.shx
  4

  0
ENDTAB
  0
TABLE
  2
VIEW
  5
6
330
0
100
AcDbSymbolTable
 70
     0
  0
ENDTAB
  0
TABLE
  2
UCS
  5
7
330
0
100
AcDbSymbolTable
 70
     0
  0
ENDTAB
  0
TABLE
  2
APPID
  5
9
330
0
100
AcDbSymbolTable
 70
     1
  0
APPID
  5
12
330
9
100
AcDbSymbolTableRecord
100
AcDbRegAppTableRecord
  2
ACAD
 70
     0
  0
ENDTAB
  0
TABLE
  2
DIMSTYLE
  5
A
330
0
100
AcDbSymbolTable
 70
     5
100
AcDbDimStyleTable
  0
DIMSTYLE
105
27
330
A
100
AcDbSymbolTableRecord
100
AcDbDimStyleTableRecord
  2
Standard
 70
     0
178
     0
340
11
  0
DIMSTYLE
105
101
102
{ACAD_REACTORS
330
102
102
}
330
A
100
AcDbSymbolTableRecord
100
AcDbDimStyleTableRecord
  2
ME10_DIM_10
 70
     0
  3
{\Fgdt;n}<>
 41
3.5
 42
0.0
 44
1.0
 73
     0
 74
     0
 77
     1
 78
     8
140
3.5
147
1.0
172
     1
173
     1
174
     1
175
     1
176
     2
177
     2
271
     2
178
     7
271
     2
340
EA
  0
DIMSTYLE
105
10C
102
{ACAD_REACTORS
330
10D
102
}
330
A
100
AcDbSymbolTableRecord
100
AcDbDimStyleTableRecord
  2
ME10_DIM_11
 70
     0
  3
{\Fgdt;n}<>
 41
3.5
 42
0.0
 44
1.0
 73
     0
 74
     0
 77
     1
 78
     8
140
3.5
147
1.0
172
     1
173
     1
174
     1
175
     1
176
     2
177
     2
271
     2
178
     7
271
     2
340
EA
  0
DIMSTYLE
105
119
102
{ACAD_REACTORS
330
11A
102
}
330
A
100
AcDbSymbolTableRecord
100
AcDbDimStyleTableRecord
  2
ME10_DIM_12
 70
     0
 41
3.5
 42
0.0
 44
1.0
 73
     0
 74
     0
 77
     1
 78
     8
140
3.5
147
1.0
172
     1
173
     1
174
     1
175
     1
176
     2
177
     2
271
     2
178
     7
271
     2
340
EA
  0
DIMSTYLE
105
126
102
{ACAD_REACTORS
330
127
102
}
330
A
100
AcDbSymbolTableRecord
100
AcDbDimStyleTableRecord
  2
ME10_DIM_13
 70
     0
 41
3.5
 42
0.0
 44
1.0
 73
     0
 74
     0
 77
     1
 78
     8
140
3.5
147
1.0
172
     1
173
     1
174
     1
175
     1
176
     2
177
     2
271
     2
178
     7
271
     2
340
EA
  0
ENDTAB
  0
TABLE
  2
BLOCK_RECORD
  5
1
330
0
100
AcDbSymbolTable
 70
    11
  0
BLOCK_RECORD
  5
1F
330
1
100
AcDbSymbolTableRecord
100
AcDbBlockTableRecord
  2
*Model_Space
340
22
  0
BLOCK_RECORD
  5
1B
330
1
100
AcDbSymbolTableRecord
100
AcDbBlockTableRecord
  2
*Paper_Space
340
1E
  0
BLOCK_RECORD
  5
23
330
1
100
AcDbSymbolTableRecord
100
AcDbBlockTableRecord
  2
*Paper_Space0
340
26
  0
BLOCK_RECORD
  5
48
330
1
100
AcDbSymbolTableRecord
100
AcDbBlockTableRecord
  2
開示A4
340
0
102
{BLKREFS
331
4C
102
}
  0
BLOCK_RECORD
  5
4B
330
1
100
AcDbSymbolTableRecord
100
AcDbBlockTableRecord
  2
開示A4枠
340
0
102
{BLKREFS
331
55
102
}
  0
BLOCK_RECORD
  5
4F
330
1
100
AcDbSymbolTableRecord
100
AcDbBlockTableRecord
  2
88-8
340
0
102
{BLKREFS
331
56
102
}
  0
BLOCK_RECORD
  5
52
330
1
100
AcDbSymbolTableRecord
100
AcDbBlockTableRecord
  2
92-14
340
0
102
{BLKREFS
331
57
102
}
  0
BLOCK_RECORD
  5
F8
330
1
100
AcDbSymbolTableRecord
100
AcDbBlockTableRecord
  2
*D5
340
0
  0
BLOCK_RECORD
  5
103
330
1
100
AcDbSymbolTableRecord
100
AcDbBlockTableRecord
  2
*D6
340
0
  0
BLOCK_RECORD
  5
10E
330
1
100
AcDbSymbolTableRecord
100
AcDbBlockTableRecord
  2
*D7
340
0
  0
BLOCK_RECORD
  5
11B
330
1
100
AcDbSymbolTableRecord
100
AcDbBlockTableRecord
  2
*D8
340
0
  0
BLOCK_RECORD
  5
128
330
1
100
AcDbSymbolTableRecord
100
AcDbBlockTableRecord
  2
*D9
340
0
102
{BLKREFS
331
12F
102
}
  0
BLOCK_RECORD
  5
130
330
1
100
AcDbSymbolTableRecord
100
AcDbBlockTableRecord
  2
*D10
340
0
102
{BLKREFS
331
137
102
}
  0
ENDTAB
  0
ENDSEC
  0
SECTION
  2
BLOCKS
  0
BLOCK
  5
20
330
1F
100
AcDbEntity
  8
0
100
AcDbBlockBegin
  2
*Model_Space
 70
     0
 10
0.0
 20
0.0
 30
0.0
  3
*Model_Space
  1

  0
ENDBLK
  5
21
330
1F
100
AcDbEntity
  8
0
100
AcDbBlockEnd
  0
BLOCK
  5
1C
330
1B
100
AcDbEntity
 67
     1
  8
0
100
AcDbBlockBegin
  2
*Paper_Space
 70
     0
 10
0.0
 20
0.0
 30
0.0
  3
*Paper_Space
  1

  0
ENDBLK
  5
1D
330
1B
100
AcDbEntity
 67
     1
  8
0
100
AcDbBlockEnd
  0
BLOCK
  5
24
330
23
100
AcDbEntity
  8
0
100
AcDbBlockBegin
  2
*Paper_Space0
 70
     0
 10
0.0
 20
0.0
 30
0.0
  3
*Paper_Space0
  1

  0
ENDBLK
  5
25
330
23
100
AcDbEntity
  8
0
100
AcDbBlockEnd
  0
BLOCK
  5
49
330
48
100
AcDbEntity
  8
0
100
AcDbBlockBegin
  2
開示A4
 70
     0
 10
0.0
 20
0.0
 30
0.0
  3
開示A4
  1

  0
POINT
  5
58
330
48
100
AcDbEntity
  8
1
 62
     4
100
AcDbPoint
 10
183.0000000000001
 20
15.00000000000001
 30
0.0
  0
POINT
  5
59
330
48
100
AcDbEntity
  8
1
 62
     4
100
AcDbPoint
 10
93.75
 20
17.0
 30
0.0
  0
POINT
  5
5A
330
48
100
AcDbEntity
  8
1
 62
     4
100
AcDbPoint
 10
85.25
 20
17.0
 30
0.0
  0
POINT
  5
5B
330
48
100
AcDbEntity
  8
1
 62
     4
100
AcDbPoint
 10
106.5
 20
19.00000000000001
 30
0.0
  0
POINT
  5
5C
330
48
100
AcDbEntity
  8
1
 62
     4
100
AcDbPoint
 10
106.5
 20
12.5
 30
0.0
  0
POINT
  5
5D
330
48
100
AcDbEntity
  8
1
 62
     4
100
AcDbPoint
 10
112.25
 20
12.5
 30
0.0
  0
POINT
  5
5E
330
48
100
AcDbEntity
  8
1
 62
     4
100
AcDbPoint
 10
100.75
 20
12.5
 30
0.0
  0
POINT
  5
5F
330
48
100
AcDbEntity
  8
1
 62
     4
100
AcDbPoint
 10
123.5
 20
19.00000000000001
 30
0.0
  0
POINT
  5
60
330
48
100
AcDbEntity
  8
1
 62
     4
100
AcDbPoint
 10
123.5
 20
12.5
 30
0.0
  0
POINT
  5
61
330
48
100
AcDbEntity
  8
1
 62
     4
100
AcDbPoint
 10
129.2500000000001
 20
12.5
 30
0.0
  0
POINT
  5
62
330
48
100
AcDbEntity
  8
1
 62
     4
100
AcDbPoint
 10
117.75
 20
12.5
 30
0.0
  0
POINT
  5
63
330
48
100
AcDbEntity
  8
1
 62
     4
100
AcDbPoint
 10
140.5000000000001
 20
19.00000000000001
 30
0.0
  0
POINT
  5
64
330
48
100
AcDbEntity
  8
1
 62
     4
100
AcDbPoint
 10
140.5000000000001
 20
12.5
 30
0.0
  0
POINT
  5
65
330
48
100
AcDbEntity
  8
1
 62
     4
100
AcDbPoint
 10
146.2500000000001
 20
12.5
 30
0.0
  0
POINT
  5
66
330
48
100
AcDbEntity
  8
1
 62
     4
100
AcDbPoint
 10
134.7500000000001
 20
12.5
 30
0.0
  0
POINT
  5
67
330
48
100
AcDbEntity
  8
1
 62
     4
100
AcDbPoint
 10
151.7500000000001
 20
12.5
 30
0.0
  0
POINT
  5
68
330
48
100
AcDbEntity
  8
1
 62
     4
100
AcDbPoint
 10
163.2500000000001
 20
12.5
 30
0.0
  0
POINT
  5
69
330
48
100
AcDbEntity
  8
1
 62
     4
100
AcDbPoint
 10
157.5000000000001
 20
12.5
 30
0.0
  0
POINT
  5
6A
330
48
100
AcDbEntity
  8
1
 62
     4
100
AcDbPoint
 10
57.0
 20
14.25
 30
0.0
  0
POINT
  5
6B
330
48
100
AcDbEntity
  8
1
 62
     4
100
AcDbPoint
 10
57.0
 20
22.75000000000001
 30
0.0
  0
POINT
  5
6C
330
48
100
AcDbEntity
  8
1
 62
     4
100
AcDbPoint
 10
47.5
 20
282.0000000000003
 30
0.0
  0
POINT
  5
6D
330
48
100
AcDbEntity
  8
1
 62
     4
100
AcDbPoint
 10
157.5000000000001
 20
19.00000000000001
 30
0.0
  0
POINT
  5
6E
330
48
100
AcDbEntity
  8
1
 62
     4
100
AcDbPoint
 10
57.0
 20
16.25
 30
0.0
  0
POINT
  5
6F
330
48
100
AcDbEntity
  8
1
 62
     4
100
AcDbPoint
 10
57.0
 20
24.75000000000001
 30
0.0
  0
POINT
  5
70
330
48
100
AcDbEntity
  8
1
 62
     4
100
AcDbPoint
 10
57.0
 20
20.75000000000001
 30
0.0
  0
POINT
  5
71
330
48
100
AcDbEntity
  8
1
 62
     4
100
AcDbPoint
 10
57.0
 20
12.25
 30
0.0
  0
POINT
  5
72
330
48
100
AcDbEntity
  8
1
 62
     4
100
AcDbPoint
 10
34.0
 20
34.0
 30
0.0
  0
LINE
  5
77
330
48
100
AcDbEntity
  8
1
  6
Continuous
 62
     7
100
AcDbLine
 10
105.0
 20
10.0
 30
0.0
 11
200.0000000000001
 21
10.0
 31
0.0
  0
LINE
  5
78
330
48
100
AcDbEntity
  8
1
  6
Continuous
 62
     2
100
AcDbLine
 10
105.0
 20
10.0
 30
0.0
 11
105.0
 21
5.0
 31
0.0
  0
LINE
  5
79
330
48
100
AcDbEntity
  8
1
  6
Continuous
 62
     7
100
AcDbLine
 10
200.0000000000001
 20
148.5
 30
0.0
 11
200.0000000000001
 21
287.0000000000003
 31
0.0
  0
LINE
  5
7A
330
48
100
AcDbEntity
  8
1
  6
Continuous
 62
     2
100
AcDbLine
 10
200.0000000000001
 20
148.5
 30
0.0
 11
205.0000000000001
 21
148.5
 31
0.0
  0
LINE
  5
7B
330
48
100
AcDbEntity
  8
1
  6
Continuous
 62
     7
100
AcDbLine
 10
25.0
 20
148.5
 30
0.0
 11
25.0
 21
287.0000000000003
 31
0.0
  0
LINE
  5
7C
330
48
100
AcDbEntity
  8
1
  6
Continuous
 62
     2
100
AcDbLine
 10
25.0
 20
148.5
 30
0.0
 11
20.0
 21
148.5
 31
0.0
  0
LINE
  5
7D
330
48
100
AcDbEntity
  8
1
  6
Continuous
 62
     7
100
AcDbLine
 10
105.0
 20
287.0000000000003
 30
0.0
 11
25.0
 21
287.0000000000003
 31
0.0
  0
LINE
  5
7E
330
48
100
AcDbEntity
  8
1
  6
Continuous
 62
     2
100
AcDbLine
 10
105.0
 20
287.0000000000003
 30
0.0
 11
105.0
 21
292.0000000000003
 31
0.0
  0
LINE
  5
7F
330
48
100
AcDbEntity
  8
1
  6
Continuous
 62
     2
100
AcDbLine
 10
166.0000000000001
 20
20.00000000000001
 30
0.0
 11
200.0000000000001
 21
20.00000000000001
 31
0.0
  0
LINE
  5
80
330
48
100
AcDbEntity
  8
1
  6
Continuous
 62
     2
100
AcDbLine
 10
98.0
 20
27.00000000000001
 30
0.0
 11
98.0
 21
9.99999999999999
 31
0.0
  0
LINE
  5
81
330
48
100
AcDbEntity
  8
1
  6
Continuous
 62
     2
100
AcDbLine
 10
115.0
 20
27.00000000000001
 30
0.0
 11
115.0
 21
9.99999999999999
 31
0.0
  0
LINE
  5
82
330
48
100
AcDbEntity
  8
1
  6
Continuous
 62
     2
100
AcDbLine
 10
149.0000000000001
 20
27.00000000000001
 30
0.0
 11
149.0000000000001
 21
10.0
 31
0.0
  0
LINE
  5
83
330
48
100
AcDbEntity
  8
1
  6
Continuous
 62
     2
100
AcDbLine
 10
132.0000000000001
 20
27.00000000000001
 30
0.0
 11
132.0000000000001
 21
9.99999999999999
 31
0.0
  0
LINE
  5
84
330
48
100
AcDbEntity
  8
1
  6
Continuous
 62
     2
100
AcDbLine
 10
166.0000000000001
 20
27.00000000000001
 30
0.0
 11
166.0000000000001
 21
10.0
 31
0.0
  0
LINE
  5
85
330
48
100
AcDbEntity
  8
1
  6
Continuous
 62
     2
100
AcDbLine
 10
55.0
 20
277.0000000000003
 30
0.0
 11
25.0
 21
277.0000000000003
 31
0.0
  0
LINE
  5
86
330
48
100
AcDbEntity
  8
1
  6
Continuous
 62
     7
100
AcDbLine
 10
25.0
 20
10.0
 30
0.0
 11
25.0
 21
148.5
 31
0.0
  0
LINE
  5
87
330
48
100
AcDbEntity
  8
1
  6
Continuous
 62
     2
100
AcDbLine
 10
40.0
 20
287.0000000000003
 30
0.0
 11
40.0
 21
277.0000000000003
 31
0.0
  0
LINE
  5
88
330
48
100
AcDbEntity
  8
1
  6
Continuous
 62
     2
100
AcDbLine
 10
55.0
 20
287.0000000000003
 30
0.0
 11
55.0
 21
277.0000000000003
 31
0.0
  0
LINE
  5
89
330
48
100
AcDbEntity
  8
1
  6
Continuous
 62
     2
100
AcDbLine
 10
33.0
 20
41.0
 30
0.0
 11
33.0
 21
27.0
 31
0.0
  0
LINE
  5
8A
330
48
100
AcDbEntity
  8
1
  6
Continuous
 62
     7
100
AcDbLine
 10
200.0000000000001
 20
27.00000000000001
 30
0.0
 11
25.0
 21
27.00000000000001
 31
0.0
  0
LINE
  5
8B
330
48
100
AcDbEntity
  8
1
  6
Continuous
 62
     7
100
AcDbLine
 10
25.0
 20
41.0
 30
0.0
 11
200.0000000000001
 21
41.0
 31
0.0
  0
LINE
  5
8C
330
48
100
AcDbEntity
  8
1
  6
PHANTOM
 62
     4
100
AcDbLine
 10
0.0
 20
0.0
 30
0.0
 11
210.0000000000001
 21
0.0
 31
0.0
  0
LINE
  5
8D
330
48
100
AcDbEntity
  8
1
  6
PHANTOM
 62
     4
100
AcDbLine
 10
210.0000000000001
 20
0.0
 30
0.0
 11
210.0000000000001
 21
297.0
 31
0.0
  0
LINE
  5
8E
330
48
100
AcDbEntity
  8
1
  6
PHANTOM
 62
     4
100
AcDbLine
 10
210.0000000000001
 20
297.0
 30
0.0
 11
0.0
 21
297.0
 31
0.0
  0
LINE
  5
8F
330
48
100
AcDbEntity
  8
1
  6
PHANTOM
 62
     4
100
AcDbLine
 10
0.0
 20
297.0
 30
0.0
 11
0.0
 21
0.0
 31
0.0
  0
LINE
  5
90
330
48
100
AcDbEntity
  8
1
  6
Continuous
 62
     7
100
AcDbLine
 10
25.0
 20
10.0
 30
0.0
 11
105.0
 21
10.0
 31
0.0
  0
LINE
  5
91
330
48
100
AcDbEntity
  8
1
  6
Continuous
 62
     7
100
AcDbLine
 10
200.0000000000001
 20
10.0
 30
0.0
 11
200.0000000000001
 21
148.5
 31
0.0
  0
LINE
  5
92
330
48
100
AcDbEntity
  8
1
  6
Continuous
 62
     7
100
AcDbLine
 10
200.0000000000001
 20
287.0000000000003
 30
0.0
 11
105.0
 21
287.0000000000003
 31
0.0
  0
LINE
  5
93
330
48
100
AcDbEntity
  8
1
  6
Continuous
 62
     2
100
AcDbLine
 10
25.0
 20
18.50000000000001
 30
0.0
 11
81.0
 21
18.50000000000001
 31
0.0
  0
LINE
  5
94
330
48
100
AcDbEntity
  8
1
  6
Continuous
 62
     2
100
AcDbLine
 10
33.0
 20
27.0
 30
0.0
 11
33.0
 21
10.0
 31
0.0
  0
LINE
  5
95
330
48
100
AcDbEntity
  8
1
  6
Continuous
 62
     7
100
AcDbLine
 10
191.0000000000001
 20
24.70000000000001
 30
0.0
 11
191.0000000000001
 21
22.30000000000001
 31
0.0
  0
LINE
  5
96
330
48
100
AcDbEntity
  8
1
  6
Continuous
 62
     7
100
AcDbLine
 10
191.0000000000001
 20
24.70000000000001
 30
0.0
 11
196.0000000000001
 21
25.50000000000001
 31
0.0
  0
LINE
  5
97
330
48
100
AcDbEntity
  8
1
  6
Continuous
 62
     7
100
AcDbLine
 10
196.0000000000001
 20
25.50000000000001
 30
0.0
 11
196.0000000000001
 21
21.50000000000001
 31
0.0
  0
LINE
  5
98
330
48
100
AcDbEntity
  8
1
  6
Continuous
 62
     7
100
AcDbLine
 10
196.0000000000001
 20
21.50000000000001
 30
0.0
 11
191.0000000000001
 21
22.30000000000001
 31
0.0
  0
LINE
  5
99
330
48
100
AcDbEntity
  8
1
  6
DOT_CENTER
 62
     2
100
AcDbLine
 10
184.0000000000001
 20
23.50000000000001
 30
0.0
 11
197.0000000000001
 21
23.50000000000001
 31
0.0
  0
LINE
  5
9A
330
48
100
AcDbEntity
  8
1
  6
DOT_CENTER
 62
     2
100
AcDbLine
 10
187.0000000000001
 20
26.50000000000001
 30
0.0
 11
187.0000000000001
 21
20.50000000000001
 31
0.0
  0
LINE
  5
9B
330
48
100
AcDbEntity
  8
1
  6
Continuous
 62
     2
100
AcDbLine
 10
81.0
 20
27.00000000000001
 30
0.0
 11
81.0
 21
10.0
 31
0.0
  0
CIRCLE
  5
9C
330
48
100
AcDbEntity
  8
1
  6
Continuous
 62
     7
100
AcDbCircle
 10
103.5
 20
12.5
 30
0.0
 40
0.2999999999999972
  0
CIRCLE
  5
9D
330
48
100
AcDbEntity
  8
1
  6
Continuous
 62
     7
100
AcDbCircle
 10
109.5
 20
12.5
 30
0.0
 40
0.2999999999999972
  0
CIRCLE
  5
9E
330
48
100
AcDbEntity
  8
1
  6
Continuous
 62
     7
100
AcDbCircle
 10
120.5
 20
12.5
 30
0.0
 40
0.2999999999999972
  0
CIRCLE
  5
9F
330
48
100
AcDbEntity
  8
1
  6
Continuous
 62
     7
100
AcDbCircle
 10
126.5
 20
12.5
 30
0.0
 40
0.2999999999999972
  0
CIRCLE
  5
A0
330
48
100
AcDbEntity
  8
1
  6
Continuous
 62
     7
100
AcDbCircle
 10
137.5000000000001
 20
12.5
 30
0.0
 40
0.2999999999998977
  0
CIRCLE
  5
A1
330
48
100
AcDbEntity
  8
1
  6
Continuous
 62
     7
100
AcDbCircle
 10
143.5000000000001
 20
12.5
 30
0.0
 40
0.2999999999998977
  0
CIRCLE
  5
A2
330
48
100
AcDbEntity
  8
1
  6
Continuous
 62
     7
100
AcDbCircle
 10
160.5000000000001
 20
12.5
 30
0.0
 40
0.2999999999998977
  0
CIRCLE
  5
A3
330
48
100
AcDbEntity
  8
1
  6
Continuous
 62
     7
100
AcDbCircle
 10
154.5000000000001
 20
12.5
 30
0.0
 40
0.2999999999998977
  0
CIRCLE
  5
A4
330
48
100
AcDbEntity
  8
1
  6
Continuous
 62
     7
100
AcDbCircle
 10
187.0000000000001
 20
23.50000000000001
 30
0.0
 40
1.200000000000074
  0
CIRCLE
  5
A5
330
48
100
AcDbEntity
  8
1
  6
Continuous
 62
     7
100
AcDbCircle
 10
187.0000000000001
 20
23.50000000000001
 30
0.0
 40
2.0
  0
CIRCLE
  5
A6
330
48
100
AcDbEntity
  8
1
  6
DOT_CENTER
 62
     7
100
AcDbCircle
 10
89.5
 20
16.0
 30
0.0
 40
0.1000000000000227
  0
CIRCLE
  5
A7
330
48
100
AcDbEntity
  8
1
  6
DOT_CENTER
 62
     7
100
AcDbCircle
 10
89.5
 20
18.0
 30
0.0
 40
0.1000000000000227
  0
SPLINE
  5
A8
102
{ACAD_REACTORS
330
C7
102
}
330
48
100
AcDbEntity
  8
_U_30EC_U_30A4_U_30E4_U_30FC_1
  6
Continuous
 62
     2
100
AcDbSpline
210
0.0
220
0.0
230
1.0
 70
     8
 71
     3
 72
    24
 73
    20
 74
    18
 42
0.000000001
 43
0.0000000001
 44
0.00000001
 40
0.0
 40
0.0
 40
0.0
 40
0.0
 40
0.2211075008753349
 40
0.42732185862454
 40
0.5080174679238622
 40
0.5914835907869537
 40
0.8143265690191972
 40
1.054651302686507
 40
1.295452694023096
 40
1.51810923132875
 40
1.540864321905393
 40
1.595126460622654
 40
1.659890947895996
 40
1.714153085187382
 40
1.736908174961682
 40
1.764951100735405
 40
1.801562291221022
 40
1.953914424543695
 40
2.126104167379789
 40
2.126104167379789
 40
2.126104167379789
 40
2.126104167379789
 10
185.9375369556888
 20
15.58989295113016
 30
0.0
 10
185.9112579081812
 20
15.53097628234373
 30
0.0
 10
185.8604698894426
 20
15.41711139679251
 30
0.0
 10
185.813178483911
 20
15.14441958233115
 30
0.0
 10
185.7043482802618
 20
15.24445482575455
 30
0.0
 10
185.5514800279637
 20
15.27118593367331
 30
0.0
 10
185.7686155181198
 20
15.48518135017632
 30
0.0
 10
185.7838483674381
 20
15.70332117782486
 30
0.0
 10
185.8906889492
 20
15.88451579066427
 30
0.0
 10
185.8305380947078
 20
16.16913226311401
 30
0.0
 10
185.9334317395402
 20
16.14114089222451
 30
0.0
 10
185.977993346815
 20
16.13243251602299
 30
0.0
 10
186.0380842395397
 20
16.12139654183355
 30
0.0
 10
186.0756619587439
 20
16.1076752305556
 30
0.0
 10
186.1252466928607
 20
16.10756076160222
 30
0.0
 10
186.0930158919325
 20
16.07306592398623
 30
0.0
 10
186.0171802221882
 20
16.08404104537964
 30
0.0
 10
186.0429447159693
 20
15.8985896958245
 30
0.0
 10
186.005589676385
 20
15.80702313549589
 30
0.0
 10
185.9857704961609
 20
15.75844135397704
 30
0.0
 11
185.9375369556888
 21
15.58989295113016
 31
0.0
 11
185.8616471328552
 21
15.3822170831856
 31
0.0
 11
185.7717402238432
 21
15.19663392356193
 31
0.0
 11
185.701149392311
 21
15.23573272563551
 31
0.0
 11
185.6245525192651
 21
15.2688916318772
 31
0.0
 11
185.7214026947455
 21
15.46958801203538
 31
0.0
 11
185.7994641467471
 21
15.69688163177024
 31
0.0
 11
185.858971692972
 21
15.93021436608691
 31
0.0
 11
185.9001601511226
 21
16.14902808999054
 31
0.0
 11
185.9224183822215
 21
16.14429889221395
 31
0.0
 11
185.975495702534
 21
16.13302157443899
 31
0.0
 11
186.0388460525845
 21
16.11956154999792
 31
0.0
 11
186.0919233728971
 21
16.10828423222296
 31
0.0
 11
186.1141816039959
 21
16.10355503444637
 31
0.0
 11
186.0964097157461
 21
16.0818625084101
 31
0.0
 11
186.0606122998071
 21
16.07418628445367
 31
0.0
 11
186.028195330148
 21
15.92532288171314
 31
0.0
 11
185.9857704961609
 21
15.75844135397704
 31
0.0
  0
SPLINE
  5
A9
102
{ACAD_REACTORS
330
C7
102
}
330
48
100
AcDbEntity
  8
_U_30EC_U_30A4_U_30E4_U_30FC_1
  6
Continuous
 62
     2
100
AcDbSpline
210
0.0
220
0.0
230
1.0
 70
     8
 71
     3
 72
    70
 73
    66
 74
    64
 42
0.000000001
 43
0.0000000001
 44
0.00000001
 40
0.0
 40
0.0
 40
0.0
 40
0.0
 40
0.0241731073021188
 40
0.0846058988987013
 40
0.1631685280352715
 40
0.2417311571788903
 40
0.3021639488291614
 40
0.3263370654894688
 40
0.3533118254248028
 40
0.4228783438921294
 40
0.5179999095312621
 40
0.6216398239465285
 40
0.716761389149896
 40
0.7863279069649117
 40
0.813302679176109
 40
0.8372943998771211
 40
0.8945054261372406
 40
0.9627895541962459
 40
1.020000580349056
 40
1.043992300975182
 40
1.071934345522925
 40
1.113121768772912
 40
1.145225199332236
 40
1.225483775412775
 40
1.329819923771487
 40
1.43415607199438
 40
1.514414647795802
 40
1.54651807820841
 40
1.578974764260183
 40
1.662678849314178
 40
1.777131373668399
 40
1.90183337747479
 40
2.016285900500579
 40
2.099989982527946
 40
2.132446666570305
 40
2.158782354486029
 40
2.216720867907818
 40
2.274659381334239
 40
2.300995069256175
 40
2.333451754066147
 40
2.417155836543828
 40
2.531608358985267
 40
2.656310362283762
 40
2.770762886388895
 40
2.85446697134006
 40
2.886923657363866
 40
2.913597976833298
 40
2.982389642875099
 40
3.076451716946961
 40
3.17893726045857
 40
3.272999334739968
 40
3.341791001059188
 40
3.3684653206635
 40
3.39697608073875
 40
3.472140811845986
 40
3.578408190308676
 40
3.70022689245614
 40
3.822045594634386
 40
3.928312973256521
 40
4.003477705314919
 40
4.031988456866984
 40
4.058324144797784
 40
4.116262658236949
 40
4.174201171400752
 40
4.200536849608686
 40
4.200536849608686
 40
4.200536849608686
 40
4.200536849608686
 10
185.9857704961609
 20
15.75844135397704
 30
0.0
 10
185.9938259544679
 20
15.75844359811686
 30
0.0
 10
186.0220200663241
 20
15.75845146032796
 30
0.0
 10
186.0765534803672
 20
15.7583075482837
 30
0.0
 10
186.1482891808603
 20
15.75909120499897
 30
0.0
 10
186.2236240137062
 20
15.75627570463809
 30
0.0
 10
186.2713052366438
 20
15.76298403400956
 30
0.0
 10
186.3195071245615
 20
15.7519756369243
 30
0.0
 10
186.3062571799873
 20
15.80546402997032
 30
0.0
 10
186.3151093964537
 20
15.8604958354309
 30
0.0
 10
186.3108698036285
 20
15.95419908726108
 30
0.0
 10
186.3133483481278
 20
16.04959482218532
 30
0.0
 10
186.309093870606
 20
16.14356821983387
 30
0.0
 10
186.3179818665846
 20
16.19795062438013
 30
0.0
 10
186.3046977409944
 20
16.25233997691461
 30
0.0
 10
186.3514119277107
 20
16.23842216335358
 30
0.0
 10
186.3943254545736
 20
16.24103877374043
 30
0.0
 10
186.4605443456684
 20
16.23648422450755
 30
0.0
 10
186.5013342271798
 20
16.22778162134162
 30
0.0
 10
186.5525145690819
 20
16.23531799890195
 30
0.0
 10
186.52537204872
 20
16.19349970223288
 30
0.0
 10
186.4803096055707
 20
16.20284992072595
 30
0.0
 10
186.4942065045051
 20
16.13841207371837
 30
0.0
 10
186.4858414431653
 20
16.07378219627398
 30
0.0
 10
186.4903632178398
 20
15.97529141193887
 30
0.0
 10
186.4854741311167
 20
15.87595932842569
 30
0.0
 10
186.4950258992082
 20
15.81293115552967
 30
0.0
 10
186.47997614552
 20
15.74964011499787
 30
0.0
 10
186.5449159457209
 20
15.76515072944268
 30
0.0
 10
186.6116246399496
 20
15.75499387697811
 30
0.0
 10
186.7241435470828
 20
15.75988800099366
 30
0.0
 10
186.8390235448954
 20
15.75691204732782
 30
0.0
 10
186.9519871999747
 20
15.7622166418499
 30
0.0
 10
187.0176267597678
 20
15.75107306472088
 30
0.0
 10
187.0816276691053
 20
15.76744532319856
 30
0.0
 10
187.0703142889189
 20
15.71761689905274
 30
0.0
 10
187.0775339871509
 20
15.67416715212121
 30
0.0
 10
187.0703142611269
 20
15.63071745587443
 30
0.0
 10
187.0816277175994
 20
15.58088895196875
 30
0.0
 10
187.0176263598972
 20
15.59726166091361
 30
0.0
 10
186.9519921240459
 20
15.58611271661587
 30
0.0
 10
186.838997431733
 20
15.59144857206852
 30
0.0
 10
186.7242456548644
 20
15.58834345663821
 30
0.0
 10
186.611318368686
 20
15.59364894682587
 30
0.0
 10
186.5455220903585
 20
15.58257300019592
 30
0.0
 10
186.4816097975358
 20
15.59887597847617
 30
0.0
 10
186.4936015165126
 20
15.54423524395741
 30
0.0
 10
186.4862104613005
 20
15.48854295047841
 30
0.0
 10
186.4892684841983
 20
15.3964968914057
 30
0.0
 10
186.4893422785683
 20
15.30179109873101
 30
0.0
 10
186.4860313578359
 20
15.20952782902266
 30
0.0
 10
186.4939505989904
 20
15.15435768736141
 30
0.0
 10
186.4815076611617
 20
15.10058169100136
 30
0.0
 10
186.5389116551632
 20
15.11453768862782
 30
0.0
 10
186.5994708140383
 20
15.10511457884227
 30
0.0
 10
186.7048680855081
 20
15.10942885928705
 30
0.0
 10
186.8204294070623
 20
15.10835504612032
 30
0.0
 10
186.9359688877798
 20
15.10725965900995
 30
0.0
 10
187.0414181130841
 20
15.11162525770633
 30
0.0
 10
187.1018680471805
 20
15.10209426030672
 30
0.0
 10
187.1592837739111
 20
15.1161728960638
 30
0.0
 10
187.1477773876711
 20
15.06707153265684
 30
0.0
 10
187.153756678175
 20
15.02564658018649
 30
0.0
 10
187.1520311050804
 20
14.97651677966696
 30
0.0
 10
187.1521500122972
 20
14.94854428447608
 30
0.0
 10
187.1521871691834
 20
14.9398028819595
 30
0.0
 11
185.9857704961609
 21
15.75844135397704
 31
0.0
 11
186.0099436128281
 21
15.75844135397704
 31
0.0
 11
186.0703764044962
 21
15.75844135397704
 31
0.0
 11
186.1489390336648
 21
15.75844135397704
 31
0.0
 11
186.2275016628333
 21
15.75844135397704
 31
0.0
 11
186.2879344545013
 21
15.75844135397704
 31
0.0
 11
186.3121075711686
 21
15.75844135397704
 31
0.0
 11
186.3121075711686
 21
15.78541612620062
 31
0.0
 11
186.3121075711686
 21
15.85498264404038
 31
0.0
 11
186.3121075711686
 21
15.95010420924985
 31
0.0
 11
186.3121075711686
 21
16.05374412358255
 31
0.0
 11
186.3121075711686
 21
16.14886568879202
 31
0.0
 11
186.3121075711686
 21
16.21843220663178
 31
0.0
 11
186.3121075711686
 21
16.24540697885536
 31
0.0
 11
186.3360407604891
 21
16.243732131078
 31
0.0
 11
186.3931122119457
 21
16.23973826330121
 31
0.0
 11
186.461229750781
 21
16.23497138885795
 31
0.0
 11
186.5183012022376
 21
16.23097752108117
 31
0.0
 11
186.5422343915581
 21
16.22930267330381
 31
0.0
 11
186.5274972731229
 21
16.20556293372641
 31
0.0
 11
186.4886640249976
 21
16.19183767331312
 31
0.0
 11
186.4886640249976
 21
16.15973424225119
 31
0.0
 11
186.4886640249976
 21
16.07947566459636
 31
0.0
 11
186.4886640249976
 21
15.97513951364508
 31
0.0
 11
186.4886640249976
 21
15.8708033626938
 31
0.0
 11
186.4886640249976
 21
15.79054478503897
 31
0.0
 11
186.4886640249976
 21
15.75844135397704
 31
0.0
 11
186.5211207110824
 21
15.75844135397704
 31
0.0
 11
186.6048247962486
 21
15.75844135397704
 31
0.0
 11
186.7192773208634
 21
15.75844135397704
 31
0.0
 11
186.8439793252946
 21
15.75844135397704
 31
0.0
 11
186.9584318499095
 21
15.75844135397704
 31
0.0
 11
187.0421359350756
 21
15.75844135397704
 31
0.0
 11
187.0745926211604
 21
15.75844135397704
 31
0.0
 11
187.0745926211604
 21
15.7321056660496
 31
0.0
 11
187.0745926211604
 21
15.67416715260923
 31
0.0
 11
187.0745926211604
 21
15.61622863916887
 31
0.0
 11
187.0745926211604
 21
15.58989295124143
 31
0.0
 11
187.0421359350756
 21
15.58989295124143
 31
0.0
 11
186.9584318499095
 21
15.58989295124143
 31
0.0
 11
186.8439793252946
 21
15.58989295124143
 31
0.0
 11
186.7192773208634
 21
15.58989295124143
 31
0.0
 11
186.6048247962485
 21
15.58989295124143
 31
0.0
 11
186.5211207110824
 21
15.58989295124143
 31
0.0
 11
186.4886640249976
 21
15.58989295124143
 31
0.0
 11
186.4886640249976
 21
15.56321863152021
 31
0.0
 11
186.4886640249976
 21
15.49442696487074
 31
0.0
 11
186.4886640249976
 21
15.40036489006433
 31
0.0
 11
186.4886640249976
 21
15.29787934587227
 31
0.0
 11
186.4886640249976
 21
15.20381727106587
 31
0.0
 11
186.4886640249976
 21
15.1350256044164
 31
0.0
 11
186.4886640249976
 21
15.10835128469518
 31
0.0
 11
186.5171747850993
 21
15.10835128469518
 31
0.0
 11
186.5923395162767
 21
15.10835128469518
 31
0.0
 11
186.6986068948376
 21
15.10835128469518
 31
0.0
 11
186.8204255970905
 21
15.10835128469518
 31
0.0
 11
186.9422442993434
 21
15.10835128469518
 31
0.0
 11
187.0485116779044
 21
15.10835128469518
 31
0.0
 11
187.1236764090817
 21
15.10835128469518
 31
0.0
 11
187.1521871691834
 21
15.10835128469518
 31
0.0
 11
187.1521871691834
 21
15.08201559676773
 31
0.0
 11
187.1521871691834
 21
15.02407708332734
 31
0.0
 11
187.1521871691834
 21
14.96613856988695
 31
0.0
 11
187.1521871691834
 21
14.9398028819595
 31
0.0
  0
SPLINE
  5
AA
102
{ACAD_REACTORS
330
C7
102
}
330
48
100
AcDbEntity
  8
_U_30EC_U_30A4_U_30E4_U_30FC_1
  6
Continuous
 62
     2
100
AcDbSpline
210
0.0
220
0.0
230
1.0
 70
     8
 71
     3
 72
    62
 73
    58
 74
    56
 42
0.000000001
 43
0.0000000001
 44
0.00000001
 40
0.0
 40
0.0
 40
0.0
 40
0.0
 40
0.0598250028308769
 40
0.2024846486897616
 40
0.3727558389220746
 40
0.515415484793607
 40
0.5752404975785339
 40
0.9332326775486973
 40
1.290451762839447
 40
1.602077253145804
 40
1.699931634112038
 40
1.799359756424973
 40
2.270120149657012
 40
2.804661928461481
 40
2.882342287383194
 40
3.076543185719044
 40
3.329004354835511
 40
3.581465524568338
 40
3.775666424543626
 40
3.853346784558246
 40
3.89912067959502
 40
3.984129341792046
 40
4.029903236817423
 40
4.105797496059578
 40
4.295533144152538
 40
4.542189486611774
 40
4.788845828875722
 40
4.978581476410103
 40
5.054475735244345
 40
5.621734664339324
 40
6.130867242037319
 40
6.225249780948534
 40
6.318913039727194
 40
6.663579954558722
 40
7.047498900224553
 40
7.435230791575503
 40
7.498943906667915
 40
7.650875181209909
 40
7.832212509001419
 40
7.984143783696805
 40
8.047856898902932
 40
8.091554632732441
 40
8.172707566964103
 40
8.216405300767828
 40
8.289021782160685
 40
8.462184160757001
 40
8.668861838005167
 40
8.842024215263674
 40
8.91464069547487
 40
8.989881580861072
 40
9.155411528826972
 40
9.320941477743748
 40
9.396182352486997
 40
9.454709011143516
 40
9.583467660170507
 40
9.71222630901273
 40
9.770752957989211
 40
9.770752957989211
 40
9.770752957989211
 40
9.770752957989211
 10
187.1521871691834
 20
14.9398028819595
 30
0.0
 10
187.1322348171624
 20
14.93980875568671
 30
0.0
 10
187.0647037716466
 20
14.93982863806157
 30
0.0
 10
186.9410612161789
 20
14.93949362520326
 30
0.0
 10
186.7863180150057
 20
14.94107673750512
 30
0.0
 10
186.669734948248
 20
14.93686078860494
 30
0.0
 10
186.4550942634242
 20
14.95215205331627
 30
0.0
 10
186.8518948407229
 20
14.59198721286189
 30
0.0
 10
186.8945656069268
 20
14.37510503397167
 30
0.0
 10
187.3189162146612
 20
14.19325062511448
 30
0.0
 10
187.1439821496074
 20
14.0898519656807
 30
0.0
 10
187.0194523925084
 20
13.87831523212726
 30
0.0
 10
186.7666277235942
 20
14.34806081001561
 30
0.0
 10
186.4797602893627
 20
14.99511516984523
 30
0.0
 10
186.490633592666
 20
14.68782672154695
 30
0.0
 10
186.488289277796
 20
14.5228861697178
 30
0.0
 10
186.4861096126411
 20
14.28879670711694
 30
0.0
 10
186.4980774396346
 20
14.04498072421784
 30
0.0
 10
186.468798474063
 20
13.89855796860985
 30
0.0
 10
186.511452262547
 20
13.75113490174537
 30
0.0
 10
186.4239814005639
 20
13.7668579730622
 30
0.0
 10
186.3768527606745
 20
13.76694303543455
 30
0.0
 10
186.2898973207711
 20
13.75109425482908
 30
0.0
 10
186.3313474021723
 20
13.89527771422762
 30
0.0
 10
186.3029875004283
 20
14.03855052698455
 30
0.0
 10
186.3145973775298
 20
14.27674947365264
 30
0.0
 10
186.3124175648271
 20
14.50517235240345
 30
0.0
 10
186.3103111127993
 20
14.66705729375994
 30
0.0
 10
186.3208035438322
 20
14.98153709333749
 30
0.0
 10
186.0128963252893
 20
14.29229470872437
 30
0.0
 10
185.7055258267455
 20
13.81476750243049
 30
0.0
 10
185.5851367066275
 20
14.03741112637425
 30
0.0
 10
185.4074607910724
 20
14.15011034955571
 30
0.0
 10
185.8853326362893
 20
14.32548143465461
 30
0.0
 10
185.9353959057208
 20
14.56091929252033
 30
0.0
 10
186.3583799621716
 20
14.95322989344606
 30
0.0
 10
186.127675427354
 20
14.93655307029066
 30
0.0
 10
186.004968585934
 20
14.9426951894877
 30
0.0
 10
185.8325483095662
 20
14.93312822699574
 30
0.0
 10
185.7213224694449
 20
14.95448818489666
 30
0.0
 10
185.6025779627448
 20
14.9213626535742
 30
0.0
 10
185.6183169706686
 20
15.00203900606883
 30
0.0
 10
185.6178550933763
 20
15.04645414290854
 30
0.0
 10
185.6027881889931
 20
15.12967081778533
 30
0.0
 10
185.7372380935443
 20
15.09062651983884
 30
0.0
 10
185.8619755545745
 20
15.11739729328423
 30
0.0
 10
186.0628755237279
 20
15.10063949044053
 30
0.0
 10
186.1921540949352
 20
15.12204225913004
 30
0.0
 10
186.3328419928294
 20
15.08868778853422
 30
0.0
 10
186.2980927452614
 20
15.22651875785068
 30
0.0
 10
186.3222185666712
 20
15.34963257349481
 30
0.0
 10
186.2967086182392
 20
15.47024055670334
 30
0.0
 10
186.3333251146684
 20
15.60539865141493
 30
0.0
 10
186.2211417027768
 20
15.5809454578189
 30
0.0
 10
186.1280356457135
 20
15.5930774984202
 30
0.0
 10
186.0191547579819
 20
15.58957630069994
 30
0.0
 10
185.9569697640963
 20
15.58981755951601
 30
0.0
 10
185.9375369557245
 20
15.58989295124143
 30
0.0
 11
187.1521871691834
 21
14.9398028819595
 31
0.0
 11
187.0923621563983
 21
14.9398028819595
 31
0.0
 11
186.949702510526
 21
14.9398028819595
 31
0.0
 11
186.7794313202915
 21
14.9398028819595
 31
0.0
 11
186.6367716744192
 21
14.9398028819595
 31
0.0
 11
186.5769466616341
 21
14.9398028819595
 31
0.0
 11
186.7679960754843
 21
14.6370512796689
 31
0.0
 11
186.994127278563
 21
14.36051890576684
 31
0.0
 11
187.2244526173371
 21
14.15061253493457
 31
0.0
 11
187.1521596330704
 21
14.08466403668716
 31
0.0
 11
187.0879364402643
 21
14.0087605905256
 31
0.0
 11
186.7732818215558
 21
14.35891458349363
 31
0.0
 11
186.4886640249976
 21
14.81138295143602
 31
0.0
 11
186.4886640249976
 21
14.73370259137314
 31
0.0
 11
186.4886640249976
 21
14.53950169121594
 31
0.0
 11
186.4886640249976
 21
14.28704052101157
 31
0.0
 11
186.4886640249976
 21
14.03457935080721
 31
0.0
 11
186.4886640249976
 21
13.84037845065
 31
0.0
 11
186.4886640249976
 21
13.76269809058712
 31
0.0
 11
186.4428901295605
 21
13.76269809058712
 31
0.0
 11
186.3578814666058
 21
13.76269809058712
 31
0.0
 11
186.3121075711686
 21
13.76269809058712
 31
0.0
 11
186.3121075711686
 21
13.8385923498274
 31
0.0
 11
186.3121075711686
 21
14.02832799792811
 31
0.0
 11
186.3121075711686
 21
14.27498434045903
 31
0.0
 11
186.3121075711686
 21
14.52164068298995
 31
0.0
 11
186.3121075711686
 21
14.71137633109065
 31
0.0
 11
186.3121075711686
 21
14.78727059033094
 31
0.0
 11
185.9987626399266
 21
14.31440946197693
 31
0.0
 11
185.6352328662148
 21
13.95795177109381
 31
0.0
 11
185.5773927461628
 21
14.03253450545022
 31
0.0
 11
185.5094852305342
 21
14.09704322939243
 31
0.0
 11
185.7750721898319
 21
14.31672219795889
 31
0.0
 11
186.0233764972061
 21
14.60953395971697
 31
0.0
 11
186.226498280526
 21
14.9398028819595
 31
0.0
 11
186.1627851652721
 21
14.9398028819595
 31
0.0
 11
186.0108538904359
 21
14.9398028819595
 31
0.0
 11
185.8295165624055
 21
14.9398028819595
 31
0.0
 11
185.6775852875693
 21
14.9398028819595
 31
0.0
 11
185.6138721723154
 21
14.9398028819595
 31
0.0
 11
185.6138721723154
 21
14.98350061600208
 31
0.0
 11
185.6138721723154
 21
15.0646535506526
 31
0.0
 11
185.6138721723154
 21
15.10835128469518
 31
0.0
 11
185.6864886537961
 21
15.10835128469518
 31
0.0
 11
185.8596510327117
 21
15.10835128469518
 31
0.0
 11
186.0663287107723
 21
15.10835128469518
 31
0.0
 11
186.2394910896879
 21
15.10835128469518
 31
0.0
 11
186.3121075711686
 21
15.10835128469518
 31
0.0
 11
186.3121075711686
 21
15.18359217009303
 31
0.0
 11
186.3121075711686
 21
15.3491221179683
 31
0.0
 11
186.3121075711686
 21
15.51465206584358
 31
0.0
 11
186.3121075711686
 21
15.58989295124143
 31
0.0
 11
186.2535809125055
 21
15.58989295124143
 31
0.0
 11
186.1248222634466
 21
15.58989295124143
 31
0.0
 11
185.9960636143877
 21
15.58989295124143
 31
0.0
 11
185.9375369557245
 21
15.58989295124143
 31
0.0
  0
SPLINE
  5
AB
102
{ACAD_REACTORS
330
C8
102
}
330
48
100
AcDbEntity
  8
_U_30EC_U_30A4_U_30E4_U_30FC_1
  6
Continuous
 62
     2
100
AcDbSpline
210
0.0
220
0.0
230
1.0
 70
    11
 71
     3
 72
   124
 73
   120
 74
   118
 42
0.000000001
 43
0.0000000001
 44
0.00000001
 40
0.0
 40
0.0
 40
0.0
 40
0.0
 40
0.027818722962451
 40
0.1011590162384269
 40
0.2048470170590239
 40
0.3237088716559245
 40
0.4425707262522
 40
0.5462587270699547
 40
0.6195990203311798
 40
0.647417752257866
 40
0.6750060736115224
 40
0.7357003855242759
 40
0.7963946998054492
 40
0.8239830245571784
 40
0.8540933811102878
 40
0.9373396629409558
 40
1.063094687343237
 40
1.220731268638103
 40
1.399622220914778
 40
1.589140358637819
 40
1.778658496423957
 40
1.957549448940624
 40
2.115186030873246
 40
2.24094105691455
 40
2.324187341760648
 40
2.354297700109497
 40
2.381886024672004
 40
2.442580338710592
 40
2.503274652750616
 40
2.530862977314723
 40
2.560983949278676
 40
2.640393784453051
 40
2.752662861759274
 40
2.881361560118319
 40
3.010060258455366
 40
3.122329335705541
 40
3.201739170818183
 40
3.231860142753544
 40
3.264298024030601
 40
3.352343701778472
 40
3.482095226868997
 40
3.639650650173258
 40
3.811108022565713
 40
3.982565394928222
 40
4.140120818152803
 40
4.269872343141514
 40
4.357918020802576
 40
4.390355902044205
 40
4.423256253992803
 40
4.508104530073324
 40
4.624121560637092
 40
4.750528176031877
 40
4.866545206602324
 40
4.95139348269231
 40
4.984293834645711
 40
5.011450833242624
 40
5.071196230152407
 40
5.130941627057481
 40
5.158098625649145
 40
5.190998977601807
 40
5.275847253689689
 40
5.391864284257152
 40
5.518270899648669
 40
5.634287930209736
 40
5.71913620628841
 40
5.752036558236326
 40
5.782130946283352
 40
5.862783906229526
 40
5.979550131775393
 40
6.1179843166408
 40
6.263641154588345
 40
6.402075339414551
 40
6.518841564908345
 40
6.599494524815927
 40
6.629588912849164
 40
6.65440302822674
 40
6.713575149488507
 40
6.784199939329825
 40
6.843372060493927
 40
6.868186175803173
 40
6.896246243202222
 40
6.939586233758673
 40
6.967846564565301
 40
7.043584251090239
 40
7.153234334452097
 40
7.283231855734847
 40
7.420011856035881
 40
7.550009376580233
 40
7.659659458835632
 40
7.735397144417625
 40
7.763657474851797
 40
7.796409728011454
 40
7.880876065096729
 40
7.996370852466114
 40
8.122208446419009
 40
8.237703224799603
 40
8.322169562011297
 40
8.35492181520631
 40
8.382078813308091
 40
8.441824209207393
 40
8.50156960524054
 40
8.528726603486117
 40
8.561478856696166
 40
8.645945193878216
 40
8.761439980865728
 40
8.88727758076487
 40
9.00277236200139
 40
9.087238696661611
 40
9.119990949236065
 40
9.152428830613765
 40
9.24047450863898
 40
9.370226034149931
 40
9.527781457984817
 40
9.699238830981805
 40
9.870696203978998
 40
10.02825162781442
 40
10.15800315332604
 40
10.24604883135159
 40
10.27848670378561
 40
10.27848670378561
 40
10.27848670378561
 40
10.27848670378561
 10
195.3821827564383
 20
14.01410517385757
 30
0.0
 10
195.3914554737523
 20
14.01410498511274
 30
0.0
 10
195.4251744536861
 20
14.01410430876714
 30
0.0
 10
195.4934706812465
 20
14.01411807243305
 30
0.0
 10
195.592014171158
 20
14.01403224219544
 30
0.0
 10
195.7062066464812
 20
14.01441755612251
 30
0.0
 10
195.818589441707
 20
14.01300835897545
 30
0.0
 10
195.9214376600118
 20
14.01719117422243
 30
0.0
 10
195.9806839874849
 20
14.00823089251983
 30
0.0
 10
196.0371265937032
 20
14.02164434526061
 30
0.0
 10
196.0246255586955
 20
13.97087198613361
 30
0.0
 10
196.0329549635704
 20
13.92589320939067
 30
0.0
 10
196.0248170841119
 20
13.88056752990488
 30
0.0
 10
196.0370529214457
 20
13.82931932408466
 30
0.0
 10
195.9747773490333
 20
13.84447955365276
 30
0.0
 10
195.9060513026868
 20
13.83359750710743
 30
0.0
 10
195.7782756749591
 20
13.83911304747972
 30
0.0
 10
195.6262984511644
 20
13.83700851253698
 30
0.0
 10
195.4502695972521
 20
13.83771002588473
 30
0.0
 10
195.2644431934287
 20
13.83745237531291
 30
0.0
 10
195.0786167437174
 20
13.83771005144603
 30
0.0
 10
194.9025880142167
 20
13.83700841847731
 30
0.0
 10
194.7506104154193
 20
13.83911332229988
 30
0.0
 10
194.6228357664554
 20
13.8335968076764
 30
0.0
 10
194.5541077836579
 20
13.84448077125942
 30
0.0
 10
194.4918349042882
 20
13.82931786684209
 30
0.0
 10
194.5040616290017
 20
13.88057510805171
 30
0.0
 10
194.4960004462596
 20
13.92582473272425
 30
0.0
 10
194.5040675809891
 20
13.97106357955323
 30
0.0
 10
194.4918238487082
 20
14.02234176909958
 30
0.0
 10
194.5525017120697
 20
14.00749577363135
 30
0.0
 10
194.6162810745735
 20
14.01756448170735
 30
0.0
 10
194.7277314353502
 20
14.01294644211999
 30
0.0
 10
194.8497533443823
 20
14.01413328905469
 30
0.0
 10
194.9719538137823
 20
14.01515863900634
 30
0.0
 10
195.0829794287392
 20
14.01092475623402
 30
0.0
 10
195.1476517413958
 20
14.02018584521739
 30
0.0
 10
195.2091162810501
 20
14.00604423049683
 30
0.0
 10
195.1930065601337
 20
14.07235527884517
 30
0.0
 10
195.2042980327358
 20
14.14447790121976
 30
0.0
 10
195.1987400822561
 20
14.27513760888286
 30
0.0
 10
195.2008035061691
 20
14.42607323708242
 30
0.0
 10
195.2000167127295
 20
14.59335873107886
 30
0.0
 10
195.2007845215627
 20
14.76061110332303
 30
0.0
 10
195.1988038785628
 20
14.91163289269914
 30
0.0
 10
195.2041306156621
 20
15.04206069552995
 30
0.0
 10
195.1933101388425
 20
15.114654426059
 30
0.0
 10
195.2090326429875
 20
15.18150469436799
 30
0.0
 10
195.143270813249
 20
15.16580512490825
 30
0.0
 10
195.0756367830763
 20
15.17609243083996
 30
0.0
 10
194.9615885293809
 20
15.17113786847122
 30
0.0
 10
194.8451242674902
 20
15.17414128030476
 30
0.0
 10
194.7306554121477
 20
15.1688030314339
 30
0.0
 10
194.664032465781
 20
15.18001268074825
 30
0.0
 10
194.5990769715185
 20
15.16349132665012
 30
0.0
 10
194.6107989758707
 20
15.21473720477059
 30
0.0
 10
194.603283018912
 20
15.25950333784091
 30
0.0
 10
194.6107989878835
 20
15.30426944897961
 30
0.0
 10
194.5990769505345
 20
15.3555153612974
 30
0.0
 10
194.6640326339199
 20
15.33899381766815
 30
0.0
 10
194.730653333982
 20
15.35020571373944
 30
0.0
 10
194.8451352858063
 20
15.34485436710664
 30
0.0
 10
194.9615454436962
 20
15.34791188771117
 30
0.0
 10
195.075766017464
 20
15.34278499010708
 30
0.0
 10
195.1430150439226
 20
15.35345733355599
 30
0.0
 10
195.2083325941438
 20
15.33742082669076
 30
0.0
 10
195.1941391448552
 20
15.39949685750053
 30
0.0
 10
195.2036059462995
 20
15.46586761628763
 30
0.0
 10
195.1990269004085
 20
15.58239972741966
 30
0.0
 10
195.2007696555948
 20
15.71426685022376
 30
0.0
 10
195.1997551495391
 20
15.85615960150273
 30
0.0
 10
195.2017191344373
 20
15.9876905070258
 30
0.0
 10
195.1964668553851
 20
16.10524577283002
 30
0.0
 10
195.2073408763474
 20
16.16947789001584
 30
0.0
 10
195.1919536641853
 20
16.23108802545047
 30
0.0
 10
195.24075915378
 20
16.21702407382111
 30
0.0
 10
195.2853995564726
 20
16.21954742075314
 30
0.0
 10
195.3538643946742
 20
16.2151279740171
 30
0.0
 10
195.3959106169102
 20
16.20613025544035
 30
0.0
 10
195.4487544758775
 20
16.21411714866511
 30
0.0
 10
195.4207035002015
 20
16.1711391761167
 30
0.0
 10
195.3749142248594
 20
16.18259552043839
 30
0.0
 10
195.3869539073265
 20
16.12173520005136
 30
0.0
 10
195.379608607064
 20
16.05769299468773
 30
0.0
 10
195.3831195826162
 20
15.94909368863911
 30
0.0
 10
195.3819806760173
 20
15.82494319144753
 30
0.0
 10
195.3819174780262
 20
15.69189719829878
 30
0.0
 10
195.3832872966867
 20
15.56797381249555
 30
0.0
 10
195.3791638801314
 20
15.45868337849339
 30
0.0
 10
195.3877763103564
 20
15.3960858009417
 30
0.0
 10
195.3746757454401
 20
15.33740133296365
 30
0.0
 10
195.4393884328198
 20
15.35362113810902
 30
0.0
 10
195.5060405953156
 20
15.34270260383311
 30
0.0
 10
195.6198779541102
 20
15.34793740173756
 30
0.0
 10
195.7357259122097
 20
15.34485547516913
 30
0.0
 10
195.849692426328
 20
15.35018259812512
 30
0.0
 10
195.91603410181
 20
15.33904208166543
 30
0.0
 10
195.9807188525479
 20
15.35546979593178
 30
0.0
 10
195.9689820772722
 20
15.30425925210051
 30
0.0
 10
195.9765168063041
 20
15.25950334121001
 30
0.0
 10
195.9689820992258
 20
15.21474739010028
 30
0.0
 10
195.9807188140737
 20
15.16353690871041
 30
0.0
 10
195.9160344075252
 20
15.17996427794221
 30
0.0
 10
195.8496886430824
 20
15.1688278444727
 30
0.0
 10
195.7357459487012
 20
15.17413115893121
 30
0.0
 10
195.6197995623054
 20
15.17114764593544
 30
0.0
 10
195.5062756882122
 20
15.17606892268395
 30
0.0
 10
195.4389231318804
 20
15.1658508751352
 30
0.0
 10
195.3734285122495
 20
15.18145996138816
 30
0.0
 10
195.3891713619218
 20
15.11463851827411
 30
0.0
 10
195.3783275998212
 20
15.04207057815879
 30
0.0
 10
195.3836581629793
 20
14.91162247614417
 30
0.0
 10
195.3817136151854
 20
14.76064558185226
 30
0.0
 10
195.3823133683214
 20
14.59322243934158
 30
0.0
 10
195.3821506559605
 20
14.42656176118372
 30
0.0
 10
195.3821895488135
 20
14.27360142921636
 30
0.0
 10
195.38218164131
 20
14.14849178985705
 30
0.0
 10
195.3821828382744
 20
14.0650789099142
 30
0.0
 10
195.3821827716208
 20
14.02491778281976
 30
0.0
 10
195.3821827564383
 20
14.01410517385757
 30
0.0
 11
195.3821827564383
 21
14.01410517385757
 31
0.0
 11
195.4100014883675
 21
14.01410517385757
 31
0.0
 11
195.4833417816353
 21
14.01410517385757
 31
0.0
 11
195.5870297824622
 21
14.01410517385757
 31
0.0
 11
195.7058916370687
 21
14.01410517385757
 31
0.0
 11
195.8247534916751
 21
14.01410517385757
 31
0.0
 11
195.928441492502
 21
14.01410517385757
 31
0.0
 11
196.0017817857698
 21
14.01410517385757
 31
0.0
 11
196.029600517699
 21
14.01410517385757
 31
0.0
 11
196.029600517699
 21
13.9865168492117
 31
0.0
 11
196.029600517699
 21
13.92582253499077
 31
0.0
 11
196.029600517699
 21
13.86512822076984
 31
0.0
 11
196.029600517699
 21
13.83753989612397
 31
0.0
 11
195.9994901593494
 21
13.83753989612397
 31
0.0
 11
195.9162438745004
 21
13.83753989612397
 31
0.0
 11
195.7904888484521
 21
13.83753989612397
 31
0.0
 11
195.6328522665041
 21
13.83753989612397
 31
0.0
 11
195.4539613139564
 21
13.83753989612397
 31
0.0
 11
195.2644431761088
 21
13.83753989612397
 31
0.0
 11
195.0749250382612
 21
13.83753989612397
 31
0.0
 11
194.8960340857135
 21
13.83753989612397
 31
0.0
 11
194.7383975037655
 21
13.83753989612397
 31
0.0
 11
194.6126424777171
 21
13.83753989612397
 31
0.0
 11
194.5293961928682
 21
13.83753989612397
 31
0.0
 11
194.4992858345186
 21
13.83753989612397
 31
0.0
 11
194.4992858345186
 21
13.86512822076984
 31
0.0
 11
194.4992858345186
 21
13.92582253499077
 31
0.0
 11
194.4992858345186
 21
13.9865168492117
 31
0.0
 11
194.4992858345186
 21
14.01410517385757
 31
0.0
 11
194.5294068064946
 21
14.01410517385757
 31
0.0
 11
194.6088166417039
 21
14.01410517385757
 31
0.0
 11
194.7210857190689
 21
14.01410517385757
 31
0.0
 11
194.8497844175117
 21
14.01410517385757
 31
0.0
 11
194.9784831159545
 21
14.01410517385757
 31
0.0
 11
195.0907521933194
 21
14.01410517385757
 31
0.0
 11
195.1701620285289
 21
14.01410517385757
 31
0.0
 11
195.2002830005048
 21
14.01410517385757
 31
0.0
 11
195.2002830005048
 21
14.04654305523835
 31
0.0
 11
195.2002830005048
 21
14.1345887332719
 31
0.0
 11
195.2002830005048
 21
14.26434025879503
 31
0.0
 11
195.2002830005048
 21
14.42189568264454
 31
0.0
 11
195.2002830005048
 21
14.59335305565724
 31
0.0
 11
195.2002830005048
 21
14.76481042866994
 31
0.0
 11
195.2002830005048
 21
14.92236585251945
 31
0.0
 11
195.2002830005048
 21
15.05211737804258
 31
0.0
 11
195.2002830005048
 21
15.14016305607613
 31
0.0
 11
195.2002830005048
 21
15.17260093745691
 31
0.0
 11
195.1673826485528
 21
15.17260093745691
 31
0.0
 11
195.0825343724662
 21
15.17260093745691
 31
0.0
 11
194.9665173418988
 21
15.17260093745691
 31
0.0
 11
194.8401107265043
 21
15.17260093745691
 31
0.0
 11
194.7240936959369
 21
15.17260093745691
 31
0.0
 11
194.6392454198503
 21
15.17260093745691
 31
0.0
 11
194.6063450678983
 21
15.17260093745691
 31
0.0
 11
194.6063450678983
 21
15.19975793614803
 31
0.0
 11
194.6063450678983
 21
15.2595033332685
 31
0.0
 11
194.6063450678983
 21
15.31924873038898
 31
0.0
 11
194.6063450678983
 21
15.3464057290801
 31
0.0
 11
194.6392454198503
 21
15.3464057290801
 31
0.0
 11
194.7240936959369
 21
15.3464057290801
 31
0.0
 11
194.8401107265044
 21
15.3464057290801
 31
0.0
 11
194.9665173418987
 21
15.3464057290801
 31
0.0
 11
195.0825343724662
 21
15.3464057290801
 31
0.0
 11
195.1673826485528
 21
15.3464057290801
 31
0.0
 11
195.2002830005048
 21
15.3464057290801
 31
0.0
 11
195.2002830005048
 21
15.3765001173137
 31
0.0
 11
195.2002830005048
 21
15.45715307777974
 31
0.0
 11
195.2002830005048
 21
15.57391930412609
 31
0.0
 11
195.2002830005048
 21
15.71235349000063
 31
0.0
 11
195.2002830005048
 21
15.85801032905124
 31
0.0
 11
195.2002830005048
 21
15.99644451492578
 31
0.0
 11
195.2002830005048
 21
16.11321074127214
 31
0.0
 11
195.2002830005048
 21
16.19386370173817
 31
0.0
 11
195.2002830005048
 21
16.22395808997177
 31
0.0
 11
195.2250405288618
 21
16.22228324219442
 31
0.0
 11
195.2840777118669
 21
16.21828937441765
 31
0.0
 11
195.3545414464214
 21
16.21352249997441
 31
0.0
 11
195.4135786294265
 21
16.20952863219765
 31
0.0
 11
195.4383361577835
 21
16.20785378442029
 31
0.0
 11
195.4233067224031
 21
16.1841581420651
 31
0.0
 11
195.3821827564383
 21
16.17047697887404
 31
0.0
 11
195.3821827564383
 21
16.14221664794832
 31
0.0
 11
195.3821827564383
 21
16.0664789610674
 31
0.0
 11
195.3821827564383
 21
15.95682887707561
 31
0.0
 11
195.3821827564383
 21
15.82683135481731
 31
0.0
 11
195.3821827564383
 21
15.69005135313683
 31
0.0
 11
195.3821827564383
 21
15.56005383087853
 31
0.0
 11
195.3821827564383
 21
15.45040374688674
 31
0.0
 11
195.3821827564383
 21
15.37466606000582
 31
0.0
 11
195.3821827564383
 21
15.3464057290801
 31
0.0
 11
195.4149350096115
 21
15.3464057290801
 31
0.0
 11
195.4994013467422
 21
15.3464057290801
 31
0.0
 11
195.6148961342476
 21
15.3464057290801
 31
0.0
 11
195.7407337385445
 21
15.3464057290801
 31
0.0
 11
195.8562285260498
 21
15.3464057290801
 31
0.0
 11
195.9406948631806
 21
15.3464057290801
 31
0.0
 11
195.9734471163538
 21
15.3464057290801
 31
0.0
 11
195.9734471163538
 21
15.31924873038898
 31
0.0
 11
195.9734471163538
 21
15.2595033332685
 31
0.0
 11
195.9734471163538
 21
15.19975793614803
 31
0.0
 11
195.9734471163538
 21
15.17260093745691
 31
0.0
 11
195.9406948631806
 21
15.17260093745691
 31
0.0
 11
195.8562285260498
 21
15.17260093745691
 31
0.0
 11
195.7407337385445
 21
15.17260093745691
 31
0.0
 11
195.6148961342476
 21
15.17260093745691
 31
0.0
 11
195.4994013467422
 21
15.17260093745691
 31
0.0
 11
195.4149350096114
 21
15.17260093745691
 31
0.0
 11
195.3821827564383
 21
15.17260093745691
 31
0.0
 11
195.3821827564383
 21
15.14016305607613
 31
0.0
 11
195.3821827564383
 21
15.05211737804258
 31
0.0
 11
195.3821827564383
 21
14.92236585251945
 31
0.0
 11
195.3821827564383
 21
14.76481042866994
 31
0.0
 11
195.3821827564383
 21
14.59335305565724
 31
0.0
 11
195.3821827564383
 21
14.42189568264454
 31
0.0
 11
195.3821827564383
 21
14.26434025879503
 31
0.0
 11
195.3821827564383
 21
14.1345887332719
 31
0.0
 11
195.3821827564383
 21
14.04654305523835
 31
0.0
 11
195.3821827564383
 21
14.01410517385757
 31
0.0
  0
SPLINE
  5
AC
102
{ACAD_REACTORS
330
C9
102
}
330
48
100
AcDbEntity
  8
_U_30EC_U_30A4_U_30E4_U_30FC_1
  6
Continuous
 62
     2
100
AcDbSpline
210
0.0
220
0.0
230
1.0
 70
    11
 71
     3
 72
   131
 73
   127
 74
   125
 42
0.000000001
 43
0.0000000001
 44
0.00000001
 40
0.0
 40
0.0
 40
0.0
 40
0.0
 40
0.0195577029826184
 40
0.0426490537460533
 40
0.2863607575856156
 40
0.5344948436188985
 40
0.7842238845572714
 40
0.873731578946692
 40
0.9803832810312668
 40
1.092842274516989
 40
1.199761146656747
 40
1.289788768186425
 40
1.35157358078607
 40
1.370727117561297
 40
1.416400936017679
 40
1.470914848355791
 40
1.516588666791548
 40
1.535742203552614
 40
1.634216592293007
 40
1.760283341174865
 40
1.897966686681948
 40
2.031216387368771
 40
2.049689751137765
 40
2.101115601646701
 40
2.179502577739818
 40
2.278859318313936
 40
2.393194462258594
 40
2.516516648383707
 40
2.642834515405836
 40
2.766156701983342
 40
2.880491846754456
 40
2.979848588358499
 40
3.058235565443676
 40
3.109661416668832
 40
3.128134780704008
 40
3.146783742386325
 40
3.191254343315185
 40
3.244332157315844
 40
3.288802758225748
 40
3.307451719894991
 40
3.327717853844602
 40
3.383747753579965
 40
3.468388665924357
 40
3.574487837698668
 40
3.694892515728772
 40
3.822449946851914
 40
3.950007377920306
 40
4.070412055800398
 40
4.176511227367957
 40
4.261152139501403
 40
4.317182039076597
 40
4.337448172964518
 40
4.620011002696155
 40
4.88509663839747
 40
4.945373043518252
 40
5.014107710488566
 40
5.070481727652015
 40
5.319246955636586
 40
5.584812164506099
 40
5.85900091205697
 40
6.133746937542119
 40
6.401732212968922
 40
6.420736683995512
 40
6.472845717451163
 40
6.550702743894091
 40
6.646951193874299
 40
6.754234497930623
 40
6.865196086587401
 40
6.97247939035786
 40
7.068727839772022
 40
7.146584865451031
 40
7.19869389818926
 40
7.217698368905401
 40
7.234950401630877
 40
7.27608986426992
 40
7.325191803516027
 40
7.366331266090411
 40
7.383583298769761
 40
7.402779163492138
 40
7.453386443254569
 40
7.524934666445571
 40
7.60695336140591
 40
7.688972056429062
 40
7.760520279784313
 40
7.811127559734555
 40
7.830323424546176
 40
7.847844055299806
 40
7.894799345666847
 40
7.962779392744535
 40
8.043374293560582
 40
8.128174145149488
 40
8.208769044817293
 40
8.276749090376994
 40
8.323704379669552
 40
8.341225010056286
 40
8.358497614800434
 40
8.40167912668664
 40
8.457815092185697
 40
8.513951057728102
 40
8.557132569708058
 40
8.5744051745051
 40
8.602340668616458
 40
8.64345566054
 40
8.663225271966668
 40
8.715345156564316
 40
8.789031889628651
 40
8.87350204552038
 40
8.957972194324004
 40
9.031658925567895
 40
9.083778811234586
 40
9.103548423003048
 40
9.119550083123585
 40
9.160817522379887
 40
9.217244429110252
 40
9.278724491644738
 40
9.335151398295523
 40
9.376418837357818
 40
9.392420497300606
 40
9.401196302734824
 40
9.4174942293843
 40
9.426270027749572
 40
9.440875075477605
 40
9.475702496998784
 40
9.517270709865945
 40
9.552098131994113
 40
9.56670316988432
 40
9.56670316988432
 40
9.56670316988432
 40
9.56670316988432
 10
194.6170254148479
 20
15.67015871511028
 30
0.0
 10
194.6134345093371
 20
15.6645369070216
 30
0.0
 10
194.6056039123625
 20
15.65227754419116
 30
0.0
 10
194.5129968974547
 20
15.61601916040943
 30
0.0
 10
194.4887622233247
 20
15.40148444212727
 30
0.0
 10
194.3858709845938
 20
15.22197284509706
 30
0.0
 10
194.1220492364306
 20
15.03615573798146
 30
0.0
 10
194.284547156918
 20
14.9595933656608
 30
0.0
 10
194.3607225760838
 20
14.89856693195443
 30
0.0
 10
194.4492171072758
 20
14.83515804544758
 30
0.0
 10
194.538993023311
 20
14.77525634219561
 30
0.0
 10
194.5883817636046
 20
14.7210215484921
 30
0.0
 10
194.6745708157381
 20
14.69286240541833
 30
0.0
 10
194.6411260674228
 20
14.65713309652813
 30
0.0
 10
194.621467116631
 20
14.62550387991906
 30
0.0
 10
194.5919888217882
 20
14.5847587279607
 30
0.0
 10
194.5688989446032
 20
14.55504663489643
 30
0.0
 10
194.5380205968358
 20
14.50211422668491
 30
0.0
 10
194.472919336574
 20
14.62740334938902
 30
0.0
 10
194.3796000122416
 20
14.68213900233934
 30
0.0
 10
194.2950636285138
 20
14.73916423939342
 30
0.0
 10
194.1722498125743
 20
14.89675287427523
 30
0.0
 10
194.1764450847301
 20
14.82035806766836
 30
0.0
 10
194.1751478652677
 20
14.77361280161296
 30
0.0
 10
194.1758126448076
 20
14.69584785812601
 30
0.0
 10
194.1755549986956
 20
14.59902068324423
 30
0.0
 10
194.1756431239921
 20
14.48650279078809
 30
0.0
 10
194.1756077302282
 20
14.36524085945699
 30
0.0
 10
194.1756511758278
 20
14.24086897858961
 30
0.0
 10
194.1755199942405
 20
14.11967683631335
 30
0.0
 10
194.1759477562047
 20
14.00691148919743
 30
0.0
 10
194.1746678202311
 20
13.91082913768744
 30
0.0
 10
194.1779759851044
 20
13.83113826468699
 30
0.0
 10
194.1715197740085
 20
13.78815175788783
 30
0.0
 10
194.1806208705556
 20
13.74955432372042
 30
0.0
 10
194.1447910339934
 20
13.75810887724069
 30
0.0
 10
194.1115223815252
 20
13.75342519985446
 30
0.0
 10
194.0604562576041
 20
13.75351298759784
 30
0.0
 10
194.0269723972812
 20
13.7579443028382
 30
0.0
 10
193.9907585408754
 20
13.74960793842509
 30
0.0
 10
194.0009782568665
 20
13.79145277179283
 30
0.0
 10
193.9936487887773
 20
13.83778560820173
 30
0.0
 10
193.9973633136103
 20
13.92374831106013
 30
0.0
 10
193.9959480554897
 20
14.02605142704849
 30
0.0
 10
193.9964105554638
 20
14.14453223931511
 30
0.0
 10
193.996277368623
 20
14.26957683153356
 30
0.0
 10
193.9963015910045
 20
14.3947582810705
 30
0.0
 10
193.9963354925551
 20
14.51286645379058
 30
0.0
 10
193.9962060293131
 20
14.61628748709516
 30
0.0
 10
193.9965507549081
 20
14.69932036153667
 30
0.0
 10
193.995869827869
 20
14.75143368521243
 30
0.0
 10
193.9994586600622
 20
14.87912907821363
 30
0.0
 10
193.7826171386436
 20
14.58048716819621
 30
0.0
 10
193.602135492195
 20
14.35263981511509
 30
0.0
 10
193.5490322295611
 20
14.49373443289816
 30
0.0
 10
193.5200429133149
 20
14.54325767560947
 30
0.0
 10
193.4196648062817
 20
14.646417797901
 30
0.0
 10
193.7405127723262
 20
14.72695035023782
 30
0.0
 10
193.8689897005429
 20
14.91066283036434
 30
0.0
 10
194.0906454325359
 20
15.1193199577176
 30
0.0
 10
194.1770224894069
 20
15.29339211228348
 30
0.0
 10
194.4549394229073
 20
15.56967051342512
 30
0.0
 10
194.3346247839284
 20
15.56534559551115
 30
0.0
 10
194.2863197351348
 20
15.56614856202553
 30
0.0
 10
194.2102377454905
 20
15.56574582146585
 30
0.0
 10
194.116701000975
 20
15.56590275611611
 30
0.0
 10
194.0117594788557
 20
15.56582502576224
 30
0.0
 10
193.9033887738717
 20
15.56595464378556
 30
0.0
 10
193.7981454235897
 20
15.56554393490692
 30
0.0
 10
193.7056237819412
 20
15.56682073671592
 30
0.0
 10
193.6268130800707
 20
15.5634076653485
 30
0.0
 10
193.5839674565379
 20
15.57023350036321
 30
0.0
 10
193.5449499586516
 20
15.56065064201124
 30
0.0
 10
193.5526365271863
 20
15.59420779565543
 30
0.0
 10
193.5485464404312
 20
15.62523550322234
 30
0.0
 10
193.5485531368814
 20
15.672365292709
 30
0.0
 10
193.5526239724911
 20
15.70340941646779
 30
0.0
 10
193.5449495574582
 20
15.73701861635901
 30
0.0
 10
193.5834819405495
 20
15.72748410420872
 30
0.0
 10
193.624122801448
 20
15.73397435498071
 30
0.0
 10
193.6951471850463
 20
15.73100150650254
 30
0.0
 10
193.7729318149633
 20
15.73174761399158
 30
0.0
 10
193.8507292246474
 20
15.73247814044525
 30
0.0
 10
193.9217232089907
 20
15.7295423551416
 30
0.0
 10
193.962427979182
 20
15.73595468772952
 30
0.0
 10
194.000985348991
 20
15.72650524176004
 30
0.0
 10
193.9927342754927
 20
15.76264692158784
 30
0.0
 10
193.9982346669359
 20
15.80129837613227
 30
0.0
 10
193.9955754206163
 20
15.86913528561839
 30
0.0
 10
193.9965815471533
 20
15.9459164153874
 30
0.0
 10
193.9960178018319
 20
16.02849393582757
 30
0.0
 10
193.9970714526592
 20
16.10517329229878
 30
0.0
 10
193.994267586313
 20
16.173319907767
 30
0.0
 10
194.0000702721304
 20
16.21132399809346
 30
0.0
 10
193.9915654551158
 20
16.24758448077646
 30
0.0
 10
194.0255610233125
 20
16.23755723771853
 30
0.0
 10
194.05945756831
 20
16.24073266813706
 30
0.0
 10
194.1126669060346
 20
16.2350896564061
 30
0.0
 10
194.1660768574482
 20
16.23434774436424
 30
0.0
 10
194.1995914649491
 20
16.22819223482981
 30
0.0
 10
194.2388086183039
 20
16.23346029773592
 30
0.0
 10
194.2120263698493
 20
16.19253380793491
 30
0.0
 10
194.1708111001723
 20
16.20371204538111
 30
0.0
 10
194.1782641540873
 20
16.15867056192124
 30
0.0
 10
194.1742227952184
 20
16.11412278028144
 30
0.0
 10
194.176171404964
 20
16.04223572621703
 30
0.0
 10
194.1752364849758
 20
15.96168630588771
 30
0.0
 10
194.176510719003
 20
15.88173995404994
 30
0.0
 10
194.1732043793863
 20
15.80841837083183
 30
0.0
 10
194.1802106179961
 20
15.76688643002568
 30
0.0
 10
194.1701440380126
 20
15.72752418568113
 30
0.0
 10
194.2029814803921
 20
15.73468063430981
 30
0.0
 10
194.236457729648
 20
15.73027243137945
 30
0.0
 10
194.2915053476019
 20
15.73217943347897
 30
0.0
 10
194.3489502595314
 20
15.73185366407288
 30
0.0
 10
194.4023026248309
 20
15.73106308733081
 30
0.0
 10
194.4398540896638
 20
15.73313959118074
 30
0.0
 10
194.4623172523237
 20
15.73022338167109
 30
0.0
 10
194.4751678073731
 20
15.73572552644056
 30
0.0
 10
194.4858255685888
 20
15.7380111819779
 30
0.0
 10
194.4986635650143
 20
15.74494972588052
 30
0.0
 10
194.5145991033071
 20
15.72853046313672
 30
0.0
 10
194.5410623920891
 20
15.71709122319449
 30
0.0
 10
194.5726805253757
 20
15.6964468783519
 30
0.0
 10
194.5987255892151
 20
15.68116869628295
 30
0.0
 10
194.6128517723973
 20
15.67266976323184
 30
0.0
 10
194.6170254148479
 20
15.67015871511028
 30
0.0
 11
194.6170254148479
 21
15.67015871511028
 31
0.0
 11
194.6049990002243
 21
15.65473571164188
 31
0.0
 11
194.5848961795566
 21
15.64337406233917
 31
0.0
 11
194.4778986355813
 21
15.42440620231159
 31
0.0
 11
194.3477039934324
 21
15.21317201512161
 31
0.0
 11
194.1996540366071
 21
15.01206059027479
 31
0.0
 11
194.2734958253735
 21
14.96147384935379
 31
0.0
 11
194.36056643118
 21
14.89988411653738
 31
0.0
 11
194.4518003750404
 21
14.83413160594425
 31
0.0
 11
194.5381321779687
 21
14.77105653169304
 31
0.0
 11
194.6104963609787
 21
14.71749910790242
 31
0.0
 11
194.6598274450842
 21
14.68029954869105
 31
0.0
 11
194.6486940702212
 21
14.66471410869495
 31
0.0
 11
194.6221452532403
 21
14.62754882870424
 31
0.0
 11
194.5904579555533
 21
14.58319026871533
 31
0.0
 11
194.5639091385724
 21
14.54602498872462
 31
0.0
 11
194.5527757637094
 21
14.53043954872852
 31
0.0
 11
194.4807013362948
 21
14.59754008690618
 31
0.0
 11
194.3852856985381
 21
14.67993354174669
 31
0.0
 11
194.279326415217
 21
14.76785017366916
 31
0.0
 11
194.175621051109
 21
14.85152024309267
 31
0.0
 11
194.175621051109
 21
14.83304687900863
 31
0.0
 11
194.175621051109
 21
14.78162102763955
 31
0.0
 11
194.175621051109
 21
14.70323405030999
 31
0.0
 11
194.175621051109
 21
14.60387730834448
 31
0.0
 11
194.175621051109
 21
14.4895421630676
 31
0.0
 11
194.175621051109
 21
14.36621997580389
 31
0.0
 11
194.175621051109
 21
14.2399021078779
 31
0.0
 11
194.175621051109
 21
14.11657992061418
 31
0.0
 11
194.175621051109
 21
14.0022447753373
 31
0.0
 11
194.175621051109
 21
13.9028880333718
 31
0.0
 11
194.175621051109
 21
13.82450105604223
 31
0.0
 11
194.175621051109
 21
13.77307520467315
 31
0.0
 11
194.175621051109
 21
13.75460184058911
 31
0.0
 11
194.1569720893626
 21
13.75460184058911
 31
0.0
 11
194.1125014882749
 21
13.75460184058911
 31
0.0
 11
194.0594236740736
 21
13.75460184058911
 31
0.0
 11
194.0149530729859
 21
13.75460184058911
 31
0.0
 11
193.9963041112395
 21
13.75460184058911
 31
0.0
 11
193.9963041112395
 21
13.77486797460218
 31
0.0
 11
193.9963041112395
 21
13.83089787452066
 31
0.0
 11
193.9963041112395
 21
13.91553878716347
 31
0.0
 11
193.9963041112395
 21
14.02163795934953
 31
0.0
 11
193.9963041112395
 21
14.14204263789775
 31
0.0
 11
193.9963041112395
 21
14.26960006962705
 31
0.0
 11
193.9963041112395
 21
14.39715750135636
 31
0.0
 11
193.9963041112395
 21
14.51756217990458
 31
0.0
 11
193.9963041112395
 21
14.62366135209064
 31
0.0
 11
193.9963041112395
 21
14.70830226473345
 31
0.0
 11
193.9963041112395
 21
14.76433216465193
 31
0.0
 11
193.9963041112395
 21
14.784598298665
 31
0.0
 11
193.7883272849481
 21
14.59331998274057
 31
0.0
 11
193.5763486358424
 21
14.43414885430811
 31
0.0
 11
193.5495629014482
 21
14.48814671952095
 31
0.0
 11
193.5138765415024
 21
14.54689140572027
 31
0.0
 11
193.4799697494123
 21
14.59192871537977
 31
0.0
 11
193.6830287742318
 21
14.73563387201055
 31
0.0
 11
193.881853195826
 21
14.91168423529989
 31
0.0
 11
194.0677041444179
 21
15.11327514524951
 31
0.0
 11
194.2318427502303
 21
15.3336019418611
 31
0.0
 11
194.3655301434864
 21
15.56585996513636
 31
0.0
 11
194.3465256724482
 21
15.56585996513636
 31
0.0
 11
194.2944166389562
 21
15.56585996513636
 31
0.0
 11
194.2165596124447
 21
15.56585996513636
 31
0.0
 11
194.1203111623478
 21
15.56585996513636
 31
0.0
 11
194.0130278580997
 21
15.56585996513636
 31
0.0
 11
193.9020662691345
 21
15.56585996513636
 31
0.0
 11
193.7947829648864
 21
15.56585996513636
 31
0.0
 11
193.6985345147895
 21
15.56585996513636
 31
0.0
 11
193.620677488278
 21
15.56585996513636
 31
0.0
 11
193.568568454786
 21
15.56585996513636
 31
0.0
 11
193.5495639837478
 21
15.56585996513636
 31
0.0
 11
193.5495639837478
 21
15.58311199790982
 31
0.0
 11
193.5495639837478
 21
15.62425146067732
 31
0.0
 11
193.5495639837478
 21
15.67335340010949
 31
0.0
 11
193.5495639837478
 21
15.71449286287699
 31
0.0
 11
193.5495639837478
 21
15.73174489565045
 31
0.0
 11
193.5687598486009
 21
15.73174489565045
 31
0.0
 11
193.6193671286684
 21
15.73174489565045
 31
0.0
 11
193.690915352212
 21
15.73174489565045
 31
0.0
 11
193.7729340474937
 21
15.73174489565045
 31
0.0
 11
193.8549527427753
 21
15.73174489565045
 31
0.0
 11
193.9265009663189
 21
15.73174489565045
 31
0.0
 11
193.9771082463864
 21
15.73174489565045
 31
0.0
 11
193.9963041112395
 21
15.73174489565045
 31
0.0
 11
193.9963041112395
 21
15.74926552655218
 31
0.0
 11
193.9963041112395
 21
15.79622081736882
 31
0.0
 11
193.9963041112395
 21
15.86420086526753
 31
0.0
 11
193.9963041112395
 21
15.94479576741549
 31
0.0
 11
193.9963041112395
 21
16.02959562097986
 31
0.0
 11
193.9963041112395
 21
16.11019052312782
 31
0.0
 11
193.9963041112395
 21
16.17817057102653
 31
0.0
 11
193.9963041112395
 21
16.22512586184317
 31
0.0
 11
193.9963041112395
 21
16.2426464927449
 31
0.0
 11
194.0135484112111
 21
16.24165806167519
 31
0.0
 11
194.0566591611401
 21
16.23918698400091
 31
0.0
 11
194.1127031360477
 21
16.23597458302435
 31
0.0
 11
194.1687471109553
 21
16.2327621820478
 31
0.0
 11
194.2118578608843
 21
16.23029110437352
 31
0.0
 11
194.2291021608559
 21
16.22930267330381
 31
0.0
 11
194.2143774674851
 21
16.20556293372641
 31
0.0
 11
194.175621051109
 21
16.19183767331312
 31
0.0
 11
194.175621051109
 21
16.17206806177293
 31
0.0
 11
194.175621051109
 21
16.11994817680333
 31
0.0
 11
194.175621051109
 21
16.04626144288079
 31
0.0
 11
194.175621051109
 21
15.96179128448179
 31
0.0
 11
194.175621051109
 21
15.87732112608278
 31
0.0
 11
194.175621051109
 21
15.80363439216024
 31
0.0
 11
194.175621051109
 21
15.75151450719064
 31
0.0
 11
194.175621051109
 21
15.73174489565045
 31
0.0
 11
194.1916227112935
 21
15.73174489565045
 31
0.0
 11
194.232890150717
 21
15.73174489565045
 31
0.0
 11
194.2893170576837
 21
15.73174489565045
 31
0.0
 11
194.3507971204981
 21
15.73174489565045
 31
0.0
 11
194.4072240274648
 21
15.73174489565045
 31
0.0
 11
194.4484914668882
 21
15.73174489565045
 31
0.0
 11
194.4644931270728
 21
15.73174489565045
 31
0.0
 11
194.4728206422924
 21
15.73451387455921
 31
0.0
 11
194.4882860277004
 21
15.73965626396118
 31
0.0
 11
194.49661354292
 21
15.74242524286994
 31
0.0
 11
194.5091363776005
 21
15.73490952398294
 31
0.0
 11
194.5389985218386
 21
15.71698742509854
 31
0.0
 11
194.5746404359293
 21
15.69559653288168
 31
0.0
 11
194.6045025801674
 21
15.67767443399729
 31
0.0
 11
194.6170254148479
 21
15.67015871511028
 31
0.0
  0
SPLINE
  5
AD
102
{ACAD_REACTORS
330
CA
102
}
330
48
100
AcDbEntity
  8
_U_30EC_U_30A4_U_30E4_U_30FC_1
  6
Continuous
 62
     2
100
AcDbSpline
210
0.0
220
0.0
230
1.0
 70
    11
 71
     3
 72
    91
 73
    87
 74
    85
 42
0.000000001
 43
0.0000000001
 44
0.00000001
 40
0.0
 40
0.0
 40
0.0
 40
0.0
 40
0.0267532254356684
 40
0.0856103386464066
 40
0.144467452199655
 40
0.1712206856618426
 40
0.2039416005642447
 40
0.2955601971652395
 40
0.4362601844617113
 40
0.6162252844507445
 40
0.8256392189704893
 40
1.054685709844487
 40
1.293548478893551
 40
1.532411247938351
 40
1.761457738799616
 40
1.970871673298584
 40
2.15083677325678
 40
2.291536760495641
 40
2.383155356836776
 40
2.415876284101397
 40
2.442629517488039
 40
2.501486630949166
 40
2.560343744424311
 40
2.587096977826582
 40
2.61706819444101
 40
2.699247336756151
 40
2.822032643466492
 40
2.973822353258021
 40
3.143014704823464
 40
3.318007936880043
 40
3.487200288186904
 40
3.638989997548385
 40
3.76177530379494
 40
3.843954445753247
 40
3.873925662229943
 40
3.890812773500704
 40
3.90769988477191
 40
3.937960767857495
 40
3.980983618142555
 40
4.199085915228713
 40
4.439444339237504
 40
4.677588241261134
 40
5.05069831783802
 40
5.448212454763434
 40
5.855291218045016
 40
6.138575438885764
 40
6.417434507584583
 40
6.444551104394266
 40
6.504207617363566
 40
6.56386413031489
 40
6.590980727104483
 40
6.848609460381887
 40
7.109611990668864
 40
7.35291090444653
 40
7.557830220705868
 40
7.587518925913785
 40
7.652834077376155
 40
7.71814922884609
 40
7.747837934062344
 40
7.854880190301357
 40
7.976511257403899
 40
8.369487896592643
 40
8.757514959223965
 40
9.126072419331427
 40
9.460639380392546
 40
9.746695593036373
 40
9.777569943119106
 40
9.807050320932175
 40
9.830377336129306
 40
9.886003295436382
 40
9.952395569430292
 40
10.00802152870665
 40
10.03134854388257
 40
10.2135695100963
 40
10.42203479292921
 40
10.66154556731111
 40
10.9169378956435
 40
11.15832906556614
 40
11.18982674596671
 40
11.27286608520458
 40
11.39026653033406
 40
11.52484752840942
 40
11.65942852648507
 40
11.77682897161549
 40
11.85986831085745
 40
11.89136598230493
 40
11.89136598230493
 40
11.89136598230493
 40
11.89136598230493
 10
190.7027885008195
 20
14.70699600701772
 30
0.0
 10
190.7028237765287
 20
14.71587847311985
 30
0.0
 10
190.7029366710795
 20
14.74430237047346
 30
0.0
 10
190.7012984568487
 20
14.79409639169802
 30
0.0
 10
190.706975029291
 20
14.83657564478154
 30
0.0
 10
190.6956928731705
 20
14.88730154856846
 30
0.0
 10
190.7632296979031
 20
14.87012900740108
 30
0.0
 10
190.83880292107
 20
14.88290227165996
 30
0.0
 10
190.9828357056
 20
14.87629729457381
 30
0.0
 10
191.1569419185426
 20
14.87888462206465
 30
0.0
 10
191.3639599611002
 20
14.87800591955552
 30
0.0
 10
191.5894688172376
 20
14.87828207920026
 30
0.0
 10
191.8251162293406
 20
14.87818339658662
 30
0.0
 10
192.0607640531347
 20
14.87828184412766
 30
0.0
 10
192.2862717580626
 20
14.87800678190788
 30
0.0
 10
192.4932934632805
 20
14.87888186270734
 30
0.0
 10
192.6673888915288
 20
14.87630522678445
 30
0.0
 10
192.8114492071985
 20
14.88288290449212
 30
0.0
 10
192.8869691915293
 20
14.87016243405603
 30
0.0
 10
192.9545776037029
 20
14.88726400191685
 30
0.0
 10
192.9430840140676
 20
14.8367478580294
 30
0.0
 10
192.9505104581733
 20
14.79253252226501
 30
0.0
 10
192.9428838927986
 20
14.74867966503609
 30
0.0
 10
192.9546489459425
 20
14.69878374479327
 30
0.0
 10
192.8930788491983
 20
14.71393227712512
 30
0.0
 10
192.8256791738671
 20
14.70310665350673
 30
0.0
 10
192.7013004056221
 20
14.70852031626236
 30
0.0
 10
192.555442823657
 20
14.70649205390784
 30
0.0
 10
192.3893576440086
 20
14.70715777578387
 30
0.0
 10
192.2188412621724
 20
14.70689643521241
 30
0.0
 10
192.0519790855388
 20
14.70721553391094
 30
0.0
 10
191.9087346827105
 20
14.70635302590763
 30
0.0
 10
191.7773313869832
 20
14.70863300482987
 30
0.0
 10
191.7239859134655
 20
14.70407704374203
 30
0.0
 10
191.6485188456911
 20
14.70999914992876
 30
0.0
 10
191.6769075779232
 20
14.70094169343353
 30
0.0
 10
191.7033652409542
 20
14.6972591226893
 30
0.0
 10
191.6633522907702
 20
14.66654271968273
 30
0.0
 10
191.5713663691867
 20
14.67667591174638
 30
0.0
 10
191.543939620707
 20
14.43032502247785
 30
0.0
 10
191.4478793967233
 20
14.27499558764376
 30
0.0
 10
191.1917277964473
 20
13.94525417931568
 30
0.0
 10
191.7627537732763
 20
14.08430022210453
 30
0.0
 10
192.0173656320516
 20
14.0829177997336
 30
0.0
 10
192.6279647048619
 20
13.99790569242088
 30
0.0
 10
192.3340698578083
 20
14.29685417558198
 30
0.0
 10
192.0133304286518
 20
14.44330856901782
 30
0.0
 10
192.1313543360433
 20
14.50025540818287
 30
0.0
 10
192.1724716466262
 20
14.52420099873349
 30
0.0
 10
192.215681239441
 20
14.5459975881123
 30
0.0
 10
192.3174574094452
 20
14.60928721253904
 30
0.0
 10
192.4328867625247
 20
14.35147151408779
 30
0.0
 10
192.6329591642278
 20
14.21616041113683
 30
0.0
 10
192.7269077387229
 20
14.03792795138885
 30
0.0
 10
192.9558829746392
 20
13.87997821027046
 30
0.0
 10
192.8596031846708
 20
13.82915972576301
 30
0.0
 10
192.816795976378
 20
13.79881292523052
 30
0.0
 10
192.7718243528779
 20
13.77466130281461
 30
0.0
 10
192.7121720925215
 20
13.72552146747566
 30
0.0
 10
192.6789731061325
 20
13.85997475673608
 30
0.0
 10
192.5582013350796
 20
14.0159426528658
 30
0.0
 10
192.1970976005979
 20
13.88569928059556
 30
0.0
 10
191.8385061955541
 20
13.90224694409482
 30
0.0
 10
191.457092045008
 20
13.89331229351867
 30
0.0
 10
191.1703455282891
 20
13.82882671672399
 30
0.0
 10
190.8592055599712
 20
13.94230668192844
 30
0.0
 10
190.8268737818787
 20
13.83122259927767
 30
0.0
 10
190.7896178253318
 20
13.81196313850015
 30
0.0
 10
190.7865737632753
 20
13.85874784087297
 30
0.0
 10
190.7679892860608
 20
13.89806853919135
 30
0.0
 10
190.7512436616777
 20
13.95765983478233
 30
0.0
 10
190.7383730915754
 20
14.00201969871284
 30
0.0
 10
190.7042327806428
 20
14.09106331120201
 30
0.0
 10
190.9482714457755
 20
14.0218104294377
 30
0.0
 10
191.1441394486672
 20
14.00030369057741
 30
0.0
 10
191.2395426381277
 20
14.28226484478463
 30
0.0
 10
191.2945135769597
 20
14.44363045421125
 30
0.0
 10
191.5159619357157
 20
14.71391177589738
 30
0.0
 10
191.3849239381217
 20
14.70548446853735
 30
0.0
 10
191.3110026555854
 20
14.70779008496969
 30
0.0
 10
191.1977459876244
 20
14.70671378321658
 30
0.0
 10
191.0694251807483
 20
14.7070763907651
 30
0.0
 10
190.9404252030415
 20
14.70697724466085
 30
0.0
 10
190.8287840946291
 20
14.70699932712572
 30
0.0
 10
190.7514663970024
 20
14.7069957918967
 30
0.0
 10
190.713287653201
 20
14.70699595845081
 30
0.0
 10
190.7027885008195
 20
14.70699600701772
 30
0.0
 11
190.7027885008195
 21
14.70699600701772
 31
0.0
 11
190.7027885008195
 21
14.73374924051797
 31
0.0
 11
190.7027885008195
 21
14.79260635421853
 31
0.0
 11
190.7027885008195
 21
14.85146346791909
 31
0.0
 11
190.7027885008195
 21
14.87821670141934
 31
0.0
 11
190.7355094280988
 21
14.87821670141934
 31
0.0
 11
190.8271280244808
 21
14.87821670141934
 31
0.0
 11
190.9678280117818
 21
14.87821670141934
 31
0.0
 11
191.1477931118179
 21
14.87821670141934
 31
0.0
 11
191.3572070464053
 21
14.87821670141934
 31
0.0
 11
191.5862535373604
 21
14.87821670141934
 31
0.0
 11
191.8251163064992
 21
14.87821670141934
 31
0.0
 11
192.0639790756381
 21
14.87821670141934
 31
0.0
 11
192.2930255665931
 21
14.87821670141934
 31
0.0
 11
192.5024395011805
 21
14.87821670141934
 31
0.0
 11
192.6824046012167
 21
14.87821670141934
 31
0.0
 11
192.8231045885176
 21
14.87821670141934
 31
0.0
 11
192.9147231848996
 21
14.87821670141934
 31
0.0
 11
192.9474441121789
 21
14.87821670141934
 31
0.0
 11
192.9474441121789
 21
14.85146346791909
 31
0.0
 11
192.9474441121789
 21
14.79260635421853
 31
0.0
 11
192.9474441121789
 21
14.73374924051797
 31
0.0
 11
192.9474441121789
 21
14.70699600701772
 31
0.0
 11
192.9174728954758
 21
14.70699600701772
 31
0.0
 11
192.8352937529027
 21
14.70699600701772
 31
0.0
 11
192.7125084457639
 21
14.70699600701772
 31
0.0
 11
192.5607187353642
 21
14.70699600701772
 31
0.0
 11
192.3915263830077
 21
14.70699600701772
 31
0.0
 11
192.216533149999
 21
14.70699600701772
 31
0.0
 11
192.0473407976426
 21
14.70699600701772
 31
0.0
 11
191.8955510872428
 21
14.70699600701772
 31
0.0
 11
191.7727657801041
 21
14.70699600701772
 31
0.0
 11
191.6905866375309
 21
14.70699600701772
 31
0.0
 11
191.6606154208278
 21
14.70699600701772
 31
0.0
 11
191.6766359412525
 21
14.70165583340794
 31
0.0
 11
191.6926564616771
 21
14.69631565979815
 31
0.0
 11
191.6706155681421
 21
14.67558114591443
 31
0.0
 11
191.6284861855363
 21
14.6668587153611
 31
0.0
 11
191.5365235541377
 21
14.46909247312657
 31
0.0
 11
191.4279078521763
 21
14.25467511978509
 31
0.0
 11
191.3127500824807
 21
14.0462255905162
 31
0.0
 11
191.685736667502
 21
14.05582441253029
 31
0.0
 11
192.083070003615
 21
14.06781232404994
 31
0.0
 11
192.4899342191146
 21
14.08102711828532
 31
0.0
 11
192.2983119496978
 21
14.28966761302481
 31
0.0
 11
192.0966752013698
 21
14.48229420151832
 31
0.0
 11
192.1204947794749
 21
14.49525327269565
 31
0.0
 11
192.1728978513061
 21
14.52376322928576
 31
0.0
 11
192.2253009231374
 21
14.55227318587588
 31
0.0
 11
192.2491205012425
 21
14.5652322570532
 31
0.0
 11
192.4387101558627
 21
14.39079508370268
 31
0.0
 11
192.6200310940436
 21
14.20305846374091
 31
0.0
 11
192.7777729231148
 21
14.01782380992436
 31
0.0
 11
192.8966252504058
 21
13.85089253500949
 31
0.0
 11
192.8715408217923
 21
13.83501202286069
 31
0.0
 11
192.8163550788426
 21
13.80007489613332
 31
0.0
 11
192.7611693358929
 21
13.76513776940596
 31
0.0
 11
192.7360849072794
 21
13.74925725725716
 31
0.0
 11
192.6775518151612
 21
13.83887824681809
 31
0.0
 11
192.6050015078457
 21
13.93650288221032
 31
0.0
 11
192.2125412924095
 21
13.91636286943759
 31
0.0
 11
191.8249474069561
 21
13.89803302999773
 31
0.0
 11
191.4567378976213
 21
13.88202178722396
 31
0.0
 11
191.1224308105412
 21
13.86883756444947
 31
0.0
 11
190.8365441918517
 21
13.8589887850075
 31
0.0
 11
190.821186232174
 21
13.83220523466695
 31
0.0
 11
190.7937434290546
 21
13.82143559057246
 31
0.0
 11
190.7867927192319
 21
13.84370299445578
 31
0.0
 11
190.7702179496548
 21
13.89680218833139
 31
0.0
 11
190.7504351601596
 21
13.96017864553777
 31
0.0
 11
190.7338603905825
 21
14.01327783941338
 31
0.0
 11
190.7269096807598
 21
14.0355452432967
 31
0.0
 11
190.9091199859153
 21
14.03751638912953
 31
0.0
 11
191.1174975848589
 21
14.04356211829472
 31
0.0
 11
191.2303203127216
 21
14.25483550301554
 31
0.0
 11
191.3407936722035
 21
14.48509813155879
 31
0.0
 11
191.4358254265628
 21
14.70699600701772
 31
0.0
 11
191.4043277461597
 21
14.70699600701772
 31
0.0
 11
191.3212884069154
 21
14.70699600701772
 31
0.0
 11
191.2038879617768
 21
14.70699600701772
 31
0.0
 11
191.0693069636912
 21
14.70699600701772
 31
0.0
 11
190.9347259656055
 21
14.70699600701772
 31
0.0
 11
190.8173255204669
 21
14.70699600701772
 31
0.0
 11
190.7342861812226
 21
14.70699600701772
 31
0.0
 11
190.7027885008195
 21
14.70699600701772
 31
0.0
  0
SPLINE
  5
AE
102
{ACAD_REACTORS
330
CB
102
}
330
48
100
AcDbEntity
  8
_U_30EC_U_30A4_U_30E4_U_30FC_1
  6
Continuous
 62
     2
100
AcDbSpline
210
0.0
220
0.0
230
1.0
 70
    11
 71
     3
 72
    35
 73
    31
 74
    29
 42
0.000000001
 43
0.0000000001
 44
0.00000001
 40
0.0
 40
0.0
 40
0.0
 40
0.0
 40
0.0335231036620288
 40
0.0713218571712221
 40
0.4278866681487385
 40
0.8116865841964633
 40
1.198190238000146
 40
1.561379546812775
 40
1.659983174622105
 40
1.759315573807273
 40
2.132719617231158
 40
2.52523336358891
 40
2.910815397779777
 40
3.265244364303366
 40
3.592606723582052
 40
3.964386154603998
 40
4.359942131737842
 40
4.758154118639399
 40
4.843846538700019
 40
4.936650065543327
 40
5.256616602537406
 40
5.581707404416139
 40
5.899719158308277
 40
6.198363494280883
 40
6.466301046615945
 40
6.49389531153721
 40
6.559697020197003
 40
6.638234543442493
 40
6.704036252154218
 40
6.731630508422995
 40
6.731630508422995
 40
6.731630508422995
 40
6.731630508422995
 10
191.9736010568668
 20
16.23463843719134
 30
0.0
 10
191.9676006097788
 20
16.22480690542323
 30
0.0
 10
191.9548344099156
 20
16.20388988579795
 30
0.0
 10
191.7949362006553
 20
16.17127126532703
 30
0.0
 10
192.2322025842336
 20
15.88206680336696
 30
0.0
 10
192.4345394828261
 20
15.6804113835844
 30
0.0
 10
192.6819564267973
 20
15.43749387603275
 30
0.0
 10
193.1831513624605
 20
15.36047662757781
 30
0.0
 10
193.012556219897
 20
15.21876939174653
 30
0.0
 10
192.9383299463201
 20
15.01710366209112
 30
0.0
 10
192.6131432248188
 20
15.36956287174724
 30
0.0
 10
192.3277741670664
 20
15.53175212559563
 30
0.0
 10
192.0337604077658
 20
15.73687130053047
 30
0.0
 10
191.8084452691134
 20
16.21827488595455
 30
0.0
 10
191.5993085055523
 20
15.7534304660922
 30
0.0
 10
191.3207873674835
 20
15.54350952252912
 30
0.0
 10
191.0371383177209
 20
15.37424456359982
 30
0.0
 10
190.7078639527833
 20
15.0014236090794
 30
0.0
 10
190.6277012318223
 20
15.19708014458999
 30
0.0
 10
190.4759724909745
 20
15.324911041906
 30
0.0
 10
190.9083395826794
 20
15.40454031765934
 30
0.0
 10
191.0962565329766
 20
15.60026634915476
 30
0.0
 10
191.3468477420503
 20
15.81632996916753
 30
0.0
 10
191.5714350470161
 20
15.9819099230006
 30
0.0
 10
191.6259775409713
 20
16.26133964636826
 30
0.0
 10
191.7494661029012
 20
16.24737950408078
 30
0.0
 10
191.8060273344521
 20
16.24521268867647
 30
0.0
 10
191.8761870984944
 20
16.2404685988136
 30
0.0
 10
191.9333414022105
 20
16.23709429350541
 30
0.0
 10
191.9644190320838
 20
16.23519854711119
 30
0.0
 10
191.9736010568668
 20
16.23463843719134
 30
0.0
 11
191.9736010568668
 21
16.23463843719134
 31
0.0
 11
191.9525319069884
 21
16.20856374969785
 31
0.0
 11
191.9174464559424
 21
16.19450114553469
 31
0.0
 11
192.1512374769094
 21
15.92527961131382
 31
0.0
 11
192.4414585957566
 21
15.6741340796926
 31
0.0
 11
192.7612797483684
 21
15.45710987618784
 31
0.0
 11
193.0838708706289
 21
15.29025232631637
 31
0.0
 11
193.0213299868077
 21
15.21402035584928
 31
0.0
 11
192.9688035818975
 21
15.12971197913424
 31
0.0
 11
192.6436279095814
 21
15.3132640483158
 31
0.0
 11
192.3237227768436
 21
15.54070139743428
 31
0.0
 11
192.0354200158608
 21
15.7967385512331
 31
0.0
 11
191.8050514588095
 21
16.06609003445566
 31
0.0
 11
191.5995531719517
 21
15.81126348721036
 31
0.0
 11
191.3288301341536
 21
15.55645182277756
 31
0.0
 11
191.0119538423247
 21
15.31969466354856
 31
0.0
 11
190.6679957933741
 21
15.11903163191467
 31
0.0
 11
190.6218855341338
 21
15.19126067703553
 31
0.0
 11
190.5636970460348
 21
15.26355586798967
 31
0.0
 11
190.8433040489015
 21
15.41911456961745
 31
0.0
 11
191.1093004621154
 21
15.60601009790405
 31
0.0
 11
191.3499997459747
 21
15.81384496285209
 31
0.0
 11
191.5537153607775
 21
16.03222167446416
 31
0.0
 11
191.7087607668219
 21
16.25074274274287
 31
0.0
 11
191.7363041569866
 21
16.24906789496551
 31
0.0
 11
191.8019845489177
 21
16.24507402718873
 31
0.0
 11
191.880377274771
 21
16.24030715274548
 31
0.0
 11
191.9460576667021
 21
16.2363132849687
 31
0.0
 11
191.9736010568668
 21
16.23463843719134
 31
0.0
  0
SPLINE
  5
AF
102
{ACAD_REACTORS
330
CC
102
}
330
48
100
AcDbEntity
  8
_U_30EC_U_30A4_U_30E4_U_30FC_1
  6
Continuous
 62
     2
100
AcDbSpline
210
0.0
220
0.0
230
1.0
 70
    11
 71
     3
 72
    15
 73
    11
 74
     9
 42
0.000000001
 43
0.0000000001
 44
0.00000001
 40
0.0
 40
0.0
 40
0.0
 40
0.0
 40
0.2785535985096574
 40
0.5215624748198874
 40
0.6076917376040509
 40
0.6938210001741243
 40
0.9405019146455258
 40
1.221691403489049
 40
1.300471877080922
 40
1.379252341684644
 40
1.379252341684644
 40
1.379252341684644
 40
1.379252341684644
 10
189.5681493630999
 20
16.22930267330381
 30
0.0
 10
189.6296017794178
 20
16.17691646592715
 30
0.0
 10
189.7446649974113
 20
16.07882876798222
 30
0.0
 10
190.0397348497243
 20
15.92889785897222
 30
0.0
 10
189.9025147631856
 20
15.84343227515014
 30
0.0
 10
189.8041227843778
 20
15.71085785201554
 30
0.0
 10
189.7130033590649
 20
16.01616985781413
 30
0.0
 10
189.3636839480658
 20
16.07967869465375
 30
0.0
 10
189.511925837657
 20
16.17896509880877
 30
0.0
 10
189.5494081874236
 20
16.21252348402382
 30
0.0
 10
189.5681493630999
 20
16.22930267330381
 30
0.0
 11
189.5681493630999
 21
16.22930267330381
 31
0.0
 11
189.7919222440596
 21
16.06341774278972
 31
0.0
 11
189.9695046306383
 21
15.89753281227564
 31
0.0
 11
189.9066308127979
 21
15.83866743034592
 31
0.0
 11
189.8437569949575
 21
15.7798020484162
 31
0.0
 11
189.6688535117725
 21
15.95375677059491
 31
0.0
 11
189.4478256856141
 21
16.12757920110703
 31
0.0
 11
189.507987524357
 21
16.17844093720542
 31
0.0
 11
189.5681493630999
 21
16.22930267330381
 31
0.0
  0
SPLINE
  5
B0
102
{ACAD_REACTORS
330
CD
102
}
330
48
100
AcDbEntity
  8
_U_30EC_U_30A4_U_30E4_U_30FC_1
  6
Continuous
 62
     2
100
AcDbSpline
210
0.0
220
0.0
230
1.0
 70
    11
 71
     3
 72
    75
 73
    71
 74
    69
 42
0.000000001
 43
0.0000000001
 44
0.00000001
 40
0.0
 40
0.0
 40
0.0
 40
0.0
 40
0.0342546099129691
 40
0.1245622414432364
 40
0.2522385480897554
 40
0.3985991922940715
 40
0.544959836498091
 40
0.6726361431438905
 40
0.7629437746737049
 40
0.7971983935298079
 40
1.101723623449673
 40
1.408591244036676
 40
1.43333247169038
 40
1.487763172450175
 40
1.542193873082
 40
1.566935100592548
 40
1.923523931821805
 40
2.271755704953634
 40
2.590579755100876
 40
2.85894330558116
 40
2.88912033930919
 40
2.918305855191136
 40
2.941366645531259
 40
2.996357760973151
 40
3.061992318140696
 40
3.116983433626892
 40
3.140044223997571
 40
3.411273122936519
 40
3.732441619741072
 40
3.76106821753277
 40
3.837787499630336
 40
3.948858699125973
 40
4.080541049104351
 40
4.219093782625738
 40
4.35077613272229
 40
4.461847332405624
 40
4.538566614678357
 40
4.567193212544606
 40
4.594907573998864
 40
4.666381453557403
 40
4.764111044010985
 40
4.870592538125788
 40
4.96832212864221
 40
5.039796008286867
 40
5.067510369784326
 40
5.094263603185539
 40
5.153120716668171
 40
5.211977830150614
 40
5.238731063551619
 40
5.272290535138858
 40
5.363380529444719
 40
5.497618415781396
 40
5.660621563453638
 40
5.838007341749339
 40
6.015393119910691
 40
6.178396267038316
 40
6.312634151842268
 40
6.403724143059257
 40
6.437283612672353
 40
6.464036846260969
 40
6.522893960004582
 40
6.581751071483842
 40
6.608504301590788
 40
6.637253941280935
 40
6.711397748902787
 40
6.812778057283399
 40
6.923237199249176
 40
7.02461750762382
 40
7.098761315207472
 40
7.127510946007423
 40
7.127510946007423
 40
7.127510946007423
 40
7.127510946007423
 10
188.4418622390564
 20
14.95849128473265
 30
0.0
 10
188.4418622819707
 20
14.9470731340872
 30
0.0
 10
188.4418624481128
 20
14.9055525784263
 30
0.0
 10
188.4418593081787
 20
14.82146922003773
 30
0.0
 10
188.44187882798
 20
14.70004497322329
 30
0.0
 10
188.4417912187738
 20
14.55980494047449
 30
0.0
 10
188.442111623523
 20
14.42006556794576
 30
0.0
 10
188.4411605909741
 20
14.29745038894929
 30
0.0
 10
188.4431978595967
 20
14.21587074438043
 30
0.0
 10
188.4349433178745
 20
14.06271267077697
 30
0.0
 10
188.7430797940901
 20
14.22560236054721
 30
0.0
 10
189.0350645173736
 20
14.39482938688005
 30
0.0
 10
189.0408354448708
 20
14.25973235781911
 30
0.0
 10
189.0455471719891
 20
14.21617221160445
 30
0.0
 10
189.0482535411918
 20
14.17211249350546
 30
0.0
 10
189.0672545672959
 20
14.02272590363136
 30
0.0
 10
188.6583942247302
 20
14.08681172241261
 30
0.0
 10
188.3793710348832
 20
13.97296341411017
 30
0.0
 10
188.1018081587166
 20
13.87364095811141
 30
0.0
 10
187.80998371844
 20
13.91630687596358
 30
0.0
 10
187.7869144678658
 20
13.81321679744541
 30
0.0
 10
187.7537474383333
 20
13.78691091244469
 30
0.0
 10
187.7480653962738
 20
13.83455309036304
 30
0.0
 10
187.7284214559044
 20
13.87180336115069
 30
0.0
 10
187.7095089485623
 20
13.93007387847564
 30
0.0
 10
187.6942849867707
 20
13.97385201007804
 30
0.0
 10
187.6477246372935
 20
14.08759421046313
 30
0.0
 10
187.989089731245
 20
14.05576301120047
 30
0.0
 10
188.2679649367386
 20
14.02161435106481
 30
0.0
 10
188.2617753034906
 20
14.16913976479653
 30
0.0
 10
188.2630935452772
 20
14.24013150908832
 30
0.0
 10
188.2624831689947
 20
14.34719767958661
 30
0.0
 10
188.2625871570724
 20
14.47398529785998
 30
0.0
 10
188.2629987964055
 20
14.6084924349605
 30
0.0
 10
188.2613907841967
 20
14.73395549951185
 30
0.0
 10
188.2659902567924
 20
14.84505246719118
 30
0.0
 10
188.2564186502209
 20
14.90761886800689
 30
0.0
 10
188.270400178369
 20
14.96595388295002
 30
0.0
 10
188.2147384386703
 20
14.95289710582239
 30
0.0
 10
188.1575655197821
 20
14.961363077495
 30
0.0
 10
188.0616048925646
 20
14.95729976080636
 30
0.0
 10
187.9633767522821
 20
14.95970889852476
 30
0.0
 10
187.8672582457559
 20
14.95551600613388
 30
0.0
 10
187.8104648525812
 20
14.96429346441164
 30
0.0
 10
187.7550356873384
 20
14.95094936850122
 30
0.0
 10
187.7670679427917
 20
15.00036910959258
 30
0.0
 10
187.7592003173937
 20
15.04393988030396
 30
0.0
 10
187.7666295563828
 20
15.08830469118525
 30
0.0
 10
187.7551930564144
 20
15.13902297763991
 30
0.0
 10
187.8232102370132
 20
15.12162460757743
 30
0.0
 10
187.8968496879747
 20
15.13417450237189
 30
0.0
 10
188.0325064058211
 20
15.12799677011097
 30
0.0
 10
188.1884909024525
 20
15.13029203093084
 30
0.0
 10
188.3615926358143
 20
15.1294096826253
 30
0.0
 10
188.5346942964181
 20
15.13029207142408
 30
0.0
 10
188.6906789811216
 20
15.1279966295555
 30
0.0
 10
188.8263351889797
 20
15.13417486262432
 30
0.0
 10
188.8999756705652
 20
15.12162394218335
 30
0.0
 10
188.9679914174724
 20
15.13902373012142
 30
0.0
 10
188.9565590885922
 20
15.08830130414555
 30
0.0
 10
188.9639539458297
 20
15.04397060811109
 30
0.0
 10
188.956203991227
 20
15.00028307550197
 30
0.0
 10
188.9681203741877
 20
14.95063590098477
 30
0.0
 10
188.9108170223616
 20
14.96461411338426
 30
0.0
 10
188.8520145789773
 20
14.95539755673255
 30
0.0
 10
188.7525293633199
 20
14.9595226816493
 30
0.0
 10
188.649428009835
 20
14.95822760025889
 30
0.0
 10
188.5537846354573
 20
14.95854077077641
 30
0.0
 10
188.4857467971617
 20
14.95848776697146
 30
0.0
 10
188.4514462213443
 20
14.95849051871657
 30
0.0
 10
188.4418622390564
 20
14.95849128473265
 30
0.0
 11
188.4418622390564
 21
14.95849128473265
 31
0.0
 11
188.4418622390564
 21
14.92423666587186
 31
0.0
 11
188.4418622390564
 21
14.83392903432976
 31
0.0
 11
188.4418622390564
 21
14.7062527276668
 31
0.0
 11
188.4418622390564
 21
14.5598920834434
 31
0.0
 11
188.4418622390564
 21
14.41353143922
 31
0.0
 11
188.4418622390564
 21
14.28585513255704
 31
0.0
 11
188.4418622390564
 21
14.19554750101494
 31
0.0
 11
188.4418622390564
 21
14.16129288215415
 31
0.0
 11
188.7391932644567
 21
14.22709475713769
 31
0.0
 11
189.0384623627245
 21
14.29496038212072
 31
0.0
 11
189.0405487124976
 21
14.27030727882828
 31
0.0
 11
189.0451386819987
 21
14.2160704515849
 31
0.0
 11
189.0497286514996
 21
14.16183362434152
 31
0.0
 11
189.0518150012728
 21
14.13718052104908
 31
0.0
 11
188.705639688924
 21
14.05163370140898
 31
0.0
 11
188.3669653138838
 21
13.97060877629901
 31
0.0
 11
188.0563731516688
 21
13.89862764024929
 31
0.0
 11
187.7944444777955
 21
13.84021218778992
 31
0.0
 11
187.7817515029292
 21
13.81283442738013
 31
0.0
 11
187.7569794787513
 21
13.79740260446735
 31
0.0
 11
187.7491867589501
 21
13.81910683390636
 31
0.0
 11
187.7306041194242
 21
13.87086307333786
 31
0.0
 11
187.70842483999
 21
13.93263664943351
 31
0.0
 11
187.689842200464
 21
13.98439288886501
 31
0.0
 11
187.6820494806628
 21
14.00609711830402
 31
0.0
 11
187.9482776335932
 21
14.05794001759666
 31
0.0
 11
188.2626334936288
 21
14.1237396877191
 31
0.0
 11
188.2626334936288
 21
14.15236628569624
 31
0.0
 11
188.2626334936288
 21
14.22908556827499
 31
0.0
 11
188.2626334936288
 21
14.34015676842631
 31
0.0
 11
188.2626334936288
 21
14.47183911912118
 31
0.0
 11
188.2626334936288
 21
14.61039185333057
 31
0.0
 11
188.2626334936288
 21
14.74207420402543
 31
0.0
 11
188.2626334936288
 21
14.85314540417675
 31
0.0
 11
188.2626334936288
 21
14.9298646867555
 31
0.0
 11
188.2626334936288
 21
14.95849128473265
 31
0.0
 11
188.2349191321107
 21
14.95849128473265
 31
0.0
 11
188.1634452524063
 21
14.95849128473265
 31
0.0
 11
188.06571566179
 21
14.95849128473265
 31
0.0
 11
187.9592341675364
 21
14.95849128473265
 31
0.0
 11
187.86150457692
 21
14.95849128473265
 31
0.0
 11
187.7900306972156
 21
14.95849128473265
 31
0.0
 11
187.7623163356975
 21
14.95849128473265
 31
0.0
 11
187.7623163356975
 21
14.9852445182329
 31
0.0
 11
187.7623163356975
 21
15.04410163193345
 31
0.0
 11
187.7623163356975
 21
15.10295874563399
 31
0.0
 11
187.7623163356975
 21
15.12971197913424
 31
0.0
 11
187.7958758072874
 21
15.12971197913424
 31
0.0
 11
187.8869658016031
 21
15.12971197913424
 31
0.0
 11
188.0212036879629
 21
15.12971197913424
 31
0.0
 11
188.1842068356856
 21
15.12971197913424
 31
0.0
 11
188.3615926140897
 21
15.12971197913424
 31
0.0
 11
188.5389783924938
 21
15.12971197913424
 31
0.0
 11
188.7019815402164
 21
15.12971197913424
 31
0.0
 11
188.8362194265763
 21
15.12971197913424
 31
0.0
 11
188.9273094208918
 21
15.12971197913424
 31
0.0
 11
188.9608688924818
 21
15.12971197913424
 31
0.0
 11
188.9608688924818
 21
15.10295874563399
 31
0.0
 11
188.9608688924818
 21
15.04410163193344
 31
0.0
 11
188.9608688924818
 21
14.9852445182329
 31
0.0
 11
188.9608688924818
 21
14.95849128473265
 31
0.0
 11
188.9321192527877
 21
14.95849128473265
 31
0.0
 11
188.8579754451555
 21
14.95849128473265
 31
0.0
 11
188.7565951367604
 21
14.95849128473265
 31
0.0
 11
188.6461359947778
 21
14.95849128473265
 31
0.0
 11
188.5447556863827
 21
14.95849128473265
 31
0.0
 11
188.4706118787505
 21
14.95849128473265
 31
0.0
 11
188.4418622390564
 21
14.95849128473265
 31
0.0
  0
SPLINE
  5
B1
102
{ACAD_REACTORS
330
CE
102
}
330
48
100
AcDbEntity
  8
_U_30EC_U_30A4_U_30E4_U_30FC_1
  6
Continuous
 62
     2
100
AcDbSpline
210
0.0
220
0.0
230
1.0
 70
    11
 71
     3
 72
    91
 73
    87
 74
    85
 42
0.000000001
 43
0.0000000001
 44
0.00000001
 40
0.0
 40
0.0
 40
0.0
 40
0.0
 40
0.0345987051695718
 40
0.1258134969461369
 40
0.2547723404888987
 40
0.4026032099154125
 40
0.5504340793416704
 40
0.679392922883608
 40
0.7706077146571035
 40
0.8052064287780925
 40
1.124852390615281
 40
1.427402236308871
 40
1.706356627453519
 40
1.955541417875196
 40
2.169485938566341
 40
2.344350786664782
 40
2.480568411561932
 40
2.590440557428954
 40
2.649189927151108
 40
2.749320643306344
 40
2.912632739880044
 40
3.147745656000245
 40
3.24482749638505
 40
3.338490056946643
 40
3.583815413207068
 40
3.761423943238413
 40
3.886956104362576
 40
3.985855451886736
 40
4.091766255337537
 40
4.250186473811757
 40
4.422734315084424
 40
4.628285684838535
 40
4.872093227758377
 40
5.152549652145488
 40
5.464967135837468
 40
5.803201477852385
 40
6.160362988813859
 40
6.193449448275914
 40
6.284170385501569
 40
6.419718138764439
 40
6.587285046385689
 40
6.774063446723603
 40
6.967245678113586
 40
7.154024078817572
 40
7.321590987025957
 40
7.457138740890316
 40
7.547859678556052
 40
7.580946138182612
 40
7.608533084714664
 40
7.669224367077644
 40
7.729915649429866
 40
7.757502595949917
 40
7.79027806255337
 40
7.880146277430868
 40
8.01441996318033
 40
8.180411842397831
 40
8.3654346376793
 40
8.556801071622601
 40
8.741823866830714
 40
8.907815745916224
 40
9.042089431507378
 40
9.131957646249504
 40
9.16473311279708
 40
9.415425063139999
 40
9.667986180958462
 40
9.6941698074626
 40
9.756607686047532
 40
9.831130315322339
 40
9.893568193899746
 40
9.919751820398563
 40
9.950967964690394
 40
9.996421631210506
 40
10.22087981037439
 40
10.44341866197527
 40
10.4784797078884
 40
10.5709133743874
 40
10.70159545461214
 40
10.85140174170345
 40
11.00120802880462
 40
11.13189010907368
 40
11.22432377582996
 40
11.25938480938942
 40
11.2869717559613
 40
11.34766303835905
 40
11.40835432042056
 40
11.4359412589209
 40
11.4359412589209
 40
11.4359412589209
 40
11.4359412589209
 10
190.0818114333289
 20
15.55242795125077
 30
0.0
 10
190.0702785844941
 20
15.55242790287915
 30
0.0
 10
190.0283409444998
 20
15.55242773704164
 30
0.0
 10
189.9434129719026
 20
15.55243125800909
 30
0.0
 10
189.8207688553128
 20
15.55240926435879
 30
0.0
 10
189.6791206916993
 20
15.55250801177054
 30
0.0
 10
189.537975369849
 20
15.55214686232421
 30
0.0
 10
189.4141351317905
 20
15.55321883609089
 30
0.0
 10
189.3317217825381
 20
15.55092249091268
 30
0.0
 10
189.1727791229692
 20
15.5604856937342
 30
0.0
 10
189.3503402353377
 20
15.19785394311371
 30
0.0
 10
189.3379739205452
 20
14.95243127723114
 30
0.0
 10
189.4064519473865
 20
14.66862501324836
 30
0.0
 10
189.469302432097
 20
14.43250999939035
 30
0.0
 10
189.5452253431729
 20
14.2332674039613
 30
0.0
 10
189.6303189577016
 20
14.07745347451373
 30
0.0
 10
189.7244607592936
 20
13.97657857781392
 30
0.0
 10
189.8282648207727
 20
13.92465852638964
 30
0.0
 10
189.9125872030774
 20
13.97606484379618
 30
0.0
 10
189.9351322179453
 20
14.09144544037515
 30
0.0
 10
189.9745730975371
 20
14.2188514970238
 30
0.0
 10
189.9202919734943
 20
14.53622328086758
 30
0.0
 10
190.0451218072473
 20
14.38982180140902
 30
0.0
 10
190.2019291513602
 20
14.35795300331171
 30
0.0
 10
190.0947720007056
 20
14.12421357767628
 30
0.0
 10
190.0808711209867
 20
13.95972776583656
 30
0.0
 10
190.0234709467226
 20
13.83130869122483
 30
0.0
 10
189.9335020145009
 20
13.76018802352828
 30
0.0
 10
189.8095274657878
 20
13.74432324142253
 30
0.0
 10
189.6634273196861
 20
13.77993797554172
 30
0.0
 10
189.5243894320284
 20
13.90000570500277
 30
0.0
 10
189.4102003962144
 20
14.0743568255032
 30
0.0
 10
189.3146141301486
 20
14.2994660311124
 30
0.0
 10
189.2318652572627
 20
14.56388246006443
 30
0.0
 10
189.1807179256411
 20
14.88187933098543
 30
0.0
 10
189.0770189207338
 20
15.15543728488912
 30
0.0
 10
189.204284120852
 20
15.56005818612866
 30
0.0
 10
189.0357890623018
 20
15.55112367849678
 30
0.0
 10
188.9511995787077
 20
15.55315961418363
 30
0.0
 10
188.8189876387627
 20
15.55213937388406
 30
0.0
 10
188.6560505094104
 20
15.55253230318429
 30
0.0
 10
188.4733759170532
 20
15.55235696313368
 30
0.0
 10
188.2847057373383
 20
15.55260105307468
 30
0.0
 10
188.1014469020189
 20
15.55185657906236
 30
0.0
 10
187.9404746832718
 20
15.55416360522425
 30
0.0
 10
187.8029808335276
 20
15.54799804883662
 30
0.0
 10
187.728959037231
 20
15.56032838458211
 30
0.0
 10
187.6613215186856
 20
15.54329323723556
 30
0.0
 10
187.6732373719269
 20
15.59524438447528
 30
0.0
 10
187.6655677285694
 20
15.64071424966529
 30
0.0
 10
187.6732592225115
 20
15.68614453703705
 30
0.0
 10
187.6613141797762
 20
15.7380239598457
 30
0.0
 10
187.7283588305866
 20
15.72119143490264
 30
0.0
 10
187.8017375665676
 20
15.73335409092671
 30
0.0
 10
187.9379128305272
 20
15.72727231074958
 30
0.0
 10
188.0973811801512
 20
15.72954834315058
 30
0.0
 10
188.2789173085836
 20
15.72881233998962
 30
0.0
 10
188.4658034862179
 20
15.72905954196134
 30
0.0
 10
188.6468012316836
 20
15.72886400799253
 30
0.0
 10
188.8080802578878
 20
15.72932234714839
 30
0.0
 10
188.9393882124887
 20
15.72812673751206
 30
0.0
 10
189.0225051322596
 20
15.73051347319743
 30
0.0
 10
189.1556236547814
 20
15.72230605725463
 30
0.0
 10
189.0645893502659
 20
15.97752868952655
 30
0.0
 10
188.978963307442
 20
16.24164358328246
 30
0.0
 10
189.0990589003455
 20
16.22904442969165
 30
0.0
 10
189.1514264948544
 20
16.22694235763075
 30
0.0
 10
189.2214497569715
 20
16.22535399889657
 30
0.0
 10
189.2671922337818
 20
16.21602567538113
 30
0.0
 10
189.3220812646933
 20
16.22545966915426
 30
0.0
 10
189.2963574785681
 20
16.17733028655173
 30
0.0
 10
189.1825397571453
 20
16.18266829744167
 30
0.0
 10
189.3159346621135
 20
15.95449174576776
 30
0.0
 10
189.194365873547
 20
15.72156856595923
 30
0.0
 10
189.3223188769413
 20
15.73087258884438
 30
0.0
 10
189.4049048406461
 20
15.7280100175468
 30
0.0
 10
189.5307214850824
 20
15.72923437412302
 30
0.0
 10
189.6741469838057
 20
15.72932431888965
 30
0.0
 10
189.8157420951728
 20
15.72746163183853
 30
0.0
 10
189.9459127249967
 20
15.73333075937163
 30
0.0
 10
190.0193452286191
 20
15.72070340823203
 30
0.0
 10
190.0891112922096
 20
15.73877563110412
 30
0.0
 10
190.0775772605396
 20
15.68612850546326
 30
0.0
 10
190.0833184346682
 20
15.64221317686547
 30
0.0
 10
190.0816615770911
 20
15.59089982676549
 30
0.0
 10
190.0817757561669
 20
15.56158792021634
 30
0.0
 10
190.0818114333289
 20
15.55242795125077
 30
0.0
 11
190.0818114333289
 21
15.55242795125077
 31
0.0
 11
190.0472127192051
 21
15.55242795125077
 31
0.0
 11
189.9559979274241
 21
15.55242795125077
 31
0.0
 11
189.8270390838717
 21
15.55242795125077
 31
0.0
 11
189.6792082144335
 21
15.55242795125077
 31
0.0
 11
189.5313773449954
 21
15.55242795125077
 31
0.0
 11
189.402418501443
 21
15.55242795125077
 31
0.0
 11
189.311203709662
 21
15.55242795125077
 31
0.0
 11
189.2766049955382
 21
15.55242795125077
 31
0.0
 11
189.3083140497693
 21
15.23435864930121
 31
0.0
 11
189.3527866656866
 21
14.93509522788081
 31
0.0
 11
189.409238911832
 21
14.66191269512576
 31
0.0
 11
189.4768868567478
 21
14.42208605917227
 31
0.0
 11
189.5549465689762
 21
14.22289032815655
 31
0.0
 11
189.6426341170591
 21
14.07160051021478
 31
0.0
 11
189.7391655695388
 21
13.97549161348317
 31
0.0
 11
189.8437569949575
 21
13.94183864609792
 31
0.0
 11
189.8943077302786
 21
13.97177376978835
 31
0.0
 11
189.9310588991552
 21
14.06491619815047
 31
0.0
 11
189.9562640977528
 21
14.22627151712055
 31
0.0
 11
189.9721769222369
 21
14.46084531263482
 31
0.0
 11
190.0494082682583
 21
14.40202182306617
 31
0.0
 11
190.1327184184385
 21
14.35921885432689
 31
0.0
 11
190.1066365811216
 21
14.11528388661009
 31
0.0
 11
190.0673317805105
 21
13.94207902887562
 31
0.0
 11
190.0105702596765
 21
13.83011272445917
 31
0.0
 11
189.932118261691
 21
13.76989341669645
 31
0.0
 11
189.8277420296257
 21
13.75192954892317
 31
0.0
 11
189.6738595065098
 21
13.78957440012361
 31
0.0
 11
189.5388902376748
 21
13.89707348877403
 31
0.0
 11
189.4221739916163
 21
14.06627361744809
 31
0.0
 11
189.32305053683
 21
14.28902158871943
 31
0.0
 11
189.2408596418113
 21
14.55716420516172
 31
0.0
 11
189.1749410750559
 21
14.8625482693486
 31
0.0
 11
189.1246346050593
 21
15.19702058385374
 31
0.0
 11
189.0892800003171
 21
15.55242795125077
 31
0.0
 11
189.0561935405844
 21
15.55242795125077
 31
0.0
 11
188.9654726026075
 21
15.55242795125077
 31
0.0
 11
188.8299248482185
 21
15.55242795125077
 31
0.0
 11
188.6623579392495
 21
15.55242795125077
 31
0.0
 11
188.4755795375324
 21
15.55242795125077
 31
0.0
 11
188.2823973048992
 21
15.55242795125077
 31
0.0
 11
188.0956189031822
 21
15.55242795125077
 31
0.0
 11
187.9280519942131
 21
15.55242795125077
 31
0.0
 11
187.7925042398241
 21
15.55242795125077
 31
0.0
 11
187.7017833018473
 21
15.55242795125077
 31
0.0
 11
187.6686968421145
 21
15.55242795125077
 31
0.0
 11
187.6686968421145
 21
15.58001489785846
 31
0.0
 11
187.6686968421145
 21
15.64070618039537
 31
0.0
 11
187.6686968421145
 21
15.70139746293229
 31
0.0
 11
187.6686968421145
 21
15.72898440953998
 31
0.0
 11
187.7014723087631
 21
15.72898440953998
 31
0.0
 11
187.7913405237673
 21
15.72898440953998
 31
0.0
 11
187.9256142097148
 21
15.72898440953998
 31
0.0
 11
188.0916060891932
 21
15.72898440953998
 31
0.0
 11
188.2766288847901
 21
15.72898440953998
 31
0.0
 11
188.4679953190932
 21
15.72898440953998
 31
0.0
 11
188.6530181146902
 21
15.72898440953998
 31
0.0
 11
188.8190099941685
 21
15.72898440953998
 31
0.0
 11
188.953283680116
 21
15.72898440953998
 31
0.0
 11
189.0431518951202
 21
15.72898440953998
 31
0.0
 11
189.0759273617688
 21
15.72898440953998
 31
0.0
 11
189.0659183950103
 21
15.97947647544958
 31
0.0
 11
189.0599112510664
 21
16.23196614552531
 31
0.0
 11
189.086057587066
 21
16.23056921608122
 31
0.0
 11
189.148406542142
 21
16.22723807663761
 31
0.0
 11
189.22282303691
 21
16.22326220052749
 31
0.0
 11
189.2851719919859
 21
16.21993106108388
 31
0.0
 11
189.3113183279855
 21
16.21853413163979
 31
0.0
 11
189.298293111304
 21
16.1901652861608
 31
0.0
 11
189.2551649266405
 21
16.17581274276164
 31
0.0
 11
189.2574991961821
 21
15.95136670115108
 31
0.0
 11
189.2658452735903
 21
15.72898440953998
 31
0.0
 11
189.3009063195165
 21
15.72898440953998
 31
0.0
 11
189.3933399860495
 21
15.72898440953998
 31
0.0
 11
189.5240220663201
 21
15.72898440953998
 31
0.0
 11
189.6738283534596
 21
15.72898440953998
 31
0.0
 11
189.8236346405991
 21
15.72898440953998
 31
0.0
 11
189.9543167208697
 21
15.72898440953998
 31
0.0
 11
190.0467503874027
 21
15.72898440953998
 31
0.0
 11
190.0818114333289
 21
15.72898440953998
 31
0.0
 11
190.0818114333289
 21
15.70139746293229
 31
0.0
 11
190.0818114333289
 21
15.64070618039537
 31
0.0
 11
190.0818114333289
 21
15.58001489785846
 31
0.0
 11
190.0818114333289
 21
15.55242795125077
 31
0.0
  0
SPLINE
  5
B2
102
{ACAD_REACTORS
330
CF
102
}
330
48
100
AcDbEntity
  8
_U_30EC_U_30A4_U_30E4_U_30FC_1
  6
Continuous
 62
     2
100
AcDbSpline
210
0.0
220
0.0
230
1.0
 70
    11
 71
     3
 72
   118
 73
   114
 74
   112
 42
0.000000001
 43
0.0000000001
 44
0.00000001
 40
0.0
 40
0.0
 40
0.0
 40
0.0
 40
0.1054708162973078
 40
0.2466098270051592
 40
0.396591287459078
 40
0.5285525069753536
 40
0.6156245055641603
 40
0.6431434105796747
 40
0.7036850037985283
 40
0.7642265984503344
 40
0.7917455052353648
 40
0.9287404319989094
 40
1.106572819087948
 40
1.287544879680905
 40
1.317578308030422
 40
1.399928030857061
 40
1.522968204799835
 40
1.675072986590456
 40
1.844616533180533
 40
2.019973001638597
 40
2.18951654887991
 40
2.341621331585249
 40
2.464661506320385
 40
2.547011229646948
 40
2.577044658167913
 40
2.603797890892983
 40
2.662655002908699
 40
2.721512114949539
 40
2.74826534770269
 40
2.774215307344767
 40
2.845959313407097
 40
2.954338556588294
 40
3.090194227585471
 40
3.244367517100434
 40
3.407699615844193
 40
3.57103171453934
 40
3.725205003920016
 40
3.861060674729514
 40
3.969439917716207
 40
4.04118392362888
 40
4.067133883212872
 40
4.31188674601208
 40
4.547897258335444
 40
4.764747083043897
 40
4.952749679951684
 40
5.045772974195782
 40
5.1378620196449
 40
5.330543169792951
 40
5.553448265243944
 40
5.795083855888121
 40
6.043293412177175
 40
6.285761695541115
 40
6.313902908752599
 40
6.384255941793189
 40
6.475714884766777
 40
6.56717382775884
 40
6.637526860839618
 40
6.665668074073981
 40
6.692018920327953
 40
6.749990782071023
 40
6.807962643790392
 40
6.834313490017866
 40
6.856393084245145
 40
6.913335195649768
 40
6.991194817302461
 40
7.07602694228375
 40
7.153886563725269
 40
7.210828674844823
 40
7.232908268931187
 40
7.258199334923708
 40
7.324875781592358
 40
7.419142481925014
 40
7.527204308841954
 40
7.635266135230532
 40
7.729532834168518
 40
7.796209279292841
 40
7.821500344594787
 40
7.844652988850857
 40
7.899863140541579
 40
7.96575912805366
 40
8.020969279770917
 40
8.044121924046355
 40
8.06935661016037
 40
8.10913439544106
 40
8.132238100190772
 40
8.193147867786138
 40
8.27926167887631
 40
8.377977512673525
 40
8.476693347146307
 40
8.562807160411362
 40
8.623716930826149
 40
8.6468206368531
 40
8.671988793773913
 40
8.734909185827767
 40
8.816705695188482
 40
8.898502204815024
 40
8.961422597377457
 40
8.98659075455057
 40
9.012941600732724
 40
9.070913462379808
 40
9.128885324081304
 40
9.155236170324624
 40
9.180404327928667
 40
9.243324721947712
 40
9.325121234211448
 40
9.406917746637102
 40
9.469838141977558
 40
9.495006288270304
 40
9.517811184378445
 40
9.572192090486443
 40
9.63709833328067
 40
9.691479239514866
 40
9.714284125642905
 40
9.714284125642905
 40
9.714284125642905
 40
9.714284125642905
 10
185.2874469028654
 20
15.2688916318772
 30
0.0
 10
185.3090990569039
 20
15.24111869242812
 30
0.0
 10
185.3597257109474
 20
15.17618054561234
 30
0.0
 10
185.4349383202592
 20
15.06891060312899
 30
0.0
 10
185.5248482274346
 20
14.95377438266624
 30
0.0
 10
185.5709169676674
 20
14.8535704574832
 30
0.0
 10
185.6655825294654
 20
14.78434006814944
 30
0.0
 10
185.6204439320413
 20
14.73771639678273
 30
0.0
 10
185.5947047785791
 20
14.6966030886604
 30
0.0
 10
185.5645196708013
 20
14.66065971727937
 30
0.0
 10
185.5193684730563
 20
14.58579782596092
 30
0.0
 10
185.4710504458562
 20
14.807825242536
 30
0.0
 10
185.3968539713073
 20
14.84510677337709
 30
0.0
 10
185.2836047324608
 20
15.11610202130599
 30
0.0
 10
185.288513357817
 20
15.00095328446228
 30
0.0
 10
185.2868486556307
 20
14.92836675781628
 30
0.0
 10
185.2876830076715
 20
14.80625588483986
 30
0.0
 10
185.2873609540265
 20
14.6591380081046
 30
0.0
 10
185.2875076912457
 20
14.49307063956557
 30
0.0
 10
185.2872950092723
 20
14.32187554608602
 30
0.0
 10
185.2879497252034
 20
14.15552828635498
 30
0.0
 10
185.285919246114
 20
14.00935173055693
 30
0.0
 10
185.2913460399931
 20
13.8847104747461
 30
0.0
 10
185.2804930868709
 20
13.81718656540626
 30
0.0
 10
185.2956739155556
 20
13.75549061417022
 30
0.0
 10
185.2457895108134
 20
13.76727503897002
 30
0.0
 10
185.2017150342523
 20
13.75943822779969
 30
0.0
 10
185.1582371630201
 20
13.76760441372703
 30
0.0
 10
185.1092346786489
 20
13.75538056738469
 30
0.0
 10
185.1218731234826
 20
13.80960667249313
 30
0.0
 10
185.113018296845
 20
13.86936918907557
 30
0.0
 10
185.1175058770314
 20
13.9792202904437
 30
0.0
 10
185.1157960135992
 20
14.11029975405678
 30
0.0
 10
185.1163550915987
 20
14.26198011444328
 30
0.0
 10
185.1161928768694
 20
14.42211074929953
 30
0.0
 10
185.1162269924675
 20
14.58236865674565
 30
0.0
 10
185.1162514960128
 20
14.73370247520439
 30
0.0
 10
185.1161453543226
 20
14.865821563386
 30
0.0
 10
185.1164299141932
 20
14.97294802533192
 30
0.0
 10
185.1158675547568
 20
15.03808619579473
 30
0.0
 10
185.118076508369
 20
15.16618957858675
 30
0.0
 10
185.0319435998601
 20
14.79097610391577
 30
0.0
 10
184.95551408185
 20
14.63918193123394
 30
0.0
 10
184.8660040767833
 20
14.47766206446309
 30
0.0
 10
184.7640413217326
 20
14.2047184882017
 30
0.0
 10
184.7187976491039
 20
14.36717346596514
 30
0.0
 10
184.610235594167
 20
14.45605432058117
 30
0.0
 10
184.7995791751753
 20
14.60549794961409
 30
0.0
 10
184.85653405457
 20
14.79749136974927
 30
0.0
 10
184.9717520993352
 20
15.02899622906755
 30
0.0
 10
184.9940151630133
 20
15.21797259759064
 30
0.0
 10
185.1771905152139
 20
15.4945408932593
 30
0.0
 10
185.0538033597552
 20
15.48698978832094
 30
0.0
 10
184.9925684166834
 20
15.48856772366119
 30
0.0
 10
184.9081999617064
 20
15.48882592573672
 30
0.0
 10
184.8204235085966
 20
15.48544845751206
 30
0.0
 10
184.7656768696122
 20
15.4939481498202
 30
0.0
 10
184.7104703026024
 20
15.48048561049788
 30
0.0
 10
184.7222823035536
 20
15.52931442126763
 30
0.0
 10
184.7142496151793
 20
15.57269004896708
 30
0.0
 10
184.7228186104678
 20
15.61509438309573
 30
0.0
 10
184.7102943409157
 20
15.66267796552118
 30
0.0
 10
184.7555101538735
 20
15.65267212995109
 30
0.0
 10
184.8014815562724
 20
15.65894105174062
 30
0.0
 10
184.877722204771
 20
15.65593561405872
 30
0.0
 10
184.9561296131994
 20
15.65770448278541
 30
0.0
 10
185.0323992648933
 20
15.65464793981659
 30
0.0
 10
185.0783009459475
 20
15.66103971376177
 30
0.0
 10
185.1231733965401
 20
15.65093822978896
 30
0.0
 10
185.1105552275634
 20
15.70157201581898
 30
0.0
 10
185.1191936582707
 20
15.7550126188207
 30
0.0
 10
185.1152361595444
 20
15.8486325513168
 30
0.0
 10
185.1162325068335
 20
15.95112606688924
 30
0.0
 10
185.1171927413074
 20
16.05353270248163
 30
0.0
 10
185.1133211458006
 20
16.14735929609321
 30
0.0
 10
185.1217789814365
 20
16.20036542840353
 30
0.0
 10
185.1093075932836
 20
16.25211435651188
 30
0.0
 10
185.1542106389851
 20
16.23850747226758
 30
0.0
 10
185.1955083836772
 20
16.24100480320585
 30
0.0
 10
185.259534428105
 20
16.23648060574488
 30
0.0
 10
185.2986111148786
 20
16.22781003043307
 30
0.0
 10
185.3476543498741
 20
16.23515102070688
 30
0.0
 10
185.3225080030591
 20
16.19602896051757
 30
0.0
 10
185.2815901333724
 20
16.20563842455805
 30
0.0
 10
185.2910109616604
 20
16.15540148169778
 30
0.0
 10
185.2855647318747
 20
16.1038594563949
 30
0.0
 10
185.2881699601805
 20
16.0195970758452
 30
0.0
 10
185.2870102202155
 20
15.92559135583408
 30
0.0
 10
185.2883591064232
 20
15.83196865395525
 30
0.0
 10
185.2849970101508
 20
15.74679517552223
 30
0.0
 10
185.292095991777
 20
15.69716856072044
 30
0.0
 10
185.2812569154547
 20
15.64993694969989
 30
0.0
 10
185.3304010225246
 20
15.66201674936851
 30
0.0
 10
185.3794877630147
 20
15.65447393363011
 30
0.0
 10
185.4573714280641
 20
15.65686070361432
 30
0.0
 10
185.5350365172896
 20
15.65899381905415
 30
0.0
 10
185.5845393931354
 20
15.65193391922455
 30
0.0
 10
185.6344594750639
 20
15.66360151936214
 30
0.0
 10
185.6223198516881
 20
15.61540235371393
 30
0.0
 10
185.6305838229143
 20
15.57249219801236
 30
0.0
 10
185.6223198650783
 20
15.52958201851384
 30
0.0
 10
185.6344594549855
 20
15.48138288754864
 30
0.0
 10
185.5845395158746
 20
15.4930503447151
 30
0.0
 10
185.5350350651203
 20
15.48599202435046
 30
0.0
 10
185.4573784382973
 20
15.48811665228604
 30
0.0
 10
185.379464386576
 20
15.4905338936576
 30
0.0
 10
185.3304500352718
 20
15.48291848194486
 30
0.0
 10
185.2813246108944
 20
15.49507952557591
 30
0.0
 10
185.2915559988572
 20
15.45073013424159
 30
0.0
 10
185.2856677678054
 20
15.40925436202911
 30
0.0
 10
185.287878830557
 20
15.34915394315303
 30
0.0
 10
185.2874109346148
 20
15.3022578276289
 30
0.0
 10
185.2874386992914
 20
15.27650146418197
 30
0.0
 10
185.2874469028654
 20
15.2688916318772
 30
0.0
 11
185.2874469028654
 21
15.2688916318772
 31
0.0
 11
185.3516977534485
 21
15.18524999634257
 31
0.0
 11
185.43482588355
 21
15.07118889748221
 31
0.0
 11
185.5216831568896
 21
14.94891767195723
 31
0.0
 11
185.5971214371872
 21
14.84064565642876
 31
0.0
 11
185.6459925881626
 21
14.7685821875579
 31
0.0
 11
185.6296821285093
 21
14.74641782124399
 31
0.0
 11
185.593799117272
 21
14.69765621535339
 31
0.0
 11
185.5579161060347
 21
14.6488946094628
 31
0.0
 11
185.5416056463814
 21
14.62673024314889
 31
0.0
 11
185.4763067109446
 21
14.74716139023812
 31
0.0
 11
185.3848434243235
 21
14.89966983670206
 31
0.0
 11
185.2874469028654
 21
15.05219788193142
 31
0.0
 11
185.2874469028654
 21
15.02216445328253
 31
0.0
 11
185.2874469028654
 21
14.93981472956783
 31
0.0
 11
185.2874469028654
 21
14.81677455413528
 31
0.0
 11
185.2874469028654
 21
14.66466977033283
 31
0.0
 11
185.2874469028654
 21
14.49512622150845
 31
0.0
 11
185.2874469028654
 21
14.31976975101009
 31
0.0
 11
185.2874469028654
 21
14.15022620218571
 31
0.0
 11
185.2874469028654
 21
13.99812141838326
 31
0.0
 11
185.2874469028654
 21
13.87508124295071
 31
0.0
 11
185.2874469028654
 21
13.79273151923601
 31
0.0
 11
185.2874469028654
 21
13.76269809058712
 31
0.0
 11
185.260693670041
 21
13.76269809058712
 31
0.0
 11
185.2018365578272
 21
13.76269809058712
 31
0.0
 11
185.1429794456135
 21
13.76269809058712
 31
0.0
 11
185.1162262127891
 21
13.76269809058712
 31
0.0
 11
185.1162262127891
 21
13.7886480503125
 31
0.0
 11
185.1162262127891
 21
13.86039205661208
 31
0.0
 11
185.1162262127891
 21
13.96877130017101
 31
0.0
 11
185.1162262127891
 21
14.10462697167447
 31
0.0
 11
185.1162262127891
 21
14.25880026180761
 31
0.0
 11
185.1162262127891
 21
14.42213236125558
 31
0.0
 11
185.1162262127891
 21
14.58546446070356
 31
0.0
 11
185.1162262127891
 21
14.73963775083669
 31
0.0
 11
185.1162262127891
 21
14.87549342234015
 31
0.0
 11
185.1162262127891
 21
14.98387266589908
 31
0.0
 11
185.1162262127891
 21
15.05561667219866
 31
0.0
 11
185.1162262127891
 21
15.08156663192404
 31
0.0
 11
185.0379865861721
 21
14.84965603302372
 31
0.0
 11
184.9497110789303
 21
14.63077616328678
 31
0.0
 11
184.8544106930045
 21
14.43598991333547
 31
0.0
 11
184.7550964303356
 21
14.27636017379202
 31
0.0
 11
184.7109198342406
 21
14.35822446196599
 31
0.0
 11
184.658805738348
 21
14.43414885430811
 31
0.0
 11
184.7627302590299
 21
14.59640087926757
 31
0.0
 11
184.8629319864735
 21
14.79551465421781
 31
0.0
 11
184.9550446607902
 21
15.01890447916196
 31
0.0
 11
185.0347020220912
 21
15.25398465410319
 31
0.0
 11
185.097537810488
 21
15.48816947904465
 31
0.0
 11
185.0693965972142
 21
15.48816947904465
 31
0.0
 11
184.9990435640297
 21
15.48816947904465
 31
0.0
 11
184.9075846208898
 21
15.48816947904465
 31
0.0
 11
184.8161256777499
 21
15.48816947904465
 31
0.0
 11
184.7457726445654
 21
15.48816947904465
 31
0.0
 11
184.7176314312916
 21
15.48816947904465
 31
0.0
 11
184.7176314312916
 21
15.51452032539222
 31
0.0
 11
184.7176314312916
 21
15.57249218735688
 31
0.0
 11
184.7176314312916
 21
15.63046404932155
 31
0.0
 11
184.7176314312916
 21
15.65681489566912
 31
0.0
 11
184.739711025602
 21
15.65681489566912
 31
0.0
 11
184.7966531372444
 21
15.65681489566912
 31
0.0
 11
184.8745127592862
 21
15.65681489566912
 31
0.0
 11
184.9593448847945
 21
15.65681489566912
 31
0.0
 11
185.0372045068362
 21
15.65681489566912
 31
0.0
 11
185.0941466184787
 21
15.65681489566912
 31
0.0
 11
185.1162262127891
 21
15.65681489566912
 31
0.0
 11
185.1162262127891
 21
15.68210596174353
 31
0.0
 11
185.1162262127891
 21
15.74878240866697
 31
0.0
 11
185.1162262127891
 21
15.84304910948977
 31
0.0
 11
185.1162262127891
 21
15.95111093726224
 31
0.0
 11
185.1162262127891
 21
16.05917276503471
 31
0.0
 11
185.1162262127891
 21
16.15343946585751
 31
0.0
 11
185.1162262127891
 21
16.22011591278095
 31
0.0
 11
185.1162262127891
 21
16.24540697885536
 31
0.0
 11
185.1393181988666
 21
16.243732131078
 31
0.0
 11
185.1943837041285
 21
16.23973826330122
 31
0.0
 11
185.2601070491183
 21
16.23497138885796
 31
0.0
 11
185.3151725543802
 21
16.23097752108117
 31
0.0
 11
185.3382645404577
 21
16.22930267330381
 31
0.0
 11
185.3249012644362
 21
16.20789677921191
 31
0.0
 11
185.2874469028654
 21
16.19450114553469
 31
0.0
 11
185.2874469028654
 21
16.17139743948578
 31
0.0
 11
185.2874469028654
 21
16.11048766899319
 31
0.0
 11
185.2874469028654
 21
16.02437385553816
 31
0.0
 11
185.2874469028654
 21
15.9256580206019
 31
0.0
 11
185.2874469028654
 21
15.82694218566565
 31
0.0
 11
185.2874469028654
 21
15.74082837221061
 31
0.0
 11
185.2874469028654
 21
15.67991860171803
 31
0.0
 11
185.2874469028654
 21
15.65681489566912
 31
0.0
 11
185.312615060481
 21
15.65681489566912
 31
0.0
 11
185.3755354545199
 21
15.65681489566912
 31
0.0
 11
185.4573319667706
 21
15.65681489566912
 31
0.0
 11
185.5391284790213
 21
15.65681489566912
 31
0.0
 11
185.6020488730602
 21
15.65681489566912
 31
0.0
 11
185.6272170306758
 21
15.65681489566912
 31
0.0
 11
185.6272170306758
 21
15.63046404932155
 31
0.0
 11
185.6272170306758
 21
15.57249218735689
 31
0.0
 11
185.6272170306758
 21
15.51452032539222
 31
0.0
 11
185.6272170306758
 21
15.48816947904465
 31
0.0
 11
185.6020488730602
 21
15.48816947904465
 31
0.0
 11
185.5391284790213
 21
15.48816947904465
 31
0.0
 11
185.4573319667706
 21
15.48816947904465
 31
0.0
 11
185.37553545452
 21
15.48816947904465
 31
0.0
 11
185.312615060481
 21
15.48816947904465
 31
0.0
 11
185.2874469028654
 21
15.48816947904465
 31
0.0
 11
185.2874469028654
 21
15.46536458293924
 31
0.0
 11
185.2874469028654
 21
15.41098367684171
 31
0.0
 11
185.2874469028654
 21
15.34607743408014
 31
0.0
 11
185.2874469028654
 21
15.29169652798262
 31
0.0
 11
185.2874469028654
 21
15.2688916318772
 31
0.0
  0
SPLINE
  5
B3
102
{ACAD_REACTORS
330
D0
102
}
330
48
100
AcDbEntity
  8
_U_30EC_U_30A4_U_30E4_U_30FC_1
  6
Continuous
 62
     2
100
AcDbSpline
210
0.0
220
0.0
230
1.0
 70
    11
 71
     3
 72
    47
 73
    43
 74
    41
 42
0.000000001
 43
0.0000000001
 44
0.00000001
 40
0.0
 40
0.0
 40
0.0
 40
0.0
 40
0.2207912809957249
 40
0.4459404186303046
 40
0.4902387190458136
 40
0.532747389272193
 40
0.5742260451224126
 40
0.6155432630559703
 40
0.656816406631519
 40
0.6982511618779551
 40
0.7407663929315773
 40
0.7851366743173271
 40
1.010288833836121
 40
1.231080507001977
 40
1.451765243652196
 40
1.676638205891483
 40
1.720461045359452
 40
1.830018144043317
 40
1.972442372352948
 40
2.114866600677317
 40
2.224423699394942
 40
2.268246538883183
 40
2.493628801207011
 40
2.715602830286415
 40
2.934211330706166
 40
3.149502369855154
 40
3.231387784850714
 40
3.31823187385375
 40
3.405143198197652
 40
3.486970301720061
 40
3.702258172493497
 40
3.920866283533725
 40
4.14283932593152
 40
4.36822190386498
 40
4.41204474335946
 40
4.521601842095476
 40
4.664026070451956
 40
4.806450298808664
 40
4.916007397546356
 40
4.95983023704268
 40
5.184703515846713
 40
5.405387250767081
 40
5.405387250767081
 40
5.405387250767081
 40
5.405387250767081
 10
182.6507427258644
 20
15.73406440953871
 30
0.0
 10
182.6568139420002
 20
15.79758482501209
 30
0.0
 10
182.6690762107241
 20
15.92587938689623
 30
0.0
 10
182.5604706879415
 20
16.20166220174078
 30
0.0
 10
182.6761985896604
 20
16.17188133432051
 30
0.0
 10
182.7171842509016
 20
16.16765556262823
 30
0.0
 10
182.7591205797518
 20
16.16310446389605
 30
0.0
 10
182.8004196625711
 20
16.16201982929485
 30
0.0
 10
182.8417032115555
 20
16.16310338195226
 30
0.0
 10
182.8836148270647
 20
16.16766112711345
 30
0.0
 10
182.9245983549019
 20
16.17187430209728
 30
0.0
 10
183.0404922843487
 20
16.20177611317534
 30
0.0
 10
182.9295652727457
 20
15.92339806609887
 30
0.0
 10
182.9574856365267
 20
15.74283140824952
 30
0.0
 10
182.940426734697
 20
15.50961042346472
 30
0.0
 10
182.9414637282104
 20
15.34906622543145
 30
0.0
 10
182.9414099399405
 20
15.22284817558722
 30
0.0
 10
182.9414277372482
 20
15.12428963336241
 30
0.0
 10
182.9414188581081
 20
14.99280702442963
 30
0.0
 10
182.9414263928034
 20
14.86132844968649
 30
0.0
 10
182.9414129405129
 20
14.7627622269409
 30
0.0
 10
182.9414531717493
 20
14.63639735624152
 30
0.0
 10
182.9406746403818
 20
14.4748206882287
 30
0.0
 10
182.9565958319268
 20
14.24361821892914
 30
0.0
 10
182.9333468885408
 20
14.05874351972003
 30
0.0
 10
183.0360183444365
 20
13.78935602770056
 30
0.0
 10
182.8820238362836
 20
13.82660112685818
 30
0.0
 10
182.8004129802832
 20
13.82137994680535
 30
0.0
 10
182.7188192292583
 20
13.82660620378351
 30
0.0
 10
182.5648513666844
 20
13.78937069885386
 30
0.0
 10
182.6674183421916
 20
14.0587512986288
 30
0.0
 10
182.6442045316087
 20
14.24361585325415
 30
0.0
 10
182.6600444655139
 20
14.47482218565638
 30
0.0
 10
182.6593296313426
 20
14.63639712308503
 30
0.0
 10
182.6593664569907
 20
14.76276231210521
 30
0.0
 10
182.659354900027
 20
14.86132756635981
 30
0.0
 10
182.6593575019214
 20
14.9928112741722
 30
0.0
 10
182.6593648531779
 20
15.124275480312
 30
0.0
 10
182.6593442541351
 20
15.22287786275326
 30
0.0
 10
182.6594082192028
 20
15.34896149354427
 30
0.0
 10
182.6581733947589
 20
15.51210091383771
 30
0.0
 10
182.6532040396744
 20
15.66054183777549
 30
0.0
 10
182.6507427258644
 20
15.73406440953871
 30
0.0
 11
182.6507427258644
 21
15.73406440953871
 31
0.0
 11
182.6417328200379
 21
15.95467178795577
 31
0.0
 11
182.6318769706147
 21
16.17960510387179
 31
0.0
 11
182.6756985840801
 21
16.17312391463728
 31
0.0
 11
182.7178400934216
 21
16.16754892331925
 31
0.0
 11
182.759137140979
 21
16.16367167505631
 31
0.0
 11
182.8004341885365
 21
16.16238072887607
 31
0.0
 11
182.8416871388731
 21
16.16367167505631
 31
0.0
 11
182.8829400892097
 21
16.16754892331925
 31
0.0
 11
182.9250882131343
 21
16.17312391463728
 31
0.0
 11
182.9689825870144
 21
16.17960510387179
 31
0.0
 11
182.9590577693891
 21
15.95467178795577
 31
0.0
 11
182.9500384208311
 21
15.73406440953871
 31
0.0
 11
182.9435638463436
 21
15.51347467001054
 31
0.0
 11
182.9414218238287
 21
15.28861190965007
 31
0.0
 11
182.9414218238287
 21
15.24478907015486
 31
0.0
 11
182.9414218238287
 21
15.13523197141682
 31
0.0
 11
182.9414218238287
 21
14.99280774305737
 31
0.0
 11
182.9414218238287
 21
14.85038351469792
 31
0.0
 11
182.9414218238287
 21
14.74082641595989
 31
0.0
 11
182.9414218238287
 21
14.69700357646467
 31
0.0
 11
182.9435638463436
 21
14.47163149318767
 31
0.0
 11
182.9500384208311
 21
14.2497519099098
 31
0.0
 11
182.9590577693891
 21
14.03132954885329
 31
0.0
 11
182.9689825870144
 21
13.81626739612927
 31
0.0
 11
182.887261616877
 21
13.82145433189186
 31
0.0
 11
182.8004341885365
 21
13.82315538223863
 31
0.0
 11
182.713539511934
 21
13.82145433189186
 31
0.0
 11
182.6318769706147
 21
13.81626739612927
 31
0.0
 11
182.6417328200379
 21
14.03132954885329
 31
0.0
 11
182.6507427258644
 21
14.2497519099098
 31
0.0
 11
182.6571833838798
 21
14.47163149318766
 31
0.0
 11
182.6593583588023
 21
14.69700357646467
 31
0.0
 11
182.6593583588023
 21
14.74082641595988
 31
0.0
 11
182.6593583588023
 21
14.85038351469792
 31
0.0
 11
182.6593583588023
 21
14.99280774305737
 31
0.0
 11
182.6593583588023
 21
15.13523197141682
 31
0.0
 11
182.6593583588023
 21
15.24478907015486
 31
0.0
 11
182.6593583588023
 21
15.28861190965007
 31
0.0
 11
182.6571833838798
 21
15.51347467001054
 31
0.0
 11
182.6507427258644
 21
15.73406440953871
 31
0.0
  0
SPLINE
  5
B4
102
{ACAD_REACTORS
330
D1
102
}
330
48
100
AcDbEntity
  8
_U_30EC_U_30A4_U_30E4_U_30FC_1
  6
Continuous
 62
     2
100
AcDbSpline
210
0.0
220
0.0
230
1.0
 70
    11
 71
     3
 72
   110
 73
   106
 74
   104
 42
0.000000001
 43
0.0000000001
 44
0.00000001
 40
0.0
 40
0.0
 40
0.0
 40
0.0
 40
0.2203406257277755
 40
0.4407808782838091
 40
0.5952494494615352
 40
0.7488431659393071
 40
0.9023581831309341
 40
1.056801968670404
 40
1.210736449099961
 40
1.363041386539868
 40
1.515315729683126
 40
1.669377239148077
 40
1.721611652756564
 40
1.773199502942947
 40
1.824933793209993
 40
1.877110426487969
 40
1.982682281206704
 40
2.078781667087427
 40
2.17280964082229
 40
2.271937807378916
 40
2.378349933379281
 40
2.494131557736583
 40
2.626681683943631
 40
2.783145050796059
 40
2.89070123294091
 40
2.993130312454801
 40
3.099869730691792
 40
3.220237816691288
 40
3.352695482737582
 40
3.481732806389827
 40
3.593499473690357
 40
3.674323013331863
 40
3.817951711952785
 40
3.946167120793725
 40
4.061405053453524
 40
4.166480796003136
 40
4.262478775059202
 40
4.350736673551244
 40
4.433071991254101
 40
4.511216293814533
 40
4.564262454117824
 40
4.61847441557144
 40
4.670128488754044
 40
4.722296879126226
 40
4.819540945314095
 40
4.931194984127952
 40
5.049996040257537
 40
5.168643755414941
 40
5.283970811762266
 40
5.392260784910092
 40
5.486512254876138
 40
5.559178233949566
 40
5.591425852853233
 40
5.62621596963762
 40
5.667155838674154
 40
5.717449290213962
 40
5.738402360944576
 40
5.784499116553546
 40
5.830595872164519
 40
5.851548942897377
 40
5.873019280661492
 40
5.924217778408034
 40
5.985325662817413
 40
6.03652416056743
 40
6.057994498333958
 40
6.236847789607207
 40
6.381409928945391
 40
6.493190424178414
 40
6.574067534230224
 40
6.691018086205318
 40
6.814881554220321
 40
6.944307823240245
 40
7.071266716065812
 40
7.193488604461657
 40
7.309042773127884
 40
7.414007203170482
 40
7.505140441886265
 40
7.531150360599404
 40
7.559221645321989
 40
7.587202218920649
 40
7.612569159498866
 40
7.662550809480746
 40
7.702878875763882
 40
7.857328205230611
 40
8.010799568088228
 40
8.165256399657263
 40
8.32223269871363
 40
8.479564855016317
 40
8.63521623029052
 40
8.790882550925438
 40
8.948305154947004
 40
9.168271839032695
 40
9.387358980986976
 40
9.60804796103321
 40
9.8329142347924
 40
9.858338694962736
 40
9.925366817229744
 40
10.02013071422732
 40
10.12876249858971
 40
10.23739428295222
 40
10.33215817995163
 40
10.39918630222367
 40
10.42461076239756
 40
10.64992019336917
 40
10.87188524531161
 40
10.87188524531161
 40
10.87188524531161
 40
10.87188524531161
 10
179.9057788376618
 20
15.7392326039819
 30
0.0
 10
179.9092864933542
 20
15.80616462073804
 30
0.0
 10
179.9163033987662
 20
15.94005891915859
 30
0.0
 10
179.8198027599072
 20
16.2254855497147
 30
0.0
 10
180.0510134726109
 20
16.16284386190284
 30
0.0
 10
180.1919290057156
 20
16.17001554055992
 30
0.0
 10
180.3490417757588
 20
16.16235883078244
 30
0.0
 10
180.5025913427288
 20
16.1625275228304
 30
0.0
 10
180.6545104935081
 20
16.16182040535432
 30
0.0
 10
180.8142214813231
 20
16.17210158351639
 30
0.0
 10
180.9408972601118
 20
16.15496511080752
 30
0.0
 10
181.137082112208
 20
16.22727260107145
 30
0.0
 10
181.1034395279078
 20
16.12640699080117
 30
0.0
 10
181.1052011317184
 20
16.0761925394767
 30
0.0
 10
181.1027342073458
 20
16.02712335586466
 30
0.0
 10
181.1347076966011
 20
15.94063490847
 30
0.0
 10
181.0010399903257
 20
15.98997438608335
 30
0.0
 10
180.9172208688057
 20
15.98430634314169
 30
0.0
 10
180.8173861139324
 20
15.99465516706297
 30
0.0
 10
180.7186576720146
 20
16.00086450411087
 30
0.0
 10
180.612153277111
 20
16.00697763816778
 30
0.0
 10
180.4910511698059
 20
16.01588883484585
 30
0.0
 10
180.3703381502453
 20
16.00521605912385
 30
0.0
 10
180.1812553843437
 20
16.06468503080367
 30
0.0
 10
180.212902850531
 20
15.9055832007754
 30
0.0
 10
180.1995563316835
 20
15.80839128339904
 30
0.0
 10
180.1974958426449
 20
15.69634065110104
 30
0.0
 10
180.1958188044671
 20
15.57699685629351
 30
0.0
 10
180.1973336794232
 20
15.45032592155109
 30
0.0
 10
180.1956582478669
 20
15.32301588016117
 30
0.0
 10
180.2058844271658
 20
15.22451566404464
 30
0.0
 10
180.1779006596582
 20
15.08388702625632
 30
0.0
 10
180.3508029999305
 20
15.13989551134095
 30
0.0
 10
180.4645020202771
 20
15.12719951478498
 30
0.0
 10
180.5840151672239
 20
15.13448377051255
 30
0.0
 10
180.6888491425072
 20
15.13878017056755
 30
0.0
 10
180.7843084898612
 20
15.14330568258977
 30
0.0
 10
180.8763823507033
 20
15.151492011462
 30
0.0
 10
180.947655178244
 20
15.14643850638111
 30
0.0
 10
181.0544931705683
 20
15.18536425031668
 30
0.0
 10
181.0226603598037
 20
15.10517122005878
 30
0.0
 10
181.0266164503929
 20
15.05562936846034
 30
0.0
 10
181.0234502392014
 20
15.0055747803982
 30
0.0
 10
181.0550791490583
 20
14.92128847612021
 30
0.0
 10
180.9210133677691
 20
14.97425365495158
 30
0.0
 10
180.8292322793199
 20
14.96540080890441
 30
0.0
 10
180.7079729189603
 20
14.97570049965155
 30
0.0
 10
180.5914113119771
 20
14.97748911767502
 30
0.0
 10
180.4783375745879
 20
14.97787017109694
 30
0.0
 10
180.3679246308471
 20
14.9841544947218
 30
0.0
 10
180.289812406784
 20
14.97189133255364
 30
0.0
 10
180.1913625833644
 20
15.00453887616127
 30
0.0
 10
180.2012355173561
 20
14.94769748054206
 30
0.0
 10
180.1973923244401
 20
14.91392130557984
 30
0.0
 10
180.1966789884268
 20
14.87119604709411
 30
0.0
 10
180.1963369642975
 20
14.83401607262153
 30
0.0
 10
180.1963834255345
 20
14.79487237370771
 30
0.0
 10
180.1963649429927
 20
14.75716849497686
 30
0.0
 10
180.1963703431806
 20
14.71944955232402
 30
0.0
 10
180.1963697214201
 20
14.6899432474515
 30
0.0
 10
180.1963698151545
 20
14.65873577699301
 30
0.0
 10
180.1963704287921
 20
14.61414424908085
 30
0.0
 10
180.1963671499336
 20
14.5596395650885
 30
0.0
 10
180.1963759623481
 20
14.51505540201448
 30
0.0
 10
180.1963359653417
 20
14.4311780858574
 30
0.0
 10
180.1976024270255
 20
14.31737520677678
 30
0.0
 10
180.1950274117841
 20
14.16830395933709
 30
0.0
 10
180.2065009381719
 20
14.06597203813905
 30
0.0
 10
180.1823506222263
 20
13.93338903885834
 30
0.0
 10
180.3332993946477
 20
13.97895732272022
 30
0.0
 10
180.4428436671556
 20
13.96427012162349
 30
0.0
 10
180.5733970473921
 20
13.96920435125063
 30
0.0
 10
180.6990312209514
 20
13.97257705323362
 30
0.0
 10
180.81887306256
 20
13.97711497498772
 30
0.0
 10
180.9391362611427
 20
13.99048536182005
 30
0.0
 10
181.0222761663515
 20
13.98068712782596
 30
0.0
 10
181.1456080421074
 20
14.04126214623322
 30
0.0
 10
181.1244269203957
 20
13.9853246013402
 30
0.0
 10
181.1235950270118
 20
13.95939249372346
 30
0.0
 10
181.1218963707557
 20
13.93197256190939
 30
0.0
 10
181.1217974888829
 20
13.89738195206385
 30
0.0
 10
181.1203659301329
 20
13.86050408220767
 30
0.0
 10
181.153280419219
 20
13.7684684102181
 30
0.0
 10
180.9551306988108
 20
13.84132015974832
 30
0.0
 10
180.8300548294891
 20
13.81825726508606
 30
0.0
 10
180.6673071295157
 20
13.82454021985787
 30
0.0
 10
180.5129366450001
 20
13.82260943909927
 30
0.0
 10
180.3566670436944
 20
13.82393762599268
 30
0.0
 10
180.1970544465282
 20
13.82059872487863
 30
0.0
 10
180.0540326342236
 20
13.83265795728241
 30
0.0
 10
179.8197144881628
 20
13.76952001976918
 30
0.0
 10
179.9173810751197
 20
14.05620527466318
 30
0.0
 10
179.9006868780059
 20
14.24988308142661
 30
0.0
 10
179.9146296709685
 20
14.47848242880295
 30
0.0
 10
179.9142987846631
 20
14.63384593955046
 30
0.0
 10
179.9143078119264
 20
14.73966336444125
 30
0.0
 10
179.9143055876316
 20
14.80205784124213
 30
0.0
 10
179.9143065551888
 20
14.89220425248325
 30
0.0
 10
179.9143065473262
 20
14.99621167157437
 30
0.0
 10
179.9143053861102
 20
15.10022131375295
 30
0.0
 10
179.9143090971502
 20
15.19036243688766
 30
0.0
 10
179.9143011051052
 20
15.25276803097214
 30
0.0
 10
179.9143334275017
 20
15.35868835961118
 30
0.0
 10
179.9131440788319
 20
15.5162671654474
 30
0.0
 10
179.9082216489255
 20
15.66528219822065
 30
0.0
 10
179.9057788376618
 20
15.7392326039819
 30
0.0
 11
179.9057788376618
 21
15.7392326039819
 31
0.0
 11
179.896691822374
 21
15.95938578101018
 31
0.0
 11
179.8868249573133
 21
16.17960510387179
 31
0.0
 11
180.04115751414
 21
16.17312391463728
 31
0.0
 11
180.1946500189046
 21
16.16754892331925
 31
0.0
 11
180.3481160653367
 21
16.16367167505631
 31
0.0
 11
180.5025544554939
 21
16.16238072887607
 31
0.0
 11
180.6564835227474
 21
16.16367167505631
 31
0.0
 11
180.8087391004601
 21
16.16754892331925
 31
0.0
 11
180.9609113551074
 21
16.17312391463728
 31
0.0
 11
181.1148364762483
 21
16.17960510387179
 31
0.0
 11
181.1070811703123
 21
16.12794961777358
 31
0.0
 11
181.1044991623591
 21
16.07642642334204
 31
0.0
 11
181.1070811703123
 21
16.0247566056466
 31
0.0
 11
181.1148364762483
 21
15.97315954836785
 31
0.0
 11
181.0094874054411
 21
15.98001446156058
 31
0.0
 11
180.9136375700061
 21
15.98693552058657
 31
0.0
 11
180.8198593171903
 21
15.99378381919598
 31
0.0
 11
180.7209679915881
 21
16.0006321178054
 31
0.0
 11
180.6147532199924
 21
16.00710999974824
 31
0.0
 11
180.4991060528037
 21
16.01268829835794
 31
0.0
 11
180.3666126447258
 21
16.01656554662088
 31
0.0
 11
180.2101546018423
 21
16.01785649280112
 31
0.0
 11
180.2062663293721
 21
15.91037061609187
 31
0.0
 11
180.2015380048401
 21
15.80805072896465
 31
0.0
 11
180.1976607566749
 21
15.70138175329687
 31
0.0
 11
180.1963698105272
 21
15.5810205901325
 31
0.0
 11
180.1967799146835
 21
15.44856355891564
 31
0.0
 11
180.1980896021501
 21
15.31953288186455
 31
0.0
 11
180.1994074577049
 21
15.20777398432309
 31
0.0
 11
180.199819115366
 21
15.12695149302385
 31
0.0
 11
180.3434452935874
 21
15.1278025694125
 31
0.0
 11
180.4716343930757
 21
15.13039989580077
 31
0.0
 11
180.5868078221796
 21
15.13425509545254
 31
0.0
 11
180.691775631222
 21
15.13901649302076
 31
0.0
 11
180.7876346289421
 21
15.14418027774175
 31
0.0
 11
180.8757413374194
 21
15.14934406246267
 31
0.0
 11
180.9578881438497
 21
15.15491243919739
 31
0.0
 11
181.035769233557
 21
15.16132086801523
 31
0.0
 11
181.0280180445186
 21
15.10884407115337
 31
0.0
 11
181.0254328449317
 21
15.05469378470858
 31
0.0
 11
181.0280180445186
 21
15.00310444444367
 31
0.0
 11
181.035769233557
 21
14.95151510417882
 31
0.0
 11
180.9389813454013
 21
14.96092324653757
 31
0.0
 11
180.8275950722014
 21
14.96865128473012
 31
0.0
 11
180.7089261429372
 21
14.97425273438146
 31
0.0
 11
180.5903167449214
 21
14.97726788195011
 31
0.0
 11
180.4750025117521
 21
14.97898767361638
 31
0.0
 11
180.36672619507
 21
14.98070746528257
 31
0.0
 11
180.2724839317708
 21
14.98202486979617
 31
0.0
 11
180.199819115366
 21
14.98243607639329
 31
0.0
 11
180.1994074577049
 21
14.95019108508191
 31
0.0
 11
180.1980896021501
 21
14.91542593752117
 31
0.0
 11
180.1967799146835
 21
14.87450702260085
 31
0.0
 11
180.1963698105272
 21
14.82421524309952
 31
0.0
 11
180.1963698105272
 21
14.80326217235822
 31
0.0
 11
180.1963698105272
 21
14.75716541672736
 31
0.0
 11
180.1963698105272
 21
14.71106866109651
 31
0.0
 11
180.1963698105272
 21
14.69011559035521
 31
0.0
 11
180.1963698105272
 21
14.6686452525828
 31
0.0
 11
180.1963698105272
 21
14.61744675481784
 31
0.0
 11
180.1963698105272
 21
14.55633887038868
 31
0.0
 11
180.1963698105272
 21
14.50514037262371
 31
0.0
 11
180.1963698105272
 21
14.4836700348513
 31
0.0
 11
180.1967799146835
 21
14.30481721371548
 31
0.0
 11
180.1980896021501
 21
14.16026100715441
 31
0.0
 11
180.2002868589709
 21
14.04850210961289
 31
0.0
 11
180.2032586986985
 21
13.96767961831365
 31
0.0
 11
180.3202092517447
 21
13.96767961831365
 31
0.0
 11
180.4440727208747
 21
13.96767961831365
 31
0.0
 11
180.5734925526423
 21
13.9689705644939
 31
0.0
 11
180.7003922282244
 21
13.97284781275683
 31
0.0
 11
180.8224658067973
 21
13.97886708358865
 31
0.0
 11
180.9377587499463
 21
13.98663260442002
 31
0.0
 11
181.0421754573518
 21
13.99734161483402
 31
0.0
 11
181.1320599255448
 21
14.01237656274692
 31
0.0
 11
181.1264254031192
 21
13.98698427976715
 31
0.0
 11
181.1234433285424
 21
13.95907184053802
 31
0.0
 11
181.12213398812
 21
13.93112191867002
 31
0.0
 11
181.1217235369194
 21
13.90575829888472
 31
0.0
 11
181.1243087365064
 21
13.85584355063326
 31
0.0
 11
181.1320599255448
 21
13.81626739612927
 31
0.0
 11
180.9776977178345
 21
13.82145433189186
 31
0.0
 11
180.8242357818766
 21
13.82315538223863
 31
0.0
 11
180.6697789496483
 21
13.82315538223863
 31
0.0
 11
180.5128026496768
 21
13.82315538223863
 31
0.0
 11
180.3554704921536
 21
13.82315538223863
 31
0.0
 11
180.199819115366
 21
13.82315538223863
 31
0.0
 11
180.0441620874241
 21
13.82145433189186
 31
0.0
 11
179.8868249573133
 21
13.81626739612927
 31
0.0
 11
179.896691822374
 21
14.0360126738521
 31
0.0
 11
179.9057788376618
 21
14.25491128490852
 31
0.0
 11
179.91217215184
 21
14.47550763902003
 31
0.0
 11
179.9143063455009
 21
14.70036378479714
 31
0.0
 11
179.9143063455009
 21
14.72578824496874
 31
0.0
 11
179.9143063455009
 21
14.79281636723931
 31
0.0
 11
179.9143063455009
 21
14.88758026424252
 31
0.0
 11
179.9143063455009
 21
14.99621204861207
 31
0.0
 11
179.9143063455009
 21
15.10484383298161
 31
0.0
 11
179.9143063455009
 21
15.19960772998483
 31
0.0
 11
179.9143063455009
 21
15.26663585225539
 31
0.0
 11
179.9143063455009
 21
15.29206031242699
 31
0.0
 11
179.91217215184
 21
15.51735963528735
 31
0.0
 11
179.9057788376618
 21
15.7392326039819
 31
0.0
  0
SPLINE
  5
B5
102
{ACAD_REACTORS
330
D2
102
}
330
48
100
AcDbEntity
  8
_U_30EC_U_30A4_U_30E4_U_30FC_1
  6
Continuous
 62
     2
100
AcDbSpline
210
0.0
220
0.0
230
1.0
 70
    11
 71
     3
 72
    95
 73
    91
 74
    89
 42
0.000000001
 43
0.0000000001
 44
0.00000001
 40
0.0
 40
0.0
 40
0.0
 40
0.0
 40
0.6550406656912413
 40
1.308087289032009
 40
1.420803739835884
 40
1.566130759770878
 40
1.757067341888544
 40
2.00651354502654
 40
2.087328263121633
 40
2.185328872295702
 40
2.294612454748444
 40
2.408936380534897
 40
2.526802767798642
 40
2.64636052461569
 40
2.76253572397166
 40
2.87005734287023
 40
2.966883448431729
 40
3.050803243518375
 40
3.115818222436689
 40
3.156030057150327
 40
3.213914225080258
 40
3.276689026450744
 40
3.342960320981407
 40
3.404230667150657
 40
3.453822809493466
 40
3.532499827188522
 40
3.634775188507259
 40
3.754909333008267
 40
3.889736761660763
 40
4.035769602175322
 40
4.187256681197708
 40
4.338733685676054
 40
4.488478734676216
 40
4.634708317831672
 40
4.771493189921372
 40
4.892686571561309
 40
5.19977552894455
 40
5.460353566929744
 40
5.66760314234561
 40
5.814722905404583
 40
5.828990806219881
 40
5.855488336304578
 40
5.86975623711891
 40
6.189796507762871
 40
6.531890469873097
 40
6.883053637017086
 40
7.230512024911639
 40
7.566966656764666
 40
7.885203559707573
 40
8.172887439719375
 40
8.41801159406285
 40
8.443926721190772
 40
8.51076047061326
 40
8.60214539379577
 40
8.701714041647211
 40
8.79309896507544
 40
8.859932715058013
 40
8.885847842603663
 40
9.242301256612881
 40
9.589275455016832
 40
9.92180854316424
 40
10.23479624298474
 40
10.29968150889173
 40
10.35323493887773
 40
10.40154625355149
 40
10.46482922477822
 40
10.55973900668402
 40
10.69239545985613
 40
10.84920353475668
 40
11.01626328594776
 40
11.18672024367441
 40
11.35372582577209
 40
11.50257442292424
 40
11.61866495023288
 40
11.71329869152872
 40
11.82511050573905
 40
11.94464880845712
 40
12.06929242642503
 40
12.19707290435173
 40
12.32562632860526
 40
12.45034565331277
 40
12.56646595170325
 40
12.67099007414632
 40
12.76077625936779
 40
12.82703233506691
 40
12.87429132785989
 40
12.89831990323328
 40
12.92234847860017
 40
13.53984767410318
 40
14.18294284359354
 40
14.18294284359354
 40
14.18294284359354
 40
14.18294284359354
 10
177.3067935648022
 20
14.70898038201725
 30
0.0
 10
177.1752019758551
 20
14.82265058603231
 30
0.0
 10
176.9124193802727
 20
15.04964496316149
 30
0.0
 10
176.3997393441022
 20
15.89214462956288
 30
0.0
 10
176.4106654595361
 20
15.5342337757702
 30
0.0
 10
176.4041226527993
 20
15.39267392272133
 30
0.0
 10
176.4028026631772
 20
15.19421305299281
 30
0.0
 10
176.401811760254
 20
15.02150296045983
 30
0.0
 10
176.4024101751973
 20
14.8786537325758
 30
0.0
 10
176.4038994301883
 20
14.78265005413358
 30
0.0
 10
176.4055683588472
 20
14.67545503263142
 30
0.0
 10
176.407193495462
 20
14.56164211517582
 30
0.0
 10
176.4092429501685
 20
14.44441572604589
 30
0.0
 10
176.4123165501927
 20
14.3265641123297
 30
0.0
 10
176.4156339697044
 20
14.21228087320621
 30
0.0
 10
176.4193605340279
 20
14.10521401867276
 30
0.0
 10
176.4217338161426
 20
14.01007408766923
 30
0.0
 10
176.4278718888356
 20
13.92558557205694
 30
0.0
 10
176.4239784495947
 20
13.86923087298142
 30
0.0
 10
176.4455230443077
 20
13.79825022472354
 30
0.0
 10
176.3680940058617
 20
13.82902677604485
 30
0.0
 10
176.3116353240191
 20
13.82011242517615
 30
0.0
 10
176.2540495896806
 20
13.82896218398274
 30
0.0
 10
176.1690163478472
 20
13.79738225225944
 30
0.0
 10
176.2009714146382
 20
13.8809515599219
 30
0.0
 10
176.1990705282539
 20
13.94882608968309
 30
0.0
 10
176.21079600473
 20
14.05233256764418
 30
0.0
 10
176.2164241053
 20
14.17002125616696
 30
0.0
 10
176.2237902178941
 20
14.30388609164423
 30
0.0
 10
176.232075970161
 20
14.44764152872632
 30
0.0
 10
176.2398851897427
 20
14.59714022843444
 30
0.0
 10
176.2457571222657
 20
14.74792549402078
 30
0.0
 10
176.250366781797
 20
14.89699943878437
 30
0.0
 10
176.254263211754
 20
15.04122913163022
 30
0.0
 10
176.2570715126564
 20
15.17583905213016
 30
0.0
 10
176.2576698755024
 20
15.36469614347355
 30
0.0
 10
176.261602386715
 20
15.58975494313154
 30
0.0
 10
176.2442175378497
 20
15.86367091125708
 30
0.0
 10
176.2850417342584
 20
16.02787112098597
 30
0.0
 10
176.1995153256001
 20
16.22749661465095
 30
0.0
 10
176.2660558907688
 20
16.22385458403977
 30
0.0
 10
176.283872427323
 20
16.22413447160853
 30
0.0
 10
176.4056801797504
 20
16.22632927398612
 30
0.0
 10
176.508077033546
 20
15.94675118721509
 30
0.0
 10
176.7580021509356
 20
15.74563008536005
 30
0.0
 10
176.987003533111
 20
15.47792614987912
 30
0.0
 10
177.224515121311
 20
15.22646413862384
 30
0.0
 10
177.4486090740772
 20
14.98969974061351
 30
0.0
 10
177.675071628301
 20
14.73218692583082
 30
0.0
 10
177.8325687886515
 20
14.61649335056924
 30
0.0
 10
178.0472129612674
 20
14.27997152538797
 30
0.0
 10
178.0422645974618
 20
14.40464754091603
 30
0.0
 10
178.0433931602546
 20
14.46327691935737
 30
0.0
 10
178.0428877841517
 20
14.55043662371977
 30
0.0
 10
178.0430475158113
 20
14.64416143182872
 30
0.0
 10
178.0430054891318
 20
14.73018971297035
 30
0.0
 10
178.0430202040373
 20
14.79153891945496
 30
0.0
 10
178.0429706255983
 20
14.94135231520991
 30
0.0
 10
178.0458811522811
 20
15.17989612510104
 30
0.0
 10
178.0259521041162
 20
15.54486509868702
 30
0.0
 10
178.0750433936246
 20
15.80799631993408
 30
0.0
 10
177.9177951509182
 20
16.21928904947753
 30
0.0
 10
178.0762112872422
 20
16.16398282551745
 30
0.0
 10
178.1311680478629
 20
16.16199686500175
 30
0.0
 10
178.182788776674
 20
16.16264778248253
 30
0.0
 10
178.2713198965366
 20
16.20369527738245
 30
0.0
 10
178.2204898303169
 20
16.05696326622986
 30
0.0
 10
178.2313389930285
 20
15.95019971954433
 30
0.0
 10
178.2166036994846
 20
15.79085705414113
 30
0.0
 10
178.2099976446203
 20
15.62853061652875
 30
0.0
 10
178.2014961399915
 20
15.45992521892395
 30
0.0
 10
178.1943227202199
 20
15.29814814703541
 30
0.0
 10
178.1889063215389
 20
15.15422331457932
 30
0.0
 10
178.1871713967648
 20
15.03437493466925
 30
0.0
 10
178.1875440672318
 20
14.92686101590514
 30
0.0
 10
178.1873656126263
 20
14.81820024645586
 30
0.0
 10
178.187701086314
 20
14.6995357016553
 30
0.0
 10
178.1890040622186
 20
14.57555163512742
 30
0.0
 10
178.1908887351574
 20
14.44858294171105
 30
0.0
 10
178.1925004454853
 20
14.32153861551032
 30
0.0
 10
178.1941403137428
 20
14.19854884492177
 30
0.0
 10
178.1962570745752
 20
14.08300931383759
 30
0.0
 10
178.1963848422364
 20
13.98090903955837
 30
0.0
 10
178.2006514396554
 20
13.89009848838157
 30
0.0
 10
178.1908440085288
 20
13.83213621208787
 30
0.0
 10
178.211847477169
 20
13.7651713013203
 30
0.0
 10
178.1725639739896
 20
13.77291153966689
 30
0.0
 10
177.9595307117751
 20
13.75755254145195
 30
0.0
 10
177.7636297943183
 20
14.31403058094463
 30
0.0
 10
177.4611197631544
 20
14.57556035348509
 30
0.0
 10
177.3067935648022
 20
14.70898038201725
 30
0.0
 11
177.3067935648022
 21
14.70898038201725
 31
0.0
 11
176.859552933851
 21
15.18757635411977
 31
0.0
 11
176.4124049070643
 21
15.6635264928897
 31
0.0
 11
176.4089664262493
 21
15.55086249986232
 31
0.0
 11
176.4055610183501
 21
15.4055753818431
 31
0.0
 11
176.4029636920275
 21
15.21465645827968
 31
0.0
 11
176.4021126156603
 21
14.96521170139757
 31
0.0
 11
176.4025239230289
 21
14.8843980295428
 31
0.0
 11
176.4038420329817
 21
14.78640628477562
 31
0.0
 11
176.4055192267718
 21
14.6771355729974
 31
0.0
 11
176.4072367127519
 21
14.56282454872039
 31
0.0
 11
176.4094007838772
 21
14.44497802965266
 31
0.0
 11
176.4124049070643
 21
14.32545802100199
 31
0.0
 11
176.4158359733138
 21
14.20933349846156
 31
0.0
 11
176.4192928929998
 21
14.1018674655023
 31
0.0
 11
176.4227085253088
 21
14.00510162351264
 31
0.0
 11
176.4261896983792
 21
13.92125406276972
 31
0.0
 11
176.4296006184313
 21
13.8563286200776
 31
0.0
 11
176.4330776843148
 21
13.81626739612927
 31
0.0
 11
176.3754263821571
 21
13.82145433189186
 31
0.0
 11
176.3126746318308
 21
13.82315538223863
 31
0.0
 11
176.2464251717157
 21
13.82145433189186
 31
0.0
 11
176.1853747739675
 21
13.81626739612927
 31
0.0
 11
176.1926772737812
 21
13.8653189412559
 31
0.0
 11
176.2008793569054
 21
13.94356725720855
 31
0.0
 11
176.2090098822348
 21
14.04551893253029
 31
0.0
 11
176.2163406441397
 21
14.16542920159753
 31
0.0
 11
176.2236358280422
 21
14.3000591234389
 31
0.0
 11
176.2318444255596
 21
14.44586107652745
 31
0.0
 11
176.2395504149466
 21
14.59715203135073
 31
0.0
 11
176.2455763002093
 21
14.74850913200734
 31
0.0
 11
176.2503046247416
 21
14.89817951391435
 31
0.0
 11
176.2541928972119
 21
15.04435739582221
 31
0.0
 11
176.2567527408965
 21
15.18111831592696
 31
0.0
 11
176.2576324804575
 21
15.3023085068689
 31
0.0
 11
176.257192610677
 21
15.60939715262544
 31
0.0
 11
176.2559126888347
 21
15.86997204839366
 31
0.0
 11
176.2528658717893
 21
16.07719922716125
 31
0.0
 11
176.2473049112763
 21
16.22421385386061
 31
0.0
 11
176.2615728121469
 21
16.22421385386061
 31
0.0
 11
176.2880703423352
 21
16.22421385386061
 31
0.0
 11
176.3023382432058
 21
16.22421385386061
 31
0.0
 11
176.5194743650276
 21
15.98910179662773
 31
0.0
 11
176.7512744123079
 21
15.73751281231562
 31
0.0
 11
176.9894816018839
 21
15.47949555543571
 31
0.0
 11
177.2260074557522
 21
15.22497079855489
 31
0.0
 11
177.4555698717705
 21
14.97899759549138
 31
0.0
 11
177.6731797360104
 21
14.74678934034107
 31
0.0
 11
177.8713724913708
 21
14.538266805671
 31
0.0
 11
178.0430143099086
 21
14.36326697932589
 31
0.0
 11
178.0430143099086
 21
14.38918210687043
 31
0.0
 11
178.0430143099086
 21
14.45601585685371
 31
0.0
 11
178.0430143099086
 21
14.54740078030025
 31
0.0
 11
178.0430143099086
 21
14.64696942823453
 31
0.0
 11
178.0430143099086
 21
14.73835435168106
 31
0.0
 11
178.0430143099086
 21
14.80518810166435
 31
0.0
 11
178.0430143099086
 21
14.83110322920889
 31
0.0
 11
178.0417233637609
 21
15.18755430550867
 31
0.0
 11
178.0378461155958
 21
15.53450684014415
 31
0.0
 11
178.0296197790002
 21
15.86693815950552
 31
0.0
 11
178.0154535467229
 21
16.17960510387179
 31
0.0
 11
178.0790351249618
 21
16.16666367158334
 31
0.0
 11
178.1324170159612
 21
16.16238072887607
 31
0.0
 11
178.1805381084833
 21
16.16666367158334
 31
0.0
 11
178.2424836798197
 21
16.17960510387179
 31
0.0
 11
178.2351216487575
 21
16.084981284451
 31
0.0
 11
178.2269790968819
 21
15.95257496503965
 31
0.0
 11
178.2183705364004
 21
15.79600336785656
 31
0.0
 11
178.2097547223214
 21
15.62916593734271
 31
0.0
 11
178.2016187850288
 21
15.4589032550936
 31
0.0
 11
178.1942501393835
 21
15.29206031242699
 31
0.0
 11
178.1891406931522
 21
15.14329943572809
 31
0.0
 11
178.1874503478904
 21
15.02722121527101
 31
0.0
 11
178.1874503478904
 21
14.93258747397519
 31
0.0
 11
178.1874503478904
 21
14.82077565976707
 31
0.0
 11
178.1878461204497
 21
14.70123801222749
 31
0.0
 11
178.1890819450709
 21
14.5766005209392
 31
0.0
 11
178.1908392193317
 21
14.44883212687391
 31
0.0
 11
178.1925303477609
 21
14.32028982655879
 31
0.0
 11
178.1942876220214
 21
14.19558288214554
 31
0.0
 11
178.1959787504505
 21
14.07947489606348
 31
0.0
 11
178.1972884379172
 21
13.97495896727018
 31
0.0
 11
178.1976985420735
 21
13.88517371555653
 31
0.0
 11
178.1976985420735
 21
13.81891763918416
 31
0.0
 11
178.1976985420735
 21
13.77165864614042
 31
0.0
 11
178.1736699662976
 21
13.77165864614042
 31
0.0
 11
178.1496413905217
 21
13.77165864614042
 31
0.0
 11
177.7410729200423
 21
14.2346673526219
 31
0.0
 11
177.3067935648022
 21
14.70898038201725
 31
0.0
  0
SPLINE
  5
B6
102
{ACAD_REACTORS
330
D3
102
}
330
48
100
AcDbEntity
  8
_U_30EC_U_30A4_U_30E4_U_30FC_1
  6
Continuous
 62
     2
100
AcDbSpline
210
0.0
220
0.0
230
1.0
 70
    11
 71
     3
 72
    25
 73
    21
 74
    19
 42
0.000000001
 43
0.0000000001
 44
0.00000001
 40
0.0
 40
0.0
 40
0.0
 40
0.0
 40
0.0911479969063684
 40
0.185811789620495
 40
0.2804128399734207
 40
0.3715889190712805
 40
0.4679080494217571
 40
0.5642683809228379
 40
0.6605683222644707
 40
0.7569653015809403
 40
0.8561348172521887
 40
1.092615965104196
 40
1.374867658141778
 40
1.61134881201147
 40
1.71051832842513
 40
1.809403163726437
 40
2.045205463293962
 40
2.326646917622011
 40
2.562449217190484
 40
2.661334043833792
 40
2.661334043833792
 40
2.661334043833792
 40
2.661334043833792
 10
173.26837005672
 20
14.88614538197292
 30
0.0
 10
173.2987525917923
 20
14.88598079714554
 30
0.0
 10
173.3606895889113
 20
14.88564528689922
 30
0.0
 10
173.454135696033
 20
14.88269055452
 30
0.0
 10
173.5475095236358
 20
14.87977752877151
 30
0.0
 10
173.6417760753475
 20
14.87894201643416
 30
0.0
 10
173.7354964790967
 20
14.87996644658047
 30
0.0
 10
173.8352040303204
 20
14.87916977470973
 30
0.0
 10
173.9188949546312
 20
14.88921410235219
 30
0.0
 10
174.0637996315045
 20
14.86234617674167
 30
0.0
 10
173.9396132444801
 20
15.03665530280048
 30
0.0
 10
173.8965867286283
 20
15.19651711006092
 30
0.0
 10
173.780892214221
 20
15.45518458550213
 30
0.0
 10
173.7017565431258
 20
15.5923105286186
 30
0.0
 10
173.6431576621816
 20
15.80937033134077
 30
0.0
 10
173.586480393944
 20
15.59266134213426
 30
0.0
 10
173.5052809900477
 20
15.45327012438239
 30
0.0
 10
173.4063701281489
 20
15.20406969370192
 30
0.0
 10
173.3253625094259
 20
15.01925830226075
 30
0.0
 10
173.2813683325839
 20
14.91650446856117
 30
0.0
 10
173.26837005672
 20
14.88614538197292
 30
0.0
 11
173.26837005672
 21
14.88614538197292
 31
0.0
 11
173.359513773782
 21
14.8852612326676
 31
0.0
 11
173.4541428297582
 21
14.88269697919599
 31
0.0
 11
173.5487082179706
 21
14.88009965280777
 31
0.0
 11
173.6398803250195
 21
14.8792485764191
 31
0.0
 11
173.7361985777706
 21
14.87965978301621
 31
0.0
 11
173.8325499034376
 21
14.88097718752972
 31
0.0
 11
173.9288262638287
 21
14.88310818579312
 31
0.0
 11
174.0251753846343
 21
14.88614538197292
 31
0.0
 11
173.9854633323141
 21
14.9770164219502
 31
0.0
 11
173.8907653613968
 21
15.19370890189602
 31
0.0
 11
173.7777387509471
 21
15.45234186183135
 31
0.0
 11
173.6830407800298
 21
15.66903434177717
 31
0.0
 11
173.6433287277096
 21
15.75990538175445
 31
0.0
 11
173.6043330259267
 21
15.66903434177717
 31
0.0
 11
173.5113432755213
 21
15.45234186183135
 31
0.0
 11
173.4003555089083
 21
15.19370890189602
 31
0.0
 11
173.3073657585029
 21
14.9770164219502
 31
0.0
 11
173.26837005672
 21
14.88614538197292
 31
0.0
  0
SPLINE
  5
B7
102
{ACAD_REACTORS
330
D3
102
}
330
48
100
AcDbEntity
  8
_U_30EC_U_30A4_U_30E4_U_30FC_1
  6
Continuous
 62
     2
100
AcDbSpline
210
0.0
220
0.0
230
1.0
 70
    11
 71
     3
 72
    57
 73
    53
 74
    51
 42
0.000000001
 43
0.0000000001
 44
0.00000001
 40
0.0
 40
0.0
 40
0.0
 40
0.0
 40
0.047163208280896
 40
0.0914861054632163
 40
0.1357762519702967
 40
0.1826527001610694
 40
0.2295203288572034
 40
0.2737751972219635
 40
0.318131046154223
 40
0.3652607198398526
 40
0.4571007286314498
 40
0.5671851029165309
 40
0.6894623283868396
 40
0.8181758272545983
 40
0.9510087229273881
 40
1.085852229674091
 40
1.218126164475328
 40
1.343545131142386
 40
1.454537202956802
 40
1.567187607530811
 40
1.680710966642401
 40
1.794226869736794
 40
1.900009184247508
 40
2.004085860447788
 40
2.108162674451761
 40
2.214000150155305
 40
2.496038577352142
 40
2.762350745479281
 40
2.997275353279414
 40
3.185110082137762
 40
3.246407890063905
 40
3.312607550212522
 40
3.378877742711538
 40
3.440140399651478
 40
4.100501696006535
 40
4.75491308556359
 40
5.411331693423961
 40
6.077890432568736
 40
6.110575292671014
 40
6.143260152775794
 40
6.36798936339522
 40
6.610525374951609
 40
6.863389136467357
 40
7.1193800255477
 40
7.37603660509115
 40
7.631164770966393
 40
7.876722425456485
 40
8.104953735856053
 40
8.31291668592436
 40
8.497730294941361
 40
8.651018984313913
 40
8.764738853624648
 40
8.764738853624648
 40
8.764738853624648
 40
8.764738853624648
 10
174.7922649500513
 20
13.81626739612927
 30
0.0
 10
174.7766616726931
 20
13.81826231079078
 30
0.0
 10
174.7463947960303
 20
13.822132013603
 30
0.0
 10
174.7010994202251
 20
13.82341984967269
 30
0.0
 10
174.6559553129349
 20
13.82308683554051
 30
0.0
 10
174.6099017123399
 20
13.82314658674225
 30
0.0
 10
174.5640496172097
 20
13.82325813650002
 30
0.0
 10
174.5183711648165
 20
13.82277833456591
 30
0.0
 10
174.4750811541609
 20
13.82461109618723
 30
0.0
 10
174.4039947951513
 20
13.80049556814654
 30
0.0
 10
174.4057477261441
 20
13.9218469397725
 30
0.0
 10
174.358619637057
 20
14.00726239751235
 30
0.0
 10
174.3191478251761
 20
14.12486929345135
 30
0.0
 10
174.2706635532646
 20
14.24232752540437
 30
0.0
 10
174.2201017402523
 20
14.36405935761514
 30
0.0
 10
174.1718634610475
 20
14.49075967862459
 30
0.0
 10
174.1135232947594
 20
14.59933687784953
 30
0.0
 10
174.0980892667262
 20
14.7562065713441
 30
0.0
 10
173.9566586330635
 20
14.72373446548321
 30
0.0
 10
173.8508397414904
 20
14.7351288868218
 30
0.0
 10
173.7358569725222
 20
14.73392591514615
 30
0.0
 10
173.6253142252141
 20
14.73506945347409
 30
0.0
 10
173.5176583522783
 20
14.73418350037526
 30
0.0
 10
173.4121322529244
 20
14.73416602390519
 30
0.0
 10
173.3109192682012
 20
14.72714032472413
 30
0.0
 10
173.1266804827754
 20
14.75135859859869
 30
0.0
 10
173.1157393685411
 20
14.44741691121885
 30
0.0
 10
173.008769163475
 20
14.22353177253396
 30
0.0
 10
172.9098148604346
 20
14.03895314292498
 30
0.0
 10
172.9225090524006
 20
13.79530204804207
 30
0.0
 10
172.8050091716398
 20
13.82508046753197
 30
0.0
 10
172.742205586831
 20
13.82258089509604
 30
0.0
 10
172.67858720934
 20
13.82344075102806
 30
0.0
 10
172.3946014194073
 20
13.78098039941944
 30
0.0
 10
173.0251638499381
 20
14.50081952444783
 30
0.0
 10
173.1087645289071
 20
15.01276539435727
 30
0.0
 10
173.4929252789337
 20
15.53353743550045
 30
0.0
 10
173.4777208288565
 20
16.23519626253214
 30
0.0
 10
173.7239265722696
 20
16.22345633081256
 30
0.0
 10
173.8256346157561
 20
16.23225004452772
 30
0.0
 10
173.8249752035818
 20
15.9805965073035
 30
0.0
 10
173.9428317155828
 20
15.79818020733958
 30
0.0
 10
174.0315515260484
 20
15.55563740662861
 30
0.0
 10
174.1322292485261
 20
15.32340030530134
 30
0.0
 10
174.2311142712242
 20
15.08674644566906
 30
0.0
 10
174.3299676990671
 20
14.854617391701
 30
0.0
 10
174.4256166390925
 20
14.63122222788783
 30
0.0
 10
174.5159904573273
 20
14.42272549049322
 30
0.0
 10
174.5989944568189
 20
14.23308448529319
 30
0.0
 10
174.6726088582798
 20
14.06663106068099
 30
0.0
 10
174.7342815895545
 20
13.92917699626097
 30
0.0
 10
174.7749458885604
 20
13.84999239430034
 30
0.0
 10
174.7922649500513
 20
13.81626739612927
 30
0.0
 11
174.7922649500513
 21
13.81626739612927
 31
0.0
 11
174.7453878317448
 21
13.82145433189186
 31
0.0
 11
174.7010975896125
 21
13.82315538223863
 31
0.0
 11
174.6568074431729
 21
13.82315538223863
 31
0.0
 11
174.6099309947159
 21
13.82315538223863
 31
0.0
 11
174.5630633657034
 21
13.82315538223863
 31
0.0
 11
174.5188084970409
 21
13.82315538223863
 31
0.0
 11
174.4744852776855
 21
13.82145433189186
 31
0.0
 11
174.4276419021443
 21
13.81626739612927
 31
0.0
 11
174.3992532136325
 21
13.90360966173244
 31
0.0
 11
174.3622721815898
 21
14.0072965627482
 31
0.0
 11
174.3188386236701
 21
14.12159987001127
 31
0.0
 11
174.2711055866936
 21
14.24113531268969
 31
0.0
 11
174.2208160133237
 21
14.36408057307565
 31
0.0
 11
174.1696467003931
 21
14.48883822929445
 31
0.0
 11
174.1197531801326
 21
14.61134141502772
 31
0.0
 11
174.0733119111841
 21
14.72784517367917
 31
0.0
 11
173.9623611907589
 21
14.73087465284505
 31
0.0
 11
173.8497309225089
 21
14.7330045486779
 31
0.0
 11
173.7362152069449
 21
14.73432195319141
 31
0.0
 11
173.62270004768
 21
14.73473315978853
 31
0.0
 11
173.5169185312816
 21
14.73432195319141
 31
0.0
 11
173.4128501919226
 21
14.7330045486779
 31
0.0
 11
173.3087951724045
 21
14.73087465284505
 31
0.0
 11
173.2030010615596
 21
14.72784517367917
 31
0.0
 11
173.0980914750139
 21
14.4660443751335
 31
0.0
 11
173.0034868690331
 21
14.2171023265846
 31
0.0
 11
172.9252231210298
 21
13.99559756969557
 31
0.0
 11
172.8693431224554
 21
13.81626739612927
 31
0.0
 11
172.8082651639442
 21
13.82145433189186
 31
0.0
 11
172.7420873618131
 21
13.82315538223863
 31
0.0
 11
172.6758390041282
 21
13.82145433189186
 31
0.0
 11
172.6147963233937
 21
13.81626739612927
 31
0.0
 11
172.889968495193
 21
14.41656508695142
 31
0.0
 11
173.158294573417
 21
15.01343642360775
 31
0.0
 11
173.4240277350404
 21
15.61366245644381
 31
0.0
 11
173.6914740737032
 21
16.22421385386061
 31
0.0
 11
173.7241589339805
 21
16.22421385386061
 31
0.0
 11
173.7568437942578
 21
16.22421385386061
 31
0.0
 11
173.8428300681057
 21
16.01658539037084
 31
0.0
 11
173.9357285813609
 21
15.79254614563517
 31
0.0
 11
174.0328714521463
 21
15.55908663180469
 31
0.0
 11
174.1317936458032
 21
15.32298128464145
 31
0.0
 11
174.2315341249927
 21
15.08649780379784
 31
0.0
 11
174.3313071129354
 21
14.8516878125371
 31
0.0
 11
174.4280608257449
 21
14.6259949219685
 31
0.0
 11
174.5188084970409
 21
14.4165805209792
 31
0.0
 11
174.6022150834546
 21
14.22607611130461
 31
0.0
 11
174.6770293263377
 21
14.05708232662467
 31
0.0
 11
174.7410729186603
 21
13.91781337700667
 31
0.0
 11
174.7922649500513
 21
13.81626739612927
 31
0.0
  0
SPLINE
  5
B8
102
{ACAD_REACTORS
330
D4
102
}
330
48
100
AcDbEntity
  8
_U_30EC_U_30A4_U_30E4_U_30FC_1
  6
Continuous
 62
     2
100
AcDbSpline
210
0.0
220
0.0
230
1.0
 70
    11
 71
     3
 72
    99
 73
    95
 74
    93
 42
0.000000001
 43
0.0000000001
 44
0.00000001
 40
0.0
 40
0.0
 40
0.0
 40
0.0
 40
0.079641717227231
 40
0.1621768542356057
 40
0.2486489160958189
 40
0.3404969668524627
 40
0.438191251116465
 40
0.5434463660244951
 40
0.6518115192847271
 40
0.7530190937886818
 40
0.8492196919724652
 40
0.9419290312998114
 40
1.034249663569965
 40
1.129078600620159
 40
1.226697027573224
 40
1.327220425421694
 40
1.470572134938017
 40
1.59548986337123
 40
1.719934125348409
 40
1.850576620127433
 40
1.989059629987345
 40
2.134139054227016
 40
2.280698007207278
 40
2.424529739039496
 40
2.565929576985866
 40
2.708239260773556
 40
2.861717887443694
 40
3.045168540347403
 40
3.18379830113864
 40
3.314813961455477
 40
3.442083470447338
 40
3.569912708373113
 40
3.702177512509468
 40
3.842307559659583
 40
3.992872223245958
 40
4.15675066221829
 40
4.310981861107653
 40
4.445859909322725
 40
4.572393936131665
 40
4.701656719782041
 40
4.768279086008528
 40
4.835960697898463
 40
4.912788918729392
 40
5.006285208481613
 40
5.026909478751661
 40
5.047533749021169
 40
5.101808031471239
 40
5.162325165538513
 40
5.226919745995807
 40
5.294231806596777
 40
5.364544852554882
 40
5.438319055467901
 40
5.517877651324238
 40
5.60764771486155
 40
5.700449642544396
 40
5.788251142364127
 40
5.872714706039759
 40
5.955167292575348
 40
6.037192395190376
 40
6.120669181469065
 40
6.206848616686317
 40
6.296680855416739
 40
6.442558392872563
 40
6.568190371608238
 40
6.692904567360342
 40
6.8242204465571
 40
6.963121850329385
 40
7.107843738851222
 40
7.253431663907283
 40
7.395187468036657
 40
7.53314075323769
 40
7.670550457175197
 40
7.816236511769237
 40
7.987691657359195
 40
8.142277421969228
 40
8.293662615414995
 40
8.442962460879281
 40
8.591598316185287
 40
8.743678992361787
 40
8.903725323699145
 40
9.076307008890437
 40
9.265578604680547
 40
9.459203795360693
 40
9.617619810273396
 40
9.753609671361806
 40
9.874873300004026
 40
9.954520184977724
 40
10.02416413719238
 40
10.09769764405438
 40
10.18909955924965
 40
10.20974586420135
 40
10.2303921826338
 40
10.30057101881268
 40
10.37632012987545
 40
10.37632012987545
 40
10.37632012987545
 40
10.37632012987545
 10
170.1465954835851
 20
14.13795663215994
 30
0.0
 10
170.1632217851219
 20
14.11720608845313
 30
0.0
 10
170.1970784206577
 20
14.07495111711899
 30
0.0
 10
170.2599822541036
 20
14.02029811392071
 30
0.0
 10
170.3332500940393
 20
13.97299025121053
 30
0.0
 10
170.4175969238636
 20
13.93527231437933
 30
0.0
 10
170.513224061546
 20
13.91040619731952
 30
0.0
 10
170.6171853775346
 20
13.90309559345937
 30
0.0
 10
170.7224020220405
 20
13.91142322794054
 30
0.0
 10
170.8206626371333
 20
13.94149179651525
 30
0.0
 10
170.9058986427547
 20
13.98848822971881
 30
0.0
 10
170.9779220206103
 20
14.04952991250851
 30
0.0
 10
171.0350917709095
 20
14.1241296957859
 30
0.0
 10
171.0767868747439
 20
14.2100246466017
 30
0.0
 10
171.1026952846293
 20
14.3048585043221
 30
0.0
 10
171.1118037332654
 20
14.41854979038366
 30
0.0
 10
171.0986864796487
 20
14.54332587770779
 30
0.0
 10
171.0325330334414
 20
14.66014719171892
 30
0.0
 10
170.9369370919569
 20
14.74512539577372
 30
0.0
 10
170.8249681022369
 20
14.81416684459163
 30
0.0
 10
170.6993659583269
 20
14.87204142045891
 30
0.0
 10
170.5656691620856
 20
14.92373723284339
 30
0.0
 10
170.431312281883
 20
14.97899092397181
 30
0.0
 10
170.3051983986876
 20
15.0493977064165
 30
0.0
 10
170.1926579987536
 20
15.1378554073125
 30
0.0
 10
170.0969963064457
 20
15.24981067868474
 30
0.0
 10
170.0334157151825
 20
15.39949910101381
 30
0.0
 10
170.0200706505016
 20
15.55932794385142
 30
0.0
 10
170.0320510987447
 20
15.71048405306845
 30
0.0
 10
170.071229892884
 20
15.8380924459154
 30
0.0
 10
170.135498775091
 20
15.9508087403085
 30
0.0
 10
170.2238204999741
 20
16.04648609268679
 30
0.0
 10
170.3338091207628
 20
16.12354214985755
 30
0.0
 10
170.4632284401264
 20
16.18151396936278
 30
0.0
 10
170.6111838967793
 20
16.21739177588823
 30
0.0
 10
170.7682069455486
 20
16.22746719050562
 30
0.0
 10
170.917494046643
 20
16.21863637762591
 30
0.0
 10
171.0596253614171
 20
16.19074899340355
 30
0.0
 10
171.1595922609625
 20
16.13413314701137
 30
0.0
 10
171.3125074736185
 20
16.08674602105506
 30
0.0
 10
171.2455131717168
 20
16.00197553001184
 30
0.0
 10
171.2296479120269
 20
15.93438901873485
 30
0.0
 10
171.1978750531297
 20
15.8692609279319
 30
0.0
 10
171.2150202209571
 20
15.76723453256954
 30
0.0
 10
171.1666427208231
 20
15.77493211681902
 30
0.0
 10
171.1315789440766
 20
15.7680677172481
 30
0.0
 10
171.1296697985717
 20
15.83263831158195
 30
0.0
 10
171.0985692931989
 20
15.87825639621392
 30
0.0
 10
171.0664551628456
 20
15.93561036628461
 30
0.0
 10
171.0208038475168
 20
15.98540462692552
 30
0.0
 10
170.9658508218386
 20
16.02994813718997
 30
0.0
 10
170.9010841173007
 20
16.06763988836551
 30
0.0
 10
170.8232377310596
 20
16.09283375791352
 30
0.0
 10
170.7355160553352
 20
16.09931230998111
 30
0.0
 10
170.6452903277806
 20
16.09235709285607
 30
0.0
 10
170.5594594694064
 20
16.06909190460921
 30
0.0
 10
170.4828343638596
 20
16.03131644107542
 30
0.0
 10
170.41652656362
 20
15.98051641089578
 30
0.0
 10
170.3622560536963
 20
15.91731143407209
 30
0.0
 10
170.3224925345459
 20
15.84276455710364
 30
0.0
 10
170.2976775510588
 20
15.75917313997764
 30
0.0
 10
170.2892124262869
 20
15.65192948382285
 30
0.0
 10
170.3019697987104
 20
15.5296545726756
 30
0.0
 10
170.3681548409273
 20
15.4114972429121
 30
0.0
 10
170.4640977399832
 20
15.32606325709529
 30
0.0
 10
170.5757914963182
 20
15.25583362306718
 30
0.0
 10
170.7010863668703
 20
15.19659162305304
 30
0.0
 10
170.8349823941448
 20
15.14616708086135
 30
0.0
 10
170.968993033315
 20
15.09322516984382
 30
0.0
 10
171.0950885316915
 20
15.02750170625175
 30
0.0
 10
171.2076216638416
 20
14.94480352537319
 30
0.0
 10
171.3031370284233
 20
14.83996006310073
 30
0.0
 10
171.3672706486963
 20
14.69937117251572
 30
0.0
 10
171.3811103725279
 20
14.54065409451592
 30
0.0
 10
171.367395471223
 20
14.38153155217875
 30
0.0
 10
171.3244739153984
 20
14.23483828819208
 30
0.0
 10
171.2545906329065
 20
14.10119796587145
 30
0.0
 10
171.1574592213829
 20
13.98532387699289
 30
0.0
 10
171.0347806023657
 20
13.89089981770089
 30
0.0
 10
170.8874408413168
 20
13.82179270651981
 30
0.0
 10
170.7177132497125
 20
13.77953210858853
 30
0.0
 10
170.5317404979597
 20
13.76781736230409
 30
0.0
 10
170.3528955926184
 20
13.77809486683436
 30
0.0
 10
170.1881733753743
 20
13.81966573769156
 30
0.0
 10
170.0834410841057
 20
13.88797642883941
 30
0.0
 10
169.9350960790366
 20
13.93675219032104
 30
0.0
 10
169.9980378194728
 20
14.0297659129084
 30
0.0
 10
170.0072274430058
 20
14.10296536248283
 30
0.0
 10
170.0303711301232
 20
14.16936294501345
 30
0.0
 10
170.0034588335315
 20
14.26974809527583
 30
0.0
 10
170.0521338956339
 20
14.26234033517378
 30
0.0
 10
170.0916530580697
 20
14.26894063620895
 30
0.0
 10
170.0996204944702
 20
14.19078703218935
 30
0.0
 10
170.1305436967923
 20
14.15600927375857
 30
0.0
 10
170.1465954835851
 20
14.13795663215994
 30
0.0
 11
170.1465954835851
 21
14.13795663215994
 31
0.0
 11
170.1982038075863
 21
14.07729869814736
 31
0.0
 11
170.2601105501335
 21
14.0227129516332
 31
0.0
 11
170.3327764009803
 21
13.97583980928383
 31
0.0
 11
170.4166468655843
 21
13.93839906276537
 31
0.0
 11
170.511221073241
 21
13.91390636311877
 31
0.0
 11
170.6161603327165
 21
13.90575829888472
 31
0.0
 11
170.7240739497552
 21
13.91564048638223
 31
0.0
 11
170.8208419941616
 21
13.94528704887481
 31
0.0
 11
170.9050776083318
 21
13.99175118948819
 31
0.0
 11
170.9756144207686
 21
14.0519141321815
 31
0.0
 11
171.0319442109979
 21
14.1250581946632
 31
0.0
 11
171.0736690016003
 21
14.21021434047521
 31
0.0
 11
171.0994680808033
 21
14.30436190989612
 31
0.0
 11
171.1080824729447
 21
14.4045155209822
 31
0.0
 11
171.0878517703357
 21
14.54643250879397
 31
0.0
 11
171.0272522666731
 21
14.65566684036387
 31
0.0
 11
170.9364971286285
 21
14.74081306430094
 31
0.0
 11
170.826010188474
 21
14.81052746532517
 31
0.0
 11
170.7008523531254
 21
14.86979854169922
 31
0.0
 11
170.5662951950997
 21
14.9240425347412
 31
0.0
 11
170.4316884277006
 21
14.98201274306004
 31
0.0
 11
170.3065802017258
 21
15.05297399304232
 31
0.0
 11
170.196027609828
 21
15.14113315968695
 31
0.0
 11
170.1053381235265
 21
15.25080295132617
 31
0.0
 11
170.0447055469483
 21
15.39179720476315
 31
0.0
 11
170.0245079172553
 21
15.57413260402314
 31
0.0
 11
170.0374030471347
 21
15.71216131926642
 31
0.0
 11
170.076101665939
 21
15.83733128451289
 31
0.0
 11
170.1393141731506
 21
15.94779262129083
 31
0.0
 11
170.2257499954546
 21
16.04196885390621
 31
0.0
 11
170.3336492808963
 21
16.11846540770651
 31
0.0
 11
170.4613526283328
 21
16.17615670109488
 31
0.0
 11
170.6075393259922
 21
16.21220066809973
 31
0.0
 11
170.7709768565449
 21
16.22421385386061
 31
0.0
 11
170.924891843129
 21
16.21434269066864
 31
0.0
 11
171.0564887242608
 21
16.18477329831497
 31
0.0
 11
171.172563634494
 21
16.13439993895252
 31
0.0
 11
171.2800792741122
 21
16.06264163167877
 31
0.0
 11
171.2516994050444
 21
16.00236624106886
 31
0.0
 11
171.2284855254283
 21
15.93879017337648
 31
0.0
 11
171.2078381040801
 21
15.86478841992269
 31
0.0
 11
171.1871840681486
 21
15.77360197897328
 31
0.0
 11
171.1665597978414
 21
15.77360197897328
 31
0.0
 11
171.1459355275343
 21
15.77360197897328
 31
0.0
 11
171.1256706495791
 21
15.82395108486347
 31
0.0
 11
171.0994658759421
 21
15.87850045116928
 31
0.0
 11
171.0650468924451
 21
15.93316116296114
 31
0.0
 11
171.0203554612936
 21
15.98349593725411
 31
0.0
 11
170.965733335951
 21
16.02777175321529
 31
0.0
 11
170.9016722004326
 21
16.06436142334501
 31
0.0
 11
170.825968296114
 21
16.08882545979727
 31
0.0
 11
170.7365722046449
 21
16.09701100667022
 31
0.0
 11
170.6440937174207
 21
16.08926973931101
 31
0.0
 11
170.5594072091645
 21
16.06609003445566
 31
0.0
 11
170.483702448884
 21
16.02863495634008
 31
0.0
 11
170.4183754766515
 21
15.97832774281101
 31
0.0
 11
170.3650487887664
 21
15.9160029337988
 31
0.0
 11
170.3254809233902
 21
15.84249947895607
 31
0.0
 11
170.3009523754711
 21
15.75988443557391
 31
0.0
 11
170.2927954104108
 21
15.67042329844352
 31
0.0
 11
170.3130095765618
 21
15.52595308146574
 31
0.0
 11
170.373625616682
 21
15.41591177072937
 31
0.0
 11
170.4643479320758
 21
15.33033670130631
 31
0.0
 11
170.5748676948813
 21
15.25941954854624
 31
0.0
 11
170.700008993772
 21
15.19914305550579
 31
0.0
 11
170.8345826882554
 21
15.14590447913022
 31
0.0
 11
170.9691729191968
 21
15.09039489581074
 31
0.0
 11
171.0942976816297
 21
15.0237728124941
 31
0.0
 11
171.204800907977
 21
14.94118863716749
 31
0.0
 11
171.2955397598288
 21
14.83800003476272
 31
0.0
 11
171.3561557999489
 21
14.70552315979584
 31
0.0
 11
171.3763699660998
 21
14.53526378483839
 31
0.0
 11
171.3621839747998
 21
14.38133030397412
 31
0.0
 11
171.3196087009193
 21
14.23605531269097
 31
0.0
 11
171.2499752884264
 21
14.10398854189068
 31
0.0
 11
171.1544992078713
 21
13.99007218775248
 31
0.0
 11
171.0341060772624
 21
13.89715272597017
 31
0.0
 11
170.8896160201846
 21
13.8283235766818
 31
0.0
 11
170.7223519532714
 21
13.78581275203968
 31
0.0
 11
170.5336103348226
 21
13.77165864614042
 31
0.0
 11
170.3405031726388
 21
13.78581275203968
 31
0.0
 11
170.1878975900912
 21
13.8283235766818
 31
0.0
 11
170.0661897942203
 21
13.88899033013889
 31
0.0
 11
169.9660261826363
 21
13.95734322942737
 31
0.0
 11
169.9922320587039
 21
14.03255545163077
 31
0.0
 11
170.0090121537617
 21
14.10014767383613
 31
0.0
 11
170.0206196447851
 21
14.17275926235962
 31
0.0
 11
170.0313606254138
 21
14.26352788212859
 31
0.0
 11
170.0520069443315
 21
14.26352788212859
 31
0.0
 11
170.0726532632492
 21
14.26352788212859
 31
0.0
 11
170.104891639163
 21
14.20119204881084
 31
0.0
 11
170.1465954835851
 21
14.13795663215994
 31
0.0
  0
LWPOLYLINE
  5
B9
102
{ACAD_REACTORS
330
C6
102
}
330
48
100
AcDbEntity
  8
_U_30EC_U_30A4_U_30E4_U_30FC_1
  6
Continuous
 62
     2
100
AcDbPolyline
 90
        5
 70
     1
 43
0.0
 10
192.4578138032672
 20
15.39722336795625
 10
192.4578138032672
 20
15.22875434022058
 10
191.1602971697031
 20
15.22875434022058
 10
191.1602971697031
 20
15.39722336795625
 10
192.4578138032672
 20
15.39722336795625
  0
MTEXT
  5
BB
330
48
100
AcDbEntity
  8
1
 62
     2
100
AcDbMText
 10
32.5
 20
282.0000000000003
 30
0.0
 40
5.0
 41
0.0
 71
     5
 72
     1
  1
図番
  7
CONVERTER_11
 73
     1
 44
0.45454545454545
  0
MTEXT
  5
BC
330
48
100
AcDbEntity
  8
1
 62
     2
100
AcDbMText
 10
29.0
 20
34.0
 30
0.0
 40
3.5
 41
0.0
 71
     5
 72
     1
  1
備考
  7
CONVERTER_11
 73
     1
 44
0.45454545454545
  0
MTEXT
  5
BD
330
48
100
AcDbEntity
  8
1
 62
     2
100
AcDbMText
 10
29.0
 20
22.75
 30
0.0
 40
3.5
 41
0.0
 71
     5
 72
     1
  1
品名
  7
CONVERTER_11
 73
     1
 44
0.72727272727273
  0
MTEXT
  5
BE
330
48
100
AcDbEntity
  8
1
 62
     2
100
AcDbMText
 10
29.0
 20
14.25
 30
0.0
 40
3.5
 41
0.0
 71
     5
 72
     1
  1
品番
  7
CONVERTER_11
 73
     1
 44
0.72727272727273
  0
MTEXT
  5
BF
330
48
100
AcDbEntity
  8
1
 62
     2
100
AcDbMText
 10
101.5
 20
25.00000000000001
 30
0.0
 40
3.0
 41
0.0
 71
     5
 72
     1
  1
承認
  7
CONVERTER_11
 73
     1
 44
0.59090909090909
  0
MTEXT
  5
C0
330
48
100
AcDbEntity
  8
1
 62
     2
100
AcDbMText
 10
175.0000000000001
 20
23.50000000000001
 30
0.0
 40
3.5
 41
0.0
 71
     5
 72
     1
  1
第三角法
  7
CONVERTER_11
 73
     1
 44
0.54545454545455
  0
MTEXT
  5
C1
330
48
100
AcDbEntity
  8
1
 62
     2
100
AcDbMText
 10
118.5
 20
25.00000000000001
 30
0.0
 40
3.0
 41
0.0
 71
     5
 72
     1
  1
検図
  7
CONVERTER_11
 73
     1
 44
0.59090909090909
  0
MTEXT
  5
C2
330
48
100
AcDbEntity
  8
1
 62
     2
100
AcDbMText
 10
152.5000000000001
 20
25.00000000000001
 30
0.0
 40
3.0
 41
0.0
 71
     5
 72
     1
  1
設計
  7
CONVERTER_11
 73
     1
 44
0.59090909090909
  0
MTEXT
  5
C3
330
48
100
AcDbEntity
  8
1
 62
     2
100
AcDbMText
 10
135.5000000000001
 20
25.00000000000001
 30
0.0
 40
3.0
 41
0.0
 71
     5
 72
     1
  1
製図
  7
CONVERTER_11
 73
     1
 44
0.59090909090909
  0
MTEXT
  5
C4
330
48
100
AcDbEntity
  8
1
 62
     2
100
AcDbMText
 10
89.5
 20
24.00000000000001
 30
0.0
 40
3.5
 41
0.0
 71
     5
 72
     1
  1
尺度
  7
CONVERTER_11
 73
     1
 44
0.54545454545455
  0
MTEXT
  5
C5
330
48
100
AcDbEntity
  8
1
 62
   250
100
AcDbMText
 10
25.0
 20
5.0
 30
0.0
 40
3.5
 41
0.0
 71
     4
 72
     1
  1
備考欄の文字列 原点位置=4
  7
CONVERTER_11
 73
     1
 44
0.54545454545455
  0
HATCH
  5
C6
330
48
100
AcDbEntity
  8
1
  6
Continuous
 62
     2
100
AcDbHatch
 10
0.0
 20
0.0
 30
0.0
210
0.0
220
0.0
230
1.0
  2
CUSTOM0
 70
     0
 71
     1
 91
        1
 92
        1
 93
        4
 72
     1
 10
192.4578138032672
 20
15.39722336795625
 11
192.4578138032672
 21
15.22875434022058
 72
     1
 10
192.4578138032672
 20
15.22875434022058
 11
191.1602971697031
 21
15.22875434022058
 72
     1
 10
191.1602971697031
 20
15.22875434022058
 11
191.1602971697031
 21
15.39722336795625
 72
     1
 10
191.1602971697031
 20
15.39722336795625
 11
192.4578138032672
 21
15.39722336795625
 97
        1
330
B9
 75
     1
 76
     2
 52
45.0
 41
0.1
 77
     0
 78
     1
 53
45.0
 43
0.0
 44
0.0
 45
-0.282842712474619
 46
0.0
 79
     0
 98
        1
 10
0.0
 20
0.0
  0
HATCH
  5
C7
330
48
100
AcDbEntity
  8
1
  6
Continuous
 62
     2
100
AcDbHatch
 10
0.0
 20
0.0
 30
0.0
210
0.0
220
0.0
230
1.0
  2
CUSTOM1
 70
     0
 71
     1
 91
        1
 92
        1
 93
        3
 72
     4
 94
        3
 73
     0
 74
     0
 95
       24
 96
       20
 40
0.0
 40
0.0
 40
0.0
 40
0.0
 40
0.2211075008753349
 40
0.42732185862454
 40
0.5080174679238622
 40
0.5914835907869537
 40
0.8143265690191972
 40
1.054651302686507
 40
1.295452694023096
 40
1.51810923132875
 40
1.540864321905393
 40
1.595126460622654
 40
1.659890947895996
 40
1.714153085187382
 40
1.736908174961682
 40
1.764951100735405
 40
1.801562291221022
 40
1.953914424543695
 40
2.126104167379789
 40
2.126104167379789
 40
2.126104167379789
 40
2.126104167379789
 10
185.9375369556888
 20
15.58989295113016
 10
185.9112579081812
 20
15.53097628234373
 10
185.8604698894426
 20
15.41711139679251
 10
185.813178483911
 20
15.14441958233115
 10
185.7043482802618
 20
15.24445482575455
 10
185.5514800279637
 20
15.27118593367331
 10
185.7686155181198
 20
15.48518135017632
 10
185.7838483674381
 20
15.70332117782486
 10
185.8906889492
 20
15.88451579066427
 10
185.8305380947078
 20
16.16913226311401
 10
185.9334317395402
 20
16.14114089222451
 10
185.977993346815
 20
16.13243251602299
 10
186.0380842395397
 20
16.12139654183355
 10
186.0756619587439
 20
16.1076752305556
 10
186.1252466928607
 20
16.10756076160222
 10
186.0930158919325
 20
16.07306592398623
 10
186.0171802221882
 20
16.08404104537964
 10
186.0429447159693
 20
15.8985896958245
 10
186.005589676385
 20
15.80702313549589
 10
185.9857704961609
 20
15.75844135397704
 72
     4
 94
        3
 73
     0
 74
     0
 95
       70
 96
       66
 40
0.0
 40
0.0
 40
0.0
 40
0.0
 40
0.0241731073021188
 40
0.0846058988987013
 40
0.1631685280352715
 40
0.2417311571788903
 40
0.3021639488291614
 40
0.3263370654894688
 40
0.3533118254248028
 40
0.4228783438921294
 40
0.5179999095312621
 40
0.6216398239465285
 40
0.716761389149896
 40
0.7863279069649117
 40
0.813302679176109
 40
0.8372943998771211
 40
0.8945054261372406
 40
0.9627895541962459
 40
1.020000580349056
 40
1.043992300975182
 40
1.071934345522925
 40
1.113121768772912
 40
1.145225199332236
 40
1.225483775412775
 40
1.329819923771487
 40
1.43415607199438
 40
1.514414647795802
 40
1.54651807820841
 40
1.578974764260183
 40
1.662678849314178
 40
1.777131373668399
 40
1.90183337747479
 40
2.016285900500579
 40
2.099989982527946
 40
2.132446666570305
 40
2.158782354486029
 40
2.216720867907818
 40
2.274659381334239
 40
2.300995069256175
 40
2.333451754066147
 40
2.417155836543828
 40
2.531608358985267
 40
2.656310362283762
 40
2.770762886388895
 40
2.85446697134006
 40
2.886923657363866
 40
2.913597976833298
 40
2.982389642875099
 40
3.076451716946961
 40
3.17893726045857
 40
3.272999334739968
 40
3.341791001059188
 40
3.3684653206635
 40
3.39697608073875
 40
3.472140811845986
 40
3.578408190308676
 40
3.70022689245614
 40
3.822045594634386
 40
3.928312973256521
 40
4.003477705314919
 40
4.031988456866984
 40
4.058324144797784
 40
4.116262658236949
 40
4.174201171400752
 40
4.200536849608686
 40
4.200536849608686
 40
4.200536849608686
 40
4.200536849608686
 10
185.9857704961609
 20
15.75844135397704
 10
185.9938259544679
 20
15.75844359811686
 10
186.0220200663241
 20
15.75845146032796
 10
186.0765534803672
 20
15.7583075482837
 10
186.1482891808603
 20
15.75909120499897
 10
186.2236240137062
 20
15.75627570463809
 10
186.2713052366438
 20
15.76298403400956
 10
186.3195071245615
 20
15.7519756369243
 10
186.3062571799873
 20
15.80546402997032
 10
186.3151093964537
 20
15.8604958354309
 10
186.3108698036285
 20
15.95419908726108
 10
186.3133483481278
 20
16.04959482218532
 10
186.309093870606
 20
16.14356821983387
 10
186.3179818665846
 20
16.19795062438013
 10
186.3046977409944
 20
16.25233997691461
 10
186.3514119277107
 20
16.23842216335358
 10
186.3943254545736
 20
16.24103877374043
 10
186.4605443456684
 20
16.23648422450755
 10
186.5013342271798
 20
16.22778162134162
 10
186.5525145690819
 20
16.23531799890195
 10
186.52537204872
 20
16.19349970223288
 10
186.4803096055707
 20
16.20284992072595
 10
186.4942065045051
 20
16.13841207371837
 10
186.4858414431653
 20
16.07378219627398
 10
186.4903632178398
 20
15.97529141193887
 10
186.4854741311167
 20
15.87595932842569
 10
186.4950258992082
 20
15.81293115552967
 10
186.47997614552
 20
15.74964011499787
 10
186.5449159457209
 20
15.76515072944268
 10
186.6116246399496
 20
15.75499387697811
 10
186.7241435470828
 20
15.75988800099366
 10
186.8390235448954
 20
15.75691204732782
 10
186.9519871999747
 20
15.7622166418499
 10
187.0176267597678
 20
15.75107306472088
 10
187.0816276691053
 20
15.76744532319856
 10
187.0703142889189
 20
15.71761689905274
 10
187.0775339871509
 20
15.67416715212121
 10
187.0703142611269
 20
15.63071745587443
 10
187.0816277175994
 20
15.58088895196875
 10
187.0176263598972
 20
15.59726166091361
 10
186.9519921240459
 20
15.58611271661587
 10
186.838997431733
 20
15.59144857206852
 10
186.7242456548644
 20
15.58834345663821
 10
186.611318368686
 20
15.59364894682587
 10
186.5455220903585
 20
15.58257300019592
 10
186.4816097975358
 20
15.59887597847617
 10
186.4936015165126
 20
15.54423524395741
 10
186.4862104613005
 20
15.48854295047841
 10
186.4892684841983
 20
15.3964968914057
 10
186.4893422785683
 20
15.30179109873101
 10
186.4860313578359
 20
15.20952782902266
 10
186.4939505989904
 20
15.15435768736141
 10
186.4815076611617
 20
15.10058169100136
 10
186.5389116551632
 20
15.11453768862782
 10
186.5994708140383
 20
15.10511457884227
 10
186.7048680855081
 20
15.10942885928705
 10
186.8204294070623
 20
15.10835504612032
 10
186.9359688877798
 20
15.10725965900995
 10
187.0414181130841
 20
15.11162525770633
 10
187.1018680471805
 20
15.10209426030672
 10
187.1592837739111
 20
15.1161728960638
 10
187.1477773876711
 20
15.06707153265684
 10
187.153756678175
 20
15.02564658018649
 10
187.1520311050804
 20
14.97651677966696
 10
187.1521500122972
 20
14.94854428447608
 10
187.1521871691834
 20
14.9398028819595
 72
     4
 94
        3
 73
     0
 74
     0
 95
       62
 96
       58
 40
0.0
 40
0.0
 40
0.0
 40
0.0
 40
0.0598250028308769
 40
0.2024846486897616
 40
0.3727558389220746
 40
0.515415484793607
 40
0.5752404975785339
 40
0.9332326775486973
 40
1.290451762839447
 40
1.602077253145804
 40
1.699931634112038
 40
1.799359756424973
 40
2.270120149657012
 40
2.804661928461481
 40
2.882342287383194
 40
3.076543185719044
 40
3.329004354835511
 40
3.581465524568338
 40
3.775666424543626
 40
3.853346784558246
 40
3.89912067959502
 40
3.984129341792046
 40
4.029903236817423
 40
4.105797496059578
 40
4.295533144152538
 40
4.542189486611774
 40
4.788845828875722
 40
4.978581476410103
 40
5.054475735244345
 40
5.621734664339324
 40
6.130867242037319
 40
6.225249780948534
 40
6.318913039727194
 40
6.663579954558722
 40
7.047498900224553
 40
7.435230791575503
 40
7.498943906667915
 40
7.650875181209909
 40
7.832212509001419
 40
7.984143783696805
 40
8.047856898902932
 40
8.091554632732441
 40
8.172707566964103
 40
8.216405300767828
 40
8.289021782160685
 40
8.462184160757001
 40
8.668861838005167
 40
8.842024215263674
 40
8.91464069547487
 40
8.989881580861072
 40
9.155411528826972
 40
9.320941477743748
 40
9.396182352486997
 40
9.454709011143516
 40
9.583467660170507
 40
9.71222630901273
 40
9.770752957989211
 40
9.770752957989211
 40
9.770752957989211
 40
9.770752957989211
 10
187.1521871691834
 20
14.9398028819595
 10
187.1322348171624
 20
14.93980875568671
 10
187.0647037716466
 20
14.93982863806157
 10
186.9410612161789
 20
14.93949362520326
 10
186.7863180150057
 20
14.94107673750512
 10
186.669734948248
 20
14.93686078860494
 10
186.4550942634242
 20
14.95215205331627
 10
186.8518948407229
 20
14.59198721286189
 10
186.8945656069268
 20
14.37510503397167
 10
187.3189162146612
 20
14.19325062511448
 10
187.1439821496074
 20
14.0898519656807
 10
187.0194523925084
 20
13.87831523212726
 10
186.7666277235942
 20
14.34806081001561
 10
186.4797602893627
 20
14.99511516984523
 10
186.490633592666
 20
14.68782672154695
 10
186.488289277796
 20
14.5228861697178
 10
186.4861096126411
 20
14.28879670711694
 10
186.4980774396346
 20
14.04498072421784
 10
186.468798474063
 20
13.89855796860985
 10
186.511452262547
 20
13.75113490174537
 10
186.4239814005639
 20
13.7668579730622
 10
186.3768527606745
 20
13.76694303543455
 10
186.2898973207711
 20
13.75109425482908
 10
186.3313474021723
 20
13.89527771422762
 10
186.3029875004283
 20
14.03855052698455
 10
186.3145973775298
 20
14.27674947365264
 10
186.3124175648271
 20
14.50517235240345
 10
186.3103111127993
 20
14.66705729375994
 10
186.3208035438322
 20
14.98153709333749
 10
186.0128963252893
 20
14.29229470872437
 10
185.7055258267455
 20
13.81476750243049
 10
185.5851367066275
 20
14.03741112637425
 10
185.4074607910724
 20
14.15011034955571
 10
185.8853326362893
 20
14.32548143465461
 10
185.9353959057208
 20
14.56091929252033
 10
186.3583799621716
 20
14.95322989344606
 10
186.127675427354
 20
14.93655307029066
 10
186.004968585934
 20
14.9426951894877
 10
185.8325483095662
 20
14.93312822699574
 10
185.7213224694449
 20
14.95448818489666
 10
185.6025779627448
 20
14.9213626535742
 10
185.6183169706686
 20
15.00203900606883
 10
185.6178550933763
 20
15.04645414290854
 10
185.6027881889931
 20
15.12967081778533
 10
185.7372380935443
 20
15.09062651983884
 10
185.8619755545745
 20
15.11739729328423
 10
186.0628755237279
 20
15.10063949044053
 10
186.1921540949352
 20
15.12204225913004
 10
186.3328419928294
 20
15.08868778853422
 10
186.2980927452614
 20
15.22651875785068
 10
186.3222185666712
 20
15.34963257349481
 10
186.2967086182392
 20
15.47024055670334
 10
186.3333251146684
 20
15.60539865141493
 10
186.2211417027768
 20
15.5809454578189
 10
186.1280356457135
 20
15.5930774984202
 10
186.0191547579819
 20
15.58957630069994
 10
185.9569697640963
 20
15.58981755951601
 10
185.9375369557245
 20
15.58989295124143
 97
        3
330
AA
330
A8
330
A9
 75
     1
 76
     2
 52
45.0
 41
0.1
 77
     0
 78
     1
 53
45.0
 43
0.0
 44
0.0
 45
-0.282842712474619
 46
0.0
 79
     0
 98
        1
 10
0.0
 20
0.0
  0
HATCH
  5
C8
330
48
100
AcDbEntity
  8
1
  6
Continuous
 62
     2
100
AcDbHatch
 10
0.0
 20
0.0
 30
0.0
210
0.0
220
0.0
230
1.0
  2
CUSTOM2
 70
     0
 71
     1
 91
        1
 92
        1
 93
        1
 72
     4
 94
        3
 73
     0
 74
     0
 95
      124
 96
      120
 40
0.0
 40
0.0
 40
0.0
 40
0.0
 40
0.027818722962451
 40
0.1011590162384269
 40
0.2048470170590239
 40
0.3237088716559245
 40
0.4425707262522
 40
0.5462587270699547
 40
0.6195990203311798
 40
0.647417752257866
 40
0.6750060736115224
 40
0.7357003855242759
 40
0.7963946998054492
 40
0.8239830245571784
 40
0.8540933811102878
 40
0.9373396629409558
 40
1.063094687343237
 40
1.220731268638103
 40
1.399622220914778
 40
1.589140358637819
 40
1.778658496423957
 40
1.957549448940624
 40
2.115186030873246
 40
2.24094105691455
 40
2.324187341760648
 40
2.354297700109497
 40
2.381886024672004
 40
2.442580338710592
 40
2.503274652750616
 40
2.530862977314723
 40
2.560983949278676
 40
2.640393784453051
 40
2.752662861759274
 40
2.881361560118319
 40
3.010060258455366
 40
3.122329335705541
 40
3.201739170818183
 40
3.231860142753544
 40
3.264298024030601
 40
3.352343701778472
 40
3.482095226868997
 40
3.639650650173258
 40
3.811108022565713
 40
3.982565394928222
 40
4.140120818152803
 40
4.269872343141514
 40
4.357918020802576
 40
4.390355902044205
 40
4.423256253992803
 40
4.508104530073324
 40
4.624121560637092
 40
4.750528176031877
 40
4.866545206602324
 40
4.95139348269231
 40
4.984293834645711
 40
5.011450833242624
 40
5.071196230152407
 40
5.130941627057481
 40
5.158098625649145
 40
5.190998977601807
 40
5.275847253689689
 40
5.391864284257152
 40
5.518270899648669
 40
5.634287930209736
 40
5.71913620628841
 40
5.752036558236326
 40
5.782130946283352
 40
5.862783906229526
 40
5.979550131775393
 40
6.1179843166408
 40
6.263641154588345
 40
6.402075339414551
 40
6.518841564908345
 40
6.599494524815927
 40
6.629588912849164
 40
6.65440302822674
 40
6.713575149488507
 40
6.784199939329825
 40
6.843372060493927
 40
6.868186175803173
 40
6.896246243202222
 40
6.939586233758673
 40
6.967846564565301
 40
7.043584251090239
 40
7.153234334452097
 40
7.283231855734847
 40
7.420011856035881
 40
7.550009376580233
 40
7.659659458835632
 40
7.735397144417625
 40
7.763657474851797
 40
7.796409728011454
 40
7.880876065096729
 40
7.996370852466114
 40
8.122208446419009
 40
8.237703224799603
 40
8.322169562011297
 40
8.35492181520631
 40
8.382078813308091
 40
8.441824209207393
 40
8.50156960524054
 40
8.528726603486117
 40
8.561478856696166
 40
8.645945193878216
 40
8.761439980865728
 40
8.88727758076487
 40
9.00277236200139
 40
9.087238696661611
 40
9.119990949236065
 40
9.152428830613765
 40
9.24047450863898
 40
9.370226034149931
 40
9.527781457984817
 40
9.699238830981805
 40
9.870696203978998
 40
10.02825162781442
 40
10.15800315332604
 40
10.24604883135159
 40
10.27848670378561
 40
10.27848670378561
 40
10.27848670378561
 40
10.27848670378561
 10
195.3821827564383
 20
14.01410517385757
 10
195.3914554737523
 20
14.01410498511274
 10
195.4251744536861
 20
14.01410430876714
 10
195.4934706812465
 20
14.01411807243305
 10
195.592014171158
 20
14.01403224219544
 10
195.7062066464812
 20
14.01441755612251
 10
195.818589441707
 20
14.01300835897545
 10
195.9214376600118
 20
14.01719117422243
 10
195.9806839874849
 20
14.00823089251983
 10
196.0371265937032
 20
14.02164434526061
 10
196.0246255586955
 20
13.97087198613361
 10
196.0329549635704
 20
13.92589320939067
 10
196.0248170841119
 20
13.88056752990488
 10
196.0370529214457
 20
13.82931932408466
 10
195.9747773490333
 20
13.84447955365276
 10
195.9060513026868
 20
13.83359750710743
 10
195.7782756749591
 20
13.83911304747972
 10
195.6262984511644
 20
13.83700851253698
 10
195.4502695972521
 20
13.83771002588473
 10
195.2644431934287
 20
13.83745237531291
 10
195.0786167437174
 20
13.83771005144603
 10
194.9025880142167
 20
13.83700841847731
 10
194.7506104154193
 20
13.83911332229988
 10
194.6228357664554
 20
13.8335968076764
 10
194.5541077836579
 20
13.84448077125942
 10
194.4918349042882
 20
13.82931786684209
 10
194.5040616290017
 20
13.88057510805171
 10
194.4960004462596
 20
13.92582473272425
 10
194.5040675809891
 20
13.97106357955323
 10
194.4918238487082
 20
14.02234176909958
 10
194.5525017120697
 20
14.00749577363135
 10
194.6162810745735
 20
14.01756448170735
 10
194.7277314353502
 20
14.01294644211999
 10
194.8497533443823
 20
14.01413328905469
 10
194.9719538137823
 20
14.01515863900634
 10
195.0829794287392
 20
14.01092475623402
 10
195.1476517413958
 20
14.02018584521739
 10
195.2091162810501
 20
14.00604423049683
 10
195.1930065601337
 20
14.07235527884517
 10
195.2042980327358
 20
14.14447790121976
 10
195.1987400822561
 20
14.27513760888286
 10
195.2008035061691
 20
14.42607323708242
 10
195.2000167127295
 20
14.59335873107886
 10
195.2007845215627
 20
14.76061110332303
 10
195.1988038785628
 20
14.91163289269914
 10
195.2041306156621
 20
15.04206069552995
 10
195.1933101388425
 20
15.114654426059
 10
195.2090326429875
 20
15.18150469436799
 10
195.143270813249
 20
15.16580512490825
 10
195.0756367830763
 20
15.17609243083996
 10
194.9615885293809
 20
15.17113786847122
 10
194.8451242674902
 20
15.17414128030476
 10
194.7306554121477
 20
15.1688030314339
 10
194.664032465781
 20
15.18001268074825
 10
194.5990769715185
 20
15.16349132665012
 10
194.6107989758707
 20
15.21473720477059
 10
194.603283018912
 20
15.25950333784091
 10
194.6107989878835
 20
15.30426944897961
 10
194.5990769505345
 20
15.3555153612974
 10
194.6640326339199
 20
15.33899381766815
 10
194.730653333982
 20
15.35020571373944
 10
194.8451352858063
 20
15.34485436710664
 10
194.9615454436962
 20
15.34791188771117
 10
195.075766017464
 20
15.34278499010708
 10
195.1430150439226
 20
15.35345733355599
 10
195.2083325941438
 20
15.33742082669076
 10
195.1941391448552
 20
15.39949685750053
 10
195.2036059462995
 20
15.46586761628763
 10
195.1990269004085
 20
15.58239972741966
 10
195.2007696555948
 20
15.71426685022376
 10
195.1997551495391
 20
15.85615960150273
 10
195.2017191344373
 20
15.9876905070258
 10
195.1964668553851
 20
16.10524577283002
 10
195.2073408763474
 20
16.16947789001584
 10
195.1919536641853
 20
16.23108802545047
 10
195.24075915378
 20
16.21702407382111
 10
195.2853995564726
 20
16.21954742075314
 10
195.3538643946742
 20
16.2151279740171
 10
195.3959106169102
 20
16.20613025544035
 10
195.4487544758775
 20
16.21411714866511
 10
195.4207035002015
 20
16.1711391761167
 10
195.3749142248594
 20
16.18259552043839
 10
195.3869539073265
 20
16.12173520005136
 10
195.379608607064
 20
16.05769299468773
 10
195.3831195826162
 20
15.94909368863911
 10
195.3819806760173
 20
15.82494319144753
 10
195.3819174780262
 20
15.69189719829878
 10
195.3832872966867
 20
15.56797381249555
 10
195.3791638801314
 20
15.45868337849339
 10
195.3877763103564
 20
15.3960858009417
 10
195.3746757454401
 20
15.33740133296365
 10
195.4393884328198
 20
15.35362113810902
 10
195.5060405953156
 20
15.34270260383311
 10
195.6198779541102
 20
15.34793740173756
 10
195.7357259122097
 20
15.34485547516913
 10
195.849692426328
 20
15.35018259812512
 10
195.91603410181
 20
15.33904208166543
 10
195.9807188525479
 20
15.35546979593178
 10
195.9689820772722
 20
15.30425925210051
 10
195.9765168063041
 20
15.25950334121001
 10
195.9689820992258
 20
15.21474739010028
 10
195.9807188140737
 20
15.16353690871041
 10
195.9160344075252
 20
15.17996427794221
 10
195.8496886430824
 20
15.1688278444727
 10
195.7357459487012
 20
15.17413115893121
 10
195.6197995623054
 20
15.17114764593544
 10
195.5062756882122
 20
15.17606892268395
 10
195.4389231318804
 20
15.1658508751352
 10
195.3734285122495
 20
15.18145996138816
 10
195.3891713619218
 20
15.11463851827411
 10
195.3783275998212
 20
15.04207057815879
 10
195.3836581629793
 20
14.91162247614417
 10
195.3817136151854
 20
14.76064558185226
 10
195.3823133683214
 20
14.59322243934158
 10
195.3821506559605
 20
14.42656176118372
 10
195.3821895488135
 20
14.27360142921636
 10
195.38218164131
 20
14.14849178985705
 10
195.3821828382744
 20
14.0650789099142
 10
195.3821827716208
 20
14.02491778281976
 10
195.3821827564383
 20
14.01410517385757
 97
        1
330
AB
 75
     1
 76
     2
 52
45.0
 41
0.1
 77
     0
 78
     1
 53
45.0
 43
0.0
 44
0.0
 45
-0.282842712474619
 46
0.0
 79
     0
 98
        1
 10
0.0
 20
0.0
  0
HATCH
  5
C9
330
48
100
AcDbEntity
  8
1
  6
Continuous
 62
     2
100
AcDbHatch
 10
0.0
 20
0.0
 30
0.0
210
0.0
220
0.0
230
1.0
  2
CUSTOM3
 70
     0
 71
     1
 91
        1
 92
        1
 93
        1
 72
     4
 94
        3
 73
     0
 74
     0
 95
      131
 96
      127
 40
0.0
 40
0.0
 40
0.0
 40
0.0
 40
0.0195577029826184
 40
0.0426490537460533
 40
0.2863607575856156
 40
0.5344948436188985
 40
0.7842238845572714
 40
0.873731578946692
 40
0.9803832810312668
 40
1.092842274516989
 40
1.199761146656747
 40
1.289788768186425
 40
1.35157358078607
 40
1.370727117561297
 40
1.416400936017679
 40
1.470914848355791
 40
1.516588666791548
 40
1.535742203552614
 40
1.634216592293007
 40
1.760283341174865
 40
1.897966686681948
 40
2.031216387368771
 40
2.049689751137765
 40
2.101115601646701
 40
2.179502577739818
 40
2.278859318313936
 40
2.393194462258594
 40
2.516516648383707
 40
2.642834515405836
 40
2.766156701983342
 40
2.880491846754456
 40
2.979848588358499
 40
3.058235565443676
 40
3.109661416668832
 40
3.128134780704008
 40
3.146783742386325
 40
3.191254343315185
 40
3.244332157315844
 40
3.288802758225748
 40
3.307451719894991
 40
3.327717853844602
 40
3.383747753579965
 40
3.468388665924357
 40
3.574487837698668
 40
3.694892515728772
 40
3.822449946851914
 40
3.950007377920306
 40
4.070412055800398
 40
4.176511227367957
 40
4.261152139501403
 40
4.317182039076597
 40
4.337448172964518
 40
4.620011002696155
 40
4.88509663839747
 40
4.945373043518252
 40
5.014107710488566
 40
5.070481727652015
 40
5.319246955636586
 40
5.584812164506099
 40
5.85900091205697
 40
6.133746937542119
 40
6.401732212968922
 40
6.420736683995512
 40
6.472845717451163
 40
6.550702743894091
 40
6.646951193874299
 40
6.754234497930623
 40
6.865196086587401
 40
6.97247939035786
 40
7.068727839772022
 40
7.146584865451031
 40
7.19869389818926
 40
7.217698368905401
 40
7.234950401630877
 40
7.27608986426992
 40
7.325191803516027
 40
7.366331266090411
 40
7.383583298769761
 40
7.402779163492138
 40
7.453386443254569
 40
7.524934666445571
 40
7.60695336140591
 40
7.688972056429062
 40
7.760520279784313
 40
7.811127559734555
 40
7.830323424546176
 40
7.847844055299806
 40
7.894799345666847
 40
7.962779392744535
 40
8.043374293560582
 40
8.128174145149488
 40
8.208769044817293
 40
8.276749090376994
 40
8.323704379669552
 40
8.341225010056286
 40
8.358497614800434
 40
8.40167912668664
 40
8.457815092185697
 40
8.513951057728102
 40
8.557132569708058
 40
8.5744051745051
 40
8.602340668616458
 40
8.64345566054
 40
8.663225271966668
 40
8.715345156564316
 40
8.789031889628651
 40
8.87350204552038
 40
8.957972194324004
 40
9.031658925567895
 40
9.083778811234586
 40
9.103548423003048
 40
9.119550083123585
 40
9.160817522379887
 40
9.217244429110252
 40
9.278724491644738
 40
9.335151398295523
 40
9.376418837357818
 40
9.392420497300606
 40
9.401196302734824
 40
9.4174942293843
 40
9.426270027749572
 40
9.440875075477605
 40
9.475702496998784
 40
9.517270709865945
 40
9.552098131994113
 40
9.56670316988432
 40
9.56670316988432
 40
9.56670316988432
 40
9.56670316988432
 10
194.6170254148479
 20
15.67015871511028
 10
194.6134345093371
 20
15.6645369070216
 10
194.6056039123625
 20
15.65227754419116
 10
194.5129968974547
 20
15.61601916040943
 10
194.4887622233247
 20
15.40148444212727
 10
194.3858709845938
 20
15.22197284509706
 10
194.1220492364306
 20
15.03615573798146
 10
194.284547156918
 20
14.9595933656608
 10
194.3607225760838
 20
14.89856693195443
 10
194.4492171072758
 20
14.83515804544758
 10
194.538993023311
 20
14.77525634219561
 10
194.5883817636046
 20
14.7210215484921
 10
194.6745708157381
 20
14.69286240541833
 10
194.6411260674228
 20
14.65713309652813
 10
194.621467116631
 20
14.62550387991906
 10
194.5919888217882
 20
14.5847587279607
 10
194.5688989446032
 20
14.55504663489643
 10
194.5380205968358
 20
14.50211422668491
 10
194.472919336574
 20
14.62740334938902
 10
194.3796000122416
 20
14.68213900233934
 10
194.2950636285138
 20
14.73916423939342
 10
194.1722498125743
 20
14.89675287427523
 10
194.1764450847301
 20
14.82035806766836
 10
194.1751478652677
 20
14.77361280161296
 10
194.1758126448076
 20
14.69584785812601
 10
194.1755549986956
 20
14.59902068324423
 10
194.1756431239921
 20
14.48650279078809
 10
194.1756077302282
 20
14.36524085945699
 10
194.1756511758278
 20
14.24086897858961
 10
194.1755199942405
 20
14.11967683631335
 10
194.1759477562047
 20
14.00691148919743
 10
194.1746678202311
 20
13.91082913768744
 10
194.1779759851044
 20
13.83113826468699
 10
194.1715197740085
 20
13.78815175788783
 10
194.1806208705556
 20
13.74955432372042
 10
194.1447910339934
 20
13.75810887724069
 10
194.1115223815252
 20
13.75342519985446
 10
194.0604562576041
 20
13.75351298759784
 10
194.0269723972812
 20
13.7579443028382
 10
193.9907585408754
 20
13.74960793842509
 10
194.0009782568665
 20
13.79145277179283
 10
193.9936487887773
 20
13.83778560820173
 10
193.9973633136103
 20
13.92374831106013
 10
193.9959480554897
 20
14.02605142704849
 10
193.9964105554638
 20
14.14453223931511
 10
193.996277368623
 20
14.26957683153356
 10
193.9963015910045
 20
14.3947582810705
 10
193.9963354925551
 20
14.51286645379058
 10
193.9962060293131
 20
14.61628748709516
 10
193.9965507549081
 20
14.69932036153667
 10
193.995869827869
 20
14.75143368521243
 10
193.9994586600622
 20
14.87912907821363
 10
193.7826171386436
 20
14.58048716819621
 10
193.602135492195
 20
14.35263981511509
 10
193.5490322295611
 20
14.49373443289816
 10
193.5200429133149
 20
14.54325767560947
 10
193.4196648062817
 20
14.646417797901
 10
193.7405127723262
 20
14.72695035023782
 10
193.8689897005429
 20
14.91066283036434
 10
194.0906454325359
 20
15.1193199577176
 10
194.1770224894069
 20
15.29339211228348
 10
194.4549394229073
 20
15.56967051342512
 10
194.3346247839284
 20
15.56534559551115
 10
194.2863197351348
 20
15.56614856202553
 10
194.2102377454905
 20
15.56574582146585
 10
194.116701000975
 20
15.56590275611611
 10
194.0117594788557
 20
15.56582502576224
 10
193.9033887738717
 20
15.56595464378556
 10
193.7981454235897
 20
15.56554393490692
 10
193.7056237819412
 20
15.56682073671592
 10
193.6268130800707
 20
15.5634076653485
 10
193.5839674565379
 20
15.57023350036321
 10
193.5449499586516
 20
15.56065064201124
 10
193.5526365271863
 20
15.59420779565543
 10
193.5485464404312
 20
15.62523550322234
 10
193.5485531368814
 20
15.672365292709
 10
193.5526239724911
 20
15.70340941646779
 10
193.5449495574582
 20
15.73701861635901
 10
193.5834819405495
 20
15.72748410420872
 10
193.624122801448
 20
15.73397435498071
 10
193.6951471850463
 20
15.73100150650254
 10
193.7729318149633
 20
15.73174761399158
 10
193.8507292246474
 20
15.73247814044525
 10
193.9217232089907
 20
15.7295423551416
 10
193.962427979182
 20
15.73595468772952
 10
194.000985348991
 20
15.72650524176004
 10
193.9927342754927
 20
15.76264692158784
 10
193.9982346669359
 20
15.80129837613227
 10
193.9955754206163
 20
15.86913528561839
 10
193.9965815471533
 20
15.9459164153874
 10
193.9960178018319
 20
16.02849393582757
 10
193.9970714526592
 20
16.10517329229878
 10
193.994267586313
 20
16.173319907767
 10
194.0000702721304
 20
16.21132399809346
 10
193.9915654551158
 20
16.24758448077646
 10
194.0255610233125
 20
16.23755723771853
 10
194.05945756831
 20
16.24073266813706
 10
194.1126669060346
 20
16.2350896564061
 10
194.1660768574482
 20
16.23434774436424
 10
194.1995914649491
 20
16.22819223482981
 10
194.2388086183039
 20
16.23346029773592
 10
194.2120263698493
 20
16.19253380793491
 10
194.1708111001723
 20
16.20371204538111
 10
194.1782641540873
 20
16.15867056192124
 10
194.1742227952184
 20
16.11412278028144
 10
194.176171404964
 20
16.04223572621703
 10
194.1752364849758
 20
15.96168630588771
 10
194.176510719003
 20
15.88173995404994
 10
194.1732043793863
 20
15.80841837083183
 10
194.1802106179961
 20
15.76688643002568
 10
194.1701440380126
 20
15.72752418568113
 10
194.2029814803921
 20
15.73468063430981
 10
194.236457729648
 20
15.73027243137945
 10
194.2915053476019
 20
15.73217943347897
 10
194.3489502595314
 20
15.73185366407288
 10
194.4023026248309
 20
15.73106308733081
 10
194.4398540896638
 20
15.73313959118074
 10
194.4623172523237
 20
15.73022338167109
 10
194.4751678073731
 20
15.73572552644056
 10
194.4858255685888
 20
15.7380111819779
 10
194.4986635650143
 20
15.74494972588052
 10
194.5145991033071
 20
15.72853046313672
 10
194.5410623920891
 20
15.71709122319449
 10
194.5726805253757
 20
15.6964468783519
 10
194.5987255892151
 20
15.68116869628295
 10
194.6128517723973
 20
15.67266976323184
 10
194.6170254148479
 20
15.67015871511028
 97
        1
330
AC
 75
     1
 76
     2
 52
45.0
 41
0.1
 77
     0
 78
     1
 53
45.0
 43
0.0
 44
0.0
 45
-0.282842712474619
 46
0.0
 79
     0
 98
        1
 10
0.0
 20
0.0
  0
HATCH
  5
CA
330
48
100
AcDbEntity
  8
1
  6
Continuous
 62
     2
100
AcDbHatch
 10
0.0
 20
0.0
 30
0.0
210
0.0
220
0.0
230
1.0
  2
CUSTOM4
 70
     0
 71
     1
 91
        1
 92
        1
 93
        1
 72
     4
 94
        3
 73
     0
 74
     0
 95
       91
 96
       87
 40
0.0
 40
0.0
 40
0.0
 40
0.0
 40
0.0267532254356684
 40
0.0856103386464066
 40
0.144467452199655
 40
0.1712206856618426
 40
0.2039416005642447
 40
0.2955601971652395
 40
0.4362601844617113
 40
0.6162252844507445
 40
0.8256392189704893
 40
1.054685709844487
 40
1.293548478893551
 40
1.532411247938351
 40
1.761457738799616
 40
1.970871673298584
 40
2.15083677325678
 40
2.291536760495641
 40
2.383155356836776
 40
2.415876284101397
 40
2.442629517488039
 40
2.501486630949166
 40
2.560343744424311
 40
2.587096977826582
 40
2.61706819444101
 40
2.699247336756151
 40
2.822032643466492
 40
2.973822353258021
 40
3.143014704823464
 40
3.318007936880043
 40
3.487200288186904
 40
3.638989997548385
 40
3.76177530379494
 40
3.843954445753247
 40
3.873925662229943
 40
3.890812773500704
 40
3.90769988477191
 40
3.937960767857495
 40
3.980983618142555
 40
4.199085915228713
 40
4.439444339237504
 40
4.677588241261134
 40
5.05069831783802
 40
5.448212454763434
 40
5.855291218045016
 40
6.138575438885764
 40
6.417434507584583
 40
6.444551104394266
 40
6.504207617363566
 40
6.56386413031489
 40
6.590980727104483
 40
6.848609460381887
 40
7.109611990668864
 40
7.35291090444653
 40
7.557830220705868
 40
7.587518925913785
 40
7.652834077376155
 40
7.71814922884609
 40
7.747837934062344
 40
7.854880190301357
 40
7.976511257403899
 40
8.369487896592643
 40
8.757514959223965
 40
9.126072419331427
 40
9.460639380392546
 40
9.746695593036373
 40
9.777569943119106
 40
9.807050320932175
 40
9.830377336129306
 40
9.886003295436382
 40
9.952395569430292
 40
10.00802152870665
 40
10.03134854388257
 40
10.2135695100963
 40
10.42203479292921
 40
10.66154556731111
 40
10.9169378956435
 40
11.15832906556614
 40
11.18982674596671
 40
11.27286608520458
 40
11.39026653033406
 40
11.52484752840942
 40
11.65942852648507
 40
11.77682897161549
 40
11.85986831085745
 40
11.89136598230493
 40
11.89136598230493
 40
11.89136598230493
 40
11.89136598230493
 10
190.7027885008195
 20
14.70699600701772
 10
190.7028237765287
 20
14.71587847311985
 10
190.7029366710795
 20
14.74430237047346
 10
190.7012984568487
 20
14.79409639169802
 10
190.706975029291
 20
14.83657564478154
 10
190.6956928731705
 20
14.88730154856846
 10
190.7632296979031
 20
14.87012900740108
 10
190.83880292107
 20
14.88290227165996
 10
190.9828357056
 20
14.87629729457381
 10
191.1569419185426
 20
14.87888462206465
 10
191.3639599611002
 20
14.87800591955552
 10
191.5894688172376
 20
14.87828207920026
 10
191.8251162293406
 20
14.87818339658662
 10
192.0607640531347
 20
14.87828184412766
 10
192.2862717580626
 20
14.87800678190788
 10
192.4932934632805
 20
14.87888186270734
 10
192.6673888915288
 20
14.87630522678445
 10
192.8114492071985
 20
14.88288290449212
 10
192.8869691915293
 20
14.87016243405603
 10
192.9545776037029
 20
14.88726400191685
 10
192.9430840140676
 20
14.8367478580294
 10
192.9505104581733
 20
14.79253252226501
 10
192.9428838927986
 20
14.74867966503609
 10
192.9546489459425
 20
14.69878374479327
 10
192.8930788491983
 20
14.71393227712512
 10
192.8256791738671
 20
14.70310665350673
 10
192.7013004056221
 20
14.70852031626236
 10
192.555442823657
 20
14.70649205390784
 10
192.3893576440086
 20
14.70715777578387
 10
192.2188412621724
 20
14.70689643521241
 10
192.0519790855388
 20
14.70721553391094
 10
191.9087346827105
 20
14.70635302590763
 10
191.7773313869832
 20
14.70863300482987
 10
191.7239859134655
 20
14.70407704374203
 10
191.6485188456911
 20
14.70999914992876
 10
191.6769075779232
 20
14.70094169343353
 10
191.7033652409542
 20
14.6972591226893
 10
191.6633522907702
 20
14.66654271968273
 10
191.5713663691867
 20
14.67667591174638
 10
191.543939620707
 20
14.43032502247785
 10
191.4478793967233
 20
14.27499558764376
 10
191.1917277964473
 20
13.94525417931568
 10
191.7627537732763
 20
14.08430022210453
 10
192.0173656320516
 20
14.0829177997336
 10
192.6279647048619
 20
13.99790569242088
 10
192.3340698578083
 20
14.29685417558198
 10
192.0133304286518
 20
14.44330856901782
 10
192.1313543360433
 20
14.50025540818287
 10
192.1724716466262
 20
14.52420099873349
 10
192.215681239441
 20
14.5459975881123
 10
192.3174574094452
 20
14.60928721253904
 10
192.4328867625247
 20
14.35147151408779
 10
192.6329591642278
 20
14.21616041113683
 10
192.7269077387229
 20
14.03792795138885
 10
192.9558829746392
 20
13.87997821027046
 10
192.8596031846708
 20
13.82915972576301
 10
192.816795976378
 20
13.79881292523052
 10
192.7718243528779
 20
13.77466130281461
 10
192.7121720925215
 20
13.72552146747566
 10
192.6789731061325
 20
13.85997475673608
 10
192.5582013350796
 20
14.0159426528658
 10
192.1970976005979
 20
13.88569928059556
 10
191.8385061955541
 20
13.90224694409482
 10
191.457092045008
 20
13.89331229351867
 10
191.1703455282891
 20
13.82882671672399
 10
190.8592055599712
 20
13.94230668192844
 10
190.8268737818787
 20
13.83122259927767
 10
190.7896178253318
 20
13.81196313850015
 10
190.7865737632753
 20
13.85874784087297
 10
190.7679892860608
 20
13.89806853919135
 10
190.7512436616777
 20
13.95765983478233
 10
190.7383730915754
 20
14.00201969871284
 10
190.7042327806428
 20
14.09106331120201
 10
190.9482714457755
 20
14.0218104294377
 10
191.1441394486672
 20
14.00030369057741
 10
191.2395426381277
 20
14.28226484478463
 10
191.2945135769597
 20
14.44363045421125
 10
191.5159619357157
 20
14.71391177589738
 10
191.3849239381217
 20
14.70548446853735
 10
191.3110026555854
 20
14.70779008496969
 10
191.1977459876244
 20
14.70671378321658
 10
191.0694251807483
 20
14.7070763907651
 10
190.9404252030415
 20
14.70697724466085
 10
190.8287840946291
 20
14.70699932712572
 10
190.7514663970024
 20
14.7069957918967
 10
190.713287653201
 20
14.70699595845081
 10
190.7027885008195
 20
14.70699600701772
 97
        1
330
AD
 75
     1
 76
     2
 52
45.0
 41
0.1
 77
     0
 78
     1
 53
45.0
 43
0.0
 44
0.0
 45
-0.282842712474619
 46
0.0
 79
     0
 98
        1
 10
0.0
 20
0.0
  0
HATCH
  5
CB
330
48
100
AcDbEntity
  8
1
  6
Continuous
 62
     2
100
AcDbHatch
 10
0.0
 20
0.0
 30
0.0
210
0.0
220
0.0
230
1.0
  2
CUSTOM5
 70
     0
 71
     1
 91
        1
 92
        1
 93
        1
 72
     4
 94
        3
 73
     0
 74
     0
 95
       35
 96
       31
 40
0.0
 40
0.0
 40
0.0
 40
0.0
 40
0.0335231036620288
 40
0.0713218571712221
 40
0.4278866681487385
 40
0.8116865841964633
 40
1.198190238000146
 40
1.561379546812775
 40
1.659983174622105
 40
1.759315573807273
 40
2.132719617231158
 40
2.52523336358891
 40
2.910815397779777
 40
3.265244364303366
 40
3.592606723582052
 40
3.964386154603998
 40
4.359942131737842
 40
4.758154118639399
 40
4.843846538700019
 40
4.936650065543327
 40
5.256616602537406
 40
5.581707404416139
 40
5.899719158308277
 40
6.198363494280883
 40
6.466301046615945
 40
6.49389531153721
 40
6.559697020197003
 40
6.638234543442493
 40
6.704036252154218
 40
6.731630508422995
 40
6.731630508422995
 40
6.731630508422995
 40
6.731630508422995
 10
191.9736010568668
 20
16.23463843719134
 10
191.9676006097788
 20
16.22480690542323
 10
191.9548344099156
 20
16.20388988579795
 10
191.7949362006553
 20
16.17127126532703
 10
192.2322025842336
 20
15.88206680336696
 10
192.4345394828261
 20
15.6804113835844
 10
192.6819564267973
 20
15.43749387603275
 10
193.1831513624605
 20
15.36047662757781
 10
193.012556219897
 20
15.21876939174653
 10
192.9383299463201
 20
15.01710366209112
 10
192.6131432248188
 20
15.36956287174724
 10
192.3277741670664
 20
15.53175212559563
 10
192.0337604077658
 20
15.73687130053047
 10
191.8084452691134
 20
16.21827488595455
 10
191.5993085055523
 20
15.7534304660922
 10
191.3207873674835
 20
15.54350952252912
 10
191.0371383177209
 20
15.37424456359982
 10
190.7078639527833
 20
15.0014236090794
 10
190.6277012318223
 20
15.19708014458999
 10
190.4759724909745
 20
15.324911041906
 10
190.9083395826794
 20
15.40454031765934
 10
191.0962565329766
 20
15.60026634915476
 10
191.3468477420503
 20
15.81632996916753
 10
191.5714350470161
 20
15.9819099230006
 10
191.6259775409713
 20
16.26133964636826
 10
191.7494661029012
 20
16.24737950408078
 10
191.8060273344521
 20
16.24521268867647
 10
191.8761870984944
 20
16.2404685988136
 10
191.9333414022105
 20
16.23709429350541
 10
191.9644190320838
 20
16.23519854711119
 10
191.9736010568668
 20
16.23463843719134
 97
        1
330
AE
 75
     1
 76
     2
 52
45.0
 41
0.1
 77
     0
 78
     1
 53
45.0
 43
0.0
 44
0.0
 45
-0.282842712474619
 46
0.0
 79
     0
 98
        1
 10
0.0
 20
0.0
  0
HATCH
  5
CC
330
48
100
AcDbEntity
  8
1
  6
Continuous
 62
     2
100
AcDbHatch
 10
0.0
 20
0.0
 30
0.0
210
0.0
220
0.0
230
1.0
  2
CUSTOM6
 70
     0
 71
     1
 91
        1
 92
        1
 93
        1
 72
     4
 94
        3
 73
     0
 74
     0
 95
       15
 96
       11
 40
0.0
 40
0.0
 40
0.0
 40
0.0
 40
0.2785535985096574
 40
0.5215624748198874
 40
0.6076917376040509
 40
0.6938210001741243
 40
0.9405019146455258
 40
1.221691403489049
 40
1.300471877080922
 40
1.379252341684644
 40
1.379252341684644
 40
1.379252341684644
 40
1.379252341684644
 10
189.5681493630999
 20
16.22930267330381
 10
189.6296017794178
 20
16.17691646592715
 10
189.7446649974113
 20
16.07882876798222
 10
190.0397348497243
 20
15.92889785897222
 10
189.9025147631856
 20
15.84343227515014
 10
189.8041227843778
 20
15.71085785201554
 10
189.7130033590649
 20
16.01616985781413
 10
189.3636839480658
 20
16.07967869465375
 10
189.511925837657
 20
16.17896509880877
 10
189.5494081874236
 20
16.21252348402382
 10
189.5681493630999
 20
16.22930267330381
 97
        1
330
AF
 75
     1
 76
     2
 52
45.0
 41
0.1
 77
     0
 78
     1
 53
45.0
 43
0.0
 44
0.0
 45
-0.282842712474619
 46
0.0
 79
     0
 98
        1
 10
0.0
 20
0.0
  0
HATCH
  5
CD
330
48
100
AcDbEntity
  8
1
  6
Continuous
 62
     2
100
AcDbHatch
 10
0.0
 20
0.0
 30
0.0
210
0.0
220
0.0
230
1.0
  2
CUSTOM7
 70
     0
 71
     1
 91
        1
 92
        1
 93
        1
 72
     4
 94
        3
 73
     0
 74
     0
 95
       75
 96
       71
 40
0.0
 40
0.0
 40
0.0
 40
0.0
 40
0.0342546099129691
 40
0.1245622414432364
 40
0.2522385480897554
 40
0.3985991922940715
 40
0.544959836498091
 40
0.6726361431438905
 40
0.7629437746737049
 40
0.7971983935298079
 40
1.101723623449673
 40
1.408591244036676
 40
1.43333247169038
 40
1.487763172450175
 40
1.542193873082
 40
1.566935100592548
 40
1.923523931821805
 40
2.271755704953634
 40
2.590579755100876
 40
2.85894330558116
 40
2.88912033930919
 40
2.918305855191136
 40
2.941366645531259
 40
2.996357760973151
 40
3.061992318140696
 40
3.116983433626892
 40
3.140044223997571
 40
3.411273122936519
 40
3.732441619741072
 40
3.76106821753277
 40
3.837787499630336
 40
3.948858699125973
 40
4.080541049104351
 40
4.219093782625738
 40
4.35077613272229
 40
4.461847332405624
 40
4.538566614678357
 40
4.567193212544606
 40
4.594907573998864
 40
4.666381453557403
 40
4.764111044010985
 40
4.870592538125788
 40
4.96832212864221
 40
5.039796008286867
 40
5.067510369784326
 40
5.094263603185539
 40
5.153120716668171
 40
5.211977830150614
 40
5.238731063551619
 40
5.272290535138858
 40
5.363380529444719
 40
5.497618415781396
 40
5.660621563453638
 40
5.838007341749339
 40
6.015393119910691
 40
6.178396267038316
 40
6.312634151842268
 40
6.403724143059257
 40
6.437283612672353
 40
6.464036846260969
 40
6.522893960004582
 40
6.581751071483842
 40
6.608504301590788
 40
6.637253941280935
 40
6.711397748902787
 40
6.812778057283399
 40
6.923237199249176
 40
7.02461750762382
 40
7.098761315207472
 40
7.127510946007423
 40
7.127510946007423
 40
7.127510946007423
 40
7.127510946007423
 10
188.4418622390564
 20
14.95849128473265
 10
188.4418622819707
 20
14.9470731340872
 10
188.4418624481128
 20
14.9055525784263
 10
188.4418593081787
 20
14.82146922003773
 10
188.44187882798
 20
14.70004497322329
 10
188.4417912187738
 20
14.55980494047449
 10
188.442111623523
 20
14.42006556794576
 10
188.4411605909741
 20
14.29745038894929
 10
188.4431978595967
 20
14.21587074438043
 10
188.4349433178745
 20
14.06271267077697
 10
188.7430797940901
 20
14.22560236054721
 10
189.0350645173736
 20
14.39482938688005
 10
189.0408354448708
 20
14.25973235781911
 10
189.0455471719891
 20
14.21617221160445
 10
189.0482535411918
 20
14.17211249350546
 10
189.0672545672959
 20
14.02272590363136
 10
188.6583942247302
 20
14.08681172241261
 10
188.3793710348832
 20
13.97296341411017
 10
188.1018081587166
 20
13.87364095811141
 10
187.80998371844
 20
13.91630687596358
 10
187.7869144678658
 20
13.81321679744541
 10
187.7537474383333
 20
13.78691091244469
 10
187.7480653962738
 20
13.83455309036304
 10
187.7284214559044
 20
13.87180336115069
 10
187.7095089485623
 20
13.93007387847564
 10
187.6942849867707
 20
13.97385201007804
 10
187.6477246372935
 20
14.08759421046313
 10
187.989089731245
 20
14.05576301120047
 10
188.2679649367386
 20
14.02161435106481
 10
188.2617753034906
 20
14.16913976479653
 10
188.2630935452772
 20
14.24013150908832
 10
188.2624831689947
 20
14.34719767958661
 10
188.2625871570724
 20
14.47398529785998
 10
188.2629987964055
 20
14.6084924349605
 10
188.2613907841967
 20
14.73395549951185
 10
188.2659902567924
 20
14.84505246719118
 10
188.2564186502209
 20
14.90761886800689
 10
188.270400178369
 20
14.96595388295002
 10
188.2147384386703
 20
14.95289710582239
 10
188.1575655197821
 20
14.961363077495
 10
188.0616048925646
 20
14.95729976080636
 10
187.9633767522821
 20
14.95970889852476
 10
187.8672582457559
 20
14.95551600613388
 10
187.8104648525812
 20
14.96429346441164
 10
187.7550356873384
 20
14.95094936850122
 10
187.7670679427917
 20
15.00036910959258
 10
187.7592003173937
 20
15.04393988030396
 10
187.7666295563828
 20
15.08830469118525
 10
187.7551930564144
 20
15.13902297763991
 10
187.8232102370132
 20
15.12162460757743
 10
187.8968496879747
 20
15.13417450237189
 10
188.0325064058211
 20
15.12799677011097
 10
188.1884909024525
 20
15.13029203093084
 10
188.3615926358143
 20
15.1294096826253
 10
188.5346942964181
 20
15.13029207142408
 10
188.6906789811216
 20
15.1279966295555
 10
188.8263351889797
 20
15.13417486262432
 10
188.8999756705652
 20
15.12162394218335
 10
188.9679914174724
 20
15.13902373012142
 10
188.9565590885922
 20
15.08830130414555
 10
188.9639539458297
 20
15.04397060811109
 10
188.956203991227
 20
15.00028307550197
 10
188.9681203741877
 20
14.95063590098477
 10
188.9108170223616
 20
14.96461411338426
 10
188.8520145789773
 20
14.95539755673255
 10
188.7525293633199
 20
14.9595226816493
 10
188.649428009835
 20
14.95822760025889
 10
188.5537846354573
 20
14.95854077077641
 10
188.4857467971617
 20
14.95848776697146
 10
188.4514462213443
 20
14.95849051871657
 10
188.4418622390564
 20
14.95849128473265
 97
        1
330
B0
 75
     1
 76
     2
 52
45.0
 41
0.1
 77
     0
 78
     1
 53
45.0
 43
0.0
 44
0.0
 45
-0.282842712474619
 46
0.0
 79
     0
 98
        1
 10
0.0
 20
0.0
  0
HATCH
  5
CE
330
48
100
AcDbEntity
  8
1
  6
Continuous
 62
     2
100
AcDbHatch
 10
0.0
 20
0.0
 30
0.0
210
0.0
220
0.0
230
1.0
  2
CUSTOM8
 70
     0
 71
     1
 91
        1
 92
        1
 93
        1
 72
     4
 94
        3
 73
     0
 74
     0
 95
       91
 96
       87
 40
0.0
 40
0.0
 40
0.0
 40
0.0
 40
0.0345987051695718
 40
0.1258134969461369
 40
0.2547723404888987
 40
0.4026032099154125
 40
0.5504340793416704
 40
0.679392922883608
 40
0.7706077146571035
 40
0.8052064287780925
 40
1.124852390615281
 40
1.427402236308871
 40
1.706356627453519
 40
1.955541417875196
 40
2.169485938566341
 40
2.344350786664782
 40
2.480568411561932
 40
2.590440557428954
 40
2.649189927151108
 40
2.749320643306344
 40
2.912632739880044
 40
3.147745656000245
 40
3.24482749638505
 40
3.338490056946643
 40
3.583815413207068
 40
3.761423943238413
 40
3.886956104362576
 40
3.985855451886736
 40
4.091766255337537
 40
4.250186473811757
 40
4.422734315084424
 40
4.628285684838535
 40
4.872093227758377
 40
5.152549652145488
 40
5.464967135837468
 40
5.803201477852385
 40
6.160362988813859
 40
6.193449448275914
 40
6.284170385501569
 40
6.419718138764439
 40
6.587285046385689
 40
6.774063446723603
 40
6.967245678113586
 40
7.154024078817572
 40
7.321590987025957
 40
7.457138740890316
 40
7.547859678556052
 40
7.580946138182612
 40
7.608533084714664
 40
7.669224367077644
 40
7.729915649429866
 40
7.757502595949917
 40
7.79027806255337
 40
7.880146277430868
 40
8.01441996318033
 40
8.180411842397831
 40
8.3654346376793
 40
8.556801071622601
 40
8.741823866830714
 40
8.907815745916224
 40
9.042089431507378
 40
9.131957646249504
 40
9.16473311279708
 40
9.415425063139999
 40
9.667986180958462
 40
9.6941698074626
 40
9.756607686047532
 40
9.831130315322339
 40
9.893568193899746
 40
9.919751820398563
 40
9.950967964690394
 40
9.996421631210506
 40
10.22087981037439
 40
10.44341866197527
 40
10.4784797078884
 40
10.5709133743874
 40
10.70159545461214
 40
10.85140174170345
 40
11.00120802880462
 40
11.13189010907368
 40
11.22432377582996
 40
11.25938480938942
 40
11.2869717559613
 40
11.34766303835905
 40
11.40835432042056
 40
11.4359412589209
 40
11.4359412589209
 40
11.4359412589209
 40
11.4359412589209
 10
190.0818114333289
 20
15.55242795125077
 10
190.0702785844941
 20
15.55242790287915
 10
190.0283409444998
 20
15.55242773704164
 10
189.9434129719026
 20
15.55243125800909
 10
189.8207688553128
 20
15.55240926435879
 10
189.6791206916993
 20
15.55250801177054
 10
189.537975369849
 20
15.55214686232421
 10
189.4141351317905
 20
15.55321883609089
 10
189.3317217825381
 20
15.55092249091268
 10
189.1727791229692
 20
15.5604856937342
 10
189.3503402353377
 20
15.19785394311371
 10
189.3379739205452
 20
14.95243127723114
 10
189.4064519473865
 20
14.66862501324836
 10
189.469302432097
 20
14.43250999939035
 10
189.5452253431729
 20
14.2332674039613
 10
189.6303189577016
 20
14.07745347451373
 10
189.7244607592936
 20
13.97657857781392
 10
189.8282648207727
 20
13.92465852638964
 10
189.9125872030774
 20
13.97606484379618
 10
189.9351322179453
 20
14.09144544037515
 10
189.9745730975371
 20
14.2188514970238
 10
189.9202919734943
 20
14.53622328086758
 10
190.0451218072473
 20
14.38982180140902
 10
190.2019291513602
 20
14.35795300331171
 10
190.0947720007056
 20
14.12421357767628
 10
190.0808711209867
 20
13.95972776583656
 10
190.0234709467226
 20
13.83130869122483
 10
189.9335020145009
 20
13.76018802352828
 10
189.8095274657878
 20
13.74432324142253
 10
189.6634273196861
 20
13.77993797554172
 10
189.5243894320284
 20
13.90000570500277
 10
189.4102003962144
 20
14.0743568255032
 10
189.3146141301486
 20
14.2994660311124
 10
189.2318652572627
 20
14.56388246006443
 10
189.1807179256411
 20
14.88187933098543
 10
189.0770189207338
 20
15.15543728488912
 10
189.204284120852
 20
15.56005818612866
 10
189.0357890623018
 20
15.55112367849678
 10
188.9511995787077
 20
15.55315961418363
 10
188.8189876387627
 20
15.55213937388406
 10
188.6560505094104
 20
15.55253230318429
 10
188.4733759170532
 20
15.55235696313368
 10
188.2847057373383
 20
15.55260105307468
 10
188.1014469020189
 20
15.55185657906236
 10
187.9404746832718
 20
15.55416360522425
 10
187.8029808335276
 20
15.54799804883662
 10
187.728959037231
 20
15.56032838458211
 10
187.6613215186856
 20
15.54329323723556
 10
187.6732373719269
 20
15.59524438447528
 10
187.6655677285694
 20
15.64071424966529
 10
187.6732592225115
 20
15.68614453703705
 10
187.6613141797762
 20
15.7380239598457
 10
187.7283588305866
 20
15.72119143490264
 10
187.8017375665676
 20
15.73335409092671
 10
187.9379128305272
 20
15.72727231074958
 10
188.0973811801512
 20
15.72954834315058
 10
188.2789173085836
 20
15.72881233998962
 10
188.4658034862179
 20
15.72905954196134
 10
188.6468012316836
 20
15.72886400799253
 10
188.8080802578878
 20
15.72932234714839
 10
188.9393882124887
 20
15.72812673751206
 10
189.0225051322596
 20
15.73051347319743
 10
189.1556236547814
 20
15.72230605725463
 10
189.0645893502659
 20
15.97752868952655
 10
188.978963307442
 20
16.24164358328246
 10
189.0990589003455
 20
16.22904442969165
 10
189.1514264948544
 20
16.22694235763075
 10
189.2214497569715
 20
16.22535399889657
 10
189.2671922337818
 20
16.21602567538113
 10
189.3220812646933
 20
16.22545966915426
 10
189.2963574785681
 20
16.17733028655173
 10
189.1825397571453
 20
16.18266829744167
 10
189.3159346621135
 20
15.95449174576776
 10
189.194365873547
 20
15.72156856595923
 10
189.3223188769413
 20
15.73087258884438
 10
189.4049048406461
 20
15.7280100175468
 10
189.5307214850824
 20
15.72923437412302
 10
189.6741469838057
 20
15.72932431888965
 10
189.8157420951728
 20
15.72746163183853
 10
189.9459127249967
 20
15.73333075937163
 10
190.0193452286191
 20
15.72070340823203
 10
190.0891112922096
 20
15.73877563110412
 10
190.0775772605396
 20
15.68612850546326
 10
190.0833184346682
 20
15.64221317686547
 10
190.0816615770911
 20
15.59089982676549
 10
190.0817757561669
 20
15.56158792021634
 10
190.0818114333289
 20
15.55242795125077
 97
        1
330
B1
 75
     1
 76
     2
 52
45.0
 41
0.1
 77
     0
 78
     1
 53
45.0
 43
0.0
 44
0.0
 45
-0.282842712474619
 46
0.0
 79
     0
 98
        1
 10
0.0
 20
0.0
  0
HATCH
  5
CF
330
48
100
AcDbEntity
  8
1
  6
Continuous
 62
     2
100
AcDbHatch
 10
0.0
 20
0.0
 30
0.0
210
0.0
220
0.0
230
1.0
  2
CUSTOM9
 70
     0
 71
     1
 91
        1
 92
        1
 93
        1
 72
     4
 94
        3
 73
     0
 74
     0
 95
      118
 96
      114
 40
0.0
 40
0.0
 40
0.0
 40
0.0
 40
0.1054708162973078
 40
0.2466098270051592
 40
0.396591287459078
 40
0.5285525069753536
 40
0.6156245055641603
 40
0.6431434105796747
 40
0.7036850037985283
 40
0.7642265984503344
 40
0.7917455052353648
 40
0.9287404319989094
 40
1.106572819087948
 40
1.287544879680905
 40
1.317578308030422
 40
1.399928030857061
 40
1.522968204799835
 40
1.675072986590456
 40
1.844616533180533
 40
2.019973001638597
 40
2.18951654887991
 40
2.341621331585249
 40
2.464661506320385
 40
2.547011229646948
 40
2.577044658167913
 40
2.603797890892983
 40
2.662655002908699
 40
2.721512114949539
 40
2.74826534770269
 40
2.774215307344767
 40
2.845959313407097
 40
2.954338556588294
 40
3.090194227585471
 40
3.244367517100434
 40
3.407699615844193
 40
3.57103171453934
 40
3.725205003920016
 40
3.861060674729514
 40
3.969439917716207
 40
4.04118392362888
 40
4.067133883212872
 40
4.31188674601208
 40
4.547897258335444
 40
4.764747083043897
 40
4.952749679951684
 40
5.045772974195782
 40
5.1378620196449
 40
5.330543169792951
 40
5.553448265243944
 40
5.795083855888121
 40
6.043293412177175
 40
6.285761695541115
 40
6.313902908752599
 40
6.384255941793189
 40
6.475714884766777
 40
6.56717382775884
 40
6.637526860839618
 40
6.665668074073981
 40
6.692018920327953
 40
6.749990782071023
 40
6.807962643790392
 40
6.834313490017866
 40
6.856393084245145
 40
6.913335195649768
 40
6.991194817302461
 40
7.07602694228375
 40
7.153886563725269
 40
7.210828674844823
 40
7.232908268931187
 40
7.258199334923708
 40
7.324875781592358
 40
7.419142481925014
 40
7.527204308841954
 40
7.635266135230532
 40
7.729532834168518
 40
7.796209279292841
 40
7.821500344594787
 40
7.844652988850857
 40
7.899863140541579
 40
7.96575912805366
 40
8.020969279770917
 40
8.044121924046355
 40
8.06935661016037
 40
8.10913439544106
 40
8.132238100190772
 40
8.193147867786138
 40
8.27926167887631
 40
8.377977512673525
 40
8.476693347146307
 40
8.562807160411362
 40
8.623716930826149
 40
8.6468206368531
 40
8.671988793773913
 40
8.734909185827767
 40
8.816705695188482
 40
8.898502204815024
 40
8.961422597377457
 40
8.98659075455057
 40
9.012941600732724
 40
9.070913462379808
 40
9.128885324081304
 40
9.155236170324624
 40
9.180404327928667
 40
9.243324721947712
 40
9.325121234211448
 40
9.406917746637102
 40
9.469838141977558
 40
9.495006288270304
 40
9.517811184378445
 40
9.572192090486443
 40
9.63709833328067
 40
9.691479239514866
 40
9.714284125642905
 40
9.714284125642905
 40
9.714284125642905
 40
9.714284125642905
 10
185.2874469028654
 20
15.2688916318772
 10
185.3090990569039
 20
15.24111869242812
 10
185.3597257109474
 20
15.17618054561234
 10
185.4349383202592
 20
15.06891060312899
 10
185.5248482274346
 20
14.95377438266624
 10
185.5709169676674
 20
14.8535704574832
 10
185.6655825294654
 20
14.78434006814944
 10
185.6204439320413
 20
14.73771639678273
 10
185.5947047785791
 20
14.6966030886604
 10
185.5645196708013
 20
14.66065971727937
 10
185.5193684730563
 20
14.58579782596092
 10
185.4710504458562
 20
14.807825242536
 10
185.3968539713073
 20
14.84510677337709
 10
185.2836047324608
 20
15.11610202130599
 10
185.288513357817
 20
15.00095328446228
 10
185.2868486556307
 20
14.92836675781628
 10
185.2876830076715
 20
14.80625588483986
 10
185.2873609540265
 20
14.6591380081046
 10
185.2875076912457
 20
14.49307063956557
 10
185.2872950092723
 20
14.32187554608602
 10
185.2879497252034
 20
14.15552828635498
 10
185.285919246114
 20
14.00935173055693
 10
185.2913460399931
 20
13.8847104747461
 10
185.2804930868709
 20
13.81718656540626
 10
185.2956739155556
 20
13.75549061417022
 10
185.2457895108134
 20
13.76727503897002
 10
185.2017150342523
 20
13.75943822779969
 10
185.1582371630201
 20
13.76760441372703
 10
185.1092346786489
 20
13.75538056738469
 10
185.1218731234826
 20
13.80960667249313
 10
185.113018296845
 20
13.86936918907557
 10
185.1175058770314
 20
13.9792202904437
 10
185.1157960135992
 20
14.11029975405678
 10
185.1163550915987
 20
14.26198011444328
 10
185.1161928768694
 20
14.42211074929953
 10
185.1162269924675
 20
14.58236865674565
 10
185.1162514960128
 20
14.73370247520439
 10
185.1161453543226
 20
14.865821563386
 10
185.1164299141932
 20
14.97294802533192
 10
185.1158675547568
 20
15.03808619579473
 10
185.118076508369
 20
15.16618957858675
 10
185.0319435998601
 20
14.79097610391577
 10
184.95551408185
 20
14.63918193123394
 10
184.8660040767833
 20
14.47766206446309
 10
184.7640413217326
 20
14.2047184882017
 10
184.7187976491039
 20
14.36717346596514
 10
184.610235594167
 20
14.45605432058117
 10
184.7995791751753
 20
14.60549794961409
 10
184.85653405457
 20
14.79749136974927
 10
184.9717520993352
 20
15.02899622906755
 10
184.9940151630133
 20
15.21797259759064
 10
185.1771905152139
 20
15.4945408932593
 10
185.0538033597552
 20
15.48698978832094
 10
184.9925684166834
 20
15.48856772366119
 10
184.9081999617064
 20
15.48882592573672
 10
184.8204235085966
 20
15.48544845751206
 10
184.7656768696122
 20
15.4939481498202
 10
184.7104703026024
 20
15.48048561049788
 10
184.7222823035536
 20
15.52931442126763
 10
184.7142496151793
 20
15.57269004896708
 10
184.7228186104678
 20
15.61509438309573
 10
184.7102943409157
 20
15.66267796552118
 10
184.7555101538735
 20
15.65267212995109
 10
184.8014815562724
 20
15.65894105174062
 10
184.877722204771
 20
15.65593561405872
 10
184.9561296131994
 20
15.65770448278541
 10
185.0323992648933
 20
15.65464793981659
 10
185.0783009459475
 20
15.66103971376177
 10
185.1231733965401
 20
15.65093822978896
 10
185.1105552275634
 20
15.70157201581898
 10
185.1191936582707
 20
15.7550126188207
 10
185.1152361595444
 20
15.8486325513168
 10
185.1162325068335
 20
15.95112606688924
 10
185.1171927413074
 20
16.05353270248163
 10
185.1133211458006
 20
16.14735929609321
 10
185.1217789814365
 20
16.20036542840353
 10
185.1093075932836
 20
16.25211435651188
 10
185.1542106389851
 20
16.23850747226758
 10
185.1955083836772
 20
16.24100480320585
 10
185.259534428105
 20
16.23648060574488
 10
185.2986111148786
 20
16.22781003043307
 10
185.3476543498741
 20
16.23515102070688
 10
185.3225080030591
 20
16.19602896051757
 10
185.2815901333724
 20
16.20563842455805
 10
185.2910109616604
 20
16.15540148169778
 10
185.2855647318747
 20
16.1038594563949
 10
185.2881699601805
 20
16.0195970758452
 10
185.2870102202155
 20
15.92559135583408
 10
185.2883591064232
 20
15.83196865395525
 10
185.2849970101508
 20
15.74679517552223
 10
185.292095991777
 20
15.69716856072044
 10
185.2812569154547
 20
15.64993694969989
 10
185.3304010225246
 20
15.66201674936851
 10
185.3794877630147
 20
15.65447393363011
 10
185.4573714280641
 20
15.65686070361432
 10
185.5350365172896
 20
15.65899381905415
 10
185.5845393931354
 20
15.65193391922455
 10
185.6344594750639
 20
15.66360151936214
 10
185.6223198516881
 20
15.61540235371393
 10
185.6305838229143
 20
15.57249219801236
 10
185.6223198650783
 20
15.52958201851384
 10
185.6344594549855
 20
15.48138288754864
 10
185.5845395158746
 20
15.4930503447151
 10
185.5350350651203
 20
15.48599202435046
 10
185.4573784382973
 20
15.48811665228604
 10
185.379464386576
 20
15.4905338936576
 10
185.3304500352718
 20
15.48291848194486
 10
185.2813246108944
 20
15.49507952557591
 10
185.2915559988572
 20
15.45073013424159
 10
185.2856677678054
 20
15.40925436202911
 10
185.287878830557
 20
15.34915394315303
 10
185.2874109346148
 20
15.3022578276289
 10
185.2874386992914
 20
15.27650146418197
 10
185.2874469028654
 20
15.2688916318772
 97
        1
330
B2
 75
     1
 76
     2
 52
45.0
 41
0.1
 77
     0
 78
     1
 53
45.0
 43
0.0
 44
0.0
 45
-0.282842712474619
 46
0.0
 79
     0
 98
        1
 10
0.0
 20
0.0
  0
HATCH
  5
D0
330
48
100
AcDbEntity
  8
1
  6
Continuous
 62
     2
100
AcDbHatch
 10
0.0
 20
0.0
 30
0.0
210
0.0
220
0.0
230
1.0
  2
CUSTOM10
 70
     0
 71
     1
 91
        1
 92
        1
 93
        1
 72
     4
 94
        3
 73
     0
 74
     0
 95
       47
 96
       43
 40
0.0
 40
0.0
 40
0.0
 40
0.0
 40
0.2207912809957249
 40
0.4459404186303046
 40
0.4902387190458136
 40
0.532747389272193
 40
0.5742260451224126
 40
0.6155432630559703
 40
0.656816406631519
 40
0.6982511618779551
 40
0.7407663929315773
 40
0.7851366743173271
 40
1.010288833836121
 40
1.231080507001977
 40
1.451765243652196
 40
1.676638205891483
 40
1.720461045359452
 40
1.830018144043317
 40
1.972442372352948
 40
2.114866600677317
 40
2.224423699394942
 40
2.268246538883183
 40
2.493628801207011
 40
2.715602830286415
 40
2.934211330706166
 40
3.149502369855154
 40
3.231387784850714
 40
3.31823187385375
 40
3.405143198197652
 40
3.486970301720061
 40
3.702258172493497
 40
3.920866283533725
 40
4.14283932593152
 40
4.36822190386498
 40
4.41204474335946
 40
4.521601842095476
 40
4.664026070451956
 40
4.806450298808664
 40
4.916007397546356
 40
4.95983023704268
 40
5.184703515846713
 40
5.405387250767081
 40
5.405387250767081
 40
5.405387250767081
 40
5.405387250767081
 10
182.6507427258644
 20
15.73406440953871
 10
182.6568139420002
 20
15.79758482501209
 10
182.6690762107241
 20
15.92587938689623
 10
182.5604706879415
 20
16.20166220174078
 10
182.6761985896604
 20
16.17188133432051
 10
182.7171842509016
 20
16.16765556262823
 10
182.7591205797518
 20
16.16310446389605
 10
182.8004196625711
 20
16.16201982929485
 10
182.8417032115555
 20
16.16310338195226
 10
182.8836148270647
 20
16.16766112711345
 10
182.9245983549019
 20
16.17187430209728
 10
183.0404922843487
 20
16.20177611317534
 10
182.9295652727457
 20
15.92339806609887
 10
182.9574856365267
 20
15.74283140824952
 10
182.940426734697
 20
15.50961042346472
 10
182.9414637282104
 20
15.34906622543145
 10
182.9414099399405
 20
15.22284817558722
 10
182.9414277372482
 20
15.12428963336241
 10
182.9414188581081
 20
14.99280702442963
 10
182.9414263928034
 20
14.86132844968649
 10
182.9414129405129
 20
14.7627622269409
 10
182.9414531717493
 20
14.63639735624152
 10
182.9406746403818
 20
14.4748206882287
 10
182.9565958319268
 20
14.24361821892914
 10
182.9333468885408
 20
14.05874351972003
 10
183.0360183444365
 20
13.78935602770056
 10
182.8820238362836
 20
13.82660112685818
 10
182.8004129802832
 20
13.82137994680535
 10
182.7188192292583
 20
13.82660620378351
 10
182.5648513666844
 20
13.78937069885386
 10
182.6674183421916
 20
14.0587512986288
 10
182.6442045316087
 20
14.24361585325415
 10
182.6600444655139
 20
14.47482218565638
 10
182.6593296313426
 20
14.63639712308503
 10
182.6593664569907
 20
14.76276231210521
 10
182.659354900027
 20
14.86132756635981
 10
182.6593575019214
 20
14.9928112741722
 10
182.6593648531779
 20
15.124275480312
 10
182.6593442541351
 20
15.22287786275326
 10
182.6594082192028
 20
15.34896149354427
 10
182.6581733947589
 20
15.51210091383771
 10
182.6532040396744
 20
15.66054183777549
 10
182.6507427258644
 20
15.73406440953871
 97
        1
330
B3
 75
     1
 76
     2
 52
45.0
 41
0.1
 77
     0
 78
     1
 53
45.0
 43
0.0
 44
0.0
 45
-0.282842712474619
 46
0.0
 79
     0
 98
        1
 10
0.0
 20
0.0
  0
HATCH
  5
D1
330
48
100
AcDbEntity
  8
1
  6
Continuous
 62
     2
100
AcDbHatch
 10
0.0
 20
0.0
 30
0.0
210
0.0
220
0.0
230
1.0
  2
CUSTOM11
 70
     0
 71
     1
 91
        1
 92
        1
 93
        1
 72
     4
 94
        3
 73
     0
 74
     0
 95
      110
 96
      106
 40
0.0
 40
0.0
 40
0.0
 40
0.0
 40
0.2203406257277755
 40
0.4407808782838091
 40
0.5952494494615352
 40
0.7488431659393071
 40
0.9023581831309341
 40
1.056801968670404
 40
1.210736449099961
 40
1.363041386539868
 40
1.515315729683126
 40
1.669377239148077
 40
1.721611652756564
 40
1.773199502942947
 40
1.824933793209993
 40
1.877110426487969
 40
1.982682281206704
 40
2.078781667087427
 40
2.17280964082229
 40
2.271937807378916
 40
2.378349933379281
 40
2.494131557736583
 40
2.626681683943631
 40
2.783145050796059
 40
2.89070123294091
 40
2.993130312454801
 40
3.099869730691792
 40
3.220237816691288
 40
3.352695482737582
 40
3.481732806389827
 40
3.593499473690357
 40
3.674323013331863
 40
3.817951711952785
 40
3.946167120793725
 40
4.061405053453524
 40
4.166480796003136
 40
4.262478775059202
 40
4.350736673551244
 40
4.433071991254101
 40
4.511216293814533
 40
4.564262454117824
 40
4.61847441557144
 40
4.670128488754044
 40
4.722296879126226
 40
4.819540945314095
 40
4.931194984127952
 40
5.049996040257537
 40
5.168643755414941
 40
5.283970811762266
 40
5.392260784910092
 40
5.486512254876138
 40
5.559178233949566
 40
5.591425852853233
 40
5.62621596963762
 40
5.667155838674154
 40
5.717449290213962
 40
5.738402360944576
 40
5.784499116553546
 40
5.830595872164519
 40
5.851548942897377
 40
5.873019280661492
 40
5.924217778408034
 40
5.985325662817413
 40
6.03652416056743
 40
6.057994498333958
 40
6.236847789607207
 40
6.381409928945391
 40
6.493190424178414
 40
6.574067534230224
 40
6.691018086205318
 40
6.814881554220321
 40
6.944307823240245
 40
7.071266716065812
 40
7.193488604461657
 40
7.309042773127884
 40
7.414007203170482
 40
7.505140441886265
 40
7.531150360599404
 40
7.559221645321989
 40
7.587202218920649
 40
7.612569159498866
 40
7.662550809480746
 40
7.702878875763882
 40
7.857328205230611
 40
8.010799568088228
 40
8.165256399657263
 40
8.32223269871363
 40
8.479564855016317
 40
8.63521623029052
 40
8.790882550925438
 40
8.948305154947004
 40
9.168271839032695
 40
9.387358980986976
 40
9.60804796103321
 40
9.8329142347924
 40
9.858338694962736
 40
9.925366817229744
 40
10.02013071422732
 40
10.12876249858971
 40
10.23739428295222
 40
10.33215817995163
 40
10.39918630222367
 40
10.42461076239756
 40
10.64992019336917
 40
10.87188524531161
 40
10.87188524531161
 40
10.87188524531161
 40
10.87188524531161
 10
179.9057788376618
 20
15.7392326039819
 10
179.9092864933542
 20
15.80616462073804
 10
179.9163033987662
 20
15.94005891915859
 10
179.8198027599072
 20
16.2254855497147
 10
180.0510134726109
 20
16.16284386190284
 10
180.1919290057156
 20
16.17001554055992
 10
180.3490417757588
 20
16.16235883078244
 10
180.5025913427288
 20
16.1625275228304
 10
180.6545104935081
 20
16.16182040535432
 10
180.8142214813231
 20
16.17210158351639
 10
180.9408972601118
 20
16.15496511080752
 10
181.137082112208
 20
16.22727260107145
 10
181.1034395279078
 20
16.12640699080117
 10
181.1052011317184
 20
16.0761925394767
 10
181.1027342073458
 20
16.02712335586466
 10
181.1347076966011
 20
15.94063490847
 10
181.0010399903257
 20
15.98997438608335
 10
180.9172208688057
 20
15.98430634314169
 10
180.8173861139324
 20
15.99465516706297
 10
180.7186576720146
 20
16.00086450411087
 10
180.612153277111
 20
16.00697763816778
 10
180.4910511698059
 20
16.01588883484585
 10
180.3703381502453
 20
16.00521605912385
 10
180.1812553843437
 20
16.06468503080367
 10
180.212902850531
 20
15.9055832007754
 10
180.1995563316835
 20
15.80839128339904
 10
180.1974958426449
 20
15.69634065110104
 10
180.1958188044671
 20
15.57699685629351
 10
180.1973336794232
 20
15.45032592155109
 10
180.1956582478669
 20
15.32301588016117
 10
180.2058844271658
 20
15.22451566404464
 10
180.1779006596582
 20
15.08388702625632
 10
180.3508029999305
 20
15.13989551134095
 10
180.4645020202771
 20
15.12719951478498
 10
180.5840151672239
 20
15.13448377051255
 10
180.6888491425072
 20
15.13878017056755
 10
180.7843084898612
 20
15.14330568258977
 10
180.8763823507033
 20
15.151492011462
 10
180.947655178244
 20
15.14643850638111
 10
181.0544931705683
 20
15.18536425031668
 10
181.0226603598037
 20
15.10517122005878
 10
181.0266164503929
 20
15.05562936846034
 10
181.0234502392014
 20
15.0055747803982
 10
181.0550791490583
 20
14.92128847612021
 10
180.9210133677691
 20
14.97425365495158
 10
180.8292322793199
 20
14.96540080890441
 10
180.7079729189603
 20
14.97570049965155
 10
180.5914113119771
 20
14.97748911767502
 10
180.4783375745879
 20
14.97787017109694
 10
180.3679246308471
 20
14.9841544947218
 10
180.289812406784
 20
14.97189133255364
 10
180.1913625833644
 20
15.00453887616127
 10
180.2012355173561
 20
14.94769748054206
 10
180.1973923244401
 20
14.91392130557984
 10
180.1966789884268
 20
14.87119604709411
 10
180.1963369642975
 20
14.83401607262153
 10
180.1963834255345
 20
14.79487237370771
 10
180.1963649429927
 20
14.75716849497686
 10
180.1963703431806
 20
14.71944955232402
 10
180.1963697214201
 20
14.6899432474515
 10
180.1963698151545
 20
14.65873577699301
 10
180.1963704287921
 20
14.61414424908085
 10
180.1963671499336
 20
14.5596395650885
 10
180.1963759623481
 20
14.51505540201448
 10
180.1963359653417
 20
14.4311780858574
 10
180.1976024270255
 20
14.31737520677678
 10
180.1950274117841
 20
14.16830395933709
 10
180.2065009381719
 20
14.06597203813905
 10
180.1823506222263
 20
13.93338903885834
 10
180.3332993946477
 20
13.97895732272022
 10
180.4428436671556
 20
13.96427012162349
 10
180.5733970473921
 20
13.96920435125063
 10
180.6990312209514
 20
13.97257705323362
 10
180.81887306256
 20
13.97711497498772
 10
180.9391362611427
 20
13.99048536182005
 10
181.0222761663515
 20
13.98068712782596
 10
181.1456080421074
 20
14.04126214623322
 10
181.1244269203957
 20
13.9853246013402
 10
181.1235950270118
 20
13.95939249372346
 10
181.1218963707557
 20
13.93197256190939
 10
181.1217974888829
 20
13.89738195206385
 10
181.1203659301329
 20
13.86050408220767
 10
181.153280419219
 20
13.7684684102181
 10
180.9551306988108
 20
13.84132015974832
 10
180.8300548294891
 20
13.81825726508606
 10
180.6673071295157
 20
13.82454021985787
 10
180.5129366450001
 20
13.82260943909927
 10
180.3566670436944
 20
13.82393762599268
 10
180.1970544465282
 20
13.82059872487863
 10
180.0540326342236
 20
13.83265795728241
 10
179.8197144881628
 20
13.76952001976918
 10
179.9173810751197
 20
14.05620527466318
 10
179.9006868780059
 20
14.24988308142661
 10
179.9146296709685
 20
14.47848242880295
 10
179.9142987846631
 20
14.63384593955046
 10
179.9143078119264
 20
14.73966336444125
 10
179.9143055876316
 20
14.80205784124213
 10
179.9143065551888
 20
14.89220425248325
 10
179.9143065473262
 20
14.99621167157437
 10
179.9143053861102
 20
15.10022131375295
 10
179.9143090971502
 20
15.19036243688766
 10
179.9143011051052
 20
15.25276803097214
 10
179.9143334275017
 20
15.35868835961118
 10
179.9131440788319
 20
15.5162671654474
 10
179.9082216489255
 20
15.66528219822065
 10
179.9057788376618
 20
15.7392326039819
 97
        1
330
B4
 75
     1
 76
     2
 52
45.0
 41
0.1
 77
     0
 78
     1
 53
45.0
 43
0.0
 44
0.0
 45
-0.282842712474619
 46
0.0
 79
     0
 98
        1
 10
0.0
 20
0.0
  0
HATCH
  5
D2
330
48
100
AcDbEntity
  8
1
  6
Continuous
 62
     2
100
AcDbHatch
 10
0.0
 20
0.0
 30
0.0
210
0.0
220
0.0
230
1.0
  2
CUSTOM12
 70
     0
 71
     1
 91
        1
 92
        1
 93
        1
 72
     4
 94
        3
 73
     0
 74
     0
 95
       95
 96
       91
 40
0.0
 40
0.0
 40
0.0
 40
0.0
 40
0.6550406656912413
 40
1.308087289032009
 40
1.420803739835884
 40
1.566130759770878
 40
1.757067341888544
 40
2.00651354502654
 40
2.087328263121633
 40
2.185328872295702
 40
2.294612454748444
 40
2.408936380534897
 40
2.526802767798642
 40
2.64636052461569
 40
2.76253572397166
 40
2.87005734287023
 40
2.966883448431729
 40
3.050803243518375
 40
3.115818222436689
 40
3.156030057150327
 40
3.213914225080258
 40
3.276689026450744
 40
3.342960320981407
 40
3.404230667150657
 40
3.453822809493466
 40
3.532499827188522
 40
3.634775188507259
 40
3.754909333008267
 40
3.889736761660763
 40
4.035769602175322
 40
4.187256681197708
 40
4.338733685676054
 40
4.488478734676216
 40
4.634708317831672
 40
4.771493189921372
 40
4.892686571561309
 40
5.19977552894455
 40
5.460353566929744
 40
5.66760314234561
 40
5.814722905404583
 40
5.828990806219881
 40
5.855488336304578
 40
5.86975623711891
 40
6.189796507762871
 40
6.531890469873097
 40
6.883053637017086
 40
7.230512024911639
 40
7.566966656764666
 40
7.885203559707573
 40
8.172887439719375
 40
8.41801159406285
 40
8.443926721190772
 40
8.51076047061326
 40
8.60214539379577
 40
8.701714041647211
 40
8.79309896507544
 40
8.859932715058013
 40
8.885847842603663
 40
9.242301256612881
 40
9.589275455016832
 40
9.92180854316424
 40
10.23479624298474
 40
10.29968150889173
 40
10.35323493887773
 40
10.40154625355149
 40
10.46482922477822
 40
10.55973900668402
 40
10.69239545985613
 40
10.84920353475668
 40
11.01626328594776
 40
11.18672024367441
 40
11.35372582577209
 40
11.50257442292424
 40
11.61866495023288
 40
11.71329869152872
 40
11.82511050573905
 40
11.94464880845712
 40
12.06929242642503
 40
12.19707290435173
 40
12.32562632860526
 40
12.45034565331277
 40
12.56646595170325
 40
12.67099007414632
 40
12.76077625936779
 40
12.82703233506691
 40
12.87429132785989
 40
12.89831990323328
 40
12.92234847860017
 40
13.53984767410318
 40
14.18294284359354
 40
14.18294284359354
 40
14.18294284359354
 40
14.18294284359354
 10
177.3067935648022
 20
14.70898038201725
 10
177.1752019758551
 20
14.82265058603231
 10
176.9124193802727
 20
15.04964496316149
 10
176.3997393441022
 20
15.89214462956288
 10
176.4106654595361
 20
15.5342337757702
 10
176.4041226527993
 20
15.39267392272133
 10
176.4028026631772
 20
15.19421305299281
 10
176.401811760254
 20
15.02150296045983
 10
176.4024101751973
 20
14.8786537325758
 10
176.4038994301883
 20
14.78265005413358
 10
176.4055683588472
 20
14.67545503263142
 10
176.407193495462
 20
14.56164211517582
 10
176.4092429501685
 20
14.44441572604589
 10
176.4123165501927
 20
14.3265641123297
 10
176.4156339697044
 20
14.21228087320621
 10
176.4193605340279
 20
14.10521401867276
 10
176.4217338161426
 20
14.01007408766923
 10
176.4278718888356
 20
13.92558557205694
 10
176.4239784495947
 20
13.86923087298142
 10
176.4455230443077
 20
13.79825022472354
 10
176.3680940058617
 20
13.82902677604485
 10
176.3116353240191
 20
13.82011242517615
 10
176.2540495896806
 20
13.82896218398274
 10
176.1690163478472
 20
13.79738225225944
 10
176.2009714146382
 20
13.8809515599219
 10
176.1990705282539
 20
13.94882608968309
 10
176.21079600473
 20
14.05233256764418
 10
176.2164241053
 20
14.17002125616696
 10
176.2237902178941
 20
14.30388609164423
 10
176.232075970161
 20
14.44764152872632
 10
176.2398851897427
 20
14.59714022843444
 10
176.2457571222657
 20
14.74792549402078
 10
176.250366781797
 20
14.89699943878437
 10
176.254263211754
 20
15.04122913163022
 10
176.2570715126564
 20
15.17583905213016
 10
176.2576698755024
 20
15.36469614347355
 10
176.261602386715
 20
15.58975494313154
 10
176.2442175378497
 20
15.86367091125708
 10
176.2850417342584
 20
16.02787112098597
 10
176.1995153256001
 20
16.22749661465095
 10
176.2660558907688
 20
16.22385458403977
 10
176.283872427323
 20
16.22413447160853
 10
176.4056801797504
 20
16.22632927398612
 10
176.508077033546
 20
15.94675118721509
 10
176.7580021509356
 20
15.74563008536005
 10
176.987003533111
 20
15.47792614987912
 10
177.224515121311
 20
15.22646413862384
 10
177.4486090740772
 20
14.98969974061351
 10
177.675071628301
 20
14.73218692583082
 10
177.8325687886515
 20
14.61649335056924
 10
178.0472129612674
 20
14.27997152538797
 10
178.0422645974618
 20
14.40464754091603
 10
178.0433931602546
 20
14.46327691935737
 10
178.0428877841517
 20
14.55043662371977
 10
178.0430475158113
 20
14.64416143182872
 10
178.0430054891318
 20
14.73018971297035
 10
178.0430202040373
 20
14.79153891945496
 10
178.0429706255983
 20
14.94135231520991
 10
178.0458811522811
 20
15.17989612510104
 10
178.0259521041162
 20
15.54486509868702
 10
178.0750433936246
 20
15.80799631993408
 10
177.9177951509182
 20
16.21928904947753
 10
178.0762112872422
 20
16.16398282551745
 10
178.1311680478629
 20
16.16199686500175
 10
178.182788776674
 20
16.16264778248253
 10
178.2713198965366
 20
16.20369527738245
 10
178.2204898303169
 20
16.05696326622986
 10
178.2313389930285
 20
15.95019971954433
 10
178.2166036994846
 20
15.79085705414113
 10
178.2099976446203
 20
15.62853061652875
 10
178.2014961399915
 20
15.45992521892395
 10
178.1943227202199
 20
15.29814814703541
 10
178.1889063215389
 20
15.15422331457932
 10
178.1871713967648
 20
15.03437493466925
 10
178.1875440672318
 20
14.92686101590514
 10
178.1873656126263
 20
14.81820024645586
 10
178.187701086314
 20
14.6995357016553
 10
178.1890040622186
 20
14.57555163512742
 10
178.1908887351574
 20
14.44858294171105
 10
178.1925004454853
 20
14.32153861551032
 10
178.1941403137428
 20
14.19854884492177
 10
178.1962570745752
 20
14.08300931383759
 10
178.1963848422364
 20
13.98090903955837
 10
178.2006514396554
 20
13.89009848838157
 10
178.1908440085288
 20
13.83213621208787
 10
178.211847477169
 20
13.7651713013203
 10
178.1725639739896
 20
13.77291153966689
 10
177.9595307117751
 20
13.75755254145195
 10
177.7636297943183
 20
14.31403058094463
 10
177.4611197631544
 20
14.57556035348509
 10
177.3067935648022
 20
14.70898038201725
 97
        1
330
B5
 75
     1
 76
     2
 52
45.0
 41
0.1
 77
     0
 78
     1
 53
45.0
 43
0.0
 44
0.0
 45
-0.282842712474619
 46
0.0
 79
     0
 98
        1
 10
0.0
 20
0.0
  0
HATCH
  5
D3
330
48
100
AcDbEntity
  8
1
  6
Continuous
 62
     2
100
AcDbHatch
 10
0.0
 20
0.0
 30
0.0
210
0.0
220
0.0
230
1.0
  2
CUSTOM13
 70
     0
 71
     1
 91
        2
 92
        1
 93
        1
 72
     4
 94
        3
 73
     0
 74
     0
 95
       57
 96
       53
 40
0.0
 40
0.0
 40
0.0
 40
0.0
 40
0.047163208280896
 40
0.0914861054632163
 40
0.1357762519702967
 40
0.1826527001610694
 40
0.2295203288572034
 40
0.2737751972219635
 40
0.318131046154223
 40
0.3652607198398526
 40
0.4571007286314498
 40
0.5671851029165309
 40
0.6894623283868396
 40
0.8181758272545983
 40
0.9510087229273881
 40
1.085852229674091
 40
1.218126164475328
 40
1.343545131142386
 40
1.454537202956802
 40
1.567187607530811
 40
1.680710966642401
 40
1.794226869736794
 40
1.900009184247508
 40
2.004085860447788
 40
2.108162674451761
 40
2.214000150155305
 40
2.496038577352142
 40
2.762350745479281
 40
2.997275353279414
 40
3.185110082137762
 40
3.246407890063905
 40
3.312607550212522
 40
3.378877742711538
 40
3.440140399651478
 40
4.100501696006535
 40
4.75491308556359
 40
5.411331693423961
 40
6.077890432568736
 40
6.110575292671014
 40
6.143260152775794
 40
6.36798936339522
 40
6.610525374951609
 40
6.863389136467357
 40
7.1193800255477
 40
7.37603660509115
 40
7.631164770966393
 40
7.876722425456485
 40
8.104953735856053
 40
8.31291668592436
 40
8.497730294941361
 40
8.651018984313913
 40
8.764738853624648
 40
8.764738853624648
 40
8.764738853624648
 40
8.764738853624648
 10
174.7922649500513
 20
13.81626739612927
 10
174.7766616726931
 20
13.81826231079078
 10
174.7463947960303
 20
13.822132013603
 10
174.7010994202251
 20
13.82341984967269
 10
174.6559553129349
 20
13.82308683554051
 10
174.6099017123399
 20
13.82314658674225
 10
174.5640496172097
 20
13.82325813650002
 10
174.5183711648165
 20
13.82277833456591
 10
174.4750811541609
 20
13.82461109618723
 10
174.4039947951513
 20
13.80049556814654
 10
174.4057477261441
 20
13.9218469397725
 10
174.358619637057
 20
14.00726239751235
 10
174.3191478251761
 20
14.12486929345135
 10
174.2706635532646
 20
14.24232752540437
 10
174.2201017402523
 20
14.36405935761514
 10
174.1718634610475
 20
14.49075967862459
 10
174.1135232947594
 20
14.59933687784953
 10
174.0980892667262
 20
14.7562065713441
 10
173.9566586330635
 20
14.72373446548321
 10
173.8508397414904
 20
14.7351288868218
 10
173.7358569725222
 20
14.73392591514615
 10
173.6253142252141
 20
14.73506945347409
 10
173.5176583522783
 20
14.73418350037526
 10
173.4121322529244
 20
14.73416602390519
 10
173.3109192682012
 20
14.72714032472413
 10
173.1266804827754
 20
14.75135859859869
 10
173.1157393685411
 20
14.44741691121885
 10
173.008769163475
 20
14.22353177253396
 10
172.9098148604346
 20
14.03895314292498
 10
172.9225090524006
 20
13.79530204804207
 10
172.8050091716398
 20
13.82508046753197
 10
172.742205586831
 20
13.82258089509604
 10
172.67858720934
 20
13.82344075102806
 10
172.3946014194073
 20
13.78098039941944
 10
173.0251638499381
 20
14.50081952444783
 10
173.1087645289071
 20
15.01276539435727
 10
173.4929252789337
 20
15.53353743550045
 10
173.4777208288565
 20
16.23519626253214
 10
173.7239265722696
 20
16.22345633081256
 10
173.8256346157561
 20
16.23225004452772
 10
173.8249752035818
 20
15.9805965073035
 10
173.9428317155828
 20
15.79818020733958
 10
174.0315515260484
 20
15.55563740662861
 10
174.1322292485261
 20
15.32340030530134
 10
174.2311142712242
 20
15.08674644566906
 10
174.3299676990671
 20
14.854617391701
 10
174.4256166390925
 20
14.63122222788783
 10
174.5159904573273
 20
14.42272549049322
 10
174.5989944568189
 20
14.23308448529319
 10
174.6726088582798
 20
14.06663106068099
 10
174.7342815895545
 20
13.92917699626097
 10
174.7749458885604
 20
13.84999239430034
 10
174.7922649500513
 20
13.81626739612927
 97
        1
330
B7
 92
       16
 93
        1
 72
     4
 94
        3
 73
     0
 74
     0
 95
       25
 96
       21
 40
0.0
 40
0.0
 40
0.0
 40
0.0
 40
0.0911479969063684
 40
0.185811789620495
 40
0.2804128399734207
 40
0.3715889190712805
 40
0.4679080494217571
 40
0.5642683809228379
 40
0.6605683222644707
 40
0.7569653015809403
 40
0.8561348172521887
 40
1.092615965104196
 40
1.374867658141778
 40
1.61134881201147
 40
1.71051832842513
 40
1.809403163726437
 40
2.045205463293962
 40
2.326646917622011
 40
2.562449217190484
 40
2.661334043833792
 40
2.661334043833792
 40
2.661334043833792
 40
2.661334043833792
 10
173.26837005672
 20
14.88614538197292
 10
173.2987525917923
 20
14.88598079714554
 10
173.3606895889113
 20
14.88564528689922
 10
173.454135696033
 20
14.88269055452
 10
173.5475095236358
 20
14.87977752877151
 10
173.6417760753475
 20
14.87894201643416
 10
173.7354964790967
 20
14.87996644658047
 10
173.8352040303204
 20
14.87916977470973
 10
173.9188949546312
 20
14.88921410235219
 10
174.0637996315045
 20
14.86234617674167
 10
173.9396132444801
 20
15.03665530280048
 10
173.8965867286283
 20
15.19651711006092
 10
173.780892214221
 20
15.45518458550213
 10
173.7017565431258
 20
15.5923105286186
 10
173.6431576621816
 20
15.80937033134077
 10
173.586480393944
 20
15.59266134213426
 10
173.5052809900477
 20
15.45327012438239
 10
173.4063701281489
 20
15.20406969370192
 10
173.3253625094259
 20
15.01925830226075
 10
173.2813683325839
 20
14.91650446856117
 10
173.26837005672
 20
14.88614538197292
 97
        1
330
B6
 75
     1
 76
     2
 52
45.0
 41
0.1
 77
     0
 78
     1
 53
45.0
 43
0.0
 44
0.0
 45
-0.282842712474619
 46
0.0
 79
     0
 98
        1
 10
0.0
 20
0.0
  0
HATCH
  5
D4
330
48
100
AcDbEntity
  8
1
  6
Continuous
 62
     2
100
AcDbHatch
 10
0.0
 20
0.0
 30
0.0
210
0.0
220
0.0
230
1.0
  2
CUSTOM14
 70
     0
 71
     1
 91
        1
 92
        1
 93
        1
 72
     4
 94
        3
 73
     0
 74
     0
 95
       99
 96
       95
 40
0.0
 40
0.0
 40
0.0
 40
0.0
 40
0.079641717227231
 40
0.1621768542356057
 40
0.2486489160958189
 40
0.3404969668524627
 40
0.438191251116465
 40
0.5434463660244951
 40
0.6518115192847271
 40
0.7530190937886818
 40
0.8492196919724652
 40
0.9419290312998114
 40
1.034249663569965
 40
1.129078600620159
 40
1.226697027573224
 40
1.327220425421694
 40
1.470572134938017
 40
1.59548986337123
 40
1.719934125348409
 40
1.850576620127433
 40
1.989059629987345
 40
2.134139054227016
 40
2.280698007207278
 40
2.424529739039496
 40
2.565929576985866
 40
2.708239260773556
 40
2.861717887443694
 40
3.045168540347403
 40
3.18379830113864
 40
3.314813961455477
 40
3.442083470447338
 40
3.569912708373113
 40
3.702177512509468
 40
3.842307559659583
 40
3.992872223245958
 40
4.15675066221829
 40
4.310981861107653
 40
4.445859909322725
 40
4.572393936131665
 40
4.701656719782041
 40
4.768279086008528
 40
4.835960697898463
 40
4.912788918729392
 40
5.006285208481613
 40
5.026909478751661
 40
5.047533749021169
 40
5.101808031471239
 40
5.162325165538513
 40
5.226919745995807
 40
5.294231806596777
 40
5.364544852554882
 40
5.438319055467901
 40
5.517877651324238
 40
5.60764771486155
 40
5.700449642544396
 40
5.788251142364127
 40
5.872714706039759
 40
5.955167292575348
 40
6.037192395190376
 40
6.120669181469065
 40
6.206848616686317
 40
6.296680855416739
 40
6.442558392872563
 40
6.568190371608238
 40
6.692904567360342
 40
6.8242204465571
 40
6.963121850329385
 40
7.107843738851222
 40
7.253431663907283
 40
7.395187468036657
 40
7.53314075323769
 40
7.670550457175197
 40
7.816236511769237
 40
7.987691657359195
 40
8.142277421969228
 40
8.293662615414995
 40
8.442962460879281
 40
8.591598316185287
 40
8.743678992361787
 40
8.903725323699145
 40
9.076307008890437
 40
9.265578604680547
 40
9.459203795360693
 40
9.617619810273396
 40
9.753609671361806
 40
9.874873300004026
 40
9.954520184977724
 40
10.02416413719238
 40
10.09769764405438
 40
10.18909955924965
 40
10.20974586420135
 40
10.2303921826338
 40
10.30057101881268
 40
10.37632012987545
 40
10.37632012987545
 40
10.37632012987545
 40
10.37632012987545
 10
170.1465954835851
 20
14.13795663215994
 10
170.1632217851219
 20
14.11720608845313
 10
170.1970784206577
 20
14.07495111711899
 10
170.2599822541036
 20
14.02029811392071
 10
170.3332500940393
 20
13.97299025121053
 10
170.4175969238636
 20
13.93527231437933
 10
170.513224061546
 20
13.91040619731952
 10
170.6171853775346
 20
13.90309559345937
 10
170.7224020220405
 20
13.91142322794054
 10
170.8206626371333
 20
13.94149179651525
 10
170.9058986427547
 20
13.98848822971881
 10
170.9779220206103
 20
14.04952991250851
 10
171.0350917709095
 20
14.1241296957859
 10
171.0767868747439
 20
14.2100246466017
 10
171.1026952846293
 20
14.3048585043221
 10
171.1118037332654
 20
14.41854979038366
 10
171.0986864796487
 20
14.54332587770779
 10
171.0325330334414
 20
14.66014719171892
 10
170.9369370919569
 20
14.74512539577372
 10
170.8249681022369
 20
14.81416684459163
 10
170.6993659583269
 20
14.87204142045891
 10
170.5656691620856
 20
14.92373723284339
 10
170.431312281883
 20
14.97899092397181
 10
170.3051983986876
 20
15.0493977064165
 10
170.1926579987536
 20
15.1378554073125
 10
170.0969963064457
 20
15.24981067868474
 10
170.0334157151825
 20
15.39949910101381
 10
170.0200706505016
 20
15.55932794385142
 10
170.0320510987447
 20
15.71048405306845
 10
170.071229892884
 20
15.8380924459154
 10
170.135498775091
 20
15.9508087403085
 10
170.2238204999741
 20
16.04648609268679
 10
170.3338091207628
 20
16.12354214985755
 10
170.4632284401264
 20
16.18151396936278
 10
170.6111838967793
 20
16.21739177588823
 10
170.7682069455486
 20
16.22746719050562
 10
170.917494046643
 20
16.21863637762591
 10
171.0596253614171
 20
16.19074899340355
 10
171.1595922609625
 20
16.13413314701137
 10
171.3125074736185
 20
16.08674602105506
 10
171.2455131717168
 20
16.00197553001184
 10
171.2296479120269
 20
15.93438901873485
 10
171.1978750531297
 20
15.8692609279319
 10
171.2150202209571
 20
15.76723453256954
 10
171.1666427208231
 20
15.77493211681902
 10
171.1315789440766
 20
15.7680677172481
 10
171.1296697985717
 20
15.83263831158195
 10
171.0985692931989
 20
15.87825639621392
 10
171.0664551628456
 20
15.93561036628461
 10
171.0208038475168
 20
15.98540462692552
 10
170.9658508218386
 20
16.02994813718997
 10
170.9010841173007
 20
16.06763988836551
 10
170.8232377310596
 20
16.09283375791352
 10
170.7355160553352
 20
16.09931230998111
 10
170.6452903277806
 20
16.09235709285607
 10
170.5594594694064
 20
16.06909190460921
 10
170.4828343638596
 20
16.03131644107542
 10
170.41652656362
 20
15.98051641089578
 10
170.3622560536963
 20
15.91731143407209
 10
170.3224925345459
 20
15.84276455710364
 10
170.2976775510588
 20
15.75917313997764
 10
170.2892124262869
 20
15.65192948382285
 10
170.3019697987104
 20
15.5296545726756
 10
170.3681548409273
 20
15.4114972429121
 10
170.4640977399832
 20
15.32606325709529
 10
170.5757914963182
 20
15.25583362306718
 10
170.7010863668703
 20
15.19659162305304
 10
170.8349823941448
 20
15.14616708086135
 10
170.968993033315
 20
15.09322516984382
 10
171.0950885316915
 20
15.02750170625175
 10
171.2076216638416
 20
14.94480352537319
 10
171.3031370284233
 20
14.83996006310073
 10
171.3672706486963
 20
14.69937117251572
 10
171.3811103725279
 20
14.54065409451592
 10
171.367395471223
 20
14.38153155217875
 10
171.3244739153984
 20
14.23483828819208
 10
171.2545906329065
 20
14.10119796587145
 10
171.1574592213829
 20
13.98532387699289
 10
171.0347806023657
 20
13.89089981770089
 10
170.8874408413168
 20
13.82179270651981
 10
170.7177132497125
 20
13.77953210858853
 10
170.5317404979597
 20
13.76781736230409
 10
170.3528955926184
 20
13.77809486683436
 10
170.1881733753743
 20
13.81966573769156
 10
170.0834410841057
 20
13.88797642883941
 10
169.9350960790366
 20
13.93675219032104
 10
169.9980378194728
 20
14.0297659129084
 10
170.0072274430058
 20
14.10296536248283
 10
170.0303711301232
 20
14.16936294501345
 10
170.0034588335315
 20
14.26974809527583
 10
170.0521338956339
 20
14.26234033517378
 10
170.0916530580697
 20
14.26894063620895
 10
170.0996204944702
 20
14.19078703218935
 10
170.1305436967923
 20
14.15600927375857
 10
170.1465954835851
 20
14.13795663215994
 97
        1
330
B8
 75
     1
 76
     2
 52
45.0
 41
0.1
 77
     0
 78
     1
 53
45.0
 43
0.0
 44
0.0
 45
-0.282842712474619
 46
0.0
 79
     0
 98
        1
 10
0.0
 20
0.0
  0
ENDBLK
  5
4A
330
48
100
AcDbEntity
  8
0
100
AcDbBlockEnd
  0
BLOCK
  5
4D
330
4B
100
AcDbEntity
  8
0
100
AcDbBlockBegin
  2
開示A4枠
 70
     0
 10
0.0
 20
0.0
 30
0.0
  3
開示A4枠
  1

  0
INSERT
  5
4C
330
4B
100
AcDbEntity
  8
1
100
AcDbBlockReference
  2
開示A4
 10
0.0
 20
0.0
 30
0.0
  0
ENDBLK
  5
4E
330
4B
100
AcDbEntity
  8
0
100
AcDbBlockEnd
  0
BLOCK
  5
50
330
4F
100
AcDbEntity
  8
0
100
AcDbBlockBegin
  2
88-8
 70
     0
 10
523.3472438752789
 20
136.5880289532296
 30
0.0
  3
88-8
  1

  0
LINE
  5
D5
330
4F
100
AcDbEntity
  8
1
  6
Continuous
 62
     7
100
AcDbLine
 10
158.372894616102
 20
127.8395749765459
 30
0.0
 11
158.372894616102
 21
128.3395749765459
 31
0.0
  0
LINE
  5
D6
330
4F
100
AcDbEntity
  8
1
  6
Continuous
 62
     7
100
AcDbLine
 10
158.372894616102
 20
128.3395749765459
 30
0.0
 11
156.0728946161019
 21
128.3395749765459
 31
0.0
  0
LINE
  5
D7
330
4F
100
AcDbEntity
  8
1
  6
Continuous
 62
     7
100
AcDbLine
 10
140.072894616102
 20
128.3395749765459
 30
0.0
 11
140.072894616102
 21
127.8395749765459
 31
0.0
  0
LINE
  5
D8
330
4F
100
AcDbEntity
  8
1
  6
Continuous
 62
     7
100
AcDbLine
 10
142.372894616102
 20
128.3395749765459
 30
0.0
 11
140.072894616102
 21
128.3395749765459
 31
0.0
  0
LINE
  5
D9
330
4F
100
AcDbEntity
  8
1
  6
Continuous
 62
     7
100
AcDbLine
 10
156.0728946161019
 20
128.3395749765459
 30
0.0
 11
142.372894616102
 21
128.3395749765459
 31
0.0
  0
LINE
  5
DA
330
4F
100
AcDbEntity
  8
1
  6
Continuous
 62
     7
100
AcDbLine
 10
140.072894616102
 20
127.8395749765459
 30
0.0
 11
156.0728946161019
 21
127.8395749765459
 31
0.0
  0
LINE
  5
DB
330
4F
100
AcDbEntity
  8
1
  6
Continuous
 62
     7
100
AcDbLine
 10
156.0728946161019
 20
127.8395749765459
 30
0.0
 11
158.372894616102
 21
127.8395749765459
 31
0.0
  0
CIRCLE
  5
DC
330
4F
100
AcDbEntity
  8
1
  6
Continuous
 62
     7
100
AcDbCircle
 10
149.2228946161019
 20
187.4417539202572
 30
0.0
 40
6.849999999999994
  0
CIRCLE
  5
DD
330
4F
100
AcDbEntity
  8
1
  6
Continuous
 62
     7
100
AcDbCircle
 10
149.2228946161019
 20
187.4417539202572
 30
0.0
 40
9.150000000000091
  0
ENDBLK
  5
51
330
4F
100
AcDbEntity
  8
0
100
AcDbBlockEnd
  0
BLOCK
  5
53
330
52
100
AcDbEntity
  8
0
100
AcDbBlockBegin
  2
92-14
 70
     0
 10
61.81844001858616
 20
102.2308703478253
 30
0.0
  3
92-14
  1

  0
LINE
  5
DE
330
52
100
AcDbEntity
  8
1
  6
Continuous
 62
     7
100
AcDbLine
 10
85.81844001858616
 20
126.3275609953073
 30
0.0
 11
85.81844001858616
 21
130.3275609953073
 31
0.0
  0
LINE
  5
DF
330
52
100
AcDbEntity
  8
1
  6
Continuous
 62
     7
100
AcDbLine
 10
67.81844001858616
 20
130.3275609953073
 30
0.0
 11
67.81844001858616
 21
126.3275609953073
 31
0.0
  0
LINE
  5
E0
330
52
100
AcDbEntity
  8
1
  6
Continuous
 62
     7
100
AcDbLine
 10
67.81844001858616
 20
126.3275609953073
 30
0.0
 11
85.81844001858616
 21
126.3275609953073
 31
0.0
  0
LINE
  5
E1
330
52
100
AcDbEntity
  8
1
  6
Continuous
 62
     7
100
AcDbLine
 10
85.81844001858616
 20
130.3275609953073
 30
0.0
 11
67.81844001858616
 21
130.3275609953073
 31
0.0
  0
CIRCLE
  5
E2
330
52
100
AcDbEntity
  8
1
  6
Continuous
 62
     7
100
AcDbCircle
 10
76.81844001858616
 20
187.4417539202572
 30
0.0
 40
6.25
  0
CIRCLE
  5
E3
330
52
100
AcDbEntity
  8
1
  6
Continuous
 62
     7
100
AcDbCircle
 10
76.81844001858616
 20
187.4417539202572
 30
0.0
 40
9.0
  0
ENDBLK
  5
54
330
52
100
AcDbEntity
  8
0
100
AcDbBlockEnd
  0
BLOCK
  5
FF
330
F8
100
AcDbEntity
  8
0
100
AcDbBlockBegin
  2
*D5
 70
     1
 10
0.0
 20
0.0
 30
0.0
  3
*D5
  1

  0
LINE
  5
F9
330
F8
100
AcDbEntity
  8
1
  6
Continuous
 62
     2
100
AcDbLine
 10
85.81844001858616
 20
140.3275609953073
 30
0.0
 11
67.81844001858616
 21
140.3275609953073
 31
0.0
  0
LINE
  5
FA
330
F8
100
AcDbEntity
  8
1
  6
Continuous
 62
     2
100
AcDbLine
 10
67.81844001858616
 20
130.3275609953073
 30
0.0
 11
67.81844001858616
 21
141.3275609953073
 31
0.0
  0
LINE
  5
FB
330
F8
100
AcDbEntity
  8
1
  6
Continuous
 62
     2
100
AcDbLine
 10
85.81844001858616
 20
130.3275609953073
 30
0.0
 11
85.81844001858616
 21
141.3275609953073
 31
0.0
  0
SOLID
  5
FC
330
F8
100
AcDbEntity
  8
1
 62
     2
100
AcDbTrace
 10
82.31844001858616
 20
139.8667772537514
 30
0.0
 11
82.31844001858616
 21
140.7883447368632
 31
0.0
 12
85.81844001858616
 22
140.3275609953073
 32
0.0
 13
85.81844001858616
 23
140.3275609953073
 33
0.0
  0
SOLID
  5
FD
330
F8
100
AcDbEntity
  8
1
 62
     2
100
AcDbTrace
 10
71.31844001858616
 20
140.7883447368632
 30
0.0
 11
71.31844001858616
 21
139.8667772537514
 31
0.0
 12
67.81844001858616
 22
140.3275609953073
 32
0.0
 13
67.81844001858616
 23
140.3275609953073
 33
0.0
  0
MTEXT
  5
FE
330
F8
100
AcDbEntity
  8
1
 62
     7
100
AcDbMText
 10
73.9484400185946
 20
141.327554038231
 30
0.0
 40
3.5
 41
0.0
 71
     7
 72
     1
  1
\C7;{\Fgdt;n}\C7;18
  7
CONVERTER_12
 11
0.9999999999970619
 21
2.424068405545306E-6
 31
0.0
 73
     1
 44
0.60024009603842
  0
ENDBLK
  5
100
330
F8
100
AcDbEntity
  8
0
100
AcDbBlockEnd
  0
BLOCK
  5
10A
330
103
100
AcDbEntity
  8
0
100
AcDbBlockBegin
  2
*D6
 70
     1
 10
0.0
 20
0.0
 30
0.0
  3
*D6
  1

  0
LINE
  5
104
330
103
100
AcDbEntity
  8
1
  6
Continuous
 62
     2
100
AcDbLine
 10
158.3728946161019
 20
140.3275609953073
 30
0.0
 11
140.0728946161019
 21
140.3275609953073
 31
0.0
  0
LINE
  5
105
330
103
100
AcDbEntity
  8
1
  6
Continuous
 62
     2
100
AcDbLine
 10
140.0728946161019
 20
128.3395749765459
 30
0.0
 11
140.0728946161019
 21
141.3275609953073
 31
0.0
  0
LINE
  5
106
330
103
100
AcDbEntity
  8
1
  6
Continuous
 62
     2
100
AcDbLine
 10
158.3728946161019
 20
128.3395749765459
 30
0.0
 11
158.3728946161019
 21
141.3275609953073
 31
0.0
  0
SOLID
  5
107
330
103
100
AcDbEntity
  8
1
 62
     2
100
AcDbTrace
 10
154.8728946161019
 20
139.8667772537514
 30
0.0
 11
154.8728946161019
 21
140.7883447368632
 31
0.0
 12
158.3728946161019
 22
140.3275609953073
 32
0.0
 13
158.3728946161019
 23
140.3275609953073
 33
0.0
  0
SOLID
  5
108
330
103
100
AcDbEntity
  8
1
 62
     2
100
AcDbTrace
 10
143.5728946161019
 20
140.7883447368632
 30
0.0
 11
143.5728946161019
 21
139.8667772537514
 31
0.0
 12
140.0728946161019
 22
140.3275609953073
 32
0.0
 13
140.0728946161019
 23
140.3275609953073
 33
0.0
  0
MTEXT
  5
109
330
103
100
AcDbEntity
  8
1
 62
     7
100
AcDbMText
 10
146.3528946161103
 20
141.327554038231
 30
0.0
 40
3.5
 41
0.0
 71
     7
 72
     1
  1
\C7;{\Fgdt;n}\C7;19
  7
CONVERTER_12
 11
0.9999999999970619
 21
2.424068405545306E-6
 31
0.0
 73
     1
 44
0.60024009603842
  0
ENDBLK
  5
10B
330
103
100
AcDbEntity
  8
0
100
AcDbBlockEnd
  0
BLOCK
  5
117
330
10E
100
AcDbEntity
  8
0
100
AcDbBlockBegin
  2
*D7
 70
     1
 10
0.0
 20
0.0
 30
0.0
  3
*D7
  1

  0
LINE
  5
10F
330
10E
100
AcDbEntity
  8
0
  6
Continuous
 62
     2
100
AcDbLine
 10
167.372894616102
 20
127.839574976546
 30
0.0
 11
167.372894616102
 21
120.839574976546
 31
0.0
  0
LINE
  5
110
330
10E
100
AcDbEntity
  8
0
  6
Continuous
 62
     2
100
AcDbLine
 10
167.372894616102
 20
128.3395749765459
 30
0.0
 11
167.372894616102
 21
127.839574976546
 31
0.0
  0
LINE
  5
111
330
10E
100
AcDbEntity
  8
0
  6
Continuous
 62
     2
100
AcDbLine
 10
167.372894616102
 20
135.3395749765459
 30
0.0
 11
167.372894616102
 21
128.3395749765459
 31
0.0
  0
LINE
  5
112
330
10E
100
AcDbEntity
  8
0
  6
Continuous
 62
     2
100
AcDbLine
 10
158.372894616102
 20
127.839574976546
 30
0.0
 11
168.372894616102
 21
127.839574976546
 31
0.0
  0
LINE
  5
113
330
10E
100
AcDbEntity
  8
0
  6
Continuous
 62
     2
100
AcDbLine
 10
158.372894616102
 20
128.3395749765459
 30
0.0
 11
168.372894616102
 21
128.3395749765459
 31
0.0
  0
SOLID
  5
114
330
10E
100
AcDbEntity
  8
0
 62
     2
100
AcDbTrace
 10
166.9121108745461
 20
131.8395749765459
 30
0.0
 11
167.8336783576579
 21
131.8395749765459
 31
0.0
 12
167.372894616102
 22
128.3395749765459
 32
0.0
 13
167.372894616102
 23
128.3395749765459
 33
0.0
  0
SOLID
  5
115
330
10E
100
AcDbEntity
  8
0
 62
     2
100
AcDbTrace
 10
167.8336783576579
 20
124.339574976546
 30
0.0
 11
166.9121108745461
 21
124.339574976546
 31
0.0
 12
167.372894616102
 22
127.839574976546
 32
0.0
 13
167.372894616102
 23
127.839574976546
 33
0.0
  0
MTEXT
  5
116
330
10E
100
AcDbEntity
  8
0
 62
     7
100
AcDbMText
 10
166.372894616102
 20
133.1088975780445
 30
0.0
 40
3.5
 41
0.0
 71
     7
 72
     1
  1
1
  7
CONVERTER_12
 11
0.0
 21
1.0
 31
0.0
 73
     1
 44
0.60024009603842
  0
ENDBLK
  5
118
330
10E
100
AcDbEntity
  8
0
100
AcDbBlockEnd
  0
BLOCK
  5
124
330
11B
100
AcDbEntity
  8
0
100
AcDbBlockBegin
  2
*D8
 70
     1
 10
0.0
 20
0.0
 30
0.0
  3
*D8
  1

  0
LINE
  5
11C
330
11B
100
AcDbEntity
  8
0
  6
Continuous
 62
     2
100
AcDbLine
 10
98.31844001858616
 20
130.3275609953073
 30
0.0
 11
98.31844001858616
 21
137.3275609953073
 31
0.0
  0
LINE
  5
11D
330
11B
100
AcDbEntity
  8
0
  6
Continuous
 62
     2
100
AcDbLine
 10
98.31844001858616
 20
126.3275609953073
 30
0.0
 11
98.31844001858616
 21
130.3275609953073
 31
0.0
  0
LINE
  5
11E
330
11B
100
AcDbEntity
  8
0
  6
Continuous
 62
     2
100
AcDbLine
 10
98.31844001858616
 20
119.3275609953073
 30
0.0
 11
98.31844001858616
 21
126.3275609953073
 31
0.0
  0
LINE
  5
11F
330
11B
100
AcDbEntity
  8
0
  6
Continuous
 62
     2
100
AcDbLine
 10
85.81844001858616
 20
130.3275609953073
 30
0.0
 11
99.31844001858616
 21
130.3275609953073
 31
0.0
  0
LINE
  5
120
330
11B
100
AcDbEntity
  8
0
  6
Continuous
 62
     2
100
AcDbLine
 10
85.81844001858616
 20
126.3275609953073
 30
0.0
 11
99.31844001858616
 21
126.3275609953073
 31
0.0
  0
SOLID
  5
121
330
11B
100
AcDbEntity
  8
0
 62
     2
100
AcDbTrace
 10
98.77922376014205
 20
122.8275609953073
 30
0.0
 11
97.85765627703027
 21
122.8275609953073
 31
0.0
 12
98.31844001858616
 22
126.3275609953073
 32
0.0
 13
98.31844001858616
 23
126.3275609953073
 33
0.0
  0
SOLID
  5
122
330
11B
100
AcDbEntity
  8
0
 62
     2
100
AcDbTrace
 10
97.85765627703027
 20
133.8275609953073
 30
0.0
 11
98.77922376014205
 21
133.8275609953073
 31
0.0
 12
98.31844001858616
 22
130.3275609953073
 32
0.0
 13
98.31844001858616
 23
130.3275609953073
 33
0.0
  0
MTEXT
  5
123
330
11B
100
AcDbEntity
  8
0
 62
     7
100
AcDbMText
 10
97.31844001858616
 20
127.2775609953073
 30
0.0
 40
3.5
 41
0.0
 71
     7
 72
     1
  1
4
  7
CONVERTER_12
 11
0.0
 21
1.0
 31
0.0
 73
     1
 44
0.60024009603842
  0
ENDBLK
  5
125
330
11B
100
AcDbEntity
  8
0
100
AcDbBlockEnd
  0
BLOCK
  5
12D
330
128
100
AcDbEntity
  8
0
100
AcDbBlockBegin
  2
*D9
 70
     1
 10
0.0
 20
0.0
 30
0.0
  3
*D9
  1

  0
LINE
  5
129
330
128
100
AcDbEntity
  8
1
  6
Continuous
 62
     2
100
AcDbLine
 10
158.2352001991952
 20
195.5156840708683
 30
0.0
 11
133.536394001332
 21
173.3885564222979
 31
0.0
  0
SOLID
  5
12A
330
128
100
AcDbEntity
  8
1
 62
     2
100
AcDbTrace
 10
141.8214874226181
 20
180.1923406189806
 30
0.0
 11
141.2065558947074
 21
180.8787412613975
 31
0.0
 12
144.1208869099707
 22
182.8709752812749
 32
0.0
 13
144.1208869099707
 23
182.8709752812749
 33
0.0
  0
SOLID
  5
12B
330
128
100
AcDbEntity
  8
1
 62
     2
100
AcDbTrace
 10
156.6243018095859
 20
194.6911672215339
 30
0.0
 11
157.2392333374965
 21
194.0047665791169
 31
0.0
 12
154.3249023222332
 22
192.0125325592395
 32
0.0
 13
154.3249023222332
 23
192.0125325592395
 33
0.0
  0
MTEXT
  5
12C
330
128
100
AcDbEntity
  8
1
 62
     7
100
AcDbMText
 10
133.8597358422331
 20
175.0208401151413
 30
0.0
 40
3.5
 41
0.0
 71
     7
 72
     1
  1
\C7;{\Fgdt;n}\C7;14
  7
CONVERTER_12
 11
0.7448186432308433
 21
0.6672669545959591
 31
0.0
 73
     1
 44
0.60024009603842
  0
ENDBLK
  5
12E
330
128
100
AcDbEntity
  8
0
100
AcDbBlockEnd
  0
BLOCK
  5
135
330
130
100
AcDbEntity
  8
0
100
AcDbBlockBegin
  2
*D10
 70
     1
 10
0.0
 20
0.0
 30
0.0
  3
*D10
  1

  0
LINE
  5
131
330
130
100
AcDbEntity
  8
1
  6
Continuous
 62
     2
100
AcDbLine
 10
85.39948149806625
 20
195.0978447718238
 30
0.0
 11
62.20769538017342
 21
174.4059017304942
 31
0.0
  0
SOLID
  5
132
330
130
100
AcDbEntity
  8
1
 62
     2
100
AcDbTrace
 10
69.84997460670317
 20
180.6068939026802
 30
0.0
 11
69.23644379135071
 21
181.2945468416995
 31
0.0
 12
72.15483051886872
 22
183.2808349791884
 32
0.0
 13
72.15483051886872
 23
183.2808349791884
 33
0.0
  0
SOLID
  5
133
330
130
100
AcDbEntity
  8
1
 62
     2
100
AcDbTrace
 10
83.78690543046915
 20
194.2766139378342
 30
0.0
 11
84.40043624582161
 21
193.5889609988149
 31
0.0
 12
81.4820495183036
 22
191.602672861326
 32
0.0
 13
81.4820495183036
 23
191.602672861326
 33
0.0
  0
MTEXT
  5
134
330
130
100
AcDbEntity
  8
1
 62
     7
100
AcDbMText
 10
62.53436445114227
 20
176.0375228011084
 30
0.0
 40
3.5
 41
0.0
 71
     7
 72
     1
  1
\C7;{\Fgdt;n}\C7;13
  7
CONVERTER_12
 11
0.7461775199547902
 21
0.665747030571011
 31
0.0
 73
     1
 44
0.60024009603842
  0
ENDBLK
  5
136
330
130
100
AcDbEntity
  8
0
100
AcDbBlockEnd
  0
ENDSEC
  0
SECTION
  2
ENTITIES
  0
INSERT
  5
55
330
1F
100
AcDbEntity
  8
0
100
AcDbBlockReference
  2
開示A4枠
 10
0.0
 20
0.0
 30
0.0
  0
INSERT
  5
56
330
1F
100
AcDbEntity
  8
0
100
AcDbBlockReference
  2
88-8
 10
523.3472438752789
 20
136.5880289532296
 30
0.0
  0
INSERT
  5
57
330
1F
100
AcDbEntity
  8
1
100
AcDbBlockReference
  2
92-14
 10
61.81844001858616
 20
102.2308703478253
 30
0.0
  0
LINE
  5
E4
330
1F
100
AcDbEntity
  8
1
  6
DASH_CENTER
 62
     2
100
AcDbLine
 10
149.2228946161019
 20
199.5917539202572
 30
0.0
 11
149.2228946161019
 21
175.2917539202572
 31
0.0
  0
LINE
  5
E5
330
1F
100
AcDbEntity
  8
1
  6
DASH_CENTER
 62
     2
100
AcDbLine
 10
76.81844001858616
 20
199.4417539202572
 30
0.0
 11
76.81844001858616
 21
175.4417539202572
 31
0.0
  0
LINE
  5
E6
330
1F
100
AcDbEntity
  8
1
  6
DASH_CENTER
 62
     2
100
AcDbLine
 10
137.0631722918947
 20
187.4417539202572
 30
0.0
 11
161.3975044188202
 21
187.4417539202572
 31
0.0
  0
LINE
  5
E7
330
1F
100
AcDbEntity
  8
1
  6
DASH_CENTER
 62
     2
100
AcDbLine
 10
65.00798333473617
 20
187.4417539202572
 30
0.0
 11
88.61311758269514
 21
187.4417539202572
 31
0.0
  0
LINE
  5
E8
330
1F
100
AcDbEntity
  8
1
  6
DASH_CENTER
 62
     2
100
AcDbLine
 10
149.2228946161019
 20
131.3395749765459
 30
0.0
 11
149.2228946161019
 21
124.839574976546
 31
0.0
  0
LINE
  5
E9
330
1F
100
AcDbEntity
  8
1
  6
DASH_CENTER
 62
     2
100
AcDbLine
 10
76.81844001858616
 20
133.3275609953073
 30
0.0
 11
76.81844001858616
 21
123.3275609953073
 31
0.0
  0
MTEXT
  5
EB
330
1F
100
AcDbEntity
  8
1
 62
     7
100
AcDbMText
 10
157.5000000000002
 20
12.5
 30
0.0
 40
2.5
 41
0.0
 71
     5
 72
     1
  1
2
  7
CONVERTER_12
 73
     1
 44
0.7202881152461
  0
MTEXT
  5
EC
330
1F
100
AcDbEntity
  8
1
 62
     7
100
AcDbMText
 10
151.7500000000002
 20
12.5
 30
0.0
 40
2.5
 41
0.0
 71
     5
 72
     1
  1
04
  7
CONVERTER_12
 73
     1
 44
0.7202881152461
  0
MTEXT
  5
ED
330
1F
100
AcDbEntity
  8
1
 62
     7
100
AcDbMText
 10
140.5000000000001
 20
12.5
 30
0.0
 40
2.5
 41
0.0
 71
     5
 72
     1
  1
2
  7
CONVERTER_12
 73
     1
 44
0.7202881152461
  0
MTEXT
  5
EE
330
1F
100
AcDbEntity
  8
1
 62
     7
100
AcDbMText
 10
134.7500000000001
 20
12.5
 30
0.0
 40
2.5
 41
0.0
 71
     5
 72
     1
  1
04
  7
CONVERTER_12
 73
     1
 44
0.7202881152461
  0
MTEXT
  5
EF
330
1F
100
AcDbEntity
  8
1
 62
     7
100
AcDbMText
 10
123.5000000000001
 20
12.5
 30
0.0
 40
2.5
 41
0.0
 71
     5
 72
     1
  1
2
  7
CONVERTER_12
 73
     1
 44
0.7202881152461
  0
MTEXT
  5
F0
330
1F
100
AcDbEntity
  8
1
 62
     7
100
AcDbMText
 10
117.7500000000001
 20
12.5
 30
0.0
 40
2.5
 41
0.0
 71
     5
 72
     1
  1
04
  7
CONVERTER_12
 73
     1
 44
0.7202881152461
  0
MTEXT
  5
F1
330
1F
100
AcDbEntity
  8
1
 62
     7
100
AcDbMText
 10
100.75
 20
12.5
 30
0.0
 40
2.5
 41
0.0
 71
     5
 72
     1
  1
04
  7
CONVERTER_12
 73
     1
 44
0.7202881152461
  0
MTEXT
  5
F2
330
1F
100
AcDbEntity
  8
1
 62
     7
100
AcDbMText
 10
106.5
 20
12.5
 30
0.0
 40
2.5
 41
0.0
 71
     5
 72
     1
  1
2
  7
CONVERTER_12
 73
     1
 44
0.7202881152461
  0
MTEXT
  5
F3
330
1F
100
AcDbEntity
  8
1
 62
     7
100
AcDbMText
 10
34.0
 20
34.0
 30
0.0
 40
3.5
 41
0.0
 71
     4
 72
     1
  1
2セット入
  7
CONVERTER_11
 73
     1
 44
0.54545454545455
  0
MTEXT
  5
F4
330
1F
100
AcDbEntity
  8
1
 62
     7
100
AcDbMText
 10
85.25
 20
17.0
 30
0.0
 40
3.5
 41
0.0
 71
     5
 72
     1
  1
1
  7
CONVERTER_12
 73
     1
 44
0.7202881152461
  0
MTEXT
  5
F5
330
1F
100
AcDbEntity
  8
1
 62
     7
100
AcDbMText
 10
57.0
 20
22.75000000000001
 30
0.0
 40
3.5
 41
0.0
 71
     5
 72
     1
  1
給水管アジャストパッキン
  7
CONVERTER_11
 73
     1
 44
0.54545454545455
  0
MTEXT
  5
F6
330
1F
100
AcDbEntity
  8
1
 62
     7
100
AcDbMText
 10
57.0
 20
14.25
 30
0.0
 40
3.5
 41
0.0
 71
     5
 72
     1
  1
P42-15S-13
  7
CONVERTER_12
 73
     1
 44
0.7202881152461
  0
MTEXT
  5
F7
330
1F
100
AcDbEntity
  8
1
 62
     7
100
AcDbMText
 10
93.75
 20
17.0
 30
0.0
 40
3.5
 41
0.0
 71
     5
 72
     1
  1
1
  7
CONVERTER_12
 73
     1
 44
0.7202881152461
  0
DIMENSION
  5
102
330
1F
100
AcDbEntity
  8
1
100
AcDbDimension
  2
*D5
 10
85.81844001858616
 20
140.3275609953073
 30
0.0
 11
76.81844001858616
 21
143.0775609953073
 31
0.0
 70
    32
  1
<>
 71
     5
 42
-1.0
 53
0.00013888888889
  3
ME10_DIM_10
100
AcDbAlignedDimension
 13
67.81844001858616
 23
130.3275609953073
 33
0.0
 14
85.81844001858616
 24
130.3275609953073
 34
0.0
100
AcDbRotatedDimension
  0
DIMENSION
  5
10D
330
1F
100
AcDbEntity
  8
1
100
AcDbDimension
  2
*D6
 10
158.3728946161019
 20
140.3275609953073
 30
0.0
 11
149.2228946161019
 21
143.0775609953073
 31
0.0
 70
    32
  1
{\Fgdt;n}19
 71
     5
 42
-1.0
 53
0.00013888888889
  3
ME10_DIM_11
100
AcDbAlignedDimension
 13
140.072894616102
 23
128.3395749765459
 33
0.0
 14
158.372894616102
 24
128.3395749765459
 34
0.0
100
AcDbRotatedDimension
  0
DIMENSION
  5
11A
330
1F
100
AcDbEntity
  8
0
100
AcDbDimension
  2
*D7
 10
167.372894616102
 20
128.3395749765459
 30
0.0
 11
164.622894616102
 21
133.6338975780445
 31
0.0
 70
    32
  1
1
 71
     5
 42
-1.0
 53
90.0
  3
ME10_DIM_12
100
AcDbAlignedDimension
 13
158.372894616102
 23
127.8395749765459
 33
0.0
 14
158.372894616102
 24
128.3395749765459
 34
0.0
 50
90.0
100
AcDbRotatedDimension
  0
DIMENSION
  5
127
330
1F
100
AcDbEntity
  8
0
100
AcDbDimension
  2
*D8
 10
98.31844001858616
 20
126.3275609953073
 30
0.0
 11
95.56844001858616
 21
128.3275609953073
 31
0.0
 70
    33
  1
<>
 71
     5
 42
-1.0
 53
90.0
  3
ME10_DIM_13
100
AcDbAlignedDimension
 13
85.81844001858616
 23
130.3275609953073
 33
0.0
 14
85.81844001858616
 24
126.3275609953073
 34
0.0
  0
INSERT
  5
12F
330
1F
100
AcDbEntity
  8
1
100
AcDbBlockReference
  2
*D9
 10
0.0
 20
0.0
 30
0.0
  0
INSERT
  5
137
330
1F
100
AcDbEntity
  8
1
100
AcDbBlockReference
  2
*D10
 10
0.0
 20
0.0
 30
0.0
  0
ENDSEC
  0
SECTION
  2
OBJECTS
  0
DICTIONARY
  5
C
330
0
100
AcDbDictionary
281
     1
  3
ACAD_GROUP
350
D
  3
ACAD_LAYOUT
350
1A
  3
ACAD_MATERIAL
350
3B
  3
ACAD_MLEADERSTYLE
350
13A
  3
ACAD_MLINESTYLE
350
17
  3
ACAD_PLOTSETTINGS
350
19
  3
ACAD_PLOTSTYLENAME
350
E
  3
ACAD_VISUALSTYLE
350
2A
  3
AcDbVariableDictionary
350
138
  0
DICTIONARY
  5
D
102
{ACAD_REACTORS
330
C
102
}
330
C
100
AcDbDictionary
281
     1
  0
DICTIONARY
  5
1A
102
{ACAD_REACTORS
330
C
102
}
330
C
100
AcDbDictionary
281
     1
  3
Layout1
350
1E
  3
Layout2
350
26
  3
Model
350
22
  0
DICTIONARY
  5
3B
102
{ACAD_REACTORS
330
C
102
}
330
C
100
AcDbDictionary
281
     1
  3
ByBlock
350
3D
  3
ByLayer
350
3C
  3
Global
350
3E
  0
DICTIONARY
  5
13A
102
{ACAD_REACTORS
330
C
102
}
330
C
100
AcDbDictionary
281
     1
  0
DICTIONARY
  5
17
102
{ACAD_REACTORS
330
C
102
}
330
C
100
AcDbDictionary
281
     1
  3
Standard
350
18
  0
DICTIONARY
  5
19
102
{ACAD_REACTORS
330
C
102
}
330
C
100
AcDbDictionary
281
     1
  0
ACDBDICTIONARYWDFLT
  5
E
102
{ACAD_REACTORS
330
C
102
}
330
C
100
AcDbDictionary
281
     1
  3
Normal
350
F
100
AcDbDictionaryWithDefault
340
F
  0
DICTIONARY
  5
2A
102
{ACAD_REACTORS
330
C
102
}
330
C
100
AcDbDictionary
281
     1
  3
2dWireframe
350
2F
  3
3D Hidden
350
31
  3
3dWireframe
350
30
  3
Basic
350
32
  3
Brighten
350
36
  3
ColorChange
350
3A
  3
Conceptual
350
34
  3
Dim
350
35
  3
Facepattern
350
39
  3
Flat
350
2B
  3
FlatWithEdges
350
2C
  3
Gouraud
350
2D
  3
GouraudWithEdges
350
2E
  3
Linepattern
350
38
  3
Realistic
350
33
  3
Thicken
350
37
  0
DICTIONARY
  5
138
102
{ACAD_REACTORS
330
C
102
}
330
C
100
AcDbDictionary
281
     1
  3
DIMASSOC
350
13B
  3
HIDETEXT
350
13C
  0
LAYOUT
  5
1E
102
{ACAD_REACTORS
330
1A
102
}
330
1A
100
AcDbPlotSettings
  1

  2
none_device
  4

  6

 40
0.0
 41
0.0
 42
0.0
 43
0.0
 44
0.0
 45
0.0
 46
0.0
 47
0.0
 48
0.0
 49
0.0
140
0.0
141
0.0
142
1.0
143
1.0
 70
   688
 72
     0
 73
     0
 74
     5
  7

 75
    16
147
1.0
148
0.0
149
0.0
100
AcDbLayout
  1
Layout1
 70
     1
 71
     1
 10
0.0
 20
0.0
 11
12.0
 21
9.0
 12
0.0
 22
0.0
 32
0.0
 14
1.00000000000000E+20
 24
1.00000000000000E+20
 34
1.00000000000000E+20
 15
-1.00000000000000E+20
 25
-1.00000000000000E+20
 35
-1.00000000000000E+20
146
0.0
 13
0.0
 23
0.0
 33
0.0
 16
1.0
 26
0.0
 36
0.0
 17
0.0
 27
1.0
 37
0.0
 76
     0
330
1B
  0
LAYOUT
  5
26
102
{ACAD_REACTORS
330
1A
102
}
330
1A
100
AcDbPlotSettings
  1

  2
none_device
  4

  6

 40
0.0
 41
0.0
 42
0.0
 43
0.0
 44
0.0
 45
0.0
 46
0.0
 47
0.0
 48
0.0
 49
0.0
140
0.0
141
0.0
142
1.0
143
1.0
 70
   688
 72
     0
 73
     0
 74
     5
  7

 75
    16
147
1.0
148
0.0
149
0.0
100
AcDbLayout
  1
Layout2
 70
     1
 71
     2
 10
0.0
 20
0.0
 11
0.0
 21
0.0
 12
0.0
 22
0.0
 32
0.0
 14
0.0
 24
0.0
 34
0.0
 15
0.0
 25
0.0
 35
0.0
146
0.0
 13
0.0
 23
0.0
 33
0.0
 16
1.0
 26
0.0
 36
0.0
 17
0.0
 27
1.0
 37
0.0
 76
     0
330
23
  0
LAYOUT
  5
22
102
{ACAD_REACTORS
330
1A
102
}
330
1A
100
AcDbPlotSettings
  1

  2
none_device
  4

  6

 40
0.0
 41
0.0
 42
0.0
 43
0.0
 44
0.0
 45
0.0
 46
0.0
 47
0.0
 48
0.0
 49
0.0
140
0.0
141
0.0
142
1.0
143
1.0
 70
  1712
 72
     0
 73
     0
 74
     0
  7

 75
     0
147
1.0
148
0.0
149
0.0
100
AcDbLayout
  1
Model
 70
     1
 71
     0
 10
0.0
 20
0.0
 11
12.0
 21
9.0
 12
0.0
 22
0.0
 32
0.0
 14
0.0
 24
0.0
 34
0.0
 15
210.0000000000001
 25
297.0
 35
0.0
146
0.0
 13
0.0
 23
0.0
 33
0.0
 16
1.0
 26
0.0
 36
0.0
 17
0.0
 27
1.0
 37
0.0
 76
     0
330
1F
331
29
  0
MATERIAL
  5
3D
102
{ACAD_REACTORS
330
3B
102
}
102
{ACAD_XDICTIONARY
360
15F
102
}
330
3B
100
AcDbMaterial
  1
ByBlock
  0
MATERIAL
  5
3C
102
{ACAD_REACTORS
330
3B
102
}
102
{ACAD_XDICTIONARY
360
15D
102
}
330
3B
100
AcDbMaterial
  1
ByLayer
  0
MATERIAL
  5
3E
102
{ACAD_REACTORS
330
3B
102
}
102
{ACAD_XDICTIONARY
360
161
102
}
330
3B
100
AcDbMaterial
  1
Global
  0
MLINESTYLE
  5
18
102
{ACAD_REACTORS
330
17
102
}
330
17
100
AcDbMlineStyle
  2
Standard
 70
     0
  3

 62
   256
 51
90.0
 52
90.0
 71
     2
 49
0.5
 62
   256
  6
BYLAYER
 49
-0.5
 62
   256
  6
BYLAYER
  0
ACDBPLACEHOLDER
  5
F
102
{ACAD_REACTORS
330
E
102
}
330
E
  0
VISUALSTYLE
  5
2F
102
{ACAD_REACTORS
330
2A
102
}
102
{ACAD_XDICTIONARY
360
145
102
}
330
2A
100
AcDbVisualStyle
  2
2dWireframe
 70
     4
 71
     0
 72
     2
 73
     0
 90
        0
 40
-0.6
 41
-30.0
 62
     5
 63
     7
 74
     1
 91
        4
 64
     7
 65
   257
 75
     1
175
     1
 42
1.0
 92
        0
 66
   257
 43
1.0
 76
     1
 77
     6
 78
     2
 67
     7
 79
     5
170
     0
171
     0
290
     0
174
     0
 93
        1
 44
0.0
173
     0
291
     0
 45
0.0
1001
ACAD
1000
AcDbSavedByObjectVersion
1070
     0
  0
VISUALSTYLE
  5
31
102
{ACAD_REACTORS
330
2A
102
}
102
{ACAD_XDICTIONARY
360
149
102
}
330
2A
100
AcDbVisualStyle
  2
3D Hidden
 70
     6
 71
     1
 72
     2
 73
     2
 90
        0
 40
-0.6
 41
-30.0
 62
     5
 63
     7
 74
     2
 91
        2
 64
     7
 65
   257
 75
     2
175
     1
 42
40.0
 92
        0
 66
   257
 43
1.0
 76
     1
 77
     6
 78
     2
 67
     7
 79
     3
170
     0
171
     0
290
     0
174
     0
 93
        1
 44
0.0
173
     0
291
     0
 45
0.0
1001
ACAD
1000
AcDbSavedByObjectVersion
1070
     0
  0
VISUALSTYLE
  5
30
102
{ACAD_REACTORS
330
2A
102
}
102
{ACAD_XDICTIONARY
360
147
102
}
330
2A
100
AcDbVisualStyle
  2
3dWireframe
 70
     5
 71
     0
 72
     2
 73
     0
 90
        0
 40
-0.6
 41
-30.0
 62
     5
 63
     7
 74
     1
 91
        4
 64
     7
 65
   257
 75
     1
175
     1
 42
1.0
 92
        0
 66
   257
 43
1.0
 76
     1
 77
     6
 78
     2
 67
     7
 79
     5
170
     0
171
     0
290
     0
174
     0
 93
        1
 44
0.0
173
     0
291
     0
 45
0.0
1001
ACAD
1000
AcDbSavedByObjectVersion
1070
     0
  0
VISUALSTYLE
  5
32
102
{ACAD_REACTORS
330
2A
102
}
102
{ACAD_XDICTIONARY
360
14B
102
}
330
2A
100
AcDbVisualStyle
  2
Basic
 70
     7
 71
     1
 72
     0
 73
     1
 90
        0
 40
-0.6
 41
-30.0
 62
     5
 63
     7
 74
     0
 91
        4
 64
     7
 65
   257
 75
     1
175
     1
 42
1.0
 92
        8
 66
     7
 43
1.0
 76
     1
 77
     6
 78
     2
 67
     7
 79
     5
170
     0
171
     0
290
     0
174
     0
 93
        1
 44
0.0
173
     0
291
     1
 45
0.0
1001
ACAD
1000
AcDbSavedByObjectVersion
1070
     0
  0
VISUALSTYLE
  5
36
102
{ACAD_REACTORS
330
2A
102
}
102
{ACAD_XDICTIONARY
360
153
102
}
330
2A
100
AcDbVisualStyle
  2
Brighten
 70
    12
 71
     2
 72
     2
 73
     0
 90
        0
 40
-0.6
 41
-30.0
 62
     5
 63
     7
 74
     1
 91
        4
 64
     7
 65
   257
 75
     1
175
     1
 42
1.0
 92
        8
 66
     7
 43
1.0
 76
     1
 77
     6
 78
     2
 67
     7
 79
     5
170
     0
171
     0
290
     0
174
     0
 93
        1
 44
50.0
173
     0
291
     1
 45
0.0
1001
ACAD
1000
AcDbSavedByObjectVersion
1070
     0
  0
VISUALSTYLE
  5
3A
102
{ACAD_REACTORS
330
2A
102
}
102
{ACAD_XDICTIONARY
360
15B
102
}
330
2A
100
AcDbVisualStyle
  2
ColorChange
 70
    16
 71
     2
 72
     2
 73
     3
 90
        0
 40
-0.6
 41
-30.0
 62
     5
 63
     8
 74
     1
 91
        4
 64
     7
 65
   257
 75
     1
175
     1
 42
1.0
 92
        8
 66
     8
 43
1.0
 76
     1
 77
     6
 78
     2
 67
     7
 79
     5
170
     0
171
     0
290
     0
174
     0
 93
        1
 44
0.0
173
     0
291
     1
 45
0.0
1001
ACAD
1000
AcDbSavedByObjectVersion
1070
     0
  0
VISUALSTYLE
  5
34
102
{ACAD_REACTORS
330
2A
102
}
102
{ACAD_XDICTIONARY
360
14F
102
}
330
2A
100
AcDbVisualStyle
  2
Conceptual
 70
     9
 71
     3
 72
     2
 73
     0
 90
        0
 40
-0.6
 41
-30.0
 62
     5
 63
     7
 74
     2
 91
        2
 64
     7
 65
   257
 75
     1
175
     1
 42
40.0
 92
        8
 66
     7
 43
1.0
 76
     1
 77
     6
 78
     2
 67
     7
 79
     3
170
     0
171
     0
290
     0
174
     0
 93
        1
 44
0.0
173
     0
291
     0
 45
0.0
1001
ACAD
1000
AcDbSavedByObjectVersion
1070
     0
  0
VISUALSTYLE
  5
35
102
{ACAD_REACTORS
330
2A
102
}
102
{ACAD_XDICTIONARY
360
151
102
}
330
2A
100
AcDbVisualStyle
  2
Dim
 70
    11
 71
     2
 72
     2
 73
     0
 90
        0
 40
-0.6
 41
-30.0
 62
     5
 63
     7
 74
     1
 91
        4
 64
     7
 65
   257
 75
     1
175
     1
 42
1.0
 92
        8
 66
     7
 43
1.0
 76
     1
 77
     6
 78
     2
 67
     7
 79
     5
170
     0
171
     0
290
     0
174
     0
 93
        1
 44
-50.0
173
     0
291
     1
 45
0.0
1001
ACAD
1000
AcDbSavedByObjectVersion
1070
     0
  0
VISUALSTYLE
  5
39
102
{ACAD_REACTORS
330
2A
102
}
102
{ACAD_XDICTIONARY
360
159
102
}
330
2A
100
AcDbVisualStyle
  2
Facepattern
 70
    15
 71
     2
 72
     2
 73
     0
 90
        0
 40
-0.6
 41
-30.0
 62
     5
 63
     7
 74
     1
 91
        4
 64
     7
 65
   257
 75
     1
175
     1
 42
1.0
 92
        8
 66
     7
 43
1.0
 76
     1
 77
     6
 78
     2
 67
     7
 79
     5
170
     0
171
     0
290
     0
174
     0
 93
        1
 44
0.0
173
     0
291
     1
 45
0.0
1001
ACAD
1000
AcDbSavedByObjectVersion
1070
     0
  0
VISUALSTYLE
  5
2B
102
{ACAD_REACTORS
330
2A
102
}
102
{ACAD_XDICTIONARY
360
13D
102
}
330
2A
100
AcDbVisualStyle
  2
Flat
 70
     0
 71
     2
 72
     1
 73
     1
 90
        2
 40
-0.6
 41
30.0
 62
     5
 63
     7
 74
     0
 91
        4
 64
     7
 65
   257
 75
     1
175
     1
 42
1.0
 92
        8
 66
     7
 43
1.0
 76
     1
 77
     6
 78
     2
 67
     7
 79
     5
170
     0
171
     0
290
     0
174
     0
 93
       13
 44
0.0
173
     0
291
     1
 45
0.0
1001
ACAD
1000
AcDbSavedByObjectVersion
1070
     0
  0
VISUALSTYLE
  5
2C
102
{ACAD_REACTORS
330
2A
102
}
102
{ACAD_XDICTIONARY
360
13F
102
}
330
2A
100
AcDbVisualStyle
  2
FlatWithEdges
 70
     1
 71
     2
 72
     1
 73
     1
 90
        2
 40
-0.6
 41
30.0
 62
     5
 63
     7
 74
     1
 91
        4
 64
     7
 65
   257
 75
     1
175
     1
 42
1.0
 92
        0
 66
   257
 43
1.0
 76
     1
 77
     6
 78
     2
 67
     7
 79
     5
170
     0
171
     0
290
     0
174
     0
 93
       13
 44
0.0
173
     0
291
     1
 45
0.0
1001
ACAD
1000
AcDbSavedByObjectVersion
1070
     0
  0
VISUALSTYLE
  5
2D
102
{ACAD_REACTORS
330
2A
102
}
102
{ACAD_XDICTIONARY
360
141
102
}
330
2A
100
AcDbVisualStyle
  2
Gouraud
 70
     2
 71
     2
 72
     2
 73
     1
 90
        2
 40
-0.6
 41
30.0
 62
     5
 63
     7
 74
     0
 91
        4
 64
     7
 65
   257
 75
     1
175
     1
 42
1.0
 92
        0
 66
     7
 43
1.0
 76
     1
 77
     6
 78
     2
 67
     7
 79
     5
170
     0
171
     0
290
     0
174
     0
 93
       13
 44
0.0
173
     0
291
     1
 45
0.0
1001
ACAD
1000
AcDbSavedByObjectVersion
1070
     0
  0
VISUALSTYLE
  5
2E
102
{ACAD_REACTORS
330
2A
102
}
102
{ACAD_XDICTIONARY
360
143
102
}
330
2A
100
AcDbVisualStyle
  2
GouraudWithEdges
 70
     3
 71
     2
 72
     2
 73
     1
 90
        2
 40
-0.6
 41
30.0
 62
     5
 63
     7
 74
     1
 91
        4
 64
     7
 65
   257
 75
     1
175
     1
 42
1.0
 92
        0
 66
   257
 43
1.0
 76
     1
 77
     6
 78
     2
 67
     7
 79
     5
170
     0
171
     0
290
     0
174
     0
 93
       13
 44
0.0
173
     0
291
     1
 45
0.0
1001
ACAD
1000
AcDbSavedByObjectVersion
1070
     0
  0
VISUALSTYLE
  5
38
102
{ACAD_REACTORS
330
2A
102
}
102
{ACAD_XDICTIONARY
360
157
102
}
330
2A
100
AcDbVisualStyle
  2
Linepattern
 70
    14
 71
     2
 72
     2
 73
     0
 90
        0
 40
-0.6
 41
-30.0
 62
     5
 63
     7
 74
     1
 91
        4
 64
     7
 65
   257
 75
     7
175
     7
 42
1.0
 92
        8
 66
     7
 43
1.0
 76
     1
 77
     6
 78
     2
 67
     7
 79
     5
170
     0
171
     0
290
     0
174
     0
 93
        1
 44
0.0
173
     0
291
     1
 45
0.0
1001
ACAD
1000
AcDbSavedByObjectVersion
1070
     0
  0
VISUALSTYLE
  5
33
102
{ACAD_REACTORS
330
2A
102
}
102
{ACAD_XDICTIONARY
360
14D
102
}
330
2A
100
AcDbVisualStyle
  2
Realistic
 70
     8
 71
     2
 72
     2
 73
     0
 90
        0
 40
-0.6
 41
-30.0
 62
     5
 63
     7
 74
     1
 91
        0
 64
     7
 65
   257
 75
     1
175
     1
 42
1.0
 92
        8
 66
     8
 43
1.0
 76
     1
 77
     6
 78
     2
 67
     7
 79
     5
170
     0
171
     0
290
     0
174
     0
 93
       13
 44
0.0
173
     0
291
     0
 45
0.0
1001
ACAD
1000
AcDbSavedByObjectVersion
1070
     0
  0
VISUALSTYLE
  5
37
102
{ACAD_REACTORS
330
2A
102
}
102
{ACAD_XDICTIONARY
360
155
102
}
330
2A
100
AcDbVisualStyle
  2
Thicken
 70
    13
 71
     2
 72
     2
 73
     0
 90
        0
 40
-0.6
 41
-30.0
 62
     5
 63
     7
 74
     1
 91
        4
 64
     7
 65
   257
 75
     1
175
     1
 42
1.0
 92
       12
 66
     7
 43
1.0
 76
     1
 77
     6
 78
     2
 67
     7
 79
     5
170
     0
171
     0
290
     0
174
     0
 93
        1
 44
0.0
173
     0
291
     1
 45
0.0
1001
ACAD
1000
AcDbSavedByObjectVersion
1070
     0
  0
DICTIONARYVAR
  5
13B
102
{ACAD_REACTORS
330
138
102
}
330
138
100
DictionaryVariables
280
     0
  1
2
  0
DICTIONARYVAR
  5
13C
102
{ACAD_REACTORS
330
138
102
}
330
138
100
DictionaryVariables
280
     0
  1
1
  0
DICTIONARY
  5
15F
330
3D
100
AcDbDictionary
280
     1
281
     1
  3
ACAD_XREC_ROUNDTRIP
360
160
  0
DICTIONARY
  5
15D
330
3C
100
AcDbDictionary
280
     1
281
     1
  3
ACAD_XREC_ROUNDTRIP
360
15E
  0
DICTIONARY
  5
161
330
3E
100
AcDbDictionary
280
     1
281
     1
  3
ACAD_XREC_ROUNDTRIP
360
162
  0
DICTIONARY
  5
145
330
2F
100
AcDbDictionary
280
     1
281
     1
  3
ACAD_XREC_ROUNDTRIP
360
146
  0
DICTIONARY
  5
149
330
31
100
AcDbDictionary
280
     1
281
     1
  3
ACAD_XREC_ROUNDTRIP
360
14A
  0
DICTIONARY
  5
147
330
30
100
AcDbDictionary
280
     1
281
     1
  3
ACAD_XREC_ROUNDTRIP
360
148
  0
DICTIONARY
  5
14B
330
32
100
AcDbDictionary
280
     1
281
     1
  3
ACAD_XREC_ROUNDTRIP
360
14C
  0
DICTIONARY
  5
153
330
36
100
AcDbDictionary
280
     1
281
     1
  3
ACAD_XREC_ROUNDTRIP
360
154
  0
DICTIONARY
  5
15B
330
3A
100
AcDbDictionary
280
     1
281
     1
  3
ACAD_XREC_ROUNDTRIP
360
15C
  0
DICTIONARY
  5
14F
330
34
100
AcDbDictionary
280
     1
281
     1
  3
ACAD_XREC_ROUNDTRIP
360
150
  0
DICTIONARY
  5
151
330
35
100
AcDbDictionary
280
     1
281
     1
  3
ACAD_XREC_ROUNDTRIP
360
152
  0
DICTIONARY
  5
159
330
39
100
AcDbDictionary
280
     1
281
     1
  3
ACAD_XREC_ROUNDTRIP
360
15A
  0
DICTIONARY
  5
13D
330
2B
100
AcDbDictionary
280
     1
281
     1
  3
ACAD_XREC_ROUNDTRIP
360
13E
  0
DICTIONARY
  5
13F
330
2C
100
AcDbDictionary
280
     1
281
     1
  3
ACAD_XREC_ROUNDTRIP
360
140
  0
DICTIONARY
  5
141
330
2D
100
AcDbDictionary
280
     1
281
     1
  3
ACAD_XREC_ROUNDTRIP
360
142
  0
DICTIONARY
  5
143
330
2E
100
AcDbDictionary
280
     1
281
     1
  3
ACAD_XREC_ROUNDTRIP
360
144
  0
DICTIONARY
  5
157
330
38
100
AcDbDictionary
280
     1
281
     1
  3
ACAD_XREC_ROUNDTRIP
360
158
  0
DICTIONARY
  5
14D
330
33
100
AcDbDictionary
280
     1
281
     1
  3
ACAD_XREC_ROUNDTRIP
360
14E
  0
DICTIONARY
  5
155
330
37
100
AcDbDictionary
280
     1
281
     1
  3
ACAD_XREC_ROUNDTRIP
360
156
  0
XRECORD
  5
160
102
{ACAD_REACTORS
330
15F
102
}
330
15F
100
AcDbXrecord
280
     1
102
MATERIAL
148
0.0
149
0.0
149
0.0
 93
        0
 94
      127
282
     0
 72
     1
 77
     1
171
     1
175
     1
179
     1
273
     0
  0
XRECORD
  5
15E
102
{ACAD_REACTORS
330
15D
102
}
330
15D
100
AcDbXrecord
280
     1
102
MATERIAL
148
0.0
149
0.0
149
0.0
 93
        0
 94
      127
282
     0
 72
     1
 77
     1
171
     1
175
     1
179
     1
273
     0
  0
XRECORD
  5
162
102
{ACAD_REACTORS
330
161
102
}
330
161
100
AcDbXrecord
280
     1
102
MATERIAL
148
0.0
149
0.0
149
0.0
 93
        0
 94
      127
282
     0
 72
     1
 77
     1
171
     1
175
     1
179
     1
273
     0
  0
XRECORD
  5
146
102
{ACAD_REACTORS
330
145
102
}
330
145
100
AcDbXrecord
280
     1
102
RTVSPropertyOp0
 70
     1
102
RTVSPropertyOp1
 70
     1
102
RTVSPropertyOp2
 70
     1
102
RTVSPropertyOp3
 70
     1
102
RTVSPropertyOp4
 70
     1
102
RTVSPropertyOp5
 70
     1
102
RTVSPropertyOp6
 70
     1
102
RTVSPropertyOp7
 70
     1
102
RTVSPropertyOp8
 70
     1
102
RTVSPropertyOp9
 70
     1
102
RTVSPropertyOp10
 70
     1
102
RTVSPropertyOp11
 70
     1
102
RTVSPropertyOp12
 70
     1
102
RTVSPropertyOp13
 70
     1
102
RTVSPropertyOp14
 70
     1
102
RTVSPropertyOp15
 70
     1
102
RTVSPropertyOp16
 70
     1
102
RTVSPropertyOp17
 70
     1
102
RTVSPropertyOp18
 70
     1
102
RTVSPropertyOp19
 70
     1
102
RTVSPropertyOp20
 70
     1
102
RTVSPropertyOp21
 70
     1
102
RTVSPropertyOp22
 70
     1
102
RTVSPropertyOp23
 70
     1
102
RTVSPropertyOp24
 70
     1
102
RTVSPropertyOp25
 70
     1
102
RTVSPropertyOp26
 70
     1
102
RTVSPropertyOp27
 70
     1
102
RTVSPropertyOp28
 70
     1
102
RTVSPropertyOp29
 70
     1
102
RTVSPropertyOp30
 70
     1
102
RTVSPropertyOp31
 70
     1
102
RTVSPropertyOp32
 70
     1
  0
XRECORD
  5
14A
102
{ACAD_REACTORS
330
149
102
}
330
149
100
AcDbXrecord
280
     1
102
RTVSPropertyOp0
 70
     1
102
RTVSPropertyOp1
 70
     1
102
RTVSPropertyOp2
 70
     1
102
RTVSPropertyOp3
 70
     1
102
RTVSPropertyOp4
 70
     1
102
RTVSPropertyOp5
 70
     1
102
RTVSPropertyOp6
 70
     1
102
RTVSPropertyOp7
 70
     1
102
RTVSPropertyOp8
 70
     1
102
RTVSPropertyOp9
 70
     1
102
RTVSPropertyOp10
 70
     1
102
RTVSPropertyOp11
 70
     1
102
RTVSPropertyOp12
 70
     1
102
RTVSPropertyOp13
 70
     1
102
RTVSPropertyOp14
 70
     1
102
RTVSPropertyOp15
 70
     1
102
RTVSPropertyOp16
 70
     1
102
RTVSPropertyOp17
 70
     1
102
RTVSPropertyOp18
 70
     1
102
RTVSPropertyOp19
 70
     1
102
RTVSPropertyOp20
 70
     1
102
RTVSPropertyOp21
 70
     1
102
RTVSPropertyOp22
 70
     1
102
RTVSPropertyOp23
 70
     1
102
RTVSPropertyOp24
 70
     1
102
RTVSPropertyOp25
 70
     1
102
RTVSPropertyOp26
 70
     1
102
RTVSPropertyOp27
 70
     1
102
RTVSPropertyOp28
 70
     1
102
RTVSPropertyOp29
 70
     1
102
RTVSPropertyOp30
 70
     1
102
RTVSPropertyOp31
 70
     1
102
RTVSPropertyOp32
 70
     1
  0
XRECORD
  5
148
102
{ACAD_REACTORS
330
147
102
}
330
147
100
AcDbXrecord
280
     1
102
RTVSPropertyOp0
 70
     1
102
RTVSPropertyOp1
 70
     1
102
RTVSPropertyOp2
 70
     1
102
RTVSPropertyOp3
 70
     1
102
RTVSPropertyOp4
 70
     1
102
RTVSPropertyOp5
 70
     1
102
RTVSPropertyOp6
 70
     1
102
RTVSPropertyOp7
 70
     1
102
RTVSPropertyOp8
 70
     1
102
RTVSPropertyOp9
 70
     1
102
RTVSPropertyOp10
 70
     1
102
RTVSPropertyOp11
 70
     1
102
RTVSPropertyOp12
 70
     1
102
RTVSPropertyOp13
 70
     1
102
RTVSPropertyOp14
 70
     1
102
RTVSPropertyOp15
 70
     1
102
RTVSPropertyOp16
 70
     1
102
RTVSPropertyOp17
 70
     1
102
RTVSPropertyOp18
 70
     1
102
RTVSPropertyOp19
 70
     1
102
RTVSPropertyOp20
 70
     1
102
RTVSPropertyOp21
 70
     1
102
RTVSPropertyOp22
 70
     1
102
RTVSPropertyOp23
 70
     1
102
RTVSPropertyOp24
 70
     1
102
RTVSPropertyOp25
 70
     1
102
RTVSPropertyOp26
 70
     1
102
RTVSPropertyOp27
 70
     1
102
RTVSPropertyOp28
 70
     1
102
RTVSPropertyOp29
 70
     1
102
RTVSPropertyOp30
 70
     1
102
RTVSPropertyOp31
 70
     1
102
RTVSPropertyOp32
 70
     1
  0
XRECORD
  5
14C
102
{ACAD_REACTORS
330
14B
102
}
330
14B
100
AcDbXrecord
280
     1
102
RTVSPropertyOp0
 70
     1
102
RTVSPropertyOp1
 70
     1
102
RTVSPropertyOp2
 70
     1
102
RTVSPropertyOp3
 70
     1
102
RTVSPropertyOp4
 70
     1
102
RTVSPropertyOp5
 70
     1
102
RTVSPropertyOp6
 70
     1
102
RTVSPropertyOp7
 70
     1
102
RTVSPropertyOp8
 70
     1
102
RTVSPropertyOp9
 70
     1
102
RTVSPropertyOp10
 70
     1
102
RTVSPropertyOp11
 70
     1
102
RTVSPropertyOp12
 70
     1
102
RTVSPropertyOp13
 70
     1
102
RTVSPropertyOp14
 70
     1
102
RTVSPropertyOp15
 70
     1
102
RTVSPropertyOp16
 70
     1
102
RTVSPropertyOp17
 70
     1
102
RTVSPropertyOp18
 70
     1
102
RTVSPropertyOp19
 70
     1
102
RTVSPropertyOp20
 70
     1
102
RTVSPropertyOp21
 70
     1
102
RTVSPropertyOp22
 70
     1
102
RTVSPropertyOp23
 70
     1
102
RTVSPropertyOp24
 70
     1
102
RTVSPropertyOp25
 70
     1
102
RTVSPropertyOp26
 70
     1
102
RTVSPropertyOp27
 70
     1
102
RTVSPropertyOp28
 70
     1
102
RTVSPropertyOp29
 70
     1
102
RTVSPropertyOp30
 70
     1
102
RTVSPropertyOp31
 70
     1
102
RTVSPropertyOp32
 70
     1
  0
XRECORD
  5
154
102
{ACAD_REACTORS
330
153
102
}
330
153
100
AcDbXrecord
280
     1
102
RTVSPropertyOp0
 70
     1
102
RTVSPropertyOp1
 70
     1
102
RTVSPropertyOp2
 70
     1
102
RTVSPropertyOp3
 70
     1
102
RTVSPropertyOp4
 70
     1
102
RTVSPropertyOp5
 70
     1
102
RTVSPropertyOp6
 70
     1
102
RTVSPropertyOp7
 70
     1
102
RTVSPropertyOp8
 70
     1
102
RTVSPropertyOp9
 70
     1
102
RTVSPropertyOp10
 70
     1
102
RTVSPropertyOp11
 70
     1
102
RTVSPropertyOp12
 70
     1
102
RTVSPropertyOp13
 70
     1
102
RTVSPropertyOp14
 70
     1
102
RTVSPropertyOp15
 70
     1
102
RTVSPropertyOp16
 70
     1
102
RTVSPropertyOp17
 70
     1
102
RTVSPropertyOp18
 70
     1
102
RTVSPropertyOp19
 70
     1
102
RTVSPropertyOp20
 70
     1
102
RTVSPropertyOp21
 70
     1
102
RTVSPropertyOp22
 70
     1
102
RTVSPropertyOp23
 70
     1
102
RTVSPropertyOp24
 70
     1
102
RTVSPropertyOp25
 70
     1
102
RTVSPropertyOp26
 70
     1
102
RTVSPropertyOp27
 70
     1
102
RTVSPropertyOp28
 70
     1
102
RTVSPropertyOp29
 70
     1
102
RTVSPropertyOp30
 70
     1
102
RTVSPropertyOp31
 70
     1
102
RTVSPropertyOp32
 70
     1
  0
XRECORD
  5
15C
102
{ACAD_REACTORS
330
15B
102
}
330
15B
100
AcDbXrecord
280
     1
102
RTVSPropertyOp0
 70
     1
102
RTVSPropertyOp1
 70
     1
102
RTVSPropertyOp2
 70
     1
102
RTVSPropertyOp3
 70
     1
102
RTVSPropertyOp4
 70
     1
102
RTVSPropertyOp5
 70
     1
102
RTVSPropertyOp6
 70
     1
102
RTVSPropertyOp7
 70
     1
102
RTVSPropertyOp8
 70
     1
102
RTVSPropertyOp9
 70
     1
102
RTVSPropertyOp10
 70
     1
102
RTVSPropertyOp11
 70
     1
102
RTVSPropertyOp12
 70
     1
102
RTVSPropertyOp13
 70
     1
102
RTVSPropertyOp14
 70
     1
102
RTVSPropertyOp15
 70
     1
102
RTVSPropertyOp16
 70
     1
102
RTVSPropertyOp17
 70
     1
102
RTVSPropertyOp18
 70
     1
102
RTVSPropertyOp19
 70
     1
102
RTVSPropertyOp20
 70
     1
102
RTVSPropertyOp21
 70
     1
102
RTVSPropertyOp22
 70
     1
102
RTVSPropertyOp23
 70
     1
102
RTVSPropertyOp24
 70
     1
102
RTVSPropertyOp25
 70
     1
102
RTVSPropertyOp26
 70
     1
102
RTVSPropertyOp27
 70
     1
102
RTVSPropertyOp28
 70
     1
102
RTVSPropertyOp29
 70
     1
102
RTVSPropertyOp30
 70
     1
102
RTVSPropertyOp31
 70
     1
102
RTVSPropertyOp32
 70
     1
  0
XRECORD
  5
150
102
{ACAD_REACTORS
330
14F
102
}
330
14F
100
AcDbXrecord
280
     1
102
RTVSPropertyOp0
 70
     1
102
RTVSPropertyOp1
 70
     1
102
RTVSPropertyOp2
 70
     1
102
RTVSPropertyOp3
 70
     1
102
RTVSPropertyOp4
 70
     1
102
RTVSPropertyOp5
 70
     1
102
RTVSPropertyOp6
 70
     1
102
RTVSPropertyOp7
 70
     1
102
RTVSPropertyOp8
 70
     1
102
RTVSPropertyOp9
 70
     1
102
RTVSPropertyOp10
 70
     1
102
RTVSPropertyOp11
 70
     1
102
RTVSPropertyOp12
 70
     1
102
RTVSPropertyOp13
 70
     1
102
RTVSPropertyOp14
 70
     1
102
RTVSPropertyOp15
 70
     1
102
RTVSPropertyOp16
 70
     1
102
RTVSPropertyOp17
 70
     1
102
RTVSPropertyOp18
 70
     1
102
RTVSPropertyOp19
 70
     1
102
RTVSPropertyOp20
 70
     1
102
RTVSPropertyOp21
 70
     1
102
RTVSPropertyOp22
 70
     1
102
RTVSPropertyOp23
 70
     1
102
RTVSPropertyOp24
 70
     1
102
RTVSPropertyOp25
 70
     1
102
RTVSPropertyOp26
 70
     1
102
RTVSPropertyOp27
 70
     1
102
RTVSPropertyOp28
 70
     1
102
RTVSPropertyOp29
 70
     1
102
RTVSPropertyOp30
 70
     1
102
RTVSPropertyOp31
 70
     1
102
RTVSPropertyOp32
 70
     1
  0
XRECORD
  5
152
102
{ACAD_REACTORS
330
151
102
}
330
151
100
AcDbXrecord
280
     1
102
RTVSPropertyOp0
 70
     1
102
RTVSPropertyOp1
 70
     1
102
RTVSPropertyOp2
 70
     1
102
RTVSPropertyOp3
 70
     1
102
RTVSPropertyOp4
 70
     1
102
RTVSPropertyOp5
 70
     1
102
RTVSPropertyOp6
 70
     1
102
RTVSPropertyOp7
 70
     1
102
RTVSPropertyOp8
 70
     1
102
RTVSPropertyOp9
 70
     1
102
RTVSPropertyOp10
 70
     1
102
RTVSPropertyOp11
 70
     1
102
RTVSPropertyOp12
 70
     1
102
RTVSPropertyOp13
 70
     1
102
RTVSPropertyOp14
 70
     1
102
RTVSPropertyOp15
 70
     1
102
RTVSPropertyOp16
 70
     1
102
RTVSPropertyOp17
 70
     1
102
RTVSPropertyOp18
 70
     1
102
RTVSPropertyOp19
 70
     1
102
RTVSPropertyOp20
 70
     1
102
RTVSPropertyOp21
 70
     1
102
RTVSPropertyOp22
 70
     1
102
RTVSPropertyOp23
 70
     1
102
RTVSPropertyOp24
 70
     1
102
RTVSPropertyOp25
 70
     1
102
RTVSPropertyOp26
 70
     1
102
RTVSPropertyOp27
 70
     1
102
RTVSPropertyOp28
 70
     1
102
RTVSPropertyOp29
 70
     1
102
RTVSPropertyOp30
 70
     1
102
RTVSPropertyOp31
 70
     1
102
RTVSPropertyOp32
 70
     1
  0
XRECORD
  5
15A
102
{ACAD_REACTORS
330
159
102
}
330
159
100
AcDbXrecord
280
     1
102
RTVSPropertyOp0
 70
     1
102
RTVSPropertyOp1
 70
     1
102
RTVSPropertyOp2
 70
     1
102
RTVSPropertyOp3
 70
     1
102
RTVSPropertyOp4
 70
     1
102
RTVSPropertyOp5
 70
     1
102
RTVSPropertyOp6
 70
     1
102
RTVSPropertyOp7
 70
     1
102
RTVSPropertyOp8
 70
     1
102
RTVSPropertyOp9
 70
     1
102
RTVSPropertyOp10
 70
     1
102
RTVSPropertyOp11
 70
     1
102
RTVSPropertyOp12
 70
     1
102
RTVSPropertyOp13
 70
     1
102
RTVSPropertyOp14
 70
     1
102
RTVSPropertyOp15
 70
     1
102
RTVSPropertyOp16
 70
     1
102
RTVSPropertyOp17
 70
     1
102
RTVSPropertyOp18
 70
     1
102
RTVSPropertyOp19
 70
     1
102
RTVSPropertyOp20
 70
     1
102
RTVSPropertyOp21
 70
     1
102
RTVSPropertyOp22
 70
     1
102
RTVSPropertyOp23
 70
     1
102
RTVSPropertyOp24
 70
     1
102
RTVSPropertyOp25
 70
     1
102
RTVSPropertyOp26
 70
     1
102
RTVSPropertyOp27
 70
     1
102
RTVSPropertyOp28
 70
     1
102
RTVSPropertyOp29
 70
     1
102
RTVSPropertyOp30
 70
     1
102
RTVSPropertyOp31
 70
     1
102
RTVSPropertyOp32
 70
     1
  0
XRECORD
  5
13E
102
{ACAD_REACTORS
330
13D
102
}
330
13D
100
AcDbXrecord
280
     1
102
RTVSPropertyOp0
 70
     1
102
RTVSPropertyOp1
 70
     1
102
RTVSPropertyOp2
 70
     1
102
RTVSPropertyOp3
 70
     1
102
RTVSPropertyOp4
 70
     1
102
RTVSPropertyOp5
 70
     1
102
RTVSPropertyOp6
 70
     1
102
RTVSPropertyOp7
 70
     1
102
RTVSPropertyOp8
 70
     1
102
RTVSPropertyOp9
 70
     1
102
RTVSPropertyOp10
 70
     1
102
RTVSPropertyOp11
 70
     1
102
RTVSPropertyOp12
 70
     1
102
RTVSPropertyOp13
 70
     1
102
RTVSPropertyOp14
 70
     1
102
RTVSPropertyOp15
 70
     1
102
RTVSPropertyOp16
 70
     1
102
RTVSPropertyOp17
 70
     1
102
RTVSPropertyOp18
 70
     1
102
RTVSPropertyOp19
 70
     1
102
RTVSPropertyOp20
 70
     1
102
RTVSPropertyOp21
 70
     1
102
RTVSPropertyOp22
 70
     1
102
RTVSPropertyOp23
 70
     1
102
RTVSPropertyOp24
 70
     1
102
RTVSPropertyOp25
 70
     1
102
RTVSPropertyOp26
 70
     1
102
RTVSPropertyOp27
 70
     1
102
RTVSPropertyOp28
 70
     1
102
RTVSPropertyOp29
 70
     1
102
RTVSPropertyOp30
 70
     1
102
RTVSPropertyOp31
 70
     1
102
RTVSPropertyOp32
 70
     1
  0
XRECORD
  5
140
102
{ACAD_REACTORS
330
13F
102
}
330
13F
100
AcDbXrecord
280
     1
102
RTVSPropertyOp0
 70
     1
102
RTVSPropertyOp1
 70
     1
102
RTVSPropertyOp2
 70
     1
102
RTVSPropertyOp3
 70
     1
102
RTVSPropertyOp4
 70
     1
102
RTVSPropertyOp5
 70
     1
102
RTVSPropertyOp6
 70
     1
102
RTVSPropertyOp7
 70
     1
102
RTVSPropertyOp8
 70
     1
102
RTVSPropertyOp9
 70
     1
102
RTVSPropertyOp10
 70
     1
102
RTVSPropertyOp11
 70
     1
102
RTVSPropertyOp12
 70
     1
102
RTVSPropertyOp13
 70
     1
102
RTVSPropertyOp14
 70
     1
102
RTVSPropertyOp15
 70
     1
102
RTVSPropertyOp16
 70
     1
102
RTVSPropertyOp17
 70
     1
102
RTVSPropertyOp18
 70
     1
102
RTVSPropertyOp19
 70
     1
102
RTVSPropertyOp20
 70
     1
102
RTVSPropertyOp21
 70
     1
102
RTVSPropertyOp22
 70
     1
102
RTVSPropertyOp23
 70
     1
102
RTVSPropertyOp24
 70
     1
102
RTVSPropertyOp25
 70
     1
102
RTVSPropertyOp26
 70
     1
102
RTVSPropertyOp27
 70
     1
102
RTVSPropertyOp28
 70
     1
102
RTVSPropertyOp29
 70
     1
102
RTVSPropertyOp30
 70
     1
102
RTVSPropertyOp31
 70
     1
102
RTVSPropertyOp32
 70
     1
  0
XRECORD
  5
142
102
{ACAD_REACTORS
330
141
102
}
330
141
100
AcDbXrecord
280
     1
102
RTVSPropertyOp0
 70
     1
102
RTVSPropertyOp1
 70
     1
102
RTVSPropertyOp2
 70
     1
102
RTVSPropertyOp3
 70
     1
102
RTVSPropertyOp4
 70
     1
102
RTVSPropertyOp5
 70
     1
102
RTVSPropertyOp6
 70
     1
102
RTVSPropertyOp7
 70
     1
102
RTVSPropertyOp8
 70
     1
102
RTVSPropertyOp9
 70
     1
102
RTVSPropertyOp10
 70
     1
102
RTVSPropertyOp11
 70
     1
102
RTVSPropertyOp12
 70
     1
102
RTVSPropertyOp13
 70
     1
102
RTVSPropertyOp14
 70
     1
102
RTVSPropertyOp15
 70
     1
102
RTVSPropertyOp16
 70
     1
102
RTVSPropertyOp17
 70
     1
102
RTVSPropertyOp18
 70
     1
102
RTVSPropertyOp19
 70
     1
102
RTVSPropertyOp20
 70
     1
102
RTVSPropertyOp21
 70
     1
102
RTVSPropertyOp22
 70
     1
102
RTVSPropertyOp23
 70
     1
102
RTVSPropertyOp24
 70
     1
102
RTVSPropertyOp25
 70
     1
102
RTVSPropertyOp26
 70
     1
102
RTVSPropertyOp27
 70
     1
102
RTVSPropertyOp28
 70
     1
102
RTVSPropertyOp29
 70
     1
102
RTVSPropertyOp30
 70
     1
102
RTVSPropertyOp31
 70
     1
102
RTVSPropertyOp32
 70
     1
  0
XRECORD
  5
144
102
{ACAD_REACTORS
330
143
102
}
330
143
100
AcDbXrecord
280
     1
102
RTVSPropertyOp0
 70
     1
102
RTVSPropertyOp1
 70
     1
102
RTVSPropertyOp2
 70
     1
102
RTVSPropertyOp3
 70
     1
102
RTVSPropertyOp4
 70
     1
102
RTVSPropertyOp5
 70
     1
102
RTVSPropertyOp6
 70
     1
102
RTVSPropertyOp7
 70
     1
102
RTVSPropertyOp8
 70
     1
102
RTVSPropertyOp9
 70
     1
102
RTVSPropertyOp10
 70
     1
102
RTVSPropertyOp11
 70
     1
102
RTVSPropertyOp12
 70
     1
102
RTVSPropertyOp13
 70
     1
102
RTVSPropertyOp14
 70
     1
102
RTVSPropertyOp15
 70
     1
102
RTVSPropertyOp16
 70
     1
102
RTVSPropertyOp17
 70
     1
102
RTVSPropertyOp18
 70
     1
102
RTVSPropertyOp19
 70
     1
102
RTVSPropertyOp20
 70
     1
102
RTVSPropertyOp21
 70
     1
102
RTVSPropertyOp22
 70
     1
102
RTVSPropertyOp23
 70
     1
102
RTVSPropertyOp24
 70
     1
102
RTVSPropertyOp25
 70
     1
102
RTVSPropertyOp26
 70
     1
102
RTVSPropertyOp27
 70
     1
102
RTVSPropertyOp28
 70
     1
102
RTVSPropertyOp29
 70
     1
102
RTVSPropertyOp30
 70
     1
102
RTVSPropertyOp31
 70
     1
102
RTVSPropertyOp32
 70
     1
  0
XRECORD
  5
158
102
{ACAD_REACTORS
330
157
102
}
330
157
100
AcDbXrecord
280
     1
102
RTVSPropertyOp0
 70
     1
102
RTVSPropertyOp1
 70
     1
102
RTVSPropertyOp2
 70
     1
102
RTVSPropertyOp3
 70
     1
102
RTVSPropertyOp4
 70
     1
102
RTVSPropertyOp5
 70
     1
102
RTVSPropertyOp6
 70
     1
102
RTVSPropertyOp7
 70
     1
102
RTVSPropertyOp8
 70
     1
102
RTVSPropertyOp9
 70
     1
102
RTVSPropertyOp10
 70
     1
102
RTVSPropertyOp11
 70
     1
102
RTVSPropertyOp12
 70
     1
102
RTVSPropertyOp13
 70
     1
102
RTVSPropertyOp14
 70
     1
102
RTVSPropertyOp15
 70
     1
102
RTVSPropertyOp16
 70
     1
102
RTVSPropertyOp17
 70
     1
102
RTVSPropertyOp18
 70
     1
102
RTVSPropertyOp19
 70
     1
102
RTVSPropertyOp20
 70
     1
102
RTVSPropertyOp21
 70
     1
102
RTVSPropertyOp22
 70
     1
102
RTVSPropertyOp23
 70
     1
102
RTVSPropertyOp24
 70
     1
102
RTVSPropertyOp25
 70
     1
102
RTVSPropertyOp26
 70
     1
102
RTVSPropertyOp27
 70
     1
102
RTVSPropertyOp28
 70
     1
102
RTVSPropertyOp29
 70
     1
102
RTVSPropertyOp30
 70
     1
102
RTVSPropertyOp31
 70
     1
102
RTVSPropertyOp32
 70
     1
  0
XRECORD
  5
14E
102
{ACAD_REACTORS
330
14D
102
}
330
14D
100
AcDbXrecord
280
     1
102
RTVSPropertyOp0
 70
     1
102
RTVSPropertyOp1
 70
     1
102
RTVSPropertyOp2
 70
     1
102
RTVSPropertyOp3
 70
     1
102
RTVSPropertyOp4
 70
     1
102
RTVSPropertyOp5
 70
     1
102
RTVSPropertyOp6
 70
     1
102
RTVSPropertyOp7
 70
     1
102
RTVSPropertyOp8
 70
     1
102
RTVSPropertyOp9
 70
     1
102
RTVSPropertyOp10
 70
     1
102
RTVSPropertyOp11
 70
     1
102
RTVSPropertyOp12
 70
     1
102
RTVSPropertyOp13
 70
     1
102
RTVSPropertyOp14
 70
     1
102
RTVSPropertyOp15
 70
     1
102
RTVSPropertyOp16
 70
     1
102
RTVSPropertyOp17
 70
     1
102
RTVSPropertyOp18
 70
     1
102
RTVSPropertyOp19
 70
     1
102
RTVSPropertyOp20
 70
     1
102
RTVSPropertyOp21
 70
     1
102
RTVSPropertyOp22
 70
     1
102
RTVSPropertyOp23
 70
     1
102
RTVSPropertyOp24
 70
     1
102
RTVSPropertyOp25
 70
     1
102
RTVSPropertyOp26
 70
     1
102
RTVSPropertyOp27
 70
     1
102
RTVSPropertyOp28
 70
     1
102
RTVSPropertyOp29
 70
     1
102
RTVSPropertyOp30
 70
     1
102
RTVSPropertyOp31
 70
     1
102
RTVSPropertyOp32
 70
     1
  0
XRECORD
  5
156
102
{ACAD_REACTORS
330
155
102
}
330
155
100
AcDbXrecord
280
     1
102
RTVSPropertyOp0
 70
     1
102
RTVSPropertyOp1
 70
     1
102
RTVSPropertyOp2
 70
     1
102
RTVSPropertyOp3
 70
     1
102
RTVSPropertyOp4
 70
     1
102
RTVSPropertyOp5
 70
     1
102
RTVSPropertyOp6
 70
     1
102
RTVSPropertyOp7
 70
     1
102
RTVSPropertyOp8
 70
     1
102
RTVSPropertyOp9
 70
     1
102
RTVSPropertyOp10
 70
     1
102
RTVSPropertyOp11
 70
     1
102
RTVSPropertyOp12
 70
     1
102
RTVSPropertyOp13
 70
     1
102
RTVSPropertyOp14
 70
     1
102
RTVSPropertyOp15
 70
     1
102
RTVSPropertyOp16
 70
     1
102
RTVSPropertyOp17
 70
     1
102
RTVSPropertyOp18
 70
     1
102
RTVSPropertyOp19
 70
     1
102
RTVSPropertyOp20
 70
     1
102
RTVSPropertyOp21
 70
     1
102
RTVSPropertyOp22
 70
     1
102
RTVSPropertyOp23
 70
     1
102
RTVSPropertyOp24
 70
     1
102
RTVSPropertyOp25
 70
     1
102
RTVSPropertyOp26
 70
     1
102
RTVSPropertyOp27
 70
     1
102
RTVSPropertyOp28
 70
     1
102
RTVSPropertyOp29
 70
     1
102
RTVSPropertyOp30
 70
     1
102
RTVSPropertyOp31
 70
     1
102
RTVSPropertyOp32
 70
     1
  0
ENDSEC
  0
EOF
