  0
SECTION
  2
HEADER
  9
$ACADVER
  1
AC1015
  9
$ACADMAINTVER
 70
     6
  9
$DWGCODEPAGE
  3
ANSI_932
  9
$INSBASE
 10
0.0
 20
0.0
 30
0.0
  9
$EXTMIN
 10
0.0
 20
0.0
 30
0.0
  9
$EXTMAX
 10
419.9999999999999
 20
594.0
 30
0.0
  9
$LIMMIN
 10
0.0
 20
0.0
  9
$LIMMAX
 10
12.0
 20
9.0
  9
$ORTHOMODE
 70
     0
  9
$REGENMODE
 70
     1
  9
$FILLMODE
 70
     1
  9
$QTEXTMODE
 70
     0
  9
$MIRRTEXT
 70
     1
  9
$LTSCALE
 40
1.0
  9
$ATTMODE
 70
     1
  9
$TEXTSIZE
 40
0.2
  9
$TRACEWID
 40
0.05
  9
$TEXTSTYLE
  7
Standard
  9
$CLAYER
  8
0
  9
$CELTYPE
  6
ByLayer
  9
$CECOLOR
 62
   256
  9
$CELTSCALE
 40
1.0
  9
$DISPSILH
 70
     0
  9
$DIMSCALE
 40
1.0
  9
$DIMASZ
 40
0.18
  9
$DIMEXO
 40
0.0625
  9
$DIMDLI
 40
0.38
  9
$DIMRND
 40
0.0
  9
$DIMDLE
 40
0.0
  9
$DIMEXE
 40
0.18
  9
$DIMTP
 40
0.0
  9
$DIMTM
 40
0.0
  9
$DIMTXT
 40
0.18
  9
$DIMCEN
 40
0.09
  9
$DIMTSZ
 40
0.0
  9
$DIMTOL
 70
     0
  9
$DIMLIM
 70
     0
  9
$DIMTIH
 70
     1
  9
$DIMTOH
 70
     1
  9
$DIMSE1
 70
     0
  9
$DIMSE2
 70
     0
  9
$DIMTAD
 70
     0
  9
$DIMZIN
 70
     0
  9
$DIMBLK
  1

  9
$DIMASO
 70
     1
  9
$DIMSHO
 70
     1
  9
$DIMPOST
  1

  9
$DIMAPOST
  1

  9
$DIMALT
 70
     0
  9
$DIMALTD
 70
     2
  9
$DIMALTF
 40
25.4
  9
$DIMLFAC
 40
1.0
  9
$DIMTOFL
 70
     0
  9
$DIMTVP
 40
0.0
  9
$DIMTIX
 70
     0
  9
$DIMSOXD
 70
     0
  9
$DIMSAH
 70
     0
  9
$DIMBLK1
  1

  9
$DIMBLK2
  1

  9
$DIMSTYLE
  2
Standard
  9
$DIMCLRD
 70
     0
  9
$DIMCLRE
 70
     0
  9
$DIMCLRT
 70
     0
  9
$DIMTFAC
 40
1.0
  9
$DIMGAP
 40
0.09
  9
$DIMJUST
 70
     0
  9
$DIMSD1
 70
     0
  9
$DIMSD2
 70
     0
  9
$DIMTOLJ
 70
     1
  9
$DIMTZIN
 70
     0
  9
$DIMALTZ
 70
     0
  9
$DIMALTTZ
 70
     0
  9
$DIMUPT
 70
     0
  9
$DIMDEC
 70
     4
  9
$DIMTDEC
 70
     4
  9
$DIMALTU
 70
     2
  9
$DIMALTTD
 70
     2
  9
$DIMTXSTY
  7
Standard
  9
$DIMAUNIT
 70
     0
  9
$DIMADEC
 70
     0
  9
$DIMALTRND
 40
0.0
  9
$DIMAZIN
 70
     0
  9
$DIMDSEP
 70
    46
  9
$DIMATFIT
 70
     3
  9
$DIMFRAC
 70
     0
  9
$DIMLDRBLK
  1

  9
$DIMLUNIT
 70
     2
  9
$DIMLWD
 70
    -2
  9
$DIMLWE
 70
    -2
  9
$DIMTMOVE
 70
     0
  9
$LUNITS
 70
     2
  9
$LUPREC
 70
     4
  9
$SKETCHINC
 40
0.1
  9
$FILLETRAD
 40
0.5
  9
$AUNITS
 70
     0
  9
$AUPREC
 70
     0
  9
$MENU
  1
.
  9
$ELEVATION
 40
0.0
  9
$PELEVATION
 40
0.0
  9
$THICKNESS
 40
0.0
  9
$LIMCHECK
 70
     0
  9
$CHAMFERA
 40
0.5
  9
$CHAMFERB
 40
0.5
  9
$CHAMFERC
 40
1.0
  9
$CHAMFERD
 40
0.0
  9
$SKPOLY
 70
     0
  9
$TDCREATE
 40
2459787.459690683
  9
$TDUCREATE
 40
2459787.084690683
  9
$TDUPDATE
 40
2459787.459691945
  9
$TDUUPDATE
 40
2459787.084691945
  9
$TDINDWG
 40
0.0000000116
  9
$TDUSRTIMER
 40
0.0000000116
  9
$USRTIMER
 70
     1
  9
$ANGBASE
 50
0.0
  9
$ANGDIR
 70
     0
  9
$PDMODE
 70
     0
  9
$PDSIZE
 40
0.0
  9
$PLINEWID
 40
0.0
  9
$SPLFRAME
 70
     0
  9
$SPLINETYPE
 70
     6
  9
$SPLINESEGS
 70
     8
  9
$HANDSEED
  5
207
  9
$SURFTAB1
 70
     6
  9
$SURFTAB2
 70
     6
  9
$SURFTYPE
 70
     6
  9
$SURFU
 70
     6
  9
$SURFV
 70
     6
  9
$UCSBASE
  2

  9
$UCSNAME
  2

  9
$UCSORG
 10
0.0
 20
0.0
 30
0.0
  9
$UCSXDIR
 10
1.0
 20
0.0
 30
0.0
  9
$UCSYDIR
 10
0.0
 20
1.0
 30
0.0
  9
$UCSORTHOREF
  2

  9
$UCSORTHOVIEW
 70
     0
  9
$UCSORGTOP
 10
0.0
 20
0.0
 30
0.0
  9
$UCSORGBOTTOM
 10
0.0
 20
0.0
 30
0.0
  9
$UCSORGLEFT
 10
0.0
 20
0.0
 30
0.0
  9
$UCSORGRIGHT
 10
0.0
 20
0.0
 30
0.0
  9
$UCSORGFRONT
 10
0.0
 20
0.0
 30
0.0
  9
$UCSORGBACK
 10
0.0
 20
0.0
 30
0.0
  9
$PUCSBASE
  2

  9
$PUCSNAME
  2

  9
$PUCSORG
 10
0.0
 20
0.0
 30
0.0
  9
$PUCSXDIR
 10
1.0
 20
0.0
 30
0.0
  9
$PUCSYDIR
 10
0.0
 20
1.0
 30
0.0
  9
$PUCSORTHOREF
  2

  9
$PUCSORTHOVIEW
 70
     0
  9
$PUCSORGTOP
 10
0.0
 20
0.0
 30
0.0
  9
$PUCSORGBOTTOM
 10
0.0
 20
0.0
 30
0.0
  9
$PUCSORGLEFT
 10
0.0
 20
0.0
 30
0.0
  9
$PUCSORGRIGHT
 10
0.0
 20
0.0
 30
0.0
  9
$PUCSORGFRONT
 10
0.0
 20
0.0
 30
0.0
  9
$PUCSORGBACK
 10
0.0
 20
0.0
 30
0.0
  9
$USERI1
 70
     0
  9
$USERI2
 70
     0
  9
$USERI3
 70
     0
  9
$USERI4
 70
     0
  9
$USERI5
 70
     0
  9
$USERR1
 40
18.1
  9
$USERR2
 40
0.0
  9
$USERR3
 40
0.0
  9
$USERR4
 40
0.0
  9
$USERR5
 40
0.0
  9
$WORLDVIEW
 70
     1
  9
$SHADEDGE
 70
     3
  9
$SHADEDIF
 70
    70
  9
$TILEMODE
 70
     1
  9
$MAXACTVP
 70
    64
  9
$PINSBASE
 10
0.0
 20
0.0
 30
0.0
  9
$PLIMCHECK
 70
     0
  9
$PEXTMIN
 10
1.00000000000000E+20
 20
1.00000000000000E+20
 30
1.00000000000000E+20
  9
$PEXTMAX
 10
-1.00000000000000E+20
 20
-1.00000000000000E+20
 30
-1.00000000000000E+20
  9
$PLIMMIN
 10
0.0
 20
0.0
  9
$PLIMMAX
 10
12.0
 20
9.0
  9
$UNITMODE
 70
     0
  9
$VISRETAIN
 70
     1
  9
$PLINEGEN
 70
     0
  9
$PSLTSCALE
 70
     1
  9
$TREEDEPTH
 70
  3020
  9
$CMLSTYLE
  2
Standard
  9
$CMLJUST
 70
     0
  9
$CMLSCALE
 40
1.0
  9
$PROXYGRAPHICS
 70
     1
  9
$MEASUREMENT
 70
     1
  9
$CELWEIGHT
370
    -1
  9
$ENDCAPS
280
     0
  9
$JOINSTYLE
280
     0
  9
$LWDISPLAY
290
     0
  9
$INSUNITS
 70
     4
  9
$HYPERLINKBASE
  1

  9
$STYLESHEET
  1

  9
$XEDIT
290
     1
  9
$CEPSNTYPE
380
     0
  9
$PSTYLEMODE
290
     1
  9
$FINGERPRINTGUID
  2
{2E762C93-7570-4423-9F80-B318669C7858}
  9
$VERSIONGUID
  2
{FAEB1C32-E019-11D5-929B-00C0DF256EC4}
  9
$EXTNAMES
290
     1
  9
$PSVPSCALE
 40
0.0
  9
$OLESTARTUP
290
     0
  0
ENDSEC
  0
SECTION
  2
CLASSES
  0
CLASS
  1
ACDBDICTIONARYWDFLT
  2
AcDbDictionaryWithDefault
  3
ObjectDBX Classes
 90
        0
280
     0
281
     0
  0
CLASS
  1
VISUALSTYLE
  2
AcDbVisualStyle
  3
ObjectDBX Classes
 90
     4095
280
     0
281
     0
  0
CLASS
  1
MATERIAL
  2
AcDbMaterial
  3
ObjectDBX Classes
 90
     1153
280
     0
281
     0
  0
CLASS
  1
DICTIONARYVAR
  2
AcDbDictionaryVar
  3
ObjectDBX Classes
 90
        0
280
     0
281
     0
  0
CLASS
  1
ACDBPLACEHOLDER
  2
AcDbPlaceHolder
  3
ObjectDBX Classes
 90
        0
280
     0
281
     0
  0
CLASS
  1
LAYOUT
  2
AcDbLayout
  3
ObjectDBX Classes
 90
        0
280
     0
281
     0
  0
ENDSEC
  0
SECTION
  2
TABLES
  0
TABLE
  2
VPORT
  5
8
330
0
100
AcDbSymbolTable
 70
     1
  0
VPORT
  5
29
330
8
100
AcDbSymbolTableRecord
100
AcDbViewportTableRecord
  2
*Active
 70
     0
 10
0.0
 20
0.0
 11
1.0
 21
1.0
 12
209.9999999999999
 22
297.0
 13
0.0
 23
0.0
 14
0.5
 24
0.5
 15
0.5
 25
0.5
 16
0.0
 26
0.0
 36
1.0
 17
0.0
 27
0.0
 37
0.0
 40
653.4000000000001
 41
1.60267857142857
 42
50.0
 43
0.0
 44
0.0
 50
0.0
 51
0.0
 71
     0
 72
   100
 73
     1
 74
     3
 75
     0
 76
     0
 77
     0
 78
     0
281
     0
 65
     1
110
0.0
120
0.0
130
0.0
111
1.0
121
0.0
131
0.0
112
0.0
122
1.0
132
0.0
 79
     0
146
0.0
  0
ENDTAB
  0
TABLE
  2
LTYPE
  5
5
330
0
100
AcDbSymbolTable
 70
     8
  0
LTYPE
  5
14
330
5
100
AcDbSymbolTableRecord
100
AcDbLinetypeTableRecord
  2
ByBlock
 70
     0
  3

 72
    65
 73
     0
 40
0.0
  0
LTYPE
  5
15
330
5
100
AcDbSymbolTableRecord
100
AcDbLinetypeTableRecord
  2
ByLayer
 70
     0
  3

 72
    65
 73
     0
 40
0.0
  0
LTYPE
  5
16
330
5
100
AcDbSymbolTableRecord
100
AcDbLinetypeTableRecord
  2
Continuous
 70
     0
  3
Solid line
 72
    65
 73
     0
 40
0.0
  0
LTYPE
  5
3F
330
5
100
AcDbSymbolTableRecord
100
AcDbLinetypeTableRecord
  2
DASHED
 70
     0
  3
Dashed
 72
    65
 73
     2
 40
15.0
 49
7.0
 74
     0
 49
-8.0
 74
     0
  0
LTYPE
  5
40
330
5
100
AcDbSymbolTableRecord
100
AcDbLinetypeTableRecord
  2
DOTTED
 70
     0
  3
Dotted
 72
    65
 73
     2
 40
1.0
 49
0.0
 74
     0
 49
-1.0
 74
     0
  0
LTYPE
  5
41
330
5
100
AcDbSymbolTableRecord
100
AcDbLinetypeTableRecord
  2
DOT_CENTER
 70
     0
  3
Dot_Center
 72
    65
 73
     4
 40
14.0
 49
12.0
 74
     0
 49
-1.0
 74
     0
 49
0.0
 74
     0
 49
-1.0
 74
     0
  0
LTYPE
  5
42
330
5
100
AcDbSymbolTableRecord
100
AcDbLinetypeTableRecord
  2
LONG_DASHED
 70
     0
  3
Long_Dashed
 72
    65
 73
     2
 40
15.0
 49
10.0
 74
     0
 49
-5.0
 74
     0
  0
LTYPE
  5
43
330
5
100
AcDbSymbolTableRecord
100
AcDbLinetypeTableRecord
  2
DASH_CENTER
 70
     0
  3
Dash_Center
 72
    65
 73
     4
 40
14.0
 49
11.0
 74
     0
 49
-1.0
 74
     0
 49
1.0
 74
     0
 49
-1.0
 74
     0
  0
LTYPE
  5
44
330
5
100
AcDbSymbolTableRecord
100
AcDbLinetypeTableRecord
  2
PHANTOM
 70
     0
  3
Phantom
 72
    65
 73
     6
 40
13.0
 49
10.0
 74
     0
 49
-1.0
 74
     0
 49
0.0
 74
     0
 49
-1.0
 74
     0
 49
0.0
 74
     0
 49
-1.0
 74
     0
  0
LTYPE
  5
45
330
5
100
AcDbSymbolTableRecord
100
AcDbLinetypeTableRecord
  2
CENTER_DASH_DASH
 70
     0
  3
Center_Dash_Dash
 72
    65
 73
     6
 40
14.0
 49
9.0
 74
     0
 49
-1.0
 74
     0
 49
1.0
 74
     0
 49
-1.0
 74
     0
 49
1.0
 74
     0
 49
-1.0
 74
     0
  0
ENDTAB
  0
TABLE
  2
LAYER
  5
2
330
0
100
AcDbSymbolTable
 70
     3
  0
LAYER
  5
10
330
2
100
AcDbSymbolTableRecord
100
AcDbLayerTableRecord
  2
0
 70
     0
 62
     7
  6
Continuous
370
    -3
390
F
  0
LAYER
  5
46
330
2
100
AcDbSymbolTableRecord
100
AcDbLayerTableRecord
  2
1
 70
     0
 62
     7
  6
Continuous
370
    -3
390
F
  0
LAYER
  5
47
330
2
100
AcDbSymbolTableRecord
100
AcDbLayerTableRecord
  2
_U_30EC_U_30A4_U_30E4_U_30FC_1
 70
     0
 62
     7
  6
Continuous
370
    -3
390
F
  0
ENDTAB
  0
TABLE
  2
STYLE
  5
3
330
0
100
AcDbSymbolTable
 70
     3
  0
STYLE
  5
11
330
3
100
AcDbSymbolTableRecord
100
AcDbTextStyleTableRecord
  2
Standard
 70
     0
 40
0.0
 41
1.0
 50
0.0
 71
     0
 42
0.2
  3
txt
  4

  0
STYLE
  5
C6
330
3
100
AcDbSymbolTableRecord
100
AcDbTextStyleTableRecord
  2
CONVERTER_11
 70
     0
 40
0.0
 41
0.89
 50
0.0
 71
     0
 42
0.2
  3
MS Mincho.ttf
  4

1001
ACAD
1000
MS Mincho
1071
    32785
  0
STYLE
  5
126
330
3
100
AcDbSymbolTableRecord
100
AcDbTextStyleTableRecord
  2
CONVERTER_12
 70
     0
 40
0.0
 41
0.9
 50
0.0
 71
     0
 42
0.2
  3
txt.shx
  4

  0
ENDTAB
  0
TABLE
  2
VIEW
  5
6
330
0
100
AcDbSymbolTable
 70
     0
  0
ENDTAB
  0
TABLE
  2
UCS
  5
7
330
0
100
AcDbSymbolTable
 70
     0
  0
ENDTAB
  0
TABLE
  2
APPID
  5
9
330
0
100
AcDbSymbolTable
 70
     1
  0
APPID
  5
12
330
9
100
AcDbSymbolTableRecord
100
AcDbRegAppTableRecord
  2
ACAD
 70
     0
  0
ENDTAB
  0
TABLE
  2
DIMSTYLE
  5
A
330
0
100
AcDbSymbolTable
 70
     7
100
AcDbDimStyleTable
  0
DIMSTYLE
105
27
330
A
100
AcDbSymbolTableRecord
100
AcDbDimStyleTableRecord
  2
Standard
 70
     0
178
     0
340
11
  0
DIMSTYLE
105
13F
102
{ACAD_REACTORS
330
140
102
}
330
A
100
AcDbSymbolTableRecord
100
AcDbDimStyleTableRecord
  2
ME10_DIM_10
 70
     0
 41
7.0
 42
0.0
 44
2.0
 73
     0
 74
     0
 77
     1
 78
     8
140
7.0
147
2.0
172
     1
173
     1
174
     1
175
     1
176
     2
177
     2
271
     2
178
     7
271
     2
340
126
  0
DIMSTYLE
105
14C
102
{ACAD_REACTORS
330
14D
102
}
330
A
100
AcDbSymbolTableRecord
100
AcDbDimStyleTableRecord
  2
ME10_DIM_11
 70
     0
 41
7.0
 42
0.0
 44
2.0
 73
     0
 74
     0
 77
     1
 78
     8
140
7.0
147
2.0
172
     1
173
     1
174
     1
175
     1
176
     2
177
     2
271
     2
178
     7
271
     2
340
126
  0
DIMSTYLE
105
159
102
{ACAD_REACTORS
330
15A
102
}
330
A
100
AcDbSymbolTableRecord
100
AcDbDimStyleTableRecord
  2
ME10_DIM_12
 70
     0
 41
7.0
 42
0.0
 44
2.0
 73
     0
 74
     0
 77
     1
 78
     8
140
7.0
147
2.0
172
     1
173
     1
174
     1
175
     1
176
     2
177
     2
271
     2
178
     7
271
     2
340
126
  0
DIMSTYLE
105
166
102
{ACAD_REACTORS
330
167
102
}
330
A
100
AcDbSymbolTableRecord
100
AcDbDimStyleTableRecord
  2
ME10_DIM_13
 70
     0
 41
7.0
 42
0.0
 44
2.0
 73
     0
 74
     0
 77
     1
 78
     8
140
7.0
147
2.0
172
     1
173
     1
174
     1
175
     1
176
     2
177
     2
271
     2
178
     7
271
     2
340
126
  0
DIMSTYLE
105
173
102
{ACAD_REACTORS
330
174
102
}
330
A
100
AcDbSymbolTableRecord
100
AcDbDimStyleTableRecord
  2
ME10_DIM_14
 70
     0
 41
7.0
 42
0.0
 44
2.0
 73
     0
 74
     0
 77
     1
 78
     8
140
7.0
147
2.0
172
     1
173
     1
174
     1
175
     1
176
     2
177
     2
271
     2
178
     7
271
     2
340
126
  0
DIMSTYLE
105
180
102
{ACAD_REACTORS
330
181
102
}
330
A
100
AcDbSymbolTableRecord
100
AcDbDimStyleTableRecord
  2
ME10_DIM_15
 70
     0
 41
7.0
 42
0.0
 44
2.0
 73
     0
 74
     0
 77
     1
 78
     8
140
7.0
147
2.0
172
     1
173
     1
174
     1
175
     1
176
     2
177
     2
271
     2
178
     7
271
     2
340
126
  0
ENDTAB
  0
TABLE
  2
BLOCK_RECORD
  5
1
330
0
100
AcDbSymbolTable
 70
    24
  0
BLOCK_RECORD
  5
1F
330
1
100
AcDbSymbolTableRecord
100
AcDbBlockTableRecord
  2
*Model_Space
340
22
  0
BLOCK_RECORD
  5
1B
330
1
100
AcDbSymbolTableRecord
100
AcDbBlockTableRecord
  2
*Paper_Space
340
1E
  0
BLOCK_RECORD
  5
23
330
1
100
AcDbSymbolTableRecord
100
AcDbBlockTableRecord
  2
*Paper_Space0
340
26
  0
BLOCK_RECORD
  5
48
330
1
100
AcDbSymbolTableRecord
100
AcDbBlockTableRecord
  2
開示A4
340
0
102
{BLKREFS
331
4C
102
}
  0
BLOCK_RECORD
  5
4B
330
1
100
AcDbSymbolTableRecord
100
AcDbBlockTableRecord
  2
開示A4枠
340
0
102
{BLKREFS
331
5E
102
}
  0
BLOCK_RECORD
  5
4F
330
1
100
AcDbSymbolTableRecord
100
AcDbBlockTableRecord
  2
P42-31S-5
340
0
102
{BLKREFS
331
5F
102
}
  0
BLOCK_RECORD
  5
52
330
1
100
AcDbSymbolTableRecord
100
AcDbBlockTableRecord
  2
P42-31S-4
340
0
102
{BLKREFS
331
60
102
}
  0
BLOCK_RECORD
  5
55
330
1
100
AcDbSymbolTableRecord
100
AcDbBlockTableRecord
  2
P42-31S-3
340
0
102
{BLKREFS
331
61
102
}
  0
BLOCK_RECORD
  5
58
330
1
100
AcDbSymbolTableRecord
100
AcDbBlockTableRecord
  2
P42-31S-2
340
0
102
{BLKREFS
331
62
102
}
  0
BLOCK_RECORD
  5
5B
330
1
100
AcDbSymbolTableRecord
100
AcDbBlockTableRecord
  2
P42-31S-1
340
0
102
{BLKREFS
331
63
102
}
  0
BLOCK_RECORD
  5
134
330
1
100
AcDbSymbolTableRecord
100
AcDbBlockTableRecord
  2
*D8
340
0
  0
BLOCK_RECORD
  5
141
330
1
100
AcDbSymbolTableRecord
100
AcDbBlockTableRecord
  2
*D9
340
0
  0
BLOCK_RECORD
  5
14E
330
1
100
AcDbSymbolTableRecord
100
AcDbBlockTableRecord
  2
*D10
340
0
  0
BLOCK_RECORD
  5
15B
330
1
100
AcDbSymbolTableRecord
100
AcDbBlockTableRecord
  2
*D11
340
0
  0
BLOCK_RECORD
  5
168
330
1
100
AcDbSymbolTableRecord
100
AcDbBlockTableRecord
  2
*D12
340
0
  0
BLOCK_RECORD
  5
175
330
1
100
AcDbSymbolTableRecord
100
AcDbBlockTableRecord
  2
*D13
340
0
  0
BLOCK_RECORD
  5
182
330
1
100
AcDbSymbolTableRecord
100
AcDbBlockTableRecord
  2
*D14
340
0
102
{BLKREFS
331
189
102
}
  0
BLOCK_RECORD
  5
18A
330
1
100
AcDbSymbolTableRecord
100
AcDbBlockTableRecord
  2
*D15
340
0
102
{BLKREFS
331
191
102
}
  0
BLOCK_RECORD
  5
192
330
1
100
AcDbSymbolTableRecord
100
AcDbBlockTableRecord
  2
*D16
340
0
102
{BLKREFS
331
199
102
}
  0
BLOCK_RECORD
  5
19A
330
1
100
AcDbSymbolTableRecord
100
AcDbBlockTableRecord
  2
*D17
340
0
102
{BLKREFS
331
1A1
102
}
  0
BLOCK_RECORD
  5
1A2
330
1
100
AcDbSymbolTableRecord
100
AcDbBlockTableRecord
  2
*D18
340
0
102
{BLKREFS
331
1A9
102
}
  0
BLOCK_RECORD
  5
1AA
330
1
100
AcDbSymbolTableRecord
100
AcDbBlockTableRecord
  2
*D19
340
0
102
{BLKREFS
331
1B3
102
}
  0
BLOCK_RECORD
  5
1B4
330
1
100
AcDbSymbolTableRecord
100
AcDbBlockTableRecord
  2
*D20
340
0
102
{BLKREFS
331
1BD
102
}
  0
BLOCK_RECORD
  5
1BE
330
1
100
AcDbSymbolTableRecord
100
AcDbBlockTableRecord
  2
*D21
340
0
102
{BLKREFS
331
1C7
102
}
  0
BLOCK_RECORD
  5
1C8
330
1
100
AcDbSymbolTableRecord
100
AcDbBlockTableRecord
  2
*D22
340
0
102
{BLKREFS
331
1D1
102
}
  0
BLOCK_RECORD
  5
1D2
330
1
100
AcDbSymbolTableRecord
100
AcDbBlockTableRecord
  2
*D23
340
0
102
{BLKREFS
331
1DB
102
}
  0
ENDTAB
  0
ENDSEC
  0
SECTION
  2
BLOCKS
  0
BLOCK
  5
20
330
1F
100
AcDbEntity
  8
0
100
AcDbBlockBegin
  2
*Model_Space
 70
     0
 10
0.0
 20
0.0
 30
0.0
  3
*Model_Space
  1

  0
ENDBLK
  5
21
330
1F
100
AcDbEntity
  8
0
100
AcDbBlockEnd
  0
BLOCK
  5
1C
330
1B
100
AcDbEntity
 67
     1
  8
0
100
AcDbBlockBegin
  2
*Paper_Space
 70
     0
 10
0.0
 20
0.0
 30
0.0
  3
*Paper_Space
  1

  0
ENDBLK
  5
1D
330
1B
100
AcDbEntity
 67
     1
  8
0
100
AcDbBlockEnd
  0
BLOCK
  5
24
330
23
100
AcDbEntity
  8
0
100
AcDbBlockBegin
  2
*Paper_Space0
 70
     0
 10
0.0
 20
0.0
 30
0.0
  3
*Paper_Space0
  1

  0
ENDBLK
  5
25
330
23
100
AcDbEntity
  8
0
100
AcDbBlockEnd
  0
BLOCK
  5
49
330
48
100
AcDbEntity
  8
0
100
AcDbBlockBegin
  2
開示A4
 70
     0
 10
0.0
 20
0.0
 30
0.0
  3
開示A4
  1

  0
POINT
  5
64
330
48
100
AcDbEntity
  8
1
 62
     4
100
AcDbPoint
 10
182.9999999999999
 20
15.00000000000001
 30
0.0
  0
POINT
  5
65
330
48
100
AcDbEntity
  8
1
 62
     4
100
AcDbPoint
 10
93.74999999999994
 20
17.0
 30
0.0
  0
POINT
  5
66
330
48
100
AcDbEntity
  8
1
 62
     4
100
AcDbPoint
 10
85.24999999999997
 20
17.0
 30
0.0
  0
POINT
  5
67
330
48
100
AcDbEntity
  8
1
 62
     4
100
AcDbPoint
 10
106.4999999999999
 20
19.00000000000001
 30
0.0
  0
POINT
  5
68
330
48
100
AcDbEntity
  8
1
 62
     4
100
AcDbPoint
 10
106.4999999999999
 20
12.5
 30
0.0
  0
POINT
  5
69
330
48
100
AcDbEntity
  8
1
 62
     4
100
AcDbPoint
 10
112.2499999999999
 20
12.5
 30
0.0
  0
POINT
  5
6A
330
48
100
AcDbEntity
  8
1
 62
     4
100
AcDbPoint
 10
100.7499999999999
 20
12.5
 30
0.0
  0
POINT
  5
6B
330
48
100
AcDbEntity
  8
1
 62
     4
100
AcDbPoint
 10
123.4999999999999
 20
19.00000000000001
 30
0.0
  0
POINT
  5
6C
330
48
100
AcDbEntity
  8
1
 62
     4
100
AcDbPoint
 10
123.4999999999999
 20
12.5
 30
0.0
  0
POINT
  5
6D
330
48
100
AcDbEntity
  8
1
 62
     4
100
AcDbPoint
 10
129.2499999999999
 20
12.5
 30
0.0
  0
POINT
  5
6E
330
48
100
AcDbEntity
  8
1
 62
     4
100
AcDbPoint
 10
117.7499999999999
 20
12.5
 30
0.0
  0
POINT
  5
6F
330
48
100
AcDbEntity
  8
1
 62
     4
100
AcDbPoint
 10
140.4999999999999
 20
19.00000000000001
 30
0.0
  0
POINT
  5
70
330
48
100
AcDbEntity
  8
1
 62
     4
100
AcDbPoint
 10
140.4999999999999
 20
12.5
 30
0.0
  0
POINT
  5
71
330
48
100
AcDbEntity
  8
1
 62
     4
100
AcDbPoint
 10
146.2499999999999
 20
12.5
 30
0.0
  0
POINT
  5
72
330
48
100
AcDbEntity
  8
1
 62
     4
100
AcDbPoint
 10
134.7499999999999
 20
12.5
 30
0.0
  0
POINT
  5
73
330
48
100
AcDbEntity
  8
1
 62
     4
100
AcDbPoint
 10
151.7499999999999
 20
12.5
 30
0.0
  0
POINT
  5
74
330
48
100
AcDbEntity
  8
1
 62
     4
100
AcDbPoint
 10
163.2499999999999
 20
12.5
 30
0.0
  0
POINT
  5
75
330
48
100
AcDbEntity
  8
1
 62
     4
100
AcDbPoint
 10
157.4999999999999
 20
12.5
 30
0.0
  0
POINT
  5
76
330
48
100
AcDbEntity
  8
1
 62
     4
100
AcDbPoint
 10
56.99999999999997
 20
14.25
 30
0.0
  0
POINT
  5
77
330
48
100
AcDbEntity
  8
1
 62
     4
100
AcDbPoint
 10
56.99999999999997
 20
22.75000000000001
 30
0.0
  0
POINT
  5
78
330
48
100
AcDbEntity
  8
1
 62
     4
100
AcDbPoint
 10
47.49999999999997
 20
282.0000000000003
 30
0.0
  0
POINT
  5
79
330
48
100
AcDbEntity
  8
1
 62
     4
100
AcDbPoint
 10
157.4999999999999
 20
19.00000000000001
 30
0.0
  0
POINT
  5
7A
330
48
100
AcDbEntity
  8
1
 62
     4
100
AcDbPoint
 10
56.99999999999997
 20
16.25
 30
0.0
  0
POINT
  5
7B
330
48
100
AcDbEntity
  8
1
 62
     4
100
AcDbPoint
 10
56.99999999999997
 20
24.75000000000001
 30
0.0
  0
POINT
  5
7C
330
48
100
AcDbEntity
  8
1
 62
     4
100
AcDbPoint
 10
56.99999999999997
 20
20.75000000000001
 30
0.0
  0
POINT
  5
7D
330
48
100
AcDbEntity
  8
1
 62
     4
100
AcDbPoint
 10
56.99999999999997
 20
12.25
 30
0.0
  0
POINT
  5
7E
330
48
100
AcDbEntity
  8
1
 62
     4
100
AcDbPoint
 10
33.99999999999997
 20
34.00000000000001
 30
0.0
  0
LINE
  5
83
330
48
100
AcDbEntity
  8
1
  6
Continuous
 62
     7
100
AcDbLine
 10
104.9999999999999
 20
10.0
 30
0.0
 11
199.9999999999999
 21
10.0
 31
0.0
  0
LINE
  5
84
330
48
100
AcDbEntity
  8
1
  6
Continuous
 62
     2
100
AcDbLine
 10
104.9999999999999
 20
10.0
 30
0.0
 11
104.9999999999999
 21
5.0
 31
0.0
  0
LINE
  5
85
330
48
100
AcDbEntity
  8
1
  6
Continuous
 62
     7
100
AcDbLine
 10
199.9999999999999
 20
148.5
 30
0.0
 11
199.9999999999999
 21
287.0000000000003
 31
0.0
  0
LINE
  5
86
330
48
100
AcDbEntity
  8
1
  6
Continuous
 62
     2
100
AcDbLine
 10
199.9999999999999
 20
148.5
 30
0.0
 11
204.9999999999999
 21
148.5
 31
0.0
  0
LINE
  5
87
330
48
100
AcDbEntity
  8
1
  6
Continuous
 62
     7
100
AcDbLine
 10
24.99999999999997
 20
148.5
 30
0.0
 11
24.99999999999997
 21
287.0000000000003
 31
0.0
  0
LINE
  5
88
330
48
100
AcDbEntity
  8
1
  6
Continuous
 62
     2
100
AcDbLine
 10
24.99999999999997
 20
148.5
 30
0.0
 11
19.99999999999997
 21
148.5
 31
0.0
  0
LINE
  5
89
330
48
100
AcDbEntity
  8
1
  6
Continuous
 62
     7
100
AcDbLine
 10
104.9999999999999
 20
287.0000000000003
 30
0.0
 11
24.99999999999997
 21
287.0000000000003
 31
0.0
  0
LINE
  5
8A
330
48
100
AcDbEntity
  8
1
  6
Continuous
 62
     2
100
AcDbLine
 10
104.9999999999999
 20
287.0000000000003
 30
0.0
 11
104.9999999999999
 21
292.0000000000003
 31
0.0
  0
LINE
  5
8B
330
48
100
AcDbEntity
  8
1
  6
Continuous
 62
     2
100
AcDbLine
 10
165.9999999999999
 20
20.00000000000001
 30
0.0
 11
199.9999999999999
 21
20.00000000000001
 31
0.0
  0
LINE
  5
8C
330
48
100
AcDbEntity
  8
1
  6
Continuous
 62
     2
100
AcDbLine
 10
97.99999999999994
 20
27.00000000000001
 30
0.0
 11
97.99999999999994
 21
10.0
 31
0.0
  0
LINE
  5
8D
330
48
100
AcDbEntity
  8
1
  6
Continuous
 62
     2
100
AcDbLine
 10
114.9999999999999
 20
27.00000000000001
 30
0.0
 11
114.9999999999999
 21
9.99999999999999
 31
0.0
  0
LINE
  5
8E
330
48
100
AcDbEntity
  8
1
  6
Continuous
 62
     2
100
AcDbLine
 10
148.9999999999999
 20
27.00000000000001
 30
0.0
 11
148.9999999999999
 21
10.0
 31
0.0
  0
LINE
  5
8F
330
48
100
AcDbEntity
  8
1
  6
Continuous
 62
     2
100
AcDbLine
 10
131.9999999999999
 20
27.00000000000001
 30
0.0
 11
131.9999999999999
 21
9.99999999999999
 31
0.0
  0
LINE
  5
90
330
48
100
AcDbEntity
  8
1
  6
Continuous
 62
     2
100
AcDbLine
 10
165.9999999999999
 20
27.00000000000001
 30
0.0
 11
165.9999999999999
 21
10.0
 31
0.0
  0
LINE
  5
91
330
48
100
AcDbEntity
  8
1
  6
Continuous
 62
     2
100
AcDbLine
 10
54.99999999999997
 20
277.0000000000003
 30
0.0
 11
24.99999999999997
 21
277.0000000000003
 31
0.0
  0
LINE
  5
92
330
48
100
AcDbEntity
  8
1
  6
Continuous
 62
     7
100
AcDbLine
 10
24.99999999999997
 20
10.0
 30
0.0
 11
24.99999999999997
 21
148.5
 31
0.0
  0
LINE
  5
93
330
48
100
AcDbEntity
  8
1
  6
Continuous
 62
     2
100
AcDbLine
 10
39.99999999999997
 20
287.0000000000003
 30
0.0
 11
39.99999999999997
 21
277.0000000000003
 31
0.0
  0
LINE
  5
94
330
48
100
AcDbEntity
  8
1
  6
Continuous
 62
     2
100
AcDbLine
 10
54.99999999999997
 20
287.0000000000003
 30
0.0
 11
54.99999999999997
 21
277.0000000000003
 31
0.0
  0
LINE
  5
95
330
48
100
AcDbEntity
  8
1
  6
Continuous
 62
     2
100
AcDbLine
 10
32.99999999999997
 20
41.00000000000001
 30
0.0
 11
32.99999999999997
 21
27.0
 31
0.0
  0
LINE
  5
96
330
48
100
AcDbEntity
  8
1
  6
Continuous
 62
     7
100
AcDbLine
 10
199.9999999999999
 20
27.00000000000001
 30
0.0
 11
24.99999999999997
 21
27.00000000000001
 31
0.0
  0
LINE
  5
97
330
48
100
AcDbEntity
  8
1
  6
Continuous
 62
     7
100
AcDbLine
 10
24.99999999999997
 20
41.0
 30
0.0
 11
199.9999999999999
 21
41.0
 31
0.0
  0
LINE
  5
98
330
48
100
AcDbEntity
  8
1
  6
PHANTOM
 62
     4
100
AcDbLine
 10
0.0
 20
0.0
 30
0.0
 11
209.9999999999999
 21
0.0
 31
0.0
  0
LINE
  5
99
330
48
100
AcDbEntity
  8
1
  6
PHANTOM
 62
     4
100
AcDbLine
 10
209.9999999999999
 20
0.0
 30
0.0
 11
209.9999999999999
 21
297.0
 31
0.0
  0
LINE
  5
9A
330
48
100
AcDbEntity
  8
1
  6
PHANTOM
 62
     4
100
AcDbLine
 10
209.9999999999999
 20
297.0
 30
0.0
 11
0.0
 21
297.0
 31
0.0
  0
LINE
  5
9B
330
48
100
AcDbEntity
  8
1
  6
PHANTOM
 62
     4
100
AcDbLine
 10
0.0
 20
297.0
 30
0.0
 11
0.0
 21
0.0
 31
0.0
  0
LINE
  5
9C
330
48
100
AcDbEntity
  8
1
  6
Continuous
 62
     7
100
AcDbLine
 10
24.99999999999997
 20
10.0
 30
0.0
 11
104.9999999999999
 21
10.0
 31
0.0
  0
LINE
  5
9D
330
48
100
AcDbEntity
  8
1
  6
Continuous
 62
     7
100
AcDbLine
 10
199.9999999999999
 20
10.0
 30
0.0
 11
199.9999999999999
 21
148.5
 31
0.0
  0
LINE
  5
9E
330
48
100
AcDbEntity
  8
1
  6
Continuous
 62
     7
100
AcDbLine
 10
199.9999999999999
 20
287.0000000000003
 30
0.0
 11
104.9999999999999
 21
287.0000000000003
 31
0.0
  0
LINE
  5
9F
330
48
100
AcDbEntity
  8
1
  6
Continuous
 62
     2
100
AcDbLine
 10
24.99999999999997
 20
18.50000000000001
 30
0.0
 11
80.99999999999997
 21
18.50000000000001
 31
0.0
  0
LINE
  5
A0
330
48
100
AcDbEntity
  8
1
  6
Continuous
 62
     2
100
AcDbLine
 10
32.99999999999997
 20
27.0
 30
0.0
 11
32.99999999999997
 21
10.0
 31
0.0
  0
LINE
  5
A1
330
48
100
AcDbEntity
  8
1
  6
Continuous
 62
     7
100
AcDbLine
 10
190.9999999999999
 20
24.70000000000001
 30
0.0
 11
190.9999999999999
 21
22.30000000000001
 31
0.0
  0
LINE
  5
A2
330
48
100
AcDbEntity
  8
1
  6
Continuous
 62
     7
100
AcDbLine
 10
190.9999999999999
 20
24.70000000000001
 30
0.0
 11
195.9999999999999
 21
25.50000000000001
 31
0.0
  0
LINE
  5
A3
330
48
100
AcDbEntity
  8
1
  6
Continuous
 62
     7
100
AcDbLine
 10
195.9999999999999
 20
25.50000000000001
 30
0.0
 11
195.9999999999999
 21
21.50000000000001
 31
0.0
  0
LINE
  5
A4
330
48
100
AcDbEntity
  8
1
  6
Continuous
 62
     7
100
AcDbLine
 10
195.9999999999999
 20
21.50000000000001
 30
0.0
 11
190.9999999999999
 21
22.30000000000001
 31
0.0
  0
LINE
  5
A5
330
48
100
AcDbEntity
  8
1
  6
DOT_CENTER
 62
     2
100
AcDbLine
 10
183.9999999999999
 20
23.50000000000001
 30
0.0
 11
196.9999999999999
 21
23.50000000000001
 31
0.0
  0
LINE
  5
A6
330
48
100
AcDbEntity
  8
1
  6
DOT_CENTER
 62
     2
100
AcDbLine
 10
186.9999999999999
 20
26.50000000000001
 30
0.0
 11
186.9999999999999
 21
20.50000000000001
 31
0.0
  0
LINE
  5
A7
330
48
100
AcDbEntity
  8
1
  6
Continuous
 62
     2
100
AcDbLine
 10
80.99999999999997
 20
27.00000000000001
 30
0.0
 11
80.99999999999997
 21
10.0
 31
0.0
  0
CIRCLE
  5
A8
330
48
100
AcDbEntity
  8
1
  6
Continuous
 62
     7
100
AcDbCircle
 10
103.4999999999999
 20
12.5
 30
0.0
 40
0.2999999999999972
  0
CIRCLE
  5
A9
330
48
100
AcDbEntity
  8
1
  6
Continuous
 62
     7
100
AcDbCircle
 10
109.4999999999999
 20
12.5
 30
0.0
 40
0.2999999999999972
  0
CIRCLE
  5
AA
330
48
100
AcDbEntity
  8
1
  6
Continuous
 62
     7
100
AcDbCircle
 10
120.4999999999999
 20
12.5
 30
0.0
 40
0.3000000000000966
  0
CIRCLE
  5
AB
330
48
100
AcDbEntity
  8
1
  6
Continuous
 62
     7
100
AcDbCircle
 10
126.4999999999999
 20
12.5
 30
0.0
 40
0.3000000000000966
  0
CIRCLE
  5
AC
330
48
100
AcDbEntity
  8
1
  6
Continuous
 62
     7
100
AcDbCircle
 10
137.4999999999999
 20
12.5
 30
0.0
 40
0.3000000000001251
  0
CIRCLE
  5
AD
330
48
100
AcDbEntity
  8
1
  6
Continuous
 62
     7
100
AcDbCircle
 10
143.4999999999999
 20
12.5
 30
0.0
 40
0.3000000000001251
  0
CIRCLE
  5
AE
330
48
100
AcDbEntity
  8
1
  6
Continuous
 62
     7
100
AcDbCircle
 10
160.4999999999999
 20
12.5
 30
0.0
 40
0.3000000000001251
  0
CIRCLE
  5
AF
330
48
100
AcDbEntity
  8
1
  6
Continuous
 62
     7
100
AcDbCircle
 10
154.4999999999999
 20
12.5
 30
0.0
 40
0.3000000000001251
  0
CIRCLE
  5
B0
330
48
100
AcDbEntity
  8
1
  6
Continuous
 62
     7
100
AcDbCircle
 10
186.9999999999999
 20
23.50000000000001
 30
0.0
 40
1.200000000000216
  0
CIRCLE
  5
B1
330
48
100
AcDbEntity
  8
1
  6
Continuous
 62
     7
100
AcDbCircle
 10
186.9999999999999
 20
23.50000000000001
 30
0.0
 40
2.0
  0
CIRCLE
  5
B2
330
48
100
AcDbEntity
  8
1
  6
DOT_CENTER
 62
     7
100
AcDbCircle
 10
89.49999999999994
 20
16.0
 30
0.0
 40
0.1000000000000938
  0
CIRCLE
  5
B3
330
48
100
AcDbEntity
  8
1
  6
DOT_CENTER
 62
     7
100
AcDbCircle
 10
89.49999999999994
 20
18.0
 30
0.0
 40
0.1000000000000938
  0
SPLINE
  5
B4
102
{ACAD_REACTORS
330
D3
102
}
330
48
100
AcDbEntity
  8
_U_30EC_U_30A4_U_30E4_U_30FC_1
  6
Continuous
 62
     2
100
AcDbSpline
210
0.0
220
0.0
230
1.0
 70
     8
 71
     3
 72
    24
 73
    20
 74
    18
 42
0.000000001
 43
0.0000000001
 44
0.00000001
 40
0.0
 40
0.0
 40
0.0
 40
0.0
 40
0.2211075008754179
 40
0.4273218586245272
 40
0.5080174679239796
 40
0.5914835907871183
 40
0.81432656901937
 40
1.054651302686683
 40
1.295452694023272
 40
1.518109231328923
 40
1.540864321905538
 40
1.595126460622799
 40
1.659890947896113
 40
1.714153085187471
 40
1.736908174961771
 40
1.764951100735458
 40
1.801562291221048
 40
1.95391442454373
 40
2.126104167379792
 40
2.126104167379792
 40
2.126104167379792
 40
2.126104167379792
 10
185.937536955689
 20
15.58989295113016
 30
0.0
 10
185.9112579081812
 20
15.53097628234374
 30
0.0
 10
185.8604698894424
 20
15.4171113967926
 30
0.0
 10
185.8131784839113
 20
15.14441958233116
 30
0.0
 10
185.7043482802618
 20
15.24445482575456
 30
0.0
 10
185.5514800279637
 20
15.27118593367327
 30
0.0
 10
185.7686155181198
 20
15.48518135017633
 30
0.0
 10
185.7838483674381
 20
15.70332117782487
 30
0.0
 10
185.8906889492001
 20
15.88451579066426
 30
0.0
 10
185.8305380947077
 20
16.16913226311402
 30
0.0
 10
185.9334317395402
 20
16.14114089222451
 30
0.0
 10
185.977993346815
 20
16.13243251602299
 30
0.0
 10
186.0380842395397
 20
16.12139654183355
 30
0.0
 10
186.0756619587438
 20
16.10767523055559
 30
0.0
 10
186.1252466928606
 20
16.10756076160223
 30
0.0
 10
186.0930158919325
 20
16.07306592398623
 30
0.0
 10
186.0171802221881
 20
16.08404104537964
 30
0.0
 10
186.0429447159692
 20
15.89858969582452
 30
0.0
 10
186.0055896763849
 20
15.8070231354959
 30
0.0
 10
185.9857704961609
 20
15.75844135397706
 30
0.0
 11
185.937536955689
 21
15.58989295113016
 31
0.0
 11
185.8616471328552
 21
15.38221708318559
 31
0.0
 11
185.7717402238434
 21
15.19663392356192
 31
0.0
 11
185.701149392311
 21
15.23573272563551
 31
0.0
 11
185.6245525192651
 21
15.26889163187719
 31
0.0
 11
185.7214026947455
 21
15.46958801203538
 31
0.0
 11
185.7994641467471
 21
15.69688163177024
 31
0.0
 11
185.858971692972
 21
15.93021436608692
 31
0.0
 11
185.9001601511226
 21
16.14902808999054
 31
0.0
 11
185.9224183822214
 21
16.14429889221395
 31
0.0
 11
185.975495702534
 21
16.13302157443899
 31
0.0
 11
186.0388460525844
 21
16.11956154999792
 31
0.0
 11
186.091923372897
 21
16.10828423222296
 31
0.0
 11
186.1141816039958
 21
16.10355503444637
 31
0.0
 11
186.096409715746
 21
16.0818625084101
 31
0.0
 11
186.0606122998071
 21
16.07418628445367
 31
0.0
 11
186.0281953301479
 21
15.92532288171314
 31
0.0
 11
185.9857704961609
 21
15.75844135397706
 31
0.0
  0
SPLINE
  5
B5
102
{ACAD_REACTORS
330
D3
102
}
330
48
100
AcDbEntity
  8
_U_30EC_U_30A4_U_30E4_U_30FC_1
  6
Continuous
 62
     2
100
AcDbSpline
210
0.0
220
0.0
230
1.0
 70
     8
 71
     3
 72
    70
 73
    66
 74
    64
 42
0.000000001
 43
0.0000000001
 44
0.00000001
 40
0.0
 40
0.0
 40
0.0
 40
0.0
 40
0.0241731073021472
 40
0.0846058988987582
 40
0.1631685280353852
 40
0.2417311571790608
 40
0.302163948829332
 40
0.3263370654896678
 40
0.3533118254250018
 40
0.422878343892323
 40
0.5179999095314504
 40
0.6216398239467168
 40
0.7167613891500736
 40
0.7863279069650894
 40
0.8133026791762866
 40
0.8372943998772704
 40
0.8945054261373332
 40
0.9627895541962819
 40
1.020000580349063
 40
1.043992300975161
 40
1.071934345522874
 40
1.113121768772914
 40
1.145225199332239
 40
1.22548377541277
 40
1.329819923771477
 40
1.434156071994367
 40
1.514414647795783
 40
1.546518078208391
 40
1.578974764260164
 40
1.662678849314159
 40
1.77713137366838
 40
1.901833377474771
 40
2.016285900500561
 40
2.099989982527928
 40
2.132446666570286
 40
2.15878235448601
 40
2.216720867907799
 40
2.274659381334224
 40
2.300995069256156
 40
2.333451754066128
 40
2.417155836543809
 40
2.531608358985248
 40
2.656310362283743
 40
2.770762886388876
 40
2.854466971340041
 40
2.886923657363848
 40
2.913597976833282
 40
2.982389642875084
 40
3.07645171694695
 40
3.178937260458562
 40
3.272999334739967
 40
3.34179100105919
 40
3.368465320663503
 40
3.396976080738753
 40
3.472140811845989
 40
3.578408190308678
 40
3.700226892456143
 40
3.822045594634389
 40
3.928312973256524
 40
4.003477705314921
 40
4.031988456866987
 40
4.058324144797787
 40
4.116262658236952
 40
4.174201171400755
 40
4.200536849608689
 40
4.200536849608689
 40
4.200536849608689
 40
4.200536849608689
 10
185.9857704961609
 20
15.75844135397706
 30
0.0
 10
185.9938259544679
 20
15.75844359811688
 30
0.0
 10
186.0220200663241
 20
15.75845146032798
 30
0.0
 10
186.0765534803673
 20
15.75830754828373
 30
0.0
 10
186.1482891808604
 20
15.75909120499899
 30
0.0
 10
186.2236240137063
 20
15.75627570463811
 30
0.0
 10
186.2713052366439
 20
15.76298403400958
 30
0.0
 10
186.3195071245617
 20
15.75197563692432
 30
0.0
 10
186.3062571799874
 20
15.80546402997033
 30
0.0
 10
186.3151093964539
 20
15.86049583543092
 30
0.0
 10
186.3108698036286
 20
15.95419908726109
 30
0.0
 10
186.3133483481281
 20
16.04959482218533
 30
0.0
 10
186.3090938706061
 20
16.14356821983387
 30
0.0
 10
186.3179818665847
 20
16.19795062438012
 30
0.0
 10
186.3046977409946
 20
16.2523399769146
 30
0.0
 10
186.351411927711
 20
16.23842216335358
 30
0.0
 10
186.3943254545738
 20
16.24103877374043
 30
0.0
 10
186.4605443456686
 20
16.23648422450755
 30
0.0
 10
186.5013342271798
 20
16.22778162134161
 30
0.0
 10
186.5525145690818
 20
16.23531799890196
 30
0.0
 10
186.5253720487201
 20
16.19349970223283
 30
0.0
 10
186.4803096055707
 20
16.20284992072598
 30
0.0
 10
186.4942065045051
 20
16.13841207371837
 30
0.0
 10
186.4858414431653
 20
16.07378219627399
 30
0.0
 10
186.4903632178398
 20
15.97529141193888
 30
0.0
 10
186.4854741311167
 20
15.87595932842571
 30
0.0
 10
186.4950258992082
 20
15.81293115552969
 30
0.0
 10
186.47997614552
 20
15.7496401149979
 30
0.0
 10
186.5449159457208
 20
15.7651507294427
 30
0.0
 10
186.6116246399497
 20
15.75499387697813
 30
0.0
 10
186.7241435470827
 20
15.75988800099368
 30
0.0
 10
186.8390235448954
 20
15.75691204732785
 30
0.0
 10
186.9519871999746
 20
15.76221664184991
 30
0.0
 10
187.0176267597678
 20
15.7510730647209
 30
0.0
 10
187.0816276691053
 20
15.76744532319858
 30
0.0
 10
187.0703142889189
 20
15.71761689905276
 30
0.0
 10
187.0775339871509
 20
15.67416715212124
 30
0.0
 10
187.070314261127
 20
15.63071745587446
 30
0.0
 10
187.0816277175994
 20
15.58088895196877
 30
0.0
 10
187.0176263598972
 20
15.59726166091363
 30
0.0
 10
186.9519921240459
 20
15.5861127166159
 30
0.0
 10
186.838997431733
 20
15.59144857206855
 30
0.0
 10
186.7242456548644
 20
15.58834345663823
 30
0.0
 10
186.611318368686
 20
15.59364894682589
 30
0.0
 10
186.5455220903585
 20
15.58257300019595
 30
0.0
 10
186.4816097975358
 20
15.59887597847619
 30
0.0
 10
186.4936015165126
 20
15.54423524395742
 30
0.0
 10
186.4862104613005
 20
15.48854295047843
 30
0.0
 10
186.4892684841983
 20
15.39649689140571
 30
0.0
 10
186.4893422785683
 20
15.30179109873102
 30
0.0
 10
186.486031357836
 20
15.20952782902266
 30
0.0
 10
186.4939505989904
 20
15.15435768736141
 30
0.0
 10
186.4815076611617
 20
15.10058169100136
 30
0.0
 10
186.5389116551632
 20
15.11453768862783
 30
0.0
 10
186.5994708140383
 20
15.10511457884227
 30
0.0
 10
186.7048680855081
 20
15.10942885928705
 30
0.0
 10
186.8204294070623
 20
15.10835504612032
 30
0.0
 10
186.9359688877798
 20
15.10725965900995
 30
0.0
 10
187.0414181130841
 20
15.11162525770633
 30
0.0
 10
187.1018680471805
 20
15.10209426030672
 30
0.0
 10
187.1592837739111
 20
15.1161728960638
 30
0.0
 10
187.1477773876711
 20
15.06707153265684
 30
0.0
 10
187.153756678175
 20
15.02564658018649
 30
0.0
 10
187.1520311050804
 20
14.97651677966696
 30
0.0
 10
187.1521500122972
 20
14.94854428447608
 30
0.0
 10
187.1521871691834
 20
14.9398028819595
 30
0.0
 11
185.9857704961609
 21
15.75844135397706
 31
0.0
 11
186.0099436128282
 21
15.75844135397706
 31
0.0
 11
186.0703764044963
 21
15.75844135397706
 31
0.0
 11
186.1489390336649
 21
15.75844135397706
 31
0.0
 11
186.2275016628334
 21
15.75844135397706
 31
0.0
 11
186.2879344545015
 21
15.75844135397706
 31
0.0
 11
186.3121075711688
 21
15.75844135397706
 31
0.0
 11
186.3121075711688
 21
15.78541612620064
 31
0.0
 11
186.3121075711688
 21
15.8549826440404
 31
0.0
 11
186.3121075711688
 21
15.95010420924986
 31
0.0
 11
186.3121075711688
 21
16.05374412358256
 31
0.0
 11
186.3121075711688
 21
16.14886568879202
 31
0.0
 11
186.3121075711688
 21
16.21843220663178
 31
0.0
 11
186.3121075711688
 21
16.24540697885536
 31
0.0
 11
186.3360407604893
 21
16.243732131078
 31
0.0
 11
186.3931122119458
 21
16.23973826330121
 31
0.0
 11
186.4612297507811
 21
16.23497138885795
 31
0.0
 11
186.5183012022376
 21
16.23097752108117
 31
0.0
 11
186.5422343915581
 21
16.22930267330381
 31
0.0
 11
186.527497273123
 21
16.20556293372641
 31
0.0
 11
186.4886640249976
 21
16.19183767331312
 31
0.0
 11
186.4886640249976
 21
16.15973424225119
 31
0.0
 11
186.4886640249976
 21
16.07947566459637
 31
0.0
 11
186.4886640249976
 21
15.97513951364509
 31
0.0
 11
186.4886640249976
 21
15.87080336269381
 31
0.0
 11
186.4886640249976
 21
15.79054478503899
 31
0.0
 11
186.4886640249976
 21
15.75844135397706
 31
0.0
 11
186.5211207110824
 21
15.75844135397706
 31
0.0
 11
186.6048247962486
 21
15.75844135397706
 31
0.0
 11
186.7192773208634
 21
15.75844135397706
 31
0.0
 11
186.8439793252946
 21
15.75844135397706
 31
0.0
 11
186.9584318499095
 21
15.75844135397706
 31
0.0
 11
187.0421359350756
 21
15.75844135397706
 31
0.0
 11
187.0745926211604
 21
15.75844135397706
 31
0.0
 11
187.0745926211604
 21
15.73210566604962
 31
0.0
 11
187.0745926211604
 21
15.67416715260926
 31
0.0
 11
187.0745926211604
 21
15.61622863916889
 31
0.0
 11
187.0745926211604
 21
15.58989295124145
 31
0.0
 11
187.0421359350756
 21
15.58989295124145
 31
0.0
 11
186.9584318499095
 21
15.58989295124145
 31
0.0
 11
186.8439793252946
 21
15.58989295124145
 31
0.0
 11
186.7192773208634
 21
15.58989295124145
 31
0.0
 11
186.6048247962485
 21
15.58989295124145
 31
0.0
 11
186.5211207110824
 21
15.58989295124145
 31
0.0
 11
186.4886640249976
 21
15.58989295124145
 31
0.0
 11
186.4886640249976
 21
15.56321863152023
 31
0.0
 11
186.4886640249976
 21
15.49442696487076
 31
0.0
 11
186.4886640249976
 21
15.40036489006435
 31
0.0
 11
186.4886640249976
 21
15.29787934587229
 31
0.0
 11
186.4886640249976
 21
15.20381727106587
 31
0.0
 11
186.4886640249976
 21
15.1350256044164
 31
0.0
 11
186.4886640249976
 21
15.10835128469518
 31
0.0
 11
186.5171747850993
 21
15.10835128469518
 31
0.0
 11
186.5923395162767
 21
15.10835128469518
 31
0.0
 11
186.6986068948376
 21
15.10835128469518
 31
0.0
 11
186.8204255970905
 21
15.10835128469518
 31
0.0
 11
186.9422442993434
 21
15.10835128469518
 31
0.0
 11
187.0485116779044
 21
15.10835128469518
 31
0.0
 11
187.1236764090817
 21
15.10835128469518
 31
0.0
 11
187.1521871691834
 21
15.10835128469518
 31
0.0
 11
187.1521871691834
 21
15.08201559676773
 31
0.0
 11
187.1521871691834
 21
15.02407708332734
 31
0.0
 11
187.1521871691834
 21
14.96613856988695
 31
0.0
 11
187.1521871691834
 21
14.9398028819595
 31
0.0
  0
SPLINE
  5
B6
102
{ACAD_REACTORS
330
D3
102
}
330
48
100
AcDbEntity
  8
_U_30EC_U_30A4_U_30E4_U_30FC_1
  6
Continuous
 62
     2
100
AcDbSpline
210
0.0
220
0.0
230
1.0
 70
     8
 71
     3
 72
    62
 73
    58
 74
    56
 42
0.000000001
 43
0.0000000001
 44
0.00000001
 40
0.0
 40
0.0
 40
0.0
 40
0.0
 40
0.0598250028309053
 40
0.2024846486898184
 40
0.3727558389222168
 40
0.5154154847937491
 40
0.5752404975787329
 40
0.9332326775489372
 40
1.290451762839704
 40
1.602077253146128
 40
1.699931634112398
 40
1.799359756425303
 40
2.270120149657342
 40
2.804661928461802
 40
2.882342287383515
 40
3.076543185719363
 40
3.329004354835821
 40
3.581465524568645
 40
3.775666424543927
 40
3.853346784558547
 40
3.899120679595293
 40
3.984129341792177
 40
4.029903236817526
 40
4.10579749605968
 40
4.29553314415264
 40
4.542189486611885
 40
4.788845828875833
 40
4.978581476410217
 40
5.05447573524446
 40
5.621734664339511
 40
6.130867242037561
 40
6.225249780948819
 40
6.318913039727549
 40
6.663579954559244
 40
7.047498900225077
 40
7.43523079157597
 40
7.498943906668353
 40
7.650875181210347
 40
7.832212509001801
 40
7.984143783697187
 40
8.047856898903314
 40
8.091554632732823
 40
8.172707566964485
 40
8.21640530076821
 40
8.289021782161095
 40
8.462184160757468
 40
8.668861838005634
 40
8.842024215264226
 40
8.91464069547545
 40
8.989881580861658
 40
9.155411528827564
 40
9.320941477744347
 40
9.3961823524876
 40
9.45470901114409
 40
9.58346766017111
 40
9.712226309013332
 40
9.770752957989814
 40
9.770752957989814
 40
9.770752957989814
 40
9.770752957989814
 10
187.1521871691834
 20
14.9398028819595
 30
0.0
 10
187.1322348171624
 20
14.93980875568671
 30
0.0
 10
187.0647037716466
 20
14.93982863806157
 30
0.0
 10
186.9410612161788
 20
14.93949362520325
 30
0.0
 10
186.7863180150056
 20
14.94107673750512
 30
0.0
 10
186.6697349482479
 20
14.93686078860495
 30
0.0
 10
186.4550942634239
 20
14.95215205331627
 30
0.0
 10
186.8518948407228
 20
14.59198721286192
 30
0.0
 10
186.8945656069266
 20
14.37510503397167
 30
0.0
 10
187.3189162146612
 20
14.19325062511443
 30
0.0
 10
187.1439821496073
 20
14.08985196568075
 30
0.0
 10
187.0194523925084
 20
13.87831523212719
 30
0.0
 10
186.7666277235942
 20
14.34806081001565
 30
0.0
 10
186.4797602893627
 20
14.99511516984521
 30
0.0
 10
186.490633592666
 20
14.68782672154694
 30
0.0
 10
186.488289277796
 20
14.52288616971779
 30
0.0
 10
186.4861096126411
 20
14.28879670711694
 30
0.0
 10
186.4980774396346
 20
14.04498072421784
 30
0.0
 10
186.4687984740631
 20
13.89855796860986
 30
0.0
 10
186.511452262547
 20
13.75113490174539
 30
0.0
 10
186.423981400564
 20
13.7668579730622
 30
0.0
 10
186.3768527606745
 20
13.76694303543455
 30
0.0
 10
186.2898973207714
 20
13.7510942548291
 30
0.0
 10
186.3313474021725
 20
13.89527771422763
 30
0.0
 10
186.3029875004285
 20
14.03855052698456
 30
0.0
 10
186.3145973775301
 20
14.27674947365266
 30
0.0
 10
186.3124175648273
 20
14.50517235240347
 30
0.0
 10
186.3103111127995
 20
14.66705729375996
 30
0.0
 10
186.3208035438323
 20
14.98153709333753
 30
0.0
 10
186.0128963252893
 20
14.29229470872434
 30
0.0
 10
185.7055258267457
 20
13.81476750243056
 30
0.0
 10
185.5851367066273
 20
14.03741112637428
 30
0.0
 10
185.4074607910721
 20
14.15011034955564
 30
0.0
 10
185.8853326362894
 20
14.32548143465459
 30
0.0
 10
185.9353959057207
 20
14.56091929252031
 30
0.0
 10
186.3583799621717
 20
14.95322989344607
 30
0.0
 10
186.1276754273539
 20
14.93655307029065
 30
0.0
 10
186.0049685859341
 20
14.94269518948771
 30
0.0
 10
185.8325483095661
 20
14.93312822699574
 30
0.0
 10
185.7213224694449
 20
14.95448818489666
 30
0.0
 10
185.6025779627448
 20
14.9213626535742
 30
0.0
 10
185.6183169706686
 20
15.00203900606883
 30
0.0
 10
185.6178550933762
 20
15.04645414290854
 30
0.0
 10
185.6027881889931
 20
15.12967081778534
 30
0.0
 10
185.7372380935442
 20
15.09062651983883
 30
0.0
 10
185.8619755545747
 20
15.11739729328423
 30
0.0
 10
186.062875523728
 20
15.10063949044052
 30
0.0
 10
186.1921540949355
 20
15.12204225913006
 30
0.0
 10
186.3328419928295
 20
15.0886877885342
 30
0.0
 10
186.2980927452617
 20
15.22651875785069
 30
0.0
 10
186.3222185666713
 20
15.34963257349482
 30
0.0
 10
186.2967086182393
 20
15.47024055670335
 30
0.0
 10
186.3333251146686
 20
15.60539865141494
 30
0.0
 10
186.2211417027771
 20
15.58094545781892
 30
0.0
 10
186.1280356457137
 20
15.59307749842024
 30
0.0
 10
186.0191547579821
 20
15.58957630069995
 30
0.0
 10
185.9569697640965
 20
15.58981755951603
 30
0.0
 10
185.9375369557247
 20
15.58989295124145
 30
0.0
 11
187.1521871691834
 21
14.9398028819595
 31
0.0
 11
187.0923621563983
 21
14.9398028819595
 31
0.0
 11
186.949702510526
 21
14.9398028819595
 31
0.0
 11
186.7794313202913
 21
14.9398028819595
 31
0.0
 11
186.6367716744191
 21
14.9398028819595
 31
0.0
 11
186.5769466616339
 21
14.9398028819595
 31
0.0
 11
186.7679960754842
 21
14.63705127966891
 31
0.0
 11
186.9941272785629
 21
14.36051890576685
 31
0.0
 11
187.2244526173371
 21
14.15061253493457
 31
0.0
 11
187.1521596330703
 21
14.08466403668717
 31
0.0
 11
187.0879364402643
 21
14.0087605905256
 31
0.0
 11
186.7732818215558
 21
14.35891458349363
 31
0.0
 11
186.4886640249976
 21
14.81138295143601
 31
0.0
 11
186.4886640249976
 21
14.73370259137313
 31
0.0
 11
186.4886640249976
 21
14.53950169121593
 31
0.0
 11
186.4886640249976
 21
14.28704052101157
 31
0.0
 11
186.4886640249976
 21
14.03457935080721
 31
0.0
 11
186.4886640249976
 21
13.84037845065001
 31
0.0
 11
186.4886640249976
 21
13.76269809058713
 31
0.0
 11
186.4428901295605
 21
13.76269809058713
 31
0.0
 11
186.3578814666059
 21
13.76269809058713
 31
0.0
 11
186.3121075711688
 21
13.76269809058713
 31
0.0
 11
186.3121075711688
 21
13.83859234982741
 31
0.0
 11
186.3121075711688
 21
14.02832799792812
 31
0.0
 11
186.3121075711688
 21
14.27498434045905
 31
0.0
 11
186.3121075711688
 21
14.52164068298997
 31
0.0
 11
186.3121075711688
 21
14.71137633109068
 31
0.0
 11
186.3121075711688
 21
14.78727059033096
 31
0.0
 11
185.9987626399267
 21
14.31440946197694
 31
0.0
 11
185.6352328662148
 21
13.95795177109383
 31
0.0
 11
185.5773927461627
 21
14.03253450545023
 31
0.0
 11
185.509485230534
 21
14.09704322939242
 31
0.0
 11
185.7750721898319
 21
14.3167221979589
 31
0.0
 11
186.0233764972061
 21
14.60953395971698
 31
0.0
 11
186.2264982805259
 21
14.9398028819595
 31
0.0
 11
186.162785165272
 21
14.9398028819595
 31
0.0
 11
186.0108538904358
 21
14.9398028819595
 31
0.0
 11
185.8295165624055
 21
14.9398028819595
 31
0.0
 11
185.6775852875693
 21
14.9398028819595
 31
0.0
 11
185.6138721723154
 21
14.9398028819595
 31
0.0
 11
185.6138721723154
 21
14.98350061600208
 31
0.0
 11
185.6138721723154
 21
15.0646535506526
 31
0.0
 11
185.6138721723154
 21
15.10835128469518
 31
0.0
 11
185.6864886537961
 21
15.10835128469518
 31
0.0
 11
185.8596510327118
 21
15.10835128469518
 31
0.0
 11
186.0663287107724
 21
15.10835128469518
 31
0.0
 11
186.239491089688
 21
15.10835128469518
 31
0.0
 11
186.3121075711688
 21
15.10835128469518
 31
0.0
 11
186.3121075711688
 21
15.18359217009304
 31
0.0
 11
186.3121075711688
 21
15.34912211796832
 31
0.0
 11
186.3121075711688
 21
15.5146520658436
 31
0.0
 11
186.3121075711688
 21
15.58989295124145
 31
0.0
 11
186.2535809125057
 21
15.58989295124145
 31
0.0
 11
186.1248222634468
 21
15.58989295124145
 31
0.0
 11
185.9960636143879
 21
15.58989295124145
 31
0.0
 11
185.9375369557247
 21
15.58989295124145
 31
0.0
  0
SPLINE
  5
B7
102
{ACAD_REACTORS
330
D4
102
}
330
48
100
AcDbEntity
  8
_U_30EC_U_30A4_U_30E4_U_30FC_1
  6
Continuous
 62
     2
100
AcDbSpline
210
0.0
220
0.0
230
1.0
 70
    11
 71
     3
 72
   124
 73
   120
 74
   118
 42
0.000000001
 43
0.0000000001
 44
0.00000001
 40
0.0
 40
0.0
 40
0.0
 40
0.0
 40
0.027818722962451
 40
0.1011590162384269
 40
0.2048470170590239
 40
0.3237088716559245
 40
0.4425707262522
 40
0.5462587270699547
 40
0.6195990203311798
 40
0.647417752257866
 40
0.6750060736115224
 40
0.7357003855242705
 40
0.7963946998054368
 40
0.823983024557166
 40
0.8540933811102753
 40
0.9373396629409434
 40
1.063094687343224
 40
1.220731268638062
 40
1.399622220914737
 40
1.589140358637722
 40
1.778658496423888
 40
1.957549448940498
 40
2.115186030873148
 40
2.240941056914452
 40
2.324187341760521
 40
2.354297700109371
 40
2.381886024671878
 40
2.442580338710461
 40
2.50327465275048
 40
2.530862977314585
 40
2.560983949278538
 40
2.640393784452884
 40
2.752662861759107
 40
2.881361560118123
 40
3.01006025845517
 40
3.122329335705317
 40
3.201739170817931
 40
3.231860142753292
 40
3.264298024030347
 40
3.352343701778218
 40
3.482095226868739
 40
3.639650650172999
 40
3.811108022565453
 40
3.982565394927957
 40
4.140120818152538
 40
4.269872343141246
 40
4.357918020802306
 40
4.390355902043935
 40
4.423256253992505
 40
4.508104530072969
 40
4.624121560636737
 40
4.750528176031465
 40
4.866545206601912
 40
4.951393482691841
 40
4.984293834645242
 40
5.011450833242157
 40
5.071196230151942
 40
5.130941627057021
 40
5.158098625648685
 40
5.190998977601347
 40
5.275847253689144
 40
5.391864284256607
 40
5.518270899648095
 40
5.634287930209106
 40
5.71913620628778
 40
5.752036558235667
 40
5.782130946282693
 40
5.862783906228867
 40
5.979550131774734
 40
6.117984316640141
 40
6.263641154587686
 40
6.402075339413892
 40
6.518841564907686
 40
6.599494524815268
 40
6.629588912848505
 40
6.654403028226081
 40
6.713575149487848
 40
6.784199939329166
 40
6.843372060493268
 40
6.868186175802514
 40
6.896246243201624
 40
6.939586233757966
 40
6.967846564564594
 40
7.043584251089532
 40
7.15323433445139
 40
7.28323185573414
 40
7.420011856035174
 40
7.550009376579526
 40
7.659659458834925
 40
7.735397144416918
 40
7.76365747485109
 40
7.796409728010747
 40
7.880876065096022
 40
7.996370852465407
 40
8.122208446418302
 40
8.237703224798896
 40
8.32216956201059
 40
8.354921815205604
 40
8.382078813307384
 40
8.44182420920669
 40
8.50156960523984
 40
8.528726603485419
 40
8.561478856695468
 40
8.645945193877518
 40
8.76143998086503
 40
8.887277580764172
 40
9.002772362000693
 40
9.087238696660913
 40
9.119990949235367
 40
9.152428830613067
 40
9.24047450863828
 40
9.37022603414923
 40
9.527781457984112
 40
9.6992388309811
 40
9.870696203978287
 40
10.02825162781371
 40
10.15800315332532
 40
10.24604883135087
 40
10.2784867037849
 40
10.2784867037849
 40
10.2784867037849
 40
10.2784867037849
 10
195.3821827564383
 20
14.01410517385758
 30
0.0
 10
195.3914554737523
 20
14.01410498511275
 30
0.0
 10
195.4251744536861
 20
14.01410430876715
 30
0.0
 10
195.4934706812465
 20
14.01411807243305
 30
0.0
 10
195.592014171158
 20
14.01403224219546
 30
0.0
 10
195.7062066464812
 20
14.01441755612252
 30
0.0
 10
195.818589441707
 20
14.01300835897546
 30
0.0
 10
195.9214376600118
 20
14.01719117422244
 30
0.0
 10
195.9806839874849
 20
14.00823089251984
 30
0.0
 10
196.0371265937032
 20
14.02164434526061
 30
0.0
 10
196.0246255586956
 20
13.97087198613363
 30
0.0
 10
196.0329549635703
 20
13.92589320939068
 30
0.0
 10
196.024817084112
 20
13.8805675299049
 30
0.0
 10
196.0370529214456
 20
13.82931932408468
 30
0.0
 10
195.9747773490334
 20
13.84447955365278
 30
0.0
 10
195.9060513026867
 20
13.83359750710744
 30
0.0
 10
195.7782756749592
 20
13.83911304747975
 30
0.0
 10
195.6262984511643
 20
13.837008512537
 30
0.0
 10
195.4502695972523
 20
13.83771002588475
 30
0.0
 10
195.2644431934287
 20
13.83745237531293
 30
0.0
 10
195.0786167437175
 20
13.83771005144606
 30
0.0
 10
194.9025880142168
 20
13.83700841847732
 30
0.0
 10
194.7506104154195
 20
13.83911332229991
 30
0.0
 10
194.6228357664554
 20
13.83359680767642
 30
0.0
 10
194.554107783658
 20
13.84448077125944
 30
0.0
 10
194.4918349042883
 20
13.82931786684211
 30
0.0
 10
194.5040616290017
 20
13.88057510805174
 30
0.0
 10
194.4960004462596
 20
13.92582473272427
 30
0.0
 10
194.5040675809892
 20
13.97106357955324
 30
0.0
 10
194.4918238487083
 20
14.02234176909958
 30
0.0
 10
194.5525017120697
 20
14.00749577363136
 30
0.0
 10
194.6162810745736
 20
14.01756448170736
 30
0.0
 10
194.7277314353503
 20
14.01294644212
 30
0.0
 10
194.8497533443823
 20
14.0141332890547
 30
0.0
 10
194.9719538137824
 20
14.01515863900636
 30
0.0
 10
195.0829794287392
 20
14.01092475623402
 30
0.0
 10
195.1476517413958
 20
14.02018584521741
 30
0.0
 10
195.2091162810501
 20
14.00604423049683
 30
0.0
 10
195.1930065601337
 20
14.07235527884517
 30
0.0
 10
195.2042980327358
 20
14.14447790121977
 30
0.0
 10
195.198740082256
 20
14.27513760888286
 30
0.0
 10
195.200803506169
 20
14.42607323708241
 30
0.0
 10
195.2000167127295
 20
14.59335873107886
 30
0.0
 10
195.2007845215628
 20
14.76061110332303
 30
0.0
 10
195.1988038785628
 20
14.91163289269914
 30
0.0
 10
195.2041306156621
 20
15.04206069552995
 30
0.0
 10
195.1933101388425
 20
15.11465442605899
 30
0.0
 10
195.2090326429875
 20
15.18150469436798
 30
0.0
 10
195.143270813249
 20
15.16580512490825
 30
0.0
 10
195.0756367830764
 20
15.17609243083995
 30
0.0
 10
194.9615885293811
 20
15.17113786847122
 30
0.0
 10
194.8451242674903
 20
15.17414128030475
 30
0.0
 10
194.7306554121478
 20
15.16880303143389
 30
0.0
 10
194.6640324657813
 20
15.18001268074824
 30
0.0
 10
194.5990769715186
 20
15.16349132665011
 30
0.0
 10
194.610798975871
 20
15.21473720477059
 30
0.0
 10
194.6032830189121
 20
15.25950333784091
 30
0.0
 10
194.6107989878837
 20
15.30426944897961
 30
0.0
 10
194.5990769505347
 20
15.3555153612974
 30
0.0
 10
194.6640326339201
 20
15.33899381766815
 30
0.0
 10
194.7306533339822
 20
15.35020571373944
 30
0.0
 10
194.8451352858064
 20
15.34485436710665
 30
0.0
 10
194.9615454436963
 20
15.34791188771116
 30
0.0
 10
195.0757660174642
 20
15.34278499010709
 30
0.0
 10
195.1430150439226
 20
15.35345733355598
 30
0.0
 10
195.2083325941438
 20
15.33742082669077
 30
0.0
 10
195.1941391448552
 20
15.39949685750053
 30
0.0
 10
195.2036059462995
 20
15.46586761628763
 30
0.0
 10
195.1990269004084
 20
15.58239972741966
 30
0.0
 10
195.2007696555948
 20
15.71426685022376
 30
0.0
 10
195.1997551495391
 20
15.85615960150273
 30
0.0
 10
195.2017191344373
 20
15.9876905070258
 30
0.0
 10
195.1964668553851
 20
16.10524577283002
 30
0.0
 10
195.2073408763474
 20
16.16947789001584
 30
0.0
 10
195.1919536641853
 20
16.23108802545047
 30
0.0
 10
195.24075915378
 20
16.21702407382111
 30
0.0
 10
195.2853995564726
 20
16.21954742075314
 30
0.0
 10
195.3538643946743
 20
16.2151279740171
 30
0.0
 10
195.3959106169102
 20
16.20613025544036
 30
0.0
 10
195.4487544758775
 20
16.2141171486651
 30
0.0
 10
195.4207035002013
 20
16.17113917611678
 30
0.0
 10
195.3749142248595
 20
16.18259552043835
 30
0.0
 10
195.3869539073264
 20
16.12173520005136
 30
0.0
 10
195.3796086070642
 20
16.05769299468774
 30
0.0
 10
195.3831195826161
 20
15.94909368863911
 30
0.0
 10
195.3819806760173
 20
15.82494319144753
 30
0.0
 10
195.3819174780262
 20
15.69189719829878
 30
0.0
 10
195.3832872966867
 20
15.56797381249555
 30
0.0
 10
195.3791638801314
 20
15.45868337849339
 30
0.0
 10
195.3877763103564
 20
15.3960858009417
 30
0.0
 10
195.3746757454401
 20
15.33740133296365
 30
0.0
 10
195.4393884328198
 20
15.35362113810902
 30
0.0
 10
195.5060405953156
 20
15.34270260383311
 30
0.0
 10
195.6198779541102
 20
15.34793740173756
 30
0.0
 10
195.7357259122097
 20
15.34485547516913
 30
0.0
 10
195.849692426328
 20
15.35018259812512
 30
0.0
 10
195.91603410181
 20
15.33904208166543
 30
0.0
 10
195.9807188525479
 20
15.35546979593178
 30
0.0
 10
195.9689820772722
 20
15.3042592521005
 30
0.0
 10
195.976516806304
 20
15.25950334121001
 30
0.0
 10
195.9689820992257
 20
15.21474739010027
 30
0.0
 10
195.9807188140736
 20
15.1635369087104
 30
0.0
 10
195.9160344075252
 20
15.1799642779422
 30
0.0
 10
195.8496886430824
 20
15.16882784447269
 30
0.0
 10
195.7357459487012
 20
15.1741311589312
 30
0.0
 10
195.6197995623054
 20
15.17114764593544
 30
0.0
 10
195.5062756882122
 20
15.17606892268393
 30
0.0
 10
195.4389231318804
 20
15.1658508751352
 30
0.0
 10
195.3734285122495
 20
15.18145996138815
 30
0.0
 10
195.3891713619218
 20
15.11463851827411
 30
0.0
 10
195.3783275998213
 20
15.04207057815879
 30
0.0
 10
195.3836581629792
 20
14.91162247614416
 30
0.0
 10
195.3817136151855
 20
14.76064558185226
 30
0.0
 10
195.3823133683215
 20
14.59322243934159
 30
0.0
 10
195.3821506559604
 20
14.42656176118372
 30
0.0
 10
195.3821895488136
 20
14.27360142921637
 30
0.0
 10
195.3821816413098
 20
14.14849178985705
 30
0.0
 10
195.3821828382745
 20
14.06507890991421
 30
0.0
 10
195.3821827716208
 20
14.02491778281976
 30
0.0
 10
195.3821827564383
 20
14.01410517385758
 30
0.0
 11
195.3821827564383
 21
14.01410517385758
 31
0.0
 11
195.4100014883675
 21
14.01410517385758
 31
0.0
 11
195.4833417816353
 21
14.01410517385758
 31
0.0
 11
195.5870297824622
 21
14.01410517385758
 31
0.0
 11
195.7058916370687
 21
14.01410517385758
 31
0.0
 11
195.8247534916751
 21
14.01410517385758
 31
0.0
 11
195.928441492502
 21
14.01410517385758
 31
0.0
 11
196.0017817857698
 21
14.01410517385758
 31
0.0
 11
196.029600517699
 21
14.01410517385758
 31
0.0
 11
196.029600517699
 21
13.98651684921171
 31
0.0
 11
196.029600517699
 21
13.92582253499078
 31
0.0
 11
196.029600517699
 21
13.86512822076986
 31
0.0
 11
196.029600517699
 21
13.83753989612399
 31
0.0
 11
195.9994901593494
 21
13.83753989612399
 31
0.0
 11
195.9162438745004
 21
13.83753989612399
 31
0.0
 11
195.7904888484521
 21
13.83753989612399
 31
0.0
 11
195.6328522665041
 21
13.83753989612399
 31
0.0
 11
195.4539613139564
 21
13.83753989612399
 31
0.0
 11
195.2644431761089
 21
13.83753989612399
 31
0.0
 11
195.0749250382613
 21
13.83753989612399
 31
0.0
 11
194.8960340857136
 21
13.83753989612399
 31
0.0
 11
194.7383975037656
 21
13.83753989612399
 31
0.0
 11
194.6126424777172
 21
13.83753989612399
 31
0.0
 11
194.5293961928683
 21
13.83753989612399
 31
0.0
 11
194.4992858345187
 21
13.83753989612399
 31
0.0
 11
194.4992858345187
 21
13.86512822076986
 31
0.0
 11
194.4992858345187
 21
13.92582253499079
 31
0.0
 11
194.4992858345187
 21
13.98651684921171
 31
0.0
 11
194.4992858345187
 21
14.01410517385758
 31
0.0
 11
194.5294068064947
 21
14.01410517385758
 31
0.0
 11
194.608816641704
 21
14.01410517385758
 31
0.0
 11
194.721085719069
 21
14.01410517385758
 31
0.0
 11
194.8497844175118
 21
14.01410517385758
 31
0.0
 11
194.9784831159545
 21
14.01410517385758
 31
0.0
 11
195.0907521933195
 21
14.01410517385758
 31
0.0
 11
195.1701620285289
 21
14.01410517385758
 31
0.0
 11
195.2002830005048
 21
14.01410517385758
 31
0.0
 11
195.2002830005048
 21
14.04654305523836
 31
0.0
 11
195.2002830005048
 21
14.13458873327191
 31
0.0
 11
195.2002830005048
 21
14.26434025879503
 31
0.0
 11
195.2002830005048
 21
14.42189568264454
 31
0.0
 11
195.2002830005048
 21
14.59335305565724
 31
0.0
 11
195.2002830005048
 21
14.76481042866994
 31
0.0
 11
195.2002830005048
 21
14.92236585251945
 31
0.0
 11
195.2002830005048
 21
15.05211737804257
 31
0.0
 11
195.2002830005048
 21
15.14016305607612
 31
0.0
 11
195.2002830005048
 21
15.1726009374569
 31
0.0
 11
195.1673826485529
 21
15.1726009374569
 31
0.0
 11
195.0825343724663
 21
15.1726009374569
 31
0.0
 11
194.9665173418989
 21
15.1726009374569
 31
0.0
 11
194.8401107265045
 21
15.1726009374569
 31
0.0
 11
194.7240936959371
 21
15.1726009374569
 31
0.0
 11
194.6392454198505
 21
15.1726009374569
 31
0.0
 11
194.6063450678985
 21
15.1726009374569
 31
0.0
 11
194.6063450678985
 21
15.19975793614802
 31
0.0
 11
194.6063450678985
 21
15.2595033332685
 31
0.0
 11
194.6063450678985
 21
15.31924873038898
 31
0.0
 11
194.6063450678985
 21
15.3464057290801
 31
0.0
 11
194.6392454198505
 21
15.3464057290801
 31
0.0
 11
194.7240936959371
 21
15.3464057290801
 31
0.0
 11
194.8401107265045
 21
15.3464057290801
 31
0.0
 11
194.9665173418988
 21
15.3464057290801
 31
0.0
 11
195.0825343724662
 21
15.3464057290801
 31
0.0
 11
195.1673826485529
 21
15.3464057290801
 31
0.0
 11
195.2002830005048
 21
15.3464057290801
 31
0.0
 11
195.2002830005048
 21
15.3765001173137
 31
0.0
 11
195.2002830005048
 21
15.45715307777974
 31
0.0
 11
195.2002830005048
 21
15.57391930412609
 31
0.0
 11
195.2002830005048
 21
15.71235349000063
 31
0.0
 11
195.2002830005048
 21
15.85801032905124
 31
0.0
 11
195.2002830005048
 21
15.99644451492578
 31
0.0
 11
195.2002830005048
 21
16.11321074127214
 31
0.0
 11
195.2002830005048
 21
16.19386370173817
 31
0.0
 11
195.2002830005048
 21
16.22395808997177
 31
0.0
 11
195.2250405288618
 21
16.22228324219442
 31
0.0
 11
195.2840777118669
 21
16.21828937441765
 31
0.0
 11
195.3545414464214
 21
16.21352249997441
 31
0.0
 11
195.4135786294265
 21
16.20952863219765
 31
0.0
 11
195.4383361577835
 21
16.20785378442029
 31
0.0
 11
195.423306722403
 21
16.1841581420651
 31
0.0
 11
195.3821827564383
 21
16.17047697887404
 31
0.0
 11
195.3821827564383
 21
16.14221664794832
 31
0.0
 11
195.3821827564383
 21
16.0664789610674
 31
0.0
 11
195.3821827564383
 21
15.95682887707561
 31
0.0
 11
195.3821827564383
 21
15.82683135481731
 31
0.0
 11
195.3821827564383
 21
15.69005135313683
 31
0.0
 11
195.3821827564383
 21
15.56005383087853
 31
0.0
 11
195.3821827564383
 21
15.45040374688674
 31
0.0
 11
195.3821827564383
 21
15.37466606000582
 31
0.0
 11
195.3821827564383
 21
15.3464057290801
 31
0.0
 11
195.4149350096115
 21
15.3464057290801
 31
0.0
 11
195.4994013467422
 21
15.3464057290801
 31
0.0
 11
195.6148961342476
 21
15.3464057290801
 31
0.0
 11
195.7407337385445
 21
15.3464057290801
 31
0.0
 11
195.8562285260498
 21
15.3464057290801
 31
0.0
 11
195.9406948631806
 21
15.3464057290801
 31
0.0
 11
195.9734471163538
 21
15.3464057290801
 31
0.0
 11
195.9734471163538
 21
15.31924873038898
 31
0.0
 11
195.9734471163538
 21
15.2595033332685
 31
0.0
 11
195.9734471163538
 21
15.19975793614802
 31
0.0
 11
195.9734471163538
 21
15.1726009374569
 31
0.0
 11
195.9406948631806
 21
15.1726009374569
 31
0.0
 11
195.8562285260498
 21
15.1726009374569
 31
0.0
 11
195.7407337385445
 21
15.1726009374569
 31
0.0
 11
195.6148961342476
 21
15.1726009374569
 31
0.0
 11
195.4994013467422
 21
15.1726009374569
 31
0.0
 11
195.4149350096114
 21
15.1726009374569
 31
0.0
 11
195.3821827564383
 21
15.1726009374569
 31
0.0
 11
195.3821827564383
 21
15.14016305607612
 31
0.0
 11
195.3821827564383
 21
15.05211737804257
 31
0.0
 11
195.3821827564383
 21
14.92236585251945
 31
0.0
 11
195.3821827564383
 21
14.76481042866994
 31
0.0
 11
195.3821827564383
 21
14.59335305565724
 31
0.0
 11
195.3821827564383
 21
14.42189568264454
 31
0.0
 11
195.3821827564383
 21
14.26434025879503
 31
0.0
 11
195.3821827564383
 21
14.13458873327191
 31
0.0
 11
195.3821827564383
 21
14.04654305523836
 31
0.0
 11
195.3821827564383
 21
14.01410517385758
 31
0.0
  0
SPLINE
  5
B8
102
{ACAD_REACTORS
330
D5
102
}
330
48
100
AcDbEntity
  8
_U_30EC_U_30A4_U_30E4_U_30FC_1
  6
Continuous
 62
     2
100
AcDbSpline
210
0.0
220
0.0
230
1.0
 70
    11
 71
     3
 72
   131
 73
   127
 74
   125
 42
0.000000001
 43
0.0000000001
 44
0.00000001
 40
0.0
 40
0.0
 40
0.0
 40
0.0
 40
0.0195577029826316
 40
0.0426490537462133
 40
0.286360757585671
 40
0.5344948436189703
 40
0.7842238845573966
 40
0.8737315789468355
 40
0.9803832810314073
 40
1.092842274517129
 40
1.199761146656912
 40
1.289788768186665
 40
1.351573580786429
 40
1.370727117561691
 40
1.416400936018117
 40
1.470914848356278
 40
1.5165886667921
 40
1.535742203553197
 40
1.634216592293507
 40
1.760283341175324
 40
1.897966686682388
 40
2.031216387369206
 40
2.0496897511382
 40
2.101115601647134
 40
2.179502577740252
 40
2.278859318314366
 40
2.393194462259022
 40
2.516516648384134
 40
2.642834515406261
 40
2.766156701983765
 40
2.880491846754876
 40
2.979848588358916
 40
3.058235565444094
 40
3.109661416669248
 40
3.128134780704424
 40
3.14678374238674
 40
3.191254343315601
 40
3.24433215731626
 40
3.288802758226164
 40
3.307451719895406
 40
3.327717853845018
 40
3.383747753580379
 40
3.468388665924769
 40
3.574487837699075
 40
3.694892515729178
 40
3.822449946852315
 40
3.950007377920703
 40
4.070412055800794
 40
4.176511227368346
 40
4.261152139501792
 40
4.317182039076986
 40
4.337448172964905
 40
4.620011002696518
 40
4.885096638397694
 40
4.945373043518551
 40
5.014107710488893
 40
5.070481727652208
 40
5.319246955636686
 40
5.584812164506134
 40
5.859000912056966
 40
6.133746937542148
 40
6.401732212968954
 40
6.420736683995544
 40
6.472845717451195
 40
6.550702743894123
 40
6.646951193874331
 40
6.754234497930655
 40
6.865196086587433
 40
6.972479390357892
 40
7.068727839772054
 40
7.146584865451063
 40
7.198693898189292
 40
7.217698368905433
 40
7.234950401630911
 40
7.276089864269959
 40
7.325191803516072
 40
7.366331266090461
 40
7.383583298769812
 40
7.402779163492189
 40
7.453386443254621
 40
7.524934666445622
 40
7.606953361405962
 40
7.688972056429114
 40
7.760520279784364
 40
7.811127559734606
 40
7.830323424546227
 40
7.847844055299856
 40
7.894799345666895
 40
7.962779392744581
 40
8.043374293560625
 40
8.128174145149528
 40
8.208769044817329
 40
8.276749090377029
 40
8.323704379669588
 40
8.341225010056318
 40
8.358497614800466
 40
8.401679126686643
 40
8.457815092185673
 40
8.513951057728077
 40
8.557132569707976
 40
8.574405174505047
 40
8.60234066861636
 40
8.643455660539903
 40
8.66322527196657
 40
8.715345156564215
 40
8.78903188962855
 40
8.873502045520274
 40
8.957972194323892
 40
9.031658925567783
 40
9.083778811234467
 40
9.10354842300293
 40
9.119550083123467
 40
9.16081752237977
 40
9.217244429110135
 40
9.27872449164462
 40
9.335151398295405
 40
9.3764188373577
 40
9.392420497300488
 40
9.401196302734705
 40
9.417494229384179
 40
9.426270027749451
 40
9.440875075477484
 40
9.475702496998666
 40
9.517270709865832
 40
9.552098131994002
 40
9.56670316988421
 40
9.56670316988421
 40
9.56670316988421
 40
9.56670316988421
 10
194.6170254148479
 20
15.67015871511027
 30
0.0
 10
194.6134345093371
 20
15.66453690702159
 30
0.0
 10
194.6056039123624
 20
15.65227754419111
 30
0.0
 10
194.5129968974543
 20
15.61601916040981
 30
0.0
 10
194.488762223325
 20
15.40148444212707
 30
0.0
 10
194.3858709845937
 20
15.2219728450971
 30
0.0
 10
194.1220492364305
 20
15.03615573798144
 30
0.0
 10
194.2845471569179
 20
14.95959336566082
 30
0.0
 10
194.3607225760838
 20
14.89856693195445
 30
0.0
 10
194.4492171072757
 20
14.83515804544758
 30
0.0
 10
194.5389930233111
 20
14.77525634219561
 30
0.0
 10
194.5883817636046
 20
14.72102154849207
 30
0.0
 10
194.6745708157384
 20
14.69286240541833
 30
0.0
 10
194.6411260674229
 20
14.65713309652813
 30
0.0
 10
194.6214671166312
 20
14.62550387991906
 30
0.0
 10
194.5919888217881
 20
14.58475872796068
 30
0.0
 10
194.5688989446031
 20
14.55504663489644
 30
0.0
 10
194.5380205968355
 20
14.50211422668496
 30
0.0
 10
194.472919336574
 20
14.62740334938902
 30
0.0
 10
194.3796000122414
 20
14.68213900233935
 30
0.0
 10
194.2950636285139
 20
14.73916423939344
 30
0.0
 10
194.1722498125741
 20
14.89675287427523
 30
0.0
 10
194.1764450847301
 20
14.82035806766836
 30
0.0
 10
194.1751478652677
 20
14.77361280161296
 30
0.0
 10
194.1758126448076
 20
14.69584785812601
 30
0.0
 10
194.1755549986957
 20
14.59902068324423
 30
0.0
 10
194.1756431239921
 20
14.48650279078809
 30
0.0
 10
194.1756077302281
 20
14.365240859457
 30
0.0
 10
194.1756511758279
 20
14.24086897858962
 30
0.0
 10
194.1755199942405
 20
14.11967683631336
 30
0.0
 10
194.1759477562046
 20
14.00691148919744
 30
0.0
 10
194.174667820231
 20
13.91082913768745
 30
0.0
 10
194.1779759851044
 20
13.83113826468701
 30
0.0
 10
194.1715197740086
 20
13.78815175788785
 30
0.0
 10
194.1806208705556
 20
13.74955432372044
 30
0.0
 10
194.1447910339935
 20
13.75810887724072
 30
0.0
 10
194.1115223815252
 20
13.75342519985448
 30
0.0
 10
194.0604562576041
 20
13.75351298759785
 30
0.0
 10
194.0269723972812
 20
13.75794430283822
 30
0.0
 10
193.9907585408754
 20
13.74960793842511
 30
0.0
 10
194.0009782568666
 20
13.79145277179286
 30
0.0
 10
193.9936487887773
 20
13.83778560820175
 30
0.0
 10
193.9973633136103
 20
13.92374831106016
 30
0.0
 10
193.9959480554896
 20
14.0260514270485
 30
0.0
 10
193.9964105554637
 20
14.14453223931512
 30
0.0
 10
193.9962773686231
 20
14.26957683153357
 30
0.0
 10
193.9963015910045
 20
14.3947582810705
 30
0.0
 10
193.9963354925551
 20
14.51286645379058
 30
0.0
 10
193.9962060293132
 20
14.61628748709516
 30
0.0
 10
193.9965507549081
 20
14.69932036153667
 30
0.0
 10
193.995869827869
 20
14.75143368521243
 30
0.0
 10
193.9994586600624
 20
14.87912907821363
 30
0.0
 10
193.7826171386436
 20
14.58048716819623
 30
0.0
 10
193.6021354921953
 20
14.35263981511522
 30
0.0
 10
193.5490322295611
 20
14.49373443289814
 30
0.0
 10
193.5200429133149
 20
14.54325767560938
 30
0.0
 10
193.4196648062823
 20
14.6464177979012
 30
0.0
 10
193.7405127723261
 20
14.72695035023776
 30
0.0
 10
193.868989700543
 20
14.91066283036437
 30
0.0
 10
194.0906454325358
 20
15.11931995771763
 30
0.0
 10
194.1770224894069
 20
15.29339211228344
 30
0.0
 10
194.4549394229074
 20
15.56967051342514
 30
0.0
 10
194.3346247839284
 20
15.56534559551115
 30
0.0
 10
194.2863197351348
 20
15.56614856202554
 30
0.0
 10
194.2102377454905
 20
15.56574582146585
 30
0.0
 10
194.116701000975
 20
15.56590275611611
 30
0.0
 10
194.0117594788557
 20
15.56582502576224
 30
0.0
 10
193.9033887738717
 20
15.56595464378556
 30
0.0
 10
193.7981454235897
 20
15.56554393490692
 30
0.0
 10
193.7056237819412
 20
15.56682073671592
 30
0.0
 10
193.6268130800708
 20
15.5634076653485
 30
0.0
 10
193.5839674565379
 20
15.57023350036321
 30
0.0
 10
193.5449499586515
 20
15.56065064201124
 30
0.0
 10
193.5526365271863
 20
15.59420779565544
 30
0.0
 10
193.5485464404312
 20
15.62523550322234
 30
0.0
 10
193.5485531368815
 20
15.67236529270902
 30
0.0
 10
193.5526239724911
 20
15.7034094164678
 30
0.0
 10
193.5449495574583
 20
15.73701861635903
 30
0.0
 10
193.5834819405494
 20
15.72748410420873
 30
0.0
 10
193.624122801448
 20
15.73397435498073
 30
0.0
 10
193.6951471850463
 20
15.73100150650256
 30
0.0
 10
193.7729318149633
 20
15.7317476139916
 30
0.0
 10
193.8507292246474
 20
15.73247814044527
 30
0.0
 10
193.9217232089908
 20
15.72954235514163
 30
0.0
 10
193.9624279791819
 20
15.73595468772953
 30
0.0
 10
194.000985348991
 20
15.72650524176006
 30
0.0
 10
193.9927342754927
 20
15.76264692158785
 30
0.0
 10
193.9982346669359
 20
15.80129837613229
 30
0.0
 10
193.9955754206163
 20
15.8691352856184
 30
0.0
 10
193.9965815471533
 20
15.94591641538741
 30
0.0
 10
193.9960178018318
 20
16.02849393582757
 30
0.0
 10
193.9970714526593
 20
16.10517329229879
 30
0.0
 10
193.9942675863131
 20
16.173319907767
 30
0.0
 10
194.0000702721303
 20
16.21132399809347
 30
0.0
 10
193.9915654551159
 20
16.24758448077646
 30
0.0
 10
194.0255610233124
 20
16.23755723771852
 30
0.0
 10
194.0594575683099
 20
16.24073266813707
 30
0.0
 10
194.1126669060345
 20
16.23508965640609
 30
0.0
 10
194.1660768574482
 20
16.23434774436425
 30
0.0
 10
194.199591464949
 20
16.2281922348298
 30
0.0
 10
194.2388086183038
 20
16.23346029773594
 30
0.0
 10
194.2120263698492
 20
16.19253380793488
 30
0.0
 10
194.1708111001724
 20
16.20371204538111
 30
0.0
 10
194.1782641540873
 20
16.15867056192124
 30
0.0
 10
194.1742227952184
 20
16.11412278028144
 30
0.0
 10
194.176171404964
 20
16.04223572621703
 30
0.0
 10
194.1752364849758
 20
15.96168630588772
 30
0.0
 10
194.176510719003
 20
15.88173995404996
 30
0.0
 10
194.1732043793864
 20
15.80841837083184
 30
0.0
 10
194.1802106179961
 20
15.7668864300257
 30
0.0
 10
194.1701440380126
 20
15.72752418568115
 30
0.0
 10
194.2029814803921
 20
15.73468063430983
 30
0.0
 10
194.236457729648
 20
15.73027243137946
 30
0.0
 10
194.2915053476019
 20
15.73217943347899
 30
0.0
 10
194.3489502595314
 20
15.7318536640729
 30
0.0
 10
194.4023026248309
 20
15.73106308733084
 30
0.0
 10
194.4398540896639
 20
15.73313959118076
 30
0.0
 10
194.4623172523237
 20
15.73022338167111
 30
0.0
 10
194.4751678073731
 20
15.73572552644057
 30
0.0
 10
194.4858255685888
 20
15.73801118197791
 30
0.0
 10
194.4986635650144
 20
15.74494972588054
 30
0.0
 10
194.514599103307
 20
15.72853046313673
 30
0.0
 10
194.5410623920892
 20
15.71709122319449
 30
0.0
 10
194.5726805253758
 20
15.69644687835191
 30
0.0
 10
194.5987255892151
 20
15.68116869628294
 30
0.0
 10
194.6128517723973
 20
15.67266976323183
 30
0.0
 10
194.6170254148479
 20
15.67015871511027
 30
0.0
 11
194.6170254148479
 21
15.67015871511027
 31
0.0
 11
194.6049990002243
 21
15.65473571164188
 31
0.0
 11
194.5848961795564
 21
15.64337406233917
 31
0.0
 11
194.4778986355813
 21
15.42440620231159
 31
0.0
 11
194.3477039934324
 21
15.21317201512161
 31
0.0
 11
194.199654036607
 21
15.01206059027479
 31
0.0
 11
194.2734958253734
 21
14.96147384935379
 31
0.0
 11
194.36056643118
 21
14.8998841165374
 31
0.0
 11
194.4518003750404
 21
14.83413160594426
 31
0.0
 11
194.5381321779687
 21
14.77105653169305
 31
0.0
 11
194.6104963609787
 21
14.71749910790242
 31
0.0
 11
194.6598274450844
 21
14.68029954869104
 31
0.0
 11
194.6486940702214
 21
14.66471410869494
 31
0.0
 11
194.6221452532403
 21
14.62754882870424
 31
0.0
 11
194.5904579555533
 21
14.58319026871533
 31
0.0
 11
194.5639091385722
 21
14.54602498872462
 31
0.0
 11
194.5527757637092
 21
14.53043954872852
 31
0.0
 11
194.4807013362947
 21
14.59754008690618
 31
0.0
 11
194.385285698538
 21
14.6799335417467
 31
0.0
 11
194.279326415217
 21
14.76785017366917
 31
0.0
 11
194.175621051109
 21
14.85152024309267
 31
0.0
 11
194.175621051109
 21
14.83304687900863
 31
0.0
 11
194.175621051109
 21
14.78162102763955
 31
0.0
 11
194.175621051109
 21
14.70323405030999
 31
0.0
 11
194.175621051109
 21
14.60387730834449
 31
0.0
 11
194.175621051109
 21
14.48954216306761
 31
0.0
 11
194.175621051109
 21
14.3662199758039
 31
0.0
 11
194.175621051109
 21
14.23990210787791
 31
0.0
 11
194.175621051109
 21
14.11657992061419
 31
0.0
 11
194.175621051109
 21
14.00224477533731
 31
0.0
 11
194.175621051109
 21
13.90288803337181
 31
0.0
 11
194.175621051109
 21
13.82450105604224
 31
0.0
 11
194.175621051109
 21
13.77307520467317
 31
0.0
 11
194.175621051109
 21
13.75460184058913
 31
0.0
 11
194.1569720893626
 21
13.75460184058913
 31
0.0
 11
194.1125014882749
 21
13.75460184058913
 31
0.0
 11
194.0594236740736
 21
13.75460184058913
 31
0.0
 11
194.0149530729859
 21
13.75460184058913
 31
0.0
 11
193.9963041112395
 21
13.75460184058913
 31
0.0
 11
193.9963041112395
 21
13.7748679746022
 31
0.0
 11
193.9963041112395
 21
13.83089787452067
 31
0.0
 11
193.9963041112395
 21
13.91553878716348
 31
0.0
 11
193.9963041112395
 21
14.02163795934954
 31
0.0
 11
193.9963041112395
 21
14.14204263789776
 31
0.0
 11
193.9963041112395
 21
14.26960006962706
 31
0.0
 11
193.9963041112395
 21
14.39715750135636
 31
0.0
 11
193.9963041112395
 21
14.51756217990458
 31
0.0
 11
193.9963041112395
 21
14.62366135209064
 31
0.0
 11
193.9963041112395
 21
14.70830226473344
 31
0.0
 11
193.9963041112395
 21
14.76433216465193
 31
0.0
 11
193.9963041112395
 21
14.78459829866499
 31
0.0
 11
193.7883272849481
 21
14.59331998274056
 31
0.0
 11
193.5763486358426
 21
14.43414885430811
 31
0.0
 11
193.5495629014483
 21
14.48814671952095
 31
0.0
 11
193.5138765415024
 21
14.54689140572026
 31
0.0
 11
193.4799697494125
 21
14.59192871537977
 31
0.0
 11
193.6830287742319
 21
14.73563387201055
 31
0.0
 11
193.881853195826
 21
14.91168423529989
 31
0.0
 11
194.0677041444178
 21
15.1132751452495
 31
0.0
 11
194.2318427502303
 21
15.33360194186109
 31
0.0
 11
194.3655301434864
 21
15.56585996513636
 31
0.0
 11
194.3465256724482
 21
15.56585996513636
 31
0.0
 11
194.2944166389562
 21
15.56585996513636
 31
0.0
 11
194.2165596124447
 21
15.56585996513636
 31
0.0
 11
194.1203111623478
 21
15.56585996513636
 31
0.0
 11
194.0130278580997
 21
15.56585996513636
 31
0.0
 11
193.9020662691345
 21
15.56585996513636
 31
0.0
 11
193.7947829648864
 21
15.56585996513636
 31
0.0
 11
193.6985345147895
 21
15.56585996513636
 31
0.0
 11
193.620677488278
 21
15.56585996513636
 31
0.0
 11
193.568568454786
 21
15.56585996513636
 31
0.0
 11
193.5495639837478
 21
15.56585996513636
 31
0.0
 11
193.5495639837478
 21
15.58311199790983
 31
0.0
 11
193.5495639837478
 21
15.62425146067733
 31
0.0
 11
193.5495639837478
 21
15.67335340010951
 31
0.0
 11
193.5495639837478
 21
15.714492862877
 31
0.0
 11
193.5495639837478
 21
15.73174489565047
 31
0.0
 11
193.5687598486009
 21
15.73174489565047
 31
0.0
 11
193.6193671286684
 21
15.73174489565047
 31
0.0
 11
193.690915352212
 21
15.73174489565047
 31
0.0
 11
193.7729340474937
 21
15.73174489565047
 31
0.0
 11
193.8549527427753
 21
15.73174489565047
 31
0.0
 11
193.9265009663189
 21
15.73174489565047
 31
0.0
 11
193.9771082463864
 21
15.73174489565047
 31
0.0
 11
193.9963041112395
 21
15.73174489565047
 31
0.0
 11
193.9963041112395
 21
15.7492655265522
 31
0.0
 11
193.9963041112395
 21
15.79622081736883
 31
0.0
 11
193.9963041112395
 21
15.86420086526755
 31
0.0
 11
193.9963041112395
 21
15.9447957674155
 31
0.0
 11
193.9963041112395
 21
16.02959562097987
 31
0.0
 11
193.9963041112395
 21
16.11019052312783
 31
0.0
 11
193.9963041112395
 21
16.17817057102654
 31
0.0
 11
193.9963041112395
 21
16.22512586184317
 31
0.0
 11
193.9963041112395
 21
16.2426464927449
 31
0.0
 11
194.0135484112111
 21
16.24165806167519
 31
0.0
 11
194.05665916114
 21
16.23918698400091
 31
0.0
 11
194.1127031360477
 21
16.23597458302435
 31
0.0
 11
194.1687471109553
 21
16.2327621820478
 31
0.0
 11
194.2118578608842
 21
16.23029110437352
 31
0.0
 11
194.2291021608558
 21
16.22930267330381
 31
0.0
 11
194.2143774674851
 21
16.20556293372641
 31
0.0
 11
194.175621051109
 21
16.19183767331312
 31
0.0
 11
194.175621051109
 21
16.17206806177293
 31
0.0
 11
194.175621051109
 21
16.11994817680333
 31
0.0
 11
194.175621051109
 21
16.04626144288079
 31
0.0
 11
194.175621051109
 21
15.96179128448179
 31
0.0
 11
194.175621051109
 21
15.87732112608279
 31
0.0
 11
194.175621051109
 21
15.80363439216026
 31
0.0
 11
194.175621051109
 21
15.75151450719066
 31
0.0
 11
194.175621051109
 21
15.73174489565047
 31
0.0
 11
194.1916227112935
 21
15.73174489565047
 31
0.0
 11
194.232890150717
 21
15.73174489565047
 31
0.0
 11
194.2893170576837
 21
15.73174489565047
 31
0.0
 11
194.3507971204981
 21
15.73174489565047
 31
0.0
 11
194.4072240274648
 21
15.73174489565047
 31
0.0
 11
194.4484914668882
 21
15.73174489565047
 31
0.0
 11
194.4644931270728
 21
15.73174489565047
 31
0.0
 11
194.4728206422924
 21
15.73451387455922
 31
0.0
 11
194.4882860277004
 21
15.7396562639612
 31
0.0
 11
194.49661354292
 21
15.74242524286995
 31
0.0
 11
194.5091363776005
 21
15.73490952398294
 31
0.0
 11
194.5389985218386
 21
15.71698742509854
 31
0.0
 11
194.5746404359293
 21
15.69559653288168
 31
0.0
 11
194.6045025801674
 21
15.67767443399728
 31
0.0
 11
194.6170254148479
 21
15.67015871511027
 31
0.0
  0
SPLINE
  5
B9
102
{ACAD_REACTORS
330
D6
102
}
330
48
100
AcDbEntity
  8
_U_30EC_U_30A4_U_30E4_U_30FC_1
  6
Continuous
 62
     2
100
AcDbSpline
210
0.0
220
0.0
230
1.0
 70
    11
 71
     3
 72
    91
 73
    87
 74
    85
 42
0.000000001
 43
0.0000000001
 44
0.00000001
 40
0.0
 40
0.0
 40
0.0
 40
0.0
 40
0.0267532254356684
 40
0.0856103386464102
 40
0.1444674521996603
 40
0.1712206856618514
 40
0.2039416005642536
 40
0.2955601971652484
 40
0.4362601844616918
 40
0.616225284450725
 40
0.8256392189704698
 40
1.054685709844411
 40
1.293548478893474
 40
1.532411247938218
 40
1.761457738799483
 40
1.970871673298451
 40
2.150836773256647
 40
2.29153676049548
 40
2.383155356836586
 40
2.415876284101206
 40
2.442629517487849
 40
2.501486630948979
 40
2.56034374442413
 40
2.587096977826401
 40
2.6170681944408
 40
2.699247336755941
 40
2.822032643466254
 40
2.973822353257755
 40
3.143014704823197
 40
3.318007936879748
 40
3.487200288186581
 40
3.638989997548062
 40
3.761775303794532
 40
3.843954445752867
 40
3.873925662229563
 40
3.890812773500218
 40
3.907699884771345
 40
3.937960767856862
 40
3.980983618142005
 40
4.199085915228152
 40
4.439444339236912
 40
4.677588241260578
 40
5.050698317837464
 40
5.448212454762849
 40
5.855291218044374
 40
6.138575438885026
 40
6.417434507583887
 40
6.444551104393545
 40
6.504207617362844
 40
6.563864130314143
 40
6.590980727103711
 40
6.848609460381106
 40
7.109611990668102
 40
7.352910904445787
 40
7.557830220705152
 40
7.58751892591307
 40
7.652834077375513
 40
7.718149228845522
 40
7.747837934061801
 40
7.854880190300711
 40
7.976511257403254
 40
8.369487896592055
 40
8.75751495922332
 40
9.126072419330754
 40
9.460639380391788
 40
9.7466955930355
 40
9.777569943118314
 40
9.807050320931442
 40
9.830377336128574
 40
9.88600329543565
 40
9.952395569429566
 40
10.00802152870592
 40
10.03134854388184
 40
10.21356951009555
 40
10.42203479292849
 40
10.66154556731039
 40
10.91693789564276
 40
11.15832906556534
 40
11.18982674596589
 40
11.27286608520373
 40
11.39026653033315
 40
11.52484752840846
 40
11.65942852648396
 40
11.77682897161435
 40
11.85986831085628
 40
11.89136598230374
 40
11.89136598230374
 40
11.89136598230374
 40
11.89136598230374
 10
190.7027885008197
 20
14.70699600701773
 30
0.0
 10
190.7028237765289
 20
14.71587847311986
 30
0.0
 10
190.7029366710796
 20
14.74430237047347
 30
0.0
 10
190.7012984568491
 20
14.79409639169804
 30
0.0
 10
190.7069750292911
 20
14.83657564478155
 30
0.0
 10
190.6956928731708
 20
14.88730154856848
 30
0.0
 10
190.7632296979032
 20
14.8701290074011
 30
0.0
 10
190.8388029210701
 20
14.88290227165997
 30
0.0
 10
190.9828357056001
 20
14.87629729457383
 30
0.0
 10
191.1569419185428
 20
14.87888462206467
 30
0.0
 10
191.3639599611004
 20
14.87800591955554
 30
0.0
 10
191.5894688172378
 20
14.87828207920027
 30
0.0
 10
191.8251162293406
 20
14.87818339658664
 30
0.0
 10
192.0607640531349
 20
14.87828184412768
 30
0.0
 10
192.2862717580626
 20
14.8780067819079
 30
0.0
 10
192.4932934632805
 20
14.87888186270736
 30
0.0
 10
192.6673888915288
 20
14.87630522678447
 30
0.0
 10
192.8114492071986
 20
14.88288290449215
 30
0.0
 10
192.8869691915292
 20
14.87016243405605
 30
0.0
 10
192.954577603703
 20
14.88726400191687
 30
0.0
 10
192.9430840140676
 20
14.83674785802941
 30
0.0
 10
192.9505104581733
 20
14.79253252226502
 30
0.0
 10
192.9428838927986
 20
14.74867966503611
 30
0.0
 10
192.9546489459424
 20
14.69878374479329
 30
0.0
 10
192.8930788491983
 20
14.71393227712513
 30
0.0
 10
192.8256791738672
 20
14.70310665350675
 30
0.0
 10
192.7013004056221
 20
14.70852031626236
 30
0.0
 10
192.5554428236571
 20
14.70649205390786
 30
0.0
 10
192.3893576440086
 20
14.70715777578388
 30
0.0
 10
192.2188412621725
 20
14.70689643521243
 30
0.0
 10
192.051979085539
 20
14.70721553391095
 30
0.0
 10
191.9087346827106
 20
14.70635302590763
 30
0.0
 10
191.7773313869835
 20
14.7086330048299
 30
0.0
 10
191.7239859134658
 20
14.70407704374202
 30
0.0
 10
191.6485188456913
 20
14.7099991499288
 30
0.0
 10
191.6769075779232
 20
14.70094169343353
 30
0.0
 10
191.7033652409542
 20
14.69725912268929
 30
0.0
 10
191.6633522907701
 20
14.66654271968268
 30
0.0
 10
191.5713663691869
 20
14.67667591174652
 30
0.0
 10
191.5439396207069
 20
14.43032502247783
 30
0.0
 10
191.4478793967235
 20
14.27499558764375
 30
0.0
 10
191.1917277964473
 20
13.94525417931572
 30
0.0
 10
191.7627537732762
 20
14.08430022210452
 30
0.0
 10
192.0173656320517
 20
14.08291779973366
 30
0.0
 10
192.6279647048617
 20
13.99790569242083
 30
0.0
 10
192.3340698578084
 20
14.29685417558208
 30
0.0
 10
192.0133304286518
 20
14.44330856901774
 30
0.0
 10
192.1313543360434
 20
14.50025540818289
 30
0.0
 10
192.172471646626
 20
14.52420099873347
 30
0.0
 10
192.2156812394411
 20
14.54599758811231
 30
0.0
 10
192.3174574094448
 20
14.60928721253905
 30
0.0
 10
192.4328867625247
 20
14.35147151408778
 30
0.0
 10
192.6329591642277
 20
14.21616041113685
 30
0.0
 10
192.7269077387228
 20
14.03792795138885
 30
0.0
 10
192.9558829746392
 20
13.87997821027048
 30
0.0
 10
192.8596031846708
 20
13.829159725763
 30
0.0
 10
192.8167959763779
 20
13.79881292523052
 30
0.0
 10
192.7718243528778
 20
13.77466130281462
 30
0.0
 10
192.7121720925213
 20
13.72552146747567
 30
0.0
 10
192.6789731061325
 20
13.85997475673613
 30
0.0
 10
192.5582013350795
 20
14.01594265286577
 30
0.0
 10
192.1970976005979
 20
13.88569928059558
 30
0.0
 10
191.8385061955541
 20
13.90224694409484
 30
0.0
 10
191.4570920450081
 20
13.89331229351863
 30
0.0
 10
191.1703455282891
 20
13.82882671672417
 30
0.0
 10
190.8592055599717
 20
13.94230668192809
 30
0.0
 10
190.8268737818788
 20
13.83122259927769
 30
0.0
 10
190.7896178253317
 20
13.81196313850011
 30
0.0
 10
190.7865737632754
 20
13.85874784087296
 30
0.0
 10
190.7679892860606
 20
13.89806853919135
 30
0.0
 10
190.7512436616778
 20
13.95765983478232
 30
0.0
 10
190.7383730915754
 20
14.00201969871284
 30
0.0
 10
190.7042327806426
 20
14.09106331120199
 30
0.0
 10
190.9482714457755
 20
14.02181042943771
 30
0.0
 10
191.1441394486672
 20
14.00030369057739
 30
0.0
 10
191.2395426381277
 20
14.28226484478463
 30
0.0
 10
191.2945135769598
 20
14.44363045421124
 30
0.0
 10
191.5159619357153
 20
14.71391177589738
 30
0.0
 10
191.3849239381216
 20
14.70548446853736
 30
0.0
 10
191.3110026555853
 20
14.70779008496971
 30
0.0
 10
191.1977459876242
 20
14.70671378321658
 30
0.0
 10
191.0694251807485
 20
14.70707639076511
 30
0.0
 10
190.9404252030416
 20
14.70697724466087
 30
0.0
 10
190.8287840946291
 20
14.70699932712573
 30
0.0
 10
190.7514663970027
 20
14.70699579189672
 30
0.0
 10
190.7132876532011
 20
14.70699595845082
 30
0.0
 10
190.7027885008197
 20
14.70699600701773
 30
0.0
 11
190.7027885008197
 21
14.70699600701773
 31
0.0
 11
190.7027885008197
 21
14.73374924051798
 31
0.0
 11
190.7027885008197
 21
14.79260635421855
 31
0.0
 11
190.7027885008197
 21
14.8514634679191
 31
0.0
 11
190.7027885008197
 21
14.87821670141936
 31
0.0
 11
190.735509428099
 21
14.87821670141936
 31
0.0
 11
190.827128024481
 21
14.87821670141936
 31
0.0
 11
190.967828011782
 21
14.87821670141936
 31
0.0
 11
191.1477931118181
 21
14.87821670141936
 31
0.0
 11
191.3572070464055
 21
14.87821670141936
 31
0.0
 11
191.5862535373605
 21
14.87821670141936
 31
0.0
 11
191.8251163064993
 21
14.87821670141936
 31
0.0
 11
192.0639790756381
 21
14.87821670141936
 31
0.0
 11
192.2930255665931
 21
14.87821670141936
 31
0.0
 11
192.5024395011806
 21
14.87821670141936
 31
0.0
 11
192.6824046012167
 21
14.87821670141936
 31
0.0
 11
192.8231045885176
 21
14.87821670141936
 31
0.0
 11
192.9147231848996
 21
14.87821670141936
 31
0.0
 11
192.9474441121789
 21
14.87821670141936
 31
0.0
 11
192.9474441121789
 21
14.85146346791911
 31
0.0
 11
192.9474441121789
 21
14.79260635421855
 31
0.0
 11
192.9474441121789
 21
14.73374924051798
 31
0.0
 11
192.9474441121789
 21
14.70699600701773
 31
0.0
 11
192.9174728954758
 21
14.70699600701773
 31
0.0
 11
192.8352937529027
 21
14.70699600701773
 31
0.0
 11
192.712508445764
 21
14.70699600701773
 31
0.0
 11
192.5607187353642
 21
14.70699600701773
 31
0.0
 11
192.3915263830078
 21
14.70699600701773
 31
0.0
 11
192.2165331499992
 21
14.70699600701773
 31
0.0
 11
192.0473407976427
 21
14.70699600701773
 31
0.0
 11
191.8955510872429
 21
14.70699600701773
 31
0.0
 11
191.7727657801043
 21
14.70699600701773
 31
0.0
 11
191.6905866375311
 21
14.70699600701773
 31
0.0
 11
191.660615420828
 21
14.70699600701773
 31
0.0
 11
191.6766359412526
 21
14.70165583340794
 31
0.0
 11
191.6926564616771
 21
14.69631565979815
 31
0.0
 11
191.6706155681422
 21
14.67558114591444
 31
0.0
 11
191.6284861855363
 21
14.66685871536111
 31
0.0
 11
191.5365235541377
 21
14.46909247312658
 31
0.0
 11
191.4279078521764
 21
14.2546751197851
 31
0.0
 11
191.3127500824807
 21
14.04622559051622
 31
0.0
 11
191.685736667502
 21
14.0558244125303
 31
0.0
 11
192.083070003615
 21
14.06781232404996
 31
0.0
 11
192.4899342191145
 21
14.08102711828532
 31
0.0
 11
192.2983119496979
 21
14.28966761302481
 31
0.0
 11
192.0966752013698
 21
14.48229420151832
 31
0.0
 11
192.1204947794749
 21
14.49525327269565
 31
0.0
 11
192.1728978513061
 21
14.52376322928576
 31
0.0
 11
192.2253009231373
 21
14.55227318587588
 31
0.0
 11
192.2491205012424
 21
14.5652322570532
 31
0.0
 11
192.4387101558626
 21
14.39079508370269
 31
0.0
 11
192.6200310940435
 21
14.20305846374093
 31
0.0
 11
192.7777729231147
 21
14.01782380992437
 31
0.0
 11
192.8966252504058
 21
13.85089253500949
 31
0.0
 11
192.8715408217923
 21
13.83501202286069
 31
0.0
 11
192.8163550788425
 21
13.80007489613332
 31
0.0
 11
192.7611693358927
 21
13.76513776940595
 31
0.0
 11
192.7360849072792
 21
13.74925725725715
 31
0.0
 11
192.6775518151612
 21
13.83887824681809
 31
0.0
 11
192.6050015078457
 21
13.93650288221032
 31
0.0
 11
192.2125412924095
 21
13.91636286943759
 31
0.0
 11
191.8249474069561
 21
13.89803302999774
 31
0.0
 11
191.4567378976213
 21
13.88202178722396
 31
0.0
 11
191.1224308105413
 21
13.86883756444947
 31
0.0
 11
190.8365441918519
 21
13.8589887850075
 31
0.0
 11
190.821186232174
 21
13.83220523466696
 31
0.0
 11
190.7937434290546
 21
13.82143559057245
 31
0.0
 11
190.7867927192319
 21
13.84370299445577
 31
0.0
 11
190.7702179496548
 21
13.89680218833139
 31
0.0
 11
190.7504351601596
 21
13.96017864553777
 31
0.0
 11
190.7338603905825
 21
14.01327783941338
 31
0.0
 11
190.7269096807598
 21
14.0355452432967
 31
0.0
 11
190.9091199859153
 21
14.03751638912953
 31
0.0
 11
191.1174975848589
 21
14.04356211829472
 31
0.0
 11
191.2303203127216
 21
14.25483550301555
 31
0.0
 11
191.3407936722035
 21
14.4850981315588
 31
0.0
 11
191.4358254265626
 21
14.70699600701773
 31
0.0
 11
191.4043277461596
 21
14.70699600701773
 31
0.0
 11
191.3212884069152
 21
14.70699600701773
 31
0.0
 11
191.2038879617767
 21
14.70699600701773
 31
0.0
 11
191.0693069636911
 21
14.70699600701773
 31
0.0
 11
190.9347259656056
 21
14.70699600701773
 31
0.0
 11
190.817325520467
 21
14.70699600701773
 31
0.0
 11
190.7342861812227
 21
14.70699600701773
 31
0.0
 11
190.7027885008197
 21
14.70699600701773
 31
0.0
  0
SPLINE
  5
BA
102
{ACAD_REACTORS
330
D7
102
}
330
48
100
AcDbEntity
  8
_U_30EC_U_30A4_U_30E4_U_30FC_1
  6
Continuous
 62
     2
100
AcDbSpline
210
0.0
220
0.0
230
1.0
 70
    11
 71
     3
 72
    35
 73
    31
 74
    29
 42
0.000000001
 43
0.0000000001
 44
0.00000001
 40
0.0
 40
0.0
 40
0.0
 40
0.0
 40
0.0335231036621181
 40
0.0713218571711795
 40
0.4278866681486188
 40
0.8116865841962959
 40
1.198190237999957
 40
1.56137954681259
 40
1.659983174621974
 40
1.759315573807089
 40
2.132719617230977
 40
2.525233363588728
 40
2.910815397779593
 40
3.265244364303174
 40
3.592606723581946
 40
3.964386154603893
 40
4.359942131737716
 40
4.758154118639179
 40
4.843846538699765
 40
4.936650065543116
 40
5.256616602537196
 40
5.581707404415933
 40
5.899719158308032
 40
6.198363494280595
 40
6.466301046615608
 40
6.493895311536958
 40
6.559697020196779
 40
6.638234543442382
 40
6.704036252154248
 40
6.731630508423054
 40
6.731630508423054
 40
6.731630508423054
 40
6.731630508423054
 10
191.973601056867
 20
16.23463843719134
 30
0.0
 10
191.967600609779
 20
16.22480690542323
 30
0.0
 10
191.9548344099156
 20
16.20388988579802
 30
0.0
 10
191.794936200656
 20
16.17127126532673
 30
0.0
 10
192.2322025842335
 20
15.88206680336707
 30
0.0
 10
192.4345394828262
 20
15.68041138358437
 30
0.0
 10
192.6819564267973
 20
15.43749387603279
 30
0.0
 10
193.1831513624606
 20
15.36047662757774
 30
0.0
 10
193.012556219897
 20
15.21876939174658
 30
0.0
 10
192.93832994632
 20
15.01710366209106
 30
0.0
 10
192.6131432248188
 20
15.36956287174729
 30
0.0
 10
192.3277741670664
 20
15.53175212559562
 30
0.0
 10
192.0337604077658
 20
15.7368713005305
 30
0.0
 10
191.8084452691134
 20
16.21827488595454
 30
0.0
 10
191.5993085055521
 20
15.75343046609225
 30
0.0
 10
191.3207873674834
 20
15.54350952252911
 30
0.0
 10
191.0371383177209
 20
15.3742445635999
 30
0.0
 10
190.707863952783
 20
15.00142360907931
 30
0.0
 10
190.6277012318225
 20
15.19708014459006
 30
0.0
 10
190.4759724909743
 20
15.32491104190589
 30
0.0
 10
190.9083395826795
 20
15.40454031765938
 30
0.0
 10
191.0962565329765
 20
15.60026634915473
 30
0.0
 10
191.3468477420502
 20
15.81632996916754
 30
0.0
 10
191.5714350470161
 20
15.9819099230006
 30
0.0
 10
191.6259775409712
 20
16.26133964636828
 30
0.0
 10
191.7494661029011
 20
16.24737950408078
 30
0.0
 10
191.806027334452
 20
16.24521268867647
 30
0.0
 10
191.8761870984945
 20
16.2404685988136
 30
0.0
 10
191.9333414022106
 20
16.23709429350541
 30
0.0
 10
191.964419032084
 20
16.23519854711119
 30
0.0
 10
191.973601056867
 20
16.23463843719134
 30
0.0
 11
191.973601056867
 21
16.23463843719134
 31
0.0
 11
191.9525319069884
 21
16.20856374969785
 31
0.0
 11
191.9174464559426
 21
16.19450114553469
 31
0.0
 11
192.1512374769095
 21
15.92527961131383
 31
0.0
 11
192.4414585957566
 21
15.67413407969261
 31
0.0
 11
192.7612797483684
 21
15.45710987618785
 31
0.0
 11
193.0838708706289
 21
15.29025232631637
 31
0.0
 11
193.0213299868076
 21
15.21402035584928
 31
0.0
 11
192.9688035818975
 21
15.12971197913425
 31
0.0
 11
192.6436279095814
 21
15.31326404831581
 31
0.0
 11
192.3237227768436
 21
15.5407013974343
 31
0.0
 11
192.0354200158608
 21
15.79673855123311
 31
0.0
 11
191.8050514588095
 21
16.06609003445566
 31
0.0
 11
191.5995531719515
 21
15.81126348721036
 31
0.0
 11
191.3288301341535
 21
15.55645182277756
 31
0.0
 11
191.0119538423246
 21
15.31969466354856
 31
0.0
 11
190.6679957933741
 21
15.11903163191466
 31
0.0
 11
190.6218855341338
 21
15.19126067703554
 31
0.0
 11
190.5636970460348
 21
15.26355586798966
 31
0.0
 11
190.8433040489015
 21
15.41911456961744
 31
0.0
 11
191.1093004621154
 21
15.60601009790405
 31
0.0
 11
191.3499997459746
 21
15.81384496285209
 31
0.0
 11
191.5537153607773
 21
16.03222167446416
 31
0.0
 11
191.7087607668217
 21
16.25074274274287
 31
0.0
 11
191.7363041569864
 21
16.24906789496551
 31
0.0
 11
191.8019845489177
 21
16.24507402718873
 31
0.0
 11
191.880377274771
 21
16.24030715274548
 31
0.0
 11
191.9460576667023
 21
16.2363132849687
 31
0.0
 11
191.973601056867
 21
16.23463843719134
 31
0.0
  0
SPLINE
  5
BB
102
{ACAD_REACTORS
330
D8
102
}
330
48
100
AcDbEntity
  8
_U_30EC_U_30A4_U_30E4_U_30FC_1
  6
Continuous
 62
     2
100
AcDbSpline
210
0.0
220
0.0
230
1.0
 70
    11
 71
     3
 72
    15
 73
    11
 74
     9
 42
0.000000001
 43
0.0000000001
 44
0.00000001
 40
0.0
 40
0.0
 40
0.0
 40
0.0
 40
0.2785535985096532
 40
0.5215624748198819
 40
0.6076917376040626
 40
0.6938210001741727
 40
0.9405019146454193
 40
1.22169140348903
 40
1.300471877080904
 40
1.379252341684626
 40
1.379252341684626
 40
1.379252341684626
 40
1.379252341684626
 10
189.5681493630999
 20
16.22930267330381
 30
0.0
 10
189.6296017794178
 20
16.17691646592716
 30
0.0
 10
189.7446649974112
 20
16.07882876798223
 30
0.0
 10
190.0397348497245
 20
15.92889785897222
 30
0.0
 10
189.9025147631856
 20
15.84343227515015
 30
0.0
 10
189.8041227843777
 20
15.71085785201561
 30
0.0
 10
189.7130033590651
 20
16.01616985781424
 30
0.0
 10
189.3636839480655
 20
16.07967869465371
 30
0.0
 10
189.5119258376571
 20
16.17896509880878
 30
0.0
 10
189.5494081874236
 20
16.21252348402382
 30
0.0
 10
189.5681493630999
 20
16.22930267330381
 30
0.0
 11
189.5681493630999
 21
16.22930267330381
 31
0.0
 11
189.7919222440596
 21
16.06341774278973
 31
0.0
 11
189.9695046306383
 21
15.89753281227565
 31
0.0
 11
189.9066308127979
 21
15.83866743034593
 31
0.0
 11
189.8437569949574
 21
15.77980204841622
 31
0.0
 11
189.6688535117726
 21
15.95375677059491
 31
0.0
 11
189.4478256856141
 21
16.12757920110703
 31
0.0
 11
189.507987524357
 21
16.17844093720542
 31
0.0
 11
189.5681493630999
 21
16.22930267330381
 31
0.0
  0
SPLINE
  5
BC
102
{ACAD_REACTORS
330
D9
102
}
330
48
100
AcDbEntity
  8
_U_30EC_U_30A4_U_30E4_U_30FC_1
  6
Continuous
 62
     2
100
AcDbSpline
210
0.0
220
0.0
230
1.0
 70
    11
 71
     3
 72
    75
 73
    71
 74
    69
 42
0.000000001
 43
0.0000000001
 44
0.00000001
 40
0.0
 40
0.0
 40
0.0
 40
0.0
 40
0.0342546099129691
 40
0.1245622414432364
 40
0.2522385480897554
 40
0.3985991922940715
 40
0.544959836498091
 40
0.6726361431438905
 40
0.7629437746737049
 40
0.7971983935298079
 40
1.101723623449729
 40
1.408591244036681
 40
1.433332471690387
 40
1.487763172450184
 40
1.542193873082018
 40
1.566935100592565
 40
1.92352393182185
 40
2.27175570495365
 40
2.590579755100837
 40
2.858943305581096
 40
2.889120339309115
 40
2.918305855191052
 40
2.941366645531173
 40
2.996357760973059
 40
3.061992318140601
 40
3.116983433626791
 40
3.140044223997468
 40
3.411273122936361
 40
3.732441619741165
 40
3.761068217532863
 40
3.837787499630428
 40
3.948858699126065
 40
4.080541049104443
 40
4.21909378262583
 40
4.350776132722382
 40
4.461847332405716
 40
4.53856661467845
 40
4.567193212544698
 40
4.594907573998956
 40
4.666381453557523
 40
4.764111044011162
 40
4.870592538125994
 40
4.968322128642445
 40
5.039796008287158
 40
5.067510369784618
 40
5.094263603185833
 40
5.153120716668468
 40
5.211977830150913
 40
5.238731063551919
 40
5.272290535139158
 40
5.363380529445019
 40
5.497618415781696
 40
5.660621563453939
 40
5.838007341749639
 40
6.015393119910991
 40
6.178396267038616
 40
6.312634151842568
 40
6.403724143059558
 40
6.437283612672653
 40
6.464036846261271
 40
6.522893960004886
 40
6.581751071484151
 40
6.608504301591097
 40
6.637253941281244
 40
6.711397748903096
 40
6.812778057283708
 40
6.923237199249485
 40
7.024617507624129
 40
7.098761315207781
 40
7.127510946007732
 40
7.127510946007732
 40
7.127510946007732
 40
7.127510946007732
 10
188.4418622390564
 20
14.95849128473265
 30
0.0
 10
188.4418622819707
 20
14.9470731340872
 30
0.0
 10
188.4418624481128
 20
14.9055525784263
 30
0.0
 10
188.4418593081787
 20
14.82146922003773
 30
0.0
 10
188.44187882798
 20
14.70004497322329
 30
0.0
 10
188.4417912187738
 20
14.55980494047449
 30
0.0
 10
188.442111623523
 20
14.42006556794576
 30
0.0
 10
188.4411605909741
 20
14.29745038894929
 30
0.0
 10
188.4431978595967
 20
14.21587074438042
 30
0.0
 10
188.4349433178746
 20
14.06271267077696
 30
0.0
 10
188.7430797940899
 20
14.22560236054717
 30
0.0
 10
189.0350645173739
 20
14.39482938688005
 30
0.0
 10
189.0408354448707
 20
14.25973235781913
 30
0.0
 10
189.045547171989
 20
14.21617221160445
 30
0.0
 10
189.0482535411918
 20
14.17211249350546
 30
0.0
 10
189.0672545672956
 20
14.02272590363133
 30
0.0
 10
188.6583942247302
 20
14.08681172241262
 30
0.0
 10
188.3793710348831
 20
13.97296341411018
 30
0.0
 10
188.1018081587166
 20
13.87364095811142
 30
0.0
 10
187.80998371844
 20
13.91630687596357
 30
0.0
 10
187.7869144678658
 20
13.8132167974454
 30
0.0
 10
187.7537474383333
 20
13.78691091244472
 30
0.0
 10
187.7480653962738
 20
13.83455309036305
 30
0.0
 10
187.7284214559045
 20
13.8718033611507
 30
0.0
 10
187.7095089485623
 20
13.93007387847565
 30
0.0
 10
187.6942849867707
 20
13.97385201007805
 30
0.0
 10
187.6477246372937
 20
14.08759421046311
 30
0.0
 10
187.9890897312449
 20
14.05576301120048
 30
0.0
 10
188.2679649367389
 20
14.02161435106473
 30
0.0
 10
188.2617753034907
 20
14.16913976479652
 30
0.0
 10
188.2630935452775
 20
14.24013150908832
 30
0.0
 10
188.2624831689949
 20
14.34719767958661
 30
0.0
 10
188.2625871570726
 20
14.47398529785998
 30
0.0
 10
188.2629987964057
 20
14.6084924349605
 30
0.0
 10
188.261390784197
 20
14.73395549951185
 30
0.0
 10
188.2659902567926
 20
14.84505246719118
 30
0.0
 10
188.256418650221
 20
14.90761886800689
 30
0.0
 10
188.2704001783692
 20
14.96595388295002
 30
0.0
 10
188.2147384386706
 20
14.95289710582239
 30
0.0
 10
188.1575655197822
 20
14.96136307749499
 30
0.0
 10
188.0616048925648
 20
14.95729976080637
 30
0.0
 10
187.9633767522821
 20
14.95970889852475
 30
0.0
 10
187.867258245756
 20
14.95551600613388
 30
0.0
 10
187.8104648525812
 20
14.96429346441165
 30
0.0
 10
187.7550356873384
 20
14.95094936850121
 30
0.0
 10
187.7670679427917
 20
15.00036910959258
 30
0.0
 10
187.7592003173938
 20
15.04393988030396
 30
0.0
 10
187.7666295563828
 20
15.08830469118526
 30
0.0
 10
187.7551930564143
 20
15.13902297763992
 30
0.0
 10
187.8232102370133
 20
15.12162460757744
 30
0.0
 10
187.8968496879747
 20
15.1341745023719
 30
0.0
 10
188.0325064058211
 20
15.12799677011098
 30
0.0
 10
188.1884909024525
 20
15.13029203093085
 30
0.0
 10
188.3615926358143
 20
15.1294096826253
 30
0.0
 10
188.5346942964181
 20
15.13029207142409
 30
0.0
 10
188.6906789811216
 20
15.12799662955551
 30
0.0
 10
188.8263351889797
 20
15.13417486262432
 30
0.0
 10
188.8999756705652
 20
15.12162394218336
 30
0.0
 10
188.9679914174724
 20
15.13902373012143
 30
0.0
 10
188.9565590885922
 20
15.08830130414556
 30
0.0
 10
188.9639539458297
 20
15.04397060811109
 30
0.0
 10
188.9562039912269
 20
15.00028307550197
 30
0.0
 10
188.9681203741877
 20
14.95063590098477
 30
0.0
 10
188.9108170223617
 20
14.96461411338427
 30
0.0
 10
188.8520145789772
 20
14.95539755673254
 30
0.0
 10
188.7525293633199
 20
14.9595226816493
 30
0.0
 10
188.649428009835
 20
14.95822760025889
 30
0.0
 10
188.5537846354573
 20
14.95854077077641
 30
0.0
 10
188.4857467971617
 20
14.95848776697146
 30
0.0
 10
188.4514462213443
 20
14.95849051871657
 30
0.0
 10
188.4418622390564
 20
14.95849128473265
 30
0.0
 11
188.4418622390564
 21
14.95849128473265
 31
0.0
 11
188.4418622390564
 21
14.92423666587186
 31
0.0
 11
188.4418622390564
 21
14.83392903432976
 31
0.0
 11
188.4418622390564
 21
14.7062527276668
 31
0.0
 11
188.4418622390564
 21
14.5598920834434
 31
0.0
 11
188.4418622390564
 21
14.41353143922
 31
0.0
 11
188.4418622390564
 21
14.28585513255704
 31
0.0
 11
188.4418622390564
 21
14.19554750101494
 31
0.0
 11
188.4418622390564
 21
14.16129288215415
 31
0.0
 11
188.7391932644568
 21
14.22709475713769
 31
0.0
 11
189.0384623627245
 21
14.29496038212074
 31
0.0
 11
189.0405487124976
 21
14.27030727882829
 31
0.0
 11
189.0451386819986
 21
14.21607045158491
 31
0.0
 11
189.0497286514995
 21
14.16183362434153
 31
0.0
 11
189.0518150012727
 21
14.13718052104908
 31
0.0
 11
188.7056396889239
 21
14.05163370140898
 31
0.0
 11
188.3669653138837
 21
13.97060877629902
 31
0.0
 11
188.0563731516688
 21
13.89862764024929
 31
0.0
 11
187.7944444777955
 21
13.84021218778991
 31
0.0
 11
187.7817515029292
 21
13.81283442738013
 31
0.0
 11
187.7569794787513
 21
13.79740260446737
 31
0.0
 11
187.7491867589501
 21
13.81910683390638
 31
0.0
 11
187.7306041194242
 21
13.87086307333787
 31
0.0
 11
187.70842483999
 21
13.93263664943352
 31
0.0
 11
187.689842200464
 21
13.98439288886501
 31
0.0
 11
187.6820494806628
 21
14.00609711830402
 31
0.0
 11
187.9482776335931
 21
14.05794001759666
 31
0.0
 11
188.262633493629
 21
14.1237396877191
 31
0.0
 11
188.262633493629
 21
14.15236628569624
 31
0.0
 11
188.262633493629
 21
14.22908556827499
 31
0.0
 11
188.262633493629
 21
14.34015676842631
 31
0.0
 11
188.262633493629
 21
14.47183911912118
 31
0.0
 11
188.262633493629
 21
14.61039185333057
 31
0.0
 11
188.262633493629
 21
14.74207420402543
 31
0.0
 11
188.262633493629
 21
14.85314540417675
 31
0.0
 11
188.262633493629
 21
14.9298646867555
 31
0.0
 11
188.262633493629
 21
14.95849128473265
 31
0.0
 11
188.2349191321109
 21
14.95849128473265
 31
0.0
 11
188.1634452524064
 21
14.95849128473265
 31
0.0
 11
188.0657156617901
 21
14.95849128473265
 31
0.0
 11
187.9592341675364
 21
14.95849128473265
 31
0.0
 11
187.8615045769201
 21
14.95849128473265
 31
0.0
 11
187.7900306972156
 21
14.95849128473265
 31
0.0
 11
187.7623163356975
 21
14.95849128473265
 31
0.0
 11
187.7623163356975
 21
14.9852445182329
 31
0.0
 11
187.7623163356975
 21
15.04410163193345
 31
0.0
 11
187.7623163356975
 21
15.102958745634
 31
0.0
 11
187.7623163356975
 21
15.12971197913425
 31
0.0
 11
187.7958758072874
 21
15.12971197913425
 31
0.0
 11
187.8869658016031
 21
15.12971197913425
 31
0.0
 11
188.0212036879629
 21
15.12971197913425
 31
0.0
 11
188.1842068356856
 21
15.12971197913425
 31
0.0
 11
188.3615926140897
 21
15.12971197913425
 31
0.0
 11
188.5389783924938
 21
15.12971197913425
 31
0.0
 11
188.7019815402164
 21
15.12971197913425
 31
0.0
 11
188.8362194265763
 21
15.12971197913425
 31
0.0
 11
188.9273094208918
 21
15.12971197913425
 31
0.0
 11
188.9608688924818
 21
15.12971197913425
 31
0.0
 11
188.9608688924818
 21
15.102958745634
 31
0.0
 11
188.9608688924818
 21
15.04410163193345
 31
0.0
 11
188.9608688924818
 21
14.9852445182329
 31
0.0
 11
188.9608688924818
 21
14.95849128473265
 31
0.0
 11
188.9321192527877
 21
14.95849128473265
 31
0.0
 11
188.8579754451555
 21
14.95849128473265
 31
0.0
 11
188.7565951367604
 21
14.95849128473265
 31
0.0
 11
188.6461359947778
 21
14.95849128473265
 31
0.0
 11
188.5447556863827
 21
14.95849128473265
 31
0.0
 11
188.4706118787505
 21
14.95849128473265
 31
0.0
 11
188.4418622390564
 21
14.95849128473265
 31
0.0
  0
SPLINE
  5
BD
102
{ACAD_REACTORS
330
DA
102
}
330
48
100
AcDbEntity
  8
_U_30EC_U_30A4_U_30E4_U_30FC_1
  6
Continuous
 62
     2
100
AcDbSpline
210
0.0
220
0.0
230
1.0
 70
    11
 71
     3
 72
    91
 73
    87
 74
    85
 42
0.000000001
 43
0.0000000001
 44
0.00000001
 40
0.0
 40
0.0
 40
0.0
 40
0.0
 40
0.0345987051695718
 40
0.1258134969461369
 40
0.2547723404888987
 40
0.4026032099154125
 40
0.5504340793416704
 40
0.679392922883608
 40
0.7706077146571035
 40
0.8052064287780925
 40
1.124852390615282
 40
1.42740223630888
 40
1.70635662745352
 40
1.955541417875203
 40
2.169485938566345
 40
2.344350786664781
 40
2.480568411561931
 40
2.590440557428926
 40
2.649189927151102
 40
2.749320643306307
 40
2.912632739880006
 40
3.147745656000213
 40
3.244827496384985
 40
3.338490056946526
 40
3.583815413206947
 40
3.761423943238297
 40
3.886956104362457
 40
3.985855451886709
 40
4.091766255337621
 40
4.250186473811787
 40
4.422734315084409
 40
4.628285684838501
 40
4.872093227758322
 40
5.152549652145431
 40
5.464967135837417
 40
5.803201477852337
 40
6.160362988813817
 40
6.193449448275872
 40
6.284170385501526
 40
6.419718138764396
 40
6.587285046385646
 40
6.77406344672356
 40
6.967245678113543
 40
7.154024078817529
 40
7.321590987025915
 40
7.457138740890273
 40
7.547859678556009
 40
7.580946138182569
 40
7.608533084714618
 40
7.669224367077587
 40
7.729915649429796
 40
7.757502595949846
 40
7.790278062553299
 40
7.880146277430797
 40
8.01441996318026
 40
8.18041184239776
 40
8.365434637679229
 40
8.55680107162253
 40
8.741823866830643
 40
8.907815745916153
 40
9.042089431507307
 40
9.131957646249433
 40
9.164733112797009
 40
9.415425063139942
 40
9.667986180958405
 40
9.694169807462544
 40
9.75660768604753
 40
9.831130315322422
 40
9.893568193899887
 40
9.919751820398703
 40
9.950967964690513
 40
9.996421631210676
 40
10.22087981037456
 40
10.44341866197545
 40
10.47847970788857
 40
10.57091337438758
 40
10.70159545461232
 40
10.85140174170363
 40
11.0012080288048
 40
11.13189010907386
 40
11.22432377583013
 40
11.2593848093896
 40
11.28697175596148
 40
11.34766303835921
 40
11.40835432042071
 40
11.43594125892105
 40
11.43594125892105
 40
11.43594125892105
 40
11.43594125892105
 10
190.0818114333289
 20
15.55242795125079
 30
0.0
 10
190.0702785844941
 20
15.55242790287917
 30
0.0
 10
190.0283409444998
 20
15.55242773704166
 30
0.0
 10
189.9434129719026
 20
15.55243125800911
 30
0.0
 10
189.8207688553128
 20
15.5524092643588
 30
0.0
 10
189.6791206916993
 20
15.55250801177056
 30
0.0
 10
189.537975369849
 20
15.55214686232423
 30
0.0
 10
189.4141351317905
 20
15.5532188360909
 30
0.0
 10
189.3317217825382
 20
15.55092249091271
 30
0.0
 10
189.1727791229692
 20
15.56048569373422
 30
0.0
 10
189.3503402353375
 20
15.19785394311372
 30
0.0
 10
189.3379739205452
 20
14.95243127723115
 30
0.0
 10
189.4064519473864
 20
14.66862501324836
 30
0.0
 10
189.4693024320969
 20
14.43250999939036
 30
0.0
 10
189.5452253431728
 20
14.23326740396132
 30
0.0
 10
189.6303189577015
 20
14.07745347451375
 30
0.0
 10
189.7244607592935
 20
13.97657857781395
 30
0.0
 10
189.8282648207727
 20
13.92465852638968
 30
0.0
 10
189.9125872030773
 20
13.97606484379617
 30
0.0
 10
189.9351322179452
 20
14.09144544037518
 30
0.0
 10
189.974573097537
 20
14.21885149702379
 30
0.0
 10
189.9202919734944
 20
14.53622328086757
 30
0.0
 10
190.0451218072473
 20
14.38982180140906
 30
0.0
 10
190.2019291513602
 20
14.35795300331169
 30
0.0
 10
190.0947720007057
 20
14.12421357767629
 30
0.0
 10
190.0808711209867
 20
13.95972776583657
 30
0.0
 10
190.0234709467226
 20
13.83130869122479
 30
0.0
 10
189.9335020145008
 20
13.76018802352829
 30
0.0
 10
189.8095274657877
 20
13.74432324142254
 30
0.0
 10
189.6634273196859
 20
13.77993797554173
 30
0.0
 10
189.5243894320283
 20
13.90000570500279
 30
0.0
 10
189.4102003962143
 20
14.0743568255032
 30
0.0
 10
189.3146141301485
 20
14.29946603111242
 30
0.0
 10
189.2318652572627
 20
14.56388246006443
 30
0.0
 10
189.1807179256411
 20
14.88187933098544
 30
0.0
 10
189.077018920734
 20
15.15543728488915
 30
0.0
 10
189.2042841208519
 20
15.56005818612868
 30
0.0
 10
189.0357890623019
 20
15.55112367849681
 30
0.0
 10
188.9511995787076
 20
15.55315961418364
 30
0.0
 10
188.8189876387628
 20
15.55213937388408
 30
0.0
 10
188.6560505094103
 20
15.55253230318431
 30
0.0
 10
188.4733759170532
 20
15.5523569631337
 30
0.0
 10
188.2847057373383
 20
15.5526010530747
 30
0.0
 10
188.1014469020189
 20
15.55185657906239
 30
0.0
 10
187.9404746832718
 20
15.55416360522427
 30
0.0
 10
187.8029808335276
 20
15.54799804883665
 30
0.0
 10
187.728959037231
 20
15.56032838458212
 30
0.0
 10
187.6613215186856
 20
15.54329323723558
 30
0.0
 10
187.673237371927
 20
15.59524438447529
 30
0.0
 10
187.6655677285694
 20
15.64071424966529
 30
0.0
 10
187.6732592225115
 20
15.68614453703705
 30
0.0
 10
187.6613141797762
 20
15.73802395984569
 30
0.0
 10
187.7283588305866
 20
15.72119143490263
 30
0.0
 10
187.8017375665677
 20
15.7333540909267
 30
0.0
 10
187.9379128305272
 20
15.72727231074958
 30
0.0
 10
188.0973811801512
 20
15.72954834315057
 30
0.0
 10
188.2789173085836
 20
15.72881233998961
 30
0.0
 10
188.4658034862179
 20
15.72905954196132
 30
0.0
 10
188.6468012316836
 20
15.72886400799253
 30
0.0
 10
188.8080802578878
 20
15.72932234714838
 30
0.0
 10
188.9393882124887
 20
15.72812673751205
 30
0.0
 10
189.0225051322596
 20
15.73051347319741
 30
0.0
 10
189.1556236547814
 20
15.72230605725464
 30
0.0
 10
189.0645893502659
 20
15.97752868952654
 30
0.0
 10
188.9789633074417
 20
16.24164358328245
 30
0.0
 10
189.0990589003454
 20
16.22904442969165
 30
0.0
 10
189.1514264948542
 20
16.22694235763074
 30
0.0
 10
189.2214497569716
 20
16.22535399889658
 30
0.0
 10
189.2671922337817
 20
16.21602567538112
 30
0.0
 10
189.3220812646932
 20
16.22545966915427
 30
0.0
 10
189.2963574785682
 20
16.17733028655169
 30
0.0
 10
189.1825397571452
 20
16.18266829744175
 30
0.0
 10
189.3159346621137
 20
15.95449174576773
 30
0.0
 10
189.194365873547
 20
15.72156856595922
 30
0.0
 10
189.3223188769413
 20
15.73087258884438
 30
0.0
 10
189.4049048406461
 20
15.72801001754679
 30
0.0
 10
189.5307214850824
 20
15.72923437412301
 30
0.0
 10
189.6741469838057
 20
15.72932431888963
 30
0.0
 10
189.8157420951728
 20
15.72746163183853
 30
0.0
 10
189.9459127249967
 20
15.73333075937161
 30
0.0
 10
190.0193452286191
 20
15.72070340823202
 30
0.0
 10
190.0891112922096
 20
15.73877563110411
 30
0.0
 10
190.0775772605396
 20
15.68612850546326
 30
0.0
 10
190.0833184346682
 20
15.64221317686547
 30
0.0
 10
190.0816615770911
 20
15.59089982676551
 30
0.0
 10
190.081775756167
 20
15.56158792021636
 30
0.0
 10
190.0818114333289
 20
15.55242795125079
 30
0.0
 11
190.0818114333289
 21
15.55242795125079
 31
0.0
 11
190.0472127192051
 21
15.55242795125079
 31
0.0
 11
189.9559979274241
 21
15.55242795125079
 31
0.0
 11
189.8270390838717
 21
15.55242795125079
 31
0.0
 11
189.6792082144335
 21
15.55242795125079
 31
0.0
 11
189.5313773449954
 21
15.55242795125079
 31
0.0
 11
189.402418501443
 21
15.55242795125079
 31
0.0
 11
189.311203709662
 21
15.55242795125079
 31
0.0
 11
189.2766049955382
 21
15.55242795125079
 31
0.0
 11
189.3083140497693
 21
15.23435864930122
 31
0.0
 11
189.3527866656865
 21
14.93509522788081
 31
0.0
 11
189.4092389118319
 21
14.66191269512577
 31
0.0
 11
189.4768868567478
 21
14.42208605917228
 31
0.0
 11
189.5549465689761
 21
14.22289032815656
 31
0.0
 11
189.6426341170591
 21
14.07160051021479
 31
0.0
 11
189.7391655695388
 21
13.97549161348319
 31
0.0
 11
189.8437569949574
 21
13.94183864609794
 31
0.0
 11
189.8943077302785
 21
13.97177376978837
 31
0.0
 11
189.9310588991551
 21
14.06491619815048
 31
0.0
 11
189.9562640977527
 21
14.22627151712055
 31
0.0
 11
189.9721769222369
 21
14.46084531263482
 31
0.0
 11
190.0494082682583
 21
14.40202182306619
 31
0.0
 11
190.1327184184384
 21
14.35921885432691
 31
0.0
 11
190.1066365811217
 21
14.1152838866101
 31
0.0
 11
190.0673317805106
 21
13.94207902887563
 31
0.0
 11
190.0105702596765
 21
13.83011272445918
 31
0.0
 11
189.932118261691
 21
13.76989341669646
 31
0.0
 11
189.8277420296255
 21
13.75192954892318
 31
0.0
 11
189.6738595065096
 21
13.78957440012362
 31
0.0
 11
189.5388902376747
 21
13.89707348877404
 31
0.0
 11
189.4221739916162
 21
14.06627361744809
 31
0.0
 11
189.32305053683
 21
14.28902158871944
 31
0.0
 11
189.2408596418113
 21
14.55716420516173
 31
0.0
 11
189.1749410750559
 21
14.86254826934861
 31
0.0
 11
189.1246346050593
 21
15.19702058385375
 31
0.0
 11
189.0892800003171
 21
15.55242795125079
 31
0.0
 11
189.0561935405844
 21
15.55242795125079
 31
0.0
 11
188.9654726026075
 21
15.55242795125079
 31
0.0
 11
188.8299248482185
 21
15.55242795125079
 31
0.0
 11
188.6623579392495
 21
15.55242795125079
 31
0.0
 11
188.4755795375324
 21
15.55242795125079
 31
0.0
 11
188.2823973048992
 21
15.55242795125079
 31
0.0
 11
188.0956189031822
 21
15.55242795125079
 31
0.0
 11
187.9280519942131
 21
15.55242795125079
 31
0.0
 11
187.7925042398241
 21
15.55242795125079
 31
0.0
 11
187.7017833018473
 21
15.55242795125079
 31
0.0
 11
187.6686968421145
 21
15.55242795125079
 31
0.0
 11
187.6686968421145
 21
15.58001489785847
 31
0.0
 11
187.6686968421145
 21
15.64070618039538
 31
0.0
 11
187.6686968421145
 21
15.70139746293228
 31
0.0
 11
187.6686968421145
 21
15.72898440953997
 31
0.0
 11
187.7014723087631
 21
15.72898440953997
 31
0.0
 11
187.7913405237673
 21
15.72898440953997
 31
0.0
 11
187.9256142097148
 21
15.72898440953997
 31
0.0
 11
188.0916060891932
 21
15.72898440953997
 31
0.0
 11
188.2766288847901
 21
15.72898440953997
 31
0.0
 11
188.4679953190932
 21
15.72898440953997
 31
0.0
 11
188.6530181146902
 21
15.72898440953997
 31
0.0
 11
188.8190099941685
 21
15.72898440953997
 31
0.0
 11
188.953283680116
 21
15.72898440953997
 31
0.0
 11
189.0431518951202
 21
15.72898440953997
 31
0.0
 11
189.0759273617688
 21
15.72898440953997
 31
0.0
 11
189.0659183950103
 21
15.97947647544959
 31
0.0
 11
189.0599112510662
 21
16.23196614552531
 31
0.0
 11
189.0860575870658
 21
16.23056921608122
 31
0.0
 11
189.1484065421418
 21
16.22723807663761
 31
0.0
 11
189.2228230369099
 21
16.22326220052749
 31
0.0
 11
189.2851719919859
 21
16.21993106108388
 31
0.0
 11
189.3113183279855
 21
16.21853413163979
 31
0.0
 11
189.298293111304
 21
16.19016528616079
 31
0.0
 11
189.2551649266405
 21
16.17581274276164
 31
0.0
 11
189.2574991961821
 21
15.95136670115108
 31
0.0
 11
189.2658452735903
 21
15.72898440953997
 31
0.0
 11
189.3009063195165
 21
15.72898440953997
 31
0.0
 11
189.3933399860495
 21
15.72898440953997
 31
0.0
 11
189.5240220663201
 21
15.72898440953997
 31
0.0
 11
189.6738283534596
 21
15.72898440953997
 31
0.0
 11
189.8236346405991
 21
15.72898440953997
 31
0.0
 11
189.9543167208697
 21
15.72898440953997
 31
0.0
 11
190.0467503874027
 21
15.72898440953997
 31
0.0
 11
190.0818114333289
 21
15.72898440953997
 31
0.0
 11
190.0818114333289
 21
15.70139746293228
 31
0.0
 11
190.0818114333289
 21
15.64070618039538
 31
0.0
 11
190.0818114333289
 21
15.58001489785847
 31
0.0
 11
190.0818114333289
 21
15.55242795125079
 31
0.0
  0
SPLINE
  5
BE
102
{ACAD_REACTORS
330
DB
102
}
330
48
100
AcDbEntity
  8
_U_30EC_U_30A4_U_30E4_U_30FC_1
  6
Continuous
 62
     2
100
AcDbSpline
210
0.0
220
0.0
230
1.0
 70
    11
 71
     3
 72
   118
 73
   114
 74
   112
 42
0.000000001
 43
0.0000000001
 44
0.00000001
 40
0.0
 40
0.0
 40
0.0
 40
0.0
 40
0.1054708162972862
 40
0.2466098270051195
 40
0.3965912874590368
 40
0.528552506975314
 40
0.615624505564151
 40
0.6431434105796823
 40
0.7036850037985696
 40
0.7642265984504262
 40
0.7917455052354734
 40
0.9287404319989597
 40
1.106572819087963
 40
1.287544879680917
 40
1.317578308030434
 40
1.399928030857071
 40
1.522968204799845
 40
1.675072986590465
 40
1.84461653318054
 40
2.019973001638604
 40
2.189516548879917
 40
2.341621331585253
 40
2.464661506320388
 40
2.547011229646952
 40
2.577044658167916
 40
2.603797890893015
 40
2.662655002908815
 40
2.721512114949713
 40
2.748265347702892
 40
2.774215307344969
 40
2.845959313407297
 40
2.954338556588498
 40
3.090194227585675
 40
3.244367517100642
 40
3.4076996158444
 40
3.571031714539549
 40
3.725205003920225
 40
3.861060674729725
 40
3.969439917716418
 40
4.041183923629092
 40
4.067133883213085
 40
4.311886746012242
 40
4.547897258335588
 40
4.764747083044056
 40
4.952749679951858
 40
5.045772974195983
 40
5.137862019645068
 40
5.330543169793123
 40
5.553448265244114
 40
5.79508385588827
 40
6.043293412177332
 40
6.285761695541277
 40
6.313902908752761
 40
6.38425594179335
 40
6.475714884766939
 40
6.567173827759001
 40
6.637526860839779
 40
6.665668074074143
 40
6.692018920328115
 40
6.749990782071185
 40
6.807962643790553
 40
6.834313490018028
 40
6.856393084245278
 40
6.91333519564993
 40
6.991194817302565
 40
7.07602694228377
 40
7.153886563725289
 40
7.210828674844814
 40
7.232908268931149
 40
7.25819933492367
 40
7.32487578159232
 40
7.419142481924977
 40
7.527204308841917
 40
7.635266135230495
 40
7.729532834168481
 40
7.796209279292803
 40
7.82150034459475
 40
7.844652988850877
 40
7.899863140541684
 40
7.965759128053906
 40
8.020969279771275
 40
8.044121924046742
 40
8.069356610160877
 40
8.109134395441568
 40
8.13223810019128
 40
8.193147867786646
 40
8.279261678876818
 40
8.377977512674033
 40
8.476693347146815
 40
8.56280716041187
 40
8.623716930826657
 40
8.646820636853608
 40
8.671988793774421
 40
8.734909185828275
 40
8.81670569518899
 40
8.898502204815532
 40
8.961422597377965
 40
8.986590754551077
 40
9.012941600733232
 40
9.070913462380316
 40
9.128885324081812
 40
9.155236170325132
 40
9.180404327929175
 40
9.24332472194822
 40
9.325121234211956
 40
9.40691774663761
 40
9.469838141978066
 40
9.495006288270812
 40
9.517811184378955
 40
9.572192090486954
 40
9.637098333281184
 40
9.691479239515383
 40
9.714284125643422
 40
9.714284125643422
 40
9.714284125643422
 40
9.714284125643422
 10
185.2874469028654
 20
15.26889163187719
 30
0.0
 10
185.3090990569038
 20
15.24111869242811
 30
0.0
 10
185.3597257109474
 20
15.17618054561234
 30
0.0
 10
185.4349383202591
 20
15.06891060312898
 30
0.0
 10
185.5248482274346
 20
14.95377438266625
 30
0.0
 10
185.5709169676673
 20
14.85357045748318
 30
0.0
 10
185.6655825294655
 20
14.78434006814943
 30
0.0
 10
185.6204439320412
 20
14.73771639678273
 30
0.0
 10
185.5947047785789
 20
14.69660308866039
 30
0.0
 10
185.5645196708012
 20
14.66065971727939
 30
0.0
 10
185.5193684730559
 20
14.58579782596095
 30
0.0
 10
185.4710504458562
 20
14.80782524253602
 30
0.0
 10
185.3968539713073
 20
14.84510677337712
 30
0.0
 10
185.2836047324607
 20
15.11610202130598
 30
0.0
 10
185.2885133578171
 20
15.00095328446229
 30
0.0
 10
185.2868486556306
 20
14.92836675781627
 30
0.0
 10
185.2876830076715
 20
14.80625588483986
 30
0.0
 10
185.2873609540266
 20
14.65913800810461
 30
0.0
 10
185.2875076912457
 20
14.49307063956558
 30
0.0
 10
185.2872950092723
 20
14.32187554608602
 30
0.0
 10
185.2879497252035
 20
14.15552828635499
 30
0.0
 10
185.285919246114
 20
14.00935173055694
 30
0.0
 10
185.2913460399931
 20
13.88471047474612
 30
0.0
 10
185.2804930868709
 20
13.81718656540627
 30
0.0
 10
185.2956739155556
 20
13.75549061417022
 30
0.0
 10
185.2457895108134
 20
13.76727503897004
 30
0.0
 10
185.2017150342521
 20
13.75943822779969
 30
0.0
 10
185.1582371630201
 20
13.76760441372705
 30
0.0
 10
185.1092346786487
 20
13.75538056738469
 30
0.0
 10
185.1218731234824
 20
13.80960667249314
 30
0.0
 10
185.1130182968449
 20
13.86936918907559
 30
0.0
 10
185.1175058770312
 20
13.9792202904437
 30
0.0
 10
185.115796013599
 20
14.1102997540568
 30
0.0
 10
185.1163550915985
 20
14.26198011444329
 30
0.0
 10
185.1161928768692
 20
14.42211074929954
 30
0.0
 10
185.1162269924674
 20
14.58236865674567
 30
0.0
 10
185.1162514960125
 20
14.7337024752044
 30
0.0
 10
185.1161453543224
 20
14.86582156338601
 30
0.0
 10
185.116429914193
 20
14.97294802533195
 30
0.0
 10
185.1158675547566
 20
15.03808619579474
 30
0.0
 10
185.1180765083688
 20
15.16618957858676
 30
0.0
 10
185.0319435998603
 20
14.79097610391575
 30
0.0
 10
184.95551408185
 20
14.63918193123393
 30
0.0
 10
184.8660040767833
 20
14.47766206446308
 30
0.0
 10
184.7640413217326
 20
14.20471848820172
 30
0.0
 10
184.7187976491039
 20
14.3671734659651
 30
0.0
 10
184.610235594167
 20
14.4560543205812
 30
0.0
 10
184.7995791751752
 20
14.60549794961409
 30
0.0
 10
184.8565340545701
 20
14.79749136974926
 30
0.0
 10
184.9717520993352
 20
15.02899622906757
 30
0.0
 10
184.9940151630132
 20
15.21797259759063
 30
0.0
 10
185.177190515214
 20
15.49454089325929
 30
0.0
 10
185.0538033597552
 20
15.48698978832094
 30
0.0
 10
184.9925684166834
 20
15.48856772366119
 30
0.0
 10
184.9081999617064
 20
15.48882592573672
 30
0.0
 10
184.8204235085966
 20
15.48544845751206
 30
0.0
 10
184.7656768696122
 20
15.4939481498202
 30
0.0
 10
184.7104703026024
 20
15.48048561049788
 30
0.0
 10
184.7222823035536
 20
15.52931442126763
 30
0.0
 10
184.7142496151793
 20
15.57269004896708
 30
0.0
 10
184.7228186104679
 20
15.61509438309572
 30
0.0
 10
184.7102943409156
 20
15.66267796552117
 30
0.0
 10
184.7555101538735
 20
15.65267212995109
 30
0.0
 10
184.8014815562723
 20
15.65894105174061
 30
0.0
 10
184.877722204771
 20
15.65593561405872
 30
0.0
 10
184.9561296131993
 20
15.65770448278541
 30
0.0
 10
185.0323992648932
 20
15.6546479398166
 30
0.0
 10
185.0783009459473
 20
15.66103971376176
 30
0.0
 10
185.1231733965399
 20
15.65093822978896
 30
0.0
 10
185.1105552275633
 20
15.70157201581898
 30
0.0
 10
185.1191936582705
 20
15.7550126188207
 30
0.0
 10
185.1152361595441
 20
15.8486325513168
 30
0.0
 10
185.1162325068334
 20
15.95112606688924
 30
0.0
 10
185.1171927413072
 20
16.05353270248163
 30
0.0
 10
185.1133211458005
 20
16.14735929609321
 30
0.0
 10
185.1217789814363
 20
16.20036542840353
 30
0.0
 10
185.1093075932834
 20
16.25211435651189
 30
0.0
 10
185.1542106389849
 20
16.23850747226757
 30
0.0
 10
185.1955083836771
 20
16.24100480320585
 30
0.0
 10
185.2595344281051
 20
16.23648060574487
 30
0.0
 10
185.2986111148787
 20
16.22781003043309
 30
0.0
 10
185.3476543498743
 20
16.23515102070685
 30
0.0
 10
185.322508003059
 20
16.19602896051764
 30
0.0
 10
185.2815901333725
 20
16.20563842455804
 30
0.0
 10
185.2910109616604
 20
16.15540148169778
 30
0.0
 10
185.2855647318747
 20
16.1038594563949
 30
0.0
 10
185.2881699601805
 20
16.0195970758452
 30
0.0
 10
185.2870102202155
 20
15.92559135583408
 30
0.0
 10
185.2883591064232
 20
15.83196865395525
 30
0.0
 10
185.2849970101508
 20
15.74679517552223
 30
0.0
 10
185.292095991777
 20
15.69716856072044
 30
0.0
 10
185.2812569154547
 20
15.64993694969989
 30
0.0
 10
185.3304010225246
 20
15.66201674936851
 30
0.0
 10
185.3794877630147
 20
15.65447393363011
 30
0.0
 10
185.4573714280641
 20
15.65686070361432
 30
0.0
 10
185.5350365172896
 20
15.65899381905415
 30
0.0
 10
185.5845393931354
 20
15.65193391922455
 30
0.0
 10
185.6344594750639
 20
15.66360151936214
 30
0.0
 10
185.6223198516881
 20
15.61540235371393
 30
0.0
 10
185.6305838229143
 20
15.57249219801236
 30
0.0
 10
185.6223198650783
 20
15.52958201851384
 30
0.0
 10
185.6344594549855
 20
15.48138288754864
 30
0.0
 10
185.5845395158746
 20
15.4930503447151
 30
0.0
 10
185.5350350651203
 20
15.48599202435046
 30
0.0
 10
185.4573784382973
 20
15.48811665228604
 30
0.0
 10
185.379464386576
 20
15.4905338936576
 30
0.0
 10
185.3304500352718
 20
15.48291848194486
 30
0.0
 10
185.2813246108943
 20
15.49507952557591
 30
0.0
 10
185.2915559988573
 20
15.45073013424158
 30
0.0
 10
185.2856677678054
 20
15.40925436202911
 30
0.0
 10
185.287878830557
 20
15.34915394315302
 30
0.0
 10
185.2874109346147
 20
15.30225782762889
 30
0.0
 10
185.2874386992914
 20
15.27650146418196
 30
0.0
 10
185.2874469028654
 20
15.26889163187719
 30
0.0
 11
185.2874469028654
 21
15.26889163187719
 31
0.0
 11
185.3516977534485
 21
15.18524999634257
 31
0.0
 11
185.4348258835499
 21
15.07118889748221
 31
0.0
 11
185.5216831568895
 21
14.94891767195723
 31
0.0
 11
185.5971214371872
 21
14.84064565642876
 31
0.0
 11
185.6459925881626
 21
14.7685821875579
 31
0.0
 11
185.6296821285093
 21
14.74641782124399
 31
0.0
 11
185.5937991172719
 21
14.69765621535339
 31
0.0
 11
185.5579161060346
 21
14.6488946094628
 31
0.0
 11
185.5416056463812
 21
14.62673024314889
 31
0.0
 11
185.4763067109445
 21
14.74716139023814
 31
0.0
 11
185.3848434243235
 21
14.89966983670207
 31
0.0
 11
185.2874469028654
 21
15.05219788193142
 31
0.0
 11
185.2874469028654
 21
15.02216445328253
 31
0.0
 11
185.2874469028654
 21
14.93981472956783
 31
0.0
 11
185.2874469028654
 21
14.81677455413528
 31
0.0
 11
185.2874469028654
 21
14.66466977033284
 31
0.0
 11
185.2874469028654
 21
14.49512622150846
 31
0.0
 11
185.2874469028654
 21
14.3197697510101
 31
0.0
 11
185.2874469028654
 21
14.15022620218571
 31
0.0
 11
185.2874469028654
 21
13.99812141838327
 31
0.0
 11
185.2874469028654
 21
13.87508124295072
 31
0.0
 11
185.2874469028654
 21
13.79273151923602
 31
0.0
 11
185.2874469028654
 21
13.76269809058713
 31
0.0
 11
185.260693670041
 21
13.76269809058713
 31
0.0
 11
185.2018365578271
 21
13.76269809058713
 31
0.0
 11
185.1429794456133
 21
13.76269809058713
 31
0.0
 11
185.1162262127889
 21
13.76269809058713
 31
0.0
 11
185.1162262127889
 21
13.78864805031251
 31
0.0
 11
185.1162262127889
 21
13.86039205661208
 31
0.0
 11
185.1162262127889
 21
13.96877130017102
 31
0.0
 11
185.1162262127889
 21
14.10462697167448
 31
0.0
 11
185.1162262127889
 21
14.25880026180762
 31
0.0
 11
185.1162262127889
 21
14.4221323612556
 31
0.0
 11
185.1162262127889
 21
14.58546446070357
 31
0.0
 11
185.1162262127889
 21
14.73963775083671
 31
0.0
 11
185.1162262127889
 21
14.87549342234016
 31
0.0
 11
185.1162262127889
 21
14.9838726658991
 31
0.0
 11
185.1162262127889
 21
15.05561667219868
 31
0.0
 11
185.1162262127889
 21
15.08156663192406
 31
0.0
 11
185.0379865861721
 21
14.84965603302372
 31
0.0
 11
184.9497110789304
 21
14.63077616328678
 31
0.0
 11
184.8544106930045
 21
14.43598991333547
 31
0.0
 11
184.7550964303356
 21
14.27636017379202
 31
0.0
 11
184.7109198342406
 21
14.35822446196599
 31
0.0
 11
184.658805738348
 21
14.43414885430811
 31
0.0
 11
184.7627302590299
 21
14.59640087926758
 31
0.0
 11
184.8629319864735
 21
14.79551465421781
 31
0.0
 11
184.9550446607901
 21
15.01890447916196
 31
0.0
 11
185.0347020220912
 21
15.2539846541032
 31
0.0
 11
185.097537810488
 21
15.48816947904465
 31
0.0
 11
185.0693965972142
 21
15.48816947904465
 31
0.0
 11
184.9990435640297
 21
15.48816947904465
 31
0.0
 11
184.9075846208898
 21
15.48816947904465
 31
0.0
 11
184.8161256777499
 21
15.48816947904465
 31
0.0
 11
184.7457726445654
 21
15.48816947904465
 31
0.0
 11
184.7176314312916
 21
15.48816947904465
 31
0.0
 11
184.7176314312916
 21
15.51452032539222
 31
0.0
 11
184.7176314312916
 21
15.57249218735688
 31
0.0
 11
184.7176314312916
 21
15.63046404932155
 31
0.0
 11
184.7176314312916
 21
15.65681489566912
 31
0.0
 11
184.7397110256019
 21
15.65681489566912
 31
0.0
 11
184.7966531372444
 21
15.65681489566912
 31
0.0
 11
184.8745127592862
 21
15.65681489566912
 31
0.0
 11
184.9593448847943
 21
15.65681489566912
 31
0.0
 11
185.0372045068361
 21
15.65681489566912
 31
0.0
 11
185.0941466184785
 21
15.65681489566912
 31
0.0
 11
185.1162262127889
 21
15.65681489566912
 31
0.0
 11
185.1162262127889
 21
15.68210596174353
 31
0.0
 11
185.1162262127889
 21
15.74878240866697
 31
0.0
 11
185.1162262127889
 21
15.84304910948977
 31
0.0
 11
185.1162262127889
 21
15.95111093726224
 31
0.0
 11
185.1162262127889
 21
16.05917276503471
 31
0.0
 11
185.1162262127889
 21
16.15343946585751
 31
0.0
 11
185.1162262127889
 21
16.22011591278095
 31
0.0
 11
185.1162262127889
 21
16.24540697885536
 31
0.0
 11
185.1393181988665
 21
16.243732131078
 31
0.0
 11
185.1943837041284
 21
16.23973826330122
 31
0.0
 11
185.2601070491184
 21
16.23497138885796
 31
0.0
 11
185.3151725543804
 21
16.23097752108117
 31
0.0
 11
185.3382645404579
 21
16.22930267330381
 31
0.0
 11
185.3249012644362
 21
16.20789677921191
 31
0.0
 11
185.2874469028654
 21
16.19450114553469
 31
0.0
 11
185.2874469028654
 21
16.17139743948578
 31
0.0
 11
185.2874469028654
 21
16.11048766899319
 31
0.0
 11
185.2874469028654
 21
16.02437385553816
 31
0.0
 11
185.2874469028654
 21
15.9256580206019
 31
0.0
 11
185.2874469028654
 21
15.82694218566565
 31
0.0
 11
185.2874469028654
 21
15.74082837221061
 31
0.0
 11
185.2874469028654
 21
15.67991860171803
 31
0.0
 11
185.2874469028654
 21
15.65681489566912
 31
0.0
 11
185.312615060481
 21
15.65681489566912
 31
0.0
 11
185.3755354545199
 21
15.65681489566912
 31
0.0
 11
185.4573319667706
 21
15.65681489566912
 31
0.0
 11
185.5391284790213
 21
15.65681489566912
 31
0.0
 11
185.6020488730602
 21
15.65681489566912
 31
0.0
 11
185.6272170306758
 21
15.65681489566912
 31
0.0
 11
185.6272170306758
 21
15.63046404932155
 31
0.0
 11
185.6272170306758
 21
15.57249218735689
 31
0.0
 11
185.6272170306758
 21
15.51452032539222
 31
0.0
 11
185.6272170306758
 21
15.48816947904465
 31
0.0
 11
185.6020488730602
 21
15.48816947904465
 31
0.0
 11
185.5391284790213
 21
15.48816947904465
 31
0.0
 11
185.4573319667706
 21
15.48816947904465
 31
0.0
 11
185.37553545452
 21
15.48816947904465
 31
0.0
 11
185.312615060481
 21
15.48816947904465
 31
0.0
 11
185.2874469028654
 21
15.48816947904465
 31
0.0
 11
185.2874469028654
 21
15.46536458293923
 31
0.0
 11
185.2874469028654
 21
15.4109836768417
 31
0.0
 11
185.2874469028654
 21
15.34607743408013
 31
0.0
 11
185.2874469028654
 21
15.29169652798261
 31
0.0
 11
185.2874469028654
 21
15.26889163187719
 31
0.0
  0
SPLINE
  5
BF
102
{ACAD_REACTORS
330
DC
102
}
330
48
100
AcDbEntity
  8
_U_30EC_U_30A4_U_30E4_U_30FC_1
  6
Continuous
 62
     2
100
AcDbSpline
210
0.0
220
0.0
230
1.0
 70
    11
 71
     3
 72
    47
 73
    43
 74
    41
 42
0.000000001
 43
0.0000000001
 44
0.00000001
 40
0.0
 40
0.0
 40
0.0
 40
0.0
 40
0.2207912809957147
 40
0.4459404186303021
 40
0.4902387190459798
 40
0.5327473892721901
 40
0.5742260451226362
 40
0.6155432630561655
 40
0.6568164066317141
 40
0.6982511618781503
 40
0.7407663929318007
 40
0.7851366743177192
 40
1.010288833836521
 40
1.231080507002366
 40
1.451765243652594
 40
1.676638205891881
 40
1.720461045359852
 40
1.830018144043718
 40
1.972442372353352
 40
2.114866600677723
 40
2.224423699395349
 40
2.268246538883591
 40
2.493628801207411
 40
2.715602830286821
 40
2.934211330706579
 40
3.149502369855577
 40
3.231387784851308
 40
3.318231873854372
 40
3.405143198198303
 40
3.486970301720882
 40
3.702258172494331
 40
3.920866283534563
 40
4.142839325932361
 40
4.368221903865813
 40
4.412044743360292
 40
4.52160184209631
 40
4.664026070452794
 40
4.806450298809503
 40
4.916007397547197
 40
4.959830237043521
 40
5.184703515847557
 40
5.405387250767927
 40
5.405387250767927
 40
5.405387250767927
 40
5.405387250767927
 10
182.6507427258646
 20
15.73406440953873
 30
0.0
 10
182.6568139420003
 20
15.79758482501212
 30
0.0
 10
182.6690762107244
 20
15.92587938689628
 30
0.0
 10
182.560470687941
 20
16.20166220174075
 30
0.0
 10
182.6761985896603
 20
16.17188133432055
 30
0.0
 10
182.7171842509014
 20
16.16765556262819
 30
0.0
 10
182.7591205797518
 20
16.16310446389607
 30
0.0
 10
182.800419662571
 20
16.16201982929485
 30
0.0
 10
182.8417032115555
 20
16.16310338195226
 30
0.0
 10
182.8836148270648
 20
16.16766112711345
 30
0.0
 10
182.9245983549019
 20
16.17187430209728
 30
0.0
 10
183.0404922843491
 20
16.20177611317535
 30
0.0
 10
182.9295652727456
 20
15.92339806609892
 30
0.0
 10
182.9574856365266
 20
15.74283140824954
 30
0.0
 10
182.9404267346968
 20
15.50961042346472
 30
0.0
 10
182.9414637282102
 20
15.34906622543147
 30
0.0
 10
182.9414099399403
 20
15.22284817558722
 30
0.0
 10
182.9414277372479
 20
15.12428963336241
 30
0.0
 10
182.9414188581079
 20
14.99280702442963
 30
0.0
 10
182.9414263928033
 20
14.8613284496865
 30
0.0
 10
182.9414129405127
 20
14.7627622269409
 30
0.0
 10
182.9414531717492
 20
14.63639735624152
 30
0.0
 10
182.9406746403817
 20
14.4748206882287
 30
0.0
 10
182.9565958319266
 20
14.24361821892914
 30
0.0
 10
182.9333468885407
 20
14.05874351972
 30
0.0
 10
183.0360183444367
 20
13.78935602770053
 30
0.0
 10
182.8820238362836
 20
13.82660112685817
 30
0.0
 10
182.8004129802832
 20
13.82137994680536
 30
0.0
 10
182.7188192292583
 20
13.8266062037835
 30
0.0
 10
182.5648513666841
 20
13.78937069885383
 30
0.0
 10
182.6674183421917
 20
14.05875129862878
 30
0.0
 10
182.644204531609
 20
14.24361585325416
 30
0.0
 10
182.6600444655138
 20
14.47482218565638
 30
0.0
 10
182.6593296313426
 20
14.63639712308503
 30
0.0
 10
182.6593664569907
 20
14.7627623121052
 30
0.0
 10
182.659354900027
 20
14.86132756635982
 30
0.0
 10
182.6593575019214
 20
14.9928112741722
 30
0.0
 10
182.6593648531778
 20
15.124275480312
 30
0.0
 10
182.6593442541352
 20
15.22287786275327
 30
0.0
 10
182.6594082192027
 20
15.34896149354427
 30
0.0
 10
182.658173394759
 20
15.51210091383772
 30
0.0
 10
182.6532040396746
 20
15.66054183777551
 30
0.0
 10
182.6507427258646
 20
15.73406440953873
 30
0.0
 11
182.6507427258646
 21
15.73406440953873
 31
0.0
 11
182.6417328200379
 21
15.95467178795577
 31
0.0
 11
182.6318769706145
 21
16.17960510387179
 31
0.0
 11
182.6756985840801
 21
16.17312391463728
 31
0.0
 11
182.7178400934214
 21
16.16754892331925
 31
0.0
 11
182.759137140979
 21
16.16367167505631
 31
0.0
 11
182.8004341885365
 21
16.16238072887607
 31
0.0
 11
182.8416871388731
 21
16.16367167505631
 31
0.0
 11
182.8829400892097
 21
16.16754892331925
 31
0.0
 11
182.9250882131343
 21
16.17312391463728
 31
0.0
 11
182.9689825870146
 21
16.17960510387179
 31
0.0
 11
182.9590577693891
 21
15.95467178795577
 31
0.0
 11
182.9500384208309
 21
15.73406440953873
 31
0.0
 11
182.9435638463434
 21
15.51347467001055
 31
0.0
 11
182.9414218238285
 21
15.28861190965008
 31
0.0
 11
182.9414218238285
 21
15.24478907015486
 31
0.0
 11
182.9414218238285
 21
15.13523197141683
 31
0.0
 11
182.9414218238285
 21
14.99280774305737
 31
0.0
 11
182.9414218238285
 21
14.85038351469792
 31
0.0
 11
182.9414218238285
 21
14.74082641595989
 31
0.0
 11
182.9414218238285
 21
14.69700357646467
 31
0.0
 11
182.9435638463434
 21
14.47163149318767
 31
0.0
 11
182.9500384208309
 21
14.2497519099098
 31
0.0
 11
182.9590577693891
 21
14.03132954885329
 31
0.0
 11
182.9689825870146
 21
13.81626739612927
 31
0.0
 11
182.887261616877
 21
13.82145433189186
 31
0.0
 11
182.8004341885365
 21
13.82315538223863
 31
0.0
 11
182.713539511934
 21
13.82145433189185
 31
0.0
 11
182.6318769706145
 21
13.81626739612927
 31
0.0
 11
182.641732820038
 21
14.03132954885329
 31
0.0
 11
182.6507427258646
 21
14.2497519099098
 31
0.0
 11
182.6571833838798
 21
14.47163149318767
 31
0.0
 11
182.6593583588023
 21
14.69700357646467
 31
0.0
 11
182.6593583588023
 21
14.74082641595988
 31
0.0
 11
182.6593583588023
 21
14.85038351469793
 31
0.0
 11
182.6593583588023
 21
14.99280774305738
 31
0.0
 11
182.6593583588023
 21
15.13523197141683
 31
0.0
 11
182.6593583588023
 21
15.24478907015486
 31
0.0
 11
182.6593583588023
 21
15.28861190965008
 31
0.0
 11
182.6571833838798
 21
15.51347467001055
 31
0.0
 11
182.6507427258646
 21
15.73406440953873
 31
0.0
  0
SPLINE
  5
C0
102
{ACAD_REACTORS
330
DD
102
}
330
48
100
AcDbEntity
  8
_U_30EC_U_30A4_U_30E4_U_30FC_1
  6
Continuous
 62
     2
100
AcDbSpline
210
0.0
220
0.0
230
1.0
 70
    11
 71
     3
 72
   110
 73
   106
 74
   104
 42
0.000000001
 43
0.0000000001
 44
0.00000001
 40
0.0
 40
0.0
 40
0.0
 40
0.0
 40
0.2203406257277844
 40
0.4407808782838091
 40
0.5952494494615352
 40
0.7488431659393071
 40
0.9023581831309057
 40
1.056801968670404
 40
1.210736449099961
 40
1.363041386539783
 40
1.515315729683069
 40
1.669377239148077
 40
1.721611652756564
 40
1.773199502942947
 40
1.824933793209997
 40
1.877110426487978
 40
1.982682281206713
 40
2.078781667087437
 40
2.172809640822214
 40
2.271937807378925
 40
2.378349933379318
 40
2.494131557736393
 40
2.62668168394364
 40
2.783145050796068
 40
2.89070123294092
 40
2.99313031245481
 40
3.099869730691798
 40
3.220237816691295
 40
3.352695482737581
 40
3.481732806389836
 40
3.593499473690362
 40
3.67432301333188
 40
3.817951711952773
 40
3.946167120793941
 40
4.061405053453456
 40
4.166480796003068
 40
4.26247877505919
 40
4.350736673551061
 40
4.433071991254032
 40
4.511216293814748
 40
4.564262454118094
 40
4.618474415571717
 40
4.670128488754312
 40
4.722296879126527
 40
4.819540945314453
 40
4.931194984128252
 40
5.049996040257922
 40
5.16864375541544
 40
5.283970811762765
 40
5.392260784910675
 40
5.486512254876693
 40
5.559178233950064
 40
5.591425852853726
 40
5.626215969638093
 40
5.667155838674654
 40
5.717449290214469
 40
5.738402360945082
 40
5.784499116554049
 40
5.830595872165017
 40
5.851548942897876
 40
5.873019280661988
 40
5.924217778408528
 40
5.985325662817899
 40
6.03652416056791
 40
6.057994498334437
 40
6.2368477896077
 40
6.381409928945872
 40
6.493190424178908
 40
6.57406753423072
 40
6.691018086205785
 40
6.814881554220618
 40
6.944307823240655
 40
7.071266716066223
 40
7.193488604462124
 40
7.309042773128379
 40
7.414007203171033
 40
7.505140441886762
 40
7.531150360599928
 40
7.559221645322527
 40
7.587202218921186
 40
7.612569159499397
 40
7.662550809481271
 40
7.702878875764421
 40
7.857328205231264
 40
8.010799568088967
 40
8.165256399657917
 40
8.322232698714256
 40
8.479564855016886
 40
8.63521623029106
 40
8.790882550925978
 40
8.948305154947544
 40
9.168271839033233
 40
9.387358980987505
 40
9.608047961033762
 40
9.832914234792959
 40
9.858338694963294
 40
9.9253668172303
 40
10.02013071422788
 40
10.12876249859027
 40
10.23739428295277
 40
10.33215817995218
 40
10.39918630222422
 40
10.42461076239811
 40
10.6499201933697
 40
10.87188524531215
 40
10.87188524531215
 40
10.87188524531215
 40
10.87188524531215
 10
179.9057788376618
 20
15.7392326039819
 30
0.0
 10
179.9092864933542
 20
15.80616462073804
 30
0.0
 10
179.9163033987662
 20
15.94005891915859
 30
0.0
 10
179.8198027599072
 20
16.22548554971471
 30
0.0
 10
180.0510134726109
 20
16.16284386190284
 30
0.0
 10
180.1919290057156
 20
16.17001554055991
 30
0.0
 10
180.3490417757588
 20
16.16235883078244
 30
0.0
 10
180.5025913427288
 20
16.1625275228304
 30
0.0
 10
180.6545104935081
 20
16.16182040535432
 30
0.0
 10
180.8142214813231
 20
16.17210158351639
 30
0.0
 10
180.9408972601117
 20
16.15496511080751
 30
0.0
 10
181.1370821122082
 20
16.22727260107148
 30
0.0
 10
181.1034395279077
 20
16.12640699080116
 30
0.0
 10
181.1052011317184
 20
16.0761925394767
 30
0.0
 10
181.1027342073458
 20
16.02712335586466
 30
0.0
 10
181.1347076966011
 20
15.94063490847
 30
0.0
 10
181.0010399903256
 20
15.98997438608336
 30
0.0
 10
180.9172208688057
 20
15.98430634314168
 30
0.0
 10
180.8173861139324
 20
15.99465516706297
 30
0.0
 10
180.7186576720146
 20
16.00086450411087
 30
0.0
 10
180.612153277111
 20
16.00697763816777
 30
0.0
 10
180.491051169806
 20
16.01588883484585
 30
0.0
 10
180.3703381502454
 20
16.00521605912382
 30
0.0
 10
180.1812553843437
 20
16.06468503080367
 30
0.0
 10
180.2129028505311
 20
15.90558320077541
 30
0.0
 10
180.1995563316835
 20
15.80839128339904
 30
0.0
 10
180.197495842645
 20
15.69634065110103
 30
0.0
 10
180.1958188044671
 20
15.57699685629351
 30
0.0
 10
180.1973336794232
 20
15.4503259215511
 30
0.0
 10
180.1956582478672
 20
15.32301588016117
 30
0.0
 10
180.2058844271658
 20
15.22451566404465
 30
0.0
 10
180.1779006596582
 20
15.08388702625632
 30
0.0
 10
180.3508029999305
 20
15.13989551134098
 30
0.0
 10
180.4645020202772
 20
15.12719951478497
 30
0.0
 10
180.5840151672239
 20
15.13448377051255
 30
0.0
 10
180.6888491425071
 20
15.13878017056757
 30
0.0
 10
180.7843084898611
 20
15.14330568258976
 30
0.0
 10
180.8763823507032
 20
15.151492011462
 30
0.0
 10
180.9476551782439
 20
15.1464385063811
 30
0.0
 10
181.0544931705687
 20
15.18536425031678
 30
0.0
 10
181.0226603598035
 20
15.1051712200588
 30
0.0
 10
181.026616450393
 20
15.05562936846033
 30
0.0
 10
181.0234502392012
 20
15.00557478039817
 30
0.0
 10
181.0550791490587
 20
14.92128847612022
 30
0.0
 10
180.9210133677692
 20
14.97425365495157
 30
0.0
 10
180.8292322793201
 20
14.96540080890441
 30
0.0
 10
180.7079729189604
 20
14.97570049965154
 30
0.0
 10
180.5914113119771
 20
14.97748911767503
 30
0.0
 10
180.4783375745879
 20
14.97787017109694
 30
0.0
 10
180.367924630847
 20
14.98415449472182
 30
0.0
 10
180.289812406784
 20
14.97189133255364
 30
0.0
 10
180.1913625833644
 20
15.00453887616125
 30
0.0
 10
180.2012355173561
 20
14.94769748054207
 30
0.0
 10
180.1973923244404
 20
14.91392130557984
 30
0.0
 10
180.1966789884268
 20
14.87119604709412
 30
0.0
 10
180.1963369642974
 20
14.83401607262153
 30
0.0
 10
180.1963834255346
 20
14.7948723737077
 30
0.0
 10
180.1963649429926
 20
14.75716849497685
 30
0.0
 10
180.1963703431806
 20
14.71944955232402
 30
0.0
 10
180.1963697214201
 20
14.6899432474515
 30
0.0
 10
180.1963698151545
 20
14.65873577699301
 30
0.0
 10
180.196370428792
 20
14.61414424908085
 30
0.0
 10
180.1963671499337
 20
14.55963956508852
 30
0.0
 10
180.196375962348
 20
14.51505540201449
 30
0.0
 10
180.1963359653418
 20
14.43117808585742
 30
0.0
 10
180.1976024270253
 20
14.31737520677679
 30
0.0
 10
180.1950274117844
 20
14.1683039593371
 30
0.0
 10
180.2065009381719
 20
14.06597203813906
 30
0.0
 10
180.1823506222264
 20
13.93338903885835
 30
0.0
 10
180.3332993946475
 20
13.97895732272019
 30
0.0
 10
180.4428436671556
 20
13.9642701216235
 30
0.0
 10
180.5733970473919
 20
13.96920435125062
 30
0.0
 10
180.6990312209513
 20
13.97257705323362
 30
0.0
 10
180.81887306256
 20
13.97711497498775
 30
0.0
 10
180.9391362611426
 20
13.99048536182004
 30
0.0
 10
181.0222761663516
 20
13.98068712782595
 30
0.0
 10
181.1456080421075
 20
14.04126214623319
 30
0.0
 10
181.1244269203955
 20
13.98532460134021
 30
0.0
 10
181.1235950270116
 20
13.95939249372347
 30
0.0
 10
181.1218963707557
 20
13.93197256190938
 30
0.0
 10
181.1217974888829
 20
13.89738195206386
 30
0.0
 10
181.1203659301329
 20
13.86050408220766
 30
0.0
 10
181.1532804192191
 20
13.76846841021808
 30
0.0
 10
180.9551306988106
 20
13.84132015974831
 30
0.0
 10
180.830054829489
 20
13.81825726508607
 30
0.0
 10
180.6673071295155
 20
13.82454021985786
 30
0.0
 10
180.5129366450001
 20
13.82260943909927
 30
0.0
 10
180.3566670436943
 20
13.82393762599268
 30
0.0
 10
180.1970544465282
 20
13.82059872487864
 30
0.0
 10
180.0540326342236
 20
13.8326579572824
 30
0.0
 10
179.8197144881628
 20
13.76952001976918
 30
0.0
 10
179.9173810751197
 20
14.05620527466318
 30
0.0
 10
179.9006868780059
 20
14.24988308142661
 30
0.0
 10
179.9146296709683
 20
14.47848242880295
 30
0.0
 10
179.9142987846633
 20
14.63384593955051
 30
0.0
 10
179.9143078119263
 20
14.73966336444126
 30
0.0
 10
179.9143055876316
 20
14.80205784124215
 30
0.0
 10
179.9143065551889
 20
14.89220425248327
 30
0.0
 10
179.9143065473262
 20
14.99621167157438
 30
0.0
 10
179.9143053861102
 20
15.10022131375296
 30
0.0
 10
179.9143090971502
 20
15.19036243688768
 30
0.0
 10
179.9143011051051
 20
15.25276803097215
 30
0.0
 10
179.9143334275018
 20
15.35868835961119
 30
0.0
 10
179.9131440788319
 20
15.5162671654474
 30
0.0
 10
179.9082216489256
 20
15.66528219822065
 30
0.0
 10
179.9057788376618
 20
15.7392326039819
 30
0.0
 11
179.9057788376618
 21
15.7392326039819
 31
0.0
 11
179.896691822374
 21
15.95938578101019
 31
0.0
 11
179.8868249573133
 21
16.17960510387179
 31
0.0
 11
180.04115751414
 21
16.17312391463728
 31
0.0
 11
180.1946500189046
 21
16.16754892331925
 31
0.0
 11
180.3481160653366
 21
16.16367167505631
 31
0.0
 11
180.5025544554939
 21
16.16238072887607
 31
0.0
 11
180.6564835227474
 21
16.16367167505631
 31
0.0
 11
180.80873910046
 21
16.16754892331925
 31
0.0
 11
180.9609113551073
 21
16.17312391463728
 31
0.0
 11
181.1148364762483
 21
16.17960510387179
 31
0.0
 11
181.1070811703123
 21
16.12794961777358
 31
0.0
 11
181.1044991623591
 21
16.07642642334204
 31
0.0
 11
181.1070811703123
 21
16.0247566056466
 31
0.0
 11
181.1148364762483
 21
15.97315954836784
 31
0.0
 11
181.0094874054411
 21
15.98001446156058
 31
0.0
 11
180.9136375700061
 21
15.98693552058657
 31
0.0
 11
180.8198593171904
 21
15.99378381919598
 31
0.0
 11
180.7209679915881
 21
16.0006321178054
 31
0.0
 11
180.6147532199924
 21
16.00710999974824
 31
0.0
 11
180.4991060528039
 21
16.01268829835794
 31
0.0
 11
180.3666126447258
 21
16.01656554662088
 31
0.0
 11
180.2101546018423
 21
16.01785649280112
 31
0.0
 11
180.2062663293721
 21
15.91037061609187
 31
0.0
 11
180.2015380048401
 21
15.80805072896465
 31
0.0
 11
180.197660756675
 21
15.70138175329687
 31
0.0
 11
180.1963698105272
 21
15.5810205901325
 31
0.0
 11
180.1967799146836
 21
15.44856355891565
 31
0.0
 11
180.1980896021503
 21
15.31953288186455
 31
0.0
 11
180.1994074577049
 21
15.20777398432309
 31
0.0
 11
180.199819115366
 21
15.12695149302384
 31
0.0
 11
180.3434452935874
 21
15.1278025694125
 31
0.0
 11
180.4716343930759
 21
15.13039989580077
 31
0.0
 11
180.5868078221795
 21
15.13425509545254
 31
0.0
 11
180.6917756312219
 21
15.13901649302077
 31
0.0
 11
180.7876346289421
 21
15.14418027774176
 31
0.0
 11
180.8757413374192
 21
15.14934406246267
 31
0.0
 11
180.9578881438496
 21
15.15491243919739
 31
0.0
 11
181.0357692335572
 21
15.16132086801525
 31
0.0
 11
181.0280180445186
 21
15.10884407115337
 31
0.0
 11
181.0254328449317
 21
15.05469378470857
 31
0.0
 11
181.0280180445186
 21
15.00310444444367
 31
0.0
 11
181.0357692335572
 21
14.95151510417882
 31
0.0
 11
180.9389813454015
 21
14.96092324653758
 31
0.0
 11
180.8275950722016
 21
14.96865128473012
 31
0.0
 11
180.7089261429373
 21
14.97425273438146
 31
0.0
 11
180.5903167449214
 21
14.97726788195012
 31
0.0
 11
180.4750025117521
 21
14.97898767361639
 31
0.0
 11
180.3667261950699
 21
14.98070746528259
 31
0.0
 11
180.2724839317708
 21
14.98202486979617
 31
0.0
 11
180.199819115366
 21
14.98243607639329
 31
0.0
 11
180.199407457705
 21
14.95019108508191
 31
0.0
 11
180.1980896021503
 21
14.91542593752119
 31
0.0
 11
180.1967799146836
 21
14.87450702260085
 31
0.0
 11
180.1963698105272
 21
14.82421524309951
 31
0.0
 11
180.1963698105272
 21
14.80326217235821
 31
0.0
 11
180.1963698105272
 21
14.75716541672736
 31
0.0
 11
180.1963698105272
 21
14.71106866109651
 31
0.0
 11
180.1963698105272
 21
14.69011559035521
 31
0.0
 11
180.1963698105272
 21
14.66864525258281
 31
0.0
 11
180.1963698105272
 21
14.61744675481784
 31
0.0
 11
180.1963698105272
 21
14.55633887038869
 31
0.0
 11
180.1963698105272
 21
14.50514037262372
 31
0.0
 11
180.1963698105272
 21
14.48367003485132
 31
0.0
 11
180.1967799146836
 21
14.30481721371548
 31
0.0
 11
180.1980896021503
 21
14.16026100715443
 31
0.0
 11
180.2002868589709
 21
14.04850210961289
 31
0.0
 11
180.2032586986985
 21
13.96767961831365
 31
0.0
 11
180.3202092517447
 21
13.96767961831365
 31
0.0
 11
180.4440727208745
 21
13.96767961831365
 31
0.0
 11
180.5734925526422
 21
13.9689705644939
 31
0.0
 11
180.7003922282243
 21
13.97284781275683
 31
0.0
 11
180.8224658067973
 21
13.97886708358867
 31
0.0
 11
180.9377587499463
 21
13.98663260442002
 31
0.0
 11
181.0421754573518
 21
13.99734161483402
 31
0.0
 11
181.1320599255448
 21
14.01237656274693
 31
0.0
 11
181.126425403119
 21
13.98698427976716
 31
0.0
 11
181.1234433285422
 21
13.95907184053802
 31
0.0
 11
181.1221339881199
 21
13.93112191867002
 31
0.0
 11
181.1217235369194
 21
13.90575829888472
 31
0.0
 11
181.1243087365063
 21
13.85584355063326
 31
0.0
 11
181.1320599255448
 21
13.81626739612927
 31
0.0
 11
180.9776977178344
 21
13.82145433189186
 31
0.0
 11
180.8242357818764
 21
13.82315538223863
 31
0.0
 11
180.6697789496482
 21
13.82315538223863
 31
0.0
 11
180.5128026496767
 21
13.82315538223863
 31
0.0
 11
180.3554704921536
 21
13.82315538223863
 31
0.0
 11
180.199819115366
 21
13.82315538223863
 31
0.0
 11
180.0441620874241
 21
13.82145433189185
 31
0.0
 11
179.8868249573133
 21
13.81626739612927
 31
0.0
 11
179.896691822374
 21
14.0360126738521
 31
0.0
 11
179.9057788376618
 21
14.25491128490851
 31
0.0
 11
179.91217215184
 21
14.47550763902004
 31
0.0
 11
179.9143063455009
 21
14.70036378479716
 31
0.0
 11
179.9143063455009
 21
14.72578824496875
 31
0.0
 11
179.9143063455009
 21
14.79281636723932
 31
0.0
 11
179.9143063455009
 21
14.88758026424254
 31
0.0
 11
179.9143063455009
 21
14.99621204861208
 31
0.0
 11
179.9143063455009
 21
15.10484383298162
 31
0.0
 11
179.9143063455009
 21
15.19960772998484
 31
0.0
 11
179.9143063455009
 21
15.2666358522554
 31
0.0
 11
179.9143063455009
 21
15.292060312427
 31
0.0
 11
179.91217215184
 21
15.51735963528735
 31
0.0
 11
179.9057788376618
 21
15.7392326039819
 31
0.0
  0
SPLINE
  5
C1
102
{ACAD_REACTORS
330
DE
102
}
330
48
100
AcDbEntity
  8
_U_30EC_U_30A4_U_30E4_U_30FC_1
  6
Continuous
 62
     2
100
AcDbSpline
210
0.0
220
0.0
230
1.0
 70
    11
 71
     3
 72
    95
 73
    91
 74
    89
 42
0.000000001
 43
0.0000000001
 44
0.00000001
 40
0.0
 40
0.0
 40
0.0
 40
0.0
 40
0.6550406656910744
 40
1.308087289031881
 40
1.420803739835754
 40
1.566130759770765
 40
1.757067341888427
 40
2.006513545026426
 40
2.087328263121516
 40
2.185328872295596
 40
2.294612454748338
 40
2.40893638053478
 40
2.526802767798529
 40
2.646360524615567
 40
2.762535723971546
 40
2.870057342870116
 40
2.966883448431611
 40
3.050803243518262
 40
3.115818222436579
 40
3.156030057150214
 40
3.213914225080144
 40
3.276689026450517
 40
3.342960320981294
 40
3.404230667150543
 40
3.453822809493356
 40
3.532499827188408
 40
3.634775188507151
 40
3.754909333008145
 40
3.889736761660643
 40
4.035769602175209
 40
4.187256681197594
 40
4.33873368567595
 40
4.488478734676117
 40
4.634708317831584
 40
4.771493189921268
 40
4.892686571561197
 40
5.19977552894444
 40
5.460353566929623
 40
5.667603142345498
 40
5.814722905404477
 40
5.828990806219776
 40
5.855488336304473
 40
5.869756237118804
 40
6.189796507762848
 40
6.531890469872996
 40
6.883053637017023
 40
7.230512024911397
 40
7.566966656764567
 40
7.885203559707337
 40
8.172887439719158
 40
8.418011594062753
 40
8.443926721190675
 40
8.510760470613164
 40
8.602145393795675
 40
8.701714041647117
 40
8.79309896507535
 40
8.859932715057926
 40
8.885847842603575
 40
9.242301256612784
 40
9.589275455016734
 40
9.921808543164142
 40
10.23479624298464
 40
10.29968150889169
 40
10.35323493887743
 40
10.40154625355131
 40
10.46482922477812
 40
10.55973900668392
 40
10.69239545985605
 40
10.84920353475659
 40
11.01626328594766
 40
11.18672024367429
 40
11.35372582577198
 40
11.50257442292414
 40
11.61866495023278
 40
11.71329869152861
 40
11.82511050573895
 40
11.94464880845703
 40
12.06929242642493
 40
12.19707290435163
 40
12.32562632860515
 40
12.45034565331266
 40
12.56646595170314
 40
12.67099007414622
 40
12.7607762593677
 40
12.82703233506682
 40
12.8742913278598
 40
12.8983199032332
 40
12.92234847860008
 40
13.5398476741031
 40
14.18294284359359
 40
14.18294284359359
 40
14.18294284359359
 40
14.18294284359359
 10
177.306793564802
 20
14.70898038201725
 30
0.0
 10
177.175201975855
 20
14.82265058603234
 30
0.0
 10
176.9124193802728
 20
15.04964496316163
 30
0.0
 10
176.399739344102
 20
15.8921446295629
 30
0.0
 10
176.4106654595363
 20
15.5342337757702
 30
0.0
 10
176.4041226527989
 20
15.39267392272133
 30
0.0
 10
176.4028026631772
 20
15.19421305299281
 30
0.0
 10
176.4018117602537
 20
15.02150296045983
 30
0.0
 10
176.4024101751974
 20
14.8786537325758
 30
0.0
 10
176.4038994301882
 20
14.78265005413358
 30
0.0
 10
176.4055683588473
 20
14.67545503263141
 30
0.0
 10
176.4071934954617
 20
14.56164211517582
 30
0.0
 10
176.4092429501686
 20
14.44441572604589
 30
0.0
 10
176.4123165501927
 20
14.3265641123297
 30
0.0
 10
176.4156339697043
 20
14.21228087320621
 30
0.0
 10
176.419360534028
 20
14.10521401867277
 30
0.0
 10
176.4217338161424
 20
14.01007408766922
 30
0.0
 10
176.4278718888356
 20
13.92558557205694
 30
0.0
 10
176.4239784495947
 20
13.86923087298142
 30
0.0
 10
176.4455230443077
 20
13.79825022472354
 30
0.0
 10
176.3680940058617
 20
13.82902677604483
 30
0.0
 10
176.3116353240191
 20
13.82011242517615
 30
0.0
 10
176.2540495896807
 20
13.82896218398275
 30
0.0
 10
176.1690163478472
 20
13.79738225225944
 30
0.0
 10
176.2009714146383
 20
13.8809515599219
 30
0.0
 10
176.1990705282538
 20
13.94882608968309
 30
0.0
 10
176.21079600473
 20
14.05233256764419
 30
0.0
 10
176.2164241053
 20
14.17002125616695
 30
0.0
 10
176.223790217894
 20
14.30388609164424
 30
0.0
 10
176.2320759701611
 20
14.44764152872631
 30
0.0
 10
176.2398851897426
 20
14.59714022843445
 30
0.0
 10
176.2457571222658
 20
14.74792549402079
 30
0.0
 10
176.2503667817967
 20
14.89699943878439
 30
0.0
 10
176.2542632117544
 20
15.04122913163023
 30
0.0
 10
176.2570715126563
 20
15.17583905213018
 30
0.0
 10
176.2576698755023
 20
15.36469614347355
 30
0.0
 10
176.261602386715
 20
15.58975494313153
 30
0.0
 10
176.2442175378498
 20
15.86367091125708
 30
0.0
 10
176.2850417342583
 20
16.02787112098595
 30
0.0
 10
176.1995153256001
 20
16.22749661465097
 30
0.0
 10
176.2660558907688
 20
16.22385458403978
 30
0.0
 10
176.283872427323
 20
16.22413447160854
 30
0.0
 10
176.4056801797504
 20
16.22632927398613
 30
0.0
 10
176.5080770335462
 20
15.9467511872152
 30
0.0
 10
176.7580021509356
 20
15.74563008535997
 30
0.0
 10
176.9870035331111
 20
15.47792614987925
 30
0.0
 10
177.2245151213108
 20
15.22646413862368
 30
0.0
 10
177.4486090740772
 20
14.98969974061366
 30
0.0
 10
177.6750716283008
 20
14.73218692583075
 30
0.0
 10
177.8325687886514
 20
14.61649335056921
 30
0.0
 10
178.0472129612673
 20
14.27997152538791
 30
0.0
 10
178.0422645974619
 20
14.40464754091604
 30
0.0
 10
178.0433931602546
 20
14.46327691935737
 30
0.0
 10
178.0428877841517
 20
14.55043662371977
 30
0.0
 10
178.0430475158113
 20
14.64416143182873
 30
0.0
 10
178.0430054891318
 20
14.73018971297035
 30
0.0
 10
178.0430202040372
 20
14.79153891945496
 30
0.0
 10
178.0429706255985
 20
14.94135231520993
 30
0.0
 10
178.045881152281
 20
15.17989612510104
 30
0.0
 10
178.0259521041161
 20
15.54486509868702
 30
0.0
 10
178.0750433936248
 20
15.8079963199341
 30
0.0
 10
177.917795150918
 20
16.21928904947752
 30
0.0
 10
178.0762112872422
 20
16.16398282551749
 30
0.0
 10
178.1311680478628
 20
16.16199686500175
 30
0.0
 10
178.1827887766739
 20
16.16264778248252
 30
0.0
 10
178.2713198965366
 20
16.20369527738247
 30
0.0
 10
178.2204898303168
 20
16.05696326622988
 30
0.0
 10
178.2313389930282
 20
15.95019971954434
 30
0.0
 10
178.2166036994847
 20
15.79085705414113
 30
0.0
 10
178.2099976446206
 20
15.62853061652874
 30
0.0
 10
178.2014961399915
 20
15.45992521892396
 30
0.0
 10
178.1943227202198
 20
15.29814814703541
 30
0.0
 10
178.1889063215389
 20
15.15422331457932
 30
0.0
 10
178.1871713967648
 20
15.03437493466926
 30
0.0
 10
178.1875440672319
 20
14.92686101590516
 30
0.0
 10
178.1873656126263
 20
14.81820024645586
 30
0.0
 10
178.1877010863138
 20
14.6995357016553
 30
0.0
 10
178.1890040622186
 20
14.57555163512742
 30
0.0
 10
178.1908887351575
 20
14.44858294171106
 30
0.0
 10
178.1925004454849
 20
14.32153861551032
 30
0.0
 10
178.194140313743
 20
14.19854884492178
 30
0.0
 10
178.1962570745751
 20
14.08300931383759
 30
0.0
 10
178.1963848422363
 20
13.98090903955837
 30
0.0
 10
178.2006514396554
 20
13.89009848838156
 30
0.0
 10
178.1908440085289
 20
13.83213621208786
 30
0.0
 10
178.2118474771689
 20
13.76517130132029
 30
0.0
 10
178.1725639739897
 20
13.77291153966688
 30
0.0
 10
177.9595307117746
 20
13.75755254145194
 30
0.0
 10
177.7636297943185
 20
14.3140305809447
 30
0.0
 10
177.4611197631543
 20
14.57556035348511
 30
0.0
 10
177.306793564802
 20
14.70898038201725
 30
0.0
 11
177.306793564802
 21
14.70898038201725
 31
0.0
 11
176.8595529338511
 21
15.18757635411978
 31
0.0
 11
176.4124049070643
 21
15.66352649288971
 31
0.0
 11
176.4089664262494
 21
15.55086249986233
 31
0.0
 11
176.4055610183499
 21
15.4055753818431
 31
0.0
 11
176.4029636920273
 21
15.21465645827968
 31
0.0
 11
176.4021126156602
 21
14.96521170139757
 31
0.0
 11
176.4025239230289
 21
14.8843980295428
 31
0.0
 11
176.4038420329817
 21
14.78640628477561
 31
0.0
 11
176.4055192267718
 21
14.67713557299739
 31
0.0
 11
176.4072367127517
 21
14.56282454872039
 31
0.0
 11
176.4094007838772
 21
14.44497802965266
 31
0.0
 11
176.4124049070643
 21
14.325458021002
 31
0.0
 11
176.4158359733138
 21
14.20933349846156
 31
0.0
 11
176.4192928929998
 21
14.1018674655023
 31
0.0
 11
176.4227085253087
 21
14.00510162351264
 31
0.0
 11
176.4261896983792
 21
13.92125406276972
 31
0.0
 11
176.4296006184313
 21
13.85632862007759
 31
0.0
 11
176.4330776843148
 21
13.81626739612927
 31
0.0
 11
176.3754263821571
 21
13.82145433189186
 31
0.0
 11
176.3126746318309
 21
13.82315538223863
 31
0.0
 11
176.2464251717157
 21
13.82145433189185
 31
0.0
 11
176.1853747739675
 21
13.81626739612927
 31
0.0
 11
176.1926772737812
 21
13.8653189412559
 31
0.0
 11
176.2008793569054
 21
13.94356725720855
 31
0.0
 11
176.2090098822348
 21
14.04551893253029
 31
0.0
 11
176.2163406441397
 21
14.16542920159752
 31
0.0
 11
176.2236358280421
 21
14.3000591234389
 31
0.0
 11
176.2318444255596
 21
14.44586107652745
 31
0.0
 11
176.2395504149465
 21
14.59715203135073
 31
0.0
 11
176.2455763002093
 21
14.74850913200735
 31
0.0
 11
176.2503046247416
 21
14.89817951391437
 31
0.0
 11
176.2541928972121
 21
15.04435739582223
 31
0.0
 11
176.2567527408965
 21
15.18111831592697
 31
0.0
 11
176.2576324804574
 21
15.3023085068689
 31
0.0
 11
176.257192610677
 21
15.60939715262545
 31
0.0
 11
176.2559126888347
 21
15.86997204839365
 31
0.0
 11
176.2528658717893
 21
16.07719922716125
 31
0.0
 11
176.2473049112763
 21
16.22421385386062
 31
0.0
 11
176.2615728121469
 21
16.22421385386062
 31
0.0
 11
176.2880703423352
 21
16.22421385386062
 31
0.0
 11
176.3023382432058
 21
16.22421385386062
 31
0.0
 11
176.5194743650277
 21
15.98910179662773
 31
0.0
 11
176.7512744123079
 21
15.73751281231562
 31
0.0
 11
176.989481601884
 21
15.47949555543571
 31
0.0
 11
177.226007455752
 21
15.2249707985549
 31
0.0
 11
177.4555698717705
 21
14.97899759549138
 31
0.0
 11
177.6731797360102
 21
14.74678934034107
 31
0.0
 11
177.8713724913706
 21
14.538266805671
 31
0.0
 11
178.0430143099086
 21
14.36326697932589
 31
0.0
 11
178.0430143099086
 21
14.38918210687043
 31
0.0
 11
178.0430143099086
 21
14.45601585685371
 31
0.0
 11
178.0430143099086
 21
14.54740078030025
 31
0.0
 11
178.0430143099086
 21
14.64696942823454
 31
0.0
 11
178.0430143099086
 21
14.73835435168107
 31
0.0
 11
178.0430143099086
 21
14.80518810166436
 31
0.0
 11
178.0430143099086
 21
14.8311032292089
 31
0.0
 11
178.0417233637609
 21
15.18755430550867
 31
0.0
 11
178.0378461155958
 21
15.53450684014415
 31
0.0
 11
178.0296197790002
 21
15.86693815950552
 31
0.0
 11
178.0154535467229
 21
16.17960510387179
 31
0.0
 11
178.0790351249619
 21
16.16666367158334
 31
0.0
 11
178.132417015961
 21
16.16238072887607
 31
0.0
 11
178.1805381084832
 21
16.16666367158334
 31
0.0
 11
178.2424836798197
 21
16.17960510387179
 31
0.0
 11
178.2351216487574
 21
16.08498128445101
 31
0.0
 11
178.2269790968817
 21
15.95257496503965
 31
0.0
 11
178.2183705364004
 21
15.79600336785656
 31
0.0
 11
178.2097547223216
 21
15.62916593734271
 31
0.0
 11
178.2016187850289
 21
15.45890325509361
 31
0.0
 11
178.1942501393835
 21
15.292060312427
 31
0.0
 11
178.1891406931522
 21
15.1432994357281
 31
0.0
 11
178.1874503478904
 21
15.02722121527102
 31
0.0
 11
178.1874503478904
 21
14.93258747397519
 31
0.0
 11
178.1874503478904
 21
14.82077565976707
 31
0.0
 11
178.1878461204496
 21
14.70123801222749
 31
0.0
 11
178.1890819450709
 21
14.5766005209392
 31
0.0
 11
178.1908392193318
 21
14.44883212687392
 31
0.0
 11
178.1925303477607
 21
14.3202898265588
 31
0.0
 11
178.1942876220214
 21
14.19558288214555
 31
0.0
 11
178.1959787504505
 21
14.0794748960635
 31
0.0
 11
178.1972884379172
 21
13.97495896727017
 31
0.0
 11
178.1976985420735
 21
13.88517371555652
 31
0.0
 11
178.1976985420735
 21
13.81891763918416
 31
0.0
 11
178.1976985420735
 21
13.77165864614041
 31
0.0
 11
178.1736699662976
 21
13.77165864614041
 31
0.0
 11
178.1496413905217
 21
13.77165864614041
 31
0.0
 11
177.7410729200423
 21
14.23466735262191
 31
0.0
 11
177.306793564802
 21
14.70898038201725
 31
0.0
  0
SPLINE
  5
C2
102
{ACAD_REACTORS
330
DF
102
}
330
48
100
AcDbEntity
  8
_U_30EC_U_30A4_U_30E4_U_30FC_1
  6
Continuous
 62
     2
100
AcDbSpline
210
0.0
220
0.0
230
1.0
 70
    11
 71
     3
 72
    25
 73
    21
 74
    19
 42
0.000000001
 43
0.0000000001
 44
0.00000001
 40
0.0
 40
0.0
 40
0.0
 40
0.0
 40
0.0911479969064822
 40
0.1858117896203813
 40
0.2804128399733918
 40
0.3715889190713653
 40
0.4679080494218419
 40
0.5642683809229225
 40
0.6605683222644704
 40
0.7569653015810249
 40
0.8561348172522733
 40
1.092615965104291
 40
1.374867658141874
 40
1.6113488120116
 40
1.710518328425248
 40
1.809403163726567
 40
2.045205463294069
 40
2.326646917622129
 40
2.562449217190591
 40
2.66133404383391
 40
2.66133404383391
 40
2.66133404383391
 40
2.66133404383391
 10
173.2683700567199
 20
14.88614538197292
 30
0.0
 10
173.2987525917922
 20
14.88598079714554
 30
0.0
 10
173.3606895889111
 20
14.88564528689922
 30
0.0
 10
173.4541356960329
 20
14.88269055451999
 30
0.0
 10
173.5475095236356
 20
14.87977752877153
 30
0.0
 10
173.6417760753476
 20
14.87894201643417
 30
0.0
 10
173.7354964790967
 20
14.87996644658048
 30
0.0
 10
173.8352040303204
 20
14.87916977470971
 30
0.0
 10
173.9188949546312
 20
14.88921410235221
 30
0.0
 10
174.0637996315045
 20
14.86234617674164
 30
0.0
 10
173.93961324448
 20
15.03665530280048
 30
0.0
 10
173.8965867286282
 20
15.19651711006091
 30
0.0
 10
173.780892214221
 20
15.45518458550216
 30
0.0
 10
173.7017565431257
 20
15.59231052861858
 30
0.0
 10
173.6431576621816
 20
15.80937033134077
 30
0.0
 10
173.5864803939438
 20
15.59266134213428
 30
0.0
 10
173.5052809900478
 20
15.45327012438236
 30
0.0
 10
173.4063701281487
 20
15.20406969370194
 30
0.0
 10
173.325362509426
 20
15.01925830226074
 30
0.0
 10
173.2813683325838
 20
14.91650446856116
 30
0.0
 10
173.2683700567199
 20
14.88614538197292
 30
0.0
 11
173.2683700567199
 21
14.88614538197292
 31
0.0
 11
173.359513773782
 21
14.88526123266759
 31
0.0
 11
173.454142829758
 21
14.88269697919599
 31
0.0
 11
173.5487082179705
 21
14.88009965280779
 31
0.0
 11
173.6398803250195
 21
14.87924857641911
 31
0.0
 11
173.7361985777706
 21
14.87965978301622
 31
0.0
 11
173.8325499034376
 21
14.88097718752971
 31
0.0
 11
173.9288262638286
 21
14.88310818579313
 31
0.0
 11
174.0251753846343
 21
14.88614538197292
 31
0.0
 11
173.9854633323141
 21
14.9770164219502
 31
0.0
 11
173.8907653613968
 21
15.19370890189602
 31
0.0
 11
173.7777387509471
 21
15.45234186183135
 31
0.0
 11
173.6830407800297
 21
15.66903434177717
 31
0.0
 11
173.6433287277095
 21
15.75990538175445
 31
0.0
 11
173.6043330259266
 21
15.66903434177717
 31
0.0
 11
173.5113432755212
 21
15.45234186183135
 31
0.0
 11
173.4003555089082
 21
15.19370890189602
 31
0.0
 11
173.3073657585028
 21
14.9770164219502
 31
0.0
 11
173.2683700567199
 21
14.88614538197292
 31
0.0
  0
SPLINE
  5
C3
102
{ACAD_REACTORS
330
DF
102
}
330
48
100
AcDbEntity
  8
_U_30EC_U_30A4_U_30E4_U_30FC_1
  6
Continuous
 62
     2
100
AcDbSpline
210
0.0
220
0.0
230
1.0
 70
    11
 71
     3
 72
    57
 73
    53
 74
    51
 42
0.000000001
 43
0.0000000001
 44
0.00000001
 40
0.0
 40
0.0
 40
0.0
 40
0.0
 40
0.0471632082809521
 40
0.091486105463301
 40
0.1357762519701824
 40
0.1826527001610688
 40
0.2295203288572596
 40
0.2737751972219629
 40
0.3181310461543361
 40
0.3652607198398524
 40
0.4571007286314529
 40
0.5671851029165593
 40
0.6894623283868478
 40
0.818175827254596
 40
0.9510087229274198
 40
1.085852229674056
 40
1.218126164475296
 40
1.343545131142402
 40
1.454537202956818
 40
1.567187607530827
 40
1.680710966642474
 40
1.79422686973681
 40
1.900009184247638
 40
2.004085860447889
 40
2.108162674451777
 40
2.214000150155321
 40
2.49603857735217
 40
2.762350745479316
 40
2.997275353279443
 40
3.185110082137737
 40
3.246407890064078
 40
3.312607550212894
 40
3.37887774271174
 40
3.440140399651453
 40
4.100501696006437
 40
4.754913085563482
 40
5.41133169342391
 40
6.077890432568714
 40
6.110575292670993
 40
6.143260152775773
 40
6.367989363395097
 40
6.610525374951499
 40
6.863389136467283
 40
7.119380025547502
 40
7.376036605091067
 40
7.631164770966207
 40
7.876722425456386
 40
8.104953735855974
 40
8.31291668592426
 40
8.49773029494127
 40
8.651018984313815
 40
8.764738853624555
 40
8.764738853624555
 40
8.764738853624555
 40
8.764738853624555
 10
174.7922649500513
 20
13.81626739612927
 30
0.0
 10
174.776661672693
 20
13.81826231079077
 30
0.0
 10
174.7463947960302
 20
13.822132013603
 30
0.0
 10
174.7010994202252
 20
13.82341984967269
 30
0.0
 10
174.6559553129349
 20
13.82308683554052
 30
0.0
 10
174.6099017123399
 20
13.82314658674224
 30
0.0
 10
174.5640496172097
 20
13.82325813650002
 30
0.0
 10
174.5183711648165
 20
13.82277833456591
 30
0.0
 10
174.4750811541609
 20
13.82461109618723
 30
0.0
 10
174.4039947951513
 20
13.80049556814657
 30
0.0
 10
174.4057477261441
 20
13.92184693977254
 30
0.0
 10
174.3586196370568
 20
14.0072623975123
 30
0.0
 10
174.3191478251761
 20
14.12486929345136
 30
0.0
 10
174.2706635532645
 20
14.2423275254044
 30
0.0
 10
174.2201017402521
 20
14.36405935761507
 30
0.0
 10
174.1718634610477
 20
14.49075967862466
 30
0.0
 10
174.1135232947596
 20
14.59933687784955
 30
0.0
 10
174.0980892667261
 20
14.75620657134412
 30
0.0
 10
173.9566586330636
 20
14.72373446548322
 30
0.0
 10
173.8508397414904
 20
14.73512888682179
 30
0.0
 10
173.7358569725222
 20
14.73392591514616
 30
0.0
 10
173.6253142252141
 20
14.73506945347408
 30
0.0
 10
173.5176583522783
 20
14.73418350037527
 30
0.0
 10
173.4121322529243
 20
14.73416602390519
 30
0.0
 10
173.3109192682012
 20
14.72714032472415
 30
0.0
 10
173.1266804827753
 20
14.75135859859871
 30
0.0
 10
173.1157393685411
 20
14.44741691121885
 30
0.0
 10
173.008769163475
 20
14.22353177253397
 30
0.0
 10
172.9098148604346
 20
14.03895314292498
 30
0.0
 10
172.9225090524008
 20
13.79530204804204
 30
0.0
 10
172.8050091716397
 20
13.82508046753198
 30
0.0
 10
172.742205586831
 20
13.82258089509604
 30
0.0
 10
172.67858720934
 20
13.82344075102805
 30
0.0
 10
172.3946014194076
 20
13.78098039941943
 30
0.0
 10
173.0251638499381
 20
14.50081952444794
 30
0.0
 10
173.108764528907
 20
15.01276539435729
 30
0.0
 10
173.492925278934
 20
15.53353743550043
 30
0.0
 10
173.4777208288565
 20
16.23519626253216
 30
0.0
 10
173.7239265722698
 20
16.22345633081256
 30
0.0
 10
173.8256346157563
 20
16.23225004452774
 30
0.0
 10
173.8249752035816
 20
15.9805965073034
 30
0.0
 10
173.9428317155828
 20
15.79818020733961
 30
0.0
 10
174.0315515260486
 20
15.55563740662872
 30
0.0
 10
174.1322292485257
 20
15.32340030530121
 30
0.0
 10
174.2311142712244
 20
15.08674644566921
 30
0.0
 10
174.3299676990667
 20
14.85461739170089
 30
0.0
 10
174.4256166390926
 20
14.63122222788789
 30
0.0
 10
174.5159904573272
 20
14.42272549049321
 30
0.0
 10
174.5989944568189
 20
14.23308448529317
 30
0.0
 10
174.6726088582799
 20
14.066631060681
 30
0.0
 10
174.7342815895545
 20
13.92917699626098
 30
0.0
 10
174.7749458885603
 20
13.84999239430033
 30
0.0
 10
174.7922649500513
 20
13.81626739612927
 30
0.0
 11
174.7922649500513
 21
13.81626739612927
 31
0.0
 11
174.7453878317447
 21
13.82145433189186
 31
0.0
 11
174.7010975896124
 21
13.82315538223863
 31
0.0
 11
174.656807443173
 21
13.82315538223863
 31
0.0
 11
174.6099309947159
 21
13.82315538223863
 31
0.0
 11
174.5630633657033
 21
13.82315538223863
 31
0.0
 11
174.5188084970409
 21
13.82315538223863
 31
0.0
 11
174.4744852776853
 21
13.82145433189185
 31
0.0
 11
174.4276419021443
 21
13.81626739612927
 31
0.0
 11
174.3992532136325
 21
13.90360966173245
 31
0.0
 11
174.3622721815897
 21
14.0072965627482
 31
0.0
 11
174.3188386236701
 21
14.12159987001127
 31
0.0
 11
174.2711055866936
 21
14.24113531268969
 31
0.0
 11
174.2208160133236
 21
14.36408057307565
 31
0.0
 11
174.1696467003932
 21
14.48883822929446
 31
0.0
 11
174.1197531801326
 21
14.61134141502772
 31
0.0
 11
174.0733119111841
 21
14.72784517367919
 31
0.0
 11
173.9623611907589
 21
14.73087465284506
 31
0.0
 11
173.8497309225089
 21
14.7330045486779
 31
0.0
 11
173.7362152069449
 21
14.73432195319141
 31
0.0
 11
173.62270004768
 21
14.73473315978852
 31
0.0
 11
173.5169185312815
 21
14.73432195319141
 31
0.0
 11
173.4128501919225
 21
14.7330045486779
 31
0.0
 11
173.3087951724045
 21
14.73087465284506
 31
0.0
 11
173.2030010615596
 21
14.72784517367919
 31
0.0
 11
173.0980914750139
 21
14.46604437513351
 31
0.0
 11
173.0034868690331
 21
14.2171023265846
 31
0.0
 11
172.9252231210298
 21
13.99559756969557
 31
0.0
 11
172.8693431224556
 21
13.81626739612927
 31
0.0
 11
172.8082651639442
 21
13.82145433189186
 31
0.0
 11
172.7420873618129
 21
13.82315538223863
 31
0.0
 11
172.6758390041282
 21
13.82145433189185
 31
0.0
 11
172.6147963233939
 21
13.81626739612927
 31
0.0
 11
172.889968495193
 21
14.41656508695143
 31
0.0
 11
173.158294573417
 21
15.01343642360775
 31
0.0
 11
173.4240277350405
 21
15.61366245644381
 31
0.0
 11
173.6914740737034
 21
16.22421385386062
 31
0.0
 11
173.7241589339807
 21
16.22421385386062
 31
0.0
 11
173.756843794258
 21
16.22421385386062
 31
0.0
 11
173.8428300681057
 21
16.01658539037084
 31
0.0
 11
173.9357285813609
 21
15.79254614563519
 31
0.0
 11
174.0328714521464
 21
15.55908663180469
 31
0.0
 11
174.131793645803
 21
15.32298128464147
 31
0.0
 11
174.2315341249927
 21
15.08649780379784
 31
0.0
 11
174.3313071129352
 21
14.85168781253712
 31
0.0
 11
174.4280608257449
 21
14.62599492196851
 31
0.0
 11
174.5188084970409
 21
14.41658052097919
 31
0.0
 11
174.6022150834546
 21
14.22607611130461
 31
0.0
 11
174.6770293263377
 21
14.05708232662467
 31
0.0
 11
174.7410729186603
 21
13.91781337700668
 31
0.0
 11
174.7922649500513
 21
13.81626739612927
 31
0.0
  0
SPLINE
  5
C4
102
{ACAD_REACTORS
330
E0
102
}
330
48
100
AcDbEntity
  8
_U_30EC_U_30A4_U_30E4_U_30FC_1
  6
Continuous
 62
     2
100
AcDbSpline
210
0.0
220
0.0
230
1.0
 70
    11
 71
     3
 72
    99
 73
    95
 74
    93
 42
0.000000001
 43
0.0000000001
 44
0.00000001
 40
0.0
 40
0.0
 40
0.0
 40
0.0
 40
0.0796417172273564
 40
0.1621768542356683
 40
0.2486489160957859
 40
0.3404969668525336
 40
0.4381912511165359
 40
0.5434463660245661
 40
0.6518115192847416
 40
0.7530190937887558
 40
0.84921969197263
 40
0.9419290312998886
 40
1.034249663570114
 40
1.129078600620274
 40
1.226697027573339
 40
1.327220425421791
 40
1.470572134938102
 40
1.595489863371296
 40
1.719934125348438
 40
1.850576620127579
 40
1.989059629987365
 40
2.134139054226901
 40
2.280698007207244
 40
2.424529739039558
 40
2.565929576985927
 40
2.708239260773619
 40
2.861717887443729
 40
3.045168540347441
 40
3.18379830113868
 40
3.314813961455563
 40
3.442083470447416
 40
3.56991270837307
 40
3.70217751250933
 40
3.842307559659551
 40
3.992872223245953
 40
4.156750662218456
 40
4.310981861107507
 40
4.445859909322608
 40
4.572393936131601
 40
4.701656719782
 40
4.768279086008481
 40
4.835960697898423
 40
4.912788918729372
 40
5.006285208481533
 40
5.026909478751666
 40
5.047533749021287
 40
5.101808031471358
 40
5.162325165538685
 40
5.226919745995911
 40
5.29423180659676
 40
5.364544852554953
 40
5.438319055468047
 40
5.517877651324409
 40
5.607647714861778
 40
5.700449642544596
 40
5.788251142364272
 40
5.872714706039904
 40
5.95516729257548
 40
6.03719239519052
 40
6.120669181469245
 40
6.206848616686511
 40
6.296680855416927
 40
6.442558392872744
 40
6.568190371608454
 40
6.692904567360507
 40
6.824220446557304
 40
6.963121850329492
 40
7.107843738851256
 40
7.253431663907418
 40
7.395187468036863
 40
7.533140753237899
 40
7.670550457175409
 40
7.816236511769397
 40
7.987691657359355
 40
8.142277421969393
 40
8.293662615415135
 40
8.442962460879368
 40
8.59159831618544
 40
8.74367899236189
 40
8.903725323699303
 40
9.076307008890678
 40
9.265578604680705
 40
9.459203795360851
 40
9.617619810273746
 40
9.753609671362058
 40
9.874873300004204
 40
9.954520184977888
 40
10.02416413719257
 40
10.09769764405458
 40
10.18909955924986
 40
10.20974586420141
 40
10.23039218263381
 40
10.30057101881265
 40
10.37632012987541
 40
10.37632012987541
 40
10.37632012987541
 40
10.37632012987541
 10
170.146595483585
 20
14.13795663215996
 30
0.0
 10
170.1632217851219
 20
14.11720608845315
 30
0.0
 10
170.1970784206578
 20
14.07495111711907
 30
0.0
 10
170.2599822541035
 20
14.02029811392072
 30
0.0
 10
170.3332500940392
 20
13.97299025121047
 30
0.0
 10
170.4175969238636
 20
13.93527231437936
 30
0.0
 10
170.513224061546
 20
13.9104061973195
 30
0.0
 10
170.6171853775345
 20
13.90309559345937
 30
0.0
 10
170.7224020220405
 20
13.91142322794053
 30
0.0
 10
170.8206626371333
 20
13.9414917965153
 30
0.0
 10
170.9058986427549
 20
13.98848822971873
 30
0.0
 10
170.9779220206103
 20
14.0495299125086
 30
0.0
 10
171.0350917709096
 20
14.12412969578583
 30
0.0
 10
171.0767868747439
 20
14.21002464660176
 30
0.0
 10
171.1026952846293
 20
14.30485850432211
 30
0.0
 10
171.1118037332652
 20
14.41854979038368
 30
0.0
 10
171.0986864796487
 20
14.54332587770779
 30
0.0
 10
171.0325330334414
 20
14.6601471917189
 30
0.0
 10
170.9369370919568
 20
14.7451253957738
 30
0.0
 10
170.8249681022369
 20
14.81416684459155
 30
0.0
 10
170.6993659583269
 20
14.87204142045893
 30
0.0
 10
170.5656691620857
 20
14.92373723284343
 30
0.0
 10
170.4313122818831
 20
14.97899092397182
 30
0.0
 10
170.3051983986877
 20
15.04939770641647
 30
0.0
 10
170.1926579987535
 20
15.1378554073125
 30
0.0
 10
170.0969963064458
 20
15.24981067868471
 30
0.0
 10
170.0334157151826
 20
15.39949910101384
 30
0.0
 10
170.0200706505015
 20
15.5593279438514
 30
0.0
 10
170.0320510987448
 20
15.71048405306848
 30
0.0
 10
170.0712298928842
 20
15.83809244591536
 30
0.0
 10
170.1354987750911
 20
15.95080874030845
 30
0.0
 10
170.2238204999741
 20
16.0464860926868
 30
0.0
 10
170.3338091207627
 20
16.1235421498576
 30
0.0
 10
170.4632284401265
 20
16.18151396936276
 30
0.0
 10
170.6111838967794
 20
16.21739177588823
 30
0.0
 10
170.7682069455487
 20
16.22746719050564
 30
0.0
 10
170.917494046643
 20
16.21863637762589
 30
0.0
 10
171.059625361417
 20
16.19074899340353
 30
0.0
 10
171.1595922609626
 20
16.13413314701138
 30
0.0
 10
171.3125074736184
 20
16.08674602105506
 30
0.0
 10
171.2455131717169
 20
16.00197553001185
 30
0.0
 10
171.2296479120268
 20
15.93438901873483
 30
0.0
 10
171.1978750531296
 20
15.86926092793194
 30
0.0
 10
171.2150202209572
 20
15.76723453256952
 30
0.0
 10
171.1666427208233
 20
15.77493211681903
 30
0.0
 10
171.1315789440765
 20
15.76806771724806
 30
0.0
 10
171.1296697985718
 20
15.83263831158199
 30
0.0
 10
171.0985692931988
 20
15.87825639621389
 30
0.0
 10
171.0664551628456
 20
15.93561036628459
 30
0.0
 10
171.0208038475169
 20
15.98540462692561
 30
0.0
 10
170.9658508218387
 20
16.02994813718995
 30
0.0
 10
170.9010841173008
 20
16.06763988836549
 30
0.0
 10
170.8232377310596
 20
16.09283375791352
 30
0.0
 10
170.7355160553352
 20
16.09931230998111
 30
0.0
 10
170.6452903277806
 20
16.09235709285608
 30
0.0
 10
170.5594594694064
 20
16.0690919046092
 30
0.0
 10
170.4828343638596
 20
16.03131644107541
 30
0.0
 10
170.41652656362
 20
15.98051641089581
 30
0.0
 10
170.3622560536963
 20
15.91731143407207
 30
0.0
 10
170.3224925345459
 20
15.84276455710367
 30
0.0
 10
170.2976775510587
 20
15.75917313997765
 30
0.0
 10
170.289212426287
 20
15.65192948382285
 30
0.0
 10
170.3019697987102
 20
15.52965457267557
 30
0.0
 10
170.3681548409274
 20
15.41149724291213
 30
0.0
 10
170.4640977399831
 20
15.32606325709525
 30
0.0
 10
170.5757914963182
 20
15.25583362306726
 30
0.0
 10
170.7010863668702
 20
15.19659162305303
 30
0.0
 10
170.8349823941446
 20
15.14616708086129
 30
0.0
 10
170.968993033315
 20
15.09322516984383
 30
0.0
 10
171.0950885316915
 20
15.02750170625179
 30
0.0
 10
171.2076216638417
 20
14.94480352537319
 30
0.0
 10
171.3031370284233
 20
14.83996006310077
 30
0.0
 10
171.3672706486961
 20
14.69937117251568
 30
0.0
 10
171.3811103725278
 20
14.54065409451593
 30
0.0
 10
171.3673954712228
 20
14.38153155217878
 30
0.0
 10
171.3244739153985
 20
14.23483828819209
 30
0.0
 10
171.2545906329066
 20
14.10119796587141
 30
0.0
 10
171.1574592213829
 20
13.98532387699295
 30
0.0
 10
171.0347806023657
 20
13.89089981770086
 30
0.0
 10
170.8874408413168
 20
13.82179270651982
 30
0.0
 10
170.7177132497124
 20
13.77953210858853
 30
0.0
 10
170.5317404979596
 20
13.76781736230406
 30
0.0
 10
170.3528955926183
 20
13.77809486683439
 30
0.0
 10
170.1881733753743
 20
13.81966573769149
 30
0.0
 10
170.0834410841056
 20
13.88797642883943
 30
0.0
 10
169.9350960790366
 20
13.93675219032106
 30
0.0
 10
169.9980378194728
 20
14.02976591290843
 30
0.0
 10
170.007227443006
 20
14.1029653624828
 30
0.0
 10
170.0303711301231
 20
14.16936294501347
 30
0.0
 10
170.0034588335318
 20
14.26974809527578
 30
0.0
 10
170.0521338956339
 20
14.26234033517379
 30
0.0
 10
170.0916530580696
 20
14.26894063620893
 30
0.0
 10
170.0996204944701
 20
14.19078703218933
 30
0.0
 10
170.1305436967922
 20
14.15600927375858
 30
0.0
 10
170.146595483585
 20
14.13795663215996
 30
0.0
 11
170.146595483585
 21
14.13795663215996
 31
0.0
 11
170.1982038075864
 21
14.07729869814736
 31
0.0
 11
170.2601105501335
 21
14.0227129516332
 31
0.0
 11
170.3327764009802
 21
13.97583980928383
 31
0.0
 11
170.4166468655843
 21
13.93839906276537
 31
0.0
 11
170.511221073241
 21
13.91390636311877
 31
0.0
 11
170.6161603327165
 21
13.90575829888472
 31
0.0
 11
170.7240739497551
 21
13.91564048638223
 31
0.0
 11
170.8208419941616
 21
13.94528704887483
 31
0.0
 11
170.9050776083319
 21
13.99175118948819
 31
0.0
 11
170.9756144207686
 21
14.0519141321815
 31
0.0
 11
171.031944210998
 21
14.1250581946632
 31
0.0
 11
171.0736690016003
 21
14.21021434047523
 31
0.0
 11
171.0994680808033
 21
14.30436190989614
 31
0.0
 11
171.1080824729446
 21
14.40451552098221
 31
0.0
 11
171.0878517703357
 21
14.54643250879398
 31
0.0
 11
171.0272522666731
 21
14.65566684036387
 31
0.0
 11
170.9364971286286
 21
14.74081306430095
 31
0.0
 11
170.8260101884739
 21
14.81052746532517
 31
0.0
 11
170.7008523531254
 21
14.86979854169923
 31
0.0
 11
170.5662951950999
 21
14.9240425347412
 31
0.0
 11
170.4316884277007
 21
14.98201274306005
 31
0.0
 11
170.3065802017258
 21
15.05297399304232
 31
0.0
 11
170.196027609828
 21
15.14113315968694
 31
0.0
 11
170.1053381235265
 21
15.25080295132617
 31
0.0
 11
170.0447055469484
 21
15.39179720476315
 31
0.0
 11
170.0245079172553
 21
15.57413260402314
 31
0.0
 11
170.0374030471347
 21
15.71216131926641
 31
0.0
 11
170.0761016659392
 21
15.83733128451289
 31
0.0
 11
170.1393141731508
 21
15.94779262129084
 31
0.0
 11
170.2257499954546
 21
16.04196885390621
 31
0.0
 11
170.3336492808962
 21
16.11846540770651
 31
0.0
 11
170.4613526283328
 21
16.17615670109488
 31
0.0
 11
170.6075393259923
 21
16.21220066809973
 31
0.0
 11
170.7709768565451
 21
16.22421385386062
 31
0.0
 11
170.9248918431289
 21
16.21434269066864
 31
0.0
 11
171.0564887242607
 21
16.18477329831497
 31
0.0
 11
171.172563634494
 21
16.13439993895252
 31
0.0
 11
171.2800792741122
 21
16.06264163167877
 31
0.0
 11
171.2516994050444
 21
16.00236624106887
 31
0.0
 11
171.2284855254283
 21
15.93879017337648
 31
0.0
 11
171.20783810408
 21
15.86478841992269
 31
0.0
 11
171.1871840681488
 21
15.77360197897328
 31
0.0
 11
171.1665597978416
 21
15.77360197897328
 31
0.0
 11
171.1459355275343
 21
15.77360197897328
 31
0.0
 11
171.1256706495791
 21
15.82395108486347
 31
0.0
 11
171.099465875942
 21
15.8785004511693
 31
0.0
 11
171.0650468924452
 21
15.93316116296115
 31
0.0
 11
171.0203554612938
 21
15.98349593725411
 31
0.0
 11
170.9657333359511
 21
16.02777175321529
 31
0.0
 11
170.9016722004326
 21
16.06436142334501
 31
0.0
 11
170.825968296114
 21
16.08882545979727
 31
0.0
 11
170.7365722046448
 21
16.09701100667022
 31
0.0
 11
170.6440937174207
 21
16.08926973931101
 31
0.0
 11
170.5594072091645
 21
16.06609003445566
 31
0.0
 11
170.483702448884
 21
16.02863495634008
 31
0.0
 11
170.4183754766515
 21
15.97832774281103
 31
0.0
 11
170.3650487887664
 21
15.9160029337988
 31
0.0
 11
170.3254809233901
 21
15.84249947895608
 31
0.0
 11
170.300952375471
 21
15.75988443557391
 31
0.0
 11
170.2927954104108
 21
15.67042329844352
 31
0.0
 11
170.3130095765617
 21
15.52595308146574
 31
0.0
 11
170.373625616682
 21
15.41591177072936
 31
0.0
 11
170.4643479320758
 21
15.33033670130632
 31
0.0
 11
170.5748676948813
 21
15.25941954854626
 31
0.0
 11
170.7000089937719
 21
15.19914305550579
 31
0.0
 11
170.8345826882552
 21
15.14590447913021
 31
0.0
 11
170.9691729191967
 21
15.09039489581074
 31
0.0
 11
171.0942976816297
 21
15.02377281249411
 31
0.0
 11
171.204800907977
 21
14.9411886371675
 31
0.0
 11
171.2955397598288
 21
14.83800003476272
 31
0.0
 11
171.3561557999488
 21
14.70552315979585
 31
0.0
 11
171.3763699660997
 21
14.5352637848384
 31
0.0
 11
171.3621839747997
 21
14.38133030397413
 31
0.0
 11
171.3196087009193
 21
14.23605531269097
 31
0.0
 11
171.2499752884265
 21
14.10398854189069
 31
0.0
 11
171.1544992078713
 21
13.99007218775248
 31
0.0
 11
171.0341060772624
 21
13.89715272597018
 31
0.0
 11
170.8896160201846
 21
13.8283235766818
 31
0.0
 11
170.7223519532713
 21
13.78581275203967
 31
0.0
 11
170.5336103348226
 21
13.77165864614041
 31
0.0
 11
170.3405031726388
 21
13.78581275203967
 31
0.0
 11
170.187897590091
 21
13.8283235766818
 31
0.0
 11
170.0661897942203
 21
13.8889903301389
 31
0.0
 11
169.9660261826363
 21
13.95734322942737
 31
0.0
 11
169.9922320587038
 21
14.03255545163076
 31
0.0
 11
170.0090121537618
 21
14.10014767383612
 31
0.0
 11
170.0206196447852
 21
14.17275926235963
 31
0.0
 11
170.031360625414
 21
14.26352788212859
 31
0.0
 11
170.0520069443316
 21
14.26352788212859
 31
0.0
 11
170.0726532632492
 21
14.26352788212859
 31
0.0
 11
170.1048916391629
 21
14.20119204881084
 31
0.0
 11
170.146595483585
 21
14.13795663215996
 31
0.0
  0
LWPOLYLINE
  5
C5
102
{ACAD_REACTORS
330
D2
102
}
330
48
100
AcDbEntity
  8
_U_30EC_U_30A4_U_30E4_U_30FC_1
  6
Continuous
 62
     2
100
AcDbPolyline
 90
        5
 70
     1
 43
0.0
 10
192.4578138032671
 20
15.39722336795627
 10
192.4578138032671
 20
15.22875434022057
 10
191.1602971697031
 20
15.22875434022057
 10
191.1602971697031
 20
15.39722336795627
 10
192.4578138032671
 20
15.39722336795627
  0
MTEXT
  5
C7
330
48
100
AcDbEntity
  8
1
 62
     2
100
AcDbMText
 10
32.49999999999997
 20
282.0000000000003
 30
0.0
 40
5.0
 41
0.0
 71
     5
 72
     1
  1
図番
  7
CONVERTER_11
 73
     1
 44
0.45454545454545
  0
MTEXT
  5
C8
330
48
100
AcDbEntity
  8
1
 62
     2
100
AcDbMText
 10
28.99999999999997
 20
34.00000000000001
 30
0.0
 40
3.5
 41
0.0
 71
     5
 72
     1
  1
備考
  7
CONVERTER_11
 73
     1
 44
0.45454545454545
  0
MTEXT
  5
C9
330
48
100
AcDbEntity
  8
1
 62
     2
100
AcDbMText
 10
28.99999999999997
 20
22.75
 30
0.0
 40
3.5
 41
0.0
 71
     5
 72
     1
  1
品名
  7
CONVERTER_11
 73
     1
 44
0.72727272727273
  0
MTEXT
  5
CA
330
48
100
AcDbEntity
  8
1
 62
     2
100
AcDbMText
 10
28.99999999999997
 20
14.25
 30
0.0
 40
3.5
 41
0.0
 71
     5
 72
     1
  1
品番
  7
CONVERTER_11
 73
     1
 44
0.72727272727273
  0
MTEXT
  5
CB
330
48
100
AcDbEntity
  8
1
 62
     2
100
AcDbMText
 10
101.4999999999999
 20
25.00000000000001
 30
0.0
 40
3.0
 41
0.0
 71
     5
 72
     1
  1
承認
  7
CONVERTER_11
 73
     1
 44
0.59090909090909
  0
MTEXT
  5
CC
330
48
100
AcDbEntity
  8
1
 62
     2
100
AcDbMText
 10
174.9999999999999
 20
23.50000000000001
 30
0.0
 40
3.5
 41
0.0
 71
     5
 72
     1
  1
第三角法
  7
CONVERTER_11
 73
     1
 44
0.54545454545455
  0
MTEXT
  5
CD
330
48
100
AcDbEntity
  8
1
 62
     2
100
AcDbMText
 10
118.4999999999999
 20
25.00000000000001
 30
0.0
 40
3.0
 41
0.0
 71
     5
 72
     1
  1
検図
  7
CONVERTER_11
 73
     1
 44
0.59090909090909
  0
MTEXT
  5
CE
330
48
100
AcDbEntity
  8
1
 62
     2
100
AcDbMText
 10
152.4999999999999
 20
25.00000000000001
 30
0.0
 40
3.0
 41
0.0
 71
     5
 72
     1
  1
設計
  7
CONVERTER_11
 73
     1
 44
0.59090909090909
  0
MTEXT
  5
CF
330
48
100
AcDbEntity
  8
1
 62
     2
100
AcDbMText
 10
135.4999999999999
 20
25.00000000000001
 30
0.0
 40
3.0
 41
0.0
 71
     5
 72
     1
  1
製図
  7
CONVERTER_11
 73
     1
 44
0.59090909090909
  0
MTEXT
  5
D0
330
48
100
AcDbEntity
  8
1
 62
     2
100
AcDbMText
 10
89.49999999999994
 20
24.00000000000001
 30
0.0
 40
3.5
 41
0.0
 71
     5
 72
     1
  1
尺度
  7
CONVERTER_11
 73
     1
 44
0.54545454545455
  0
MTEXT
  5
D1
330
48
100
AcDbEntity
  8
1
 62
   250
100
AcDbMText
 10
24.99999999999997
 20
5.0
 30
0.0
 40
3.5
 41
0.0
 71
     4
 72
     1
  1
備考欄の文字列 原点位置=4
  7
CONVERTER_11
 73
     1
 44
0.54545454545455
  0
HATCH
  5
D2
330
48
100
AcDbEntity
  8
1
  6
Continuous
 62
     2
100
AcDbHatch
 10
0.0
 20
0.0
 30
0.0
210
0.0
220
0.0
230
1.0
  2
CUSTOM0
 70
     0
 71
     1
 91
        1
 92
        1
 93
        4
 72
     1
 10
192.4578138032671
 20
15.39722336795627
 11
192.4578138032671
 21
15.22875434022057
 72
     1
 10
192.4578138032671
 20
15.22875434022057
 11
191.1602971697031
 21
15.22875434022057
 72
     1
 10
191.1602971697031
 20
15.22875434022057
 11
191.1602971697031
 21
15.39722336795627
 72
     1
 10
191.1602971697031
 20
15.39722336795627
 11
192.4578138032671
 21
15.39722336795627
 97
        1
330
C5
 75
     1
 76
     2
 52
45.0
 41
0.1
 77
     0
 78
     1
 53
45.0
 43
0.0
 44
0.0
 45
-0.282842712474619
 46
0.0
 79
     0
 98
        1
 10
0.0
 20
0.0
  0
HATCH
  5
D3
330
48
100
AcDbEntity
  8
1
  6
Continuous
 62
     2
100
AcDbHatch
 10
0.0
 20
0.0
 30
0.0
210
0.0
220
0.0
230
1.0
  2
CUSTOM1
 70
     0
 71
     1
 91
        1
 92
        1
 93
        3
 72
     4
 94
        3
 73
     0
 74
     0
 95
       24
 96
       20
 40
0.0
 40
0.0
 40
0.0
 40
0.0
 40
0.2211075008754179
 40
0.4273218586245272
 40
0.5080174679239796
 40
0.5914835907871183
 40
0.81432656901937
 40
1.054651302686683
 40
1.295452694023272
 40
1.518109231328923
 40
1.540864321905538
 40
1.595126460622799
 40
1.659890947896113
 40
1.714153085187471
 40
1.736908174961771
 40
1.764951100735458
 40
1.801562291221048
 40
1.95391442454373
 40
2.126104167379792
 40
2.126104167379792
 40
2.126104167379792
 40
2.126104167379792
 10
185.937536955689
 20
15.58989295113016
 10
185.9112579081812
 20
15.53097628234374
 10
185.8604698894424
 20
15.4171113967926
 10
185.8131784839113
 20
15.14441958233116
 10
185.7043482802618
 20
15.24445482575456
 10
185.5514800279637
 20
15.27118593367327
 10
185.7686155181198
 20
15.48518135017633
 10
185.7838483674381
 20
15.70332117782487
 10
185.8906889492001
 20
15.88451579066426
 10
185.8305380947077
 20
16.16913226311402
 10
185.9334317395402
 20
16.14114089222451
 10
185.977993346815
 20
16.13243251602299
 10
186.0380842395397
 20
16.12139654183355
 10
186.0756619587438
 20
16.10767523055559
 10
186.1252466928606
 20
16.10756076160223
 10
186.0930158919325
 20
16.07306592398623
 10
186.0171802221881
 20
16.08404104537964
 10
186.0429447159692
 20
15.89858969582452
 10
186.0055896763849
 20
15.8070231354959
 10
185.9857704961609
 20
15.75844135397706
 72
     4
 94
        3
 73
     0
 74
     0
 95
       70
 96
       66
 40
0.0
 40
0.0
 40
0.0
 40
0.0
 40
0.0241731073021472
 40
0.0846058988987582
 40
0.1631685280353852
 40
0.2417311571790608
 40
0.302163948829332
 40
0.3263370654896678
 40
0.3533118254250018
 40
0.422878343892323
 40
0.5179999095314504
 40
0.6216398239467168
 40
0.7167613891500736
 40
0.7863279069650894
 40
0.8133026791762866
 40
0.8372943998772704
 40
0.8945054261373332
 40
0.9627895541962819
 40
1.020000580349063
 40
1.043992300975161
 40
1.071934345522874
 40
1.113121768772914
 40
1.145225199332239
 40
1.22548377541277
 40
1.329819923771477
 40
1.434156071994367
 40
1.514414647795783
 40
1.546518078208391
 40
1.578974764260164
 40
1.662678849314159
 40
1.77713137366838
 40
1.901833377474771
 40
2.016285900500561
 40
2.099989982527928
 40
2.132446666570286
 40
2.15878235448601
 40
2.216720867907799
 40
2.274659381334224
 40
2.300995069256156
 40
2.333451754066128
 40
2.417155836543809
 40
2.531608358985248
 40
2.656310362283743
 40
2.770762886388876
 40
2.854466971340041
 40
2.886923657363848
 40
2.913597976833282
 40
2.982389642875084
 40
3.07645171694695
 40
3.178937260458562
 40
3.272999334739967
 40
3.34179100105919
 40
3.368465320663503
 40
3.396976080738753
 40
3.472140811845989
 40
3.578408190308678
 40
3.700226892456143
 40
3.822045594634389
 40
3.928312973256524
 40
4.003477705314921
 40
4.031988456866987
 40
4.058324144797787
 40
4.116262658236952
 40
4.174201171400755
 40
4.200536849608689
 40
4.200536849608689
 40
4.200536849608689
 40
4.200536849608689
 10
185.9857704961609
 20
15.75844135397706
 10
185.9938259544679
 20
15.75844359811688
 10
186.0220200663241
 20
15.75845146032798
 10
186.0765534803673
 20
15.75830754828373
 10
186.1482891808604
 20
15.75909120499899
 10
186.2236240137063
 20
15.75627570463811
 10
186.2713052366439
 20
15.76298403400958
 10
186.3195071245617
 20
15.75197563692432
 10
186.3062571799874
 20
15.80546402997033
 10
186.3151093964539
 20
15.86049583543092
 10
186.3108698036286
 20
15.95419908726109
 10
186.3133483481281
 20
16.04959482218533
 10
186.3090938706061
 20
16.14356821983387
 10
186.3179818665847
 20
16.19795062438012
 10
186.3046977409946
 20
16.2523399769146
 10
186.351411927711
 20
16.23842216335358
 10
186.3943254545738
 20
16.24103877374043
 10
186.4605443456686
 20
16.23648422450755
 10
186.5013342271798
 20
16.22778162134161
 10
186.5525145690818
 20
16.23531799890196
 10
186.5253720487201
 20
16.19349970223283
 10
186.4803096055707
 20
16.20284992072598
 10
186.4942065045051
 20
16.13841207371837
 10
186.4858414431653
 20
16.07378219627399
 10
186.4903632178398
 20
15.97529141193888
 10
186.4854741311167
 20
15.87595932842571
 10
186.4950258992082
 20
15.81293115552969
 10
186.47997614552
 20
15.7496401149979
 10
186.5449159457208
 20
15.7651507294427
 10
186.6116246399497
 20
15.75499387697813
 10
186.7241435470827
 20
15.75988800099368
 10
186.8390235448954
 20
15.75691204732785
 10
186.9519871999746
 20
15.76221664184991
 10
187.0176267597678
 20
15.7510730647209
 10
187.0816276691053
 20
15.76744532319858
 10
187.0703142889189
 20
15.71761689905276
 10
187.0775339871509
 20
15.67416715212124
 10
187.070314261127
 20
15.63071745587446
 10
187.0816277175994
 20
15.58088895196877
 10
187.0176263598972
 20
15.59726166091363
 10
186.9519921240459
 20
15.5861127166159
 10
186.838997431733
 20
15.59144857206855
 10
186.7242456548644
 20
15.58834345663823
 10
186.611318368686
 20
15.59364894682589
 10
186.5455220903585
 20
15.58257300019595
 10
186.4816097975358
 20
15.59887597847619
 10
186.4936015165126
 20
15.54423524395742
 10
186.4862104613005
 20
15.48854295047843
 10
186.4892684841983
 20
15.39649689140571
 10
186.4893422785683
 20
15.30179109873102
 10
186.486031357836
 20
15.20952782902266
 10
186.4939505989904
 20
15.15435768736141
 10
186.4815076611617
 20
15.10058169100136
 10
186.5389116551632
 20
15.11453768862783
 10
186.5994708140383
 20
15.10511457884227
 10
186.7048680855081
 20
15.10942885928705
 10
186.8204294070623
 20
15.10835504612032
 10
186.9359688877798
 20
15.10725965900995
 10
187.0414181130841
 20
15.11162525770633
 10
187.1018680471805
 20
15.10209426030672
 10
187.1592837739111
 20
15.1161728960638
 10
187.1477773876711
 20
15.06707153265684
 10
187.153756678175
 20
15.02564658018649
 10
187.1520311050804
 20
14.97651677966696
 10
187.1521500122972
 20
14.94854428447608
 10
187.1521871691834
 20
14.9398028819595
 72
     4
 94
        3
 73
     0
 74
     0
 95
       62
 96
       58
 40
0.0
 40
0.0
 40
0.0
 40
0.0
 40
0.0598250028309053
 40
0.2024846486898184
 40
0.3727558389222168
 40
0.5154154847937491
 40
0.5752404975787329
 40
0.9332326775489372
 40
1.290451762839704
 40
1.602077253146128
 40
1.699931634112398
 40
1.799359756425303
 40
2.270120149657342
 40
2.804661928461802
 40
2.882342287383515
 40
3.076543185719363
 40
3.329004354835821
 40
3.581465524568645
 40
3.775666424543927
 40
3.853346784558547
 40
3.899120679595293
 40
3.984129341792177
 40
4.029903236817526
 40
4.10579749605968
 40
4.29553314415264
 40
4.542189486611885
 40
4.788845828875833
 40
4.978581476410217
 40
5.05447573524446
 40
5.621734664339511
 40
6.130867242037561
 40
6.225249780948819
 40
6.318913039727549
 40
6.663579954559244
 40
7.047498900225077
 40
7.43523079157597
 40
7.498943906668353
 40
7.650875181210347
 40
7.832212509001801
 40
7.984143783697187
 40
8.047856898903314
 40
8.091554632732823
 40
8.172707566964485
 40
8.21640530076821
 40
8.289021782161095
 40
8.462184160757468
 40
8.668861838005634
 40
8.842024215264226
 40
8.91464069547545
 40
8.989881580861658
 40
9.155411528827564
 40
9.320941477744347
 40
9.3961823524876
 40
9.45470901114409
 40
9.58346766017111
 40
9.712226309013332
 40
9.770752957989814
 40
9.770752957989814
 40
9.770752957989814
 40
9.770752957989814
 10
187.1521871691834
 20
14.9398028819595
 10
187.1322348171624
 20
14.93980875568671
 10
187.0647037716466
 20
14.93982863806157
 10
186.9410612161788
 20
14.93949362520325
 10
186.7863180150056
 20
14.94107673750512
 10
186.6697349482479
 20
14.93686078860495
 10
186.4550942634239
 20
14.95215205331627
 10
186.8518948407228
 20
14.59198721286192
 10
186.8945656069266
 20
14.37510503397167
 10
187.3189162146612
 20
14.19325062511443
 10
187.1439821496073
 20
14.08985196568075
 10
187.0194523925084
 20
13.87831523212719
 10
186.7666277235942
 20
14.34806081001565
 10
186.4797602893627
 20
14.99511516984521
 10
186.490633592666
 20
14.68782672154694
 10
186.488289277796
 20
14.52288616971779
 10
186.4861096126411
 20
14.28879670711694
 10
186.4980774396346
 20
14.04498072421784
 10
186.4687984740631
 20
13.89855796860986
 10
186.511452262547
 20
13.75113490174539
 10
186.423981400564
 20
13.7668579730622
 10
186.3768527606745
 20
13.76694303543455
 10
186.2898973207714
 20
13.7510942548291
 10
186.3313474021725
 20
13.89527771422763
 10
186.3029875004285
 20
14.03855052698456
 10
186.3145973775301
 20
14.27674947365266
 10
186.3124175648273
 20
14.50517235240347
 10
186.3103111127995
 20
14.66705729375996
 10
186.3208035438323
 20
14.98153709333753
 10
186.0128963252893
 20
14.29229470872434
 10
185.7055258267457
 20
13.81476750243056
 10
185.5851367066273
 20
14.03741112637428
 10
185.4074607910721
 20
14.15011034955564
 10
185.8853326362894
 20
14.32548143465459
 10
185.9353959057207
 20
14.56091929252031
 10
186.3583799621717
 20
14.95322989344607
 10
186.1276754273539
 20
14.93655307029065
 10
186.0049685859341
 20
14.94269518948771
 10
185.8325483095661
 20
14.93312822699574
 10
185.7213224694449
 20
14.95448818489666
 10
185.6025779627448
 20
14.9213626535742
 10
185.6183169706686
 20
15.00203900606883
 10
185.6178550933762
 20
15.04645414290854
 10
185.6027881889931
 20
15.12967081778534
 10
185.7372380935442
 20
15.09062651983883
 10
185.8619755545747
 20
15.11739729328423
 10
186.062875523728
 20
15.10063949044052
 10
186.1921540949355
 20
15.12204225913006
 10
186.3328419928295
 20
15.0886877885342
 10
186.2980927452617
 20
15.22651875785069
 10
186.3222185666713
 20
15.34963257349482
 10
186.2967086182393
 20
15.47024055670335
 10
186.3333251146686
 20
15.60539865141494
 10
186.2211417027771
 20
15.58094545781892
 10
186.1280356457137
 20
15.59307749842024
 10
186.0191547579821
 20
15.58957630069995
 10
185.9569697640965
 20
15.58981755951603
 10
185.9375369557247
 20
15.58989295124145
 97
        3
330
B6
330
B4
330
B5
 75
     1
 76
     2
 52
45.0
 41
0.1
 77
     0
 78
     1
 53
45.0
 43
0.0
 44
0.0
 45
-0.282842712474619
 46
0.0
 79
     0
 98
        1
 10
0.0
 20
0.0
  0
HATCH
  5
D4
330
48
100
AcDbEntity
  8
1
  6
Continuous
 62
     2
100
AcDbHatch
 10
0.0
 20
0.0
 30
0.0
210
0.0
220
0.0
230
1.0
  2
CUSTOM2
 70
     0
 71
     1
 91
        1
 92
        1
 93
        1
 72
     4
 94
        3
 73
     0
 74
     0
 95
      124
 96
      120
 40
0.0
 40
0.0
 40
0.0
 40
0.0
 40
0.027818722962451
 40
0.1011590162384269
 40
0.2048470170590239
 40
0.3237088716559245
 40
0.4425707262522
 40
0.5462587270699547
 40
0.6195990203311798
 40
0.647417752257866
 40
0.6750060736115224
 40
0.7357003855242705
 40
0.7963946998054368
 40
0.823983024557166
 40
0.8540933811102753
 40
0.9373396629409434
 40
1.063094687343224
 40
1.220731268638062
 40
1.399622220914737
 40
1.589140358637722
 40
1.778658496423888
 40
1.957549448940498
 40
2.115186030873148
 40
2.240941056914452
 40
2.324187341760521
 40
2.354297700109371
 40
2.381886024671878
 40
2.442580338710461
 40
2.50327465275048
 40
2.530862977314585
 40
2.560983949278538
 40
2.640393784452884
 40
2.752662861759107
 40
2.881361560118123
 40
3.01006025845517
 40
3.122329335705317
 40
3.201739170817931
 40
3.231860142753292
 40
3.264298024030347
 40
3.352343701778218
 40
3.482095226868739
 40
3.639650650172999
 40
3.811108022565453
 40
3.982565394927957
 40
4.140120818152538
 40
4.269872343141246
 40
4.357918020802306
 40
4.390355902043935
 40
4.423256253992505
 40
4.508104530072969
 40
4.624121560636737
 40
4.750528176031465
 40
4.866545206601912
 40
4.951393482691841
 40
4.984293834645242
 40
5.011450833242157
 40
5.071196230151942
 40
5.130941627057021
 40
5.158098625648685
 40
5.190998977601347
 40
5.275847253689144
 40
5.391864284256607
 40
5.518270899648095
 40
5.634287930209106
 40
5.71913620628778
 40
5.752036558235667
 40
5.782130946282693
 40
5.862783906228867
 40
5.979550131774734
 40
6.117984316640141
 40
6.263641154587686
 40
6.402075339413892
 40
6.518841564907686
 40
6.599494524815268
 40
6.629588912848505
 40
6.654403028226081
 40
6.713575149487848
 40
6.784199939329166
 40
6.843372060493268
 40
6.868186175802514
 40
6.896246243201624
 40
6.939586233757966
 40
6.967846564564594
 40
7.043584251089532
 40
7.15323433445139
 40
7.28323185573414
 40
7.420011856035174
 40
7.550009376579526
 40
7.659659458834925
 40
7.735397144416918
 40
7.76365747485109
 40
7.796409728010747
 40
7.880876065096022
 40
7.996370852465407
 40
8.122208446418302
 40
8.237703224798896
 40
8.32216956201059
 40
8.354921815205604
 40
8.382078813307384
 40
8.44182420920669
 40
8.50156960523984
 40
8.528726603485419
 40
8.561478856695468
 40
8.645945193877518
 40
8.76143998086503
 40
8.887277580764172
 40
9.002772362000693
 40
9.087238696660913
 40
9.119990949235367
 40
9.152428830613067
 40
9.24047450863828
 40
9.37022603414923
 40
9.527781457984112
 40
9.6992388309811
 40
9.870696203978287
 40
10.02825162781371
 40
10.15800315332532
 40
10.24604883135087
 40
10.2784867037849
 40
10.2784867037849
 40
10.2784867037849
 40
10.2784867037849
 10
195.3821827564383
 20
14.01410517385758
 10
195.3914554737523
 20
14.01410498511275
 10
195.4251744536861
 20
14.01410430876715
 10
195.4934706812465
 20
14.01411807243305
 10
195.592014171158
 20
14.01403224219546
 10
195.7062066464812
 20
14.01441755612252
 10
195.818589441707
 20
14.01300835897546
 10
195.9214376600118
 20
14.01719117422244
 10
195.9806839874849
 20
14.00823089251984
 10
196.0371265937032
 20
14.02164434526061
 10
196.0246255586956
 20
13.97087198613363
 10
196.0329549635703
 20
13.92589320939068
 10
196.024817084112
 20
13.8805675299049
 10
196.0370529214456
 20
13.82931932408468
 10
195.9747773490334
 20
13.84447955365278
 10
195.9060513026867
 20
13.83359750710744
 10
195.7782756749592
 20
13.83911304747975
 10
195.6262984511643
 20
13.837008512537
 10
195.4502695972523
 20
13.83771002588475
 10
195.2644431934287
 20
13.83745237531293
 10
195.0786167437175
 20
13.83771005144606
 10
194.9025880142168
 20
13.83700841847732
 10
194.7506104154195
 20
13.83911332229991
 10
194.6228357664554
 20
13.83359680767642
 10
194.554107783658
 20
13.84448077125944
 10
194.4918349042883
 20
13.82931786684211
 10
194.5040616290017
 20
13.88057510805174
 10
194.4960004462596
 20
13.92582473272427
 10
194.5040675809892
 20
13.97106357955324
 10
194.4918238487083
 20
14.02234176909958
 10
194.5525017120697
 20
14.00749577363136
 10
194.6162810745736
 20
14.01756448170736
 10
194.7277314353503
 20
14.01294644212
 10
194.8497533443823
 20
14.0141332890547
 10
194.9719538137824
 20
14.01515863900636
 10
195.0829794287392
 20
14.01092475623402
 10
195.1476517413958
 20
14.02018584521741
 10
195.2091162810501
 20
14.00604423049683
 10
195.1930065601337
 20
14.07235527884517
 10
195.2042980327358
 20
14.14447790121977
 10
195.198740082256
 20
14.27513760888286
 10
195.200803506169
 20
14.42607323708241
 10
195.2000167127295
 20
14.59335873107886
 10
195.2007845215628
 20
14.76061110332303
 10
195.1988038785628
 20
14.91163289269914
 10
195.2041306156621
 20
15.04206069552995
 10
195.1933101388425
 20
15.11465442605899
 10
195.2090326429875
 20
15.18150469436798
 10
195.143270813249
 20
15.16580512490825
 10
195.0756367830764
 20
15.17609243083995
 10
194.9615885293811
 20
15.17113786847122
 10
194.8451242674903
 20
15.17414128030475
 10
194.7306554121478
 20
15.16880303143389
 10
194.6640324657813
 20
15.18001268074824
 10
194.5990769715186
 20
15.16349132665011
 10
194.610798975871
 20
15.21473720477059
 10
194.6032830189121
 20
15.25950333784091
 10
194.6107989878837
 20
15.30426944897961
 10
194.5990769505347
 20
15.3555153612974
 10
194.6640326339201
 20
15.33899381766815
 10
194.7306533339822
 20
15.35020571373944
 10
194.8451352858064
 20
15.34485436710665
 10
194.9615454436963
 20
15.34791188771116
 10
195.0757660174642
 20
15.34278499010709
 10
195.1430150439226
 20
15.35345733355598
 10
195.2083325941438
 20
15.33742082669077
 10
195.1941391448552
 20
15.39949685750053
 10
195.2036059462995
 20
15.46586761628763
 10
195.1990269004084
 20
15.58239972741966
 10
195.2007696555948
 20
15.71426685022376
 10
195.1997551495391
 20
15.85615960150273
 10
195.2017191344373
 20
15.9876905070258
 10
195.1964668553851
 20
16.10524577283002
 10
195.2073408763474
 20
16.16947789001584
 10
195.1919536641853
 20
16.23108802545047
 10
195.24075915378
 20
16.21702407382111
 10
195.2853995564726
 20
16.21954742075314
 10
195.3538643946743
 20
16.2151279740171
 10
195.3959106169102
 20
16.20613025544036
 10
195.4487544758775
 20
16.2141171486651
 10
195.4207035002013
 20
16.17113917611678
 10
195.3749142248595
 20
16.18259552043835
 10
195.3869539073264
 20
16.12173520005136
 10
195.3796086070642
 20
16.05769299468774
 10
195.3831195826161
 20
15.94909368863911
 10
195.3819806760173
 20
15.82494319144753
 10
195.3819174780262
 20
15.69189719829878
 10
195.3832872966867
 20
15.56797381249555
 10
195.3791638801314
 20
15.45868337849339
 10
195.3877763103564
 20
15.3960858009417
 10
195.3746757454401
 20
15.33740133296365
 10
195.4393884328198
 20
15.35362113810902
 10
195.5060405953156
 20
15.34270260383311
 10
195.6198779541102
 20
15.34793740173756
 10
195.7357259122097
 20
15.34485547516913
 10
195.849692426328
 20
15.35018259812512
 10
195.91603410181
 20
15.33904208166543
 10
195.9807188525479
 20
15.35546979593178
 10
195.9689820772722
 20
15.3042592521005
 10
195.976516806304
 20
15.25950334121001
 10
195.9689820992257
 20
15.21474739010027
 10
195.9807188140736
 20
15.1635369087104
 10
195.9160344075252
 20
15.1799642779422
 10
195.8496886430824
 20
15.16882784447269
 10
195.7357459487012
 20
15.1741311589312
 10
195.6197995623054
 20
15.17114764593544
 10
195.5062756882122
 20
15.17606892268393
 10
195.4389231318804
 20
15.1658508751352
 10
195.3734285122495
 20
15.18145996138815
 10
195.3891713619218
 20
15.11463851827411
 10
195.3783275998213
 20
15.04207057815879
 10
195.3836581629792
 20
14.91162247614416
 10
195.3817136151855
 20
14.76064558185226
 10
195.3823133683215
 20
14.59322243934159
 10
195.3821506559604
 20
14.42656176118372
 10
195.3821895488136
 20
14.27360142921637
 10
195.3821816413098
 20
14.14849178985705
 10
195.3821828382745
 20
14.06507890991421
 10
195.3821827716208
 20
14.02491778281976
 10
195.3821827564383
 20
14.01410517385758
 97
        1
330
B7
 75
     1
 76
     2
 52
45.0
 41
0.1
 77
     0
 78
     1
 53
45.0
 43
0.0
 44
0.0
 45
-0.282842712474619
 46
0.0
 79
     0
 98
        1
 10
0.0
 20
0.0
  0
HATCH
  5
D5
330
48
100
AcDbEntity
  8
1
  6
Continuous
 62
     2
100
AcDbHatch
 10
0.0
 20
0.0
 30
0.0
210
0.0
220
0.0
230
1.0
  2
CUSTOM3
 70
     0
 71
     1
 91
        1
 92
        1
 93
        1
 72
     4
 94
        3
 73
     0
 74
     0
 95
      131
 96
      127
 40
0.0
 40
0.0
 40
0.0
 40
0.0
 40
0.0195577029826316
 40
0.0426490537462133
 40
0.286360757585671
 40
0.5344948436189703
 40
0.7842238845573966
 40
0.8737315789468355
 40
0.9803832810314073
 40
1.092842274517129
 40
1.199761146656912
 40
1.289788768186665
 40
1.351573580786429
 40
1.370727117561691
 40
1.416400936018117
 40
1.470914848356278
 40
1.5165886667921
 40
1.535742203553197
 40
1.634216592293507
 40
1.760283341175324
 40
1.897966686682388
 40
2.031216387369206
 40
2.0496897511382
 40
2.101115601647134
 40
2.179502577740252
 40
2.278859318314366
 40
2.393194462259022
 40
2.516516648384134
 40
2.642834515406261
 40
2.766156701983765
 40
2.880491846754876
 40
2.979848588358916
 40
3.058235565444094
 40
3.109661416669248
 40
3.128134780704424
 40
3.14678374238674
 40
3.191254343315601
 40
3.24433215731626
 40
3.288802758226164
 40
3.307451719895406
 40
3.327717853845018
 40
3.383747753580379
 40
3.468388665924769
 40
3.574487837699075
 40
3.694892515729178
 40
3.822449946852315
 40
3.950007377920703
 40
4.070412055800794
 40
4.176511227368346
 40
4.261152139501792
 40
4.317182039076986
 40
4.337448172964905
 40
4.620011002696518
 40
4.885096638397694
 40
4.945373043518551
 40
5.014107710488893
 40
5.070481727652208
 40
5.319246955636686
 40
5.584812164506134
 40
5.859000912056966
 40
6.133746937542148
 40
6.401732212968954
 40
6.420736683995544
 40
6.472845717451195
 40
6.550702743894123
 40
6.646951193874331
 40
6.754234497930655
 40
6.865196086587433
 40
6.972479390357892
 40
7.068727839772054
 40
7.146584865451063
 40
7.198693898189292
 40
7.217698368905433
 40
7.234950401630911
 40
7.276089864269959
 40
7.325191803516072
 40
7.366331266090461
 40
7.383583298769812
 40
7.402779163492189
 40
7.453386443254621
 40
7.524934666445622
 40
7.606953361405962
 40
7.688972056429114
 40
7.760520279784364
 40
7.811127559734606
 40
7.830323424546227
 40
7.847844055299856
 40
7.894799345666895
 40
7.962779392744581
 40
8.043374293560625
 40
8.128174145149528
 40
8.208769044817329
 40
8.276749090377029
 40
8.323704379669588
 40
8.341225010056318
 40
8.358497614800466
 40
8.401679126686643
 40
8.457815092185673
 40
8.513951057728077
 40
8.557132569707976
 40
8.574405174505047
 40
8.60234066861636
 40
8.643455660539903
 40
8.66322527196657
 40
8.715345156564215
 40
8.78903188962855
 40
8.873502045520274
 40
8.957972194323892
 40
9.031658925567783
 40
9.083778811234467
 40
9.10354842300293
 40
9.119550083123467
 40
9.16081752237977
 40
9.217244429110135
 40
9.27872449164462
 40
9.335151398295405
 40
9.3764188373577
 40
9.392420497300488
 40
9.401196302734705
 40
9.417494229384179
 40
9.426270027749451
 40
9.440875075477484
 40
9.475702496998666
 40
9.517270709865832
 40
9.552098131994002
 40
9.56670316988421
 40
9.56670316988421
 40
9.56670316988421
 40
9.56670316988421
 10
194.6170254148479
 20
15.67015871511027
 10
194.6134345093371
 20
15.66453690702159
 10
194.6056039123624
 20
15.65227754419111
 10
194.5129968974543
 20
15.61601916040981
 10
194.488762223325
 20
15.40148444212707
 10
194.3858709845937
 20
15.2219728450971
 10
194.1220492364305
 20
15.03615573798144
 10
194.2845471569179
 20
14.95959336566082
 10
194.3607225760838
 20
14.89856693195445
 10
194.4492171072757
 20
14.83515804544758
 10
194.5389930233111
 20
14.77525634219561
 10
194.5883817636046
 20
14.72102154849207
 10
194.6745708157384
 20
14.69286240541833
 10
194.6411260674229
 20
14.65713309652813
 10
194.6214671166312
 20
14.62550387991906
 10
194.5919888217881
 20
14.58475872796068
 10
194.5688989446031
 20
14.55504663489644
 10
194.5380205968355
 20
14.50211422668496
 10
194.472919336574
 20
14.62740334938902
 10
194.3796000122414
 20
14.68213900233935
 10
194.2950636285139
 20
14.73916423939344
 10
194.1722498125741
 20
14.89675287427523
 10
194.1764450847301
 20
14.82035806766836
 10
194.1751478652677
 20
14.77361280161296
 10
194.1758126448076
 20
14.69584785812601
 10
194.1755549986957
 20
14.59902068324423
 10
194.1756431239921
 20
14.48650279078809
 10
194.1756077302281
 20
14.365240859457
 10
194.1756511758279
 20
14.24086897858962
 10
194.1755199942405
 20
14.11967683631336
 10
194.1759477562046
 20
14.00691148919744
 10
194.174667820231
 20
13.91082913768745
 10
194.1779759851044
 20
13.83113826468701
 10
194.1715197740086
 20
13.78815175788785
 10
194.1806208705556
 20
13.74955432372044
 10
194.1447910339935
 20
13.75810887724072
 10
194.1115223815252
 20
13.75342519985448
 10
194.0604562576041
 20
13.75351298759785
 10
194.0269723972812
 20
13.75794430283822
 10
193.9907585408754
 20
13.74960793842511
 10
194.0009782568666
 20
13.79145277179286
 10
193.9936487887773
 20
13.83778560820175
 10
193.9973633136103
 20
13.92374831106016
 10
193.9959480554896
 20
14.0260514270485
 10
193.9964105554637
 20
14.14453223931512
 10
193.9962773686231
 20
14.26957683153357
 10
193.9963015910045
 20
14.3947582810705
 10
193.9963354925551
 20
14.51286645379058
 10
193.9962060293132
 20
14.61628748709516
 10
193.9965507549081
 20
14.69932036153667
 10
193.995869827869
 20
14.75143368521243
 10
193.9994586600624
 20
14.87912907821363
 10
193.7826171386436
 20
14.58048716819623
 10
193.6021354921953
 20
14.35263981511522
 10
193.5490322295611
 20
14.49373443289814
 10
193.5200429133149
 20
14.54325767560938
 10
193.4196648062823
 20
14.6464177979012
 10
193.7405127723261
 20
14.72695035023776
 10
193.868989700543
 20
14.91066283036437
 10
194.0906454325358
 20
15.11931995771763
 10
194.1770224894069
 20
15.29339211228344
 10
194.4549394229074
 20
15.56967051342514
 10
194.3346247839284
 20
15.56534559551115
 10
194.2863197351348
 20
15.56614856202554
 10
194.2102377454905
 20
15.56574582146585
 10
194.116701000975
 20
15.56590275611611
 10
194.0117594788557
 20
15.56582502576224
 10
193.9033887738717
 20
15.56595464378556
 10
193.7981454235897
 20
15.56554393490692
 10
193.7056237819412
 20
15.56682073671592
 10
193.6268130800708
 20
15.5634076653485
 10
193.5839674565379
 20
15.57023350036321
 10
193.5449499586515
 20
15.56065064201124
 10
193.5526365271863
 20
15.59420779565544
 10
193.5485464404312
 20
15.62523550322234
 10
193.5485531368815
 20
15.67236529270902
 10
193.5526239724911
 20
15.7034094164678
 10
193.5449495574583
 20
15.73701861635903
 10
193.5834819405494
 20
15.72748410420873
 10
193.624122801448
 20
15.73397435498073
 10
193.6951471850463
 20
15.73100150650256
 10
193.7729318149633
 20
15.7317476139916
 10
193.8507292246474
 20
15.73247814044527
 10
193.9217232089908
 20
15.72954235514163
 10
193.9624279791819
 20
15.73595468772953
 10
194.000985348991
 20
15.72650524176006
 10
193.9927342754927
 20
15.76264692158785
 10
193.9982346669359
 20
15.80129837613229
 10
193.9955754206163
 20
15.8691352856184
 10
193.9965815471533
 20
15.94591641538741
 10
193.9960178018318
 20
16.02849393582757
 10
193.9970714526593
 20
16.10517329229879
 10
193.9942675863131
 20
16.173319907767
 10
194.0000702721303
 20
16.21132399809347
 10
193.9915654551159
 20
16.24758448077646
 10
194.0255610233124
 20
16.23755723771852
 10
194.0594575683099
 20
16.24073266813707
 10
194.1126669060345
 20
16.23508965640609
 10
194.1660768574482
 20
16.23434774436425
 10
194.199591464949
 20
16.2281922348298
 10
194.2388086183038
 20
16.23346029773594
 10
194.2120263698492
 20
16.19253380793488
 10
194.1708111001724
 20
16.20371204538111
 10
194.1782641540873
 20
16.15867056192124
 10
194.1742227952184
 20
16.11412278028144
 10
194.176171404964
 20
16.04223572621703
 10
194.1752364849758
 20
15.96168630588772
 10
194.176510719003
 20
15.88173995404996
 10
194.1732043793864
 20
15.80841837083184
 10
194.1802106179961
 20
15.7668864300257
 10
194.1701440380126
 20
15.72752418568115
 10
194.2029814803921
 20
15.73468063430983
 10
194.236457729648
 20
15.73027243137946
 10
194.2915053476019
 20
15.73217943347899
 10
194.3489502595314
 20
15.7318536640729
 10
194.4023026248309
 20
15.73106308733084
 10
194.4398540896639
 20
15.73313959118076
 10
194.4623172523237
 20
15.73022338167111
 10
194.4751678073731
 20
15.73572552644057
 10
194.4858255685888
 20
15.73801118197791
 10
194.4986635650144
 20
15.74494972588054
 10
194.514599103307
 20
15.72853046313673
 10
194.5410623920892
 20
15.71709122319449
 10
194.5726805253758
 20
15.69644687835191
 10
194.5987255892151
 20
15.68116869628294
 10
194.6128517723973
 20
15.67266976323183
 10
194.6170254148479
 20
15.67015871511027
 97
        1
330
B8
 75
     1
 76
     2
 52
45.0
 41
0.1
 77
     0
 78
     1
 53
45.0
 43
0.0
 44
0.0
 45
-0.282842712474619
 46
0.0
 79
     0
 98
        1
 10
0.0
 20
0.0
  0
HATCH
  5
D6
330
48
100
AcDbEntity
  8
1
  6
Continuous
 62
     2
100
AcDbHatch
 10
0.0
 20
0.0
 30
0.0
210
0.0
220
0.0
230
1.0
  2
CUSTOM4
 70
     0
 71
     1
 91
        1
 92
        1
 93
        1
 72
     4
 94
        3
 73
     0
 74
     0
 95
       91
 96
       87
 40
0.0
 40
0.0
 40
0.0
 40
0.0
 40
0.0267532254356684
 40
0.0856103386464102
 40
0.1444674521996603
 40
0.1712206856618514
 40
0.2039416005642536
 40
0.2955601971652484
 40
0.4362601844616918
 40
0.616225284450725
 40
0.8256392189704698
 40
1.054685709844411
 40
1.293548478893474
 40
1.532411247938218
 40
1.761457738799483
 40
1.970871673298451
 40
2.150836773256647
 40
2.29153676049548
 40
2.383155356836586
 40
2.415876284101206
 40
2.442629517487849
 40
2.501486630948979
 40
2.56034374442413
 40
2.587096977826401
 40
2.6170681944408
 40
2.699247336755941
 40
2.822032643466254
 40
2.973822353257755
 40
3.143014704823197
 40
3.318007936879748
 40
3.487200288186581
 40
3.638989997548062
 40
3.761775303794532
 40
3.843954445752867
 40
3.873925662229563
 40
3.890812773500218
 40
3.907699884771345
 40
3.937960767856862
 40
3.980983618142005
 40
4.199085915228152
 40
4.439444339236912
 40
4.677588241260578
 40
5.050698317837464
 40
5.448212454762849
 40
5.855291218044374
 40
6.138575438885026
 40
6.417434507583887
 40
6.444551104393545
 40
6.504207617362844
 40
6.563864130314143
 40
6.590980727103711
 40
6.848609460381106
 40
7.109611990668102
 40
7.352910904445787
 40
7.557830220705152
 40
7.58751892591307
 40
7.652834077375513
 40
7.718149228845522
 40
7.747837934061801
 40
7.854880190300711
 40
7.976511257403254
 40
8.369487896592055
 40
8.75751495922332
 40
9.126072419330754
 40
9.460639380391788
 40
9.7466955930355
 40
9.777569943118314
 40
9.807050320931442
 40
9.830377336128574
 40
9.88600329543565
 40
9.952395569429566
 40
10.00802152870592
 40
10.03134854388184
 40
10.21356951009555
 40
10.42203479292849
 40
10.66154556731039
 40
10.91693789564276
 40
11.15832906556534
 40
11.18982674596589
 40
11.27286608520373
 40
11.39026653033315
 40
11.52484752840846
 40
11.65942852648396
 40
11.77682897161435
 40
11.85986831085628
 40
11.89136598230374
 40
11.89136598230374
 40
11.89136598230374
 40
11.89136598230374
 10
190.7027885008197
 20
14.70699600701773
 10
190.7028237765289
 20
14.71587847311986
 10
190.7029366710796
 20
14.74430237047347
 10
190.7012984568491
 20
14.79409639169804
 10
190.7069750292911
 20
14.83657564478155
 10
190.6956928731708
 20
14.88730154856848
 10
190.7632296979032
 20
14.8701290074011
 10
190.8388029210701
 20
14.88290227165997
 10
190.9828357056001
 20
14.87629729457383
 10
191.1569419185428
 20
14.87888462206467
 10
191.3639599611004
 20
14.87800591955554
 10
191.5894688172378
 20
14.87828207920027
 10
191.8251162293406
 20
14.87818339658664
 10
192.0607640531349
 20
14.87828184412768
 10
192.2862717580626
 20
14.8780067819079
 10
192.4932934632805
 20
14.87888186270736
 10
192.6673888915288
 20
14.87630522678447
 10
192.8114492071986
 20
14.88288290449215
 10
192.8869691915292
 20
14.87016243405605
 10
192.954577603703
 20
14.88726400191687
 10
192.9430840140676
 20
14.83674785802941
 10
192.9505104581733
 20
14.79253252226502
 10
192.9428838927986
 20
14.74867966503611
 10
192.9546489459424
 20
14.69878374479329
 10
192.8930788491983
 20
14.71393227712513
 10
192.8256791738672
 20
14.70310665350675
 10
192.7013004056221
 20
14.70852031626236
 10
192.5554428236571
 20
14.70649205390786
 10
192.3893576440086
 20
14.70715777578388
 10
192.2188412621725
 20
14.70689643521243
 10
192.051979085539
 20
14.70721553391095
 10
191.9087346827106
 20
14.70635302590763
 10
191.7773313869835
 20
14.7086330048299
 10
191.7239859134658
 20
14.70407704374202
 10
191.6485188456913
 20
14.7099991499288
 10
191.6769075779232
 20
14.70094169343353
 10
191.7033652409542
 20
14.69725912268929
 10
191.6633522907701
 20
14.66654271968268
 10
191.5713663691869
 20
14.67667591174652
 10
191.5439396207069
 20
14.43032502247783
 10
191.4478793967235
 20
14.27499558764375
 10
191.1917277964473
 20
13.94525417931572
 10
191.7627537732762
 20
14.08430022210452
 10
192.0173656320517
 20
14.08291779973366
 10
192.6279647048617
 20
13.99790569242083
 10
192.3340698578084
 20
14.29685417558208
 10
192.0133304286518
 20
14.44330856901774
 10
192.1313543360434
 20
14.50025540818289
 10
192.172471646626
 20
14.52420099873347
 10
192.2156812394411
 20
14.54599758811231
 10
192.3174574094448
 20
14.60928721253905
 10
192.4328867625247
 20
14.35147151408778
 10
192.6329591642277
 20
14.21616041113685
 10
192.7269077387228
 20
14.03792795138885
 10
192.9558829746392
 20
13.87997821027048
 10
192.8596031846708
 20
13.829159725763
 10
192.8167959763779
 20
13.79881292523052
 10
192.7718243528778
 20
13.77466130281462
 10
192.7121720925213
 20
13.72552146747567
 10
192.6789731061325
 20
13.85997475673613
 10
192.5582013350795
 20
14.01594265286577
 10
192.1970976005979
 20
13.88569928059558
 10
191.8385061955541
 20
13.90224694409484
 10
191.4570920450081
 20
13.89331229351863
 10
191.1703455282891
 20
13.82882671672417
 10
190.8592055599717
 20
13.94230668192809
 10
190.8268737818788
 20
13.83122259927769
 10
190.7896178253317
 20
13.81196313850011
 10
190.7865737632754
 20
13.85874784087296
 10
190.7679892860606
 20
13.89806853919135
 10
190.7512436616778
 20
13.95765983478232
 10
190.7383730915754
 20
14.00201969871284
 10
190.7042327806426
 20
14.09106331120199
 10
190.9482714457755
 20
14.02181042943771
 10
191.1441394486672
 20
14.00030369057739
 10
191.2395426381277
 20
14.28226484478463
 10
191.2945135769598
 20
14.44363045421124
 10
191.5159619357153
 20
14.71391177589738
 10
191.3849239381216
 20
14.70548446853736
 10
191.3110026555853
 20
14.70779008496971
 10
191.1977459876242
 20
14.70671378321658
 10
191.0694251807485
 20
14.70707639076511
 10
190.9404252030416
 20
14.70697724466087
 10
190.8287840946291
 20
14.70699932712573
 10
190.7514663970027
 20
14.70699579189672
 10
190.7132876532011
 20
14.70699595845082
 10
190.7027885008197
 20
14.70699600701773
 97
        1
330
B9
 75
     1
 76
     2
 52
45.0
 41
0.1
 77
     0
 78
     1
 53
45.0
 43
0.0
 44
0.0
 45
-0.282842712474619
 46
0.0
 79
     0
 98
        1
 10
0.0
 20
0.0
  0
HATCH
  5
D7
330
48
100
AcDbEntity
  8
1
  6
Continuous
 62
     2
100
AcDbHatch
 10
0.0
 20
0.0
 30
0.0
210
0.0
220
0.0
230
1.0
  2
CUSTOM5
 70
     0
 71
     1
 91
        1
 92
        1
 93
        1
 72
     4
 94
        3
 73
     0
 74
     0
 95
       35
 96
       31
 40
0.0
 40
0.0
 40
0.0
 40
0.0
 40
0.0335231036621181
 40
0.0713218571711795
 40
0.4278866681486188
 40
0.8116865841962959
 40
1.198190237999957
 40
1.56137954681259
 40
1.659983174621974
 40
1.759315573807089
 40
2.132719617230977
 40
2.525233363588728
 40
2.910815397779593
 40
3.265244364303174
 40
3.592606723581946
 40
3.964386154603893
 40
4.359942131737716
 40
4.758154118639179
 40
4.843846538699765
 40
4.936650065543116
 40
5.256616602537196
 40
5.581707404415933
 40
5.899719158308032
 40
6.198363494280595
 40
6.466301046615608
 40
6.493895311536958
 40
6.559697020196779
 40
6.638234543442382
 40
6.704036252154248
 40
6.731630508423054
 40
6.731630508423054
 40
6.731630508423054
 40
6.731630508423054
 10
191.973601056867
 20
16.23463843719134
 10
191.967600609779
 20
16.22480690542323
 10
191.9548344099156
 20
16.20388988579802
 10
191.794936200656
 20
16.17127126532673
 10
192.2322025842335
 20
15.88206680336707
 10
192.4345394828262
 20
15.68041138358437
 10
192.6819564267973
 20
15.43749387603279
 10
193.1831513624606
 20
15.36047662757774
 10
193.012556219897
 20
15.21876939174658
 10
192.93832994632
 20
15.01710366209106
 10
192.6131432248188
 20
15.36956287174729
 10
192.3277741670664
 20
15.53175212559562
 10
192.0337604077658
 20
15.7368713005305
 10
191.8084452691134
 20
16.21827488595454
 10
191.5993085055521
 20
15.75343046609225
 10
191.3207873674834
 20
15.54350952252911
 10
191.0371383177209
 20
15.3742445635999
 10
190.707863952783
 20
15.00142360907931
 10
190.6277012318225
 20
15.19708014459006
 10
190.4759724909743
 20
15.32491104190589
 10
190.9083395826795
 20
15.40454031765938
 10
191.0962565329765
 20
15.60026634915473
 10
191.3468477420502
 20
15.81632996916754
 10
191.5714350470161
 20
15.9819099230006
 10
191.6259775409712
 20
16.26133964636828
 10
191.7494661029011
 20
16.24737950408078
 10
191.806027334452
 20
16.24521268867647
 10
191.8761870984945
 20
16.2404685988136
 10
191.9333414022106
 20
16.23709429350541
 10
191.964419032084
 20
16.23519854711119
 10
191.973601056867
 20
16.23463843719134
 97
        1
330
BA
 75
     1
 76
     2
 52
45.0
 41
0.1
 77
     0
 78
     1
 53
45.0
 43
0.0
 44
0.0
 45
-0.282842712474619
 46
0.0
 79
     0
 98
        1
 10
0.0
 20
0.0
  0
HATCH
  5
D8
330
48
100
AcDbEntity
  8
1
  6
Continuous
 62
     2
100
AcDbHatch
 10
0.0
 20
0.0
 30
0.0
210
0.0
220
0.0
230
1.0
  2
CUSTOM6
 70
     0
 71
     1
 91
        1
 92
        1
 93
        1
 72
     4
 94
        3
 73
     0
 74
     0
 95
       15
 96
       11
 40
0.0
 40
0.0
 40
0.0
 40
0.0
 40
0.2785535985096532
 40
0.5215624748198819
 40
0.6076917376040626
 40
0.6938210001741727
 40
0.9405019146454193
 40
1.22169140348903
 40
1.300471877080904
 40
1.379252341684626
 40
1.379252341684626
 40
1.379252341684626
 40
1.379252341684626
 10
189.5681493630999
 20
16.22930267330381
 10
189.6296017794178
 20
16.17691646592716
 10
189.7446649974112
 20
16.07882876798223
 10
190.0397348497245
 20
15.92889785897222
 10
189.9025147631856
 20
15.84343227515015
 10
189.8041227843777
 20
15.71085785201561
 10
189.7130033590651
 20
16.01616985781424
 10
189.3636839480655
 20
16.07967869465371
 10
189.5119258376571
 20
16.17896509880878
 10
189.5494081874236
 20
16.21252348402382
 10
189.5681493630999
 20
16.22930267330381
 97
        1
330
BB
 75
     1
 76
     2
 52
45.0
 41
0.1
 77
     0
 78
     1
 53
45.0
 43
0.0
 44
0.0
 45
-0.282842712474619
 46
0.0
 79
     0
 98
        1
 10
0.0
 20
0.0
  0
HATCH
  5
D9
330
48
100
AcDbEntity
  8
1
  6
Continuous
 62
     2
100
AcDbHatch
 10
0.0
 20
0.0
 30
0.0
210
0.0
220
0.0
230
1.0
  2
CUSTOM7
 70
     0
 71
     1
 91
        1
 92
        1
 93
        1
 72
     4
 94
        3
 73
     0
 74
     0
 95
       75
 96
       71
 40
0.0
 40
0.0
 40
0.0
 40
0.0
 40
0.0342546099129691
 40
0.1245622414432364
 40
0.2522385480897554
 40
0.3985991922940715
 40
0.544959836498091
 40
0.6726361431438905
 40
0.7629437746737049
 40
0.7971983935298079
 40
1.101723623449729
 40
1.408591244036681
 40
1.433332471690387
 40
1.487763172450184
 40
1.542193873082018
 40
1.566935100592565
 40
1.92352393182185
 40
2.27175570495365
 40
2.590579755100837
 40
2.858943305581096
 40
2.889120339309115
 40
2.918305855191052
 40
2.941366645531173
 40
2.996357760973059
 40
3.061992318140601
 40
3.116983433626791
 40
3.140044223997468
 40
3.411273122936361
 40
3.732441619741165
 40
3.761068217532863
 40
3.837787499630428
 40
3.948858699126065
 40
4.080541049104443
 40
4.21909378262583
 40
4.350776132722382
 40
4.461847332405716
 40
4.53856661467845
 40
4.567193212544698
 40
4.594907573998956
 40
4.666381453557523
 40
4.764111044011162
 40
4.870592538125994
 40
4.968322128642445
 40
5.039796008287158
 40
5.067510369784618
 40
5.094263603185833
 40
5.153120716668468
 40
5.211977830150913
 40
5.238731063551919
 40
5.272290535139158
 40
5.363380529445019
 40
5.497618415781696
 40
5.660621563453939
 40
5.838007341749639
 40
6.015393119910991
 40
6.178396267038616
 40
6.312634151842568
 40
6.403724143059558
 40
6.437283612672653
 40
6.464036846261271
 40
6.522893960004886
 40
6.581751071484151
 40
6.608504301591097
 40
6.637253941281244
 40
6.711397748903096
 40
6.812778057283708
 40
6.923237199249485
 40
7.024617507624129
 40
7.098761315207781
 40
7.127510946007732
 40
7.127510946007732
 40
7.127510946007732
 40
7.127510946007732
 10
188.4418622390564
 20
14.95849128473265
 10
188.4418622819707
 20
14.9470731340872
 10
188.4418624481128
 20
14.9055525784263
 10
188.4418593081787
 20
14.82146922003773
 10
188.44187882798
 20
14.70004497322329
 10
188.4417912187738
 20
14.55980494047449
 10
188.442111623523
 20
14.42006556794576
 10
188.4411605909741
 20
14.29745038894929
 10
188.4431978595967
 20
14.21587074438042
 10
188.4349433178746
 20
14.06271267077696
 10
188.7430797940899
 20
14.22560236054717
 10
189.0350645173739
 20
14.39482938688005
 10
189.0408354448707
 20
14.25973235781913
 10
189.045547171989
 20
14.21617221160445
 10
189.0482535411918
 20
14.17211249350546
 10
189.0672545672956
 20
14.02272590363133
 10
188.6583942247302
 20
14.08681172241262
 10
188.3793710348831
 20
13.97296341411018
 10
188.1018081587166
 20
13.87364095811142
 10
187.80998371844
 20
13.91630687596357
 10
187.7869144678658
 20
13.8132167974454
 10
187.7537474383333
 20
13.78691091244472
 10
187.7480653962738
 20
13.83455309036305
 10
187.7284214559045
 20
13.8718033611507
 10
187.7095089485623
 20
13.93007387847565
 10
187.6942849867707
 20
13.97385201007805
 10
187.6477246372937
 20
14.08759421046311
 10
187.9890897312449
 20
14.05576301120048
 10
188.2679649367389
 20
14.02161435106473
 10
188.2617753034907
 20
14.16913976479652
 10
188.2630935452775
 20
14.24013150908832
 10
188.2624831689949
 20
14.34719767958661
 10
188.2625871570726
 20
14.47398529785998
 10
188.2629987964057
 20
14.6084924349605
 10
188.261390784197
 20
14.73395549951185
 10
188.2659902567926
 20
14.84505246719118
 10
188.256418650221
 20
14.90761886800689
 10
188.2704001783692
 20
14.96595388295002
 10
188.2147384386706
 20
14.95289710582239
 10
188.1575655197822
 20
14.96136307749499
 10
188.0616048925648
 20
14.95729976080637
 10
187.9633767522821
 20
14.95970889852475
 10
187.867258245756
 20
14.95551600613388
 10
187.8104648525812
 20
14.96429346441165
 10
187.7550356873384
 20
14.95094936850121
 10
187.7670679427917
 20
15.00036910959258
 10
187.7592003173938
 20
15.04393988030396
 10
187.7666295563828
 20
15.08830469118526
 10
187.7551930564143
 20
15.13902297763992
 10
187.8232102370133
 20
15.12162460757744
 10
187.8968496879747
 20
15.1341745023719
 10
188.0325064058211
 20
15.12799677011098
 10
188.1884909024525
 20
15.13029203093085
 10
188.3615926358143
 20
15.1294096826253
 10
188.5346942964181
 20
15.13029207142409
 10
188.6906789811216
 20
15.12799662955551
 10
188.8263351889797
 20
15.13417486262432
 10
188.8999756705652
 20
15.12162394218336
 10
188.9679914174724
 20
15.13902373012143
 10
188.9565590885922
 20
15.08830130414556
 10
188.9639539458297
 20
15.04397060811109
 10
188.9562039912269
 20
15.00028307550197
 10
188.9681203741877
 20
14.95063590098477
 10
188.9108170223617
 20
14.96461411338427
 10
188.8520145789772
 20
14.95539755673254
 10
188.7525293633199
 20
14.9595226816493
 10
188.649428009835
 20
14.95822760025889
 10
188.5537846354573
 20
14.95854077077641
 10
188.4857467971617
 20
14.95848776697146
 10
188.4514462213443
 20
14.95849051871657
 10
188.4418622390564
 20
14.95849128473265
 97
        1
330
BC
 75
     1
 76
     2
 52
45.0
 41
0.1
 77
     0
 78
     1
 53
45.0
 43
0.0
 44
0.0
 45
-0.282842712474619
 46
0.0
 79
     0
 98
        1
 10
0.0
 20
0.0
  0
HATCH
  5
DA
330
48
100
AcDbEntity
  8
1
  6
Continuous
 62
     2
100
AcDbHatch
 10
0.0
 20
0.0
 30
0.0
210
0.0
220
0.0
230
1.0
  2
CUSTOM8
 70
     0
 71
     1
 91
        1
 92
        1
 93
        1
 72
     4
 94
        3
 73
     0
 74
     0
 95
       91
 96
       87
 40
0.0
 40
0.0
 40
0.0
 40
0.0
 40
0.0345987051695718
 40
0.1258134969461369
 40
0.2547723404888987
 40
0.4026032099154125
 40
0.5504340793416704
 40
0.679392922883608
 40
0.7706077146571035
 40
0.8052064287780925
 40
1.124852390615282
 40
1.42740223630888
 40
1.70635662745352
 40
1.955541417875203
 40
2.169485938566345
 40
2.344350786664781
 40
2.480568411561931
 40
2.590440557428926
 40
2.649189927151102
 40
2.749320643306307
 40
2.912632739880006
 40
3.147745656000213
 40
3.244827496384985
 40
3.338490056946526
 40
3.583815413206947
 40
3.761423943238297
 40
3.886956104362457
 40
3.985855451886709
 40
4.091766255337621
 40
4.250186473811787
 40
4.422734315084409
 40
4.628285684838501
 40
4.872093227758322
 40
5.152549652145431
 40
5.464967135837417
 40
5.803201477852337
 40
6.160362988813817
 40
6.193449448275872
 40
6.284170385501526
 40
6.419718138764396
 40
6.587285046385646
 40
6.77406344672356
 40
6.967245678113543
 40
7.154024078817529
 40
7.321590987025915
 40
7.457138740890273
 40
7.547859678556009
 40
7.580946138182569
 40
7.608533084714618
 40
7.669224367077587
 40
7.729915649429796
 40
7.757502595949846
 40
7.790278062553299
 40
7.880146277430797
 40
8.01441996318026
 40
8.18041184239776
 40
8.365434637679229
 40
8.55680107162253
 40
8.741823866830643
 40
8.907815745916153
 40
9.042089431507307
 40
9.131957646249433
 40
9.164733112797009
 40
9.415425063139942
 40
9.667986180958405
 40
9.694169807462544
 40
9.75660768604753
 40
9.831130315322422
 40
9.893568193899887
 40
9.919751820398703
 40
9.950967964690513
 40
9.996421631210676
 40
10.22087981037456
 40
10.44341866197545
 40
10.47847970788857
 40
10.57091337438758
 40
10.70159545461232
 40
10.85140174170363
 40
11.0012080288048
 40
11.13189010907386
 40
11.22432377583013
 40
11.2593848093896
 40
11.28697175596148
 40
11.34766303835921
 40
11.40835432042071
 40
11.43594125892105
 40
11.43594125892105
 40
11.43594125892105
 40
11.43594125892105
 10
190.0818114333289
 20
15.55242795125079
 10
190.0702785844941
 20
15.55242790287917
 10
190.0283409444998
 20
15.55242773704166
 10
189.9434129719026
 20
15.55243125800911
 10
189.8207688553128
 20
15.5524092643588
 10
189.6791206916993
 20
15.55250801177056
 10
189.537975369849
 20
15.55214686232423
 10
189.4141351317905
 20
15.5532188360909
 10
189.3317217825382
 20
15.55092249091271
 10
189.1727791229692
 20
15.56048569373422
 10
189.3503402353375
 20
15.19785394311372
 10
189.3379739205452
 20
14.95243127723115
 10
189.4064519473864
 20
14.66862501324836
 10
189.4693024320969
 20
14.43250999939036
 10
189.5452253431728
 20
14.23326740396132
 10
189.6303189577015
 20
14.07745347451375
 10
189.7244607592935
 20
13.97657857781395
 10
189.8282648207727
 20
13.92465852638968
 10
189.9125872030773
 20
13.97606484379617
 10
189.9351322179452
 20
14.09144544037518
 10
189.974573097537
 20
14.21885149702379
 10
189.9202919734944
 20
14.53622328086757
 10
190.0451218072473
 20
14.38982180140906
 10
190.2019291513602
 20
14.35795300331169
 10
190.0947720007057
 20
14.12421357767629
 10
190.0808711209867
 20
13.95972776583657
 10
190.0234709467226
 20
13.83130869122479
 10
189.9335020145008
 20
13.76018802352829
 10
189.8095274657877
 20
13.74432324142254
 10
189.6634273196859
 20
13.77993797554173
 10
189.5243894320283
 20
13.90000570500279
 10
189.4102003962143
 20
14.0743568255032
 10
189.3146141301485
 20
14.29946603111242
 10
189.2318652572627
 20
14.56388246006443
 10
189.1807179256411
 20
14.88187933098544
 10
189.077018920734
 20
15.15543728488915
 10
189.2042841208519
 20
15.56005818612868
 10
189.0357890623019
 20
15.55112367849681
 10
188.9511995787076
 20
15.55315961418364
 10
188.8189876387628
 20
15.55213937388408
 10
188.6560505094103
 20
15.55253230318431
 10
188.4733759170532
 20
15.5523569631337
 10
188.2847057373383
 20
15.5526010530747
 10
188.1014469020189
 20
15.55185657906239
 10
187.9404746832718
 20
15.55416360522427
 10
187.8029808335276
 20
15.54799804883665
 10
187.728959037231
 20
15.56032838458212
 10
187.6613215186856
 20
15.54329323723558
 10
187.673237371927
 20
15.59524438447529
 10
187.6655677285694
 20
15.64071424966529
 10
187.6732592225115
 20
15.68614453703705
 10
187.6613141797762
 20
15.73802395984569
 10
187.7283588305866
 20
15.72119143490263
 10
187.8017375665677
 20
15.7333540909267
 10
187.9379128305272
 20
15.72727231074958
 10
188.0973811801512
 20
15.72954834315057
 10
188.2789173085836
 20
15.72881233998961
 10
188.4658034862179
 20
15.72905954196132
 10
188.6468012316836
 20
15.72886400799253
 10
188.8080802578878
 20
15.72932234714838
 10
188.9393882124887
 20
15.72812673751205
 10
189.0225051322596
 20
15.73051347319741
 10
189.1556236547814
 20
15.72230605725464
 10
189.0645893502659
 20
15.97752868952654
 10
188.9789633074417
 20
16.24164358328245
 10
189.0990589003454
 20
16.22904442969165
 10
189.1514264948542
 20
16.22694235763074
 10
189.2214497569716
 20
16.22535399889658
 10
189.2671922337817
 20
16.21602567538112
 10
189.3220812646932
 20
16.22545966915427
 10
189.2963574785682
 20
16.17733028655169
 10
189.1825397571452
 20
16.18266829744175
 10
189.3159346621137
 20
15.95449174576773
 10
189.194365873547
 20
15.72156856595922
 10
189.3223188769413
 20
15.73087258884438
 10
189.4049048406461
 20
15.72801001754679
 10
189.5307214850824
 20
15.72923437412301
 10
189.6741469838057
 20
15.72932431888963
 10
189.8157420951728
 20
15.72746163183853
 10
189.9459127249967
 20
15.73333075937161
 10
190.0193452286191
 20
15.72070340823202
 10
190.0891112922096
 20
15.73877563110411
 10
190.0775772605396
 20
15.68612850546326
 10
190.0833184346682
 20
15.64221317686547
 10
190.0816615770911
 20
15.59089982676551
 10
190.081775756167
 20
15.56158792021636
 10
190.0818114333289
 20
15.55242795125079
 97
        1
330
BD
 75
     1
 76
     2
 52
45.0
 41
0.1
 77
     0
 78
     1
 53
45.0
 43
0.0
 44
0.0
 45
-0.282842712474619
 46
0.0
 79
     0
 98
        1
 10
0.0
 20
0.0
  0
HATCH
  5
DB
330
48
100
AcDbEntity
  8
1
  6
Continuous
 62
     2
100
AcDbHatch
 10
0.0
 20
0.0
 30
0.0
210
0.0
220
0.0
230
1.0
  2
CUSTOM9
 70
     0
 71
     1
 91
        1
 92
        1
 93
        1
 72
     4
 94
        3
 73
     0
 74
     0
 95
      118
 96
      114
 40
0.0
 40
0.0
 40
0.0
 40
0.0
 40
0.1054708162972862
 40
0.2466098270051195
 40
0.3965912874590368
 40
0.528552506975314
 40
0.615624505564151
 40
0.6431434105796823
 40
0.7036850037985696
 40
0.7642265984504262
 40
0.7917455052354734
 40
0.9287404319989597
 40
1.106572819087963
 40
1.287544879680917
 40
1.317578308030434
 40
1.399928030857071
 40
1.522968204799845
 40
1.675072986590465
 40
1.84461653318054
 40
2.019973001638604
 40
2.189516548879917
 40
2.341621331585253
 40
2.464661506320388
 40
2.547011229646952
 40
2.577044658167916
 40
2.603797890893015
 40
2.662655002908815
 40
2.721512114949713
 40
2.748265347702892
 40
2.774215307344969
 40
2.845959313407297
 40
2.954338556588498
 40
3.090194227585675
 40
3.244367517100642
 40
3.4076996158444
 40
3.571031714539549
 40
3.725205003920225
 40
3.861060674729725
 40
3.969439917716418
 40
4.041183923629092
 40
4.067133883213085
 40
4.311886746012242
 40
4.547897258335588
 40
4.764747083044056
 40
4.952749679951858
 40
5.045772974195983
 40
5.137862019645068
 40
5.330543169793123
 40
5.553448265244114
 40
5.79508385588827
 40
6.043293412177332
 40
6.285761695541277
 40
6.313902908752761
 40
6.38425594179335
 40
6.475714884766939
 40
6.567173827759001
 40
6.637526860839779
 40
6.665668074074143
 40
6.692018920328115
 40
6.749990782071185
 40
6.807962643790553
 40
6.834313490018028
 40
6.856393084245278
 40
6.91333519564993
 40
6.991194817302565
 40
7.07602694228377
 40
7.153886563725289
 40
7.210828674844814
 40
7.232908268931149
 40
7.25819933492367
 40
7.32487578159232
 40
7.419142481924977
 40
7.527204308841917
 40
7.635266135230495
 40
7.729532834168481
 40
7.796209279292803
 40
7.82150034459475
 40
7.844652988850877
 40
7.899863140541684
 40
7.965759128053906
 40
8.020969279771275
 40
8.044121924046742
 40
8.069356610160877
 40
8.109134395441568
 40
8.13223810019128
 40
8.193147867786646
 40
8.279261678876818
 40
8.377977512674033
 40
8.476693347146815
 40
8.56280716041187
 40
8.623716930826657
 40
8.646820636853608
 40
8.671988793774421
 40
8.734909185828275
 40
8.81670569518899
 40
8.898502204815532
 40
8.961422597377965
 40
8.986590754551077
 40
9.012941600733232
 40
9.070913462380316
 40
9.128885324081812
 40
9.155236170325132
 40
9.180404327929175
 40
9.24332472194822
 40
9.325121234211956
 40
9.40691774663761
 40
9.469838141978066
 40
9.495006288270812
 40
9.517811184378955
 40
9.572192090486954
 40
9.637098333281184
 40
9.691479239515383
 40
9.714284125643422
 40
9.714284125643422
 40
9.714284125643422
 40
9.714284125643422
 10
185.2874469028654
 20
15.26889163187719
 10
185.3090990569038
 20
15.24111869242811
 10
185.3597257109474
 20
15.17618054561234
 10
185.4349383202591
 20
15.06891060312898
 10
185.5248482274346
 20
14.95377438266625
 10
185.5709169676673
 20
14.85357045748318
 10
185.6655825294655
 20
14.78434006814943
 10
185.6204439320412
 20
14.73771639678273
 10
185.5947047785789
 20
14.69660308866039
 10
185.5645196708012
 20
14.66065971727939
 10
185.5193684730559
 20
14.58579782596095
 10
185.4710504458562
 20
14.80782524253602
 10
185.3968539713073
 20
14.84510677337712
 10
185.2836047324607
 20
15.11610202130598
 10
185.2885133578171
 20
15.00095328446229
 10
185.2868486556306
 20
14.92836675781627
 10
185.2876830076715
 20
14.80625588483986
 10
185.2873609540266
 20
14.65913800810461
 10
185.2875076912457
 20
14.49307063956558
 10
185.2872950092723
 20
14.32187554608602
 10
185.2879497252035
 20
14.15552828635499
 10
185.285919246114
 20
14.00935173055694
 10
185.2913460399931
 20
13.88471047474612
 10
185.2804930868709
 20
13.81718656540627
 10
185.2956739155556
 20
13.75549061417022
 10
185.2457895108134
 20
13.76727503897004
 10
185.2017150342521
 20
13.75943822779969
 10
185.1582371630201
 20
13.76760441372705
 10
185.1092346786487
 20
13.75538056738469
 10
185.1218731234824
 20
13.80960667249314
 10
185.1130182968449
 20
13.86936918907559
 10
185.1175058770312
 20
13.9792202904437
 10
185.115796013599
 20
14.1102997540568
 10
185.1163550915985
 20
14.26198011444329
 10
185.1161928768692
 20
14.42211074929954
 10
185.1162269924674
 20
14.58236865674567
 10
185.1162514960125
 20
14.7337024752044
 10
185.1161453543224
 20
14.86582156338601
 10
185.116429914193
 20
14.97294802533195
 10
185.1158675547566
 20
15.03808619579474
 10
185.1180765083688
 20
15.16618957858676
 10
185.0319435998603
 20
14.79097610391575
 10
184.95551408185
 20
14.63918193123393
 10
184.8660040767833
 20
14.47766206446308
 10
184.7640413217326
 20
14.20471848820172
 10
184.7187976491039
 20
14.3671734659651
 10
184.610235594167
 20
14.4560543205812
 10
184.7995791751752
 20
14.60549794961409
 10
184.8565340545701
 20
14.79749136974926
 10
184.9717520993352
 20
15.02899622906757
 10
184.9940151630132
 20
15.21797259759063
 10
185.177190515214
 20
15.49454089325929
 10
185.0538033597552
 20
15.48698978832094
 10
184.9925684166834
 20
15.48856772366119
 10
184.9081999617064
 20
15.48882592573672
 10
184.8204235085966
 20
15.48544845751206
 10
184.7656768696122
 20
15.4939481498202
 10
184.7104703026024
 20
15.48048561049788
 10
184.7222823035536
 20
15.52931442126763
 10
184.7142496151793
 20
15.57269004896708
 10
184.7228186104679
 20
15.61509438309572
 10
184.7102943409156
 20
15.66267796552117
 10
184.7555101538735
 20
15.65267212995109
 10
184.8014815562723
 20
15.65894105174061
 10
184.877722204771
 20
15.65593561405872
 10
184.9561296131993
 20
15.65770448278541
 10
185.0323992648932
 20
15.6546479398166
 10
185.0783009459473
 20
15.66103971376176
 10
185.1231733965399
 20
15.65093822978896
 10
185.1105552275633
 20
15.70157201581898
 10
185.1191936582705
 20
15.7550126188207
 10
185.1152361595441
 20
15.8486325513168
 10
185.1162325068334
 20
15.95112606688924
 10
185.1171927413072
 20
16.05353270248163
 10
185.1133211458005
 20
16.14735929609321
 10
185.1217789814363
 20
16.20036542840353
 10
185.1093075932834
 20
16.25211435651189
 10
185.1542106389849
 20
16.23850747226757
 10
185.1955083836771
 20
16.24100480320585
 10
185.2595344281051
 20
16.23648060574487
 10
185.2986111148787
 20
16.22781003043309
 10
185.3476543498743
 20
16.23515102070685
 10
185.322508003059
 20
16.19602896051764
 10
185.2815901333725
 20
16.20563842455804
 10
185.2910109616604
 20
16.15540148169778
 10
185.2855647318747
 20
16.1038594563949
 10
185.2881699601805
 20
16.0195970758452
 10
185.2870102202155
 20
15.92559135583408
 10
185.2883591064232
 20
15.83196865395525
 10
185.2849970101508
 20
15.74679517552223
 10
185.292095991777
 20
15.69716856072044
 10
185.2812569154547
 20
15.64993694969989
 10
185.3304010225246
 20
15.66201674936851
 10
185.3794877630147
 20
15.65447393363011
 10
185.4573714280641
 20
15.65686070361432
 10
185.5350365172896
 20
15.65899381905415
 10
185.5845393931354
 20
15.65193391922455
 10
185.6344594750639
 20
15.66360151936214
 10
185.6223198516881
 20
15.61540235371393
 10
185.6305838229143
 20
15.57249219801236
 10
185.6223198650783
 20
15.52958201851384
 10
185.6344594549855
 20
15.48138288754864
 10
185.5845395158746
 20
15.4930503447151
 10
185.5350350651203
 20
15.48599202435046
 10
185.4573784382973
 20
15.48811665228604
 10
185.379464386576
 20
15.4905338936576
 10
185.3304500352718
 20
15.48291848194486
 10
185.2813246108943
 20
15.49507952557591
 10
185.2915559988573
 20
15.45073013424158
 10
185.2856677678054
 20
15.40925436202911
 10
185.287878830557
 20
15.34915394315302
 10
185.2874109346147
 20
15.30225782762889
 10
185.2874386992914
 20
15.27650146418196
 10
185.2874469028654
 20
15.26889163187719
 97
        1
330
BE
 75
     1
 76
     2
 52
45.0
 41
0.1
 77
     0
 78
     1
 53
45.0
 43
0.0
 44
0.0
 45
-0.282842712474619
 46
0.0
 79
     0
 98
        1
 10
0.0
 20
0.0
  0
HATCH
  5
DC
330
48
100
AcDbEntity
  8
1
  6
Continuous
 62
     2
100
AcDbHatch
 10
0.0
 20
0.0
 30
0.0
210
0.0
220
0.0
230
1.0
  2
CUSTOM10
 70
     0
 71
     1
 91
        1
 92
        1
 93
        1
 72
     4
 94
        3
 73
     0
 74
     0
 95
       47
 96
       43
 40
0.0
 40
0.0
 40
0.0
 40
0.0
 40
0.2207912809957147
 40
0.4459404186303021
 40
0.4902387190459798
 40
0.5327473892721901
 40
0.5742260451226362
 40
0.6155432630561655
 40
0.6568164066317141
 40
0.6982511618781503
 40
0.7407663929318007
 40
0.7851366743177192
 40
1.010288833836521
 40
1.231080507002366
 40
1.451765243652594
 40
1.676638205891881
 40
1.720461045359852
 40
1.830018144043718
 40
1.972442372353352
 40
2.114866600677723
 40
2.224423699395349
 40
2.268246538883591
 40
2.493628801207411
 40
2.715602830286821
 40
2.934211330706579
 40
3.149502369855577
 40
3.231387784851308
 40
3.318231873854372
 40
3.405143198198303
 40
3.486970301720882
 40
3.702258172494331
 40
3.920866283534563
 40
4.142839325932361
 40
4.368221903865813
 40
4.412044743360292
 40
4.52160184209631
 40
4.664026070452794
 40
4.806450298809503
 40
4.916007397547197
 40
4.959830237043521
 40
5.184703515847557
 40
5.405387250767927
 40
5.405387250767927
 40
5.405387250767927
 40
5.405387250767927
 10
182.6507427258646
 20
15.73406440953873
 10
182.6568139420003
 20
15.79758482501212
 10
182.6690762107244
 20
15.92587938689628
 10
182.560470687941
 20
16.20166220174075
 10
182.6761985896603
 20
16.17188133432055
 10
182.7171842509014
 20
16.16765556262819
 10
182.7591205797518
 20
16.16310446389607
 10
182.800419662571
 20
16.16201982929485
 10
182.8417032115555
 20
16.16310338195226
 10
182.8836148270648
 20
16.16766112711345
 10
182.9245983549019
 20
16.17187430209728
 10
183.0404922843491
 20
16.20177611317535
 10
182.9295652727456
 20
15.92339806609892
 10
182.9574856365266
 20
15.74283140824954
 10
182.9404267346968
 20
15.50961042346472
 10
182.9414637282102
 20
15.34906622543147
 10
182.9414099399403
 20
15.22284817558722
 10
182.9414277372479
 20
15.12428963336241
 10
182.9414188581079
 20
14.99280702442963
 10
182.9414263928033
 20
14.8613284496865
 10
182.9414129405127
 20
14.7627622269409
 10
182.9414531717492
 20
14.63639735624152
 10
182.9406746403817
 20
14.4748206882287
 10
182.9565958319266
 20
14.24361821892914
 10
182.9333468885407
 20
14.05874351972
 10
183.0360183444367
 20
13.78935602770053
 10
182.8820238362836
 20
13.82660112685817
 10
182.8004129802832
 20
13.82137994680536
 10
182.7188192292583
 20
13.8266062037835
 10
182.5648513666841
 20
13.78937069885383
 10
182.6674183421917
 20
14.05875129862878
 10
182.644204531609
 20
14.24361585325416
 10
182.6600444655138
 20
14.47482218565638
 10
182.6593296313426
 20
14.63639712308503
 10
182.6593664569907
 20
14.7627623121052
 10
182.659354900027
 20
14.86132756635982
 10
182.6593575019214
 20
14.9928112741722
 10
182.6593648531778
 20
15.124275480312
 10
182.6593442541352
 20
15.22287786275327
 10
182.6594082192027
 20
15.34896149354427
 10
182.658173394759
 20
15.51210091383772
 10
182.6532040396746
 20
15.66054183777551
 10
182.6507427258646
 20
15.73406440953873
 97
        1
330
BF
 75
     1
 76
     2
 52
45.0
 41
0.1
 77
     0
 78
     1
 53
45.0
 43
0.0
 44
0.0
 45
-0.282842712474619
 46
0.0
 79
     0
 98
        1
 10
0.0
 20
0.0
  0
HATCH
  5
DD
330
48
100
AcDbEntity
  8
1
  6
Continuous
 62
     2
100
AcDbHatch
 10
0.0
 20
0.0
 30
0.0
210
0.0
220
0.0
230
1.0
  2
CUSTOM11
 70
     0
 71
     1
 91
        1
 92
        1
 93
        1
 72
     4
 94
        3
 73
     0
 74
     0
 95
      110
 96
      106
 40
0.0
 40
0.0
 40
0.0
 40
0.0
 40
0.2203406257277844
 40
0.4407808782838091
 40
0.5952494494615352
 40
0.7488431659393071
 40
0.9023581831309057
 40
1.056801968670404
 40
1.210736449099961
 40
1.363041386539783
 40
1.515315729683069
 40
1.669377239148077
 40
1.721611652756564
 40
1.773199502942947
 40
1.824933793209997
 40
1.877110426487978
 40
1.982682281206713
 40
2.078781667087437
 40
2.172809640822214
 40
2.271937807378925
 40
2.378349933379318
 40
2.494131557736393
 40
2.62668168394364
 40
2.783145050796068
 40
2.89070123294092
 40
2.99313031245481
 40
3.099869730691798
 40
3.220237816691295
 40
3.352695482737581
 40
3.481732806389836
 40
3.593499473690362
 40
3.67432301333188
 40
3.817951711952773
 40
3.946167120793941
 40
4.061405053453456
 40
4.166480796003068
 40
4.26247877505919
 40
4.350736673551061
 40
4.433071991254032
 40
4.511216293814748
 40
4.564262454118094
 40
4.618474415571717
 40
4.670128488754312
 40
4.722296879126527
 40
4.819540945314453
 40
4.931194984128252
 40
5.049996040257922
 40
5.16864375541544
 40
5.283970811762765
 40
5.392260784910675
 40
5.486512254876693
 40
5.559178233950064
 40
5.591425852853726
 40
5.626215969638093
 40
5.667155838674654
 40
5.717449290214469
 40
5.738402360945082
 40
5.784499116554049
 40
5.830595872165017
 40
5.851548942897876
 40
5.873019280661988
 40
5.924217778408528
 40
5.985325662817899
 40
6.03652416056791
 40
6.057994498334437
 40
6.2368477896077
 40
6.381409928945872
 40
6.493190424178908
 40
6.57406753423072
 40
6.691018086205785
 40
6.814881554220618
 40
6.944307823240655
 40
7.071266716066223
 40
7.193488604462124
 40
7.309042773128379
 40
7.414007203171033
 40
7.505140441886762
 40
7.531150360599928
 40
7.559221645322527
 40
7.587202218921186
 40
7.612569159499397
 40
7.662550809481271
 40
7.702878875764421
 40
7.857328205231264
 40
8.010799568088967
 40
8.165256399657917
 40
8.322232698714256
 40
8.479564855016886
 40
8.63521623029106
 40
8.790882550925978
 40
8.948305154947544
 40
9.168271839033233
 40
9.387358980987505
 40
9.608047961033762
 40
9.832914234792959
 40
9.858338694963294
 40
9.9253668172303
 40
10.02013071422788
 40
10.12876249859027
 40
10.23739428295277
 40
10.33215817995218
 40
10.39918630222422
 40
10.42461076239811
 40
10.6499201933697
 40
10.87188524531215
 40
10.87188524531215
 40
10.87188524531215
 40
10.87188524531215
 10
179.9057788376618
 20
15.7392326039819
 10
179.9092864933542
 20
15.80616462073804
 10
179.9163033987662
 20
15.94005891915859
 10
179.8198027599072
 20
16.22548554971471
 10
180.0510134726109
 20
16.16284386190284
 10
180.1919290057156
 20
16.17001554055991
 10
180.3490417757588
 20
16.16235883078244
 10
180.5025913427288
 20
16.1625275228304
 10
180.6545104935081
 20
16.16182040535432
 10
180.8142214813231
 20
16.17210158351639
 10
180.9408972601117
 20
16.15496511080751
 10
181.1370821122082
 20
16.22727260107148
 10
181.1034395279077
 20
16.12640699080116
 10
181.1052011317184
 20
16.0761925394767
 10
181.1027342073458
 20
16.02712335586466
 10
181.1347076966011
 20
15.94063490847
 10
181.0010399903256
 20
15.98997438608336
 10
180.9172208688057
 20
15.98430634314168
 10
180.8173861139324
 20
15.99465516706297
 10
180.7186576720146
 20
16.00086450411087
 10
180.612153277111
 20
16.00697763816777
 10
180.491051169806
 20
16.01588883484585
 10
180.3703381502454
 20
16.00521605912382
 10
180.1812553843437
 20
16.06468503080367
 10
180.2129028505311
 20
15.90558320077541
 10
180.1995563316835
 20
15.80839128339904
 10
180.197495842645
 20
15.69634065110103
 10
180.1958188044671
 20
15.57699685629351
 10
180.1973336794232
 20
15.4503259215511
 10
180.1956582478672
 20
15.32301588016117
 10
180.2058844271658
 20
15.22451566404465
 10
180.1779006596582
 20
15.08388702625632
 10
180.3508029999305
 20
15.13989551134098
 10
180.4645020202772
 20
15.12719951478497
 10
180.5840151672239
 20
15.13448377051255
 10
180.6888491425071
 20
15.13878017056757
 10
180.7843084898611
 20
15.14330568258976
 10
180.8763823507032
 20
15.151492011462
 10
180.9476551782439
 20
15.1464385063811
 10
181.0544931705687
 20
15.18536425031678
 10
181.0226603598035
 20
15.1051712200588
 10
181.026616450393
 20
15.05562936846033
 10
181.0234502392012
 20
15.00557478039817
 10
181.0550791490587
 20
14.92128847612022
 10
180.9210133677692
 20
14.97425365495157
 10
180.8292322793201
 20
14.96540080890441
 10
180.7079729189604
 20
14.97570049965154
 10
180.5914113119771
 20
14.97748911767503
 10
180.4783375745879
 20
14.97787017109694
 10
180.367924630847
 20
14.98415449472182
 10
180.289812406784
 20
14.97189133255364
 10
180.1913625833644
 20
15.00453887616125
 10
180.2012355173561
 20
14.94769748054207
 10
180.1973923244404
 20
14.91392130557984
 10
180.1966789884268
 20
14.87119604709412
 10
180.1963369642974
 20
14.83401607262153
 10
180.1963834255346
 20
14.7948723737077
 10
180.1963649429926
 20
14.75716849497685
 10
180.1963703431806
 20
14.71944955232402
 10
180.1963697214201
 20
14.6899432474515
 10
180.1963698151545
 20
14.65873577699301
 10
180.196370428792
 20
14.61414424908085
 10
180.1963671499337
 20
14.55963956508852
 10
180.196375962348
 20
14.51505540201449
 10
180.1963359653418
 20
14.43117808585742
 10
180.1976024270253
 20
14.31737520677679
 10
180.1950274117844
 20
14.1683039593371
 10
180.2065009381719
 20
14.06597203813906
 10
180.1823506222264
 20
13.93338903885835
 10
180.3332993946475
 20
13.97895732272019
 10
180.4428436671556
 20
13.9642701216235
 10
180.5733970473919
 20
13.96920435125062
 10
180.6990312209513
 20
13.97257705323362
 10
180.81887306256
 20
13.97711497498775
 10
180.9391362611426
 20
13.99048536182004
 10
181.0222761663516
 20
13.98068712782595
 10
181.1456080421075
 20
14.04126214623319
 10
181.1244269203955
 20
13.98532460134021
 10
181.1235950270116
 20
13.95939249372347
 10
181.1218963707557
 20
13.93197256190938
 10
181.1217974888829
 20
13.89738195206386
 10
181.1203659301329
 20
13.86050408220766
 10
181.1532804192191
 20
13.76846841021808
 10
180.9551306988106
 20
13.84132015974831
 10
180.830054829489
 20
13.81825726508607
 10
180.6673071295155
 20
13.82454021985786
 10
180.5129366450001
 20
13.82260943909927
 10
180.3566670436943
 20
13.82393762599268
 10
180.1970544465282
 20
13.82059872487864
 10
180.0540326342236
 20
13.8326579572824
 10
179.8197144881628
 20
13.76952001976918
 10
179.9173810751197
 20
14.05620527466318
 10
179.9006868780059
 20
14.24988308142661
 10
179.9146296709683
 20
14.47848242880295
 10
179.9142987846633
 20
14.63384593955051
 10
179.9143078119263
 20
14.73966336444126
 10
179.9143055876316
 20
14.80205784124215
 10
179.9143065551889
 20
14.89220425248327
 10
179.9143065473262
 20
14.99621167157438
 10
179.9143053861102
 20
15.10022131375296
 10
179.9143090971502
 20
15.19036243688768
 10
179.9143011051051
 20
15.25276803097215
 10
179.9143334275018
 20
15.35868835961119
 10
179.9131440788319
 20
15.5162671654474
 10
179.9082216489256
 20
15.66528219822065
 10
179.9057788376618
 20
15.7392326039819
 97
        1
330
C0
 75
     1
 76
     2
 52
45.0
 41
0.1
 77
     0
 78
     1
 53
45.0
 43
0.0
 44
0.0
 45
-0.282842712474619
 46
0.0
 79
     0
 98
        1
 10
0.0
 20
0.0
  0
HATCH
  5
DE
330
48
100
AcDbEntity
  8
1
  6
Continuous
 62
     2
100
AcDbHatch
 10
0.0
 20
0.0
 30
0.0
210
0.0
220
0.0
230
1.0
  2
CUSTOM12
 70
     0
 71
     1
 91
        1
 92
        1
 93
        1
 72
     4
 94
        3
 73
     0
 74
     0
 95
       95
 96
       91
 40
0.0
 40
0.0
 40
0.0
 40
0.0
 40
0.6550406656910744
 40
1.308087289031881
 40
1.420803739835754
 40
1.566130759770765
 40
1.757067341888427
 40
2.006513545026426
 40
2.087328263121516
 40
2.185328872295596
 40
2.294612454748338
 40
2.40893638053478
 40
2.526802767798529
 40
2.646360524615567
 40
2.762535723971546
 40
2.870057342870116
 40
2.966883448431611
 40
3.050803243518262
 40
3.115818222436579
 40
3.156030057150214
 40
3.213914225080144
 40
3.276689026450517
 40
3.342960320981294
 40
3.404230667150543
 40
3.453822809493356
 40
3.532499827188408
 40
3.634775188507151
 40
3.754909333008145
 40
3.889736761660643
 40
4.035769602175209
 40
4.187256681197594
 40
4.33873368567595
 40
4.488478734676117
 40
4.634708317831584
 40
4.771493189921268
 40
4.892686571561197
 40
5.19977552894444
 40
5.460353566929623
 40
5.667603142345498
 40
5.814722905404477
 40
5.828990806219776
 40
5.855488336304473
 40
5.869756237118804
 40
6.189796507762848
 40
6.531890469872996
 40
6.883053637017023
 40
7.230512024911397
 40
7.566966656764567
 40
7.885203559707337
 40
8.172887439719158
 40
8.418011594062753
 40
8.443926721190675
 40
8.510760470613164
 40
8.602145393795675
 40
8.701714041647117
 40
8.79309896507535
 40
8.859932715057926
 40
8.885847842603575
 40
9.242301256612784
 40
9.589275455016734
 40
9.921808543164142
 40
10.23479624298464
 40
10.29968150889169
 40
10.35323493887743
 40
10.40154625355131
 40
10.46482922477812
 40
10.55973900668392
 40
10.69239545985605
 40
10.84920353475659
 40
11.01626328594766
 40
11.18672024367429
 40
11.35372582577198
 40
11.50257442292414
 40
11.61866495023278
 40
11.71329869152861
 40
11.82511050573895
 40
11.94464880845703
 40
12.06929242642493
 40
12.19707290435163
 40
12.32562632860515
 40
12.45034565331266
 40
12.56646595170314
 40
12.67099007414622
 40
12.7607762593677
 40
12.82703233506682
 40
12.8742913278598
 40
12.8983199032332
 40
12.92234847860008
 40
13.5398476741031
 40
14.18294284359359
 40
14.18294284359359
 40
14.18294284359359
 40
14.18294284359359
 10
177.306793564802
 20
14.70898038201725
 10
177.175201975855
 20
14.82265058603234
 10
176.9124193802728
 20
15.04964496316163
 10
176.399739344102
 20
15.8921446295629
 10
176.4106654595363
 20
15.5342337757702
 10
176.4041226527989
 20
15.39267392272133
 10
176.4028026631772
 20
15.19421305299281
 10
176.4018117602537
 20
15.02150296045983
 10
176.4024101751974
 20
14.8786537325758
 10
176.4038994301882
 20
14.78265005413358
 10
176.4055683588473
 20
14.67545503263141
 10
176.4071934954617
 20
14.56164211517582
 10
176.4092429501686
 20
14.44441572604589
 10
176.4123165501927
 20
14.3265641123297
 10
176.4156339697043
 20
14.21228087320621
 10
176.419360534028
 20
14.10521401867277
 10
176.4217338161424
 20
14.01007408766922
 10
176.4278718888356
 20
13.92558557205694
 10
176.4239784495947
 20
13.86923087298142
 10
176.4455230443077
 20
13.79825022472354
 10
176.3680940058617
 20
13.82902677604483
 10
176.3116353240191
 20
13.82011242517615
 10
176.2540495896807
 20
13.82896218398275
 10
176.1690163478472
 20
13.79738225225944
 10
176.2009714146383
 20
13.8809515599219
 10
176.1990705282538
 20
13.94882608968309
 10
176.21079600473
 20
14.05233256764419
 10
176.2164241053
 20
14.17002125616695
 10
176.223790217894
 20
14.30388609164424
 10
176.2320759701611
 20
14.44764152872631
 10
176.2398851897426
 20
14.59714022843445
 10
176.2457571222658
 20
14.74792549402079
 10
176.2503667817967
 20
14.89699943878439
 10
176.2542632117544
 20
15.04122913163023
 10
176.2570715126563
 20
15.17583905213018
 10
176.2576698755023
 20
15.36469614347355
 10
176.261602386715
 20
15.58975494313153
 10
176.2442175378498
 20
15.86367091125708
 10
176.2850417342583
 20
16.02787112098595
 10
176.1995153256001
 20
16.22749661465097
 10
176.2660558907688
 20
16.22385458403978
 10
176.283872427323
 20
16.22413447160854
 10
176.4056801797504
 20
16.22632927398613
 10
176.5080770335462
 20
15.9467511872152
 10
176.7580021509356
 20
15.74563008535997
 10
176.9870035331111
 20
15.47792614987925
 10
177.2245151213108
 20
15.22646413862368
 10
177.4486090740772
 20
14.98969974061366
 10
177.6750716283008
 20
14.73218692583075
 10
177.8325687886514
 20
14.61649335056921
 10
178.0472129612673
 20
14.27997152538791
 10
178.0422645974619
 20
14.40464754091604
 10
178.0433931602546
 20
14.46327691935737
 10
178.0428877841517
 20
14.55043662371977
 10
178.0430475158113
 20
14.64416143182873
 10
178.0430054891318
 20
14.73018971297035
 10
178.0430202040372
 20
14.79153891945496
 10
178.0429706255985
 20
14.94135231520993
 10
178.045881152281
 20
15.17989612510104
 10
178.0259521041161
 20
15.54486509868702
 10
178.0750433936248
 20
15.8079963199341
 10
177.917795150918
 20
16.21928904947752
 10
178.0762112872422
 20
16.16398282551749
 10
178.1311680478628
 20
16.16199686500175
 10
178.1827887766739
 20
16.16264778248252
 10
178.2713198965366
 20
16.20369527738247
 10
178.2204898303168
 20
16.05696326622988
 10
178.2313389930282
 20
15.95019971954434
 10
178.2166036994847
 20
15.79085705414113
 10
178.2099976446206
 20
15.62853061652874
 10
178.2014961399915
 20
15.45992521892396
 10
178.1943227202198
 20
15.29814814703541
 10
178.1889063215389
 20
15.15422331457932
 10
178.1871713967648
 20
15.03437493466926
 10
178.1875440672319
 20
14.92686101590516
 10
178.1873656126263
 20
14.81820024645586
 10
178.1877010863138
 20
14.6995357016553
 10
178.1890040622186
 20
14.57555163512742
 10
178.1908887351575
 20
14.44858294171106
 10
178.1925004454849
 20
14.32153861551032
 10
178.194140313743
 20
14.19854884492178
 10
178.1962570745751
 20
14.08300931383759
 10
178.1963848422363
 20
13.98090903955837
 10
178.2006514396554
 20
13.89009848838156
 10
178.1908440085289
 20
13.83213621208786
 10
178.2118474771689
 20
13.76517130132029
 10
178.1725639739897
 20
13.77291153966688
 10
177.9595307117746
 20
13.75755254145194
 10
177.7636297943185
 20
14.3140305809447
 10
177.4611197631543
 20
14.57556035348511
 10
177.306793564802
 20
14.70898038201725
 97
        1
330
C1
 75
     1
 76
     2
 52
45.0
 41
0.1
 77
     0
 78
     1
 53
45.0
 43
0.0
 44
0.0
 45
-0.282842712474619
 46
0.0
 79
     0
 98
        1
 10
0.0
 20
0.0
  0
HATCH
  5
DF
330
48
100
AcDbEntity
  8
1
  6
Continuous
 62
     2
100
AcDbHatch
 10
0.0
 20
0.0
 30
0.0
210
0.0
220
0.0
230
1.0
  2
CUSTOM13
 70
     0
 71
     1
 91
        2
 92
        1
 93
        1
 72
     4
 94
        3
 73
     0
 74
     0
 95
       57
 96
       53
 40
0.0
 40
0.0
 40
0.0
 40
0.0
 40
0.0471632082809521
 40
0.091486105463301
 40
0.1357762519701824
 40
0.1826527001610688
 40
0.2295203288572596
 40
0.2737751972219629
 40
0.3181310461543361
 40
0.3652607198398524
 40
0.4571007286314529
 40
0.5671851029165593
 40
0.6894623283868478
 40
0.818175827254596
 40
0.9510087229274198
 40
1.085852229674056
 40
1.218126164475296
 40
1.343545131142402
 40
1.454537202956818
 40
1.567187607530827
 40
1.680710966642474
 40
1.79422686973681
 40
1.900009184247638
 40
2.004085860447889
 40
2.108162674451777
 40
2.214000150155321
 40
2.49603857735217
 40
2.762350745479316
 40
2.997275353279443
 40
3.185110082137737
 40
3.246407890064078
 40
3.312607550212894
 40
3.37887774271174
 40
3.440140399651453
 40
4.100501696006437
 40
4.754913085563482
 40
5.41133169342391
 40
6.077890432568714
 40
6.110575292670993
 40
6.143260152775773
 40
6.367989363395097
 40
6.610525374951499
 40
6.863389136467283
 40
7.119380025547502
 40
7.376036605091067
 40
7.631164770966207
 40
7.876722425456386
 40
8.104953735855974
 40
8.31291668592426
 40
8.49773029494127
 40
8.651018984313815
 40
8.764738853624555
 40
8.764738853624555
 40
8.764738853624555
 40
8.764738853624555
 10
174.7922649500513
 20
13.81626739612927
 10
174.776661672693
 20
13.81826231079077
 10
174.7463947960302
 20
13.822132013603
 10
174.7010994202252
 20
13.82341984967269
 10
174.6559553129349
 20
13.82308683554052
 10
174.6099017123399
 20
13.82314658674224
 10
174.5640496172097
 20
13.82325813650002
 10
174.5183711648165
 20
13.82277833456591
 10
174.4750811541609
 20
13.82461109618723
 10
174.4039947951513
 20
13.80049556814657
 10
174.4057477261441
 20
13.92184693977254
 10
174.3586196370568
 20
14.0072623975123
 10
174.3191478251761
 20
14.12486929345136
 10
174.2706635532645
 20
14.2423275254044
 10
174.2201017402521
 20
14.36405935761507
 10
174.1718634610477
 20
14.49075967862466
 10
174.1135232947596
 20
14.59933687784955
 10
174.0980892667261
 20
14.75620657134412
 10
173.9566586330636
 20
14.72373446548322
 10
173.8508397414904
 20
14.73512888682179
 10
173.7358569725222
 20
14.73392591514616
 10
173.6253142252141
 20
14.73506945347408
 10
173.5176583522783
 20
14.73418350037527
 10
173.4121322529243
 20
14.73416602390519
 10
173.3109192682012
 20
14.72714032472415
 10
173.1266804827753
 20
14.75135859859871
 10
173.1157393685411
 20
14.44741691121885
 10
173.008769163475
 20
14.22353177253397
 10
172.9098148604346
 20
14.03895314292498
 10
172.9225090524008
 20
13.79530204804204
 10
172.8050091716397
 20
13.82508046753198
 10
172.742205586831
 20
13.82258089509604
 10
172.67858720934
 20
13.82344075102805
 10
172.3946014194076
 20
13.78098039941943
 10
173.0251638499381
 20
14.50081952444794
 10
173.108764528907
 20
15.01276539435729
 10
173.492925278934
 20
15.53353743550043
 10
173.4777208288565
 20
16.23519626253216
 10
173.7239265722698
 20
16.22345633081256
 10
173.8256346157563
 20
16.23225004452774
 10
173.8249752035816
 20
15.9805965073034
 10
173.9428317155828
 20
15.79818020733961
 10
174.0315515260486
 20
15.55563740662872
 10
174.1322292485257
 20
15.32340030530121
 10
174.2311142712244
 20
15.08674644566921
 10
174.3299676990667
 20
14.85461739170089
 10
174.4256166390926
 20
14.63122222788789
 10
174.5159904573272
 20
14.42272549049321
 10
174.5989944568189
 20
14.23308448529317
 10
174.6726088582799
 20
14.066631060681
 10
174.7342815895545
 20
13.92917699626098
 10
174.7749458885603
 20
13.84999239430033
 10
174.7922649500513
 20
13.81626739612927
 97
        1
330
C3
 92
       16
 93
        1
 72
     4
 94
        3
 73
     0
 74
     0
 95
       25
 96
       21
 40
0.0
 40
0.0
 40
0.0
 40
0.0
 40
0.0911479969064822
 40
0.1858117896203813
 40
0.2804128399733918
 40
0.3715889190713653
 40
0.4679080494218419
 40
0.5642683809229225
 40
0.6605683222644704
 40
0.7569653015810249
 40
0.8561348172522733
 40
1.092615965104291
 40
1.374867658141874
 40
1.6113488120116
 40
1.710518328425248
 40
1.809403163726567
 40
2.045205463294069
 40
2.326646917622129
 40
2.562449217190591
 40
2.66133404383391
 40
2.66133404383391
 40
2.66133404383391
 40
2.66133404383391
 10
173.2683700567199
 20
14.88614538197292
 10
173.2987525917922
 20
14.88598079714554
 10
173.3606895889111
 20
14.88564528689922
 10
173.4541356960329
 20
14.88269055451999
 10
173.5475095236356
 20
14.87977752877153
 10
173.6417760753476
 20
14.87894201643417
 10
173.7354964790967
 20
14.87996644658048
 10
173.8352040303204
 20
14.87916977470971
 10
173.9188949546312
 20
14.88921410235221
 10
174.0637996315045
 20
14.86234617674164
 10
173.93961324448
 20
15.03665530280048
 10
173.8965867286282
 20
15.19651711006091
 10
173.780892214221
 20
15.45518458550216
 10
173.7017565431257
 20
15.59231052861858
 10
173.6431576621816
 20
15.80937033134077
 10
173.5864803939438
 20
15.59266134213428
 10
173.5052809900478
 20
15.45327012438236
 10
173.4063701281487
 20
15.20406969370194
 10
173.325362509426
 20
15.01925830226074
 10
173.2813683325838
 20
14.91650446856116
 10
173.2683700567199
 20
14.88614538197292
 97
        1
330
C2
 75
     1
 76
     2
 52
45.0
 41
0.1
 77
     0
 78
     1
 53
45.0
 43
0.0
 44
0.0
 45
-0.282842712474619
 46
0.0
 79
     0
 98
        1
 10
0.0
 20
0.0
  0
HATCH
  5
E0
330
48
100
AcDbEntity
  8
1
  6
Continuous
 62
     2
100
AcDbHatch
 10
0.0
 20
0.0
 30
0.0
210
0.0
220
0.0
230
1.0
  2
CUSTOM14
 70
     0
 71
     1
 91
        1
 92
        1
 93
        1
 72
     4
 94
        3
 73
     0
 74
     0
 95
       99
 96
       95
 40
0.0
 40
0.0
 40
0.0
 40
0.0
 40
0.0796417172273564
 40
0.1621768542356683
 40
0.2486489160957859
 40
0.3404969668525336
 40
0.4381912511165359
 40
0.5434463660245661
 40
0.6518115192847416
 40
0.7530190937887558
 40
0.84921969197263
 40
0.9419290312998886
 40
1.034249663570114
 40
1.129078600620274
 40
1.226697027573339
 40
1.327220425421791
 40
1.470572134938102
 40
1.595489863371296
 40
1.719934125348438
 40
1.850576620127579
 40
1.989059629987365
 40
2.134139054226901
 40
2.280698007207244
 40
2.424529739039558
 40
2.565929576985927
 40
2.708239260773619
 40
2.861717887443729
 40
3.045168540347441
 40
3.18379830113868
 40
3.314813961455563
 40
3.442083470447416
 40
3.56991270837307
 40
3.70217751250933
 40
3.842307559659551
 40
3.992872223245953
 40
4.156750662218456
 40
4.310981861107507
 40
4.445859909322608
 40
4.572393936131601
 40
4.701656719782
 40
4.768279086008481
 40
4.835960697898423
 40
4.912788918729372
 40
5.006285208481533
 40
5.026909478751666
 40
5.047533749021287
 40
5.101808031471358
 40
5.162325165538685
 40
5.226919745995911
 40
5.29423180659676
 40
5.364544852554953
 40
5.438319055468047
 40
5.517877651324409
 40
5.607647714861778
 40
5.700449642544596
 40
5.788251142364272
 40
5.872714706039904
 40
5.95516729257548
 40
6.03719239519052
 40
6.120669181469245
 40
6.206848616686511
 40
6.296680855416927
 40
6.442558392872744
 40
6.568190371608454
 40
6.692904567360507
 40
6.824220446557304
 40
6.963121850329492
 40
7.107843738851256
 40
7.253431663907418
 40
7.395187468036863
 40
7.533140753237899
 40
7.670550457175409
 40
7.816236511769397
 40
7.987691657359355
 40
8.142277421969393
 40
8.293662615415135
 40
8.442962460879368
 40
8.59159831618544
 40
8.74367899236189
 40
8.903725323699303
 40
9.076307008890678
 40
9.265578604680705
 40
9.459203795360851
 40
9.617619810273746
 40
9.753609671362058
 40
9.874873300004204
 40
9.954520184977888
 40
10.02416413719257
 40
10.09769764405458
 40
10.18909955924986
 40
10.20974586420141
 40
10.23039218263381
 40
10.30057101881265
 40
10.37632012987541
 40
10.37632012987541
 40
10.37632012987541
 40
10.37632012987541
 10
170.146595483585
 20
14.13795663215996
 10
170.1632217851219
 20
14.11720608845315
 10
170.1970784206578
 20
14.07495111711907
 10
170.2599822541035
 20
14.02029811392072
 10
170.3332500940392
 20
13.97299025121047
 10
170.4175969238636
 20
13.93527231437936
 10
170.513224061546
 20
13.9104061973195
 10
170.6171853775345
 20
13.90309559345937
 10
170.7224020220405
 20
13.91142322794053
 10
170.8206626371333
 20
13.9414917965153
 10
170.9058986427549
 20
13.98848822971873
 10
170.9779220206103
 20
14.0495299125086
 10
171.0350917709096
 20
14.12412969578583
 10
171.0767868747439
 20
14.21002464660176
 10
171.1026952846293
 20
14.30485850432211
 10
171.1118037332652
 20
14.41854979038368
 10
171.0986864796487
 20
14.54332587770779
 10
171.0325330334414
 20
14.6601471917189
 10
170.9369370919568
 20
14.7451253957738
 10
170.8249681022369
 20
14.81416684459155
 10
170.6993659583269
 20
14.87204142045893
 10
170.5656691620857
 20
14.92373723284343
 10
170.4313122818831
 20
14.97899092397182
 10
170.3051983986877
 20
15.04939770641647
 10
170.1926579987535
 20
15.1378554073125
 10
170.0969963064458
 20
15.24981067868471
 10
170.0334157151826
 20
15.39949910101384
 10
170.0200706505015
 20
15.5593279438514
 10
170.0320510987448
 20
15.71048405306848
 10
170.0712298928842
 20
15.83809244591536
 10
170.1354987750911
 20
15.95080874030845
 10
170.2238204999741
 20
16.0464860926868
 10
170.3338091207627
 20
16.1235421498576
 10
170.4632284401265
 20
16.18151396936276
 10
170.6111838967794
 20
16.21739177588823
 10
170.7682069455487
 20
16.22746719050564
 10
170.917494046643
 20
16.21863637762589
 10
171.059625361417
 20
16.19074899340353
 10
171.1595922609626
 20
16.13413314701138
 10
171.3125074736184
 20
16.08674602105506
 10
171.2455131717169
 20
16.00197553001185
 10
171.2296479120268
 20
15.93438901873483
 10
171.1978750531296
 20
15.86926092793194
 10
171.2150202209572
 20
15.76723453256952
 10
171.1666427208233
 20
15.77493211681903
 10
171.1315789440765
 20
15.76806771724806
 10
171.1296697985718
 20
15.83263831158199
 10
171.0985692931988
 20
15.87825639621389
 10
171.0664551628456
 20
15.93561036628459
 10
171.0208038475169
 20
15.98540462692561
 10
170.9658508218387
 20
16.02994813718995
 10
170.9010841173008
 20
16.06763988836549
 10
170.8232377310596
 20
16.09283375791352
 10
170.7355160553352
 20
16.09931230998111
 10
170.6452903277806
 20
16.09235709285608
 10
170.5594594694064
 20
16.0690919046092
 10
170.4828343638596
 20
16.03131644107541
 10
170.41652656362
 20
15.98051641089581
 10
170.3622560536963
 20
15.91731143407207
 10
170.3224925345459
 20
15.84276455710367
 10
170.2976775510587
 20
15.75917313997765
 10
170.289212426287
 20
15.65192948382285
 10
170.3019697987102
 20
15.52965457267557
 10
170.3681548409274
 20
15.41149724291213
 10
170.4640977399831
 20
15.32606325709525
 10
170.5757914963182
 20
15.25583362306726
 10
170.7010863668702
 20
15.19659162305303
 10
170.8349823941446
 20
15.14616708086129
 10
170.968993033315
 20
15.09322516984383
 10
171.0950885316915
 20
15.02750170625179
 10
171.2076216638417
 20
14.94480352537319
 10
171.3031370284233
 20
14.83996006310077
 10
171.3672706486961
 20
14.69937117251568
 10
171.3811103725278
 20
14.54065409451593
 10
171.3673954712228
 20
14.38153155217878
 10
171.3244739153985
 20
14.23483828819209
 10
171.2545906329066
 20
14.10119796587141
 10
171.1574592213829
 20
13.98532387699295
 10
171.0347806023657
 20
13.89089981770086
 10
170.8874408413168
 20
13.82179270651982
 10
170.7177132497124
 20
13.77953210858853
 10
170.5317404979596
 20
13.76781736230406
 10
170.3528955926183
 20
13.77809486683439
 10
170.1881733753743
 20
13.81966573769149
 10
170.0834410841056
 20
13.88797642883943
 10
169.9350960790366
 20
13.93675219032106
 10
169.9980378194728
 20
14.02976591290843
 10
170.007227443006
 20
14.1029653624828
 10
170.0303711301231
 20
14.16936294501347
 10
170.0034588335318
 20
14.26974809527578
 10
170.0521338956339
 20
14.26234033517379
 10
170.0916530580696
 20
14.26894063620893
 10
170.0996204944701
 20
14.19078703218933
 10
170.1305436967922
 20
14.15600927375858
 10
170.146595483585
 20
14.13795663215996
 97
        1
330
C4
 75
     1
 76
     2
 52
45.0
 41
0.1
 77
     0
 78
     1
 53
45.0
 43
0.0
 44
0.0
 45
-0.282842712474619
 46
0.0
 79
     0
 98
        1
 10
0.0
 20
0.0
  0
ENDBLK
  5
4A
330
48
100
AcDbEntity
  8
0
100
AcDbBlockEnd
  0
BLOCK
  5
4D
330
4B
100
AcDbEntity
  8
0
100
AcDbBlockBegin
  2
開示A4枠
 70
     0
 10
-0.00000000000001
 20
-0.00000000000001
 30
0.0
  3
開示A4枠
  1

  0
INSERT
  5
4C
330
4B
100
AcDbEntity
  8
1
100
AcDbBlockReference
  2
開示A4
 10
0.0
 20
0.0
 30
0.0
 41
2.0
 42
2.0
 43
2.0
  0
ENDBLK
  5
4E
330
4B
100
AcDbEntity
  8
0
100
AcDbBlockEnd
  0
BLOCK
  5
50
330
4F
100
AcDbEntity
  8
0
100
AcDbBlockBegin
  2
P42-31S-5
 70
     0
 10
385.3596897535225
 20
176.5
 30
0.0
  3
P42-31S-5
  1

  0
LINE
  5
E1
330
4F
100
AcDbEntity
  8
0
  6
Continuous
 62
     7
100
AcDbLine
 10
338.3596897535225
 20
176.0
 30
0.0
 11
362.3596897535225
 21
176.0
 31
0.0
  0
LINE
  5
E2
330
4F
100
AcDbEntity
  8
0
  6
Continuous
 62
     7
100
AcDbLine
 10
338.3596897535225
 20
176.0
 30
0.0
 11
303.3596897535225
 21
176.0
 31
0.0
  0
LINE
  5
E3
330
4F
100
AcDbEntity
  8
0
  6
Continuous
 62
     7
100
AcDbLine
 10
338.3596897535225
 20
176.5
 30
0.0
 11
362.3596897535225
 21
176.5
 31
0.0
  0
LINE
  5
E4
330
4F
100
AcDbEntity
  8
0
  6
Continuous
 62
     7
100
AcDbLine
 10
338.3596897535225
 20
176.5
 30
0.0
 11
314.3596897535225
 21
176.5
 31
0.0
  0
LINE
  5
E5
330
4F
100
AcDbEntity
  8
0
  6
Continuous
 62
     7
100
AcDbLine
 10
303.3596897535225
 20
176.0
 30
0.0
 11
303.3596897535225
 21
176.5
 31
0.0
  0
LINE
  5
E6
330
4F
100
AcDbEntity
  8
0
  6
Continuous
 62
     7
100
AcDbLine
 10
373.3596897535225
 20
176.0
 30
0.0
 11
373.3596897535225
 21
176.5
 31
0.0
  0
LINE
  5
E7
330
4F
100
AcDbEntity
  8
0
  6
Continuous
 62
     7
100
AcDbLine
 10
314.3596897535225
 20
176.5
 30
0.0
 11
303.3596897535225
 21
176.5
 31
0.0
  0
LINE
  5
E8
330
4F
100
AcDbEntity
  8
0
  6
Continuous
 62
     7
100
AcDbLine
 10
362.3596897535225
 20
176.5
 30
0.0
 11
373.3596897535225
 21
176.5
 31
0.0
  0
LINE
  5
E9
330
4F
100
AcDbEntity
  8
0
  6
Continuous
 62
     7
100
AcDbLine
 10
362.3596897535225
 20
176.0
 30
0.0
 11
373.3596897535225
 21
176.0
 31
0.0
  0
CIRCLE
  5
EA
330
4F
100
AcDbEntity
  8
1
  6
Continuous
 62
     7
100
AcDbCircle
 10
338.3596897535225
 20
246.5
 30
0.0
 40
24.0
  0
CIRCLE
  5
EB
330
4F
100
AcDbEntity
  8
1
  6
Continuous
 62
     7
100
AcDbCircle
 10
338.3596897535225
 20
246.5
 30
0.0
 40
35.0
  0
ENDBLK
  5
51
330
4F
100
AcDbEntity
  8
0
100
AcDbBlockEnd
  0
BLOCK
  5
53
330
52
100
AcDbEntity
  8
0
100
AcDbBlockBegin
  2
P42-31S-4
 70
     0
 10
260.719379507045
 20
176.9
 30
0.0
  3
P42-31S-4
  1

  0
LINE
  5
EC
330
52
100
AcDbEntity
  8
0
  6
Continuous
 62
     7
100
AcDbLine
 10
225.719379507045
 20
176.0
 30
0.0
 11
249.719379507045
 21
176.0
 31
0.0
  0
LINE
  5
ED
330
52
100
AcDbEntity
  8
0
  6
Continuous
 62
     7
100
AcDbLine
 10
225.719379507045
 20
176.0
 30
0.0
 11
190.719379507045
 21
176.0
 31
0.0
  0
LINE
  5
EE
330
52
100
AcDbEntity
  8
0
  6
Continuous
 62
     7
100
AcDbLine
 10
225.719379507045
 20
176.9
 30
0.0
 11
249.719379507045
 21
176.9
 31
0.0
  0
LINE
  5
EF
330
52
100
AcDbEntity
  8
0
  6
Continuous
 62
     7
100
AcDbLine
 10
225.719379507045
 20
176.9
 30
0.0
 11
201.719379507045
 21
176.9
 31
0.0
  0
LINE
  5
F0
330
52
100
AcDbEntity
  8
0
  6
Continuous
 62
     7
100
AcDbLine
 10
190.719379507045
 20
176.0
 30
0.0
 11
190.719379507045
 21
176.9
 31
0.0
  0
LINE
  5
F1
330
52
100
AcDbEntity
  8
0
  6
Continuous
 62
     7
100
AcDbLine
 10
260.719379507045
 20
175.9999999999999
 30
0.0
 11
260.719379507045
 21
176.9
 31
0.0
  0
LINE
  5
F2
330
52
100
AcDbEntity
  8
0
  6
Continuous
 62
     7
100
AcDbLine
 10
249.719379507045
 20
176.9
 30
0.0
 11
260.719379507045
 21
176.9
 31
0.0
  0
LINE
  5
F3
330
52
100
AcDbEntity
  8
0
  6
Continuous
 62
     7
100
AcDbLine
 10
249.719379507045
 20
176.0
 30
0.0
 11
260.719379507045
 21
175.9999999999999
 31
0.0
  0
LINE
  5
F4
330
52
100
AcDbEntity
  8
0
  6
Continuous
 62
     7
100
AcDbLine
 10
201.719379507045
 20
176.9
 30
0.0
 11
190.719379507045
 21
176.9
 31
0.0
  0
CIRCLE
  5
F5
330
52
100
AcDbEntity
  8
1
  6
Continuous
 62
     7
100
AcDbCircle
 10
225.719379507045
 20
246.5
 30
0.0
 40
24.0
  0
CIRCLE
  5
F6
330
52
100
AcDbEntity
  8
1
  6
Continuous
 62
     7
100
AcDbCircle
 10
225.719379507045
 20
246.5
 30
0.0
 40
35.0
  0
ENDBLK
  5
54
330
52
100
AcDbEntity
  8
0
100
AcDbBlockEnd
  0
BLOCK
  5
56
330
55
100
AcDbEntity
  8
0
100
AcDbBlockBegin
  2
P42-31S-3
 70
     0
 10
382.8596897535225
 20
337.5
 30
0.0
  3
P42-31S-3
  1

  0
LINE
  5
F7
330
55
100
AcDbEntity
  8
0
  6
Continuous
 62
     7
100
AcDbLine
 10
338.3596897535225
 20
347.0
 30
0.0
 11
305.8596897535225
 21
347.0
 31
0.0
  0
LINE
  5
F8
330
55
100
AcDbEntity
  8
0
  6
Continuous
 62
     7
100
AcDbLine
 10
338.3596897535225
 20
347.0
 30
0.0
 11
359.3596897535225
 21
347.0
 31
0.0
  0
LINE
  5
F9
330
55
100
AcDbEntity
  8
0
  6
Continuous
 62
     7
100
AcDbLine
 10
338.3596897535225
 20
347.5
 30
0.0
 11
359.3596897535225
 21
347.5
 31
0.0
  0
LINE
  5
FA
330
55
100
AcDbEntity
  8
0
  6
Continuous
 62
     7
100
AcDbLine
 10
338.3596897535225
 20
347.5
 30
0.0
 11
317.3596897535225
 21
347.5
 31
0.0
  0
LINE
  5
FB
330
55
100
AcDbEntity
  8
0
  6
Continuous
 62
     7
100
AcDbLine
 10
305.8596897535225
 20
347.0
 30
0.0
 11
305.8596897535225
 21
347.5
 31
0.0
  0
LINE
  5
FC
330
55
100
AcDbEntity
  8
0
  6
Continuous
 62
     7
100
AcDbLine
 10
370.8596897535225
 20
347.0
 30
0.0
 11
370.8596897535225
 21
347.5
 31
0.0
  0
LINE
  5
FD
330
55
100
AcDbEntity
  8
0
  6
Continuous
 62
     7
100
AcDbLine
 10
317.3596897535225
 20
347.5
 30
0.0
 11
305.8596897535225
 21
347.5
 31
0.0
  0
LINE
  5
FE
330
55
100
AcDbEntity
  8
0
  6
Continuous
 62
     7
100
AcDbLine
 10
359.3596897535225
 20
347.5
 30
0.0
 11
370.8596897535225
 21
347.5
 31
0.0
  0
LINE
  5
FF
330
55
100
AcDbEntity
  8
0
  6
Continuous
 62
     7
100
AcDbLine
 10
359.3596897535225
 20
347.0
 30
0.0
 11
370.8596897535225
 21
347.0
 31
0.0
  0
CIRCLE
  5
100
330
55
100
AcDbEntity
  8
1
  6
Continuous
 62
     7
100
AcDbCircle
 10
338.3596897535225
 20
417.0
 30
0.0
 40
21.0
  0
CIRCLE
  5
101
330
55
100
AcDbEntity
  8
1
  6
Continuous
 62
     7
100
AcDbCircle
 10
338.3596897535225
 20
417.0
 30
0.0
 40
32.5
  0
ENDBLK
  5
57
330
55
100
AcDbEntity
  8
0
100
AcDbBlockEnd
  0
BLOCK
  5
59
330
58
100
AcDbEntity
  8
0
100
AcDbBlockBegin
  2
P42-31S-2
 70
     0
 10
258.219379507045
 20
337.9
 30
0.0
  3
P42-31S-2
  1

  0
LINE
  5
102
330
58
100
AcDbEntity
  8
1
  6
Continuous
 62
     7
100
AcDbLine
 10
193.219379507045
 20
347.9
 30
0.0
 11
258.219379507045
 21
347.9
 31
0.0
  0
LINE
  5
103
330
58
100
AcDbEntity
  8
0
  6
Continuous
 62
     7
100
AcDbLine
 10
225.719379507045
 20
347.0
 30
0.0
 11
246.719379507045
 21
347.0
 31
0.0
  0
LINE
  5
104
330
58
100
AcDbEntity
  8
0
  6
Continuous
 62
     7
100
AcDbLine
 10
225.719379507045
 20
347.0
 30
0.0
 11
193.219379507045
 21
347.0
 31
0.0
  0
LINE
  5
105
330
58
100
AcDbEntity
  8
0
  6
Continuous
 62
     7
100
AcDbLine
 10
193.219379507045
 20
347.0
 30
0.0
 11
193.219379507045
 21
347.9
 31
0.0
  0
LINE
  5
106
330
58
100
AcDbEntity
  8
0
  6
Continuous
 62
     7
100
AcDbLine
 10
258.219379507045
 20
347.0
 30
0.0
 11
258.219379507045
 21
347.9
 31
0.0
  0
LINE
  5
107
330
58
100
AcDbEntity
  8
0
  6
Continuous
 62
     7
100
AcDbLine
 10
246.719379507045
 20
347.0
 30
0.0
 11
258.219379507045
 21
347.0
 31
0.0
  0
CIRCLE
  5
108
330
58
100
AcDbEntity
  8
1
  6
Continuous
 62
     7
100
AcDbCircle
 10
225.719379507045
 20
417.0
 30
0.0
 40
21.0
  0
CIRCLE
  5
109
330
58
100
AcDbEntity
  8
1
  6
Continuous
 62
     7
100
AcDbCircle
 10
225.719379507045
 20
417.0
 30
0.0
 40
32.5
  0
ENDBLK
  5
5A
330
58
100
AcDbEntity
  8
0
100
AcDbBlockEnd
  0
BLOCK
  5
5C
330
5B
100
AcDbEntity
  8
0
100
AcDbBlockBegin
  2
P42-31S-1
 70
     0
 10
133.5790692605675
 20
267.5
 30
0.0
  3
P42-31S-1
  1

  0
LINE
  5
10A
330
5B
100
AcDbEntity
  8
1
  6
Continuous
 62
     7
100
AcDbLine
 10
83.57906926056748
 20
258.5
 30
0.0
 11
148.5790692605675
 21
258.5
 31
0.0
  0
LINE
  5
10B
330
5B
100
AcDbEntity
  8
0
  6
Continuous
 62
     7
100
AcDbLine
 10
83.57906926056748
 20
256.5
 30
0.0
 11
83.57906926056748
 21
258.5
 31
0.0
  0
LINE
  5
10C
330
5B
100
AcDbEntity
  8
0
  6
Continuous
 62
     7
100
AcDbLine
 10
92.07906926056748
 20
256.5
 30
0.0
 11
83.57906926056748
 21
256.5
 31
0.0
  0
LINE
  5
10D
330
5B
100
AcDbEntity
  8
0
  6
Continuous
 62
     7
100
AcDbLine
 10
83.57906926056748
 20
258.5
 30
0.0
 11
92.07906926056748
 21
267.5
 31
0.0
  0
LINE
  5
10E
330
5B
100
AcDbEntity
  8
0
  6
Continuous
 62
     7
100
AcDbLine
 10
116.0790692605675
 20
267.5
 30
0.0
 11
92.07906926056748
 21
267.5
 31
0.0
  0
LINE
  5
10F
330
5B
100
AcDbEntity
  8
0
  6
Continuous
 62
     7
100
AcDbLine
 10
116.0790692605675
 20
256.5
 30
0.0
 11
92.07906926056748
 21
256.5
 31
0.0
  0
LINE
  5
110
330
5B
100
AcDbEntity
  8
0
  6
Continuous
 62
     7
100
AcDbLine
 10
116.0790692605675
 20
256.5
 30
0.0
 11
140.0790692605675
 21
256.5
 31
0.0
  0
LINE
  5
111
330
5B
100
AcDbEntity
  8
0
  6
Continuous
 62
     7
100
AcDbLine
 10
116.0790692605675
 20
267.5
 30
0.0
 11
140.0790692605675
 21
267.5
 31
0.0
  0
LINE
  5
112
330
5B
100
AcDbEntity
  8
0
  6
Continuous
 62
     7
100
AcDbLine
 10
148.5790692605675
 20
256.5
 30
0.0
 11
148.5790692605675
 21
258.5
 31
0.0
  0
LINE
  5
113
330
5B
100
AcDbEntity
  8
0
  6
Continuous
 62
     7
100
AcDbLine
 10
140.0790692605675
 20
256.5
 30
0.0
 11
148.5790692605675
 21
256.5
 31
0.0
  0
LINE
  5
114
330
5B
100
AcDbEntity
  8
0
  6
Continuous
 62
     7
100
AcDbLine
 10
148.5790692605675
 20
258.5
 30
0.0
 11
140.0790692605675
 21
267.5
 31
0.0
  0
CIRCLE
  5
115
330
5B
100
AcDbEntity
  8
1
  6
Continuous
 62
     7
100
AcDbCircle
 10
116.0790692605675
 20
347.0
 30
0.0
 40
32.50000000000001
  0
CIRCLE
  5
116
330
5B
100
AcDbEntity
  8
1
  6
Continuous
 62
     7
100
AcDbCircle
 10
116.0790692605675
 20
347.0
 30
0.0
 40
24.00000000000001
  0
ENDBLK
  5
5D
330
5B
100
AcDbEntity
  8
0
100
AcDbBlockEnd
  0
BLOCK
  5
13D
330
134
100
AcDbEntity
  8
0
100
AcDbBlockBegin
  2
*D8
 70
     1
 10
0.0
 20
0.0
 30
0.0
  3
*D8
  1

  0
LINE
  5
135
330
134
100
AcDbEntity
  8
0
  6
Continuous
 62
     2
100
AcDbLine
 10
278.5513050439489
 20
347.9
 30
0.0
 11
278.5513050439489
 21
361.9
 31
0.0
  0
LINE
  5
136
330
134
100
AcDbEntity
  8
0
  6
Continuous
 62
     2
100
AcDbLine
 10
278.5513050439489
 20
347.0
 30
0.0
 11
278.5513050439489
 21
347.9
 31
0.0
  0
LINE
  5
137
330
134
100
AcDbEntity
  8
0
  6
Continuous
 62
     2
100
AcDbLine
 10
278.5513050439489
 20
333.0
 30
0.0
 11
278.5513050439489
 21
347.0
 31
0.0
  0
LINE
  5
138
330
134
100
AcDbEntity
  8
0
  6
Continuous
 62
     2
100
AcDbLine
 10
258.219379507045
 20
347.9
 30
0.0
 11
280.5513050439489
 21
347.9
 31
0.0
  0
LINE
  5
139
330
134
100
AcDbEntity
  8
0
  6
Continuous
 62
     2
100
AcDbLine
 10
258.219379507045
 20
347.0
 30
0.0
 11
280.5513050439489
 21
347.0
 31
0.0
  0
SOLID
  5
13A
330
134
100
AcDbEntity
  8
0
 62
     2
100
AcDbTrace
 10
279.4728725270606
 20
340.0
 30
0.0
 11
277.6297375608372
 21
340.0
 31
0.0
 12
278.5513050439489
 22
347.0
 32
0.0
 13
278.5513050439489
 23
347.0
 33
0.0
  0
SOLID
  5
13B
330
134
100
AcDbEntity
  8
0
 62
     2
100
AcDbTrace
 10
277.6297375608372
 20
354.9
 30
0.0
 11
279.4728725270606
 21
354.9
 31
0.0
 12
278.5513050439489
 22
347.9
 32
0.0
 13
278.5513050439489
 23
347.9
 33
0.0
  0
MTEXT
  5
13C
330
134
100
AcDbEntity
  8
0
 62
     7
100
AcDbMText
 10
276.5513050439489
 20
358.414293780375
 30
0.0
 40
7.0
 41
0.0
 71
     7
 72
     1
  1
1
  7
CONVERTER_12
 11
0.0
 21
1.0
 31
0.0
 73
     1
 44
0.60024009603842
  0
ENDBLK
  5
13E
330
134
100
AcDbEntity
  8
0
100
AcDbBlockEnd
  0
BLOCK
  5
14A
330
141
100
AcDbEntity
  8
0
100
AcDbBlockBegin
  2
*D9
 70
     1
 10
0.0
 20
0.0
 30
0.0
  3
*D9
  1

  0
LINE
  5
142
330
141
100
AcDbEntity
  8
0
  6
Continuous
 62
     2
100
AcDbLine
 10
391.2091852282799
 20
347.5
 30
0.0
 11
391.2091852282799
 21
361.5
 31
0.0
  0
LINE
  5
143
330
141
100
AcDbEntity
  8
0
  6
Continuous
 62
     2
100
AcDbLine
 10
391.2091852282799
 20
347.0
 30
0.0
 11
391.2091852282799
 21
347.5
 31
0.0
  0
LINE
  5
144
330
141
100
AcDbEntity
  8
0
  6
Continuous
 62
     2
100
AcDbLine
 10
391.2091852282799
 20
333.0
 30
0.0
 11
391.2091852282799
 21
347.0
 31
0.0
  0
LINE
  5
145
330
141
100
AcDbEntity
  8
0
  6
Continuous
 62
     2
100
AcDbLine
 10
370.8596897535226
 20
347.5
 30
0.0
 11
393.2091852282799
 21
347.5
 31
0.0
  0
LINE
  5
146
330
141
100
AcDbEntity
  8
0
  6
Continuous
 62
     2
100
AcDbLine
 10
370.8596897535226
 20
347.0
 30
0.0
 11
393.2091852282799
 21
347.0
 31
0.0
  0
SOLID
  5
147
330
141
100
AcDbEntity
  8
0
 62
     2
100
AcDbTrace
 10
392.1307527113917
 20
340.0
 30
0.0
 11
390.2876177451682
 21
340.0
 31
0.0
 12
391.2091852282799
 22
347.0
 32
0.0
 13
391.2091852282799
 23
347.0
 33
0.0
  0
SOLID
  5
148
330
141
100
AcDbEntity
  8
0
 62
     2
100
AcDbTrace
 10
390.2876177451682
 20
354.5
 30
0.0
 11
392.1307527113917
 21
354.5
 31
0.0
 12
391.2091852282799
 22
347.5
 32
0.0
 13
391.2091852282799
 23
347.5
 33
0.0
  0
MTEXT
  5
149
330
141
100
AcDbEntity
  8
0
 62
     7
100
AcDbMText
 10
389.2091852282799
 20
358.414293780375
 30
0.0
 40
7.0
 41
0.0
 71
     7
 72
     1
  1
1
  7
CONVERTER_12
 11
0.0
 21
1.0
 31
0.0
 73
     1
 44
0.60024009603842
  0
ENDBLK
  5
14B
330
141
100
AcDbEntity
  8
0
100
AcDbBlockEnd
  0
BLOCK
  5
157
330
14E
100
AcDbEntity
  8
0
100
AcDbBlockBegin
  2
*D10
 70
     1
 10
0.0
 20
0.0
 30
0.0
  3
*D10
  1

  0
LINE
  5
14F
330
14E
100
AcDbEntity
  8
0
  6
Continuous
 62
     2
100
AcDbLine
 10
279.0042128568139
 20
176.9
 30
0.0
 11
279.0042128568139
 21
190.9
 31
0.0
  0
LINE
  5
150
330
14E
100
AcDbEntity
  8
0
  6
Continuous
 62
     2
100
AcDbLine
 10
279.0042128568139
 20
176.0
 30
0.0
 11
279.0042128568139
 21
176.9
 31
0.0
  0
LINE
  5
151
330
14E
100
AcDbEntity
  8
0
  6
Continuous
 62
     2
100
AcDbLine
 10
279.0042128568139
 20
162.0
 30
0.0
 11
279.0042128568139
 21
176.0
 31
0.0
  0
LINE
  5
152
330
14E
100
AcDbEntity
  8
0
  6
Continuous
 62
     2
100
AcDbLine
 10
260.719379507045
 20
176.9
 30
0.0
 11
281.0042128568139
 21
176.9
 31
0.0
  0
LINE
  5
153
330
14E
100
AcDbEntity
  8
0
  6
Continuous
 62
     2
100
AcDbLine
 10
260.719379507045
 20
176.0
 30
0.0
 11
281.0042128568139
 21
176.0
 31
0.0
  0
SOLID
  5
154
330
14E
100
AcDbEntity
  8
0
 62
     2
100
AcDbTrace
 10
279.9257803399257
 20
169.0
 30
0.0
 11
278.0826453737022
 21
169.0
 31
0.0
 12
279.0042128568139
 22
176.0
 32
0.0
 13
279.0042128568139
 23
176.0
 33
0.0
  0
SOLID
  5
155
330
14E
100
AcDbEntity
  8
0
 62
     2
100
AcDbTrace
 10
278.0826453737022
 20
183.9
 30
0.0
 11
279.9257803399257
 21
183.9
 31
0.0
 12
279.0042128568139
 22
176.9
 32
0.0
 13
279.0042128568139
 23
176.9
 33
0.0
  0
MTEXT
  5
156
330
14E
100
AcDbEntity
  8
0
 62
     7
100
AcDbMText
 10
277.0042128568139
 20
187.5129654021976
 30
0.0
 40
7.0
 41
0.0
 71
     7
 72
     1
  1
1
  7
CONVERTER_12
 11
0.0
 21
1.0
 31
0.0
 73
     1
 44
0.60024009603842
  0
ENDBLK
  5
158
330
14E
100
AcDbEntity
  8
0
100
AcDbBlockEnd
  0
BLOCK
  5
164
330
15B
100
AcDbEntity
  8
0
100
AcDbBlockBegin
  2
*D11
 70
     1
 10
0.0
 20
0.0
 30
0.0
  3
*D11
  1

  0
LINE
  5
15C
330
15B
100
AcDbEntity
  8
0
  6
Continuous
 62
     2
100
AcDbLine
 10
391.5105687361059
 20
176.5
 30
0.0
 11
391.5105687361059
 21
190.5
 31
0.0
  0
LINE
  5
15D
330
15B
100
AcDbEntity
  8
0
  6
Continuous
 62
     2
100
AcDbLine
 10
391.5105687361059
 20
176.0
 30
0.0
 11
391.5105687361059
 21
176.5
 31
0.0
  0
LINE
  5
15E
330
15B
100
AcDbEntity
  8
0
  6
Continuous
 62
     2
100
AcDbLine
 10
391.5105687361059
 20
162.0
 30
0.0
 11
391.5105687361059
 21
176.0
 31
0.0
  0
LINE
  5
15F
330
15B
100
AcDbEntity
  8
0
  6
Continuous
 62
     2
100
AcDbLine
 10
373.3596897535225
 20
176.5
 30
0.0
 11
393.5105687361059
 21
176.5
 31
0.0
  0
LINE
  5
160
330
15B
100
AcDbEntity
  8
0
  6
Continuous
 62
     2
100
AcDbLine
 10
373.3596897535225
 20
176.0
 30
0.0
 11
393.5105687361059
 21
176.0
 31
0.0
  0
SOLID
  5
161
330
15B
100
AcDbEntity
  8
0
 62
     2
100
AcDbTrace
 10
392.4321362192176
 20
169.0
 30
0.0
 11
390.5890012529941
 21
169.0
 31
0.0
 12
391.5105687361059
 22
176.0
 32
0.0
 13
391.5105687361059
 23
176.0
 33
0.0
  0
SOLID
  5
162
330
15B
100
AcDbEntity
  8
0
 62
     2
100
AcDbTrace
 10
390.5890012529941
 20
183.5
 30
0.0
 11
392.4321362192176
 21
183.5
 31
0.0
 12
391.5105687361059
 22
176.5
 32
0.0
 13
391.5105687361059
 23
176.5
 33
0.0
  0
MTEXT
  5
163
330
15B
100
AcDbEntity
  8
0
 62
     7
100
AcDbMText
 10
389.5105687361059
 20
186.9684769654077
 30
0.0
 40
7.0
 41
0.0
 71
     7
 72
     1
  1
1
  7
CONVERTER_12
 11
0.0
 21
1.0
 31
0.0
 73
     1
 44
0.60024009603842
  0
ENDBLK
  5
165
330
15B
100
AcDbEntity
  8
0
100
AcDbBlockEnd
  0
BLOCK
  5
171
330
168
100
AcDbEntity
  8
0
100
AcDbBlockBegin
  2
*D12
 70
     1
 10
0.0
 20
0.0
 30
0.0
  3
*D12
  1

  0
LINE
  5
169
330
168
100
AcDbEntity
  8
0
  6
Continuous
 62
     2
100
AcDbLine
 10
166.5786511332685
 20
267.4999999999999
 30
0.0
 11
166.5786511332685
 21
281.4999999999999
 31
0.0
  0
LINE
  5
16A
330
168
100
AcDbEntity
  8
0
  6
Continuous
 62
     2
100
AcDbLine
 10
166.5786511332685
 20
256.4999999999999
 30
0.0
 11
166.5786511332685
 21
267.4999999999999
 31
0.0
  0
LINE
  5
16B
330
168
100
AcDbEntity
  8
0
  6
Continuous
 62
     2
100
AcDbLine
 10
166.5786511332685
 20
242.4999999999999
 30
0.0
 11
166.5786511332685
 21
256.4999999999999
 31
0.0
  0
LINE
  5
16C
330
168
100
AcDbEntity
  8
0
  6
Continuous
 62
     2
100
AcDbLine
 10
140.0790692605675
 20
267.4999999999999
 30
0.0
 11
168.5786511332685
 21
267.4999999999999
 31
0.0
  0
LINE
  5
16D
330
168
100
AcDbEntity
  8
0
  6
Continuous
 62
     2
100
AcDbLine
 10
148.5790692605675
 20
256.4999999999999
 30
0.0
 11
168.5786511332685
 21
256.4999999999999
 31
0.0
  0
SOLID
  5
16E
330
168
100
AcDbEntity
  8
0
 62
     2
100
AcDbTrace
 10
167.5002186163803
 20
249.4999999999999
 30
0.0
 11
165.6570836501567
 21
249.4999999999999
 31
0.0
 12
166.5786511332685
 22
256.4999999999999
 32
0.0
 13
166.5786511332685
 23
256.4999999999999
 33
0.0
  0
SOLID
  5
16F
330
168
100
AcDbEntity
  8
0
 62
     2
100
AcDbTrace
 10
165.6570836501567
 20
274.4999999999999
 30
0.0
 11
167.5002186163803
 21
274.4999999999999
 31
0.0
 12
166.5786511332685
 22
267.4999999999999
 32
0.0
 13
166.5786511332685
 23
267.4999999999999
 33
0.0
  0
MTEXT
  5
170
330
168
100
AcDbEntity
  8
0
 62
     7
100
AcDbMText
 10
164.5786511332685
 20
258.8589606877209
 30
0.0
 40
7.0
 41
0.0
 71
     7
 72
     1
  1
11
  7
CONVERTER_12
 11
0.0
 21
1.0
 31
0.0
 73
     1
 44
0.60024009603842
  0
ENDBLK
  5
172
330
168
100
AcDbEntity
  8
0
100
AcDbBlockEnd
  0
BLOCK
  5
17E
330
175
100
AcDbEntity
  8
0
100
AcDbBlockBegin
  2
*D13
 70
     1
 10
0.0
 20
0.0
 30
0.0
  3
*D13
  1

  0
LINE
  5
176
330
175
100
AcDbEntity
  8
0
  6
Continuous
 62
     2
100
AcDbLine
 10
61.66610850123126
 20
258.5
 30
0.0
 11
61.66610850123126
 21
272.5
 31
0.0
  0
LINE
  5
177
330
175
100
AcDbEntity
  8
0
  6
Continuous
 62
     2
100
AcDbLine
 10
61.66610850123126
 20
256.5
 30
0.0
 11
61.66610850123126
 21
258.5
 31
0.0
  0
LINE
  5
178
330
175
100
AcDbEntity
  8
0
  6
Continuous
 62
     2
100
AcDbLine
 10
61.66610850123126
 20
242.5
 30
0.0
 11
61.66610850123126
 21
256.5
 31
0.0
  0
LINE
  5
179
330
175
100
AcDbEntity
  8
0
  6
Continuous
 62
     2
100
AcDbLine
 10
83.57906926056748
 20
258.5
 30
0.0
 11
59.66610850123126
 21
258.5
 31
0.0
  0
LINE
  5
17A
330
175
100
AcDbEntity
  8
0
  6
Continuous
 62
     2
100
AcDbLine
 10
83.57906926056748
 20
256.5
 30
0.0
 11
59.66610850123126
 21
256.5
 31
0.0
  0
SOLID
  5
17B
330
175
100
AcDbEntity
  8
0
 62
     2
100
AcDbTrace
 10
62.58767598434302
 20
249.5
 30
0.0
 11
60.74454101811948
 21
249.5
 31
0.0
 12
61.66610850123126
 22
256.5
 32
0.0
 13
61.66610850123126
 23
256.5
 33
0.0
  0
SOLID
  5
17C
330
175
100
AcDbEntity
  8
0
 62
     2
100
AcDbTrace
 10
60.74454101811948
 20
265.5
 30
0.0
 11
62.58767598434303
 21
265.5
 31
0.0
 12
61.66610850123126
 22
258.5
 32
0.0
 13
61.66610850123126
 23
258.5
 33
0.0
  0
MTEXT
  5
17D
330
175
100
AcDbEntity
  8
0
 62
     7
100
AcDbMText
 10
59.66610850123126
 20
264.2382265459892
 30
0.0
 40
7.0
 41
0.0
 71
     7
 72
     1
  1
2
  7
CONVERTER_12
 11
0.0
 21
1.0
 31
0.0
 73
     1
 44
0.60024009603842
  0
ENDBLK
  5
17F
330
175
100
AcDbEntity
  8
0
100
AcDbBlockEnd
  0
BLOCK
  5
187
330
182
100
AcDbEntity
  8
0
100
AcDbBlockBegin
  2
*D14
 70
     1
 10
0.0
 20
0.0
 30
0.0
  3
*D14
  1

  0
LINE
  5
183
330
182
100
AcDbEntity
  8
1
  6
Continuous
 62
     2
100
AcDbLine
 10
363.3391399335541
 20
270.2965768274204
 30
0.0
 11
297.1957188482207
 21
207.2853019538129
 31
0.0
  0
SOLID
  5
184
330
182
100
AcDbEntity
  8
1
 62
     2
100
AcDbTrace
 10
316.550043255915
 20
224.4503150526969
 30
0.0
 11
315.2787301304934
 21
225.7848222429535
 31
0.0
 12
320.982680932631
 22
229.9458595983163
 32
0.0
 13
320.982680932631
 23
229.9458595983163
 33
0.0
  0
SOLID
  5
185
330
182
100
AcDbEntity
  8
1
 62
     2
100
AcDbTrace
 10
360.1693362511301
 20
268.5496849473031
 30
0.0
 11
361.4406493765516
 21
267.2151777570464
 31
0.0
 12
355.736698574414
 22
263.0541404016838
 32
0.0
 13
355.736698574414
 23
263.0541404016838
 33
0.0
  0
MTEXT
  5
186
330
182
100
AcDbEntity
  8
1
 62
     7
100
AcDbMText
 10
297.7421589590625
 20
210.5681365834072
 30
0.0
 40
7.0
 41
0.0
 71
     7
 72
     1
  1
\C7;{\Fgdt;n}\C7;48
  7
CONVERTER_12
 11
0.7240420342038133
 21
0.6897558500701564
 31
0.0
 73
     1
 44
0.60024009603842
  0
ENDBLK
  5
188
330
182
100
AcDbEntity
  8
0
100
AcDbBlockEnd
  0
BLOCK
  5
18F
330
18A
100
AcDbEntity
  8
0
100
AcDbBlockBegin
  2
*D15
 70
     1
 10
0.0
 20
0.0
 30
0.0
  3
*D15
  1

  0
LINE
  5
18B
330
18A
100
AcDbEntity
  8
1
  6
Continuous
 62
     2
100
AcDbLine
 10
251.0391121496104
 20
269.9341873959609
 30
0.0
 11
183.7711815099141
 21
207.6756590535614
 31
0.0
  0
SOLID
  5
18C
330
18A
100
AcDbEntity
  8
1
 62
     2
100
AcDbTrace
 10
203.5942917730665
 20
224.7668506794418
 30
0.0
 11
202.3423390138047
 21
226.1195371886865
 31
0.0
 12
208.1056524513473
 22
230.1979565941143
 32
0.0
 13
208.1056524513473
 23
230.1979565941143
 33
0.0
  0
SOLID
  5
18D
330
18A
100
AcDbEntity
  8
1
 62
     2
100
AcDbTrace
 10
247.8444672410237
 20
268.2331493205581
 30
0.0
 11
249.0964200002854
 21
266.8804628113134
 31
0.0
 12
243.3331065627427
 22
262.8020434058858
 32
0.0
 13
243.3331065627427
 23
262.8020434058858
 33
0.0
  0
MTEXT
  5
18E
330
18A
100
AcDbEntity
  8
1
 62
     7
100
AcDbMText
 10
184.3648659747635
 20
210.9502794523552
 30
0.0
 40
7.0
 41
0.0
 71
     7
 72
     1
  1
\C7;{\Fgdt;n}\C7;48
  7
CONVERTER_12
 11
0.7339052939874036
 21
0.6792518085785735
 31
0.0
 73
     1
 44
0.60024009603842
  0
ENDBLK
  5
190
330
18A
100
AcDbEntity
  8
0
100
AcDbBlockEnd
  0
BLOCK
  5
197
330
192
100
AcDbEntity
  8
0
100
AcDbBlockBegin
  2
*D16
 70
     1
 10
0.0
 20
0.0
 30
0.0
  3
*D16
  1

  0
LINE
  5
193
330
192
100
AcDbEntity
  8
1
  6
Continuous
 62
     2
100
AcDbLine
 10
361.2780164044356
 20
438.6101898076358
 30
0.0
 11
299.3053471847182
 21
380.1748090260043
 31
0.0
  0
SOLID
  5
194
330
192
100
AcDbEntity
  8
1
 62
     2
100
AcDbTrace
 10
318.620073944158
 20
397.1204412945202
 30
0.0
 11
317.3556137390411
 21
398.4614434919054
 31
0.0
 12
323.0808053195804
 22
402.5932067949095
 32
0.0
 13
323.0808053195804
 23
402.5932067949095
 33
0.0
  0
SOLID
  5
195
330
192
100
AcDbEntity
  8
1
 62
     2
100
AcDbTrace
 10
358.099305562887
 20
436.8795587054798
 30
0.0
 11
359.3637657680039
 21
435.5385565080946
 31
0.0
 12
353.6385741874646
 22
431.4067932050905
 32
0.0
 13
353.6385741874646
 23
431.4067932050905
 33
0.0
  0
MTEXT
  5
196
330
192
100
AcDbEntity
  8
1
 62
     7
100
AcDbMText
 10
299.8685970030089
 20
383.4548013495007
 30
0.0
 40
7.0
 41
0.0
 71
     7
 72
     1
  1
\C7;{\Fgdt;n}\C7;42
  7
CONVERTER_12
 11
0.7275659254258131
 21
0.6860377716709775
 31
0.0
 73
     1
 44
0.60024009603842
  0
ENDBLK
  5
198
330
192
100
AcDbEntity
  8
0
100
AcDbBlockEnd
  0
BLOCK
  5
19F
330
19A
100
AcDbEntity
  8
0
100
AcDbBlockBegin
  2
*D17
 70
     1
 10
0.0
 20
0.0
 30
0.0
  3
*D17
  1

  0
LINE
  5
19B
330
19A
100
AcDbEntity
  8
1
  6
Continuous
 62
     2
100
AcDbLine
 10
248.8094997802718
 20
438.4265336853146
 30
0.0
 11
184.8125761520836
 21
379.0404315927311
 31
0.0
  0
SOLID
  5
19C
330
19A
100
AcDbEntity
  8
1
 62
     2
100
AcDbTrace
 10
205.8216851918016
 20
397.2786651678173
 30
0.0
 11
204.5679711143295
 21
398.6297193916234
 31
0.0
 12
210.3259659915604
 22
402.7156442097902
 32
0.0
 13
210.3259659915604
 23
402.7156442097902
 33
0.0
  0
SOLID
  5
19D
330
19A
100
AcDbEntity
  8
1
 62
     2
100
AcDbTrace
 10
245.6170738222884
 20
436.7213348321827
 30
0.0
 11
246.8707878997604
 21
435.3702806083766
 31
0.0
 12
241.1127930225295
 22
431.2843557902098
 32
0.0
 13
241.1127930225295
 23
431.2843557902098
 33
0.0
  0
MTEXT
  5
19E
330
19A
100
AcDbEntity
  8
1
 62
     7
100
AcDbMText
 10
185.4019936935488
 20
382.3158227085848
 30
0.0
 40
7.0
 41
0.0
 71
     7
 72
     1
  1
\C7;{\Fgdt;n}\C7;42
  7
CONVERTER_12
 11
0.7330196912135493
 21
0.6802074185814154
 31
0.0
 73
     1
 44
0.60024009603842
  0
ENDBLK
  5
1A0
330
19A
100
AcDbEntity
  8
0
100
AcDbBlockEnd
  0
BLOCK
  5
1A7
330
1A2
100
AcDbEntity
  8
0
100
AcDbBlockBegin
  2
*D18
 70
     1
 10
0.0
 20
0.0
 30
0.0
  3
*D18
  1

  0
LINE
  5
1A3
330
1A2
100
AcDbEntity
  8
1
  6
Continuous
 62
     2
100
AcDbLine
 10
141.1574910902459
 20
370.6922510229128
 30
0.0
 11
74.67677810034508
 21
307.8861561643055
 31
0.0
  0
SOLID
  5
1A4
330
1A2
100
AcDbEntity
  8
1
 62
     2
100
AcDbTrace
 10
94.17770495402856
 20
325.0414133392381
 30
0.0
 11
92.91196535145245
 21
326.3812080108898
 31
0.0
 12
98.63321059644339
 22
330.5184340710172
 32
0.0
 13
98.63321059644339
 23
330.5184340710172
 33
0.0
  0
SOLID
  5
1A5
330
1A2
100
AcDbEntity
  8
1
 62
     2
100
AcDbTrace
 10
137.9804335671064
 20
368.9585866607619
 30
0.0
 11
139.2461731696825
 21
367.6187919891102
 31
0.0
 12
133.5249279246916
 22
363.4815659289828
 32
0.0
 13
133.5249279246916
 23
363.4815659289828
 33
0.0
  0
MTEXT
  5
1A6
330
1A2
100
AcDbEntity
  8
1
 62
     7
100
AcDbMText
 10
75.23689694153694
 20
311.1666846101114
 30
0.0
 40
7.0
 41
0.0
 71
     7
 72
     1
  1
\C7;{\Fgdt;n}\C7;48
  7
CONVERTER_12
 11
0.726910777671837
 21
0.6867319137076164
 31
0.0
 73
     1
 44
0.60024009603842
  0
ENDBLK
  5
1A8
330
1A2
100
AcDbEntity
  8
0
100
AcDbBlockEnd
  0
BLOCK
  5
1B1
330
1AA
100
AcDbEntity
  8
0
100
AcDbBlockBegin
  2
*D19
 70
     1
 10
0.0
 20
0.0
 30
0.0
  3
*D19
  1

  0
LINE
  5
1AB
330
1AA
100
AcDbEntity
  8
1
  6
Continuous
 62
     2
100
AcDbLine
 10
373.3596897535226
 20
303.6174419890863
 30
0.0
 11
303.3596897535226
 21
303.6174419890863
 31
0.0
  0
LINE
  5
1AC
330
1AA
100
AcDbEntity
  8
1
  6
Continuous
 62
     2
100
AcDbLine
 10
303.3596897535226
 20
246.5
 30
0.0
 11
303.3596897535226
 21
305.6174419890863
 31
0.0
  0
LINE
  5
1AD
330
1AA
100
AcDbEntity
  8
1
  6
Continuous
 62
     2
100
AcDbLine
 10
373.3596897535226
 20
246.5
 30
0.0
 11
373.3596897535226
 21
305.6174419890863
 31
0.0
  0
SOLID
  5
1AE
330
1AA
100
AcDbEntity
  8
1
 62
     2
100
AcDbTrace
 10
366.3596897535226
 20
302.6958745059745
 30
0.0
 11
366.3596897535226
 21
304.539009472198
 31
0.0
 12
373.3596897535226
 22
303.6174419890863
 32
0.0
 13
373.3596897535226
 23
303.6174419890863
 33
0.0
  0
SOLID
  5
1AF
330
1AA
100
AcDbEntity
  8
1
 62
     2
100
AcDbTrace
 10
310.3596897535226
 20
304.539009472198
 30
0.0
 11
310.3596897535226
 21
302.6958745059745
 31
0.0
 12
303.3596897535226
 22
303.6174419890863
 32
0.0
 13
303.3596897535226
 23
303.6174419890863
 33
0.0
  0
MTEXT
  5
1B0
330
1AA
100
AcDbEntity
  8
1
 62
     7
100
AcDbMText
 10
332.1338848821447
 20
305.6174280749336
 30
0.0
 40
7.0
 41
0.0
 71
     7
 72
     1
  1
\C7;{\Fgdt;n}\C7;70
  7
CONVERTER_12
 11
0.9999999999970619
 21
2.424068405545306E-6
 31
0.0
 73
     1
 44
0.60024009603842
  0
ENDBLK
  5
1B2
330
1AA
100
AcDbEntity
  8
0
100
AcDbBlockEnd
  0
BLOCK
  5
1BB
330
1B4
100
AcDbEntity
  8
0
100
AcDbBlockBegin
  2
*D20
 70
     1
 10
0.0
 20
0.0
 30
0.0
  3
*D20
  1

  0
LINE
  5
1B5
330
1B4
100
AcDbEntity
  8
1
  6
Continuous
 62
     2
100
AcDbLine
 10
260.719379507045
 20
303.1020928417269
 30
0.0
 11
190.7193795070449
 21
303.1020928417269
 31
0.0
  0
LINE
  5
1B6
330
1B4
100
AcDbEntity
  8
1
  6
Continuous
 62
     2
100
AcDbLine
 10
190.7193795070449
 20
246.5000000000001
 30
0.0
 11
190.7193795070449
 21
305.1020928417269
 31
0.0
  0
LINE
  5
1B7
330
1B4
100
AcDbEntity
  8
1
  6
Continuous
 62
     2
100
AcDbLine
 10
260.719379507045
 20
246.5000000000001
 30
0.0
 11
260.719379507045
 21
305.1020928417269
 31
0.0
  0
SOLID
  5
1B8
330
1B4
100
AcDbEntity
  8
1
 62
     2
100
AcDbTrace
 10
253.719379507045
 20
302.1805253586152
 30
0.0
 11
253.719379507045
 21
304.0236603248387
 31
0.0
 12
260.719379507045
 22
303.1020928417269
 32
0.0
 13
260.719379507045
 23
303.1020928417269
 33
0.0
  0
SOLID
  5
1B9
330
1B4
100
AcDbEntity
  8
1
 62
     2
100
AcDbTrace
 10
197.7193795070449
 20
304.0236603248387
 30
0.0
 11
197.7193795070449
 21
302.1805253586152
 31
0.0
 12
190.7193795070449
 22
303.1020928417269
 32
0.0
 13
190.7193795070449
 23
303.1020928417269
 33
0.0
  0
MTEXT
  5
1BA
330
1B4
100
AcDbEntity
  8
1
 62
     7
100
AcDbMText
 10
219.4610187775338
 20
305.1020789275743
 30
0.0
 40
7.0
 41
0.0
 71
     7
 72
     1
  1
\C7;{\Fgdt;n}\C7;70
  7
CONVERTER_12
 11
0.9999999999970619
 21
2.424068405545306E-6
 31
0.0
 73
     1
 44
0.60024009603842
  0
ENDBLK
  5
1BC
330
1B4
100
AcDbEntity
  8
0
100
AcDbBlockEnd
  0
BLOCK
  5
1C5
330
1BE
100
AcDbEntity
  8
0
100
AcDbBlockBegin
  2
*D21
 70
     1
 10
0.0
 20
0.0
 30
0.0
  3
*D21
  1

  0
LINE
  5
1BF
330
1BE
100
AcDbEntity
  8
1
  6
Continuous
 62
     2
100
AcDbLine
 10
370.8596897535225
 20
471.584860197161
 30
0.0
 11
305.8596897535225
 21
471.584860197161
 31
0.0
  0
LINE
  5
1C0
330
1BE
100
AcDbEntity
  8
1
  6
Continuous
 62
     2
100
AcDbLine
 10
305.8596897535225
 20
417.0
 30
0.0
 11
305.8596897535225
 21
473.584860197161
 31
0.0
  0
LINE
  5
1C1
330
1BE
100
AcDbEntity
  8
1
  6
Continuous
 62
     2
100
AcDbLine
 10
370.8596897535225
 20
417.0
 30
0.0
 11
370.8596897535225
 21
473.584860197161
 31
0.0
  0
SOLID
  5
1C2
330
1BE
100
AcDbEntity
  8
1
 62
     2
100
AcDbTrace
 10
363.8596897535225
 20
470.6632927140492
 30
0.0
 11
363.8596897535225
 21
472.5064276802727
 31
0.0
 12
370.8596897535225
 22
471.584860197161
 32
0.0
 13
370.8596897535225
 23
471.584860197161
 33
0.0
  0
SOLID
  5
1C3
330
1BE
100
AcDbEntity
  8
1
 62
     2
100
AcDbTrace
 10
312.8596897535225
 20
472.5064276802727
 30
0.0
 11
312.8596897535225
 21
470.6632927140492
 31
0.0
 12
305.8596897535225
 22
471.584860197161
 32
0.0
 13
305.8596897535225
 23
471.584860197161
 33
0.0
  0
MTEXT
  5
1C4
330
1BE
100
AcDbEntity
  8
1
 62
     7
100
AcDbMText
 10
331.0959711443288
 20
473.5848462830083
 30
0.0
 40
7.0
 41
0.0
 71
     7
 72
     1
  1
\C7;{\Fgdt;n}\C7;65
  7
CONVERTER_12
 11
0.9999999999970619
 21
2.424068405545306E-6
 31
0.0
 73
     1
 44
0.60024009603842
  0
ENDBLK
  5
1C6
330
1BE
100
AcDbEntity
  8
0
100
AcDbBlockEnd
  0
BLOCK
  5
1CF
330
1C8
100
AcDbEntity
  8
0
100
AcDbBlockBegin
  2
*D22
 70
     1
 10
0.0
 20
0.0
 30
0.0
  3
*D22
  1

  0
LINE
  5
1C9
330
1C8
100
AcDbEntity
  8
1
  6
Continuous
 62
     2
100
AcDbLine
 10
258.219379507045
 20
471.136392656971
 30
0.0
 11
193.219379507045
 21
471.136392656971
 31
0.0
  0
LINE
  5
1CA
330
1C8
100
AcDbEntity
  8
1
  6
Continuous
 62
     2
100
AcDbLine
 10
193.219379507045
 20
417.0
 30
0.0
 11
193.219379507045
 21
473.136392656971
 31
0.0
  0
LINE
  5
1CB
330
1C8
100
AcDbEntity
  8
1
  6
Continuous
 62
     2
100
AcDbLine
 10
258.219379507045
 20
417.0
 30
0.0
 11
258.219379507045
 21
473.136392656971
 31
0.0
  0
SOLID
  5
1CC
330
1C8
100
AcDbEntity
  8
1
 62
     2
100
AcDbTrace
 10
251.219379507045
 20
470.2148251738593
 30
0.0
 11
251.219379507045
 21
472.0579601400827
 31
0.0
 12
258.219379507045
 22
471.136392656971
 32
0.0
 13
258.219379507045
 23
471.136392656971
 33
0.0
  0
SOLID
  5
1CD
330
1C8
100
AcDbEntity
  8
1
 62
     2
100
AcDbTrace
 10
200.219379507045
 20
472.0579601400827
 30
0.0
 11
200.219379507045
 21
470.2148251738593
 31
0.0
 12
193.219379507045
 22
471.136392656971
 32
0.0
 13
193.219379507045
 23
471.136392656971
 33
0.0
  0
MTEXT
  5
1CE
330
1C8
100
AcDbEntity
  8
1
 62
     7
100
AcDbMText
 10
219.0946962818338
 20
473.1363787428184
 30
0.0
 40
7.0
 41
0.0
 71
     7
 72
     1
  1
\C7;{\Fgdt;n}\C7;65
  7
CONVERTER_12
 11
0.9999999999970619
 21
2.424068405545306E-6
 31
0.0
 73
     1
 44
0.60024009603842
  0
ENDBLK
  5
1D0
330
1C8
100
AcDbEntity
  8
0
100
AcDbBlockEnd
  0
BLOCK
  5
1D9
330
1D2
100
AcDbEntity
  8
0
100
AcDbBlockBegin
  2
*D23
 70
     1
 10
0.0
 20
0.0
 30
0.0
  3
*D23
  1

  0
LINE
  5
1D3
330
1D2
100
AcDbEntity
  8
1
  6
Continuous
 62
     2
100
AcDbLine
 10
148.5790692605675
 20
401.639742398949
 30
0.0
 11
83.5790692605675
 21
401.639742398949
 31
0.0
  0
LINE
  5
1D4
330
1D2
100
AcDbEntity
  8
1
  6
Continuous
 62
     2
100
AcDbLine
 10
83.5790692605675
 20
347.0
 30
0.0
 11
83.5790692605675
 21
403.639742398949
 31
0.0
  0
LINE
  5
1D5
330
1D2
100
AcDbEntity
  8
1
  6
Continuous
 62
     2
100
AcDbLine
 10
148.5790692605675
 20
347.0
 30
0.0
 11
148.5790692605675
 21
403.639742398949
 31
0.0
  0
SOLID
  5
1D6
330
1D2
100
AcDbEntity
  8
1
 62
     2
100
AcDbTrace
 10
141.5790692605675
 20
400.7181749158373
 30
0.0
 11
141.5790692605675
 21
402.5613098820608
 31
0.0
 12
148.5790692605675
 22
401.639742398949
 32
0.0
 13
148.5790692605675
 23
401.639742398949
 33
0.0
  0
SOLID
  5
1D7
330
1D2
100
AcDbEntity
  8
1
 62
     2
100
AcDbTrace
 10
90.5790692605675
 20
402.5613098820608
 30
0.0
 11
90.5790692605675
 21
400.7181749158373
 31
0.0
 12
83.5790692605675
 22
401.639742398949
 32
0.0
 13
83.5790692605675
 23
401.639742398949
 33
0.0
  0
MTEXT
  5
1D8
330
1D2
100
AcDbEntity
  8
1
 62
     7
100
AcDbMText
 10
108.9389505238013
 20
403.6397284847964
 30
0.0
 40
7.0
 41
0.0
 71
     7
 72
     1
  1
\C7;{\Fgdt;n}\C7;65
  7
CONVERTER_12
 11
0.9999999999970619
 21
2.424068405545306E-6
 31
0.0
 73
     1
 44
0.60024009603842
  0
ENDBLK
  5
1DA
330
1D2
100
AcDbEntity
  8
0
100
AcDbBlockEnd
  0
ENDSEC
  0
SECTION
  2
ENTITIES
  0
INSERT
  5
5E
330
1F
100
AcDbEntity
  8
0
100
AcDbBlockReference
  2
開示A4枠
 10
-0.00000000000001
 20
-0.00000000000001
 30
0.0
  0
INSERT
  5
5F
330
1F
100
AcDbEntity
  8
0
100
AcDbBlockReference
  2
P42-31S-5
 10
385.3596897535225
 20
176.5
 30
0.0
  0
INSERT
  5
60
330
1F
100
AcDbEntity
  8
0
100
AcDbBlockReference
  2
P42-31S-4
 10
260.719379507045
 20
176.9
 30
0.0
  0
INSERT
  5
61
330
1F
100
AcDbEntity
  8
0
100
AcDbBlockReference
  2
P42-31S-3
 10
382.8596897535225
 20
337.5
 30
0.0
  0
INSERT
  5
62
330
1F
100
AcDbEntity
  8
0
100
AcDbBlockReference
  2
P42-31S-2
 10
258.219379507045
 20
337.9
 30
0.0
  0
INSERT
  5
63
330
1F
100
AcDbEntity
  8
0
100
AcDbBlockReference
  2
P42-31S-1
 10
133.5790692605675
 20
267.5
 30
0.0
  0
LINE
  5
117
330
1F
100
AcDbEntity
  8
1
  6
DASH_CENTER
 62
     2
100
AcDbLine
 10
297.3596897535225
 20
246.5
 30
0.0
 11
379.3596897535224
 21
246.5
 31
0.0
  0
LINE
  5
118
330
1F
100
AcDbEntity
  8
1
  6
DASH_CENTER
 62
     2
100
AcDbLine
 10
338.3596897535225
 20
287.5
 30
0.0
 11
338.3596897535225
 21
205.5
 31
0.0
  0
LINE
  5
119
330
1F
100
AcDbEntity
  8
1
  6
DASH_CENTER
 62
     2
100
AcDbLine
 10
225.719379507045
 20
287.5
 30
0.0
 11
225.719379507045
 21
205.5
 31
0.0
  0
LINE
  5
11A
330
1F
100
AcDbEntity
  8
1
  6
DASH_CENTER
 62
     2
100
AcDbLine
 10
184.719379507045
 20
246.5
 30
0.0
 11
266.719379507045
 21
246.5
 31
0.0
  0
LINE
  5
11B
330
1F
100
AcDbEntity
  8
1
  6
DASH_CENTER
 62
     2
100
AcDbLine
 10
338.3596897535225
 20
455.5
 30
0.0
 11
338.3596897535225
 21
378.5000000000001
 31
0.0
  0
LINE
  5
11C
330
1F
100
AcDbEntity
  8
1
  6
DASH_CENTER
 62
     2
100
AcDbLine
 10
299.8596897535224
 20
417.0
 30
0.0
 11
376.8596897535224
 21
417.0
 31
0.0
  0
LINE
  5
11D
330
1F
100
AcDbEntity
  8
1
  6
DASH_CENTER
 62
     2
100
AcDbLine
 10
225.719379507045
 20
455.5
 30
0.0
 11
225.719379507045
 21
378.5000000000001
 31
0.0
  0
LINE
  5
11E
330
1F
100
AcDbEntity
  8
1
  6
DASH_CENTER
 62
     2
100
AcDbLine
 10
187.219379507045
 20
417.0
 30
0.0
 11
264.219379507045
 21
417.0
 31
0.0
  0
LINE
  5
11F
330
1F
100
AcDbEntity
  8
1
  6
DASH_CENTER
 62
     2
100
AcDbLine
 10
116.0790692605675
 20
385.5
 30
0.0
 11
116.0790692605675
 21
308.5
 31
0.0
  0
LINE
  5
120
330
1F
100
AcDbEntity
  8
1
  6
DASH_CENTER
 62
     2
100
AcDbLine
 10
77.57906926056748
 20
347.0
 30
0.0
 11
154.5790692605675
 21
347.0
 31
0.0
  0
LINE
  5
121
330
1F
100
AcDbEntity
  8
0
  6
DASH_CENTER
 62
     2
100
AcDbLine
 10
116.0790692605675
 20
250.5
 30
0.0
 11
116.0790692605675
 21
273.5
 31
0.0
  0
LINE
  5
122
330
1F
100
AcDbEntity
  8
0
  6
DASH_CENTER
 62
     2
100
AcDbLine
 10
225.719379507045
 20
340.9999999999999
 30
0.0
 11
225.7193795070449
 21
353.9
 31
0.0
  0
LINE
  5
123
330
1F
100
AcDbEntity
  8
0
  6
DASH_CENTER
 62
     2
100
AcDbLine
 10
338.3596897535224
 20
341.0000000000001
 30
0.0
 11
338.3596897535225
 21
353.5
 31
0.0
  0
LINE
  5
124
330
1F
100
AcDbEntity
  8
0
  6
DASH_CENTER
 62
     2
100
AcDbLine
 10
225.719379507045
 20
170.0
 30
0.0
 11
225.719379507045
 21
182.9
 31
0.0
  0
LINE
  5
125
330
1F
100
AcDbEntity
  8
0
  6
DASH_CENTER
 62
     2
100
AcDbLine
 10
338.3596897535224
 20
170.0
 30
0.0
 11
338.3596897535225
 21
182.4999999999999
 31
0.0
  0
MTEXT
  5
127
330
1F
100
AcDbEntity
  8
1
 62
     7
100
AcDbMText
 10
314.9999999999999
 20
25.0
 30
0.0
 40
5.0
 41
0.0
 71
     5
 72
     1
  1
2
  7
CONVERTER_12
 73
     1
 44
0.7202881152461
  0
MTEXT
  5
128
330
1F
100
AcDbEntity
  8
1
 62
     7
100
AcDbMText
 10
303.4999999999999
 20
25.0
 30
0.0
 40
5.0
 41
0.0
 71
     5
 72
     1
  1
04
  7
CONVERTER_12
 73
     1
 44
0.7202881152461
  0
MTEXT
  5
129
330
1F
100
AcDbEntity
  8
1
 62
     7
100
AcDbMText
 10
280.9999999999999
 20
25.0
 30
0.0
 40
5.0
 41
0.0
 71
     5
 72
     1
  1
2
  7
CONVERTER_12
 73
     1
 44
0.7202881152461
  0
MTEXT
  5
12A
330
1F
100
AcDbEntity
  8
1
 62
     7
100
AcDbMText
 10
269.4999999999999
 20
25.0
 30
0.0
 40
5.0
 41
0.0
 71
     5
 72
     1
  1
04
  7
CONVERTER_12
 73
     1
 44
0.7202881152461
  0
MTEXT
  5
12B
330
1F
100
AcDbEntity
  8
1
 62
     7
100
AcDbMText
 10
246.9999999999999
 20
25.0
 30
0.0
 40
5.0
 41
0.0
 71
     5
 72
     1
  1
2
  7
CONVERTER_12
 73
     1
 44
0.7202881152461
  0
MTEXT
  5
12C
330
1F
100
AcDbEntity
  8
1
 62
     7
100
AcDbMText
 10
235.4999999999999
 20
25.0
 30
0.0
 40
5.0
 41
0.0
 71
     5
 72
     1
  1
04
  7
CONVERTER_12
 73
     1
 44
0.7202881152461
  0
MTEXT
  5
12D
330
1F
100
AcDbEntity
  8
1
 62
     7
100
AcDbMText
 10
201.4999999999999
 20
25.0
 30
0.0
 40
5.0
 41
0.0
 71
     5
 72
     1
  1
04
  7
CONVERTER_12
 73
     1
 44
0.7202881152461
  0
MTEXT
  5
12E
330
1F
100
AcDbEntity
  8
1
 62
     7
100
AcDbMText
 10
212.9999999999999
 20
25.0
 30
0.0
 40
5.0
 41
0.0
 71
     5
 72
     1
  1
2
  7
CONVERTER_12
 73
     1
 44
0.7202881152461
  0
MTEXT
  5
12F
330
1F
100
AcDbEntity
  8
1
 62
     7
100
AcDbMText
 10
114.0
 20
49.50000000000002
 30
0.0
 40
7.0
 41
0.0
 71
     5
 72
     1
  1
ロ－タンクサイフォン
  7
CONVERTER_11
 73
     1
 44
0.54545454545455
  0
MTEXT
  5
130
330
1F
100
AcDbEntity
  8
1
 62
     7
100
AcDbMText
 10
170.5000000000001
 20
34.00000000000001
 30
0.0
 40
7.0
 41
0.0
 71
     5
 72
     1
  1
1
  7
CONVERTER_12
 73
     1
 44
0.7202881152461
  0
MTEXT
  5
131
330
1F
100
AcDbEntity
  8
1
 62
     7
100
AcDbMText
 10
114.0
 20
41.50000000000003
 30
0.0
 40
7.0
 41
0.0
 71
     5
 72
     1
  1
取付パッキン
  7
CONVERTER_11
 73
     1
 44
0.54545454545455
  0
MTEXT
  5
132
330
1F
100
AcDbEntity
  8
1
 62
     7
100
AcDbMText
 10
114.0000000000001
 20
28.50000000000001
 30
0.0
 40
7.0
 41
0.0
 71
     5
 72
     1
  1
P42-31S
  7
CONVERTER_12
 73
     1
 44
0.7202881152461
  0
MTEXT
  5
133
330
1F
100
AcDbEntity
  8
1
 62
     7
100
AcDbMText
 10
187.5000000000001
 20
34.00000000000001
 30
0.0
 40
7.0
 41
0.0
 71
     5
 72
     1
  1
2
  7
CONVERTER_12
 73
     1
 44
0.7202881152461
  0
DIMENSION
  5
140
330
1F
100
AcDbEntity
  8
0
100
AcDbDimension
  2
*D8
 10
278.5513050439489
 20
347.0
 30
0.0
 11
273.0513050439489
 21
359.464293780375
 31
0.0
 70
    33
  1
1
 71
     5
 42
-1.0
 53
90.0
  3
ME10_DIM_10
100
AcDbAlignedDimension
 13
258.219379507045
 23
347.9
 33
0.0
 14
258.219379507045
 24
347.0
 34
0.0
  0
DIMENSION
  5
14D
330
1F
100
AcDbEntity
  8
0
100
AcDbDimension
  2
*D9
 10
391.2091852282799
 20
347.0
 30
0.0
 11
385.7091852282799
 21
359.464293780375
 31
0.0
 70
    33
  1
1
 71
     5
 42
-1.0
 53
90.0
  3
ME10_DIM_11
100
AcDbAlignedDimension
 13
370.8596897535225
 23
347.5
 33
0.0
 14
370.8596897535225
 24
347.0
 34
0.0
  0
DIMENSION
  5
15A
330
1F
100
AcDbEntity
  8
0
100
AcDbDimension
  2
*D10
 10
279.0042128568139
 20
176.0
 30
0.0
 11
273.5042128568139
 21
188.5629654021976
 31
0.0
 70
    33
  1
1
 71
     5
 42
-1.0
 53
90.0
  3
ME10_DIM_12
100
AcDbAlignedDimension
 13
260.719379507045
 23
176.9
 33
0.0
 14
260.719379507045
 24
175.9999999999999
 34
0.0
  0
DIMENSION
  5
167
330
1F
100
AcDbEntity
  8
0
100
AcDbDimension
  2
*D11
 10
391.5105687361059
 20
176.0
 30
0.0
 11
386.0105687361059
 21
188.0184769654077
 31
0.0
 70
    33
  1
1
 71
     5
 42
-1.0
 53
90.0
  3
ME10_DIM_13
100
AcDbAlignedDimension
 13
373.3596897535225
 23
176.5
 33
0.0
 14
373.3596897535225
 24
176.0
 34
0.0
  0
DIMENSION
  5
174
330
1F
100
AcDbEntity
  8
0
100
AcDbDimension
  2
*D12
 10
166.5786511332685
 20
256.4999999999999
 30
0.0
 11
161.0786511332685
 21
262.0089606877209
 31
0.0
 70
    32
  1
<>
 71
     5
 42
-1.0
 53
90.0
  3
ME10_DIM_14
100
AcDbAlignedDimension
 13
140.0790692605675
 23
267.5
 33
0.0
 14
148.5790692605675
 24
256.5
 34
0.0
 50
90.0
100
AcDbRotatedDimension
  0
DIMENSION
  5
181
330
1F
100
AcDbEntity
  8
0
100
AcDbDimension
  2
*D13
 10
61.66610850123126
 20
256.5
 30
0.0
 11
56.16610850123126
 21
266.3382265459892
 31
0.0
 70
    33
  1
<>
 71
     5
 42
-1.0
 53
90.0
  3
ME10_DIM_15
100
AcDbAlignedDimension
 13
83.57906926056748
 23
258.5
 33
0.0
 14
83.57906926056748
 24
256.5
 34
0.0
  0
INSERT
  5
189
330
1F
100
AcDbEntity
  8
1
100
AcDbBlockReference
  2
*D14
 10
0.0
 20
0.0
 30
0.0
  0
INSERT
  5
191
330
1F
100
AcDbEntity
  8
1
100
AcDbBlockReference
  2
*D15
 10
0.0
 20
0.0
 30
0.0
  0
INSERT
  5
199
330
1F
100
AcDbEntity
  8
1
100
AcDbBlockReference
  2
*D16
 10
0.0
 20
0.0
 30
0.0
  0
INSERT
  5
1A1
330
1F
100
AcDbEntity
  8
1
100
AcDbBlockReference
  2
*D17
 10
0.0
 20
0.0
 30
0.0
  0
INSERT
  5
1A9
330
1F
100
AcDbEntity
  8
1
100
AcDbBlockReference
  2
*D18
 10
0.0
 20
0.0
 30
0.0
  0
INSERT
  5
1B3
330
1F
100
AcDbEntity
  8
1
100
AcDbBlockReference
  2
*D19
 10
0.0
 20
0.0
 30
0.0
  0
INSERT
  5
1BD
330
1F
100
AcDbEntity
  8
1
100
AcDbBlockReference
  2
*D20
 10
0.0
 20
0.0
 30
0.0
  0
INSERT
  5
1C7
330
1F
100
AcDbEntity
  8
1
100
AcDbBlockReference
  2
*D21
 10
0.0
 20
0.0
 30
0.0
  0
INSERT
  5
1D1
330
1F
100
AcDbEntity
  8
1
100
AcDbBlockReference
  2
*D22
 10
0.0
 20
0.0
 30
0.0
  0
INSERT
  5
1DB
330
1F
100
AcDbEntity
  8
1
100
AcDbBlockReference
  2
*D23
 10
0.0
 20
0.0
 30
0.0
  0
ENDSEC
  0
SECTION
  2
OBJECTS
  0
DICTIONARY
  5
C
330
0
100
AcDbDictionary
281
     1
  3
ACAD_GROUP
350
D
  3
ACAD_LAYOUT
350
1A
  3
ACAD_MATERIAL
350
3B
  3
ACAD_MLEADERSTYLE
350
1DE
  3
ACAD_MLINESTYLE
350
17
  3
ACAD_PLOTSETTINGS
350
19
  3
ACAD_PLOTSTYLENAME
350
E
  3
ACAD_VISUALSTYLE
350
2A
  3
AcDbVariableDictionary
350
1DC
  0
DICTIONARY
  5
D
102
{ACAD_REACTORS
330
C
102
}
330
C
100
AcDbDictionary
281
     1
  0
DICTIONARY
  5
1A
102
{ACAD_REACTORS
330
C
102
}
330
C
100
AcDbDictionary
281
     1
  3
Layout1
350
1E
  3
Layout2
350
26
  3
Model
350
22
  0
DICTIONARY
  5
3B
102
{ACAD_REACTORS
330
C
102
}
330
C
100
AcDbDictionary
281
     1
  3
ByBlock
350
3D
  3
ByLayer
350
3C
  3
Global
350
3E
  0
DICTIONARY
  5
1DE
102
{ACAD_REACTORS
330
C
102
}
330
C
100
AcDbDictionary
281
     1
  0
DICTIONARY
  5
17
102
{ACAD_REACTORS
330
C
102
}
330
C
100
AcDbDictionary
281
     1
  3
Standard
350
18
  0
DICTIONARY
  5
19
102
{ACAD_REACTORS
330
C
102
}
330
C
100
AcDbDictionary
281
     1
  0
ACDBDICTIONARYWDFLT
  5
E
102
{ACAD_REACTORS
330
C
102
}
330
C
100
AcDbDictionary
281
     1
  3
Normal
350
F
100
AcDbDictionaryWithDefault
340
F
  0
DICTIONARY
  5
2A
102
{ACAD_REACTORS
330
C
102
}
330
C
100
AcDbDictionary
281
     1
  3
2dWireframe
350
2F
  3
3D Hidden
350
31
  3
3dWireframe
350
30
  3
Basic
350
32
  3
Brighten
350
36
  3
ColorChange
350
3A
  3
Conceptual
350
34
  3
Dim
350
35
  3
Facepattern
350
39
  3
Flat
350
2B
  3
FlatWithEdges
350
2C
  3
Gouraud
350
2D
  3
GouraudWithEdges
350
2E
  3
Linepattern
350
38
  3
Realistic
350
33
  3
Thicken
350
37
  0
DICTIONARY
  5
1DC
102
{ACAD_REACTORS
330
C
102
}
330
C
100
AcDbDictionary
281
     1
  3
DIMASSOC
350
1DF
  3
HIDETEXT
350
1E0
  0
LAYOUT
  5
1E
102
{ACAD_REACTORS
330
1A
102
}
330
1A
100
AcDbPlotSettings
  1

  2
none_device
  4

  6

 40
0.0
 41
0.0
 42
0.0
 43
0.0
 44
0.0
 45
0.0
 46
0.0
 47
0.0
 48
0.0
 49
0.0
140
0.0
141
0.0
142
1.0
143
1.0
 70
   688
 72
     0
 73
     0
 74
     5
  7

 75
    16
147
1.0
148
0.0
149
0.0
100
AcDbLayout
  1
Layout1
 70
     1
 71
     1
 10
0.0
 20
0.0
 11
12.0
 21
9.0
 12
0.0
 22
0.0
 32
0.0
 14
1.00000000000000E+20
 24
1.00000000000000E+20
 34
1.00000000000000E+20
 15
-1.00000000000000E+20
 25
-1.00000000000000E+20
 35
-1.00000000000000E+20
146
0.0
 13
0.0
 23
0.0
 33
0.0
 16
1.0
 26
0.0
 36
0.0
 17
0.0
 27
1.0
 37
0.0
 76
     0
330
1B
  0
LAYOUT
  5
26
102
{ACAD_REACTORS
330
1A
102
}
330
1A
100
AcDbPlotSettings
  1

  2
none_device
  4

  6

 40
0.0
 41
0.0
 42
0.0
 43
0.0
 44
0.0
 45
0.0
 46
0.0
 47
0.0
 48
0.0
 49
0.0
140
0.0
141
0.0
142
1.0
143
1.0
 70
   688
 72
     0
 73
     0
 74
     5
  7

 75
    16
147
1.0
148
0.0
149
0.0
100
AcDbLayout
  1
Layout2
 70
     1
 71
     2
 10
0.0
 20
0.0
 11
0.0
 21
0.0
 12
0.0
 22
0.0
 32
0.0
 14
0.0
 24
0.0
 34
0.0
 15
0.0
 25
0.0
 35
0.0
146
0.0
 13
0.0
 23
0.0
 33
0.0
 16
1.0
 26
0.0
 36
0.0
 17
0.0
 27
1.0
 37
0.0
 76
     0
330
23
  0
LAYOUT
  5
22
102
{ACAD_REACTORS
330
1A
102
}
330
1A
100
AcDbPlotSettings
  1

  2
none_device
  4

  6

 40
0.0
 41
0.0
 42
0.0
 43
0.0
 44
0.0
 45
0.0
 46
0.0
 47
0.0
 48
0.0
 49
0.0
140
0.0
141
0.0
142
1.0
143
1.0
 70
  1712
 72
     0
 73
     0
 74
     0
  7

 75
     0
147
1.0
148
0.0
149
0.0
100
AcDbLayout
  1
Model
 70
     1
 71
     0
 10
0.0
 20
0.0
 11
12.0
 21
9.0
 12
0.0
 22
0.0
 32
0.0
 14
0.0
 24
0.0
 34
0.0
 15
419.9999999999999
 25
594.0
 35
0.0
146
0.0
 13
0.0
 23
0.0
 33
0.0
 16
1.0
 26
0.0
 36
0.0
 17
0.0
 27
1.0
 37
0.0
 76
     0
330
1F
331
29
  0
MATERIAL
  5
3D
102
{ACAD_REACTORS
330
3B
102
}
102
{ACAD_XDICTIONARY
360
203
102
}
330
3B
100
AcDbMaterial
  1
ByBlock
  0
MATERIAL
  5
3C
102
{ACAD_REACTORS
330
3B
102
}
102
{ACAD_XDICTIONARY
360
201
102
}
330
3B
100
AcDbMaterial
  1
ByLayer
  0
MATERIAL
  5
3E
102
{ACAD_REACTORS
330
3B
102
}
102
{ACAD_XDICTIONARY
360
205
102
}
330
3B
100
AcDbMaterial
  1
Global
  0
MLINESTYLE
  5
18
102
{ACAD_REACTORS
330
17
102
}
330
17
100
AcDbMlineStyle
  2
Standard
 70
     0
  3

 62
   256
 51
90.0
 52
90.0
 71
     2
 49
0.5
 62
   256
  6
BYLAYER
 49
-0.5
 62
   256
  6
BYLAYER
  0
ACDBPLACEHOLDER
  5
F
102
{ACAD_REACTORS
330
E
102
}
330
E
  0
VISUALSTYLE
  5
2F
102
{ACAD_REACTORS
330
2A
102
}
102
{ACAD_XDICTIONARY
360
1E9
102
}
330
2A
100
AcDbVisualStyle
  2
2dWireframe
 70
     4
 71
     0
 72
     2
 73
     0
 90
        0
 40
-0.6
 41
-30.0
 62
     5
 63
     7
 74
     1
 91
        4
 64
     7
 65
   257
 75
     1
175
     1
 42
1.0
 92
        0
 66
   257
 43
1.0
 76
     1
 77
     6
 78
     2
 67
     7
 79
     5
170
     0
171
     0
290
     0
174
     0
 93
        1
 44
0.0
173
     0
291
     0
 45
0.0
1001
ACAD
1000
AcDbSavedByObjectVersion
1070
     0
  0
VISUALSTYLE
  5
31
102
{ACAD_REACTORS
330
2A
102
}
102
{ACAD_XDICTIONARY
360
1ED
102
}
330
2A
100
AcDbVisualStyle
  2
3D Hidden
 70
     6
 71
     1
 72
     2
 73
     2
 90
        0
 40
-0.6
 41
-30.0
 62
     5
 63
     7
 74
     2
 91
        2
 64
     7
 65
   257
 75
     2
175
     1
 42
40.0
 92
        0
 66
   257
 43
1.0
 76
     1
 77
     6
 78
     2
 67
     7
 79
     3
170
     0
171
     0
290
     0
174
     0
 93
        1
 44
0.0
173
     0
291
     0
 45
0.0
1001
ACAD
1000
AcDbSavedByObjectVersion
1070
     0
  0
VISUALSTYLE
  5
30
102
{ACAD_REACTORS
330
2A
102
}
102
{ACAD_XDICTIONARY
360
1EB
102
}
330
2A
100
AcDbVisualStyle
  2
3dWireframe
 70
     5
 71
     0
 72
     2
 73
     0
 90
        0
 40
-0.6
 41
-30.0
 62
     5
 63
     7
 74
     1
 91
        4
 64
     7
 65
   257
 75
     1
175
     1
 42
1.0
 92
        0
 66
   257
 43
1.0
 76
     1
 77
     6
 78
     2
 67
     7
 79
     5
170
     0
171
     0
290
     0
174
     0
 93
        1
 44
0.0
173
     0
291
     0
 45
0.0
1001
ACAD
1000
AcDbSavedByObjectVersion
1070
     0
  0
VISUALSTYLE
  5
32
102
{ACAD_REACTORS
330
2A
102
}
102
{ACAD_XDICTIONARY
360
1EF
102
}
330
2A
100
AcDbVisualStyle
  2
Basic
 70
     7
 71
     1
 72
     0
 73
     1
 90
        0
 40
-0.6
 41
-30.0
 62
     5
 63
     7
 74
     0
 91
        4
 64
     7
 65
   257
 75
     1
175
     1
 42
1.0
 92
        8
 66
     7
 43
1.0
 76
     1
 77
     6
 78
     2
 67
     7
 79
     5
170
     0
171
     0
290
     0
174
     0
 93
        1
 44
0.0
173
     0
291
     1
 45
0.0
1001
ACAD
1000
AcDbSavedByObjectVersion
1070
     0
  0
VISUALSTYLE
  5
36
102
{ACAD_REACTORS
330
2A
102
}
102
{ACAD_XDICTIONARY
360
1F7
102
}
330
2A
100
AcDbVisualStyle
  2
Brighten
 70
    12
 71
     2
 72
     2
 73
     0
 90
        0
 40
-0.6
 41
-30.0
 62
     5
 63
     7
 74
     1
 91
        4
 64
     7
 65
   257
 75
     1
175
     1
 42
1.0
 92
        8
 66
     7
 43
1.0
 76
     1
 77
     6
 78
     2
 67
     7
 79
     5
170
     0
171
     0
290
     0
174
     0
 93
        1
 44
50.0
173
     0
291
     1
 45
0.0
1001
ACAD
1000
AcDbSavedByObjectVersion
1070
     0
  0
VISUALSTYLE
  5
3A
102
{ACAD_REACTORS
330
2A
102
}
102
{ACAD_XDICTIONARY
360
1FF
102
}
330
2A
100
AcDbVisualStyle
  2
ColorChange
 70
    16
 71
     2
 72
     2
 73
     3
 90
        0
 40
-0.6
 41
-30.0
 62
     5
 63
     8
 74
     1
 91
        4
 64
     7
 65
   257
 75
     1
175
     1
 42
1.0
 92
        8
 66
     8
 43
1.0
 76
     1
 77
     6
 78
     2
 67
     7
 79
     5
170
     0
171
     0
290
     0
174
     0
 93
        1
 44
0.0
173
     0
291
     1
 45
0.0
1001
ACAD
1000
AcDbSavedByObjectVersion
1070
     0
  0
VISUALSTYLE
  5
34
102
{ACAD_REACTORS
330
2A
102
}
102
{ACAD_XDICTIONARY
360
1F3
102
}
330
2A
100
AcDbVisualStyle
  2
Conceptual
 70
     9
 71
     3
 72
     2
 73
     0
 90
        0
 40
-0.6
 41
-30.0
 62
     5
 63
     7
 74
     2
 91
        2
 64
     7
 65
   257
 75
     1
175
     1
 42
40.0
 92
        8
 66
     7
 43
1.0
 76
     1
 77
     6
 78
     2
 67
     7
 79
     3
170
     0
171
     0
290
     0
174
     0
 93
        1
 44
0.0
173
     0
291
     0
 45
0.0
1001
ACAD
1000
AcDbSavedByObjectVersion
1070
     0
  0
VISUALSTYLE
  5
35
102
{ACAD_REACTORS
330
2A
102
}
102
{ACAD_XDICTIONARY
360
1F5
102
}
330
2A
100
AcDbVisualStyle
  2
Dim
 70
    11
 71
     2
 72
     2
 73
     0
 90
        0
 40
-0.6
 41
-30.0
 62
     5
 63
     7
 74
     1
 91
        4
 64
     7
 65
   257
 75
     1
175
     1
 42
1.0
 92
        8
 66
     7
 43
1.0
 76
     1
 77
     6
 78
     2
 67
     7
 79
     5
170
     0
171
     0
290
     0
174
     0
 93
        1
 44
-50.0
173
     0
291
     1
 45
0.0
1001
ACAD
1000
AcDbSavedByObjectVersion
1070
     0
  0
VISUALSTYLE
  5
39
102
{ACAD_REACTORS
330
2A
102
}
102
{ACAD_XDICTIONARY
360
1FD
102
}
330
2A
100
AcDbVisualStyle
  2
Facepattern
 70
    15
 71
     2
 72
     2
 73
     0
 90
        0
 40
-0.6
 41
-30.0
 62
     5
 63
     7
 74
     1
 91
        4
 64
     7
 65
   257
 75
     1
175
     1
 42
1.0
 92
        8
 66
     7
 43
1.0
 76
     1
 77
     6
 78
     2
 67
     7
 79
     5
170
     0
171
     0
290
     0
174
     0
 93
        1
 44
0.0
173
     0
291
     1
 45
0.0
1001
ACAD
1000
AcDbSavedByObjectVersion
1070
     0
  0
VISUALSTYLE
  5
2B
102
{ACAD_REACTORS
330
2A
102
}
102
{ACAD_XDICTIONARY
360
1E1
102
}
330
2A
100
AcDbVisualStyle
  2
Flat
 70
     0
 71
     2
 72
     1
 73
     1
 90
        2
 40
-0.6
 41
30.0
 62
     5
 63
     7
 74
     0
 91
        4
 64
     7
 65
   257
 75
     1
175
     1
 42
1.0
 92
        8
 66
     7
 43
1.0
 76
     1
 77
     6
 78
     2
 67
     7
 79
     5
170
     0
171
     0
290
     0
174
     0
 93
       13
 44
0.0
173
     0
291
     1
 45
0.0
1001
ACAD
1000
AcDbSavedByObjectVersion
1070
     0
  0
VISUALSTYLE
  5
2C
102
{ACAD_REACTORS
330
2A
102
}
102
{ACAD_XDICTIONARY
360
1E3
102
}
330
2A
100
AcDbVisualStyle
  2
FlatWithEdges
 70
     1
 71
     2
 72
     1
 73
     1
 90
        2
 40
-0.6
 41
30.0
 62
     5
 63
     7
 74
     1
 91
        4
 64
     7
 65
   257
 75
     1
175
     1
 42
1.0
 92
        0
 66
   257
 43
1.0
 76
     1
 77
     6
 78
     2
 67
     7
 79
     5
170
     0
171
     0
290
     0
174
     0
 93
       13
 44
0.0
173
     0
291
     1
 45
0.0
1001
ACAD
1000
AcDbSavedByObjectVersion
1070
     0
  0
VISUALSTYLE
  5
2D
102
{ACAD_REACTORS
330
2A
102
}
102
{ACAD_XDICTIONARY
360
1E5
102
}
330
2A
100
AcDbVisualStyle
  2
Gouraud
 70
     2
 71
     2
 72
     2
 73
     1
 90
        2
 40
-0.6
 41
30.0
 62
     5
 63
     7
 74
     0
 91
        4
 64
     7
 65
   257
 75
     1
175
     1
 42
1.0
 92
        0
 66
     7
 43
1.0
 76
     1
 77
     6
 78
     2
 67
     7
 79
     5
170
     0
171
     0
290
     0
174
     0
 93
       13
 44
0.0
173
     0
291
     1
 45
0.0
1001
ACAD
1000
AcDbSavedByObjectVersion
1070
     0
  0
VISUALSTYLE
  5
2E
102
{ACAD_REACTORS
330
2A
102
}
102
{ACAD_XDICTIONARY
360
1E7
102
}
330
2A
100
AcDbVisualStyle
  2
GouraudWithEdges
 70
     3
 71
     2
 72
     2
 73
     1
 90
        2
 40
-0.6
 41
30.0
 62
     5
 63
     7
 74
     1
 91
        4
 64
     7
 65
   257
 75
     1
175
     1
 42
1.0
 92
        0
 66
   257
 43
1.0
 76
     1
 77
     6
 78
     2
 67
     7
 79
     5
170
     0
171
     0
290
     0
174
     0
 93
       13
 44
0.0
173
     0
291
     1
 45
0.0
1001
ACAD
1000
AcDbSavedByObjectVersion
1070
     0
  0
VISUALSTYLE
  5
38
102
{ACAD_REACTORS
330
2A
102
}
102
{ACAD_XDICTIONARY
360
1FB
102
}
330
2A
100
AcDbVisualStyle
  2
Linepattern
 70
    14
 71
     2
 72
     2
 73
     0
 90
        0
 40
-0.6
 41
-30.0
 62
     5
 63
     7
 74
     1
 91
        4
 64
     7
 65
   257
 75
     7
175
     7
 42
1.0
 92
        8
 66
     7
 43
1.0
 76
     1
 77
     6
 78
     2
 67
     7
 79
     5
170
     0
171
     0
290
     0
174
     0
 93
        1
 44
0.0
173
     0
291
     1
 45
0.0
1001
ACAD
1000
AcDbSavedByObjectVersion
1070
     0
  0
VISUALSTYLE
  5
33
102
{ACAD_REACTORS
330
2A
102
}
102
{ACAD_XDICTIONARY
360
1F1
102
}
330
2A
100
AcDbVisualStyle
  2
Realistic
 70
     8
 71
     2
 72
     2
 73
     0
 90
        0
 40
-0.6
 41
-30.0
 62
     5
 63
     7
 74
     1
 91
        0
 64
     7
 65
   257
 75
     1
175
     1
 42
1.0
 92
        8
 66
     8
 43
1.0
 76
     1
 77
     6
 78
     2
 67
     7
 79
     5
170
     0
171
     0
290
     0
174
     0
 93
       13
 44
0.0
173
     0
291
     0
 45
0.0
1001
ACAD
1000
AcDbSavedByObjectVersion
1070
     0
  0
VISUALSTYLE
  5
37
102
{ACAD_REACTORS
330
2A
102
}
102
{ACAD_XDICTIONARY
360
1F9
102
}
330
2A
100
AcDbVisualStyle
  2
Thicken
 70
    13
 71
     2
 72
     2
 73
     0
 90
        0
 40
-0.6
 41
-30.0
 62
     5
 63
     7
 74
     1
 91
        4
 64
     7
 65
   257
 75
     1
175
     1
 42
1.0
 92
       12
 66
     7
 43
1.0
 76
     1
 77
     6
 78
     2
 67
     7
 79
     5
170
     0
171
     0
290
     0
174
     0
 93
        1
 44
0.0
173
     0
291
     1
 45
0.0
1001
ACAD
1000
AcDbSavedByObjectVersion
1070
     0
  0
DICTIONARYVAR
  5
1DF
102
{ACAD_REACTORS
330
1DC
102
}
330
1DC
100
DictionaryVariables
280
     0
  1
2
  0
DICTIONARYVAR
  5
1E0
102
{ACAD_REACTORS
330
1DC
102
}
330
1DC
100
DictionaryVariables
280
     0
  1
1
  0
DICTIONARY
  5
203
330
3D
100
AcDbDictionary
280
     1
281
     1
  3
ACAD_XREC_ROUNDTRIP
360
204
  0
DICTIONARY
  5
201
330
3C
100
AcDbDictionary
280
     1
281
     1
  3
ACAD_XREC_ROUNDTRIP
360
202
  0
DICTIONARY
  5
205
330
3E
100
AcDbDictionary
280
     1
281
     1
  3
ACAD_XREC_ROUNDTRIP
360
206
  0
DICTIONARY
  5
1E9
330
2F
100
AcDbDictionary
280
     1
281
     1
  3
ACAD_XREC_ROUNDTRIP
360
1EA
  0
DICTIONARY
  5
1ED
330
31
100
AcDbDictionary
280
     1
281
     1
  3
ACAD_XREC_ROUNDTRIP
360
1EE
  0
DICTIONARY
  5
1EB
330
30
100
AcDbDictionary
280
     1
281
     1
  3
ACAD_XREC_ROUNDTRIP
360
1EC
  0
DICTIONARY
  5
1EF
330
32
100
AcDbDictionary
280
     1
281
     1
  3
ACAD_XREC_ROUNDTRIP
360
1F0
  0
DICTIONARY
  5
1F7
330
36
100
AcDbDictionary
280
     1
281
     1
  3
ACAD_XREC_ROUNDTRIP
360
1F8
  0
DICTIONARY
  5
1FF
330
3A
100
AcDbDictionary
280
     1
281
     1
  3
ACAD_XREC_ROUNDTRIP
360
200
  0
DICTIONARY
  5
1F3
330
34
100
AcDbDictionary
280
     1
281
     1
  3
ACAD_XREC_ROUNDTRIP
360
1F4
  0
DICTIONARY
  5
1F5
330
35
100
AcDbDictionary
280
     1
281
     1
  3
ACAD_XREC_ROUNDTRIP
360
1F6
  0
DICTIONARY
  5
1FD
330
39
100
AcDbDictionary
280
     1
281
     1
  3
ACAD_XREC_ROUNDTRIP
360
1FE
  0
DICTIONARY
  5
1E1
330
2B
100
AcDbDictionary
280
     1
281
     1
  3
ACAD_XREC_ROUNDTRIP
360
1E2
  0
DICTIONARY
  5
1E3
330
2C
100
AcDbDictionary
280
     1
281
     1
  3
ACAD_XREC_ROUNDTRIP
360
1E4
  0
DICTIONARY
  5
1E5
330
2D
100
AcDbDictionary
280
     1
281
     1
  3
ACAD_XREC_ROUNDTRIP
360
1E6
  0
DICTIONARY
  5
1E7
330
2E
100
AcDbDictionary
280
     1
281
     1
  3
ACAD_XREC_ROUNDTRIP
360
1E8
  0
DICTIONARY
  5
1FB
330
38
100
AcDbDictionary
280
     1
281
     1
  3
ACAD_XREC_ROUNDTRIP
360
1FC
  0
DICTIONARY
  5
1F1
330
33
100
AcDbDictionary
280
     1
281
     1
  3
ACAD_XREC_ROUNDTRIP
360
1F2
  0
DICTIONARY
  5
1F9
330
37
100
AcDbDictionary
280
     1
281
     1
  3
ACAD_XREC_ROUNDTRIP
360
1FA
  0
XRECORD
  5
204
102
{ACAD_REACTORS
330
203
102
}
330
203
100
AcDbXrecord
280
     1
102
MATERIAL
148
0.0
149
0.0
149
0.0
 93
        0
 94
      127
282
     0
 72
     1
 77
     1
171
     1
175
     1
179
     1
273
     0
  0
XRECORD
  5
202
102
{ACAD_REACTORS
330
201
102
}
330
201
100
AcDbXrecord
280
     1
102
MATERIAL
148
0.0
149
0.0
149
0.0
 93
        0
 94
      127
282
     0
 72
     1
 77
     1
171
     1
175
     1
179
     1
273
     0
  0
XRECORD
  5
206
102
{ACAD_REACTORS
330
205
102
}
330
205
100
AcDbXrecord
280
     1
102
MATERIAL
148
0.0
149
0.0
149
0.0
 93
        0
 94
      127
282
     0
 72
     1
 77
     1
171
     1
175
     1
179
     1
273
     0
  0
XRECORD
  5
1EA
102
{ACAD_REACTORS
330
1E9
102
}
330
1E9
100
AcDbXrecord
280
     1
102
RTVSPropertyOp0
 70
     1
102
RTVSPropertyOp1
 70
     1
102
RTVSPropertyOp2
 70
     1
102
RTVSPropertyOp3
 70
     1
102
RTVSPropertyOp4
 70
     1
102
RTVSPropertyOp5
 70
     1
102
RTVSPropertyOp6
 70
     1
102
RTVSPropertyOp7
 70
     1
102
RTVSPropertyOp8
 70
     1
102
RTVSPropertyOp9
 70
     1
102
RTVSPropertyOp10
 70
     1
102
RTVSPropertyOp11
 70
     1
102
RTVSPropertyOp12
 70
     1
102
RTVSPropertyOp13
 70
     1
102
RTVSPropertyOp14
 70
     1
102
RTVSPropertyOp15
 70
     1
102
RTVSPropertyOp16
 70
     1
102
RTVSPropertyOp17
 70
     1
102
RTVSPropertyOp18
 70
     1
102
RTVSPropertyOp19
 70
     1
102
RTVSPropertyOp20
 70
     1
102
RTVSPropertyOp21
 70
     1
102
RTVSPropertyOp22
 70
     1
102
RTVSPropertyOp23
 70
     1
102
RTVSPropertyOp24
 70
     1
102
RTVSPropertyOp25
 70
     1
102
RTVSPropertyOp26
 70
     1
102
RTVSPropertyOp27
 70
     1
102
RTVSPropertyOp28
 70
     1
102
RTVSPropertyOp29
 70
     1
102
RTVSPropertyOp30
 70
     1
102
RTVSPropertyOp31
 70
     1
102
RTVSPropertyOp32
 70
     1
  0
XRECORD
  5
1EE
102
{ACAD_REACTORS
330
1ED
102
}
330
1ED
100
AcDbXrecord
280
     1
102
RTVSPropertyOp0
 70
     1
102
RTVSPropertyOp1
 70
     1
102
RTVSPropertyOp2
 70
     1
102
RTVSPropertyOp3
 70
     1
102
RTVSPropertyOp4
 70
     1
102
RTVSPropertyOp5
 70
     1
102
RTVSPropertyOp6
 70
     1
102
RTVSPropertyOp7
 70
     1
102
RTVSPropertyOp8
 70
     1
102
RTVSPropertyOp9
 70
     1
102
RTVSPropertyOp10
 70
     1
102
RTVSPropertyOp11
 70
     1
102
RTVSPropertyOp12
 70
     1
102
RTVSPropertyOp13
 70
     1
102
RTVSPropertyOp14
 70
     1
102
RTVSPropertyOp15
 70
     1
102
RTVSPropertyOp16
 70
     1
102
RTVSPropertyOp17
 70
     1
102
RTVSPropertyOp18
 70
     1
102
RTVSPropertyOp19
 70
     1
102
RTVSPropertyOp20
 70
     1
102
RTVSPropertyOp21
 70
     1
102
RTVSPropertyOp22
 70
     1
102
RTVSPropertyOp23
 70
     1
102
RTVSPropertyOp24
 70
     1
102
RTVSPropertyOp25
 70
     1
102
RTVSPropertyOp26
 70
     1
102
RTVSPropertyOp27
 70
     1
102
RTVSPropertyOp28
 70
     1
102
RTVSPropertyOp29
 70
     1
102
RTVSPropertyOp30
 70
     1
102
RTVSPropertyOp31
 70
     1
102
RTVSPropertyOp32
 70
     1
  0
XRECORD
  5
1EC
102
{ACAD_REACTORS
330
1EB
102
}
330
1EB
100
AcDbXrecord
280
     1
102
RTVSPropertyOp0
 70
     1
102
RTVSPropertyOp1
 70
     1
102
RTVSPropertyOp2
 70
     1
102
RTVSPropertyOp3
 70
     1
102
RTVSPropertyOp4
 70
     1
102
RTVSPropertyOp5
 70
     1
102
RTVSPropertyOp6
 70
     1
102
RTVSPropertyOp7
 70
     1
102
RTVSPropertyOp8
 70
     1
102
RTVSPropertyOp9
 70
     1
102
RTVSPropertyOp10
 70
     1
102
RTVSPropertyOp11
 70
     1
102
RTVSPropertyOp12
 70
     1
102
RTVSPropertyOp13
 70
     1
102
RTVSPropertyOp14
 70
     1
102
RTVSPropertyOp15
 70
     1
102
RTVSPropertyOp16
 70
     1
102
RTVSPropertyOp17
 70
     1
102
RTVSPropertyOp18
 70
     1
102
RTVSPropertyOp19
 70
     1
102
RTVSPropertyOp20
 70
     1
102
RTVSPropertyOp21
 70
     1
102
RTVSPropertyOp22
 70
     1
102
RTVSPropertyOp23
 70
     1
102
RTVSPropertyOp24
 70
     1
102
RTVSPropertyOp25
 70
     1
102
RTVSPropertyOp26
 70
     1
102
RTVSPropertyOp27
 70
     1
102
RTVSPropertyOp28
 70
     1
102
RTVSPropertyOp29
 70
     1
102
RTVSPropertyOp30
 70
     1
102
RTVSPropertyOp31
 70
     1
102
RTVSPropertyOp32
 70
     1
  0
XRECORD
  5
1F0
102
{ACAD_REACTORS
330
1EF
102
}
330
1EF
100
AcDbXrecord
280
     1
102
RTVSPropertyOp0
 70
     1
102
RTVSPropertyOp1
 70
     1
102
RTVSPropertyOp2
 70
     1
102
RTVSPropertyOp3
 70
     1
102
RTVSPropertyOp4
 70
     1
102
RTVSPropertyOp5
 70
     1
102
RTVSPropertyOp6
 70
     1
102
RTVSPropertyOp7
 70
     1
102
RTVSPropertyOp8
 70
     1
102
RTVSPropertyOp9
 70
     1
102
RTVSPropertyOp10
 70
     1
102
RTVSPropertyOp11
 70
     1
102
RTVSPropertyOp12
 70
     1
102
RTVSPropertyOp13
 70
     1
102
RTVSPropertyOp14
 70
     1
102
RTVSPropertyOp15
 70
     1
102
RTVSPropertyOp16
 70
     1
102
RTVSPropertyOp17
 70
     1
102
RTVSPropertyOp18
 70
     1
102
RTVSPropertyOp19
 70
     1
102
RTVSPropertyOp20
 70
     1
102
RTVSPropertyOp21
 70
     1
102
RTVSPropertyOp22
 70
     1
102
RTVSPropertyOp23
 70
     1
102
RTVSPropertyOp24
 70
     1
102
RTVSPropertyOp25
 70
     1
102
RTVSPropertyOp26
 70
     1
102
RTVSPropertyOp27
 70
     1
102
RTVSPropertyOp28
 70
     1
102
RTVSPropertyOp29
 70
     1
102
RTVSPropertyOp30
 70
     1
102
RTVSPropertyOp31
 70
     1
102
RTVSPropertyOp32
 70
     1
  0
XRECORD
  5
1F8
102
{ACAD_REACTORS
330
1F7
102
}
330
1F7
100
AcDbXrecord
280
     1
102
RTVSPropertyOp0
 70
     1
102
RTVSPropertyOp1
 70
     1
102
RTVSPropertyOp2
 70
     1
102
RTVSPropertyOp3
 70
     1
102
RTVSPropertyOp4
 70
     1
102
RTVSPropertyOp5
 70
     1
102
RTVSPropertyOp6
 70
     1
102
RTVSPropertyOp7
 70
     1
102
RTVSPropertyOp8
 70
     1
102
RTVSPropertyOp9
 70
     1
102
RTVSPropertyOp10
 70
     1
102
RTVSPropertyOp11
 70
     1
102
RTVSPropertyOp12
 70
     1
102
RTVSPropertyOp13
 70
     1
102
RTVSPropertyOp14
 70
     1
102
RTVSPropertyOp15
 70
     1
102
RTVSPropertyOp16
 70
     1
102
RTVSPropertyOp17
 70
     1
102
RTVSPropertyOp18
 70
     1
102
RTVSPropertyOp19
 70
     1
102
RTVSPropertyOp20
 70
     1
102
RTVSPropertyOp21
 70
     1
102
RTVSPropertyOp22
 70
     1
102
RTVSPropertyOp23
 70
     1
102
RTVSPropertyOp24
 70
     1
102
RTVSPropertyOp25
 70
     1
102
RTVSPropertyOp26
 70
     1
102
RTVSPropertyOp27
 70
     1
102
RTVSPropertyOp28
 70
     1
102
RTVSPropertyOp29
 70
     1
102
RTVSPropertyOp30
 70
     1
102
RTVSPropertyOp31
 70
     1
102
RTVSPropertyOp32
 70
     1
  0
XRECORD
  5
200
102
{ACAD_REACTORS
330
1FF
102
}
330
1FF
100
AcDbXrecord
280
     1
102
RTVSPropertyOp0
 70
     1
102
RTVSPropertyOp1
 70
     1
102
RTVSPropertyOp2
 70
     1
102
RTVSPropertyOp3
 70
     1
102
RTVSPropertyOp4
 70
     1
102
RTVSPropertyOp5
 70
     1
102
RTVSPropertyOp6
 70
     1
102
RTVSPropertyOp7
 70
     1
102
RTVSPropertyOp8
 70
     1
102
RTVSPropertyOp9
 70
     1
102
RTVSPropertyOp10
 70
     1
102
RTVSPropertyOp11
 70
     1
102
RTVSPropertyOp12
 70
     1
102
RTVSPropertyOp13
 70
     1
102
RTVSPropertyOp14
 70
     1
102
RTVSPropertyOp15
 70
     1
102
RTVSPropertyOp16
 70
     1
102
RTVSPropertyOp17
 70
     1
102
RTVSPropertyOp18
 70
     1
102
RTVSPropertyOp19
 70
     1
102
RTVSPropertyOp20
 70
     1
102
RTVSPropertyOp21
 70
     1
102
RTVSPropertyOp22
 70
     1
102
RTVSPropertyOp23
 70
     1
102
RTVSPropertyOp24
 70
     1
102
RTVSPropertyOp25
 70
     1
102
RTVSPropertyOp26
 70
     1
102
RTVSPropertyOp27
 70
     1
102
RTVSPropertyOp28
 70
     1
102
RTVSPropertyOp29
 70
     1
102
RTVSPropertyOp30
 70
     1
102
RTVSPropertyOp31
 70
     1
102
RTVSPropertyOp32
 70
     1
  0
XRECORD
  5
1F4
102
{ACAD_REACTORS
330
1F3
102
}
330
1F3
100
AcDbXrecord
280
     1
102
RTVSPropertyOp0
 70
     1
102
RTVSPropertyOp1
 70
     1
102
RTVSPropertyOp2
 70
     1
102
RTVSPropertyOp3
 70
     1
102
RTVSPropertyOp4
 70
     1
102
RTVSPropertyOp5
 70
     1
102
RTVSPropertyOp6
 70
     1
102
RTVSPropertyOp7
 70
     1
102
RTVSPropertyOp8
 70
     1
102
RTVSPropertyOp9
 70
     1
102
RTVSPropertyOp10
 70
     1
102
RTVSPropertyOp11
 70
     1
102
RTVSPropertyOp12
 70
     1
102
RTVSPropertyOp13
 70
     1
102
RTVSPropertyOp14
 70
     1
102
RTVSPropertyOp15
 70
     1
102
RTVSPropertyOp16
 70
     1
102
RTVSPropertyOp17
 70
     1
102
RTVSPropertyOp18
 70
     1
102
RTVSPropertyOp19
 70
     1
102
RTVSPropertyOp20
 70
     1
102
RTVSPropertyOp21
 70
     1
102
RTVSPropertyOp22
 70
     1
102
RTVSPropertyOp23
 70
     1
102
RTVSPropertyOp24
 70
     1
102
RTVSPropertyOp25
 70
     1
102
RTVSPropertyOp26
 70
     1
102
RTVSPropertyOp27
 70
     1
102
RTVSPropertyOp28
 70
     1
102
RTVSPropertyOp29
 70
     1
102
RTVSPropertyOp30
 70
     1
102
RTVSPropertyOp31
 70
     1
102
RTVSPropertyOp32
 70
     1
  0
XRECORD
  5
1F6
102
{ACAD_REACTORS
330
1F5
102
}
330
1F5
100
AcDbXrecord
280
     1
102
RTVSPropertyOp0
 70
     1
102
RTVSPropertyOp1
 70
     1
102
RTVSPropertyOp2
 70
     1
102
RTVSPropertyOp3
 70
     1
102
RTVSPropertyOp4
 70
     1
102
RTVSPropertyOp5
 70
     1
102
RTVSPropertyOp6
 70
     1
102
RTVSPropertyOp7
 70
     1
102
RTVSPropertyOp8
 70
     1
102
RTVSPropertyOp9
 70
     1
102
RTVSPropertyOp10
 70
     1
102
RTVSPropertyOp11
 70
     1
102
RTVSPropertyOp12
 70
     1
102
RTVSPropertyOp13
 70
     1
102
RTVSPropertyOp14
 70
     1
102
RTVSPropertyOp15
 70
     1
102
RTVSPropertyOp16
 70
     1
102
RTVSPropertyOp17
 70
     1
102
RTVSPropertyOp18
 70
     1
102
RTVSPropertyOp19
 70
     1
102
RTVSPropertyOp20
 70
     1
102
RTVSPropertyOp21
 70
     1
102
RTVSPropertyOp22
 70
     1
102
RTVSPropertyOp23
 70
     1
102
RTVSPropertyOp24
 70
     1
102
RTVSPropertyOp25
 70
     1
102
RTVSPropertyOp26
 70
     1
102
RTVSPropertyOp27
 70
     1
102
RTVSPropertyOp28
 70
     1
102
RTVSPropertyOp29
 70
     1
102
RTVSPropertyOp30
 70
     1
102
RTVSPropertyOp31
 70
     1
102
RTVSPropertyOp32
 70
     1
  0
XRECORD
  5
1FE
102
{ACAD_REACTORS
330
1FD
102
}
330
1FD
100
AcDbXrecord
280
     1
102
RTVSPropertyOp0
 70
     1
102
RTVSPropertyOp1
 70
     1
102
RTVSPropertyOp2
 70
     1
102
RTVSPropertyOp3
 70
     1
102
RTVSPropertyOp4
 70
     1
102
RTVSPropertyOp5
 70
     1
102
RTVSPropertyOp6
 70
     1
102
RTVSPropertyOp7
 70
     1
102
RTVSPropertyOp8
 70
     1
102
RTVSPropertyOp9
 70
     1
102
RTVSPropertyOp10
 70
     1
102
RTVSPropertyOp11
 70
     1
102
RTVSPropertyOp12
 70
     1
102
RTVSPropertyOp13
 70
     1
102
RTVSPropertyOp14
 70
     1
102
RTVSPropertyOp15
 70
     1
102
RTVSPropertyOp16
 70
     1
102
RTVSPropertyOp17
 70
     1
102
RTVSPropertyOp18
 70
     1
102
RTVSPropertyOp19
 70
     1
102
RTVSPropertyOp20
 70
     1
102
RTVSPropertyOp21
 70
     1
102
RTVSPropertyOp22
 70
     1
102
RTVSPropertyOp23
 70
     1
102
RTVSPropertyOp24
 70
     1
102
RTVSPropertyOp25
 70
     1
102
RTVSPropertyOp26
 70
     1
102
RTVSPropertyOp27
 70
     1
102
RTVSPropertyOp28
 70
     1
102
RTVSPropertyOp29
 70
     1
102
RTVSPropertyOp30
 70
     1
102
RTVSPropertyOp31
 70
     1
102
RTVSPropertyOp32
 70
     1
  0
XRECORD
  5
1E2
102
{ACAD_REACTORS
330
1E1
102
}
330
1E1
100
AcDbXrecord
280
     1
102
RTVSPropertyOp0
 70
     1
102
RTVSPropertyOp1
 70
     1
102
RTVSPropertyOp2
 70
     1
102
RTVSPropertyOp3
 70
     1
102
RTVSPropertyOp4
 70
     1
102
RTVSPropertyOp5
 70
     1
102
RTVSPropertyOp6
 70
     1
102
RTVSPropertyOp7
 70
     1
102
RTVSPropertyOp8
 70
     1
102
RTVSPropertyOp9
 70
     1
102
RTVSPropertyOp10
 70
     1
102
RTVSPropertyOp11
 70
     1
102
RTVSPropertyOp12
 70
     1
102
RTVSPropertyOp13
 70
     1
102
RTVSPropertyOp14
 70
     1
102
RTVSPropertyOp15
 70
     1
102
RTVSPropertyOp16
 70
     1
102
RTVSPropertyOp17
 70
     1
102
RTVSPropertyOp18
 70
     1
102
RTVSPropertyOp19
 70
     1
102
RTVSPropertyOp20
 70
     1
102
RTVSPropertyOp21
 70
     1
102
RTVSPropertyOp22
 70
     1
102
RTVSPropertyOp23
 70
     1
102
RTVSPropertyOp24
 70
     1
102
RTVSPropertyOp25
 70
     1
102
RTVSPropertyOp26
 70
     1
102
RTVSPropertyOp27
 70
     1
102
RTVSPropertyOp28
 70
     1
102
RTVSPropertyOp29
 70
     1
102
RTVSPropertyOp30
 70
     1
102
RTVSPropertyOp31
 70
     1
102
RTVSPropertyOp32
 70
     1
  0
XRECORD
  5
1E4
102
{ACAD_REACTORS
330
1E3
102
}
330
1E3
100
AcDbXrecord
280
     1
102
RTVSPropertyOp0
 70
     1
102
RTVSPropertyOp1
 70
     1
102
RTVSPropertyOp2
 70
     1
102
RTVSPropertyOp3
 70
     1
102
RTVSPropertyOp4
 70
     1
102
RTVSPropertyOp5
 70
     1
102
RTVSPropertyOp6
 70
     1
102
RTVSPropertyOp7
 70
     1
102
RTVSPropertyOp8
 70
     1
102
RTVSPropertyOp9
 70
     1
102
RTVSPropertyOp10
 70
     1
102
RTVSPropertyOp11
 70
     1
102
RTVSPropertyOp12
 70
     1
102
RTVSPropertyOp13
 70
     1
102
RTVSPropertyOp14
 70
     1
102
RTVSPropertyOp15
 70
     1
102
RTVSPropertyOp16
 70
     1
102
RTVSPropertyOp17
 70
     1
102
RTVSPropertyOp18
 70
     1
102
RTVSPropertyOp19
 70
     1
102
RTVSPropertyOp20
 70
     1
102
RTVSPropertyOp21
 70
     1
102
RTVSPropertyOp22
 70
     1
102
RTVSPropertyOp23
 70
     1
102
RTVSPropertyOp24
 70
     1
102
RTVSPropertyOp25
 70
     1
102
RTVSPropertyOp26
 70
     1
102
RTVSPropertyOp27
 70
     1
102
RTVSPropertyOp28
 70
     1
102
RTVSPropertyOp29
 70
     1
102
RTVSPropertyOp30
 70
     1
102
RTVSPropertyOp31
 70
     1
102
RTVSPropertyOp32
 70
     1
  0
XRECORD
  5
1E6
102
{ACAD_REACTORS
330
1E5
102
}
330
1E5
100
AcDbXrecord
280
     1
102
RTVSPropertyOp0
 70
     1
102
RTVSPropertyOp1
 70
     1
102
RTVSPropertyOp2
 70
     1
102
RTVSPropertyOp3
 70
     1
102
RTVSPropertyOp4
 70
     1
102
RTVSPropertyOp5
 70
     1
102
RTVSPropertyOp6
 70
     1
102
RTVSPropertyOp7
 70
     1
102
RTVSPropertyOp8
 70
     1
102
RTVSPropertyOp9
 70
     1
102
RTVSPropertyOp10
 70
     1
102
RTVSPropertyOp11
 70
     1
102
RTVSPropertyOp12
 70
     1
102
RTVSPropertyOp13
 70
     1
102
RTVSPropertyOp14
 70
     1
102
RTVSPropertyOp15
 70
     1
102
RTVSPropertyOp16
 70
     1
102
RTVSPropertyOp17
 70
     1
102
RTVSPropertyOp18
 70
     1
102
RTVSPropertyOp19
 70
     1
102
RTVSPropertyOp20
 70
     1
102
RTVSPropertyOp21
 70
     1
102
RTVSPropertyOp22
 70
     1
102
RTVSPropertyOp23
 70
     1
102
RTVSPropertyOp24
 70
     1
102
RTVSPropertyOp25
 70
     1
102
RTVSPropertyOp26
 70
     1
102
RTVSPropertyOp27
 70
     1
102
RTVSPropertyOp28
 70
     1
102
RTVSPropertyOp29
 70
     1
102
RTVSPropertyOp30
 70
     1
102
RTVSPropertyOp31
 70
     1
102
RTVSPropertyOp32
 70
     1
  0
XRECORD
  5
1E8
102
{ACAD_REACTORS
330
1E7
102
}
330
1E7
100
AcDbXrecord
280
     1
102
RTVSPropertyOp0
 70
     1
102
RTVSPropertyOp1
 70
     1
102
RTVSPropertyOp2
 70
     1
102
RTVSPropertyOp3
 70
     1
102
RTVSPropertyOp4
 70
     1
102
RTVSPropertyOp5
 70
     1
102
RTVSPropertyOp6
 70
     1
102
RTVSPropertyOp7
 70
     1
102
RTVSPropertyOp8
 70
     1
102
RTVSPropertyOp9
 70
     1
102
RTVSPropertyOp10
 70
     1
102
RTVSPropertyOp11
 70
     1
102
RTVSPropertyOp12
 70
     1
102
RTVSPropertyOp13
 70
     1
102
RTVSPropertyOp14
 70
     1
102
RTVSPropertyOp15
 70
     1
102
RTVSPropertyOp16
 70
     1
102
RTVSPropertyOp17
 70
     1
102
RTVSPropertyOp18
 70
     1
102
RTVSPropertyOp19
 70
     1
102
RTVSPropertyOp20
 70
     1
102
RTVSPropertyOp21
 70
     1
102
RTVSPropertyOp22
 70
     1
102
RTVSPropertyOp23
 70
     1
102
RTVSPropertyOp24
 70
     1
102
RTVSPropertyOp25
 70
     1
102
RTVSPropertyOp26
 70
     1
102
RTVSPropertyOp27
 70
     1
102
RTVSPropertyOp28
 70
     1
102
RTVSPropertyOp29
 70
     1
102
RTVSPropertyOp30
 70
     1
102
RTVSPropertyOp31
 70
     1
102
RTVSPropertyOp32
 70
     1
  0
XRECORD
  5
1FC
102
{ACAD_REACTORS
330
1FB
102
}
330
1FB
100
AcDbXrecord
280
     1
102
RTVSPropertyOp0
 70
     1
102
RTVSPropertyOp1
 70
     1
102
RTVSPropertyOp2
 70
     1
102
RTVSPropertyOp3
 70
     1
102
RTVSPropertyOp4
 70
     1
102
RTVSPropertyOp5
 70
     1
102
RTVSPropertyOp6
 70
     1
102
RTVSPropertyOp7
 70
     1
102
RTVSPropertyOp8
 70
     1
102
RTVSPropertyOp9
 70
     1
102
RTVSPropertyOp10
 70
     1
102
RTVSPropertyOp11
 70
     1
102
RTVSPropertyOp12
 70
     1
102
RTVSPropertyOp13
 70
     1
102
RTVSPropertyOp14
 70
     1
102
RTVSPropertyOp15
 70
     1
102
RTVSPropertyOp16
 70
     1
102
RTVSPropertyOp17
 70
     1
102
RTVSPropertyOp18
 70
     1
102
RTVSPropertyOp19
 70
     1
102
RTVSPropertyOp20
 70
     1
102
RTVSPropertyOp21
 70
     1
102
RTVSPropertyOp22
 70
     1
102
RTVSPropertyOp23
 70
     1
102
RTVSPropertyOp24
 70
     1
102
RTVSPropertyOp25
 70
     1
102
RTVSPropertyOp26
 70
     1
102
RTVSPropertyOp27
 70
     1
102
RTVSPropertyOp28
 70
     1
102
RTVSPropertyOp29
 70
     1
102
RTVSPropertyOp30
 70
     1
102
RTVSPropertyOp31
 70
     1
102
RTVSPropertyOp32
 70
     1
  0
XRECORD
  5
1F2
102
{ACAD_REACTORS
330
1F1
102
}
330
1F1
100
AcDbXrecord
280
     1
102
RTVSPropertyOp0
 70
     1
102
RTVSPropertyOp1
 70
     1
102
RTVSPropertyOp2
 70
     1
102
RTVSPropertyOp3
 70
     1
102
RTVSPropertyOp4
 70
     1
102
RTVSPropertyOp5
 70
     1
102
RTVSPropertyOp6
 70
     1
102
RTVSPropertyOp7
 70
     1
102
RTVSPropertyOp8
 70
     1
102
RTVSPropertyOp9
 70
     1
102
RTVSPropertyOp10
 70
     1
102
RTVSPropertyOp11
 70
     1
102
RTVSPropertyOp12
 70
     1
102
RTVSPropertyOp13
 70
     1
102
RTVSPropertyOp14
 70
     1
102
RTVSPropertyOp15
 70
     1
102
RTVSPropertyOp16
 70
     1
102
RTVSPropertyOp17
 70
     1
102
RTVSPropertyOp18
 70
     1
102
RTVSPropertyOp19
 70
     1
102
RTVSPropertyOp20
 70
     1
102
RTVSPropertyOp21
 70
     1
102
RTVSPropertyOp22
 70
     1
102
RTVSPropertyOp23
 70
     1
102
RTVSPropertyOp24
 70
     1
102
RTVSPropertyOp25
 70
     1
102
RTVSPropertyOp26
 70
     1
102
RTVSPropertyOp27
 70
     1
102
RTVSPropertyOp28
 70
     1
102
RTVSPropertyOp29
 70
     1
102
RTVSPropertyOp30
 70
     1
102
RTVSPropertyOp31
 70
     1
102
RTVSPropertyOp32
 70
     1
  0
XRECORD
  5
1FA
102
{ACAD_REACTORS
330
1F9
102
}
330
1F9
100
AcDbXrecord
280
     1
102
RTVSPropertyOp0
 70
     1
102
RTVSPropertyOp1
 70
     1
102
RTVSPropertyOp2
 70
     1
102
RTVSPropertyOp3
 70
     1
102
RTVSPropertyOp4
 70
     1
102
RTVSPropertyOp5
 70
     1
102
RTVSPropertyOp6
 70
     1
102
RTVSPropertyOp7
 70
     1
102
RTVSPropertyOp8
 70
     1
102
RTVSPropertyOp9
 70
     1
102
RTVSPropertyOp10
 70
     1
102
RTVSPropertyOp11
 70
     1
102
RTVSPropertyOp12
 70
     1
102
RTVSPropertyOp13
 70
     1
102
RTVSPropertyOp14
 70
     1
102
RTVSPropertyOp15
 70
     1
102
RTVSPropertyOp16
 70
     1
102
RTVSPropertyOp17
 70
     1
102
RTVSPropertyOp18
 70
     1
102
RTVSPropertyOp19
 70
     1
102
RTVSPropertyOp20
 70
     1
102
RTVSPropertyOp21
 70
     1
102
RTVSPropertyOp22
 70
     1
102
RTVSPropertyOp23
 70
     1
102
RTVSPropertyOp24
 70
     1
102
RTVSPropertyOp25
 70
     1
102
RTVSPropertyOp26
 70
     1
102
RTVSPropertyOp27
 70
     1
102
RTVSPropertyOp28
 70
     1
102
RTVSPropertyOp29
 70
     1
102
RTVSPropertyOp30
 70
     1
102
RTVSPropertyOp31
 70
     1
102
RTVSPropertyOp32
 70
     1
  0
ENDSEC
  0
EOF
