  0
SECTION
  2
HEADER
  9
$ACADVER
  1
AC1015
  9
$ACADMAINTVER
 70
     6
  9
$DWGCODEPAGE
  3
ANSI_932
  9
$INSBASE
 10
0.0
 20
0.0
 30
0.0
  9
$EXTMIN
 10
0.0
 20
0.0
 30
0.0
  9
$EXTMAX
 10
210.0
 20
297.0
 30
0.0
  9
$LIMMIN
 10
0.0
 20
0.0
  9
$LIMMAX
 10
12.0
 20
9.0
  9
$ORTHOMODE
 70
     0
  9
$REGENMODE
 70
     1
  9
$FILLMODE
 70
     1
  9
$QTEXTMODE
 70
     0
  9
$MIRRTEXT
 70
     1
  9
$LTSCALE
 40
1.0
  9
$ATTMODE
 70
     1
  9
$TEXTSIZE
 40
0.2
  9
$TRACEWID
 40
0.05
  9
$TEXTSTYLE
  7
Standard
  9
$CLAYER
  8
0
  9
$CELTYPE
  6
ByLayer
  9
$CECOLOR
 62
   256
  9
$CELTSCALE
 40
1.0
  9
$DISPSILH
 70
     0
  9
$DIMSCALE
 40
1.0
  9
$DIMASZ
 40
0.18
  9
$DIMEXO
 40
0.0625
  9
$DIMDLI
 40
0.38
  9
$DIMRND
 40
0.0
  9
$DIMDLE
 40
0.0
  9
$DIMEXE
 40
0.18
  9
$DIMTP
 40
0.0
  9
$DIMTM
 40
0.0
  9
$DIMTXT
 40
0.18
  9
$DIMCEN
 40
0.09
  9
$DIMTSZ
 40
0.0
  9
$DIMTOL
 70
     0
  9
$DIMLIM
 70
     0
  9
$DIMTIH
 70
     1
  9
$DIMTOH
 70
     1
  9
$DIMSE1
 70
     0
  9
$DIMSE2
 70
     0
  9
$DIMTAD
 70
     0
  9
$DIMZIN
 70
     0
  9
$DIMBLK
  1

  9
$DIMASO
 70
     1
  9
$DIMSHO
 70
     1
  9
$DIMPOST
  1

  9
$DIMAPOST
  1

  9
$DIMALT
 70
     0
  9
$DIMALTD
 70
     2
  9
$DIMALTF
 40
25.4
  9
$DIMLFAC
 40
1.0
  9
$DIMTOFL
 70
     0
  9
$DIMTVP
 40
0.0
  9
$DIMTIX
 70
     0
  9
$DIMSOXD
 70
     0
  9
$DIMSAH
 70
     0
  9
$DIMBLK1
  1

  9
$DIMBLK2
  1

  9
$DIMSTYLE
  2
Standard
  9
$DIMCLRD
 70
     0
  9
$DIMCLRE
 70
     0
  9
$DIMCLRT
 70
     0
  9
$DIMTFAC
 40
1.0
  9
$DIMGAP
 40
0.09
  9
$DIMJUST
 70
     0
  9
$DIMSD1
 70
     0
  9
$DIMSD2
 70
     0
  9
$DIMTOLJ
 70
     1
  9
$DIMTZIN
 70
     0
  9
$DIMALTZ
 70
     0
  9
$DIMALTTZ
 70
     0
  9
$DIMUPT
 70
     0
  9
$DIMDEC
 70
     4
  9
$DIMTDEC
 70
     4
  9
$DIMALTU
 70
     2
  9
$DIMALTTD
 70
     2
  9
$DIMTXSTY
  7
Standard
  9
$DIMAUNIT
 70
     0
  9
$DIMADEC
 70
     0
  9
$DIMALTRND
 40
0.0
  9
$DIMAZIN
 70
     0
  9
$DIMDSEP
 70
    46
  9
$DIMATFIT
 70
     3
  9
$DIMFRAC
 70
     0
  9
$DIMLDRBLK
  1

  9
$DIMLUNIT
 70
     2
  9
$DIMLWD
 70
    -2
  9
$DIMLWE
 70
    -2
  9
$DIMTMOVE
 70
     0
  9
$LUNITS
 70
     2
  9
$LUPREC
 70
     4
  9
$SKETCHINC
 40
0.1
  9
$FILLETRAD
 40
0.5
  9
$AUNITS
 70
     0
  9
$AUPREC
 70
     0
  9
$MENU
  1
.
  9
$ELEVATION
 40
0.0
  9
$PELEVATION
 40
0.0
  9
$THICKNESS
 40
0.0
  9
$LIMCHECK
 70
     0
  9
$CHAMFERA
 40
0.5
  9
$CHAMFERB
 40
0.5
  9
$CHAMFERC
 40
1.0
  9
$CHAMFERD
 40
0.0
  9
$SKPOLY
 70
     0
  9
$TDCREATE
 40
2459787.653691412
  9
$TDUCREATE
 40
2459787.278691412
  9
$TDUPDATE
 40
2459787.653692685
  9
$TDUUPDATE
 40
2459787.278692685
  9
$TDINDWG
 40
0.0000000116
  9
$TDUSRTIMER
 40
0.0000000116
  9
$USRTIMER
 70
     1
  9
$ANGBASE
 50
0.0
  9
$ANGDIR
 70
     0
  9
$PDMODE
 70
     0
  9
$PDSIZE
 40
0.0
  9
$PLINEWID
 40
0.0
  9
$SPLFRAME
 70
     0
  9
$SPLINETYPE
 70
     6
  9
$SPLINESEGS
 70
     8
  9
$HANDSEED
  5
141
  9
$SURFTAB1
 70
     6
  9
$SURFTAB2
 70
     6
  9
$SURFTYPE
 70
     6
  9
$SURFU
 70
     6
  9
$SURFV
 70
     6
  9
$UCSBASE
  2

  9
$UCSNAME
  2

  9
$UCSORG
 10
0.0
 20
0.0
 30
0.0
  9
$UCSXDIR
 10
1.0
 20
0.0
 30
0.0
  9
$UCSYDIR
 10
0.0
 20
1.0
 30
0.0
  9
$UCSORTHOREF
  2

  9
$UCSORTHOVIEW
 70
     0
  9
$UCSORGTOP
 10
0.0
 20
0.0
 30
0.0
  9
$UCSORGBOTTOM
 10
0.0
 20
0.0
 30
0.0
  9
$UCSORGLEFT
 10
0.0
 20
0.0
 30
0.0
  9
$UCSORGRIGHT
 10
0.0
 20
0.0
 30
0.0
  9
$UCSORGFRONT
 10
0.0
 20
0.0
 30
0.0
  9
$UCSORGBACK
 10
0.0
 20
0.0
 30
0.0
  9
$PUCSBASE
  2

  9
$PUCSNAME
  2

  9
$PUCSORG
 10
0.0
 20
0.0
 30
0.0
  9
$PUCSXDIR
 10
1.0
 20
0.0
 30
0.0
  9
$PUCSYDIR
 10
0.0
 20
1.0
 30
0.0
  9
$PUCSORTHOREF
  2

  9
$PUCSORTHOVIEW
 70
     0
  9
$PUCSORGTOP
 10
0.0
 20
0.0
 30
0.0
  9
$PUCSORGBOTTOM
 10
0.0
 20
0.0
 30
0.0
  9
$PUCSORGLEFT
 10
0.0
 20
0.0
 30
0.0
  9
$PUCSORGRIGHT
 10
0.0
 20
0.0
 30
0.0
  9
$PUCSORGFRONT
 10
0.0
 20
0.0
 30
0.0
  9
$PUCSORGBACK
 10
0.0
 20
0.0
 30
0.0
  9
$USERI1
 70
     0
  9
$USERI2
 70
     0
  9
$USERI3
 70
     0
  9
$USERI4
 70
     0
  9
$USERI5
 70
     0
  9
$USERR1
 40
18.1
  9
$USERR2
 40
0.0
  9
$USERR3
 40
0.0
  9
$USERR4
 40
0.0
  9
$USERR5
 40
0.0
  9
$WORLDVIEW
 70
     1
  9
$SHADEDGE
 70
     3
  9
$SHADEDIF
 70
    70
  9
$TILEMODE
 70
     1
  9
$MAXACTVP
 70
    64
  9
$PINSBASE
 10
0.0
 20
0.0
 30
0.0
  9
$PLIMCHECK
 70
     0
  9
$PEXTMIN
 10
1.00000000000000E+20
 20
1.00000000000000E+20
 30
1.00000000000000E+20
  9
$PEXTMAX
 10
-1.00000000000000E+20
 20
-1.00000000000000E+20
 30
-1.00000000000000E+20
  9
$PLIMMIN
 10
0.0
 20
0.0
  9
$PLIMMAX
 10
12.0
 20
9.0
  9
$UNITMODE
 70
     0
  9
$VISRETAIN
 70
     1
  9
$PLINEGEN
 70
     0
  9
$PSLTSCALE
 70
     1
  9
$TREEDEPTH
 70
  3020
  9
$CMLSTYLE
  2
Standard
  9
$CMLJUST
 70
     0
  9
$CMLSCALE
 40
1.0
  9
$PROXYGRAPHICS
 70
     1
  9
$MEASUREMENT
 70
     1
  9
$CELWEIGHT
370
    -1
  9
$ENDCAPS
280
     0
  9
$JOINSTYLE
280
     0
  9
$LWDISPLAY
290
     0
  9
$INSUNITS
 70
     4
  9
$HYPERLINKBASE
  1

  9
$STYLESHEET
  1

  9
$XEDIT
290
     1
  9
$CEPSNTYPE
380
     0
  9
$PSTYLEMODE
290
     1
  9
$FINGERPRINTGUID
  2
{29445E86-3BC4-41D0-8DAE-3DE067E03FB3}
  9
$VERSIONGUID
  2
{FAEB1C32-E019-11D5-929B-00C0DF256EC4}
  9
$EXTNAMES
290
     1
  9
$PSVPSCALE
 40
0.0
  9
$OLESTARTUP
290
     0
  0
ENDSEC
  0
SECTION
  2
CLASSES
  0
CLASS
  1
ACDBDICTIONARYWDFLT
  2
AcDbDictionaryWithDefault
  3
ObjectDBX Classes
 90
        0
280
     0
281
     0
  0
CLASS
  1
VISUALSTYLE
  2
AcDbVisualStyle
  3
ObjectDBX Classes
 90
     4095
280
     0
281
     0
  0
CLASS
  1
MATERIAL
  2
AcDbMaterial
  3
ObjectDBX Classes
 90
     1153
280
     0
281
     0
  0
CLASS
  1
DICTIONARYVAR
  2
AcDbDictionaryVar
  3
ObjectDBX Classes
 90
        0
280
     0
281
     0
  0
CLASS
  1
ACDBPLACEHOLDER
  2
AcDbPlaceHolder
  3
ObjectDBX Classes
 90
        0
280
     0
281
     0
  0
CLASS
  1
LAYOUT
  2
AcDbLayout
  3
ObjectDBX Classes
 90
        0
280
     0
281
     0
  0
ENDSEC
  0
SECTION
  2
TABLES
  0
TABLE
  2
VPORT
  5
8
330
0
100
AcDbSymbolTable
 70
     1
  0
VPORT
  5
29
330
8
100
AcDbSymbolTableRecord
100
AcDbViewportTableRecord
  2
*Active
 70
     0
 10
0.0
 20
0.0
 11
1.0
 21
1.0
 12
105.0
 22
148.5
 13
0.0
 23
0.0
 14
0.5
 24
0.5
 15
0.5
 25
0.5
 16
0.0
 26
0.0
 36
1.0
 17
0.0
 27
0.0
 37
0.0
 40
326.7
 41
1.60267857142857
 42
50.0
 43
0.0
 44
0.0
 50
0.0
 51
0.0
 71
     0
 72
   100
 73
     1
 74
     3
 75
     0
 76
     0
 77
     0
 78
     0
281
     0
 65
     1
110
0.0
120
0.0
130
0.0
111
1.0
121
0.0
131
0.0
112
0.0
122
1.0
132
0.0
 79
     0
146
0.0
  0
ENDTAB
  0
TABLE
  2
LTYPE
  5
5
330
0
100
AcDbSymbolTable
 70
     8
  0
LTYPE
  5
14
330
5
100
AcDbSymbolTableRecord
100
AcDbLinetypeTableRecord
  2
ByBlock
 70
     0
  3

 72
    65
 73
     0
 40
0.0
  0
LTYPE
  5
15
330
5
100
AcDbSymbolTableRecord
100
AcDbLinetypeTableRecord
  2
ByLayer
 70
     0
  3

 72
    65
 73
     0
 40
0.0
  0
LTYPE
  5
16
330
5
100
AcDbSymbolTableRecord
100
AcDbLinetypeTableRecord
  2
Continuous
 70
     0
  3
Solid line
 72
    65
 73
     0
 40
0.0
  0
LTYPE
  5
3F
330
5
100
AcDbSymbolTableRecord
100
AcDbLinetypeTableRecord
  2
DASHED
 70
     0
  3
Dashed
 72
    65
 73
     2
 40
15.0
 49
7.0
 74
     0
 49
-8.0
 74
     0
  0
LTYPE
  5
40
330
5
100
AcDbSymbolTableRecord
100
AcDbLinetypeTableRecord
  2
DOTTED
 70
     0
  3
Dotted
 72
    65
 73
     2
 40
1.0
 49
0.0
 74
     0
 49
-1.0
 74
     0
  0
LTYPE
  5
41
330
5
100
AcDbSymbolTableRecord
100
AcDbLinetypeTableRecord
  2
DOT_CENTER
 70
     0
  3
Dot_Center
 72
    65
 73
     4
 40
14.0
 49
12.0
 74
     0
 49
-1.0
 74
     0
 49
0.0
 74
     0
 49
-1.0
 74
     0
  0
LTYPE
  5
42
330
5
100
AcDbSymbolTableRecord
100
AcDbLinetypeTableRecord
  2
LONG_DASHED
 70
     0
  3
Long_Dashed
 72
    65
 73
     2
 40
15.0
 49
10.0
 74
     0
 49
-5.0
 74
     0
  0
LTYPE
  5
43
330
5
100
AcDbSymbolTableRecord
100
AcDbLinetypeTableRecord
  2
DASH_CENTER
 70
     0
  3
Dash_Center
 72
    65
 73
     4
 40
14.0
 49
11.0
 74
     0
 49
-1.0
 74
     0
 49
1.0
 74
     0
 49
-1.0
 74
     0
  0
LTYPE
  5
44
330
5
100
AcDbSymbolTableRecord
100
AcDbLinetypeTableRecord
  2
PHANTOM
 70
     0
  3
Phantom
 72
    65
 73
     6
 40
13.0
 49
10.0
 74
     0
 49
-1.0
 74
     0
 49
0.0
 74
     0
 49
-1.0
 74
     0
 49
0.0
 74
     0
 49
-1.0
 74
     0
  0
LTYPE
  5
45
330
5
100
AcDbSymbolTableRecord
100
AcDbLinetypeTableRecord
  2
CENTER_DASH_DASH
 70
     0
  3
Center_Dash_Dash
 72
    65
 73
     6
 40
14.0
 49
9.0
 74
     0
 49
-1.0
 74
     0
 49
1.0
 74
     0
 49
-1.0
 74
     0
 49
1.0
 74
     0
 49
-1.0
 74
     0
  0
ENDTAB
  0
TABLE
  2
LAYER
  5
2
330
0
100
AcDbSymbolTable
 70
     3
  0
LAYER
  5
10
330
2
100
AcDbSymbolTableRecord
100
AcDbLayerTableRecord
  2
0
 70
     0
 62
     7
  6
Continuous
370
    -3
390
F
  0
LAYER
  5
46
330
2
100
AcDbSymbolTableRecord
100
AcDbLayerTableRecord
  2
1
 70
     0
 62
     7
  6
Continuous
370
    -3
390
F
  0
LAYER
  5
47
330
2
100
AcDbSymbolTableRecord
100
AcDbLayerTableRecord
  2
_U_30EC_U_30A4_U_30E4_U_30FC_1
 70
     0
 62
     7
  6
Continuous
370
    -3
390
F
  0
ENDTAB
  0
TABLE
  2
STYLE
  5
3
330
0
100
AcDbSymbolTable
 70
     3
  0
STYLE
  5
11
330
3
100
AcDbSymbolTableRecord
100
AcDbTextStyleTableRecord
  2
Standard
 70
     0
 40
0.0
 41
1.0
 50
0.0
 71
     0
 42
0.2
  3
txt
  4

  0
STYLE
  5
BA
330
3
100
AcDbSymbolTableRecord
100
AcDbTextStyleTableRecord
  2
CONVERTER_11
 70
     0
 40
0.0
 41
0.89
 50
0.0
 71
     0
 42
0.2
  3
MS Mincho.ttf
  4

1001
ACAD
1000
MS Mincho
1071
    32785
  0
STYLE
  5
E4
330
3
100
AcDbSymbolTableRecord
100
AcDbTextStyleTableRecord
  2
CONVERTER_12
 70
     0
 40
0.0
 41
0.9
 50
0.0
 71
     0
 42
0.2
  3
txt.shx
  4

  0
ENDTAB
  0
TABLE
  2
VIEW
  5
6
330
0
100
AcDbSymbolTable
 70
     0
  0
ENDTAB
  0
TABLE
  2
UCS
  5
7
330
0
100
AcDbSymbolTable
 70
     0
  0
ENDTAB
  0
TABLE
  2
APPID
  5
9
330
0
100
AcDbSymbolTable
 70
     1
  0
APPID
  5
12
330
9
100
AcDbSymbolTableRecord
100
AcDbRegAppTableRecord
  2
ACAD
 70
     0
  0
ENDTAB
  0
TABLE
  2
DIMSTYLE
  5
A
330
0
100
AcDbSymbolTable
 70
     2
100
AcDbDimStyleTable
  0
DIMSTYLE
105
27
330
A
100
AcDbSymbolTableRecord
100
AcDbDimStyleTableRecord
  2
Standard
 70
     0
178
     0
340
11
  0
DIMSTYLE
105
FA
102
{ACAD_REACTORS
330
FB
102
}
330
A
100
AcDbSymbolTableRecord
100
AcDbDimStyleTableRecord
  2
ME10_DIM_10
 70
     0
 41
3.5
 42
0.0
 44
1.0
 73
     0
 74
     0
 77
     1
 78
     8
140
3.5
147
1.0
172
     1
173
     1
174
     1
175
     1
176
     2
177
     2
271
     2
178
     7
271
     2
340
E4
  0
ENDTAB
  0
TABLE
  2
BLOCK_RECORD
  5
1
330
0
100
AcDbSymbolTable
 70
     9
  0
BLOCK_RECORD
  5
1F
330
1
100
AcDbSymbolTableRecord
100
AcDbBlockTableRecord
  2
*Model_Space
340
22
  0
BLOCK_RECORD
  5
1B
330
1
100
AcDbSymbolTableRecord
100
AcDbBlockTableRecord
  2
*Paper_Space
340
1E
  0
BLOCK_RECORD
  5
23
330
1
100
AcDbSymbolTableRecord
100
AcDbBlockTableRecord
  2
*Paper_Space0
340
26
  0
BLOCK_RECORD
  5
48
330
1
100
AcDbSymbolTableRecord
100
AcDbBlockTableRecord
  2
開示A4
340
0
102
{BLKREFS
331
4C
102
}
  0
BLOCK_RECORD
  5
4B
330
1
100
AcDbSymbolTableRecord
100
AcDbBlockTableRecord
  2
開示A4枠
340
0
102
{BLKREFS
331
56
102
}
  0
BLOCK_RECORD
  5
4F
330
1
100
AcDbSymbolTableRecord
100
AcDbBlockTableRecord
  2
96-33
340
0
102
{BLKREFS
331
53
102
}
  0
BLOCK_RECORD
  5
52
330
1
100
AcDbSymbolTableRecord
100
AcDbBlockTableRecord
  2
枠
340
0
102
{BLKREFS
331
57
102
}
  0
BLOCK_RECORD
  5
F1
330
1
100
AcDbSymbolTableRecord
100
AcDbBlockTableRecord
  2
*D5
340
0
  0
BLOCK_RECORD
  5
FC
330
1
100
AcDbSymbolTableRecord
100
AcDbBlockTableRecord
  2
*D6
340
0
102
{BLKREFS
331
103
102
}
  0
BLOCK_RECORD
  5
104
330
1
100
AcDbSymbolTableRecord
100
AcDbBlockTableRecord
  2
*D7
340
0
102
{BLKREFS
331
10B
102
}
  0
BLOCK_RECORD
  5
10C
330
1
100
AcDbSymbolTableRecord
100
AcDbBlockTableRecord
  2
*D8
340
0
102
{BLKREFS
331
115
102
}
  0
ENDTAB
  0
ENDSEC
  0
SECTION
  2
BLOCKS
  0
BLOCK
  5
20
330
1F
100
AcDbEntity
  8
0
100
AcDbBlockBegin
  2
*Model_Space
 70
     0
 10
0.0
 20
0.0
 30
0.0
  3
*Model_Space
  1

  0
ENDBLK
  5
21
330
1F
100
AcDbEntity
  8
0
100
AcDbBlockEnd
  0
BLOCK
  5
1C
330
1B
100
AcDbEntity
 67
     1
  8
0
100
AcDbBlockBegin
  2
*Paper_Space
 70
     0
 10
0.0
 20
0.0
 30
0.0
  3
*Paper_Space
  1

  0
ENDBLK
  5
1D
330
1B
100
AcDbEntity
 67
     1
  8
0
100
AcDbBlockEnd
  0
BLOCK
  5
24
330
23
100
AcDbEntity
  8
0
100
AcDbBlockBegin
  2
*Paper_Space0
 70
     0
 10
0.0
 20
0.0
 30
0.0
  3
*Paper_Space0
  1

  0
ENDBLK
  5
25
330
23
100
AcDbEntity
  8
0
100
AcDbBlockEnd
  0
BLOCK
  5
49
330
48
100
AcDbEntity
  8
0
100
AcDbBlockBegin
  2
開示A4
 70
     0
 10
0.0
 20
0.0
 30
0.0
  3
開示A4
  1

  0
POINT
  5
58
330
48
100
AcDbEntity
  8
1
 62
     4
100
AcDbPoint
 10
183.0
 20
15.00000000000001
 30
0.0
  0
POINT
  5
59
330
48
100
AcDbEntity
  8
1
 62
     4
100
AcDbPoint
 10
93.75
 20
17.00000000000001
 30
0.0
  0
POINT
  5
5A
330
48
100
AcDbEntity
  8
1
 62
     4
100
AcDbPoint
 10
85.25
 20
17.00000000000001
 30
0.0
  0
POINT
  5
5B
330
48
100
AcDbEntity
  8
1
 62
     4
100
AcDbPoint
 10
106.5
 20
19.00000000000001
 30
0.0
  0
POINT
  5
5C
330
48
100
AcDbEntity
  8
1
 62
     4
100
AcDbPoint
 10
106.5
 20
12.50000000000001
 30
0.0
  0
POINT
  5
5D
330
48
100
AcDbEntity
  8
1
 62
     4
100
AcDbPoint
 10
112.25
 20
12.50000000000001
 30
0.0
  0
POINT
  5
5E
330
48
100
AcDbEntity
  8
1
 62
     4
100
AcDbPoint
 10
100.75
 20
12.50000000000001
 30
0.0
  0
POINT
  5
5F
330
48
100
AcDbEntity
  8
1
 62
     4
100
AcDbPoint
 10
123.5
 20
19.00000000000001
 30
0.0
  0
POINT
  5
60
330
48
100
AcDbEntity
  8
1
 62
     4
100
AcDbPoint
 10
123.5
 20
12.50000000000001
 30
0.0
  0
POINT
  5
61
330
48
100
AcDbEntity
  8
1
 62
     4
100
AcDbPoint
 10
129.25
 20
12.50000000000001
 30
0.0
  0
POINT
  5
62
330
48
100
AcDbEntity
  8
1
 62
     4
100
AcDbPoint
 10
117.75
 20
12.50000000000001
 30
0.0
  0
POINT
  5
63
330
48
100
AcDbEntity
  8
1
 62
     4
100
AcDbPoint
 10
140.5
 20
19.00000000000001
 30
0.0
  0
POINT
  5
64
330
48
100
AcDbEntity
  8
1
 62
     4
100
AcDbPoint
 10
140.5
 20
12.50000000000001
 30
0.0
  0
POINT
  5
65
330
48
100
AcDbEntity
  8
1
 62
     4
100
AcDbPoint
 10
146.25
 20
12.50000000000001
 30
0.0
  0
POINT
  5
66
330
48
100
AcDbEntity
  8
1
 62
     4
100
AcDbPoint
 10
134.75
 20
12.50000000000001
 30
0.0
  0
POINT
  5
67
330
48
100
AcDbEntity
  8
1
 62
     4
100
AcDbPoint
 10
151.75
 20
12.50000000000001
 30
0.0
  0
POINT
  5
68
330
48
100
AcDbEntity
  8
1
 62
     4
100
AcDbPoint
 10
163.25
 20
12.50000000000001
 30
0.0
  0
POINT
  5
69
330
48
100
AcDbEntity
  8
1
 62
     4
100
AcDbPoint
 10
157.5
 20
12.50000000000001
 30
0.0
  0
POINT
  5
6A
330
48
100
AcDbEntity
  8
1
 62
     4
100
AcDbPoint
 10
57.0
 20
14.25000000000001
 30
0.0
  0
POINT
  5
6B
330
48
100
AcDbEntity
  8
1
 62
     4
100
AcDbPoint
 10
57.0
 20
22.75000000000001
 30
0.0
  0
POINT
  5
6C
330
48
100
AcDbEntity
  8
1
 62
     4
100
AcDbPoint
 10
47.5
 20
282.0000000000003
 30
0.0
  0
POINT
  5
6D
330
48
100
AcDbEntity
  8
1
 62
     4
100
AcDbPoint
 10
157.5
 20
19.00000000000001
 30
0.0
  0
POINT
  5
6E
330
48
100
AcDbEntity
  8
1
 62
     4
100
AcDbPoint
 10
57.0
 20
16.25000000000001
 30
0.0
  0
POINT
  5
6F
330
48
100
AcDbEntity
  8
1
 62
     4
100
AcDbPoint
 10
57.0
 20
24.75000000000001
 30
0.0
  0
POINT
  5
70
330
48
100
AcDbEntity
  8
1
 62
     4
100
AcDbPoint
 10
57.0
 20
20.75000000000001
 30
0.0
  0
POINT
  5
71
330
48
100
AcDbEntity
  8
1
 62
     4
100
AcDbPoint
 10
57.0
 20
12.25000000000001
 30
0.0
  0
POINT
  5
72
330
48
100
AcDbEntity
  8
1
 62
     4
100
AcDbPoint
 10
34.0
 20
34.00000000000001
 30
0.0
  0
LINE
  5
77
330
48
100
AcDbEntity
  8
1
  6
Continuous
 62
     7
100
AcDbLine
 10
105.0
 20
10.00000000000001
 30
0.0
 11
200.0
 21
10.00000000000001
 31
0.0
  0
LINE
  5
78
330
48
100
AcDbEntity
  8
1
  6
Continuous
 62
     2
100
AcDbLine
 10
105.0
 20
10.00000000000001
 30
0.0
 11
105.0
 21
5.0
 31
0.0
  0
LINE
  5
79
330
48
100
AcDbEntity
  8
1
  6
Continuous
 62
     7
100
AcDbLine
 10
200.0
 20
148.5
 30
0.0
 11
200.0
 21
287.0000000000003
 31
0.0
  0
LINE
  5
7A
330
48
100
AcDbEntity
  8
1
  6
Continuous
 62
     2
100
AcDbLine
 10
200.0
 20
148.5
 30
0.0
 11
205.0
 21
148.5
 31
0.0
  0
LINE
  5
7B
330
48
100
AcDbEntity
  8
1
  6
Continuous
 62
     7
100
AcDbLine
 10
25.0
 20
148.5
 30
0.0
 11
25.0
 21
287.0000000000003
 31
0.0
  0
LINE
  5
7C
330
48
100
AcDbEntity
  8
1
  6
Continuous
 62
     2
100
AcDbLine
 10
25.0
 20
148.5
 30
0.0
 11
20.0
 21
148.5
 31
0.0
  0
LINE
  5
7D
330
48
100
AcDbEntity
  8
1
  6
Continuous
 62
     7
100
AcDbLine
 10
105.0
 20
287.0000000000003
 30
0.0
 11
25.0
 21
287.0000000000003
 31
0.0
  0
LINE
  5
7E
330
48
100
AcDbEntity
  8
1
  6
Continuous
 62
     2
100
AcDbLine
 10
105.0
 20
287.0000000000003
 30
0.0
 11
105.0
 21
292.0000000000003
 31
0.0
  0
LINE
  5
7F
330
48
100
AcDbEntity
  8
1
  6
Continuous
 62
     2
100
AcDbLine
 10
166.0
 20
20.00000000000001
 30
0.0
 11
200.0
 21
20.00000000000001
 31
0.0
  0
LINE
  5
80
330
48
100
AcDbEntity
  8
1
  6
Continuous
 62
     2
100
AcDbLine
 10
98.0
 20
27.00000000000001
 30
0.0
 11
98.0
 21
9.99999999999999
 31
0.0
  0
LINE
  5
81
330
48
100
AcDbEntity
  8
1
  6
Continuous
 62
     2
100
AcDbLine
 10
115.0
 20
27.00000000000001
 30
0.0
 11
115.0
 21
9.99999999999999
 31
0.0
  0
LINE
  5
82
330
48
100
AcDbEntity
  8
1
  6
Continuous
 62
     2
100
AcDbLine
 10
149.0
 20
27.00000000000001
 30
0.0
 11
149.0
 21
10.00000000000001
 31
0.0
  0
LINE
  5
83
330
48
100
AcDbEntity
  8
1
  6
Continuous
 62
     2
100
AcDbLine
 10
132.0
 20
27.00000000000001
 30
0.0
 11
132.0
 21
9.99999999999999
 31
0.0
  0
LINE
  5
84
330
48
100
AcDbEntity
  8
1
  6
Continuous
 62
     2
100
AcDbLine
 10
166.0
 20
27.00000000000001
 30
0.0
 11
166.0
 21
10.00000000000001
 31
0.0
  0
LINE
  5
85
330
48
100
AcDbEntity
  8
1
  6
Continuous
 62
     2
100
AcDbLine
 10
55.0
 20
277.0000000000003
 30
0.0
 11
25.0
 21
277.0000000000003
 31
0.0
  0
LINE
  5
86
330
48
100
AcDbEntity
  8
1
  6
Continuous
 62
     7
100
AcDbLine
 10
25.0
 20
10.00000000000001
 30
0.0
 11
25.0
 21
148.5
 31
0.0
  0
LINE
  5
87
330
48
100
AcDbEntity
  8
1
  6
Continuous
 62
     2
100
AcDbLine
 10
40.0
 20
287.0000000000003
 30
0.0
 11
40.0
 21
277.0000000000003
 31
0.0
  0
LINE
  5
88
330
48
100
AcDbEntity
  8
1
  6
Continuous
 62
     2
100
AcDbLine
 10
55.0
 20
287.0000000000003
 30
0.0
 11
55.0
 21
277.0000000000003
 31
0.0
  0
LINE
  5
89
330
48
100
AcDbEntity
  8
1
  6
Continuous
 62
     2
100
AcDbLine
 10
33.0
 20
41.00000000000001
 30
0.0
 11
33.0
 21
27.00000000000001
 31
0.0
  0
LINE
  5
8A
330
48
100
AcDbEntity
  8
1
  6
Continuous
 62
     7
100
AcDbLine
 10
200.0
 20
27.00000000000001
 30
0.0
 11
25.0
 21
27.00000000000001
 31
0.0
  0
LINE
  5
8B
330
48
100
AcDbEntity
  8
1
  6
Continuous
 62
     7
100
AcDbLine
 10
25.0
 20
41.00000000000001
 30
0.0
 11
200.0
 21
41.00000000000001
 31
0.0
  0
LINE
  5
8C
330
48
100
AcDbEntity
  8
1
  6
PHANTOM
 62
     4
100
AcDbLine
 10
0.0
 20
0.0
 30
0.0
 11
210.0
 21
0.0
 31
0.0
  0
LINE
  5
8D
330
48
100
AcDbEntity
  8
1
  6
PHANTOM
 62
     4
100
AcDbLine
 10
210.0
 20
0.0
 30
0.0
 11
210.0
 21
297.0
 31
0.0
  0
LINE
  5
8E
330
48
100
AcDbEntity
  8
1
  6
PHANTOM
 62
     4
100
AcDbLine
 10
210.0
 20
297.0
 30
0.0
 11
0.0
 21
297.0
 31
0.0
  0
LINE
  5
8F
330
48
100
AcDbEntity
  8
1
  6
PHANTOM
 62
     4
100
AcDbLine
 10
0.0
 20
297.0
 30
0.0
 11
0.0
 21
0.0
 31
0.0
  0
LINE
  5
90
330
48
100
AcDbEntity
  8
1
  6
Continuous
 62
     7
100
AcDbLine
 10
25.0
 20
10.00000000000001
 30
0.0
 11
105.0
 21
10.00000000000001
 31
0.0
  0
LINE
  5
91
330
48
100
AcDbEntity
  8
1
  6
Continuous
 62
     7
100
AcDbLine
 10
200.0
 20
10.00000000000001
 30
0.0
 11
200.0
 21
148.5
 31
0.0
  0
LINE
  5
92
330
48
100
AcDbEntity
  8
1
  6
Continuous
 62
     7
100
AcDbLine
 10
200.0
 20
287.0000000000003
 30
0.0
 11
105.0
 21
287.0000000000003
 31
0.0
  0
LINE
  5
93
330
48
100
AcDbEntity
  8
1
  6
Continuous
 62
     2
100
AcDbLine
 10
25.0
 20
18.50000000000001
 30
0.0
 11
81.0
 21
18.50000000000001
 31
0.0
  0
LINE
  5
94
330
48
100
AcDbEntity
  8
1
  6
Continuous
 62
     2
100
AcDbLine
 10
33.0
 20
27.00000000000001
 30
0.0
 11
33.0
 21
10.00000000000001
 31
0.0
  0
LINE
  5
95
330
48
100
AcDbEntity
  8
1
  6
Continuous
 62
     7
100
AcDbLine
 10
191.0
 20
24.70000000000001
 30
0.0
 11
191.0
 21
22.30000000000002
 31
0.0
  0
LINE
  5
96
330
48
100
AcDbEntity
  8
1
  6
Continuous
 62
     7
100
AcDbLine
 10
191.0
 20
24.70000000000001
 30
0.0
 11
196.0
 21
25.50000000000001
 31
0.0
  0
LINE
  5
97
330
48
100
AcDbEntity
  8
1
  6
Continuous
 62
     7
100
AcDbLine
 10
196.0
 20
25.50000000000001
 30
0.0
 11
196.0
 21
21.50000000000001
 31
0.0
  0
LINE
  5
98
330
48
100
AcDbEntity
  8
1
  6
Continuous
 62
     7
100
AcDbLine
 10
196.0
 20
21.50000000000001
 30
0.0
 11
191.0
 21
22.30000000000002
 31
0.0
  0
LINE
  5
99
330
48
100
AcDbEntity
  8
1
  6
DOT_CENTER
 62
     2
100
AcDbLine
 10
184.0
 20
23.50000000000001
 30
0.0
 11
197.0
 21
23.50000000000001
 31
0.0
  0
LINE
  5
9A
330
48
100
AcDbEntity
  8
1
  6
DOT_CENTER
 62
     2
100
AcDbLine
 10
187.0
 20
26.50000000000001
 30
0.0
 11
187.0
 21
20.50000000000001
 31
0.0
  0
LINE
  5
9B
330
48
100
AcDbEntity
  8
1
  6
Continuous
 62
     2
100
AcDbLine
 10
81.0
 20
27.00000000000001
 30
0.0
 11
81.0
 21
10.00000000000001
 31
0.0
  0
CIRCLE
  5
9C
330
48
100
AcDbEntity
  8
1
  6
Continuous
 62
     7
100
AcDbCircle
 10
103.5
 20
12.50000000000001
 30
0.0
 40
0.2999999999999972
  0
CIRCLE
  5
9D
330
48
100
AcDbEntity
  8
1
  6
Continuous
 62
     7
100
AcDbCircle
 10
109.5
 20
12.50000000000001
 30
0.0
 40
0.2999999999999972
  0
CIRCLE
  5
9E
330
48
100
AcDbEntity
  8
1
  6
Continuous
 62
     7
100
AcDbCircle
 10
120.5
 20
12.50000000000001
 30
0.0
 40
0.2999999999999972
  0
CIRCLE
  5
9F
330
48
100
AcDbEntity
  8
1
  6
Continuous
 62
     7
100
AcDbCircle
 10
126.5
 20
12.50000000000001
 30
0.0
 40
0.2999999999999972
  0
CIRCLE
  5
A0
330
48
100
AcDbEntity
  8
1
  6
Continuous
 62
     7
100
AcDbCircle
 10
137.5
 20
12.50000000000001
 30
0.0
 40
0.3000000000000114
  0
CIRCLE
  5
A1
330
48
100
AcDbEntity
  8
1
  6
Continuous
 62
     7
100
AcDbCircle
 10
143.5
 20
12.50000000000001
 30
0.0
 40
0.3000000000000114
  0
CIRCLE
  5
A2
330
48
100
AcDbEntity
  8
1
  6
Continuous
 62
     7
100
AcDbCircle
 10
160.5
 20
12.50000000000001
 30
0.0
 40
0.3000000000000114
  0
CIRCLE
  5
A3
330
48
100
AcDbEntity
  8
1
  6
Continuous
 62
     7
100
AcDbCircle
 10
154.5
 20
12.50000000000001
 30
0.0
 40
0.3000000000000114
  0
CIRCLE
  5
A4
330
48
100
AcDbEntity
  8
1
  6
Continuous
 62
     7
100
AcDbCircle
 10
187.0
 20
23.50000000000001
 30
0.0
 40
1.200000000000102
  0
CIRCLE
  5
A5
330
48
100
AcDbEntity
  8
1
  6
Continuous
 62
     7
100
AcDbCircle
 10
187.0
 20
23.50000000000001
 30
0.0
 40
2.0
  0
CIRCLE
  5
A6
330
48
100
AcDbEntity
  8
1
  6
DOT_CENTER
 62
     7
100
AcDbCircle
 10
89.5
 20
16.00000000000001
 30
0.0
 40
0.100000000000108
  0
CIRCLE
  5
A7
330
48
100
AcDbEntity
  8
1
  6
DOT_CENTER
 62
     7
100
AcDbCircle
 10
89.5
 20
18.00000000000001
 30
0.0
 40
0.100000000000108
  0
SPLINE
  5
A8
102
{ACAD_REACTORS
330
C7
102
}
330
48
100
AcDbEntity
  8
_U_30EC_U_30A4_U_30E4_U_30FC_1
  6
Continuous
 62
     2
100
AcDbSpline
210
0.0
220
0.0
230
1.0
 70
     8
 71
     3
 72
    24
 73
    20
 74
    18
 42
0.000000001
 43
0.0000000001
 44
0.00000001
 40
0.0
 40
0.0
 40
0.0
 40
0.0
 40
0.2211075008753773
 40
0.4273218586245296
 40
0.5080174679239513
 40
0.5914835907870393
 40
0.8143265690192754
 40
1.054651302686579
 40
1.295452694023174
 40
1.518109231328835
 40
1.540864321905422
 40
1.595126460622683
 40
1.659890947895997
 40
1.714153085187299
 40
1.7369081749616
 40
1.764951100735251
 40
1.801562291220812
 40
1.953914424543498
 40
2.126104167379578
 40
2.126104167379578
 40
2.126104167379578
 40
2.126104167379578
 10
185.937536955689
 20
15.58989295113016
 30
0.0
 10
185.9112579081813
 20
15.53097628234373
 30
0.0
 10
185.8604698894426
 20
15.41711139679255
 30
0.0
 10
185.8131784839113
 20
15.14441958233118
 30
0.0
 10
185.7043482802619
 20
15.24445482575454
 30
0.0
 10
185.5514800279638
 20
15.2711859336733
 30
0.0
 10
185.7686155181199
 20
15.48518135017632
 30
0.0
 10
185.7838483674381
 20
15.70332117782488
 30
0.0
 10
185.8906889492001
 20
15.88451579066424
 30
0.0
 10
185.8305380947078
 20
16.16913226311403
 30
0.0
 10
185.9334317395402
 20
16.1411408922245
 30
0.0
 10
185.977993346815
 20
16.13243251602299
 30
0.0
 10
186.0380842395397
 20
16.12139654183356
 30
0.0
 10
186.0756619587438
 20
16.10767523055559
 30
0.0
 10
186.1252466928606
 20
16.10756076160224
 30
0.0
 10
186.0930158919326
 20
16.07306592398623
 30
0.0
 10
186.0171802221882
 20
16.08404104537964
 30
0.0
 10
186.0429447159693
 20
15.89858969582449
 30
0.0
 10
186.005589676385
 20
15.8070231354959
 30
0.0
 10
185.9857704961609
 20
15.75844135397706
 30
0.0
 11
185.937536955689
 21
15.58989295113016
 31
0.0
 11
185.8616471328553
 21
15.38221708318559
 31
0.0
 11
185.7717402238434
 21
15.19663392356193
 31
0.0
 11
185.701149392311
 21
15.23573272563551
 31
0.0
 11
185.6245525192652
 21
15.26889163187719
 31
0.0
 11
185.7214026947456
 21
15.46958801203538
 31
0.0
 11
185.7994641467471
 21
15.69688163177024
 31
0.0
 11
185.8589716929721
 21
15.93021436608691
 31
0.0
 11
185.9001601511227
 21
16.14902808999054
 31
0.0
 11
185.9224183822215
 21
16.14429889221395
 31
0.0
 11
185.975495702534
 21
16.13302157443899
 31
0.0
 11
186.0388460525845
 21
16.11956154999792
 31
0.0
 11
186.091923372897
 21
16.10828423222296
 31
0.0
 11
186.1141816039958
 21
16.10355503444637
 31
0.0
 11
186.0964097157461
 21
16.0818625084101
 31
0.0
 11
186.0606122998072
 21
16.07418628445367
 31
0.0
 11
186.028195330148
 21
15.92532288171314
 31
0.0
 11
185.9857704961609
 21
15.75844135397706
 31
0.0
  0
SPLINE
  5
A9
102
{ACAD_REACTORS
330
C7
102
}
330
48
100
AcDbEntity
  8
_U_30EC_U_30A4_U_30E4_U_30FC_1
  6
Continuous
 62
     2
100
AcDbSpline
210
0.0
220
0.0
230
1.0
 70
     8
 71
     3
 72
    70
 73
    66
 74
    64
 42
0.000000001
 43
0.0000000001
 44
0.00000001
 40
0.0
 40
0.0
 40
0.0
 40
0.0
 40
0.0241731073021472
 40
0.0846058988987582
 40
0.1631685280353852
 40
0.2417311571790608
 40
0.302163948829332
 40
0.3263370654896678
 40
0.3533118254250018
 40
0.422878343892323
 40
0.5179999095314504
 40
0.6216398239467168
 40
0.7167613891500736
 40
0.7863279069650894
 40
0.8133026791762866
 40
0.8372943998772704
 40
0.8945054261373332
 40
0.9627895541962819
 40
1.020000580349063
 40
1.043992300975161
 40
1.071934345522859
 40
1.113121768772926
 40
1.145225199332251
 40
1.225483775412782
 40
1.329819923771489
 40
1.434156071994379
 40
1.514414647795795
 40
1.546518078208403
 40
1.578974764260176
 40
1.662678849314171
 40
1.77713137366842
 40
1.901833377474839
 40
2.016285900500658
 40
2.099989982528025
 40
2.132446666570384
 40
2.158782354486108
 40
2.216720867907896
 40
2.274659381334321
 40
2.300995069256254
 40
2.333451754066226
 40
2.417155836543935
 40
2.531608358985374
 40
2.656310362283897
 40
2.77076288638903
 40
2.854466971340224
 40
2.88692365736403
 40
2.913597976833464
 40
2.982389642875268
 40
3.076451716947134
 40
3.178937260458752
 40
3.27299933474016
 40
3.341791001059383
 40
3.368465320663696
 40
3.396976080738917
 40
3.472140811846153
 40
3.578408190308843
 40
3.700226892456279
 40
3.822045594634496
 40
3.928312973256603
 40
4.003477705315
 40
4.031988456867066
 40
4.058324144797866
 40
4.116262658237027
 40
4.174201171400823
 40
4.200536849608757
 40
4.200536849608757
 40
4.200536849608757
 40
4.200536849608757
 10
185.9857704961609
 20
15.75844135397706
 30
0.0
 10
185.9938259544679
 20
15.75844359811688
 30
0.0
 10
186.0220200663241
 20
15.75845146032798
 30
0.0
 10
186.0765534803673
 20
15.75830754828373
 30
0.0
 10
186.1482891808604
 20
15.75909120499899
 30
0.0
 10
186.2236240137063
 20
15.75627570463811
 30
0.0
 10
186.2713052366439
 20
15.76298403400958
 30
0.0
 10
186.3195071245617
 20
15.75197563692432
 30
0.0
 10
186.3062571799874
 20
15.80546402997033
 30
0.0
 10
186.3151093964539
 20
15.86049583543092
 30
0.0
 10
186.3108698036286
 20
15.95419908726109
 30
0.0
 10
186.3133483481281
 20
16.04959482218533
 30
0.0
 10
186.3090938706061
 20
16.14356821983387
 30
0.0
 10
186.3179818665847
 20
16.19795062438012
 30
0.0
 10
186.3046977409946
 20
16.2523399769146
 30
0.0
 10
186.351411927711
 20
16.23842216335358
 30
0.0
 10
186.3943254545738
 20
16.24103877374043
 30
0.0
 10
186.4605443456686
 20
16.23648422450755
 30
0.0
 10
186.5013342271799
 20
16.22778162134162
 30
0.0
 10
186.5525145690818
 20
16.23531799890195
 30
0.0
 10
186.5253720487202
 20
16.19349970223282
 30
0.0
 10
186.4803096055706
 20
16.20284992072598
 30
0.0
 10
186.4942065045051
 20
16.13841207371837
 30
0.0
 10
186.4858414431653
 20
16.07378219627399
 30
0.0
 10
186.4903632178398
 20
15.97529141193888
 30
0.0
 10
186.4854741311167
 20
15.87595932842571
 30
0.0
 10
186.4950258992082
 20
15.81293115552969
 30
0.0
 10
186.47997614552
 20
15.7496401149979
 30
0.0
 10
186.5449159457208
 20
15.7651507294427
 30
0.0
 10
186.6116246399497
 20
15.75499387697813
 30
0.0
 10
186.7241435470828
 20
15.75988800099368
 30
0.0
 10
186.8390235448954
 20
15.75691204732785
 30
0.0
 10
186.9519871999748
 20
15.76221664184992
 30
0.0
 10
187.0176267597678
 20
15.7510730647209
 30
0.0
 10
187.0816276691054
 20
15.76744532319858
 30
0.0
 10
187.070314288919
 20
15.71761689905276
 30
0.0
 10
187.077533987151
 20
15.67416715212124
 30
0.0
 10
187.070314261127
 20
15.63071745587446
 30
0.0
 10
187.0816277175995
 20
15.58088895196877
 30
0.0
 10
187.0176263598972
 20
15.59726166091363
 30
0.0
 10
186.951992124046
 20
15.58611271661589
 30
0.0
 10
186.8389974317332
 20
15.59144857206855
 30
0.0
 10
186.7242456548643
 20
15.58834345663822
 30
0.0
 10
186.6113183686861
 20
15.59364894682589
 30
0.0
 10
186.5455220903585
 20
15.58257300019594
 30
0.0
 10
186.4816097975358
 20
15.59887597847619
 30
0.0
 10
186.4936015165126
 20
15.54423524395743
 30
0.0
 10
186.4862104613005
 20
15.48854295047842
 30
0.0
 10
186.4892684841983
 20
15.39649689140571
 30
0.0
 10
186.4893422785683
 20
15.30179109873101
 30
0.0
 10
186.486031357836
 20
15.20952782902265
 30
0.0
 10
186.4939505989904
 20
15.15435768736139
 30
0.0
 10
186.4815076611617
 20
15.10058169100136
 30
0.0
 10
186.5389116551631
 20
15.11453768862781
 30
0.0
 10
186.5994708140383
 20
15.10511457884225
 30
0.0
 10
186.7048680855081
 20
15.10942885928705
 30
0.0
 10
186.8204294070622
 20
15.10835504612031
 30
0.0
 10
186.9359688877797
 20
15.10725965900994
 30
0.0
 10
187.0414181130841
 20
15.11162525770632
 30
0.0
 10
187.1018680471805
 20
15.10209426030671
 30
0.0
 10
187.159283773911
 20
15.11617289606379
 30
0.0
 10
187.1477773876709
 20
15.06707153265683
 30
0.0
 10
187.1537566781749
 20
15.02564658018648
 30
0.0
 10
187.1520311050802
 20
14.97651677966696
 30
0.0
 10
187.1521500122971
 20
14.94854428447608
 30
0.0
 10
187.1521871691833
 20
14.9398028819595
 30
0.0
 11
185.9857704961609
 21
15.75844135397706
 31
0.0
 11
186.0099436128282
 21
15.75844135397706
 31
0.0
 11
186.0703764044963
 21
15.75844135397706
 31
0.0
 11
186.1489390336649
 21
15.75844135397706
 31
0.0
 11
186.2275016628334
 21
15.75844135397706
 31
0.0
 11
186.2879344545015
 21
15.75844135397706
 31
0.0
 11
186.3121075711688
 21
15.75844135397706
 31
0.0
 11
186.3121075711688
 21
15.78541612620064
 31
0.0
 11
186.3121075711688
 21
15.8549826440404
 31
0.0
 11
186.3121075711688
 21
15.95010420924986
 31
0.0
 11
186.3121075711688
 21
16.05374412358256
 31
0.0
 11
186.3121075711688
 21
16.14886568879202
 31
0.0
 11
186.3121075711688
 21
16.21843220663178
 31
0.0
 11
186.3121075711688
 21
16.24540697885536
 31
0.0
 11
186.3360407604893
 21
16.243732131078
 31
0.0
 11
186.3931122119458
 21
16.23973826330121
 31
0.0
 11
186.4612297507811
 21
16.23497138885795
 31
0.0
 11
186.5183012022376
 21
16.23097752108117
 31
0.0
 11
186.5422343915581
 21
16.22930267330381
 31
0.0
 11
186.527497273123
 21
16.20556293372641
 31
0.0
 11
186.4886640249976
 21
16.19183767331312
 31
0.0
 11
186.4886640249976
 21
16.15973424225119
 31
0.0
 11
186.4886640249976
 21
16.07947566459637
 31
0.0
 11
186.4886640249976
 21
15.97513951364509
 31
0.0
 11
186.4886640249976
 21
15.87080336269381
 31
0.0
 11
186.4886640249976
 21
15.79054478503899
 31
0.0
 11
186.4886640249976
 21
15.75844135397706
 31
0.0
 11
186.5211207110824
 21
15.75844135397706
 31
0.0
 11
186.6048247962486
 21
15.75844135397706
 31
0.0
 11
186.7192773208635
 21
15.75844135397706
 31
0.0
 11
186.8439793252946
 21
15.75844135397706
 31
0.0
 11
186.9584318499095
 21
15.75844135397706
 31
0.0
 11
187.0421359350757
 21
15.75844135397706
 31
0.0
 11
187.0745926211605
 21
15.75844135397706
 31
0.0
 11
187.0745926211605
 21
15.73210566604962
 31
0.0
 11
187.0745926211605
 21
15.67416715260926
 31
0.0
 11
187.0745926211605
 21
15.61622863916889
 31
0.0
 11
187.0745926211605
 21
15.58989295124145
 31
0.0
 11
187.0421359350757
 21
15.58989295124145
 31
0.0
 11
186.9584318499095
 21
15.58989295124145
 31
0.0
 11
186.8439793252946
 21
15.58989295124145
 31
0.0
 11
186.7192773208635
 21
15.58989295124145
 31
0.0
 11
186.6048247962486
 21
15.58989295124145
 31
0.0
 11
186.5211207110824
 21
15.58989295124145
 31
0.0
 11
186.4886640249976
 21
15.58989295124145
 31
0.0
 11
186.4886640249976
 21
15.56321863152023
 31
0.0
 11
186.4886640249976
 21
15.49442696487076
 31
0.0
 11
186.4886640249976
 21
15.40036489006435
 31
0.0
 11
186.4886640249976
 21
15.29787934587228
 31
0.0
 11
186.4886640249976
 21
15.20381727106586
 31
0.0
 11
186.4886640249976
 21
15.13502560441639
 31
0.0
 11
186.4886640249976
 21
15.10835128469517
 31
0.0
 11
186.5171747850993
 21
15.10835128469517
 31
0.0
 11
186.5923395162766
 21
15.10835128469517
 31
0.0
 11
186.6986068948376
 21
15.10835128469517
 31
0.0
 11
186.8204255970904
 21
15.10835128469517
 31
0.0
 11
186.9422442993433
 21
15.10835128469517
 31
0.0
 11
187.0485116779043
 21
15.10835128469517
 31
0.0
 11
187.1236764090816
 21
15.10835128469517
 31
0.0
 11
187.1521871691833
 21
15.10835128469517
 31
0.0
 11
187.1521871691833
 21
15.08201559676772
 31
0.0
 11
187.1521871691833
 21
15.02407708332733
 31
0.0
 11
187.1521871691833
 21
14.96613856988695
 31
0.0
 11
187.1521871691833
 21
14.9398028819595
 31
0.0
  0
SPLINE
  5
AA
102
{ACAD_REACTORS
330
C7
102
}
330
48
100
AcDbEntity
  8
_U_30EC_U_30A4_U_30E4_U_30FC_1
  6
Continuous
 62
     2
100
AcDbSpline
210
0.0
220
0.0
230
1.0
 70
     8
 71
     3
 72
    62
 73
    58
 74
    56
 42
0.000000001
 43
0.0000000001
 44
0.00000001
 40
0.0
 40
0.0
 40
0.0
 40
0.0
 40
0.0598250028308485
 40
0.2024846486897047
 40
0.3727558389220178
 40
0.5154154847934933
 40
0.5752404975784202
 40
0.9332326775486095
 40
1.29045176283934
 40
1.602077253145744
 40
1.69993163411202
 40
1.799359756424973
 40
2.270120149656977
 40
2.804661928461464
 40
2.882342287383176
 40
3.076543185719027
 40
3.329004354835487
 40
3.581465524568314
 40
3.775666424543598
 40
3.853346784558218
 40
3.899120679594963
 40
3.984129341791848
 40
4.029903236817196
 40
4.105797496059353
 40
4.295533144152314
 40
4.542189486611559
 40
4.788845828875511
 40
4.978581476409895
 40
5.054475735244139
 40
5.621734664339174
 40
6.130867242037183
 40
6.225249780948459
 40
6.318913039727087
 40
6.663579954558689
 40
7.047498900224479
 40
7.435230791575414
 40
7.498943906667826
 40
7.650875181209763
 40
7.832212509001245
 40
7.984143783696631
 40
8.047856898902758
 40
8.091554632732263
 40
8.172707566963922
 40
8.216405300767644
 40
8.289021782160528
 40
8.462184160756873
 40
8.66886183800504
 40
8.842024215263603
 40
8.914640695474798
 40
8.989881580861006
 40
9.155411528826917
 40
9.320941477743705
 40
9.396182352486958
 40
9.454709011143448
 40
9.583467660170468
 40
9.71222630901269
 40
9.770752957989172
 40
9.770752957989172
 40
9.770752957989172
 40
9.770752957989172
 10
187.1521871691833
 20
14.9398028819595
 30
0.0
 10
187.1322348171623
 20
14.93980875568671
 30
0.0
 10
187.0647037716465
 20
14.93982863806157
 30
0.0
 10
186.9410612161788
 20
14.93949362520326
 30
0.0
 10
186.7863180150057
 20
14.94107673750512
 30
0.0
 10
186.669734948248
 20
14.93686078860495
 30
0.0
 10
186.4550942634241
 20
14.95215205331626
 30
0.0
 10
186.851894840723
 20
14.59198721286193
 30
0.0
 10
186.8945656069268
 20
14.37510503397166
 30
0.0
 10
187.3189162146612
 20
14.19325062511445
 30
0.0
 10
187.1439821496074
 20
14.08985196568071
 30
0.0
 10
187.0194523925083
 20
13.87831523212729
 30
0.0
 10
186.7666277235943
 20
14.34806081001564
 30
0.0
 10
186.4797602893627
 20
14.99511516984523
 30
0.0
 10
186.4906335926659
 20
14.68782672154693
 30
0.0
 10
186.488289277796
 20
14.52288616971778
 30
0.0
 10
186.4861096126411
 20
14.28879670711693
 30
0.0
 10
186.4980774396346
 20
14.04498072421783
 30
0.0
 10
186.468798474063
 20
13.89855796860984
 30
0.0
 10
186.511452262547
 20
13.75113490174538
 30
0.0
 10
186.423981400564
 20
13.76685797306219
 30
0.0
 10
186.3768527606745
 20
13.76694303543454
 30
0.0
 10
186.2898973207714
 20
13.75109425482909
 30
0.0
 10
186.3313474021724
 20
13.89527771422762
 30
0.0
 10
186.3029875004286
 20
14.03855052698455
 30
0.0
 10
186.3145973775301
 20
14.27674947365265
 30
0.0
 10
186.3124175648273
 20
14.50517235240347
 30
0.0
 10
186.3103111127995
 20
14.66705729375995
 30
0.0
 10
186.3208035438323
 20
14.98153709333754
 30
0.0
 10
186.0128963252894
 20
14.29229470872433
 30
0.0
 10
185.7055258267458
 20
13.81476750243062
 30
0.0
 10
185.5851367066274
 20
14.03741112637422
 30
0.0
 10
185.4074607910724
 20
14.15011034955574
 30
0.0
 10
185.8853326362895
 20
14.32548143465457
 30
0.0
 10
185.9353959057207
 20
14.56091929252035
 30
0.0
 10
186.3583799621717
 20
14.95322989344607
 30
0.0
 10
186.127675427354
 20
14.93655307029066
 30
0.0
 10
186.0049685859341
 20
14.94269518948771
 30
0.0
 10
185.8325483095662
 20
14.93312822699573
 30
0.0
 10
185.721322469445
 20
14.95448818489666
 30
0.0
 10
185.6025779627448
 20
14.92136265357419
 30
0.0
 10
185.6183169706687
 20
15.00203900606883
 30
0.0
 10
185.6178550933762
 20
15.04645414290854
 30
0.0
 10
185.6027881889932
 20
15.12967081778533
 30
0.0
 10
185.7372380935444
 20
15.09062651983883
 30
0.0
 10
185.8619755545747
 20
15.11739729328422
 30
0.0
 10
186.0628755237281
 20
15.10063949044051
 30
0.0
 10
186.1921540949354
 20
15.12204225913004
 30
0.0
 10
186.3328419928295
 20
15.0886877885342
 30
0.0
 10
186.2980927452617
 20
15.22651875785068
 30
0.0
 10
186.3222185666713
 20
15.34963257349481
 30
0.0
 10
186.2967086182393
 20
15.47024055670336
 30
0.0
 10
186.3333251146686
 20
15.60539865141494
 30
0.0
 10
186.2211417027771
 20
15.58094545781892
 30
0.0
 10
186.1280356457137
 20
15.59307749842023
 30
0.0
 10
186.0191547579821
 20
15.58957630069995
 30
0.0
 10
185.9569697640965
 20
15.58981755951603
 30
0.0
 10
185.9375369557247
 20
15.58989295124145
 30
0.0
 11
187.1521871691833
 21
14.9398028819595
 31
0.0
 11
187.0923621563982
 21
14.9398028819595
 31
0.0
 11
186.949702510526
 21
14.9398028819595
 31
0.0
 11
186.7794313202914
 21
14.9398028819595
 31
0.0
 11
186.6367716744192
 21
14.9398028819595
 31
0.0
 11
186.5769466616341
 21
14.9398028819595
 31
0.0
 11
186.7679960754843
 21
14.63705127966891
 31
0.0
 11
186.994127278563
 21
14.36051890576685
 31
0.0
 11
187.2244526173372
 21
14.15061253493457
 31
0.0
 11
187.1521596330704
 21
14.08466403668716
 31
0.0
 11
187.0879364402643
 21
14.0087605905256
 31
0.0
 11
186.7732818215559
 21
14.35891458349363
 31
0.0
 11
186.4886640249976
 21
14.81138295143601
 31
0.0
 11
186.4886640249976
 21
14.73370259137313
 31
0.0
 11
186.4886640249976
 21
14.53950169121593
 31
0.0
 11
186.4886640249976
 21
14.28704052101157
 31
0.0
 11
186.4886640249976
 21
14.0345793508072
 31
0.0
 11
186.4886640249976
 21
13.84037845065
 31
0.0
 11
186.4886640249976
 21
13.76269809058712
 31
0.0
 11
186.4428901295605
 21
13.76269809058712
 31
0.0
 11
186.3578814666059
 21
13.76269809058712
 31
0.0
 11
186.3121075711688
 21
13.76269809058712
 31
0.0
 11
186.3121075711688
 21
13.8385923498274
 31
0.0
 11
186.3121075711688
 21
14.02832799792812
 31
0.0
 11
186.3121075711688
 21
14.27498434045904
 31
0.0
 11
186.3121075711688
 21
14.52164068298997
 31
0.0
 11
186.3121075711688
 21
14.71137633109067
 31
0.0
 11
186.3121075711688
 21
14.78727059033096
 31
0.0
 11
185.9987626399267
 21
14.31440946197694
 31
0.0
 11
185.6352328662149
 21
13.95795177109383
 31
0.0
 11
185.5773927461628
 21
14.03253450545023
 31
0.0
 11
185.5094852305342
 21
14.09704322939242
 31
0.0
 11
185.775072189832
 21
14.3167221979589
 31
0.0
 11
186.0233764972061
 21
14.60953395971697
 31
0.0
 11
186.226498280526
 21
14.9398028819595
 31
0.0
 11
186.1627851652721
 21
14.9398028819595
 31
0.0
 11
186.0108538904359
 21
14.9398028819595
 31
0.0
 11
185.8295165624056
 21
14.9398028819595
 31
0.0
 11
185.6775852875694
 21
14.9398028819595
 31
0.0
 11
185.6138721723155
 21
14.9398028819595
 31
0.0
 11
185.6138721723155
 21
14.98350061600208
 31
0.0
 11
185.6138721723155
 21
15.06465355065259
 31
0.0
 11
185.6138721723155
 21
15.10835128469517
 31
0.0
 11
185.6864886537962
 21
15.10835128469517
 31
0.0
 11
185.8596510327119
 21
15.10835128469517
 31
0.0
 11
186.0663287107725
 21
15.10835128469517
 31
0.0
 11
186.2394910896881
 21
15.10835128469517
 31
0.0
 11
186.3121075711688
 21
15.10835128469517
 31
0.0
 11
186.3121075711688
 21
15.18359217009303
 31
0.0
 11
186.3121075711688
 21
15.34912211796831
 31
0.0
 11
186.3121075711688
 21
15.5146520658436
 31
0.0
 11
186.3121075711688
 21
15.58989295124145
 31
0.0
 11
186.2535809125057
 21
15.58989295124145
 31
0.0
 11
186.1248222634468
 21
15.58989295124145
 31
0.0
 11
185.9960636143879
 21
15.58989295124145
 31
0.0
 11
185.9375369557247
 21
15.58989295124145
 31
0.0
  0
SPLINE
  5
AB
102
{ACAD_REACTORS
330
C8
102
}
330
48
100
AcDbEntity
  8
_U_30EC_U_30A4_U_30E4_U_30FC_1
  6
Continuous
 62
     2
100
AcDbSpline
210
0.0
220
0.0
230
1.0
 70
    11
 71
     3
 72
   124
 73
   120
 74
   118
 42
0.000000001
 43
0.0000000001
 44
0.00000001
 40
0.0
 40
0.0
 40
0.0
 40
0.0
 40
0.0278187229624226
 40
0.1011590162383985
 40
0.2048470170589954
 40
0.3237088716558677
 40
0.4425707262521431
 40
0.5462587270698694
 40
0.6195990203311229
 40
0.6474177522577808
 40
0.6750060736114389
 40
0.7357003855241959
 40
0.796394699805371
 40
0.823983024557102
 40
0.8540933811102114
 40
0.9373396629408794
 40
1.063094687343132
 40
1.22073126863797
 40
1.399622220914644
 40
1.589140358637629
 40
1.778658496423738
 40
1.957549448940377
 40
2.115186030872999
 40
2.240941056914303
 40
2.324187341760372
 40
2.354297700109222
 40
2.38188602467173
 40
2.442580338710322
 40
2.503274652750346
 40
2.530862977314457
 40
2.56098394927841
 40
2.640393784452756
 40
2.752662861758979
 40
2.881361560117967
 40
3.010060258455014
 40
3.122329335705218
 40
3.201739170817775
 40
3.231860142753164
 40
3.264298024030219
 40
3.352343701778092
 40
3.482095226868615
 40
3.639650650172872
 40
3.811108022565329
 40
3.982565394927835
 40
4.140120818152416
 40
4.269872343141127
 40
4.357918020802187
 40
4.390355902043816
 40
4.423256253992386
 40
4.508104530072878
 40
4.624121560636646
 40
4.750528176031374
 40
4.86654520660185
 40
4.951393482691807
 40
4.984293834645208
 40
5.011450833242123
 40
5.071196230151908
 40
5.130941627056987
 40
5.158098625648651
 40
5.190998977601313
 40
5.275847253689139
 40
5.391864284256601
 40
5.518270899648118
 40
5.634287930209129
 40
5.719136206287803
 40
5.752036558235718
 40
5.782130946282744
 40
5.862783906228919
 40
5.979550131774785
 40
6.117984316640192
 40
6.263641154587737
 40
6.402075339413943
 40
6.518841564907738
 40
6.599494524815319
 40
6.629588912848557
 40
6.654403028226133
 40
6.7135751494879
 40
6.784199939329246
 40
6.843372060493348
 40
6.868186175802565
 40
6.896246243201675
 40
6.939586233758018
 40
6.967846564564645
 40
7.043584251089584
 40
7.153234334451442
 40
7.283231855734192
 40
7.420011856035226
 40
7.550009376579577
 40
7.659659458834977
 40
7.73539714441697
 40
7.763657474851142
 40
7.796409728010799
 40
7.880876065096073
 40
7.996370852465459
 40
8.122208446418353
 40
8.237703224798947
 40
8.32216956201067
 40
8.354921815205655
 40
8.382078813307436
 40
8.441824209206741
 40
8.501569605239892
 40
8.52872660348547
 40
8.56147885669549
 40
8.645945193877541
 40
8.761439980865081
 40
8.887277580764223
 40
9.002772362000744
 40
9.087238696660936
 40
9.119990949235419
 40
9.152428830613118
 40
9.240474508638334
 40
9.370226034149283
 40
9.527781457984165
 40
9.699238830981155
 40
9.870696203978344
 40
10.02825162781376
 40
10.15800315332538
 40
10.24604883135093
 40
10.27848670378496
 40
10.27848670378496
 40
10.27848670378496
 40
10.27848670378496
 10
195.3821827564384
 20
14.01410517385757
 30
0.0
 10
195.3914554737524
 20
14.01410498511274
 30
0.0
 10
195.4251744536861
 20
14.01410430876714
 30
0.0
 10
195.4934706812466
 20
14.01411807243305
 30
0.0
 10
195.592014171158
 20
14.01403224219544
 30
0.0
 10
195.7062066464812
 20
14.01441755612251
 30
0.0
 10
195.8185894417071
 20
14.01300835897545
 30
0.0
 10
195.9214376600119
 20
14.01719117422243
 30
0.0
 10
195.9806839874849
 20
14.00823089251983
 30
0.0
 10
196.0371265937032
 20
14.0216443452606
 30
0.0
 10
196.0246255586955
 20
13.97087198613361
 30
0.0
 10
196.0329549635703
 20
13.92589320939066
 30
0.0
 10
196.024817084112
 20
13.88056752990488
 30
0.0
 10
196.0370529214456
 20
13.82931932408465
 30
0.0
 10
195.9747773490334
 20
13.84447955365275
 30
0.0
 10
195.9060513026868
 20
13.83359750710742
 30
0.0
 10
195.7782756749591
 20
13.83911304747971
 30
0.0
 10
195.6262984511644
 20
13.83700851253698
 30
0.0
 10
195.4502695972523
 20
13.83771002588472
 30
0.0
 10
195.2644431934287
 20
13.83745237531291
 30
0.0
 10
195.0786167437176
 20
13.83771005144602
 30
0.0
 10
194.9025880142169
 20
13.8370084184773
 30
0.0
 10
194.7506104154195
 20
13.83911332229988
 30
0.0
 10
194.6228357664555
 20
13.83359680767639
 30
0.0
 10
194.5541077836582
 20
13.84448077125942
 30
0.0
 10
194.4918349042884
 20
13.82931786684208
 30
0.0
 10
194.5040616290019
 20
13.88057510805171
 30
0.0
 10
194.4960004462597
 20
13.92582473272424
 30
0.0
 10
194.5040675809893
 20
13.97106357955323
 30
0.0
 10
194.4918238487084
 20
14.02234176909958
 30
0.0
 10
194.5525017120699
 20
14.00749577363135
 30
0.0
 10
194.6162810745737
 20
14.01756448170735
 30
0.0
 10
194.7277314353503
 20
14.01294644212
 30
0.0
 10
194.8497533443824
 20
14.01413328905469
 30
0.0
 10
194.9719538137824
 20
14.01515863900635
 30
0.0
 10
195.0829794287392
 20
14.01092475623402
 30
0.0
 10
195.1476517413959
 20
14.02018584521739
 30
0.0
 10
195.2091162810502
 20
14.00604423049682
 30
0.0
 10
195.1930065601337
 20
14.07235527884516
 30
0.0
 10
195.204298032736
 20
14.14447790121976
 30
0.0
 10
195.1987400822561
 20
14.27513760888286
 30
0.0
 10
195.2008035061691
 20
14.42607323708241
 30
0.0
 10
195.2000167127295
 20
14.59335873107886
 30
0.0
 10
195.2007845215628
 20
14.76061110332302
 30
0.0
 10
195.198803878563
 20
14.91163289269914
 30
0.0
 10
195.2041306156621
 20
15.04206069552994
 30
0.0
 10
195.1933101388426
 20
15.11465442605899
 30
0.0
 10
195.2090326429876
 20
15.18150469436798
 30
0.0
 10
195.1432708132492
 20
15.16580512490825
 30
0.0
 10
195.0756367830764
 20
15.17609243083995
 30
0.0
 10
194.9615885293811
 20
15.17113786847122
 30
0.0
 10
194.8451242674903
 20
15.17414128030475
 30
0.0
 10
194.7306554121478
 20
15.16880303143389
 30
0.0
 10
194.6640324657813
 20
15.18001268074824
 30
0.0
 10
194.5990769715186
 20
15.16349132665011
 30
0.0
 10
194.610798975871
 20
15.21473720477059
 30
0.0
 10
194.6032830189121
 20
15.2595033378409
 30
0.0
 10
194.6107989878837
 20
15.30426944897961
 30
0.0
 10
194.5990769505347
 20
15.3555153612974
 30
0.0
 10
194.6640326339201
 20
15.33899381766816
 30
0.0
 10
194.7306533339821
 20
15.35020571373943
 30
0.0
 10
194.8451352858065
 20
15.34485436710665
 30
0.0
 10
194.9615454436963
 20
15.34791188771117
 30
0.0
 10
195.0757660174641
 20
15.34278499010708
 30
0.0
 10
195.1430150439228
 20
15.35345733355599
 30
0.0
 10
195.2083325941439
 20
15.33742082669076
 30
0.0
 10
195.1941391448553
 20
15.39949685750054
 30
0.0
 10
195.2036059462996
 20
15.46586761628762
 30
0.0
 10
195.1990269004085
 20
15.58239972741966
 30
0.0
 10
195.2007696555949
 20
15.71426685022376
 30
0.0
 10
195.1997551495392
 20
15.85615960150273
 30
0.0
 10
195.2017191344372
 20
15.9876905070258
 30
0.0
 10
195.1964668553852
 20
16.10524577283002
 30
0.0
 10
195.2073408763474
 20
16.16947789001584
 30
0.0
 10
195.1919536641855
 20
16.23108802545047
 30
0.0
 10
195.2407591537801
 20
16.21702407382111
 30
0.0
 10
195.2853995564727
 20
16.21954742075314
 30
0.0
 10
195.3538643946744
 20
16.21512797401709
 30
0.0
 10
195.3959106169103
 20
16.20613025544036
 30
0.0
 10
195.4487544758776
 20
16.21411714866509
 30
0.0
 10
195.4207035002014
 20
16.17113917611677
 30
0.0
 10
195.3749142248595
 20
16.18259552043835
 30
0.0
 10
195.3869539073265
 20
16.12173520005137
 30
0.0
 10
195.3796086070643
 20
16.05769299468773
 30
0.0
 10
195.3831195826162
 20
15.94909368863911
 30
0.0
 10
195.3819806760175
 20
15.82494319144753
 30
0.0
 10
195.3819174780263
 20
15.69189719829878
 30
0.0
 10
195.3832872966868
 20
15.56797381249555
 30
0.0
 10
195.3791638801314
 20
15.45868337849339
 30
0.0
 10
195.3877763103565
 20
15.3960858009417
 30
0.0
 10
195.3746757454402
 20
15.33740133296365
 30
0.0
 10
195.4393884328199
 20
15.35362113810902
 30
0.0
 10
195.5060405953157
 20
15.34270260383311
 30
0.0
 10
195.6198779541103
 20
15.34793740173756
 30
0.0
 10
195.7357259122097
 20
15.34485547516913
 30
0.0
 10
195.8496924263281
 20
15.35018259812513
 30
0.0
 10
195.9160341018099
 20
15.33904208166542
 30
0.0
 10
195.9807188525481
 20
15.35546979593177
 30
0.0
 10
195.9689820772723
 20
15.3042592521005
 30
0.0
 10
195.9765168063042
 20
15.25950334121001
 30
0.0
 10
195.9689820992259
 20
15.21474739010027
 30
0.0
 10
195.9807188140737
 20
15.16353690871041
 30
0.0
 10
195.9160344075253
 20
15.1799642779422
 30
0.0
 10
195.8496886430826
 20
15.1688278444727
 30
0.0
 10
195.7357459487013
 20
15.1741311589312
 30
0.0
 10
195.6197995623055
 20
15.17114764593544
 30
0.0
 10
195.5062756882124
 20
15.17606892268393
 30
0.0
 10
195.4389231318805
 20
15.1658508751352
 30
0.0
 10
195.3734285122496
 20
15.18145996138816
 30
0.0
 10
195.3891713619218
 20
15.11463851827411
 30
0.0
 10
195.3783275998215
 20
15.04207057815878
 30
0.0
 10
195.3836581629792
 20
14.91162247614416
 30
0.0
 10
195.3817136151857
 20
14.76064558185226
 30
0.0
 10
195.3823133683214
 20
14.59322243934158
 30
0.0
 10
195.3821506559606
 20
14.42656176118371
 30
0.0
 10
195.3821895488135
 20
14.27360142921636
 30
0.0
 10
195.38218164131
 20
14.14849178985705
 30
0.0
 10
195.3821828382745
 20
14.0650789099142
 30
0.0
 10
195.3821827716209
 20
14.02491778281976
 30
0.0
 10
195.3821827564384
 20
14.01410517385757
 30
0.0
 11
195.3821827564384
 21
14.01410517385757
 31
0.0
 11
195.4100014883675
 21
14.01410517385757
 31
0.0
 11
195.4833417816353
 21
14.01410517385757
 31
0.0
 11
195.5870297824623
 21
14.01410517385757
 31
0.0
 11
195.7058916370687
 21
14.01410517385757
 31
0.0
 11
195.8247534916752
 21
14.01410517385757
 31
0.0
 11
195.928441492502
 21
14.01410517385757
 31
0.0
 11
196.0017817857699
 21
14.01410517385757
 31
0.0
 11
196.029600517699
 21
14.01410517385757
 31
0.0
 11
196.029600517699
 21
13.98651684921169
 31
0.0
 11
196.029600517699
 21
13.92582253499076
 31
0.0
 11
196.029600517699
 21
13.86512822076984
 31
0.0
 11
196.029600517699
 21
13.83753989612396
 31
0.0
 11
195.9994901593494
 21
13.83753989612396
 31
0.0
 11
195.9162438745004
 21
13.83753989612396
 31
0.0
 11
195.7904888484521
 21
13.83753989612396
 31
0.0
 11
195.6328522665042
 21
13.83753989612396
 31
0.0
 11
195.4539613139565
 21
13.83753989612396
 31
0.0
 11
195.2644431761089
 21
13.83753989612396
 31
0.0
 11
195.0749250382613
 21
13.83753989612396
 31
0.0
 11
194.8960340857137
 21
13.83753989612396
 31
0.0
 11
194.7383975037657
 21
13.83753989612396
 31
0.0
 11
194.6126424777173
 21
13.83753989612396
 31
0.0
 11
194.5293961928684
 21
13.83753989612396
 31
0.0
 11
194.4992858345188
 21
13.83753989612396
 31
0.0
 11
194.4992858345188
 21
13.86512822076984
 31
0.0
 11
194.4992858345188
 21
13.92582253499077
 31
0.0
 11
194.4992858345188
 21
13.98651684921169
 31
0.0
 11
194.4992858345188
 21
14.01410517385757
 31
0.0
 11
194.5294068064948
 21
14.01410517385757
 31
0.0
 11
194.6088166417041
 21
14.01410517385757
 31
0.0
 11
194.7210857190691
 21
14.01410517385757
 31
0.0
 11
194.8497844175118
 21
14.01410517385757
 31
0.0
 11
194.9784831159546
 21
14.01410517385757
 31
0.0
 11
195.0907521933196
 21
14.01410517385757
 31
0.0
 11
195.1701620285289
 21
14.01410517385757
 31
0.0
 11
195.2002830005049
 21
14.01410517385757
 31
0.0
 11
195.2002830005049
 21
14.04654305523835
 31
0.0
 11
195.2002830005049
 21
14.1345887332719
 31
0.0
 11
195.2002830005049
 21
14.26434025879503
 31
0.0
 11
195.2002830005049
 21
14.42189568264454
 31
0.0
 11
195.2002830005049
 21
14.59335305565724
 31
0.0
 11
195.2002830005049
 21
14.76481042866994
 31
0.0
 11
195.2002830005049
 21
14.92236585251944
 31
0.0
 11
195.2002830005049
 21
15.05211737804257
 31
0.0
 11
195.2002830005049
 21
15.14016305607612
 31
0.0
 11
195.2002830005049
 21
15.1726009374569
 31
0.0
 11
195.1673826485529
 21
15.1726009374569
 31
0.0
 11
195.0825343724663
 21
15.1726009374569
 31
0.0
 11
194.9665173418989
 21
15.1726009374569
 31
0.0
 11
194.8401107265045
 21
15.1726009374569
 31
0.0
 11
194.7240936959371
 21
15.1726009374569
 31
0.0
 11
194.6392454198505
 21
15.1726009374569
 31
0.0
 11
194.6063450678985
 21
15.1726009374569
 31
0.0
 11
194.6063450678985
 21
15.19975793614802
 31
0.0
 11
194.6063450678985
 21
15.2595033332685
 31
0.0
 11
194.6063450678985
 21
15.31924873038898
 31
0.0
 11
194.6063450678985
 21
15.3464057290801
 31
0.0
 11
194.6392454198505
 21
15.3464057290801
 31
0.0
 11
194.7240936959371
 21
15.3464057290801
 31
0.0
 11
194.8401107265045
 21
15.3464057290801
 31
0.0
 11
194.9665173418989
 21
15.3464057290801
 31
0.0
 11
195.0825343724663
 21
15.3464057290801
 31
0.0
 11
195.1673826485529
 21
15.3464057290801
 31
0.0
 11
195.2002830005049
 21
15.3464057290801
 31
0.0
 11
195.2002830005049
 21
15.3765001173137
 31
0.0
 11
195.2002830005049
 21
15.45715307777974
 31
0.0
 11
195.2002830005049
 21
15.57391930412609
 31
0.0
 11
195.2002830005049
 21
15.71235349000063
 31
0.0
 11
195.2002830005049
 21
15.85801032905124
 31
0.0
 11
195.2002830005049
 21
15.99644451492578
 31
0.0
 11
195.2002830005049
 21
16.11321074127214
 31
0.0
 11
195.2002830005049
 21
16.19386370173817
 31
0.0
 11
195.2002830005049
 21
16.22395808997177
 31
0.0
 11
195.2250405288619
 21
16.22228324219442
 31
0.0
 11
195.284077711867
 21
16.21828937441765
 31
0.0
 11
195.3545414464215
 21
16.21352249997441
 31
0.0
 11
195.4135786294266
 21
16.20952863219765
 31
0.0
 11
195.4383361577836
 21
16.20785378442029
 31
0.0
 11
195.4233067224031
 21
16.1841581420651
 31
0.0
 11
195.3821827564384
 21
16.17047697887404
 31
0.0
 11
195.3821827564384
 21
16.14221664794832
 31
0.0
 11
195.3821827564384
 21
16.0664789610674
 31
0.0
 11
195.3821827564384
 21
15.95682887707561
 31
0.0
 11
195.3821827564384
 21
15.82683135481731
 31
0.0
 11
195.3821827564384
 21
15.69005135313683
 31
0.0
 11
195.3821827564384
 21
15.56005383087853
 31
0.0
 11
195.3821827564384
 21
15.45040374688674
 31
0.0
 11
195.3821827564384
 21
15.37466606000582
 31
0.0
 11
195.3821827564384
 21
15.3464057290801
 31
0.0
 11
195.4149350096116
 21
15.3464057290801
 31
0.0
 11
195.4994013467423
 21
15.3464057290801
 31
0.0
 11
195.6148961342477
 21
15.3464057290801
 31
0.0
 11
195.7407337385446
 21
15.3464057290801
 31
0.0
 11
195.8562285260499
 21
15.3464057290801
 31
0.0
 11
195.9406948631807
 21
15.3464057290801
 31
0.0
 11
195.9734471163539
 21
15.3464057290801
 31
0.0
 11
195.9734471163539
 21
15.31924873038898
 31
0.0
 11
195.9734471163539
 21
15.2595033332685
 31
0.0
 11
195.9734471163539
 21
15.19975793614802
 31
0.0
 11
195.9734471163539
 21
15.1726009374569
 31
0.0
 11
195.9406948631807
 21
15.1726009374569
 31
0.0
 11
195.85622852605
 21
15.1726009374569
 31
0.0
 11
195.7407337385446
 21
15.1726009374569
 31
0.0
 11
195.6148961342477
 21
15.1726009374569
 31
0.0
 11
195.4994013467423
 21
15.1726009374569
 31
0.0
 11
195.4149350096116
 21
15.1726009374569
 31
0.0
 11
195.3821827564384
 21
15.1726009374569
 31
0.0
 11
195.3821827564384
 21
15.14016305607612
 31
0.0
 11
195.3821827564384
 21
15.05211737804257
 31
0.0
 11
195.3821827564384
 21
14.92236585251945
 31
0.0
 11
195.3821827564384
 21
14.76481042866994
 31
0.0
 11
195.3821827564384
 21
14.59335305565724
 31
0.0
 11
195.3821827564384
 21
14.42189568264453
 31
0.0
 11
195.3821827564384
 21
14.26434025879503
 31
0.0
 11
195.3821827564384
 21
14.1345887332719
 31
0.0
 11
195.3821827564384
 21
14.04654305523835
 31
0.0
 11
195.3821827564384
 21
14.01410517385757
 31
0.0
  0
SPLINE
  5
AC
102
{ACAD_REACTORS
330
C9
102
}
330
48
100
AcDbEntity
  8
_U_30EC_U_30A4_U_30E4_U_30FC_1
  6
Continuous
 62
     2
100
AcDbSpline
210
0.0
220
0.0
230
1.0
 70
    11
 71
     3
 72
   131
 73
   127
 74
   125
 42
0.000000001
 43
0.0000000001
 44
0.00000001
 40
0.0
 40
0.0
 40
0.0
 40
0.0
 40
0.0195577029825939
 40
0.0426490537460536
 40
0.2863607575855535
 40
0.5344948436188662
 40
0.7842238845572898
 40
0.8737315789467063
 40
0.9803832810312791
 40
1.092842274517025
 40
1.199761146656808
 40
1.289788768186535
 40
1.351573580786248
 40
1.370727117561492
 40
1.416400936017908
 40
1.470914848356035
 40
1.516588666791826
 40
1.535742203552908
 40
1.634216592293298
 40
1.760283341175155
 40
1.897966686682239
 40
2.031216387369065
 40
2.049689751138059
 40
2.101115601646993
 40
2.179502577740111
 40
2.278859318314225
 40
2.393194462258881
 40
2.516516648383992
 40
2.64283451540612
 40
2.766156701983623
 40
2.880491846754734
 40
2.979848588358775
 40
3.058235565443952
 40
3.109661416669107
 40
3.128134780704282
 40
3.146783742386599
 40
3.191254343315431
 40
3.244332157316034
 40
3.288802758225909
 40
3.30745171989518
 40
3.327717853844792
 40
3.383747753580152
 40
3.468388665924543
 40
3.57448783769885
 40
3.694892515728955
 40
3.822449946852092
 40
3.950007377920483
 40
4.070412055800574
 40
4.176511227368128
 40
4.261152139501576
 40
4.317182039076767
 40
4.337448172964688
 40
4.620011002696284
 40
4.885096638397553
 40
4.94537304351837
 40
5.014107710488726
 40
5.070481727652069
 40
5.319246955636547
 40
5.58481216450604
 40
5.859000912056911
 40
6.133746937542043
 40
6.401732212968831
 40
6.420736683995422
 40
6.472845717451072
 40
6.550702743894
 40
6.646951193874209
 40
6.754234497930533
 40
6.865196086587311
 40
6.972479390357769
 40
7.068727839771931
 40
7.14658486545094
 40
7.19869389818917
 40
7.21769836890531
 40
7.234950401630789
 40
7.276089864269837
 40
7.325191803515947
 40
7.366331266090336
 40
7.38358329876969
 40
7.402779163492095
 40
7.453386443254498
 40
7.524934666445528
 40
7.606953361405868
 40
7.688972056429048
 40
7.760520279784298
 40
7.811127559734569
 40
7.83032342454619
 40
7.847844055299818
 40
7.894799345666861
 40
7.962779392744547
 40
8.043374293560591
 40
8.128174145149497
 40
8.208769044817299
 40
8.276749090376999
 40
8.323704379669557
 40
8.341225010056291
 40
8.35849761480044
 40
8.401679126686616
 40
8.457815092185674
 40
8.513951057728079
 40
8.557132569707978
 40
8.57440517450502
 40
8.602340668616364
 40
8.643455660539933
 40
8.663225271966601
 40
8.715345156564245
 40
8.78903188962858
 40
8.873502045520308
 40
8.957972194323931
 40
9.03165892556782
 40
9.083778811234508
 40
9.103548423002971
 40
9.119550083123508
 40
9.16081752237981
 40
9.217244429110176
 40
9.278724491644661
 40
9.335151398295446
 40
9.376418837357742
 40
9.39242049730053
 40
9.401196302734748
 40
9.417494229384221
 40
9.426270027749492
 40
9.440875075477525
 40
9.475702496998705
 40
9.517270709865869
 40
9.552098131994038
 40
9.566703169884246
 40
9.566703169884246
 40
9.566703169884246
 40
9.566703169884246
 10
194.6170254148479
 20
15.67015871511027
 30
0.0
 10
194.6134345093371
 20
15.66453690702159
 30
0.0
 10
194.6056039123625
 20
15.65227754419114
 30
0.0
 10
194.512996897455
 20
15.61601916040953
 30
0.0
 10
194.4887622233248
 20
15.40148444212718
 30
0.0
 10
194.3858709845939
 20
15.22197284509707
 30
0.0
 10
194.1220492364305
 20
15.03615573798147
 30
0.0
 10
194.284547156918
 20
14.9595933656608
 30
0.0
 10
194.3607225760839
 20
14.89856693195444
 30
0.0
 10
194.4492171072759
 20
14.83515804544759
 30
0.0
 10
194.538993023311
 20
14.77525634219561
 30
0.0
 10
194.5883817636047
 20
14.72102154849208
 30
0.0
 10
194.6745708157383
 20
14.69286240541833
 30
0.0
 10
194.641126067423
 20
14.65713309652814
 30
0.0
 10
194.6214671166311
 20
14.62550387991906
 30
0.0
 10
194.5919888217884
 20
14.58475872796069
 30
0.0
 10
194.5688989446032
 20
14.55504663489643
 30
0.0
 10
194.5380205968358
 20
14.50211422668493
 30
0.0
 10
194.472919336574
 20
14.627403349389
 30
0.0
 10
194.3796000122416
 20
14.68213900233934
 30
0.0
 10
194.2950636285138
 20
14.73916423939341
 30
0.0
 10
194.1722498125742
 20
14.89675287427523
 30
0.0
 10
194.1764450847301
 20
14.82035806766837
 30
0.0
 10
194.1751478652677
 20
14.77361280161295
 30
0.0
 10
194.1758126448076
 20
14.69584785812601
 30
0.0
 10
194.1755549986957
 20
14.59902068324423
 30
0.0
 10
194.1756431239921
 20
14.48650279078809
 30
0.0
 10
194.1756077302281
 20
14.365240859457
 30
0.0
 10
194.1756511758279
 20
14.24086897858962
 30
0.0
 10
194.1755199942405
 20
14.11967683631336
 30
0.0
 10
194.1759477562046
 20
14.00691148919744
 30
0.0
 10
194.174667820231
 20
13.91082913768745
 30
0.0
 10
194.1779759851044
 20
13.83113826468701
 30
0.0
 10
194.1715197740086
 20
13.78815175788785
 30
0.0
 10
194.1806208705556
 20
13.74955432372043
 30
0.0
 10
194.1447910339935
 20
13.75810887724071
 30
0.0
 10
194.1115223815253
 20
13.75342519985448
 30
0.0
 10
194.0604562576041
 20
13.75351298759785
 30
0.0
 10
194.0269723972814
 20
13.75794430283822
 30
0.0
 10
193.9907585408754
 20
13.7496079384251
 30
0.0
 10
194.0009782568666
 20
13.79145277179285
 30
0.0
 10
193.9936487887774
 20
13.83778560820175
 30
0.0
 10
193.9973633136103
 20
13.92374831106015
 30
0.0
 10
193.9959480554897
 20
14.0260514270485
 30
0.0
 10
193.9964105554639
 20
14.14453223931513
 30
0.0
 10
193.9962773686231
 20
14.26957683153357
 30
0.0
 10
193.9963015910045
 20
14.39475828107051
 30
0.0
 10
193.9963354925553
 20
14.51286645379059
 30
0.0
 10
193.9962060293132
 20
14.61628748709517
 30
0.0
 10
193.9965507549082
 20
14.69932036153667
 30
0.0
 10
193.9958698278691
 20
14.75143368521244
 30
0.0
 10
193.9994586600623
 20
14.8791290782136
 30
0.0
 10
193.7826171386438
 20
14.5804871681962
 30
0.0
 10
193.6021354921953
 20
14.35263981511513
 30
0.0
 10
193.5490322295612
 20
14.49373443289817
 30
0.0
 10
193.5200429133149
 20
14.54325767560938
 30
0.0
 10
193.4196648062822
 20
14.64641779790114
 30
0.0
 10
193.7405127723262
 20
14.72695035023778
 30
0.0
 10
193.8689897005431
 20
14.91066283036436
 30
0.0
 10
194.090645432536
 20
15.11931995771758
 30
0.0
 10
194.1770224894069
 20
15.29339211228346
 30
0.0
 10
194.4549394229074
 20
15.56967051342512
 30
0.0
 10
194.3346247839284
 20
15.56534559551114
 30
0.0
 10
194.2863197351348
 20
15.56614856202552
 30
0.0
 10
194.2102377454905
 20
15.56574582146584
 30
0.0
 10
194.116701000975
 20
15.56590275611609
 30
0.0
 10
194.0117594788557
 20
15.56582502576224
 30
0.0
 10
193.9033887738717
 20
15.56595464378554
 30
0.0
 10
193.7981454235897
 20
15.56554393490692
 30
0.0
 10
193.7056237819412
 20
15.56682073671591
 30
0.0
 10
193.6268130800708
 20
15.5634076653485
 30
0.0
 10
193.5839674565379
 20
15.5702335003632
 30
0.0
 10
193.5449499586515
 20
15.56065064201123
 30
0.0
 10
193.5526365271863
 20
15.59420779565542
 30
0.0
 10
193.5485464404312
 20
15.62523550322233
 30
0.0
 10
193.5485531368814
 20
15.672365292709
 30
0.0
 10
193.5526239724912
 20
15.70340941646779
 30
0.0
 10
193.5449495574582
 20
15.73701861635903
 30
0.0
 10
193.5834819405495
 20
15.72748410420873
 30
0.0
 10
193.624122801448
 20
15.73397435498071
 30
0.0
 10
193.6951471850463
 20
15.73100150650255
 30
0.0
 10
193.7729318149634
 20
15.73174761399158
 30
0.0
 10
193.8507292246474
 20
15.73247814044526
 30
0.0
 10
193.9217232089908
 20
15.72954235514161
 30
0.0
 10
193.9624279791821
 20
15.73595468772953
 30
0.0
 10
194.000985348991
 20
15.72650524176004
 30
0.0
 10
193.9927342754929
 20
15.76264692158785
 30
0.0
 10
193.9982346669358
 20
15.80129837613228
 30
0.0
 10
193.9955754206164
 20
15.86913528561839
 30
0.0
 10
193.9965815471534
 20
15.9459164153874
 30
0.0
 10
193.996017801832
 20
16.02849393582758
 30
0.0
 10
193.9970714526594
 20
16.10517329229878
 30
0.0
 10
193.994267586313
 20
16.173319907767
 30
0.0
 10
194.0000702721305
 20
16.21132399809346
 30
0.0
 10
193.991565455116
 20
16.24758448077646
 30
0.0
 10
194.0255610233125
 20
16.23755723771853
 30
0.0
 10
194.0594575683099
 20
16.24073266813706
 30
0.0
 10
194.1126669060347
 20
16.2350896564061
 30
0.0
 10
194.1660768574483
 20
16.23434774436425
 30
0.0
 10
194.199591464949
 20
16.2281922348298
 30
0.0
 10
194.2388086183039
 20
16.23346029773593
 30
0.0
 10
194.2120263698492
 20
16.19253380793488
 30
0.0
 10
194.1708111001724
 20
16.20371204538112
 30
0.0
 10
194.1782641540873
 20
16.15867056192124
 30
0.0
 10
194.1742227952184
 20
16.11412278028144
 30
0.0
 10
194.1761714049641
 20
16.04223572621704
 30
0.0
 10
194.1752364849758
 20
15.96168630588771
 30
0.0
 10
194.176510719003
 20
15.88173995404995
 30
0.0
 10
194.1732043793863
 20
15.80841837083183
 30
0.0
 10
194.1802106179962
 20
15.7668864300257
 30
0.0
 10
194.1701440380125
 20
15.72752418568113
 30
0.0
 10
194.2029814803921
 20
15.73468063430982
 30
0.0
 10
194.236457729648
 20
15.73027243137945
 30
0.0
 10
194.2915053476019
 20
15.73217943347898
 30
0.0
 10
194.3489502595314
 20
15.73185366407289
 30
0.0
 10
194.4023026248309
 20
15.73106308733083
 30
0.0
 10
194.4398540896638
 20
15.73313959118074
 30
0.0
 10
194.4623172523237
 20
15.7302233816711
 30
0.0
 10
194.4751678073731
 20
15.73572552644056
 30
0.0
 10
194.4858255685889
 20
15.73801118197791
 30
0.0
 10
194.4986635650143
 20
15.74494972588052
 30
0.0
 10
194.514599103307
 20
15.72853046313672
 30
0.0
 10
194.5410623920892
 20
15.71709122319448
 30
0.0
 10
194.5726805253757
 20
15.6964468783519
 30
0.0
 10
194.5987255892151
 20
15.68116869628294
 30
0.0
 10
194.6128517723973
 20
15.67266976323183
 30
0.0
 10
194.6170254148479
 20
15.67015871511027
 30
0.0
 11
194.6170254148479
 21
15.67015871511027
 31
0.0
 11
194.6049990002244
 21
15.65473571164188
 31
0.0
 11
194.5848961795566
 21
15.64337406233917
 31
0.0
 11
194.4778986355815
 21
15.42440620231159
 31
0.0
 11
194.3477039934325
 21
15.21317201512161
 31
0.0
 11
194.1996540366071
 21
15.01206059027479
 31
0.0
 11
194.2734958253735
 21
14.96147384935379
 31
0.0
 11
194.36056643118
 21
14.89988411653739
 31
0.0
 11
194.4518003750405
 21
14.83413160594426
 31
0.0
 11
194.5381321779688
 21
14.77105653169305
 31
0.0
 11
194.6104963609788
 21
14.71749910790242
 31
0.0
 11
194.6598274450844
 21
14.68029954869105
 31
0.0
 11
194.6486940702214
 21
14.66471410869495
 31
0.0
 11
194.6221452532404
 21
14.62754882870424
 31
0.0
 11
194.5904579555534
 21
14.58319026871533
 31
0.0
 11
194.5639091385724
 21
14.54602498872462
 31
0.0
 11
194.5527757637094
 21
14.53043954872852
 31
0.0
 11
194.4807013362948
 21
14.59754008690617
 31
0.0
 11
194.3852856985381
 21
14.67993354174669
 31
0.0
 11
194.279326415217
 21
14.76785017366916
 31
0.0
 11
194.175621051109
 21
14.85152024309267
 31
0.0
 11
194.175621051109
 21
14.83304687900863
 31
0.0
 11
194.175621051109
 21
14.78162102763955
 31
0.0
 11
194.175621051109
 21
14.70323405030999
 31
0.0
 11
194.175621051109
 21
14.60387730834449
 31
0.0
 11
194.175621051109
 21
14.48954216306761
 31
0.0
 11
194.175621051109
 21
14.3662199758039
 31
0.0
 11
194.175621051109
 21
14.23990210787791
 31
0.0
 11
194.175621051109
 21
14.11657992061419
 31
0.0
 11
194.175621051109
 21
14.00224477533731
 31
0.0
 11
194.175621051109
 21
13.90288803337181
 31
0.0
 11
194.175621051109
 21
13.82450105604224
 31
0.0
 11
194.175621051109
 21
13.77307520467317
 31
0.0
 11
194.175621051109
 21
13.75460184058913
 31
0.0
 11
194.1569720893626
 21
13.75460184058913
 31
0.0
 11
194.112501488275
 21
13.75460184058913
 31
0.0
 11
194.0594236740737
 21
13.75460184058913
 31
0.0
 11
194.014953072986
 21
13.75460184058913
 31
0.0
 11
193.9963041112396
 21
13.75460184058913
 31
0.0
 11
193.9963041112396
 21
13.7748679746022
 31
0.0
 11
193.9963041112396
 21
13.83089787452067
 31
0.0
 11
193.9963041112396
 21
13.91553878716348
 31
0.0
 11
193.9963041112396
 21
14.02163795934954
 31
0.0
 11
193.9963041112396
 21
14.14204263789776
 31
0.0
 11
193.9963041112396
 21
14.26960006962706
 31
0.0
 11
193.9963041112396
 21
14.39715750135637
 31
0.0
 11
193.9963041112396
 21
14.51756217990459
 31
0.0
 11
193.9963041112396
 21
14.62366135209064
 31
0.0
 11
193.9963041112396
 21
14.70830226473345
 31
0.0
 11
193.9963041112396
 21
14.76433216465193
 31
0.0
 11
193.9963041112396
 21
14.784598298665
 31
0.0
 11
193.7883272849482
 21
14.59331998274057
 31
0.0
 11
193.5763486358426
 21
14.43414885430811
 31
0.0
 11
193.5495629014484
 21
14.48814671952095
 31
0.0
 11
193.5138765415024
 21
14.54689140572026
 31
0.0
 11
193.4799697494125
 21
14.59192871537976
 31
0.0
 11
193.6830287742319
 21
14.73563387201053
 31
0.0
 11
193.8818531958261
 21
14.91168423529988
 31
0.0
 11
194.0677041444179
 21
15.1132751452495
 31
0.0
 11
194.2318427502303
 21
15.33360194186109
 31
0.0
 11
194.3655301434864
 21
15.56585996513635
 31
0.0
 11
194.3465256724482
 21
15.56585996513635
 31
0.0
 11
194.2944166389562
 21
15.56585996513635
 31
0.0
 11
194.2165596124447
 21
15.56585996513635
 31
0.0
 11
194.1203111623478
 21
15.56585996513635
 31
0.0
 11
194.0130278580997
 21
15.56585996513635
 31
0.0
 11
193.9020662691345
 21
15.56585996513635
 31
0.0
 11
193.7947829648864
 21
15.56585996513635
 31
0.0
 11
193.6985345147895
 21
15.56585996513635
 31
0.0
 11
193.620677488278
 21
15.56585996513635
 31
0.0
 11
193.568568454786
 21
15.56585996513635
 31
0.0
 11
193.5495639837478
 21
15.56585996513635
 31
0.0
 11
193.5495639837478
 21
15.58311199790982
 31
0.0
 11
193.5495639837478
 21
15.62425146067732
 31
0.0
 11
193.5495639837478
 21
15.67335340010949
 31
0.0
 11
193.5495639837478
 21
15.71449286287699
 31
0.0
 11
193.5495639837478
 21
15.73174489565046
 31
0.0
 11
193.568759848601
 21
15.73174489565046
 31
0.0
 11
193.6193671286684
 21
15.73174489565046
 31
0.0
 11
193.690915352212
 21
15.73174489565046
 31
0.0
 11
193.7729340474937
 21
15.73174489565046
 31
0.0
 11
193.8549527427754
 21
15.73174489565046
 31
0.0
 11
193.926500966319
 21
15.73174489565046
 31
0.0
 11
193.9771082463865
 21
15.73174489565046
 31
0.0
 11
193.9963041112396
 21
15.73174489565046
 31
0.0
 11
193.9963041112396
 21
15.74926552655219
 31
0.0
 11
193.9963041112396
 21
15.79622081736883
 31
0.0
 11
193.9963041112396
 21
15.86420086526754
 31
0.0
 11
193.9963041112396
 21
15.94479576741549
 31
0.0
 11
193.9963041112396
 21
16.02959562097987
 31
0.0
 11
193.9963041112396
 21
16.11019052312782
 31
0.0
 11
193.9963041112396
 21
16.17817057102653
 31
0.0
 11
193.9963041112396
 21
16.22512586184317
 31
0.0
 11
193.9963041112396
 21
16.2426464927449
 31
0.0
 11
194.0135484112112
 21
16.24165806167519
 31
0.0
 11
194.0566591611401
 21
16.23918698400091
 31
0.0
 11
194.1127031360478
 21
16.23597458302435
 31
0.0
 11
194.1687471109554
 21
16.2327621820478
 31
0.0
 11
194.2118578608843
 21
16.23029110437352
 31
0.0
 11
194.2291021608559
 21
16.22930267330381
 31
0.0
 11
194.2143774674851
 21
16.20556293372641
 31
0.0
 11
194.175621051109
 21
16.19183767331312
 31
0.0
 11
194.175621051109
 21
16.17206806177293
 31
0.0
 11
194.175621051109
 21
16.11994817680333
 31
0.0
 11
194.175621051109
 21
16.04626144288079
 31
0.0
 11
194.175621051109
 21
15.96179128448179
 31
0.0
 11
194.175621051109
 21
15.87732112608279
 31
0.0
 11
194.175621051109
 21
15.80363439216025
 31
0.0
 11
194.175621051109
 21
15.75151450719065
 31
0.0
 11
194.175621051109
 21
15.73174489565046
 31
0.0
 11
194.1916227112935
 21
15.73174489565046
 31
0.0
 11
194.232890150717
 21
15.73174489565046
 31
0.0
 11
194.2893170576837
 21
15.73174489565046
 31
0.0
 11
194.3507971204981
 21
15.73174489565046
 31
0.0
 11
194.4072240274648
 21
15.73174489565046
 31
0.0
 11
194.4484914668882
 21
15.73174489565046
 31
0.0
 11
194.4644931270728
 21
15.73174489565046
 31
0.0
 11
194.4728206422924
 21
15.73451387455921
 31
0.0
 11
194.4882860277004
 21
15.73965626396119
 31
0.0
 11
194.49661354292
 21
15.74242524286994
 31
0.0
 11
194.5091363776005
 21
15.73490952398294
 31
0.0
 11
194.5389985218386
 21
15.71698742509854
 31
0.0
 11
194.5746404359293
 21
15.69559653288167
 31
0.0
 11
194.6045025801674
 21
15.67767443399728
 31
0.0
 11
194.6170254148479
 21
15.67015871511027
 31
0.0
  0
SPLINE
  5
AD
102
{ACAD_REACTORS
330
CA
102
}
330
48
100
AcDbEntity
  8
_U_30EC_U_30A4_U_30E4_U_30FC_1
  6
Continuous
 62
     2
100
AcDbSpline
210
0.0
220
0.0
230
1.0
 70
    11
 71
     3
 72
    91
 73
    87
 74
    85
 42
0.000000001
 43
0.0000000001
 44
0.00000001
 40
0.0
 40
0.0
 40
0.0
 40
0.0
 40
0.0267532254356701
 40
0.0856103386464155
 40
0.1444674521996709
 40
0.1712206856618621
 40
0.2039416005642643
 40
0.2955601971652591
 40
0.4362601844617024
 40
0.6162252844507357
 40
0.8256392189705088
 40
1.054685709844421
 40
1.293548478893542
 40
1.532411247938285
 40
1.76145773879955
 40
1.970871673298519
 40
2.150836773256715
 40
2.291536760495576
 40
2.383155356836654
 40
2.415876284101302
 40
2.442629517487949
 40
2.501486630949082
 40
2.560343744424233
 40
2.587096977826508
 40
2.617068194440935
 40
2.699247336756076
 40
2.82203264346636
 40
2.97382235325789
 40
3.143014704823332
 40
3.318007936879883
 40
3.487200288186744
 40
3.638989997548225
 40
3.761775303794724
 40
3.843954445753059
 40
3.873925662229754
 40
3.890812773500462
 40
3.907699884771614
 40
3.937960767857241
 40
3.98098361814233
 40
4.199085915228451
 40
4.439444339237243
 40
4.677588241260914
 40
5.0506983178378
 40
5.448212454763186
 40
5.855291218044711
 40
6.138575438885369
 40
6.417434507584231
 40
6.444551104393914
 40
6.504207617363213
 40
6.563864130314538
 40
6.590980727104131
 40
6.848609460381518
 40
7.109611990668476
 40
7.352910904446139
 40
7.557830220705507
 40
7.587518925913425
 40
7.652834077375844
 40
7.718149228845781
 40
7.747837934062084
 40
7.854880190301008
 40
7.976511257403527
 40
8.369487896592357
 40
8.757514959223707
 40
9.12607241933117
 40
9.460639380392175
 40
9.74669559303586
 40
9.777569943118653
 40
9.807050320931827
 40
9.830377336128958
 40
9.886003295436034
 40
9.952395569429944
 40
10.0080215287063
 40
10.03134854388222
 40
10.21356951009595
 40
10.42203479292875
 40
10.66154556731068
 40
10.91693789564312
 40
11.15832906556573
 40
11.18982674596628
 40
11.27286608520415
 40
11.3902665303336
 40
11.52484752840893
 40
11.6594285264845
 40
11.77682897161491
 40
11.85986831085687
 40
11.89136598230433
 40
11.89136598230433
 40
11.89136598230433
 40
11.89136598230433
 10
190.7027885008197
 20
14.70699600701772
 30
0.0
 10
190.7028237765289
 20
14.71587847311985
 30
0.0
 10
190.7029366710797
 20
14.74430237047347
 30
0.0
 10
190.701298456849
 20
14.79409639169803
 30
0.0
 10
190.7069750292912
 20
14.83657564478155
 30
0.0
 10
190.6956928731708
 20
14.88730154856848
 30
0.0
 10
190.7632296979032
 20
14.87012900740109
 30
0.0
 10
190.8388029210701
 20
14.88290227165997
 30
0.0
 10
190.9828357056002
 20
14.87629729457383
 30
0.0
 10
191.1569419185427
 20
14.87888462206467
 30
0.0
 10
191.3639599611005
 20
14.87800591955554
 30
0.0
 10
191.5894688172378
 20
14.87828207920028
 30
0.0
 10
191.8251162293406
 20
14.87818339658664
 30
0.0
 10
192.0607640531349
 20
14.87828184412768
 30
0.0
 10
192.2862717580627
 20
14.8780067819079
 30
0.0
 10
192.4932934632806
 20
14.87888186270736
 30
0.0
 10
192.6673888915288
 20
14.87630522678447
 30
0.0
 10
192.8114492071987
 20
14.88288290449215
 30
0.0
 10
192.8869691915293
 20
14.87016243405605
 30
0.0
 10
192.9545776037031
 20
14.88726400191688
 30
0.0
 10
192.9430840140676
 20
14.83674785802941
 30
0.0
 10
192.9505104581734
 20
14.79253252226502
 30
0.0
 10
192.9428838927986
 20
14.7486796650361
 30
0.0
 10
192.9546489459426
 20
14.69878374479327
 30
0.0
 10
192.8930788491983
 20
14.71393227712512
 30
0.0
 10
192.8256791738673
 20
14.70310665350673
 30
0.0
 10
192.7013004056222
 20
14.70852031626236
 30
0.0
 10
192.5554428236572
 20
14.70649205390785
 30
0.0
 10
192.3893576440086
 20
14.70715777578387
 30
0.0
 10
192.2188412621725
 20
14.70689643521242
 30
0.0
 10
192.051979085539
 20
14.70721553391094
 30
0.0
 10
191.9087346827106
 20
14.70635302590762
 30
0.0
 10
191.7773313869835
 20
14.70863300482988
 30
0.0
 10
191.7239859134658
 20
14.70407704374202
 30
0.0
 10
191.6485188456913
 20
14.70999914992877
 30
0.0
 10
191.6769075779233
 20
14.70094169343353
 30
0.0
 10
191.7033652409543
 20
14.69725912268928
 30
0.0
 10
191.6633522907701
 20
14.66654271968273
 30
0.0
 10
191.571366369187
 20
14.67667591174636
 30
0.0
 10
191.5439396207069
 20
14.43032502247782
 30
0.0
 10
191.4478793967235
 20
14.27499558764373
 30
0.0
 10
191.1917277964473
 20
13.94525417931569
 30
0.0
 10
191.7627537732762
 20
14.0843002221045
 30
0.0
 10
192.0173656320516
 20
14.08291779973364
 30
0.0
 10
192.6279647048617
 20
13.99790569242083
 30
0.0
 10
192.3340698578083
 20
14.29685417558206
 30
0.0
 10
192.013330428652
 20
14.4433085690178
 30
0.0
 10
192.1313543360433
 20
14.50025540818287
 30
0.0
 10
192.1724716466261
 20
14.52420099873348
 30
0.0
 10
192.2156812394411
 20
14.5459975881123
 30
0.0
 10
192.317457409445
 20
14.60928721253903
 30
0.0
 10
192.4328867625247
 20
14.35147151408779
 30
0.0
 10
192.6329591642277
 20
14.21616041113682
 30
0.0
 10
192.7269077387227
 20
14.03792795138881
 30
0.0
 10
192.9558829746393
 20
13.87997821027049
 30
0.0
 10
192.8596031846707
 20
13.82915972576299
 30
0.0
 10
192.8167959763779
 20
13.79881292523055
 30
0.0
 10
192.7718243528779
 20
13.77466130281458
 30
0.0
 10
192.7121720925213
 20
13.72552146747568
 30
0.0
 10
192.6789731061326
 20
13.8599747567361
 30
0.0
 10
192.5582013350796
 20
14.0159426528658
 30
0.0
 10
192.1970976005979
 20
13.88569928059556
 30
0.0
 10
191.8385061955541
 20
13.90224694409484
 30
0.0
 10
191.4570920450079
 20
13.89331229351864
 30
0.0
 10
191.1703455282892
 20
13.82882671672411
 30
0.0
 10
190.8592055599717
 20
13.94230668192822
 30
0.0
 10
190.8268737818789
 20
13.83122259927765
 30
0.0
 10
190.7896178253318
 20
13.81196313850012
 30
0.0
 10
190.7865737632753
 20
13.85874784087296
 30
0.0
 10
190.7679892860607
 20
13.89806853919135
 30
0.0
 10
190.7512436616778
 20
13.95765983478233
 30
0.0
 10
190.7383730915753
 20
14.00201969871284
 30
0.0
 10
190.7042327806428
 20
14.09106331120202
 30
0.0
 10
190.9482714457754
 20
14.0218104294377
 30
0.0
 10
191.1441394486672
 20
14.00030369057745
 30
0.0
 10
191.2395426381276
 20
14.28226484478465
 30
0.0
 10
191.2945135769598
 20
14.4436304542112
 30
0.0
 10
191.5159619357155
 20
14.71391177589736
 30
0.0
 10
191.3849239381218
 20
14.70548446853735
 30
0.0
 10
191.3110026555855
 20
14.70779008496969
 30
0.0
 10
191.1977459876244
 20
14.70671378321658
 30
0.0
 10
191.0694251807485
 20
14.7070763907651
 30
0.0
 10
190.9404252030416
 20
14.70697724466085
 30
0.0
 10
190.8287840946292
 20
14.70699932712572
 30
0.0
 10
190.7514663970028
 20
14.7069957918967
 30
0.0
 10
190.7132876532011
 20
14.70699595845081
 30
0.0
 10
190.7027885008197
 20
14.70699600701772
 30
0.0
 11
190.7027885008197
 21
14.70699600701772
 31
0.0
 11
190.7027885008197
 21
14.73374924051797
 31
0.0
 11
190.7027885008197
 21
14.79260635421854
 31
0.0
 11
190.7027885008197
 21
14.8514634679191
 31
0.0
 11
190.7027885008197
 21
14.87821670141936
 31
0.0
 11
190.735509428099
 21
14.87821670141936
 31
0.0
 11
190.827128024481
 21
14.87821670141936
 31
0.0
 11
190.967828011782
 21
14.87821670141936
 31
0.0
 11
191.1477931118181
 21
14.87821670141936
 31
0.0
 11
191.3572070464055
 21
14.87821670141936
 31
0.0
 11
191.5862535373605
 21
14.87821670141936
 31
0.0
 11
191.8251163064994
 21
14.87821670141936
 31
0.0
 11
192.0639790756382
 21
14.87821670141936
 31
0.0
 11
192.2930255665932
 21
14.87821670141936
 31
0.0
 11
192.5024395011806
 21
14.87821670141936
 31
0.0
 11
192.6824046012168
 21
14.87821670141936
 31
0.0
 11
192.8231045885177
 21
14.87821670141936
 31
0.0
 11
192.9147231848997
 21
14.87821670141936
 31
0.0
 11
192.947444112179
 21
14.87821670141936
 31
0.0
 11
192.947444112179
 21
14.8514634679191
 31
0.0
 11
192.947444112179
 21
14.79260635421854
 31
0.0
 11
192.947444112179
 21
14.73374924051798
 31
0.0
 11
192.947444112179
 21
14.70699600701772
 31
0.0
 11
192.9174728954758
 21
14.70699600701772
 31
0.0
 11
192.8352937529027
 21
14.70699600701772
 31
0.0
 11
192.7125084457641
 21
14.70699600701772
 31
0.0
 11
192.5607187353643
 21
14.70699600701772
 31
0.0
 11
192.3915263830079
 21
14.70699600701772
 31
0.0
 11
192.2165331499992
 21
14.70699600701772
 31
0.0
 11
192.0473407976427
 21
14.70699600701772
 31
0.0
 11
191.8955510872429
 21
14.70699600701772
 31
0.0
 11
191.7727657801043
 21
14.70699600701772
 31
0.0
 11
191.6905866375311
 21
14.70699600701772
 31
0.0
 11
191.660615420828
 21
14.70699600701772
 31
0.0
 11
191.6766359412526
 21
14.70165583340794
 31
0.0
 11
191.6926564616772
 21
14.69631565979815
 31
0.0
 11
191.6706155681421
 21
14.67558114591442
 31
0.0
 11
191.6284861855363
 21
14.66685871536109
 31
0.0
 11
191.5365235541378
 21
14.46909247312656
 31
0.0
 11
191.4279078521764
 21
14.25467511978508
 31
0.0
 11
191.3127500824807
 21
14.04622559051619
 31
0.0
 11
191.685736667502
 21
14.05582441253028
 31
0.0
 11
192.083070003615
 21
14.06781232404994
 31
0.0
 11
192.4899342191145
 21
14.08102711828531
 31
0.0
 11
192.2983119496979
 21
14.28966761302481
 31
0.0
 11
192.0966752013698
 21
14.48229420151832
 31
0.0
 11
192.1204947794749
 21
14.49525327269565
 31
0.0
 11
192.1728978513061
 21
14.52376322928576
 31
0.0
 11
192.2253009231374
 21
14.55227318587588
 31
0.0
 11
192.2491205012425
 21
14.5652322570532
 31
0.0
 11
192.4387101558627
 21
14.39079508370267
 31
0.0
 11
192.6200310940435
 21
14.20305846374091
 31
0.0
 11
192.7777729231147
 21
14.01782380992436
 31
0.0
 11
192.8966252504058
 21
13.85089253500949
 31
0.0
 11
192.8715408217923
 21
13.83501202286069
 31
0.0
 11
192.8163550788425
 21
13.80007489613332
 31
0.0
 11
192.7611693358928
 21
13.76513776940595
 31
0.0
 11
192.7360849072793
 21
13.74925725725715
 31
0.0
 11
192.6775518151613
 21
13.83887824681809
 31
0.0
 11
192.6050015078458
 21
13.93650288221031
 31
0.0
 11
192.2125412924095
 21
13.91636286943759
 31
0.0
 11
191.824947406956
 21
13.89803302999774
 31
0.0
 11
191.4567378976213
 21
13.88202178722396
 31
0.0
 11
191.1224308105413
 21
13.86883756444948
 31
0.0
 11
190.8365441918519
 21
13.8589887850075
 31
0.0
 11
190.8211862321741
 21
13.83220523466695
 31
0.0
 11
190.7937434290546
 21
13.82143559057246
 31
0.0
 11
190.7867927192319
 21
13.84370299445578
 31
0.0
 11
190.7702179496548
 21
13.89680218833139
 31
0.0
 11
190.7504351601596
 21
13.96017864553777
 31
0.0
 11
190.7338603905825
 21
14.01327783941338
 31
0.0
 11
190.7269096807598
 21
14.0355452432967
 31
0.0
 11
190.9091199859153
 21
14.03751638912952
 31
0.0
 11
191.1174975848588
 21
14.04356211829472
 31
0.0
 11
191.2303203127216
 21
14.25483550301554
 31
0.0
 11
191.3407936722036
 21
14.48509813155879
 31
0.0
 11
191.4358254265628
 21
14.70699600701772
 31
0.0
 11
191.4043277461598
 21
14.70699600701772
 31
0.0
 11
191.3212884069154
 21
14.70699600701772
 31
0.0
 11
191.2038879617769
 21
14.70699600701772
 31
0.0
 11
191.0693069636912
 21
14.70699600701772
 31
0.0
 11
190.9347259656056
 21
14.70699600701772
 31
0.0
 11
190.8173255204671
 21
14.70699600701772
 31
0.0
 11
190.7342861812227
 21
14.70699600701772
 31
0.0
 11
190.7027885008197
 21
14.70699600701772
 31
0.0
  0
SPLINE
  5
AE
102
{ACAD_REACTORS
330
CB
102
}
330
48
100
AcDbEntity
  8
_U_30EC_U_30A4_U_30E4_U_30FC_1
  6
Continuous
 62
     2
100
AcDbSpline
210
0.0
220
0.0
230
1.0
 70
    11
 71
     3
 72
    35
 73
    31
 74
    29
 42
0.000000001
 43
0.0000000001
 44
0.00000001
 40
0.0
 40
0.0
 40
0.0
 40
0.0
 40
0.0335231036621181
 40
0.0713218571711795
 40
0.4278866681486241
 40
0.8116865841963059
 40
1.198190237999965
 40
1.561379546812593
 40
1.659983174621905
 40
1.759315573807088
 40
2.132719617230972
 40
2.525233363588724
 40
2.910815397779592
 40
3.265244364303181
 40
3.592606723581869
 40
3.964386154603816
 40
4.359942131737637
 40
4.758154118639147
 40
4.843846538699778
 40
4.936650065543129
 40
5.256616602537209
 40
5.581707404415943
 40
5.899719158308039
 40
6.198363494280642
 40
6.466301046615677
 40
6.493895311536999
 40
6.55969702019682
 40
6.638234543442423
 40
6.704036252154232
 40
6.731630508423038
 40
6.731630508423038
 40
6.731630508423038
 40
6.731630508423038
 10
191.973601056867
 20
16.23463843719134
 30
0.0
 10
191.967600609779
 20
16.22480690542323
 30
0.0
 10
191.9548344099156
 20
16.20388988579802
 30
0.0
 10
191.794936200656
 20
16.17127126532673
 30
0.0
 10
192.2322025842335
 20
15.88206680336706
 30
0.0
 10
192.4345394828262
 20
15.68041138358436
 30
0.0
 10
192.6819564267973
 20
15.43749387603274
 30
0.0
 10
193.1831513624606
 20
15.36047662757784
 30
0.0
 10
193.0125562198971
 20
15.21876939174651
 30
0.0
 10
192.9383299463201
 20
15.01710366209114
 30
0.0
 10
192.6131432248187
 20
15.36956287174722
 30
0.0
 10
192.3277741670664
 20
15.53175212559563
 30
0.0
 10
192.0337604077658
 20
15.73687130053047
 30
0.0
 10
191.8084452691134
 20
16.21827488595455
 30
0.0
 10
191.5993085055523
 20
15.7534304660922
 30
0.0
 10
191.3207873674835
 20
15.54350952252912
 30
0.0
 10
191.0371383177209
 20
15.37424456359984
 30
0.0
 10
190.7078639527833
 20
15.00142360907937
 30
0.0
 10
190.6277012318224
 20
15.19708014459003
 30
0.0
 10
190.4759724909744
 20
15.32491104190591
 30
0.0
 10
190.9083395826794
 20
15.40454031765936
 30
0.0
 10
191.0962565329765
 20
15.60026634915472
 30
0.0
 10
191.3468477420502
 20
15.81632996916755
 30
0.0
 10
191.5714350470162
 20
15.98190992300058
 30
0.0
 10
191.6259775409711
 20
16.26133964636826
 30
0.0
 10
191.7494661029012
 20
16.24737950408079
 30
0.0
 10
191.806027334452
 20
16.24521268867647
 30
0.0
 10
191.8761870984945
 20
16.2404685988136
 30
0.0
 10
191.9333414022107
 20
16.23709429350541
 30
0.0
 10
191.964419032084
 20
16.23519854711119
 30
0.0
 10
191.973601056867
 20
16.23463843719134
 30
0.0
 11
191.973601056867
 21
16.23463843719134
 31
0.0
 11
191.9525319069884
 21
16.20856374969785
 31
0.0
 11
191.9174464559426
 21
16.19450114553469
 31
0.0
 11
192.1512374769095
 21
15.92527961131382
 31
0.0
 11
192.4414585957566
 21
15.67413407969259
 31
0.0
 11
192.7612797483684
 21
15.45710987618784
 31
0.0
 11
193.0838708706289
 21
15.29025232631637
 31
0.0
 11
193.0213299868077
 21
15.21402035584928
 31
0.0
 11
192.9688035818975
 21
15.12971197913424
 31
0.0
 11
192.6436279095814
 21
15.3132640483158
 31
0.0
 11
192.3237227768436
 21
15.54070139743428
 31
0.0
 11
192.0354200158608
 21
15.7967385512331
 31
0.0
 11
191.8050514588095
 21
16.06609003445566
 31
0.0
 11
191.5995531719517
 21
15.81126348721036
 31
0.0
 11
191.3288301341536
 21
15.55645182277756
 31
0.0
 11
191.0119538423247
 21
15.31969466354856
 31
0.0
 11
190.6679957933742
 21
15.11903163191466
 31
0.0
 11
190.6218855341338
 21
15.19126067703554
 31
0.0
 11
190.5636970460348
 21
15.26355586798966
 31
0.0
 11
190.8433040489015
 21
15.41911456961744
 31
0.0
 11
191.1093004621154
 21
15.60601009790405
 31
0.0
 11
191.3499997459746
 21
15.81384496285208
 31
0.0
 11
191.5537153607774
 21
16.03222167446415
 31
0.0
 11
191.7087607668218
 21
16.25074274274287
 31
0.0
 11
191.7363041569865
 21
16.24906789496551
 31
0.0
 11
191.8019845489177
 21
16.24507402718873
 31
0.0
 11
191.8803772747711
 21
16.24030715274548
 31
0.0
 11
191.9460576667023
 21
16.2363132849687
 31
0.0
 11
191.973601056867
 21
16.23463843719134
 31
0.0
  0
SPLINE
  5
AF
102
{ACAD_REACTORS
330
CC
102
}
330
48
100
AcDbEntity
  8
_U_30EC_U_30A4_U_30E4_U_30FC_1
  6
Continuous
 62
     2
100
AcDbSpline
210
0.0
220
0.0
230
1.0
 70
    11
 71
     3
 72
    15
 73
    11
 74
     9
 42
0.000000001
 43
0.0000000001
 44
0.00000001
 40
0.0
 40
0.0
 40
0.0
 40
0.0
 40
0.2785535985096117
 40
0.5215624748198209
 40
0.6076917376039869
 40
0.6938210001740639
 40
0.9405019146454074
 40
1.221691403489086
 40
1.300471877081026
 40
1.379252341684837
 40
1.379252341684837
 40
1.379252341684837
 40
1.379252341684837
 10
189.5681493631
 20
16.22930267330381
 30
0.0
 10
189.6296017794179
 20
16.17691646592716
 30
0.0
 10
189.7446649974113
 20
16.07882876798221
 30
0.0
 10
190.0397348497244
 20
15.92889785897222
 30
0.0
 10
189.9025147631856
 20
15.84343227515014
 30
0.0
 10
189.8041227843778
 20
15.71085785201553
 30
0.0
 10
189.713003359065
 20
16.01616985781425
 30
0.0
 10
189.3636839480655
 20
16.07967869465374
 30
0.0
 10
189.511925837657
 20
16.17896509880878
 30
0.0
 10
189.5494081874237
 20
16.21252348402383
 30
0.0
 10
189.5681493631
 20
16.22930267330381
 30
0.0
 11
189.5681493631
 21
16.22930267330381
 31
0.0
 11
189.7919222440596
 21
16.06341774278972
 31
0.0
 11
189.9695046306383
 21
15.89753281227564
 31
0.0
 11
189.9066308127979
 21
15.83866743034592
 31
0.0
 11
189.8437569949575
 21
15.77980204841619
 31
0.0
 11
189.6688535117725
 21
15.95375677059491
 31
0.0
 11
189.447825685614
 21
16.12757920110702
 31
0.0
 11
189.507987524357
 21
16.17844093720542
 31
0.0
 11
189.5681493631
 21
16.22930267330381
 31
0.0
  0
SPLINE
  5
B0
102
{ACAD_REACTORS
330
CD
102
}
330
48
100
AcDbEntity
  8
_U_30EC_U_30A4_U_30E4_U_30FC_1
  6
Continuous
 62
     2
100
AcDbSpline
210
0.0
220
0.0
230
1.0
 70
    11
 71
     3
 72
    75
 73
    71
 74
    69
 42
0.000000001
 43
0.0000000001
 44
0.00000001
 40
0.0
 40
0.0
 40
0.0
 40
0.0
 40
0.0342546099129691
 40
0.1245622414432364
 40
0.2522385480897518
 40
0.398599192294068
 40
0.5449598364980839
 40
0.6726361431438834
 40
0.7629437746736942
 40
0.7971983935297973
 40
1.101723623449632
 40
1.40859124403658
 40
1.433332471690284
 40
1.487763172450077
 40
1.542193873081906
 40
1.566935100592452
 40
1.923523931821762
 40
2.271755704953562
 40
2.590579755100804
 40
2.858943305581064
 40
2.889120339309058
 40
2.918305855190976
 40
2.941366645531099
 40
2.996357760972996
 40
3.061992318140561
 40
3.116983433626753
 40
3.140044223997432
 40
3.411273122936409
 40
3.732441619741129
 40
3.761068217532827
 40
3.837787499630389
 40
3.948858699126027
 40
4.080541049104404
 40
4.219093782625787
 40
4.350776132722338
 40
4.461847332405673
 40
4.538566614678404
 40
4.567193212544652
 40
4.59490757399891
 40
4.666381453557477
 40
4.764111044011116
 40
4.870592538125948
 40
4.968322128642399
 40
5.039796008287112
 40
5.067510369784571
 40
5.094263603185784
 40
5.153120716668422
 40
5.21197783015087
 40
5.238731063551874
 40
5.272290535139113
 40
5.363380529444974
 40
5.497618415781652
 40
5.660621563453894
 40
5.838007341749595
 40
6.015393119910946
 40
6.178396267038572
 40
6.312634151842524
 40
6.403724143059513
 40
6.437283612672609
 40
6.464036846261225
 40
6.522893960004842
 40
6.581751071484108
 40
6.608504301591054
 40
6.637253941281202
 40
6.711397748903053
 40
6.812778057283637
 40
6.923237199249357
 40
7.024617507624029
 40
7.098761315207653
 40
7.127510946007604
 40
7.127510946007604
 40
7.127510946007604
 40
7.127510946007604
 10
188.4418622390565
 20
14.95849128473264
 30
0.0
 10
188.4418622819707
 20
14.9470731340872
 30
0.0
 10
188.4418624481129
 20
14.90555257842628
 30
0.0
 10
188.4418593081787
 20
14.82146922003771
 30
0.0
 10
188.4418788279801
 20
14.70004497322328
 30
0.0
 10
188.4417912187738
 20
14.55980494047448
 30
0.0
 10
188.4421116235231
 20
14.42006556794575
 30
0.0
 10
188.4411605909741
 20
14.29745038894929
 30
0.0
 10
188.4431978595968
 20
14.21587074438042
 30
0.0
 10
188.4349433178748
 20
14.06271267077699
 30
0.0
 10
188.7430797940901
 20
14.2256023605472
 30
0.0
 10
189.0350645173735
 20
14.39482938687999
 30
0.0
 10
189.0408354448708
 20
14.2597323578191
 30
0.0
 10
189.0455471719891
 20
14.21617221160444
 30
0.0
 10
189.0482535411917
 20
14.17211249350544
 30
0.0
 10
189.0672545672963
 20
14.02272590363135
 30
0.0
 10
188.65839422473
 20
14.08681172241261
 30
0.0
 10
188.3793710348832
 20
13.97296341411019
 30
0.0
 10
188.1018081587168
 20
13.87364095811139
 30
0.0
 10
187.8099837184398
 20
13.91630687596363
 30
0.0
 10
187.7869144678659
 20
13.8132167974454
 30
0.0
 10
187.7537474383333
 20
13.78691091244471
 30
0.0
 10
187.748065396274
 20
13.83455309036306
 30
0.0
 10
187.7284214559044
 20
13.8718033611507
 30
0.0
 10
187.7095089485624
 20
13.93007387847564
 30
0.0
 10
187.6942849867706
 20
13.97385201007804
 30
0.0
 10
187.6477246372938
 20
14.08759421046315
 30
0.0
 10
187.9890897312449
 20
14.05576301120046
 30
0.0
 10
188.2679649367389
 20
14.02161435106476
 30
0.0
 10
188.2617753034908
 20
14.16913976479652
 30
0.0
 10
188.2630935452774
 20
14.24013150908833
 30
0.0
 10
188.2624831689949
 20
14.34719767958661
 30
0.0
 10
188.2625871570726
 20
14.47398529785998
 30
0.0
 10
188.2629987964057
 20
14.6084924349605
 30
0.0
 10
188.2613907841969
 20
14.73395549951184
 30
0.0
 10
188.2659902567927
 20
14.84505246719117
 30
0.0
 10
188.2564186502211
 20
14.90761886800689
 30
0.0
 10
188.2704001783692
 20
14.96595388295
 30
0.0
 10
188.2147384386706
 20
14.95289710582238
 30
0.0
 10
188.1575655197822
 20
14.96136307749499
 30
0.0
 10
188.0616048925648
 20
14.95729976080636
 30
0.0
 10
187.9633767522821
 20
14.95970889852474
 30
0.0
 10
187.867258245756
 20
14.95551600613387
 30
0.0
 10
187.8104648525812
 20
14.96429346441163
 30
0.0
 10
187.7550356873384
 20
14.95094936850121
 30
0.0
 10
187.7670679427917
 20
15.00036910959256
 30
0.0
 10
187.7592003173938
 20
15.04393988030395
 30
0.0
 10
187.7666295563829
 20
15.08830469118525
 30
0.0
 10
187.7551930564144
 20
15.13902297763991
 30
0.0
 10
187.8232102370133
 20
15.12162460757743
 30
0.0
 10
187.8968496879747
 20
15.13417450237189
 30
0.0
 10
188.0325064058211
 20
15.12799677011097
 30
0.0
 10
188.1884909024525
 20
15.13029203093084
 30
0.0
 10
188.3615926358143
 20
15.1294096826253
 30
0.0
 10
188.5346942964181
 20
15.13029207142408
 30
0.0
 10
188.6906789811216
 20
15.1279966295555
 30
0.0
 10
188.8263351889797
 20
15.13417486262432
 30
0.0
 10
188.8999756705652
 20
15.12162394218335
 30
0.0
 10
188.9679914174724
 20
15.13902373012142
 30
0.0
 10
188.9565590885922
 20
15.08830130414555
 30
0.0
 10
188.9639539458298
 20
15.04397060811108
 30
0.0
 10
188.956203991227
 20
15.00028307550196
 30
0.0
 10
188.9681203741877
 20
14.95063590098477
 30
0.0
 10
188.9108170223616
 20
14.96461411338425
 30
0.0
 10
188.8520145789773
 20
14.95539755673254
 30
0.0
 10
188.75252936332
 20
14.95952268164929
 30
0.0
 10
188.6494280098349
 20
14.95822760025887
 30
0.0
 10
188.5537846354574
 20
14.9585407707764
 30
0.0
 10
188.4857467971617
 20
14.95848776697145
 30
0.0
 10
188.4514462213444
 20
14.95849051871656
 30
0.0
 10
188.4418622390565
 20
14.95849128473264
 30
0.0
 11
188.4418622390565
 21
14.95849128473264
 31
0.0
 11
188.4418622390565
 21
14.92423666587185
 31
0.0
 11
188.4418622390565
 21
14.83392903432975
 31
0.0
 11
188.4418622390565
 21
14.70625272766679
 31
0.0
 11
188.4418622390565
 21
14.55989208344339
 31
0.0
 11
188.4418622390565
 21
14.41353143922
 31
0.0
 11
188.4418622390565
 21
14.28585513255704
 31
0.0
 11
188.4418622390565
 21
14.19554750101494
 31
0.0
 11
188.4418622390565
 21
14.16129288215415
 31
0.0
 11
188.7391932644568
 21
14.22709475713768
 31
0.0
 11
189.0384623627245
 21
14.29496038212071
 31
0.0
 11
189.0405487124976
 21
14.27030727882827
 31
0.0
 11
189.0451386819987
 21
14.21607045158489
 31
0.0
 11
189.0497286514996
 21
14.16183362434151
 31
0.0
 11
189.0518150012728
 21
14.13718052104907
 31
0.0
 11
188.705639688924
 21
14.05163370140898
 31
0.0
 11
188.3669653138838
 21
13.97060877629902
 31
0.0
 11
188.0563731516688
 21
13.89862764024929
 31
0.0
 11
187.7944444777955
 21
13.84021218778991
 31
0.0
 11
187.7817515029292
 21
13.81283442738013
 31
0.0
 11
187.7569794787514
 21
13.79740260446736
 31
0.0
 11
187.7491867589502
 21
13.81910683390637
 31
0.0
 11
187.7306041194242
 21
13.87086307333786
 31
0.0
 11
187.70842483999
 21
13.93263664943352
 31
0.0
 11
187.689842200464
 21
13.98439288886501
 31
0.0
 11
187.6820494806628
 21
14.00609711830402
 31
0.0
 11
187.9482776335932
 21
14.05794001759666
 31
0.0
 11
188.262633493629
 21
14.1237396877191
 31
0.0
 11
188.262633493629
 21
14.15236628569624
 31
0.0
 11
188.262633493629
 21
14.22908556827499
 31
0.0
 11
188.262633493629
 21
14.34015676842631
 31
0.0
 11
188.262633493629
 21
14.47183911912118
 31
0.0
 11
188.262633493629
 21
14.61039185333056
 31
0.0
 11
188.262633493629
 21
14.74207420402542
 31
0.0
 11
188.262633493629
 21
14.85314540417675
 31
0.0
 11
188.262633493629
 21
14.92986468675549
 31
0.0
 11
188.262633493629
 21
14.95849128473264
 31
0.0
 11
188.2349191321109
 21
14.95849128473264
 31
0.0
 11
188.1634452524064
 21
14.95849128473264
 31
0.0
 11
188.0657156617901
 21
14.95849128473264
 31
0.0
 11
187.9592341675364
 21
14.95849128473264
 31
0.0
 11
187.8615045769201
 21
14.95849128473264
 31
0.0
 11
187.7900306972156
 21
14.95849128473264
 31
0.0
 11
187.7623163356975
 21
14.95849128473264
 31
0.0
 11
187.7623163356975
 21
14.98524451823289
 31
0.0
 11
187.7623163356975
 21
15.04410163193344
 31
0.0
 11
187.7623163356975
 21
15.10295874563399
 31
0.0
 11
187.7623163356975
 21
15.12971197913424
 31
0.0
 11
187.7958758072874
 21
15.12971197913424
 31
0.0
 11
187.8869658016031
 21
15.12971197913424
 31
0.0
 11
188.0212036879629
 21
15.12971197913424
 31
0.0
 11
188.1842068356856
 21
15.12971197913424
 31
0.0
 11
188.3615926140897
 21
15.12971197913424
 31
0.0
 11
188.5389783924938
 21
15.12971197913424
 31
0.0
 11
188.7019815402164
 21
15.12971197913424
 31
0.0
 11
188.8362194265763
 21
15.12971197913424
 31
0.0
 11
188.9273094208918
 21
15.12971197913424
 31
0.0
 11
188.9608688924818
 21
15.12971197913424
 31
0.0
 11
188.9608688924818
 21
15.10295874563399
 31
0.0
 11
188.9608688924818
 21
15.04410163193344
 31
0.0
 11
188.9608688924818
 21
14.98524451823289
 31
0.0
 11
188.9608688924818
 21
14.95849128473264
 31
0.0
 11
188.9321192527877
 21
14.95849128473264
 31
0.0
 11
188.8579754451555
 21
14.95849128473264
 31
0.0
 11
188.7565951367605
 21
14.95849128473264
 31
0.0
 11
188.6461359947778
 21
14.95849128473264
 31
0.0
 11
188.5447556863828
 21
14.95849128473264
 31
0.0
 11
188.4706118787506
 21
14.95849128473264
 31
0.0
 11
188.4418622390565
 21
14.95849128473264
 31
0.0
  0
SPLINE
  5
B1
102
{ACAD_REACTORS
330
CE
102
}
330
48
100
AcDbEntity
  8
_U_30EC_U_30A4_U_30E4_U_30FC_1
  6
Continuous
 62
     2
100
AcDbSpline
210
0.0
220
0.0
230
1.0
 70
    11
 71
     3
 72
    91
 73
    87
 74
    85
 42
0.000000001
 43
0.0000000001
 44
0.00000001
 40
0.0
 40
0.0
 40
0.0
 40
0.0
 40
0.0345987051695434
 40
0.1258134969461369
 40
0.2547723404888987
 40
0.4026032099154409
 40
0.5504340793417273
 40
0.6793929228836932
 40
0.7706077146571888
 40
0.8052064287781777
 40
1.124852390615363
 40
1.427402236308954
 40
1.706356627453592
 40
1.955541417875275
 40
2.16948593856642
 40
2.344350786664871
 40
2.480568411562023
 40
2.590440557429045
 40
2.649189927151247
 40
2.749320643306446
 40
2.912632739880138
 40
3.147745656000337
 40
3.244827496385271
 40
3.338490056946809
 40
3.583815413207237
 40
3.761423943238603
 40
3.886956104362765
 40
3.98585545188697
 40
4.091766255337855
 40
4.25018647381202
 40
4.422734315084643
 40
4.628285684838738
 40
4.87209322775858
 40
5.152549652145691
 40
5.464967135837671
 40
5.803201477852592
 40
6.160362988814066
 40
6.193449448276121
 40
6.284170385501776
 40
6.419718138764646
 40
6.587285046385896
 40
6.77406344672381
 40
6.967245678113793
 40
7.154024078817779
 40
7.321590987026164
 40
7.457138740890523
 40
7.547859678556259
 40
7.580946138182819
 40
7.608533084714869
 40
7.669224367077847
 40
7.729915649430062
 40
7.757502595950115
 40
7.790278062553568
 40
7.880146277431066
 40
8.01441996318053
 40
8.180411842398058
 40
8.365434637679527
 40
8.556801071622857
 40
8.741823866830941
 40
8.90781574591648
 40
9.042089431507662
 40
9.131957646249788
 40
9.164733112797364
 40
9.415425063140292
 40
9.667986180958762
 40
9.694169807462929
 40
9.756607686047888
 40
9.831130315322694
 40
9.893568193900158
 40
9.919751820398975
 40
9.950967964690784
 40
9.996421631210948
 40
10.22087981037483
 40
10.44341866197572
 40
10.47847970788884
 40
10.57091337438785
 40
10.70159545461265
 40
10.85140174170393
 40
11.00120802880516
 40
11.13189010907421
 40
11.22432377583046
 40
11.25938480938995
 40
11.28697175596184
 40
11.34766303835958
 40
11.40835432042108
 40
11.43594125892142
 40
11.43594125892142
 40
11.43594125892142
 40
11.43594125892142
 10
190.081811433329
 20
15.55242795125077
 30
0.0
 10
190.0702785844941
 20
15.55242790287915
 30
0.0
 10
190.0283409445
 20
15.55242773704164
 30
0.0
 10
189.9434129719026
 20
15.55243125800908
 30
0.0
 10
189.8207688553129
 20
15.55240926435879
 30
0.0
 10
189.6791206916993
 20
15.55250801177053
 30
0.0
 10
189.537975369849
 20
15.55214686232421
 30
0.0
 10
189.4141351317904
 20
15.55321883609088
 30
0.0
 10
189.3317217825381
 20
15.55092249091268
 30
0.0
 10
189.1727791229693
 20
15.56048569373421
 30
0.0
 10
189.3503402353376
 20
15.19785394311371
 30
0.0
 10
189.3379739205452
 20
14.95243127723115
 30
0.0
 10
189.4064519473864
 20
14.66862501324835
 30
0.0
 10
189.469302432097
 20
14.43250999939036
 30
0.0
 10
189.5452253431728
 20
14.2332674039613
 30
0.0
 10
189.6303189577015
 20
14.07745347451375
 30
0.0
 10
189.7244607592935
 20
13.97657857781392
 30
0.0
 10
189.8282648207727
 20
13.92465852638967
 30
0.0
 10
189.9125872030775
 20
13.97606484379615
 30
0.0
 10
189.9351322179452
 20
14.09144544037518
 30
0.0
 10
189.974573097537
 20
14.21885149702382
 30
0.0
 10
189.9202919734943
 20
14.53622328086754
 30
0.0
 10
190.0451218072473
 20
14.38982180140909
 30
0.0
 10
190.2019291513603
 20
14.35795300331168
 30
0.0
 10
190.0947720007058
 20
14.12421357767629
 30
0.0
 10
190.0808711209867
 20
13.95972776583656
 30
0.0
 10
190.0234709467226
 20
13.83130869122481
 30
0.0
 10
189.9335020145008
 20
13.76018802352828
 30
0.0
 10
189.8095274657878
 20
13.74432324142253
 30
0.0
 10
189.663427319686
 20
13.77993797554172
 30
0.0
 10
189.5243894320284
 20
13.90000570500279
 30
0.0
 10
189.4102003962144
 20
14.0743568255032
 30
0.0
 10
189.3146141301487
 20
14.2994660311124
 30
0.0
 10
189.2318652572626
 20
14.56388246006442
 30
0.0
 10
189.1807179256411
 20
14.88187933098543
 30
0.0
 10
189.0770189207338
 20
15.15543728488912
 30
0.0
 10
189.2042841208519
 20
15.56005818612866
 30
0.0
 10
189.0357890623019
 20
15.55112367849678
 30
0.0
 10
188.9511995787077
 20
15.55315961418363
 30
0.0
 10
188.8189876387627
 20
15.55213937388406
 30
0.0
 10
188.6560505094104
 20
15.55253230318429
 30
0.0
 10
188.4733759170532
 20
15.55235696313368
 30
0.0
 10
188.2847057373383
 20
15.55260105307468
 30
0.0
 10
188.1014469020189
 20
15.55185657906236
 30
0.0
 10
187.9404746832718
 20
15.55416360522425
 30
0.0
 10
187.8029808335276
 20
15.54799804883663
 30
0.0
 10
187.728959037231
 20
15.56032838458211
 30
0.0
 10
187.6613215186856
 20
15.54329323723556
 30
0.0
 10
187.673237371927
 20
15.59524438447527
 30
0.0
 10
187.6655677285693
 20
15.64071424966528
 30
0.0
 10
187.6732592225116
 20
15.68614453703705
 30
0.0
 10
187.6613141797761
 20
15.73802395984569
 30
0.0
 10
187.7283588305867
 20
15.72119143490263
 30
0.0
 10
187.8017375665676
 20
15.7333540909267
 30
0.0
 10
187.9379128305272
 20
15.72727231074958
 30
0.0
 10
188.0973811801512
 20
15.72954834315056
 30
0.0
 10
188.2789173085837
 20
15.72881233998962
 30
0.0
 10
188.465803486218
 20
15.72905954196133
 30
0.0
 10
188.6468012316836
 20
15.72886400799253
 30
0.0
 10
188.8080802578879
 20
15.72932234714838
 30
0.0
 10
188.9393882124887
 20
15.72812673751205
 30
0.0
 10
189.0225051322597
 20
15.73051347319742
 30
0.0
 10
189.1556236547814
 20
15.72230605725463
 30
0.0
 10
189.064589350266
 20
15.97752868952654
 30
0.0
 10
188.9789633074419
 20
16.24164358328246
 30
0.0
 10
189.0990589003455
 20
16.22904442969165
 30
0.0
 10
189.1514264948544
 20
16.22694235763075
 30
0.0
 10
189.2214497569715
 20
16.22535399889657
 30
0.0
 10
189.2671922337817
 20
16.21602567538112
 30
0.0
 10
189.3220812646932
 20
16.22545966915427
 30
0.0
 10
189.2963574785682
 20
16.17733028655169
 30
0.0
 10
189.1825397571452
 20
16.18266829744175
 30
0.0
 10
189.3159346621137
 20
15.95449174576774
 30
0.0
 10
189.1943658735471
 20
15.72156856595922
 30
0.0
 10
189.3223188769413
 20
15.73087258884438
 30
0.0
 10
189.4049048406461
 20
15.72801001754679
 30
0.0
 10
189.5307214850824
 20
15.72923437412301
 30
0.0
 10
189.6741469838059
 20
15.72932431888964
 30
0.0
 10
189.8157420951728
 20
15.72746163183852
 30
0.0
 10
189.9459127249968
 20
15.73333075937162
 30
0.0
 10
190.0193452286191
 20
15.72070340823202
 30
0.0
 10
190.0891112922097
 20
15.73877563110412
 30
0.0
 10
190.0775772605397
 20
15.68612850546325
 30
0.0
 10
190.0833184346683
 20
15.64221317686547
 30
0.0
 10
190.0816615770911
 20
15.59089982676549
 30
0.0
 10
190.081775756167
 20
15.56158792021635
 30
0.0
 10
190.081811433329
 20
15.55242795125077
 30
0.0
 11
190.081811433329
 21
15.55242795125077
 31
0.0
 11
190.0472127192052
 21
15.55242795125077
 31
0.0
 11
189.9559979274242
 21
15.55242795125077
 31
0.0
 11
189.8270390838718
 21
15.55242795125077
 31
0.0
 11
189.6792082144336
 21
15.55242795125077
 31
0.0
 11
189.5313773449955
 21
15.55242795125077
 31
0.0
 11
189.402418501443
 21
15.55242795125077
 31
0.0
 11
189.311203709662
 21
15.55242795125077
 31
0.0
 11
189.2766049955382
 21
15.55242795125077
 31
0.0
 11
189.3083140497693
 21
15.23435864930121
 31
0.0
 11
189.3527866656865
 21
14.93509522788081
 31
0.0
 11
189.4092389118319
 21
14.66191269512576
 31
0.0
 11
189.4768868567478
 21
14.42208605917228
 31
0.0
 11
189.5549465689761
 21
14.22289032815655
 31
0.0
 11
189.6426341170591
 21
14.07160051021479
 31
0.0
 11
189.7391655695388
 21
13.97549161348318
 31
0.0
 11
189.8437569949575
 21
13.94183864609793
 31
0.0
 11
189.8943077302786
 21
13.97177376978836
 31
0.0
 11
189.9310588991552
 21
14.06491619815048
 31
0.0
 11
189.9562640977528
 21
14.22627151712054
 31
0.0
 11
189.9721769222368
 21
14.46084531263482
 31
0.0
 11
190.0494082682584
 21
14.40202182306619
 31
0.0
 11
190.1327184184385
 21
14.35921885432691
 31
0.0
 11
190.1066365811217
 21
14.1152838866101
 31
0.0
 11
190.0673317805106
 21
13.94207902887562
 31
0.0
 11
190.0105702596765
 21
13.83011272445917
 31
0.0
 11
189.932118261691
 21
13.76989341669645
 31
0.0
 11
189.8277420296256
 21
13.75192954892317
 31
0.0
 11
189.6738595065097
 21
13.78957440012361
 31
0.0
 11
189.5388902376748
 21
13.89707348877403
 31
0.0
 11
189.4221739916163
 21
14.06627361744809
 31
0.0
 11
189.32305053683
 21
14.28902158871943
 31
0.0
 11
189.2408596418113
 21
14.55716420516172
 31
0.0
 11
189.1749410750559
 21
14.8625482693486
 31
0.0
 11
189.1246346050593
 21
15.19702058385374
 31
0.0
 11
189.0892800003171
 21
15.55242795125077
 31
0.0
 11
189.0561935405844
 21
15.55242795125077
 31
0.0
 11
188.9654726026075
 21
15.55242795125077
 31
0.0
 11
188.8299248482185
 21
15.55242795125077
 31
0.0
 11
188.6623579392495
 21
15.55242795125077
 31
0.0
 11
188.4755795375324
 21
15.55242795125077
 31
0.0
 11
188.2823973048992
 21
15.55242795125077
 31
0.0
 11
188.0956189031822
 21
15.55242795125077
 31
0.0
 11
187.9280519942131
 21
15.55242795125077
 31
0.0
 11
187.7925042398241
 21
15.55242795125077
 31
0.0
 11
187.7017833018473
 21
15.55242795125077
 31
0.0
 11
187.6686968421145
 21
15.55242795125077
 31
0.0
 11
187.6686968421145
 21
15.58001489785846
 31
0.0
 11
187.6686968421145
 21
15.64070618039537
 31
0.0
 11
187.6686968421145
 21
15.70139746293228
 31
0.0
 11
187.6686968421145
 21
15.72898440953997
 31
0.0
 11
187.7014723087631
 21
15.72898440953997
 31
0.0
 11
187.7913405237673
 21
15.72898440953997
 31
0.0
 11
187.9256142097148
 21
15.72898440953997
 31
0.0
 11
188.0916060891932
 21
15.72898440953997
 31
0.0
 11
188.2766288847901
 21
15.72898440953997
 31
0.0
 11
188.4679953190933
 21
15.72898440953997
 31
0.0
 11
188.6530181146902
 21
15.72898440953997
 31
0.0
 11
188.8190099941685
 21
15.72898440953997
 31
0.0
 11
188.9532836801161
 21
15.72898440953997
 31
0.0
 11
189.0431518951203
 21
15.72898440953997
 31
0.0
 11
189.0759273617689
 21
15.72898440953997
 31
0.0
 11
189.0659183950104
 21
15.97947647544958
 31
0.0
 11
189.0599112510663
 21
16.23196614552531
 31
0.0
 11
189.0860575870659
 21
16.23056921608122
 31
0.0
 11
189.1484065421419
 21
16.22723807663761
 31
0.0
 11
189.2228230369099
 21
16.22326220052749
 31
0.0
 11
189.2851719919859
 21
16.21993106108388
 31
0.0
 11
189.3113183279855
 21
16.21853413163979
 31
0.0
 11
189.298293111304
 21
16.19016528616079
 31
0.0
 11
189.2551649266405
 21
16.17581274276164
 31
0.0
 11
189.2574991961821
 21
15.95136670115108
 31
0.0
 11
189.2658452735903
 21
15.72898440953997
 31
0.0
 11
189.3009063195165
 21
15.72898440953997
 31
0.0
 11
189.3933399860495
 21
15.72898440953997
 31
0.0
 11
189.5240220663201
 21
15.72898440953997
 31
0.0
 11
189.6738283534596
 21
15.72898440953997
 31
0.0
 11
189.8236346405992
 21
15.72898440953997
 31
0.0
 11
189.9543167208698
 21
15.72898440953997
 31
0.0
 11
190.0467503874027
 21
15.72898440953997
 31
0.0
 11
190.081811433329
 21
15.72898440953997
 31
0.0
 11
190.081811433329
 21
15.70139746293228
 31
0.0
 11
190.081811433329
 21
15.64070618039537
 31
0.0
 11
190.081811433329
 21
15.58001489785846
 31
0.0
 11
190.081811433329
 21
15.55242795125077
 31
0.0
  0
SPLINE
  5
B2
102
{ACAD_REACTORS
330
CF
102
}
330
48
100
AcDbEntity
  8
_U_30EC_U_30A4_U_30E4_U_30FC_1
  6
Continuous
 62
     2
100
AcDbSpline
210
0.0
220
0.0
230
1.0
 70
    11
 71
     3
 72
   118
 73
   114
 74
   112
 42
0.000000001
 43
0.0000000001
 44
0.00000001
 40
0.0
 40
0.0
 40
0.0
 40
0.0
 40
0.1054708162973424
 40
0.246609827005191
 40
0.3965912874591412
 40
0.5285525069754153
 40
0.6156245055642684
 40
0.6431434105797829
 40
0.7036850037986533
 40
0.764226598450493
 40
0.7917455052355235
 40
0.9287404319990473
 40
1.106572819088127
 40
1.287544879681136
 40
1.317578308030655
 40
1.399928030857291
 40
1.522968204800067
 40
1.67507298659069
 40
1.844616533180768
 40
2.019973001638833
 40
2.189516548880148
 40
2.341621331585486
 40
2.464661506320626
 40
2.54701122964719
 40
2.577044658168154
 40
2.603797890893196
 40
2.662655002908883
 40
2.721512114949666
 40
2.748265347702818
 40
2.774215307344894
 40
2.845959313407224
 40
2.954338556588425
 40
3.090194227585604
 40
3.244367517100569
 40
3.407699615844329
 40
3.57103171453948
 40
3.725205003920156
 40
3.861060674729659
 40
3.96943991771635
 40
4.041183923629026
 40
4.067133883213019
 40
4.311886746012203
 40
4.547897258335593
 40
4.764747083044035
 40
4.952749679951823
 40
5.045772974195961
 40
5.137862019645079
 40
5.330543169793126
 40
5.553448265244117
 40
5.795083855888299
 40
6.043293412177361
 40
6.285761695541317
 40
6.313902908752829
 40
6.384255941793419
 40
6.475714884767007
 40
6.567173827759041
 40
6.637526860839819
 40
6.665668074074182
 40
6.692018920328155
 40
6.749990782071225
 40
6.807962643790593
 40
6.834313490018068
 40
6.856393084245346
 40
6.913335195649998
 40
6.991194817302634
 40
7.076026942283867
 40
7.153886563725414
 40
7.210828674844968
 40
7.232908268931303
 40
7.258199334923824
 40
7.324875781592474
 40
7.419142481925131
 40
7.52720430884207
 40
7.635266135230649
 40
7.729532834168634
 40
7.796209279292957
 40
7.821500344594903
 40
7.844652988851002
 40
7.899863140541752
 40
7.965759128053919
 40
8.020969279771231
 40
8.044121924046697
 40
8.069356610160817
 40
8.109134395441641
 40
8.132238100191353
 40
8.193147867786719
 40
8.27926167887689
 40
8.377977512674105
 40
8.476693347146888
 40
8.562807160411943
 40
8.62371693082673
 40
8.64682063685368
 40
8.671988793774494
 40
8.734909185828405
 40
8.81670569518912
 40
8.89850220481569
 40
8.961422597378151
 40
8.986590754551264
 40
9.012941600733418
 40
9.070913462380503
 40
9.128885324081999
 40
9.155236170325319
 40
9.180404327929361
 40
9.243324721948435
 40
9.325121234212228
 40
9.406917746637882
 40
9.469838141978338
 40
9.495006288271112
 40
9.517811184379255
 40
9.572192090487254
 40
9.637098333281484
 40
9.691479239515683
 40
9.714284125643722
 40
9.714284125643722
 40
9.714284125643722
 40
9.714284125643722
 10
185.2874469028653
 20
15.26889163187719
 30
0.0
 10
185.3090990569037
 20
15.24111869242811
 30
0.0
 10
185.3597257109474
 20
15.17618054561236
 30
0.0
 10
185.4349383202592
 20
15.06891060312897
 30
0.0
 10
185.5248482274346
 20
14.95377438266626
 30
0.0
 10
185.5709169676674
 20
14.85357045748316
 30
0.0
 10
185.6655825294655
 20
14.78434006814946
 30
0.0
 10
185.6204439320414
 20
14.73771639678272
 30
0.0
 10
185.5947047785791
 20
14.6966030886604
 30
0.0
 10
185.5645196708013
 20
14.66065971727939
 30
0.0
 10
185.5193684730563
 20
14.58579782596093
 30
0.0
 10
185.4710504458562
 20
14.80782524253606
 30
0.0
 10
185.3968539713073
 20
14.84510677337707
 30
0.0
 10
185.2836047324607
 20
15.11610202130602
 30
0.0
 10
185.2885133578169
 20
15.00095328446229
 30
0.0
 10
185.2868486556306
 20
14.92836675781628
 30
0.0
 10
185.2876830076713
 20
14.80625588483987
 30
0.0
 10
185.2873609540264
 20
14.65913800810461
 30
0.0
 10
185.2875076912456
 20
14.49307063956558
 30
0.0
 10
185.2872950092722
 20
14.32187554608602
 30
0.0
 10
185.2879497252034
 20
14.15552828635498
 30
0.0
 10
185.2859192461139
 20
14.00935173055694
 30
0.0
 10
185.291346039993
 20
13.8847104747461
 30
0.0
 10
185.2804930868708
 20
13.81718656540627
 30
0.0
 10
185.2956739155555
 20
13.75549061417023
 30
0.0
 10
185.2457895108134
 20
13.76727503897002
 30
0.0
 10
185.2017150342523
 20
13.7594382277997
 30
0.0
 10
185.1582371630201
 20
13.76760441372702
 30
0.0
 10
185.1092346786489
 20
13.75538056738469
 30
0.0
 10
185.1218731234825
 20
13.80960667249313
 30
0.0
 10
185.113018296845
 20
13.86936918907558
 30
0.0
 10
185.1175058770314
 20
13.9792202904437
 30
0.0
 10
185.1157960135992
 20
14.11029975405678
 30
0.0
 10
185.1163550915987
 20
14.26198011444329
 30
0.0
 10
185.1161928768695
 20
14.42211074929953
 30
0.0
 10
185.1162269924675
 20
14.58236865674567
 30
0.0
 10
185.1162514960127
 20
14.7337024752044
 30
0.0
 10
185.1161453543227
 20
14.86582156338602
 30
0.0
 10
185.1164299141931
 20
14.97294802533193
 30
0.0
 10
185.1158675547569
 20
15.03808619579475
 30
0.0
 10
185.1180765083689
 20
15.16618957858676
 30
0.0
 10
185.0319435998603
 20
14.79097610391572
 30
0.0
 10
184.9555140818501
 20
14.63918193123397
 30
0.0
 10
184.8660040767834
 20
14.47766206446306
 30
0.0
 10
184.7640413217326
 20
14.20471848820172
 30
0.0
 10
184.7187976491039
 20
14.36717346596512
 30
0.0
 10
184.610235594167
 20
14.45605432058117
 30
0.0
 10
184.7995791751752
 20
14.60549794961409
 30
0.0
 10
184.85653405457
 20
14.79749136974926
 30
0.0
 10
184.9717520993353
 20
15.02899622906755
 30
0.0
 10
184.9940151630133
 20
15.21797259759065
 30
0.0
 10
185.1771905152139
 20
15.49454089325929
 30
0.0
 10
185.0538033597553
 20
15.48698978832094
 30
0.0
 10
184.9925684166834
 20
15.48856772366118
 30
0.0
 10
184.9081999617065
 20
15.48882592573673
 30
0.0
 10
184.8204235085966
 20
15.48544845751206
 30
0.0
 10
184.7656768696123
 20
15.4939481498202
 30
0.0
 10
184.7104703026025
 20
15.48048561049788
 30
0.0
 10
184.7222823035537
 20
15.52931442126763
 30
0.0
 10
184.7142496151795
 20
15.57269004896709
 30
0.0
 10
184.7228186104678
 20
15.61509438309572
 30
0.0
 10
184.7102943409158
 20
15.66267796552119
 30
0.0
 10
184.7555101538736
 20
15.65267212995109
 30
0.0
 10
184.8014815562725
 20
15.65894105174061
 30
0.0
 10
184.877722204771
 20
15.65593561405872
 30
0.0
 10
184.9561296131995
 20
15.65770448278541
 30
0.0
 10
185.0323992648934
 20
15.65464793981659
 30
0.0
 10
185.0783009459475
 20
15.66103971376176
 30
0.0
 10
185.12317339654
 20
15.65093822978896
 30
0.0
 10
185.1105552275635
 20
15.70157201581898
 30
0.0
 10
185.1191936582707
 20
15.7550126188207
 30
0.0
 10
185.1152361595445
 20
15.8486325513168
 30
0.0
 10
185.1162325068335
 20
15.95112606688924
 30
0.0
 10
185.1171927413074
 20
16.05353270248163
 30
0.0
 10
185.1133211458006
 20
16.14735929609321
 30
0.0
 10
185.1217789814365
 20
16.20036542840353
 30
0.0
 10
185.1093075932836
 20
16.25211435651189
 30
0.0
 10
185.1542106389851
 20
16.23850747226757
 30
0.0
 10
185.1955083836773
 20
16.24100480320586
 30
0.0
 10
185.2595344281051
 20
16.23648060574487
 30
0.0
 10
185.2986111148787
 20
16.22781003043309
 30
0.0
 10
185.3476543498743
 20
16.23515102070686
 30
0.0
 10
185.3225080030591
 20
16.19602896051758
 30
0.0
 10
185.2815901333723
 20
16.2056384245581
 30
0.0
 10
185.2910109616604
 20
16.15540148169778
 30
0.0
 10
185.2855647318746
 20
16.1038594563949
 30
0.0
 10
185.2881699601804
 20
16.0195970758452
 30
0.0
 10
185.2870102202153
 20
15.92559135583408
 30
0.0
 10
185.2883591064231
 20
15.83196865395526
 30
0.0
 10
185.2849970101508
 20
15.74679517552223
 30
0.0
 10
185.2920959917769
 20
15.69716856072044
 30
0.0
 10
185.2812569154545
 20
15.64993694969989
 30
0.0
 10
185.3304010225245
 20
15.66201674936851
 30
0.0
 10
185.3794877630147
 20
15.65447393363011
 30
0.0
 10
185.4573714280641
 20
15.65686070361432
 30
0.0
 10
185.5350365172897
 20
15.65899381905415
 30
0.0
 10
185.5845393931354
 20
15.65193391922455
 30
0.0
 10
185.6344594750639
 20
15.66360151936214
 30
0.0
 10
185.622319851688
 20
15.61540235371393
 30
0.0
 10
185.6305838229143
 20
15.57249219801236
 30
0.0
 10
185.6223198650783
 20
15.52958201851384
 30
0.0
 10
185.6344594549855
 20
15.48138288754865
 30
0.0
 10
185.5845395158746
 20
15.4930503447151
 30
0.0
 10
185.5350350651202
 20
15.48599202435046
 30
0.0
 10
185.4573784382973
 20
15.48811665228603
 30
0.0
 10
185.379464386576
 20
15.4905338936576
 30
0.0
 10
185.3304500352716
 20
15.48291848194485
 30
0.0
 10
185.2813246108943
 20
15.49507952557593
 30
0.0
 10
185.2915559988571
 20
15.45073013424158
 30
0.0
 10
185.2856677678053
 20
15.40925436202911
 30
0.0
 10
185.2878788305569
 20
15.34915394315302
 30
0.0
 10
185.2874109346146
 20
15.30225782762889
 30
0.0
 10
185.2874386992913
 20
15.27650146418196
 30
0.0
 10
185.2874469028653
 20
15.26889163187719
 30
0.0
 11
185.2874469028653
 21
15.26889163187719
 31
0.0
 11
185.3516977534484
 21
15.18524999634256
 31
0.0
 11
185.4348258835499
 21
15.07118889748221
 31
0.0
 11
185.5216831568896
 21
14.94891767195723
 31
0.0
 11
185.5971214371872
 21
14.84064565642876
 31
0.0
 11
185.6459925881627
 21
14.7685821875579
 31
0.0
 11
185.6296821285094
 21
14.74641782124399
 31
0.0
 11
185.5937991172721
 21
14.69765621535339
 31
0.0
 11
185.5579161060347
 21
14.6488946094628
 31
0.0
 11
185.5416056463814
 21
14.62673024314889
 31
0.0
 11
185.4763067109446
 21
14.74716139023813
 31
0.0
 11
185.3848434243234
 21
14.89966983670207
 31
0.0
 11
185.2874469028653
 21
15.05219788193143
 31
0.0
 11
185.2874469028653
 21
15.02216445328254
 31
0.0
 11
185.2874469028653
 21
14.93981472956784
 31
0.0
 11
185.2874469028653
 21
14.81677455413529
 31
0.0
 11
185.2874469028653
 21
14.66466977033284
 31
0.0
 11
185.2874469028653
 21
14.49512622150846
 31
0.0
 11
185.2874469028653
 21
14.3197697510101
 31
0.0
 11
185.2874469028653
 21
14.15022620218571
 31
0.0
 11
185.2874469028653
 21
13.99812141838326
 31
0.0
 11
185.2874469028653
 21
13.87508124295071
 31
0.0
 11
185.2874469028653
 21
13.79273151923601
 31
0.0
 11
185.2874469028653
 21
13.76269809058712
 31
0.0
 11
185.2606936700409
 21
13.76269809058712
 31
0.0
 11
185.2018365578272
 21
13.76269809058712
 31
0.0
 11
185.1429794456135
 21
13.76269809058712
 31
0.0
 11
185.1162262127891
 21
13.76269809058712
 31
0.0
 11
185.1162262127891
 21
13.7886480503125
 31
0.0
 11
185.1162262127891
 21
13.86039205661208
 31
0.0
 11
185.1162262127891
 21
13.96877130017102
 31
0.0
 11
185.1162262127891
 21
14.10462697167448
 31
0.0
 11
185.1162262127891
 21
14.25880026180761
 31
0.0
 11
185.1162262127891
 21
14.42213236125559
 31
0.0
 11
185.1162262127891
 21
14.58546446070357
 31
0.0
 11
185.1162262127891
 21
14.7396377508367
 31
0.0
 11
185.1162262127891
 21
14.87549342234016
 31
0.0
 11
185.1162262127891
 21
14.9838726658991
 31
0.0
 11
185.1162262127891
 21
15.05561667219868
 31
0.0
 11
185.1162262127891
 21
15.08156663192406
 31
0.0
 11
185.0379865861723
 21
14.84965603302372
 31
0.0
 11
184.9497110789304
 21
14.63077616328678
 31
0.0
 11
184.8544106930046
 21
14.43598991333547
 31
0.0
 11
184.7550964303357
 21
14.27636017379202
 31
0.0
 11
184.7109198342406
 21
14.35822446196599
 31
0.0
 11
184.658805738348
 21
14.43414885430811
 31
0.0
 11
184.7627302590299
 21
14.59640087926757
 31
0.0
 11
184.8629319864735
 21
14.7955146542178
 31
0.0
 11
184.9550446607902
 21
15.01890447916196
 31
0.0
 11
185.0347020220912
 21
15.25398465410319
 31
0.0
 11
185.0975378104881
 21
15.48816947904465
 31
0.0
 11
185.0693965972143
 21
15.48816947904465
 31
0.0
 11
184.9990435640298
 21
15.48816947904465
 31
0.0
 11
184.9075846208899
 21
15.48816947904465
 31
0.0
 11
184.81612567775
 21
15.48816947904465
 31
0.0
 11
184.7457726445655
 21
15.48816947904465
 31
0.0
 11
184.7176314312917
 21
15.48816947904465
 31
0.0
 11
184.7176314312917
 21
15.51452032539222
 31
0.0
 11
184.7176314312917
 21
15.57249218735688
 31
0.0
 11
184.7176314312917
 21
15.63046404932155
 31
0.0
 11
184.7176314312917
 21
15.65681489566912
 31
0.0
 11
184.739711025602
 21
15.65681489566912
 31
0.0
 11
184.7966531372445
 21
15.65681489566912
 31
0.0
 11
184.8745127592863
 21
15.65681489566912
 31
0.0
 11
184.9593448847945
 21
15.65681489566912
 31
0.0
 11
185.0372045068362
 21
15.65681489566912
 31
0.0
 11
185.0941466184787
 21
15.65681489566912
 31
0.0
 11
185.1162262127891
 21
15.65681489566912
 31
0.0
 11
185.1162262127891
 21
15.68210596174353
 31
0.0
 11
185.1162262127891
 21
15.74878240866697
 31
0.0
 11
185.1162262127891
 21
15.84304910948977
 31
0.0
 11
185.1162262127891
 21
15.95111093726224
 31
0.0
 11
185.1162262127891
 21
16.05917276503471
 31
0.0
 11
185.1162262127891
 21
16.15343946585751
 31
0.0
 11
185.1162262127891
 21
16.22011591278095
 31
0.0
 11
185.1162262127891
 21
16.24540697885536
 31
0.0
 11
185.1393181988666
 21
16.243732131078
 31
0.0
 11
185.1943837041285
 21
16.23973826330122
 31
0.0
 11
185.2601070491185
 21
16.23497138885796
 31
0.0
 11
185.3151725543804
 21
16.23097752108117
 31
0.0
 11
185.3382645404579
 21
16.22930267330381
 31
0.0
 11
185.3249012644362
 21
16.20789677921191
 31
0.0
 11
185.2874469028653
 21
16.19450114553469
 31
0.0
 11
185.2874469028653
 21
16.17139743948578
 31
0.0
 11
185.2874469028653
 21
16.11048766899319
 31
0.0
 11
185.2874469028653
 21
16.02437385553816
 31
0.0
 11
185.2874469028653
 21
15.9256580206019
 31
0.0
 11
185.2874469028653
 21
15.82694218566565
 31
0.0
 11
185.2874469028653
 21
15.74082837221061
 31
0.0
 11
185.2874469028653
 21
15.67991860171803
 31
0.0
 11
185.2874469028653
 21
15.65681489566912
 31
0.0
 11
185.3126150604809
 21
15.65681489566912
 31
0.0
 11
185.3755354545199
 21
15.65681489566912
 31
0.0
 11
185.4573319667706
 21
15.65681489566912
 31
0.0
 11
185.5391284790212
 21
15.65681489566912
 31
0.0
 11
185.6020488730602
 21
15.65681489566912
 31
0.0
 11
185.6272170306758
 21
15.65681489566912
 31
0.0
 11
185.6272170306758
 21
15.63046404932155
 31
0.0
 11
185.6272170306758
 21
15.57249218735689
 31
0.0
 11
185.6272170306758
 21
15.51452032539222
 31
0.0
 11
185.6272170306758
 21
15.48816947904465
 31
0.0
 11
185.6020488730602
 21
15.48816947904465
 31
0.0
 11
185.5391284790212
 21
15.48816947904465
 31
0.0
 11
185.4573319667705
 21
15.48816947904465
 31
0.0
 11
185.3755354545199
 21
15.48816947904465
 31
0.0
 11
185.3126150604809
 21
15.48816947904465
 31
0.0
 11
185.2874469028653
 21
15.48816947904465
 31
0.0
 11
185.2874469028653
 21
15.46536458293923
 31
0.0
 11
185.2874469028653
 21
15.4109836768417
 31
0.0
 11
185.2874469028653
 21
15.34607743408013
 31
0.0
 11
185.2874469028653
 21
15.29169652798261
 31
0.0
 11
185.2874469028653
 21
15.26889163187719
 31
0.0
  0
SPLINE
  5
B3
102
{ACAD_REACTORS
330
D0
102
}
330
48
100
AcDbEntity
  8
_U_30EC_U_30A4_U_30E4_U_30FC_1
  6
Continuous
 62
     2
100
AcDbSpline
210
0.0
220
0.0
230
1.0
 70
    11
 71
     3
 72
    47
 73
    43
 74
    41
 42
0.000000001
 43
0.0000000001
 44
0.00000001
 40
0.0
 40
0.0
 40
0.0
 40
0.0
 40
0.2207912809957112
 40
0.4459404186302937
 40
0.4902387190458589
 40
0.5327473892720983
 40
0.5742260451224871
 40
0.6155432630559596
 40
0.6568164066315083
 40
0.6982511618780287
 40
0.7407663929316237
 40
0.7851366743175141
 40
1.010288833836315
 40
1.231080507002153
 40
1.451765243652386
 40
1.676638205891678
 40
1.720461045359648
 40
1.830018144043513
 40
1.972442372353144
 40
2.114866600677513
 40
2.224423699395138
 40
2.268246538883379
 40
2.493628801207214
 40
2.715602830286611
 40
2.934211330706364
 40
3.149502369855359
 40
3.231387784851089
 40
3.318231873854153
 40
3.405143198198112
 40
3.486970301720464
 40
3.702258172493907
 40
3.920866283534137
 40
4.142839325931923
 40
4.368221903865387
 40
4.412044743359867
 40
4.521601842095882
 40
4.664026070452363
 40
4.806450298809071
 40
4.916007397546763
 40
4.959830237043087
 40
5.184703515847127
 40
5.405387250767502
 40
5.405387250767502
 40
5.405387250767502
 40
5.405387250767502
 10
182.6507427258646
 20
15.73406440953873
 30
0.0
 10
182.6568139420004
 20
15.79758482501211
 30
0.0
 10
182.6690762107243
 20
15.92587938689626
 30
0.0
 10
182.5604706879414
 20
16.20166220174076
 30
0.0
 10
182.6761985896604
 20
16.17188133432054
 30
0.0
 10
182.7171842509016
 20
16.16765556262819
 30
0.0
 10
182.7591205797518
 20
16.16310446389608
 30
0.0
 10
182.8004196625711
 20
16.16201982929485
 30
0.0
 10
182.8417032115556
 20
16.16310338195227
 30
0.0
 10
182.8836148270648
 20
16.16766112711342
 30
0.0
 10
182.924598354902
 20
16.1718743020973
 30
0.0
 10
183.0404922843489
 20
16.20177611317532
 30
0.0
 10
182.9295652727456
 20
15.92339806609893
 30
0.0
 10
182.9574856365269
 20
15.74283140824953
 30
0.0
 10
182.9404267346969
 20
15.50961042346472
 30
0.0
 10
182.9414637282104
 20
15.34906622543145
 30
0.0
 10
182.9414099399405
 20
15.22284817558722
 30
0.0
 10
182.9414277372482
 20
15.12428963336242
 30
0.0
 10
182.9414188581081
 20
14.99280702442962
 30
0.0
 10
182.9414263928034
 20
14.86132844968649
 30
0.0
 10
182.941412940513
 20
14.76276222694091
 30
0.0
 10
182.9414531717493
 20
14.63639735624152
 30
0.0
 10
182.9406746403818
 20
14.47482068822869
 30
0.0
 10
182.9565958319268
 20
14.24361821892915
 30
0.0
 10
182.9333468885407
 20
14.05874351972
 30
0.0
 10
183.0360183444367
 20
13.78935602770053
 30
0.0
 10
182.8820238362837
 20
13.82660112685817
 30
0.0
 10
182.8004129802832
 20
13.82137994680534
 30
0.0
 10
182.7188192292583
 20
13.8266062037835
 30
0.0
 10
182.5648513666844
 20
13.78937069885389
 30
0.0
 10
182.6674183421918
 20
14.0587512986288
 30
0.0
 10
182.6442045316089
 20
14.24361585325414
 30
0.0
 10
182.6600444655139
 20
14.47482218565639
 30
0.0
 10
182.6593296313427
 20
14.63639712308503
 30
0.0
 10
182.6593664569907
 20
14.76276231210521
 30
0.0
 10
182.659354900027
 20
14.86132756635981
 30
0.0
 10
182.6593575019214
 20
14.9928112741722
 30
0.0
 10
182.6593648531779
 20
15.124275480312
 30
0.0
 10
182.6593442541351
 20
15.22287786275325
 30
0.0
 10
182.6594082192028
 20
15.34896149354427
 30
0.0
 10
182.658173394759
 20
15.51210091383771
 30
0.0
 10
182.6532040396745
 20
15.6605418377755
 30
0.0
 10
182.6507427258646
 20
15.73406440953873
 30
0.0
 11
182.6507427258646
 21
15.73406440953873
 31
0.0
 11
182.641732820038
 21
15.95467178795577
 31
0.0
 11
182.6318769706147
 21
16.17960510387179
 31
0.0
 11
182.6756985840802
 21
16.17312391463728
 31
0.0
 11
182.7178400934215
 21
16.16754892331924
 31
0.0
 11
182.7591371409791
 21
16.16367167505631
 31
0.0
 11
182.8004341885365
 21
16.16238072887607
 31
0.0
 11
182.8416871388731
 21
16.16367167505631
 31
0.0
 11
182.8829400892098
 21
16.16754892331924
 31
0.0
 11
182.9250882131343
 21
16.17312391463728
 31
0.0
 11
182.9689825870146
 21
16.17960510387179
 31
0.0
 11
182.9590577693891
 21
15.95467178795577
 31
0.0
 11
182.9500384208311
 21
15.73406440953873
 31
0.0
 11
182.9435638463436
 21
15.51347467001055
 31
0.0
 11
182.9414218238287
 21
15.28861190965007
 31
0.0
 11
182.9414218238287
 21
15.24478907015486
 31
0.0
 11
182.9414218238287
 21
15.13523197141682
 31
0.0
 11
182.9414218238287
 21
14.99280774305737
 31
0.0
 11
182.9414218238287
 21
14.85038351469792
 31
0.0
 11
182.9414218238287
 21
14.74082641595989
 31
0.0
 11
182.9414218238287
 21
14.69700357646467
 31
0.0
 11
182.9435638463436
 21
14.47163149318766
 31
0.0
 11
182.9500384208311
 21
14.2497519099098
 31
0.0
 11
182.9590577693892
 21
14.03132954885329
 31
0.0
 11
182.9689825870146
 21
13.81626739612927
 31
0.0
 11
182.887261616877
 21
13.82145433189185
 31
0.0
 11
182.8004341885365
 21
13.82315538223862
 31
0.0
 11
182.7135395119339
 21
13.82145433189185
 31
0.0
 11
182.6318769706147
 21
13.81626739612927
 31
0.0
 11
182.641732820038
 21
14.03132954885329
 31
0.0
 11
182.6507427258646
 21
14.2497519099098
 31
0.0
 11
182.6571833838798
 21
14.47163149318766
 31
0.0
 11
182.6593583588023
 21
14.69700357646467
 31
0.0
 11
182.6593583588023
 21
14.74082641595988
 31
0.0
 11
182.6593583588023
 21
14.85038351469792
 31
0.0
 11
182.6593583588023
 21
14.99280774305737
 31
0.0
 11
182.6593583588023
 21
15.13523197141682
 31
0.0
 11
182.6593583588023
 21
15.24478907015486
 31
0.0
 11
182.6593583588023
 21
15.28861190965007
 31
0.0
 11
182.6571833838798
 21
15.51347467001055
 31
0.0
 11
182.6507427258646
 21
15.73406440953873
 31
0.0
  0
SPLINE
  5
B4
102
{ACAD_REACTORS
330
D1
102
}
330
48
100
AcDbEntity
  8
_U_30EC_U_30A4_U_30E4_U_30FC_1
  6
Continuous
 62
     2
100
AcDbSpline
210
0.0
220
0.0
230
1.0
 70
    11
 71
     3
 72
   110
 73
   106
 74
   104
 42
0.000000001
 43
0.0000000001
 44
0.00000001
 40
0.0
 40
0.0
 40
0.0
 40
0.0
 40
0.2203406257277714
 40
0.4407808782838093
 40
0.595249449461507
 40
0.7488431659393076
 40
0.9023581831309343
 40
1.056801968670404
 40
1.210736449099962
 40
1.363041386539869
 40
1.515315729683126
 40
1.669377239148077
 40
1.721611652756564
 40
1.773199502942948
 40
1.824933793209997
 40
1.877110426487978
 40
1.982682281206742
 40
2.078781667087551
 40
2.172809640822243
 40
2.271937807378926
 40
2.378349933379319
 40
2.494131557736394
 40
2.626681683943584
 40
2.783145050796068
 40
2.890701232940921
 40
2.993130312454827
 40
3.099869730691804
 40
3.220237816691298
 40
3.352695482737583
 40
3.481732806389839
 40
3.593499473690367
 40
3.674323013331874
 40
3.817951711952823
 40
3.946167120793934
 40
4.061405053453535
 40
4.166480796003147
 40
4.262478775059213
 40
4.350736673551254
 40
4.433071991254055
 40
4.511216293814742
 40
4.564262454118079
 40
4.618474415571707
 40
4.670128488754304
 40
4.72229687912651
 40
4.819540945314436
 40
4.931194984128235
 40
5.049996040257934
 40
5.168643755415536
 40
5.283970811762747
 40
5.392260784910572
 40
5.486512254876619
 40
5.559178233950046
 40
5.591425852853713
 40
5.626215969638094
 40
5.667155838674638
 40
5.717449290214451
 40
5.738402360945064
 40
5.784499116554032
 40
5.830595872165
 40
5.851548942897858
 40
5.873019280661974
 40
5.924217778408519
 40
5.985325662817902
 40
6.036524160567921
 40
6.057994498334449
 40
6.236847789607688
 40
6.381409928945854
 40
6.493190424178895
 40
6.574067534230705
 40
6.691018086205714
 40
6.814881554220632
 40
6.944307823240584
 40
7.071266716066209
 40
7.193488604462053
 40
7.309042773128366
 40
7.414007203170963
 40
7.505140441886662
 40
7.531150360599816
 40
7.559221645322391
 40
7.587202218921057
 40
7.612569159499277
 40
7.662550809481144
 40
7.702878875764275
 40
7.857328205231032
 40
8.010799568088734
 40
8.165256399657627
 40
8.322232698714023
 40
8.47956485501671
 40
8.635216230290913
 40
8.790882550925831
 40
8.948305154947397
 40
9.168271839033089
 40
9.38735898098736
 40
9.608047961033604
 40
9.832914234792817
 40
9.858338694963152
 40
9.925366817230158
 40
10.02013071422774
 40
10.12876249859012
 40
10.23739428295263
 40
10.33215817995204
 40
10.39918630222407
 40
10.42461076239796
 40
10.64992019336957
 40
10.87188524531201
 40
10.87188524531201
 40
10.87188524531201
 40
10.87188524531201
 10
179.9057788376618
 20
15.7392326039819
 30
0.0
 10
179.9092864933542
 20
15.80616462073804
 30
0.0
 10
179.9163033987663
 20
15.94005891915859
 30
0.0
 10
179.8198027599073
 20
16.2254855497147
 30
0.0
 10
180.0510134726109
 20
16.16284386190284
 30
0.0
 10
180.1919290057156
 20
16.1700155405599
 30
0.0
 10
180.3490417757588
 20
16.16235883078244
 30
0.0
 10
180.5025913427288
 20
16.1625275228304
 30
0.0
 10
180.6545104935081
 20
16.16182040535432
 30
0.0
 10
180.8142214813232
 20
16.17210158351639
 30
0.0
 10
180.9408972601118
 20
16.15496511080752
 30
0.0
 10
181.137082112208
 20
16.22727260107145
 30
0.0
 10
181.1034395279078
 20
16.12640699080117
 30
0.0
 10
181.1052011317184
 20
16.07619253947671
 30
0.0
 10
181.1027342073458
 20
16.02712335586465
 30
0.0
 10
181.1347076966011
 20
15.94063490846999
 30
0.0
 10
181.0010399903256
 20
15.98997438608336
 30
0.0
 10
180.9172208688057
 20
15.98430634314169
 30
0.0
 10
180.8173861139323
 20
15.99465516706297
 30
0.0
 10
180.7186576720146
 20
16.00086450411087
 30
0.0
 10
180.612153277111
 20
16.00697763816776
 30
0.0
 10
180.491051169806
 20
16.01588883484586
 30
0.0
 10
180.3703381502454
 20
16.00521605912382
 30
0.0
 10
180.1812553843436
 20
16.06468503080369
 30
0.0
 10
180.2129028505312
 20
15.90558320077539
 30
0.0
 10
180.1995563316833
 20
15.80839128339904
 30
0.0
 10
180.1974958426451
 20
15.69634065110102
 30
0.0
 10
180.195818804467
 20
15.57699685629351
 30
0.0
 10
180.1973336794232
 20
15.4503259215511
 30
0.0
 10
180.1956582478672
 20
15.32301588016117
 30
0.0
 10
180.2058844271658
 20
15.22451566404464
 30
0.0
 10
180.1779006596582
 20
15.08388702625631
 30
0.0
 10
180.3508029999306
 20
15.13989551134096
 30
0.0
 10
180.4645020202772
 20
15.12719951478497
 30
0.0
 10
180.584015167224
 20
15.13448377051255
 30
0.0
 10
180.6888491425071
 20
15.13878017056755
 30
0.0
 10
180.7843084898612
 20
15.14330568258978
 30
0.0
 10
180.8763823507032
 20
15.15149201146199
 30
0.0
 10
180.947655178244
 20
15.14643850638113
 30
0.0
 10
181.0544931705686
 20
15.18536425031677
 30
0.0
 10
181.0226603598036
 20
15.1051712200588
 30
0.0
 10
181.0266164503929
 20
15.05562936846033
 30
0.0
 10
181.0234502392013
 20
15.00557478039818
 30
0.0
 10
181.0550791490586
 20
14.92128847612021
 30
0.0
 10
180.9210133677692
 20
14.97425365495156
 30
0.0
 10
180.8292322793201
 20
14.96540080890441
 30
0.0
 10
180.7079729189603
 20
14.97570049965155
 30
0.0
 10
180.5914113119771
 20
14.97748911767502
 30
0.0
 10
180.4783375745879
 20
14.97787017109694
 30
0.0
 10
180.3679246308471
 20
14.9841544947218
 30
0.0
 10
180.289812406784
 20
14.97189133255363
 30
0.0
 10
180.1913625833644
 20
15.00453887616127
 30
0.0
 10
180.2012355173561
 20
14.94769748054206
 30
0.0
 10
180.1973923244404
 20
14.91392130557983
 30
0.0
 10
180.1966789884268
 20
14.87119604709411
 30
0.0
 10
180.1963369642975
 20
14.83401607262153
 30
0.0
 10
180.1963834255345
 20
14.7948723737077
 30
0.0
 10
180.1963649429926
 20
14.75716849497685
 30
0.0
 10
180.1963703431806
 20
14.71944955232403
 30
0.0
 10
180.19636972142
 20
14.68994324745149
 30
0.0
 10
180.1963698151546
 20
14.65873577699301
 30
0.0
 10
180.196370428792
 20
14.61414424908084
 30
0.0
 10
180.1963671499337
 20
14.5596395650885
 30
0.0
 10
180.1963759623481
 20
14.51505540201447
 30
0.0
 10
180.1963359653417
 20
14.43117808585739
 30
0.0
 10
180.1976024270255
 20
14.31737520677678
 30
0.0
 10
180.1950274117843
 20
14.1683039593371
 30
0.0
 10
180.2065009381719
 20
14.06597203813905
 30
0.0
 10
180.1823506222265
 20
13.93338903885837
 30
0.0
 10
180.3332993946476
 20
13.97895732272021
 30
0.0
 10
180.4428436671556
 20
13.96427012162349
 30
0.0
 10
180.5733970473921
 20
13.96920435125064
 30
0.0
 10
180.6990312209514
 20
13.97257705323361
 30
0.0
 10
180.8188730625601
 20
13.97711497498773
 30
0.0
 10
180.9391362611427
 20
13.99048536182005
 30
0.0
 10
181.0222761663516
 20
13.98068712782595
 30
0.0
 10
181.1456080421075
 20
14.04126214623318
 30
0.0
 10
181.1244269203956
 20
13.98532460134021
 30
0.0
 10
181.1235950270119
 20
13.95939249372345
 30
0.0
 10
181.1218963707557
 20
13.93197256190939
 30
0.0
 10
181.1217974888829
 20
13.89738195206384
 30
0.0
 10
181.120365930133
 20
13.86050408220767
 30
0.0
 10
181.153280419219
 20
13.76846841021808
 30
0.0
 10
180.9551306988106
 20
13.84132015974832
 30
0.0
 10
180.8300548294891
 20
13.81825726508606
 30
0.0
 10
180.6673071295156
 20
13.82454021985785
 30
0.0
 10
180.5129366450001
 20
13.82260943909926
 30
0.0
 10
180.3566670436944
 20
13.82393762599267
 30
0.0
 10
180.1970544465282
 20
13.82059872487862
 30
0.0
 10
180.0540326342237
 20
13.8326579572824
 30
0.0
 10
179.8197144881628
 20
13.76952001976918
 30
0.0
 10
179.9173810751197
 20
14.05620527466317
 30
0.0
 10
179.9006868780058
 20
14.2498830814266
 30
0.0
 10
179.9146296709685
 20
14.47848242880295
 30
0.0
 10
179.9142987846632
 20
14.63384593955049
 30
0.0
 10
179.9143078119264
 20
14.73966336444127
 30
0.0
 10
179.9143055876317
 20
14.80205784124215
 30
0.0
 10
179.914306555189
 20
14.89220425248327
 30
0.0
 10
179.9143065473262
 20
14.99621167157438
 30
0.0
 10
179.9143053861104
 20
15.10022131375296
 30
0.0
 10
179.9143090971502
 20
15.19036243688768
 30
0.0
 10
179.9143011051053
 20
15.25276803097215
 30
0.0
 10
179.9143334275018
 20
15.35868835961119
 30
0.0
 10
179.913144078832
 20
15.51626716544741
 30
0.0
 10
179.9082216489256
 20
15.66528219822065
 30
0.0
 10
179.9057788376618
 20
15.7392326039819
 30
0.0
 11
179.9057788376618
 21
15.7392326039819
 31
0.0
 11
179.8966918223741
 21
15.95938578101018
 31
0.0
 11
179.8868249573133
 21
16.17960510387179
 31
0.0
 11
180.04115751414
 21
16.17312391463728
 31
0.0
 11
180.1946500189046
 21
16.16754892331924
 31
0.0
 11
180.3481160653367
 21
16.16367167505631
 31
0.0
 11
180.5025544554939
 21
16.16238072887607
 31
0.0
 11
180.6564835227474
 21
16.16367167505631
 31
0.0
 11
180.8087391004601
 21
16.16754892331924
 31
0.0
 11
180.9609113551074
 21
16.17312391463728
 31
0.0
 11
181.1148364762483
 21
16.17960510387179
 31
0.0
 11
181.1070811703123
 21
16.12794961777358
 31
0.0
 11
181.1044991623591
 21
16.07642642334204
 31
0.0
 11
181.1070811703123
 21
16.0247566056466
 31
0.0
 11
181.1148364762483
 21
15.97315954836784
 31
0.0
 11
181.0094874054411
 21
15.98001446156058
 31
0.0
 11
180.913637570006
 21
15.98693552058658
 31
0.0
 11
180.8198593171903
 21
15.99378381919598
 31
0.0
 11
180.7209679915881
 21
16.0006321178054
 31
0.0
 11
180.6147532199924
 21
16.00710999974824
 31
0.0
 11
180.4991060528039
 21
16.01268829835794
 31
0.0
 11
180.3666126447258
 21
16.01656554662087
 31
0.0
 11
180.2101546018423
 21
16.01785649280112
 31
0.0
 11
180.2062663293722
 21
15.91037061609187
 31
0.0
 11
180.20153800484
 21
15.80805072896464
 31
0.0
 11
180.197660756675
 21
15.70138175329687
 31
0.0
 11
180.1963698105272
 21
15.5810205901325
 31
0.0
 11
180.1967799146836
 21
15.44856355891565
 31
0.0
 11
180.1980896021503
 21
15.31953288186455
 31
0.0
 11
180.1994074577049
 21
15.20777398432309
 31
0.0
 11
180.199819115366
 21
15.12695149302385
 31
0.0
 11
180.3434452935874
 21
15.1278025694125
 31
0.0
 11
180.4716343930759
 21
15.13039989580077
 31
0.0
 11
180.5868078221796
 21
15.13425509545254
 31
0.0
 11
180.691775631222
 21
15.13901649302076
 31
0.0
 11
180.7876346289421
 21
15.14418027774175
 31
0.0
 11
180.8757413374194
 21
15.14934406246267
 31
0.0
 11
180.9578881438496
 21
15.15491243919739
 31
0.0
 11
181.0357692335572
 21
15.16132086801525
 31
0.0
 11
181.0280180445186
 21
15.10884407115337
 31
0.0
 11
181.0254328449317
 21
15.05469378470857
 31
0.0
 11
181.0280180445186
 21
15.00310444444367
 31
0.0
 11
181.0357692335572
 21
14.95151510417882
 31
0.0
 11
180.9389813454015
 21
14.96092324653757
 31
0.0
 11
180.8275950722016
 21
14.96865128473012
 31
0.0
 11
180.7089261429373
 21
14.97425273438146
 31
0.0
 11
180.5903167449213
 21
14.97726788195011
 31
0.0
 11
180.4750025117521
 21
14.97898767361638
 31
0.0
 11
180.36672619507
 21
14.98070746528257
 31
0.0
 11
180.2724839317708
 21
14.98202486979616
 31
0.0
 11
180.199819115366
 21
14.98243607639329
 31
0.0
 11
180.199407457705
 21
14.95019108508191
 31
0.0
 11
180.1980896021503
 21
14.91542593752117
 31
0.0
 11
180.1967799146836
 21
14.87450702260084
 31
0.0
 11
180.1963698105272
 21
14.82421524309951
 31
0.0
 11
180.1963698105272
 21
14.80326217235821
 31
0.0
 11
180.1963698105272
 21
14.75716541672736
 31
0.0
 11
180.1963698105272
 21
14.71106866109651
 31
0.0
 11
180.1963698105272
 21
14.69011559035521
 31
0.0
 11
180.1963698105272
 21
14.6686452525828
 31
0.0
 11
180.1963698105272
 21
14.61744675481783
 31
0.0
 11
180.1963698105272
 21
14.55633887038867
 31
0.0
 11
180.1963698105272
 21
14.5051403726237
 31
0.0
 11
180.1963698105272
 21
14.48367003485129
 31
0.0
 11
180.1967799146836
 21
14.30481721371548
 31
0.0
 11
180.1980896021503
 21
14.16026100715443
 31
0.0
 11
180.2002868589709
 21
14.04850210961289
 31
0.0
 11
180.2032586986986
 21
13.96767961831365
 31
0.0
 11
180.3202092517447
 21
13.96767961831365
 31
0.0
 11
180.4440727208746
 21
13.96767961831365
 31
0.0
 11
180.5734925526422
 21
13.9689705644939
 31
0.0
 11
180.7003922282244
 21
13.97284781275682
 31
0.0
 11
180.8224658067973
 21
13.97886708358865
 31
0.0
 11
180.9377587499464
 21
13.98663260442002
 31
0.0
 11
181.0421754573519
 21
13.99734161483402
 31
0.0
 11
181.1320599255448
 21
14.01237656274692
 31
0.0
 11
181.1264254031191
 21
13.98698427976715
 31
0.0
 11
181.1234433285424
 21
13.95907184053802
 31
0.0
 11
181.12213398812
 21
13.93112191867002
 31
0.0
 11
181.1217235369195
 21
13.90575829888471
 31
0.0
 11
181.1243087365064
 21
13.85584355063326
 31
0.0
 11
181.1320599255448
 21
13.81626739612927
 31
0.0
 11
180.9776977178344
 21
13.82145433189185
 31
0.0
 11
180.8242357818765
 21
13.82315538223862
 31
0.0
 11
180.6697789496484
 21
13.82315538223862
 31
0.0
 11
180.5128026496768
 21
13.82315538223862
 31
0.0
 11
180.3554704921536
 21
13.82315538223862
 31
0.0
 11
180.199819115366
 21
13.82315538223862
 31
0.0
 11
180.0441620874241
 21
13.82145433189185
 31
0.0
 11
179.8868249573133
 21
13.81626739612927
 31
0.0
 11
179.8966918223741
 21
14.0360126738521
 31
0.0
 11
179.9057788376618
 21
14.25491128490851
 31
0.0
 11
179.9121721518401
 21
14.47550763902002
 31
0.0
 11
179.914306345501
 21
14.70036378479716
 31
0.0
 11
179.914306345501
 21
14.72578824496875
 31
0.0
 11
179.914306345501
 21
14.79281636723932
 31
0.0
 11
179.914306345501
 21
14.88758026424254
 31
0.0
 11
179.914306345501
 21
14.99621204861208
 31
0.0
 11
179.914306345501
 21
15.10484383298162
 31
0.0
 11
179.914306345501
 21
15.19960772998484
 31
0.0
 11
179.914306345501
 21
15.2666358522554
 31
0.0
 11
179.914306345501
 21
15.292060312427
 31
0.0
 11
179.9121721518401
 21
15.51735963528735
 31
0.0
 11
179.9057788376618
 21
15.7392326039819
 31
0.0
  0
SPLINE
  5
B5
102
{ACAD_REACTORS
330
D2
102
}
330
48
100
AcDbEntity
  8
_U_30EC_U_30A4_U_30E4_U_30FC_1
  6
Continuous
 62
     2
100
AcDbSpline
210
0.0
220
0.0
230
1.0
 70
    11
 71
     3
 72
    95
 73
    91
 74
    89
 42
0.000000001
 43
0.0000000001
 44
0.00000001
 40
0.0
 40
0.0
 40
0.0
 40
0.0
 40
0.6550406656911366
 40
1.308087289031932
 40
1.420803739835789
 40
1.566130759770792
 40
1.757067341888457
 40
2.006513545026452
 40
2.087328263121539
 40
2.185328872295613
 40
2.294612454748363
 40
2.408936380534808
 40
2.526802767798561
 40
2.646360524615601
 40
2.762535723971578
 40
2.870057342870155
 40
2.966883448431641
 40
3.050803243518283
 40
3.115818222436601
 40
3.156030057150234
 40
3.213914225080108
 40
3.276689026450451
 40
3.342960320981285
 40
3.404230667150478
 40
3.453822809493282
 40
3.532499827188341
 40
3.63477518850708
 40
3.754909333008086
 40
3.889736761660573
 40
4.035769602175147
 40
4.187256681197521
 40
4.338733685675868
 40
4.488478734676032
 40
4.634708317831511
 40
4.771493189921181
 40
4.892686571561124
 40
5.199775528944365
 40
5.460353566929559
 40
5.667603142345429
 40
5.814722905404413
 40
5.828990806219739
 40
5.855488336304408
 40
5.86975623711874
 40
6.189796507762751
 40
6.531890469872939
 40
6.883053637016912
 40
7.230512024911347
 40
7.566966656764473
 40
7.88520355970728
 40
8.17288743971914
 40
8.418011594062694
 40
8.443926721190616
 40
8.510760470613103
 40
8.602145393795613
 40
8.701714041647055
 40
8.793098965075284
 40
8.859932715057857
 40
8.885847842603507
 40
9.242301256612722
 40
9.589275455016677
 40
9.921808543164081
 40
10.23479624298459
 40
10.29968150889178
 40
10.35323493887769
 40
10.40154625355151
 40
10.46482922477818
 40
10.55973900668398
 40
10.6923954598561
 40
10.84920353475665
 40
11.01626328594772
 40
11.18672024367436
 40
11.35372582577203
 40
11.50257442292419
 40
11.61866495023284
 40
11.71329869152867
 40
11.825110505739
 40
11.94464880845708
 40
12.069292426425
 40
12.19707290435169
 40
12.32562632860521
 40
12.45034565331271
 40
12.56646595170319
 40
12.67099007414627
 40
12.76077625936774
 40
12.82703233506687
 40
12.87429132785986
 40
12.89831990323326
 40
12.92234847860014
 40
13.53984767410313
 40
14.1829428435936
 40
14.1829428435936
 40
14.1829428435936
 40
14.1829428435936
 10
177.3067935648021
 20
14.70898038201724
 30
0.0
 10
177.1752019758551
 20
14.82265058603232
 30
0.0
 10
176.912419380273
 20
15.04964496316159
 30
0.0
 10
176.3997393441019
 20
15.89214462956287
 30
0.0
 10
176.4106654595363
 20
15.53423377577019
 30
0.0
 10
176.404122652799
 20
15.39267392272132
 30
0.0
 10
176.4028026631773
 20
15.19421305299281
 30
0.0
 10
176.4018117602538
 20
15.02150296045982
 30
0.0
 10
176.4024101751975
 20
14.8786537325758
 30
0.0
 10
176.4038994301882
 20
14.78265005413358
 30
0.0
 10
176.4055683588472
 20
14.67545503263142
 30
0.0
 10
176.4071934954619
 20
14.56164211517582
 30
0.0
 10
176.4092429501685
 20
14.44441572604588
 30
0.0
 10
176.4123165501927
 20
14.3265641123297
 30
0.0
 10
176.4156339697043
 20
14.2122808732062
 30
0.0
 10
176.4193605340281
 20
14.10521401867276
 30
0.0
 10
176.4217338161424
 20
14.01007408766921
 30
0.0
 10
176.4278718888359
 20
13.92558557205695
 30
0.0
 10
176.4239784495948
 20
13.86923087298143
 30
0.0
 10
176.4455230443077
 20
13.79825022472356
 30
0.0
 10
176.3680940058618
 20
13.82902677604483
 30
0.0
 10
176.3116353240191
 20
13.82011242517613
 30
0.0
 10
176.2540495896807
 20
13.82896218398276
 30
0.0
 10
176.1690163478474
 20
13.79738225225946
 30
0.0
 10
176.2009714146382
 20
13.88095155992191
 30
0.0
 10
176.199070528254
 20
13.94882608968308
 30
0.0
 10
176.21079600473
 20
14.05233256764419
 30
0.0
 10
176.2164241053001
 20
14.17002125616695
 30
0.0
 10
176.223790217894
 20
14.30388609164424
 30
0.0
 10
176.2320759701611
 20
14.44764152872632
 30
0.0
 10
176.2398851897426
 20
14.59714022843445
 30
0.0
 10
176.2457571222657
 20
14.74792549402078
 30
0.0
 10
176.2503667817968
 20
14.89699943878438
 30
0.0
 10
176.2542632117544
 20
15.04122913163022
 30
0.0
 10
176.2570715126565
 20
15.17583905213018
 30
0.0
 10
176.2576698755021
 20
15.36469614347354
 30
0.0
 10
176.2616023867151
 20
15.58975494313154
 30
0.0
 10
176.2442175378498
 20
15.86367091125708
 30
0.0
 10
176.2850417342583
 20
16.02787112098597
 30
0.0
 10
176.1995153256003
 20
16.22749661465099
 30
0.0
 10
176.2660558907689
 20
16.22385458403979
 30
0.0
 10
176.2838724273231
 20
16.22413447160855
 30
0.0
 10
176.4056801797503
 20
16.22632927398614
 30
0.0
 10
176.5080770335463
 20
15.94675118721515
 30
0.0
 10
176.7580021509356
 20
15.74563008536003
 30
0.0
 10
176.9870035331111
 20
15.47792614987918
 30
0.0
 10
177.2245151213109
 20
15.22646413862373
 30
0.0
 10
177.4486090740772
 20
14.98969974061361
 30
0.0
 10
177.6750716283009
 20
14.73218692583075
 30
0.0
 10
177.8325687886515
 20
14.61649335056926
 30
0.0
 10
178.0472129612676
 20
14.27997152538794
 30
0.0
 10
178.0422645974619
 20
14.40464754091603
 30
0.0
 10
178.0433931602547
 20
14.46327691935737
 30
0.0
 10
178.0428877841517
 20
14.55043662371977
 30
0.0
 10
178.0430475158114
 20
14.64416143182872
 30
0.0
 10
178.043005489132
 20
14.73018971297035
 30
0.0
 10
178.0430202040374
 20
14.79153891945496
 30
0.0
 10
178.0429706255983
 20
14.94135231520991
 30
0.0
 10
178.0458811522812
 20
15.17989612510105
 30
0.0
 10
178.0259521041161
 20
15.544865098687
 30
0.0
 10
178.0750433936249
 20
15.80799631993415
 30
0.0
 10
177.9177951509179
 20
16.2192890494775
 30
0.0
 10
178.0762112872422
 20
16.16398282551748
 30
0.0
 10
178.131168047863
 20
16.16199686500175
 30
0.0
 10
178.182788776674
 20
16.16264778248252
 30
0.0
 10
178.2713198965366
 20
16.20369527738244
 30
0.0
 10
178.220489830317
 20
16.05696326622985
 30
0.0
 10
178.2313389930285
 20
15.95019971954434
 30
0.0
 10
178.2166036994847
 20
15.79085705414112
 30
0.0
 10
178.2099976446206
 20
15.62853061652874
 30
0.0
 10
178.2014961399915
 20
15.45992521892395
 30
0.0
 10
178.1943227202199
 20
15.2981481470354
 30
0.0
 10
178.188906321539
 20
15.15422331457932
 30
0.0
 10
178.1871713967649
 20
15.03437493466925
 30
0.0
 10
178.1875440672319
 20
14.92686101590514
 30
0.0
 10
178.1873656126264
 20
14.81820024645586
 30
0.0
 10
178.187701086314
 20
14.69953570165531
 30
0.0
 10
178.1890040622183
 20
14.57555163512741
 30
0.0
 10
178.1908887351576
 20
14.44858294171105
 30
0.0
 10
178.1925004454849
 20
14.32153861551032
 30
0.0
 10
178.1941403137432
 20
14.19854884492178
 30
0.0
 10
178.1962570745751
 20
14.0830093138376
 30
0.0
 10
178.1963848422363
 20
13.98090903955837
 30
0.0
 10
178.2006514396554
 20
13.89009848838156
 30
0.0
 10
178.1908440085289
 20
13.83213621208786
 30
0.0
 10
178.211847477169
 20
13.76517130132028
 30
0.0
 10
178.1725639739896
 20
13.77291153966686
 30
0.0
 10
177.9595307117747
 20
13.75755254145192
 30
0.0
 10
177.7636297943187
 20
14.31403058094472
 30
0.0
 10
177.4611197631544
 20
14.57556035348509
 30
0.0
 10
177.3067935648021
 20
14.70898038201724
 30
0.0
 11
177.3067935648021
 21
14.70898038201724
 31
0.0
 11
176.8595529338511
 21
15.18757635411977
 31
0.0
 11
176.4124049070643
 21
15.66352649288969
 31
0.0
 11
176.4089664262494
 21
15.55086249986232
 31
0.0
 11
176.40556101835
 21
15.4055753818431
 31
0.0
 11
176.4029636920274
 21
15.21465645827968
 31
0.0
 11
176.4021126156603
 21
14.96521170139757
 31
0.0
 11
176.402523923029
 21
14.8843980295428
 31
0.0
 11
176.4038420329817
 21
14.78640628477562
 31
0.0
 11
176.4055192267718
 21
14.67713557299739
 31
0.0
 11
176.4072367127519
 21
14.56282454872039
 31
0.0
 11
176.4094007838772
 21
14.44497802965265
 31
0.0
 11
176.4124049070643
 21
14.32545802100199
 31
0.0
 11
176.4158359733138
 21
14.20933349846156
 31
0.0
 11
176.4192928929999
 21
14.10186746550229
 31
0.0
 11
176.4227085253088
 21
14.00510162351264
 31
0.0
 11
176.4261896983794
 21
13.92125406276973
 31
0.0
 11
176.4296006184313
 21
13.8563286200776
 31
0.0
 11
176.4330776843148
 21
13.81626739612927
 31
0.0
 11
176.3754263821572
 21
13.82145433189185
 31
0.0
 11
176.312674631831
 21
13.82315538223862
 31
0.0
 11
176.2464251717157
 21
13.82145433189185
 31
0.0
 11
176.1853747739676
 21
13.81626739612927
 31
0.0
 11
176.1926772737813
 21
13.8653189412559
 31
0.0
 11
176.2008793569055
 21
13.94356725720855
 31
0.0
 11
176.2090098822349
 21
14.04551893253029
 31
0.0
 11
176.2163406441398
 21
14.16542920159753
 31
0.0
 11
176.2236358280421
 21
14.3000591234389
 31
0.0
 11
176.2318444255596
 21
14.44586107652746
 31
0.0
 11
176.2395504149465
 21
14.59715203135073
 31
0.0
 11
176.2455763002093
 21
14.74850913200734
 31
0.0
 11
176.2503046247416
 21
14.89817951391436
 31
0.0
 11
176.2541928972121
 21
15.04435739582223
 31
0.0
 11
176.2567527408965
 21
15.18111831592696
 31
0.0
 11
176.2576324804574
 21
15.3023085068689
 31
0.0
 11
176.257192610677
 21
15.60939715262544
 31
0.0
 11
176.2559126888347
 21
15.86997204839366
 31
0.0
 11
176.2528658717893
 21
16.07719922716126
 31
0.0
 11
176.2473049112764
 21
16.22421385386063
 31
0.0
 11
176.261572812147
 21
16.22421385386063
 31
0.0
 11
176.2880703423353
 21
16.22421385386063
 31
0.0
 11
176.3023382432059
 21
16.22421385386063
 31
0.0
 11
176.5194743650278
 21
15.98910179662773
 31
0.0
 11
176.751274412308
 21
15.73751281231562
 31
0.0
 11
176.989481601884
 21
15.4794955554357
 31
0.0
 11
177.2260074557521
 21
15.22497079855489
 31
0.0
 11
177.4555698717706
 21
14.97899759549137
 31
0.0
 11
177.6731797360103
 21
14.74678934034107
 31
0.0
 11
177.8713724913708
 21
14.538266805671
 31
0.0
 11
178.0430143099087
 21
14.36326697932589
 31
0.0
 11
178.0430143099087
 21
14.38918210687043
 31
0.0
 11
178.0430143099087
 21
14.45601585685371
 31
0.0
 11
178.0430143099087
 21
14.54740078030025
 31
0.0
 11
178.0430143099087
 21
14.64696942823453
 31
0.0
 11
178.0430143099087
 21
14.73835435168106
 31
0.0
 11
178.0430143099087
 21
14.80518810166435
 31
0.0
 11
178.0430143099087
 21
14.83110322920889
 31
0.0
 11
178.0417233637609
 21
15.18755430550867
 31
0.0
 11
178.0378461155958
 21
15.53450684014415
 31
0.0
 11
178.0296197790002
 21
15.86693815950551
 31
0.0
 11
178.0154535467228
 21
16.17960510387179
 31
0.0
 11
178.0790351249619
 21
16.16666367158334
 31
0.0
 11
178.1324170159612
 21
16.16238072887607
 31
0.0
 11
178.1805381084834
 21
16.16666367158334
 31
0.0
 11
178.2424836798197
 21
16.17960510387179
 31
0.0
 11
178.2351216487575
 21
16.084981284451
 31
0.0
 11
178.2269790968819
 21
15.95257496503964
 31
0.0
 11
178.2183705364005
 21
15.79600336785655
 31
0.0
 11
178.2097547223216
 21
15.6291659373427
 31
0.0
 11
178.2016187850289
 21
15.4589032550936
 31
0.0
 11
178.1942501393836
 21
15.292060312427
 31
0.0
 11
178.1891406931522
 21
15.14329943572809
 31
0.0
 11
178.1874503478905
 21
15.02722121527101
 31
0.0
 11
178.1874503478905
 21
14.93258747397519
 31
0.0
 11
178.1874503478905
 21
14.82077565976707
 31
0.0
 11
178.1878461204497
 21
14.70123801222749
 31
0.0
 11
178.1890819450708
 21
14.57660052093919
 31
0.0
 11
178.1908392193318
 21
14.44883212687391
 31
0.0
 11
178.1925303477608
 21
14.32028982655879
 31
0.0
 11
178.1942876220216
 21
14.19558288214555
 31
0.0
 11
178.1959787504505
 21
14.0794748960635
 31
0.0
 11
178.1972884379172
 21
13.97495896727018
 31
0.0
 11
178.1976985420735
 21
13.88517371555653
 31
0.0
 11
178.1976985420735
 21
13.81891763918416
 31
0.0
 11
178.1976985420735
 21
13.7716586461404
 31
0.0
 11
178.1736699662976
 21
13.7716586461404
 31
0.0
 11
178.1496413905217
 21
13.7716586461404
 31
0.0
 11
177.7410729200423
 21
14.2346673526219
 31
0.0
 11
177.3067935648021
 21
14.70898038201724
 31
0.0
  0
SPLINE
  5
B6
102
{ACAD_REACTORS
330
D3
102
}
330
48
100
AcDbEntity
  8
_U_30EC_U_30A4_U_30E4_U_30FC_1
  6
Continuous
 62
     2
100
AcDbSpline
210
0.0
220
0.0
230
1.0
 70
    11
 71
     3
 72
    25
 73
    21
 74
    19
 42
0.000000001
 43
0.0000000001
 44
0.00000001
 40
0.0
 40
0.0
 40
0.0
 40
0.0
 40
0.091147996906539
 40
0.1858117896205802
 40
0.2804128399735345
 40
0.3715889190715649
 40
0.4679080494218995
 40
0.5642683809229234
 40
0.6605683222645277
 40
0.756965301581111
 40
0.8561348172523577
 40
1.092615965104386
 40
1.374867658141978
 40
1.611348812011711
 40
1.710518328425359
 40
1.809403163726677
 40
2.045205463294177
 40
2.326646917622235
 40
2.562449217190693
 40
2.661334043834011
 40
2.661334043834011
 40
2.661334043834011
 40
2.661334043834011
 10
173.2683700567199
 20
14.88614538197292
 30
0.0
 10
173.2987525917923
 20
14.88598079714554
 30
0.0
 10
173.3606895889112
 20
14.88564528689921
 30
0.0
 10
173.4541356960331
 20
14.88269055452
 30
0.0
 10
173.5475095236358
 20
14.87977752877149
 30
0.0
 10
173.6417760753477
 20
14.87894201643416
 30
0.0
 10
173.7354964790967
 20
14.87996644658046
 30
0.0
 10
173.8352040303205
 20
14.87916977470973
 30
0.0
 10
173.9188949546313
 20
14.88921410235219
 30
0.0
 10
174.0637996315046
 20
14.86234617674164
 30
0.0
 10
173.9396132444802
 20
15.03665530280048
 30
0.0
 10
173.8965867286282
 20
15.19651711006091
 30
0.0
 10
173.780892214221
 20
15.45518458550215
 30
0.0
 10
173.7017565431256
 20
15.59231052861857
 30
0.0
 10
173.6431576621816
 20
15.80937033134076
 30
0.0
 10
173.5864803939438
 20
15.59266134213427
 30
0.0
 10
173.5052809900477
 20
15.45327012438235
 30
0.0
 10
173.4063701281488
 20
15.20406969370194
 30
0.0
 10
173.3253625094259
 20
15.01925830226073
 30
0.0
 10
173.2813683325838
 20
14.91650446856116
 30
0.0
 10
173.2683700567199
 20
14.88614538197292
 30
0.0
 11
173.2683700567199
 21
14.88614538197292
 31
0.0
 11
173.3595137737821
 21
14.88526123266759
 31
0.0
 11
173.4541428297582
 21
14.88269697919599
 31
0.0
 11
173.5487082179706
 21
14.88009965280777
 31
0.0
 11
173.6398803250197
 21
14.87924857641909
 31
0.0
 11
173.7361985777706
 21
14.87965978301621
 31
0.0
 11
173.8325499034376
 21
14.88097718752972
 31
0.0
 11
173.9288262638286
 21
14.88310818579312
 31
0.0
 11
174.0251753846344
 21
14.88614538197292
 31
0.0
 11
173.9854633323142
 21
14.9770164219502
 31
0.0
 11
173.8907653613969
 21
15.19370890189602
 31
0.0
 11
173.7777387509471
 21
15.45234186183134
 31
0.0
 11
173.6830407800297
 21
15.66903434177716
 31
0.0
 11
173.6433287277095
 21
15.75990538175444
 31
0.0
 11
173.6043330259266
 21
15.66903434177716
 31
0.0
 11
173.5113432755212
 21
15.45234186183134
 31
0.0
 11
173.4003555089082
 21
15.19370890189601
 31
0.0
 11
173.3073657585028
 21
14.9770164219502
 31
0.0
 11
173.2683700567199
 21
14.88614538197292
 31
0.0
  0
SPLINE
  5
B7
102
{ACAD_REACTORS
330
D3
102
}
330
48
100
AcDbEntity
  8
_U_30EC_U_30A4_U_30E4_U_30FC_1
  6
Continuous
 62
     2
100
AcDbSpline
210
0.0
220
0.0
230
1.0
 70
    11
 71
     3
 72
    57
 73
    53
 74
    51
 42
0.000000001
 43
0.0000000001
 44
0.00000001
 40
0.0
 40
0.0
 40
0.0
 40
0.0
 40
0.0471632082810082
 40
0.0914861054633
 40
0.1357762519702667
 40
0.1826527001610678
 40
0.2295203288573155
 40
0.2737751972221609
 40
0.3181310461543635
 40
0.3652607198398511
 40
0.4571007286314658
 40
0.5671851029165464
 40
0.689462328386865
 40
0.8181758272545921
 40
0.9510087229274068
 40
1.085852229674062
 40
1.218126164475302
 40
1.343545131142371
 40
1.454537202956816
 40
1.567187607530796
 40
1.680710966642443
 40
1.794226869736864
 40
1.900009184247635
 40
2.004085860447943
 40
2.108162674451831
 40
2.214000150155291
 40
2.496038577352155
 40
2.762350745479289
 40
2.997275353279401
 40
3.185110082137709
 40
3.246407890063992
 40
3.31260755021278
 40
3.378877742711682
 40
3.440140399651423
 40
4.100501696006418
 40
4.754913085563452
 40
5.411331693423882
 40
6.077890432568696
 40
6.110575292670974
 40
6.143260152775754
 40
6.367989363395129
 40
6.610525374951551
 40
6.863389136467304
 40
7.119380025547555
 40
7.37603660509106
 40
7.631164770966248
 40
7.876722425456399
 40
8.104953735855917
 40
8.312916685924254
 40
8.497730294941293
 40
8.651018984313845
 40
8.76473885362458
 40
8.76473885362458
 40
8.76473885362458
 40
8.76473885362458
 10
174.7922649500514
 20
13.81626739612927
 30
0.0
 10
174.7766616726931
 20
13.81826231079078
 30
0.0
 10
174.7463947960302
 20
13.82213201360298
 30
0.0
 10
174.7010994202253
 20
13.82341984967268
 30
0.0
 10
174.6559553129349
 20
13.8230868355405
 30
0.0
 10
174.60990171234
 20
13.82314658674224
 30
0.0
 10
174.5640496172096
 20
13.8232581365
 30
0.0
 10
174.5183711648165
 20
13.82277833456591
 30
0.0
 10
174.4750811541608
 20
13.82461109618721
 30
0.0
 10
174.4039947951515
 20
13.80049556814658
 30
0.0
 10
174.4057477261441
 20
13.92184693977251
 30
0.0
 10
174.358619637057
 20
14.00726239751232
 30
0.0
 10
174.3191478251761
 20
14.12486929345133
 30
0.0
 10
174.2706635532646
 20
14.24232752540441
 30
0.0
 10
174.2201017402523
 20
14.36405935761509
 30
0.0
 10
174.1718634610478
 20
14.49075967862466
 30
0.0
 10
174.1135232947595
 20
14.59933687784954
 30
0.0
 10
174.0980892667262
 20
14.75620657134409
 30
0.0
 10
173.9566586330636
 20
14.72373446548323
 30
0.0
 10
173.8508397414904
 20
14.73512888682179
 30
0.0
 10
173.7358569725222
 20
14.73392591514616
 30
0.0
 10
173.6253142252141
 20
14.73506945347409
 30
0.0
 10
173.5176583522783
 20
14.73418350037526
 30
0.0
 10
173.4121322529243
 20
14.73416602390519
 30
0.0
 10
173.3109192682013
 20
14.72714032472416
 30
0.0
 10
173.1266804827754
 20
14.75135859859862
 30
0.0
 10
173.1157393685411
 20
14.44741691121886
 30
0.0
 10
173.008769163475
 20
14.22353177253398
 30
0.0
 10
172.9098148604347
 20
14.03895314292496
 30
0.0
 10
172.9225090524009
 20
13.79530204804205
 30
0.0
 10
172.8050091716397
 20
13.82508046753197
 30
0.0
 10
172.742205586831
 20
13.82258089509603
 30
0.0
 10
172.67858720934
 20
13.82344075102805
 30
0.0
 10
172.3946014194076
 20
13.78098039941945
 30
0.0
 10
173.0251638499382
 20
14.50081952444789
 30
0.0
 10
173.1087645289071
 20
15.01276539435731
 30
0.0
 10
173.492925278934
 20
15.53353743550042
 30
0.0
 10
173.4777208288565
 20
16.23519626253217
 30
0.0
 10
173.7239265722698
 20
16.22345633081257
 30
0.0
 10
173.8256346157562
 20
16.23225004452774
 30
0.0
 10
173.8249752035819
 20
15.98059650730345
 30
0.0
 10
173.9428317155829
 20
15.79818020733958
 30
0.0
 10
174.0315515260486
 20
15.55563740662868
 30
0.0
 10
174.1322292485259
 20
15.32340030530125
 30
0.0
 10
174.2311142712243
 20
15.08674644566915
 30
0.0
 10
174.3299676990669
 20
14.85461739170091
 30
0.0
 10
174.4256166390926
 20
14.63122222788791
 30
0.0
 10
174.5159904573271
 20
14.42272549049315
 30
0.0
 10
174.5989944568188
 20
14.23308448529317
 30
0.0
 10
174.67260885828
 20
14.06663106068101
 30
0.0
 10
174.7342815895546
 20
13.92917699626097
 30
0.0
 10
174.7749458885604
 20
13.84999239430034
 30
0.0
 10
174.7922649500514
 20
13.81626739612927
 30
0.0
 11
174.7922649500514
 21
13.81626739612927
 31
0.0
 11
174.7453878317448
 21
13.82145433189185
 31
0.0
 11
174.7010975896125
 21
13.82315538223862
 31
0.0
 11
174.656807443173
 21
13.82315538223862
 31
0.0
 11
174.609930994716
 21
13.82315538223862
 31
0.0
 11
174.5630633657034
 21
13.82315538223862
 31
0.0
 11
174.5188084970408
 21
13.82315538223862
 31
0.0
 11
174.4744852776854
 21
13.82145433189185
 31
0.0
 11
174.4276419021444
 21
13.81626739612927
 31
0.0
 11
174.3992532136325
 21
13.90360966173244
 31
0.0
 11
174.3622721815898
 21
14.00729656274819
 31
0.0
 11
174.3188386236701
 21
14.12159987001127
 31
0.0
 11
174.2711055866937
 21
14.24113531268969
 31
0.0
 11
174.2208160133237
 21
14.36408057307565
 31
0.0
 11
174.1696467003933
 21
14.48883822929447
 31
0.0
 11
174.1197531801327
 21
14.61134141502772
 31
0.0
 11
174.0733119111842
 21
14.72784517367916
 31
0.0
 11
173.9623611907589
 21
14.73087465284506
 31
0.0
 11
173.849730922509
 21
14.7330045486779
 31
0.0
 11
173.736215206945
 21
14.73432195319141
 31
0.0
 11
173.62270004768
 21
14.73473315978853
 31
0.0
 11
173.5169185312816
 21
14.73432195319141
 31
0.0
 11
173.4128501919225
 21
14.7330045486779
 31
0.0
 11
173.3087951724045
 21
14.73087465284506
 31
0.0
 11
173.2030010615597
 21
14.72784517367916
 31
0.0
 11
173.0980914750139
 21
14.4660443751335
 31
0.0
 11
173.0034868690331
 21
14.2171023265846
 31
0.0
 11
172.9252231210299
 21
13.99559756969557
 31
0.0
 11
172.8693431224556
 21
13.81626739612927
 31
0.0
 11
172.8082651639442
 21
13.82145433189185
 31
0.0
 11
172.742087361813
 21
13.82315538223862
 31
0.0
 11
172.6758390041282
 21
13.82145433189185
 31
0.0
 11
172.6147963233939
 21
13.81626739612927
 31
0.0
 11
172.8899684951931
 21
14.41656508695142
 31
0.0
 11
173.158294573417
 21
15.01343642360775
 31
0.0
 11
173.4240277350405
 21
15.61366245644381
 31
0.0
 11
173.6914740737034
 21
16.22421385386063
 31
0.0
 11
173.7241589339807
 21
16.22421385386063
 31
0.0
 11
173.756843794258
 21
16.22421385386063
 31
0.0
 11
173.8428300681058
 21
16.01658539037084
 31
0.0
 11
173.935728581361
 21
15.79254614563516
 31
0.0
 11
174.0328714521464
 21
15.55908663180468
 31
0.0
 11
174.1317936458031
 21
15.32298128464145
 31
0.0
 11
174.2315341249927
 21
15.08649780379784
 31
0.0
 11
174.3313071129353
 21
14.8516878125371
 31
0.0
 11
174.4280608257449
 21
14.6259949219685
 31
0.0
 11
174.5188084970408
 21
14.41658052097919
 31
0.0
 11
174.6022150834546
 21
14.22607611130461
 31
0.0
 11
174.6770293263378
 21
14.05708232662467
 31
0.0
 11
174.7410729186604
 21
13.91781337700667
 31
0.0
 11
174.7922649500514
 21
13.81626739612927
 31
0.0
  0
SPLINE
  5
B8
102
{ACAD_REACTORS
330
D4
102
}
330
48
100
AcDbEntity
  8
_U_30EC_U_30A4_U_30E4_U_30FC_1
  6
Continuous
 62
     2
100
AcDbSpline
210
0.0
220
0.0
230
1.0
 70
    11
 71
     3
 72
    99
 73
    95
 74
    93
 42
0.000000001
 43
0.0000000001
 44
0.00000001
 40
0.0
 40
0.0
 40
0.0
 40
0.0
 40
0.0796417172272992
 40
0.1621768542355875
 40
0.2486489160957978
 40
0.3404969668525173
 40
0.4381912511165507
 40
0.5434463660245531
 40
0.6518115192847008
 40
0.7530190937887438
 40
0.8492196919725417
 40
0.9419290312998674
 40
1.034249663570076
 40
1.12907860062021
 40
1.226697027573262
 40
1.327220425421716
 40
1.470572134938038
 40
1.59548986337127
 40
1.719934125348412
 40
1.850576620127475
 40
1.989059629987314
 40
2.134139054226879
 40
2.280698007207219
 40
2.424529739039538
 40
2.56592957698586
 40
2.708239260773591
 40
2.861717887443682
 40
3.045168540347387
 40
3.183798301138626
 40
3.314813961455484
 40
3.442083470447324
 40
3.56991270837292
 40
3.702177512509319
 40
3.842307559659488
 40
3.992872223245892
 40
4.156750662218395
 40
4.310981861107559
 40
4.445859909322634
 40
4.572393936131574
 40
4.701656719781949
 40
4.768279086008413
 40
4.835960697898377
 40
4.912788918729301
 40
5.006285208481485
 40
5.026909478751618
 40
5.047533749021239
 40
5.101808031471314
 40
5.16232516553861
 40
5.226919745995927
 40
5.294231806596719
 40
5.36454485255489
 40
5.438319055467934
 40
5.517877651324351
 40
5.607647714861663
 40
5.70044964254451
 40
5.788251142364241
 40
5.872714706039874
 40
5.955167292575379
 40
6.03719239519048
 40
6.120669181469217
 40
6.206848616686424
 40
6.296680855416845
 40
6.442558392872662
 40
6.568190371608341
 40
6.692904567360459
 40
6.824220446557255
 40
6.963121850329442
 40
7.107843738851202
 40
7.253431663907318
 40
7.395187468036744
 40
7.533140753237794
 40
7.670550457175338
 40
7.816236511769355
 40
7.987691657359322
 40
8.14227742196936
 40
8.293662615415121
 40
8.442962460879397
 40
8.59159831618548
 40
8.74367899236191
 40
8.903725323699268
 40
9.076307008890673
 40
9.265578604680671
 40
9.459203795360875
 40
9.617619810273718
 40
9.753609671362076
 40
9.87487330000425
 40
9.954520184977953
 40
10.02416413719265
 40
10.09769764405464
 40
10.18909955924992
 40
10.20974586420153
 40
10.23039218263396
 40
10.3005710188128
 40
10.37632012987558
 40
10.37632012987558
 40
10.37632012987558
 40
10.37632012987558
 10
170.1465954835851
 20
14.13795663215993
 30
0.0
 10
170.163221785122
 20
14.11720608845313
 30
0.0
 10
170.1970784206578
 20
14.07495111711907
 30
0.0
 10
170.2599822541036
 20
14.02029811392067
 30
0.0
 10
170.3332500940394
 20
13.97299025121052
 30
0.0
 10
170.4175969238636
 20
13.93527231437935
 30
0.0
 10
170.5132240615461
 20
13.91040619731951
 30
0.0
 10
170.6171853775346
 20
13.90309559345935
 30
0.0
 10
170.7224020220405
 20
13.91142322794055
 30
0.0
 10
170.8206626371334
 20
13.94149179651527
 30
0.0
 10
170.9058986427549
 20
13.98848822971878
 30
0.0
 10
170.9779220206104
 20
14.04952991250856
 30
0.0
 10
171.0350917709097
 20
14.12412969578583
 30
0.0
 10
171.0767868747439
 20
14.21002464660177
 30
0.0
 10
171.1026952846293
 20
14.30485850432209
 30
0.0
 10
171.1118037332654
 20
14.41854979038367
 30
0.0
 10
171.0986864796487
 20
14.54332587770779
 30
0.0
 10
171.0325330334414
 20
14.66014719171889
 30
0.0
 10
170.9369370919568
 20
14.74512539577377
 30
0.0
 10
170.8249681022369
 20
14.81416684459158
 30
0.0
 10
170.699365958327
 20
14.87204142045891
 30
0.0
 10
170.5656691620858
 20
14.92373723284343
 30
0.0
 10
170.4313122818831
 20
14.97899092397181
 30
0.0
 10
170.3051983986877
 20
15.04939770641646
 30
0.0
 10
170.1926579987536
 20
15.13785540731254
 30
0.0
 10
170.0969963064457
 20
15.24981067868468
 30
0.0
 10
170.0334157151827
 20
15.39949910101386
 30
0.0
 10
170.0200706505016
 20
15.55932794385141
 30
0.0
 10
170.0320510987449
 20
15.71048405306846
 30
0.0
 10
170.0712298928842
 20
15.83809244591537
 30
0.0
 10
170.1354987750911
 20
15.95080874030843
 30
0.0
 10
170.223820499974
 20
16.04648609268688
 30
0.0
 10
170.3338091207627
 20
16.12354214985753
 30
0.0
 10
170.4632284401265
 20
16.18151396936278
 30
0.0
 10
170.6111838967793
 20
16.21739177588824
 30
0.0
 10
170.7682069455487
 20
16.22746719050566
 30
0.0
 10
170.917494046643
 20
16.21863637762589
 30
0.0
 10
171.0596253614171
 20
16.19074899340354
 30
0.0
 10
171.1595922609626
 20
16.13413314701137
 30
0.0
 10
171.3125074736185
 20
16.08674602105508
 30
0.0
 10
171.2455131717168
 20
16.00197553001181
 30
0.0
 10
171.2296479120269
 20
15.93438901873486
 30
0.0
 10
171.1978750531296
 20
15.8692609279319
 30
0.0
 10
171.2150202209571
 20
15.76723453256949
 30
0.0
 10
171.1666427208233
 20
15.77493211681902
 30
0.0
 10
171.1315789440766
 20
15.76806771724805
 30
0.0
 10
171.1296697985717
 20
15.83263831158195
 30
0.0
 10
171.0985692931989
 20
15.87825639621397
 30
0.0
 10
171.0664551628456
 20
15.93561036628451
 30
0.0
 10
171.0208038475169
 20
15.98540462692564
 30
0.0
 10
170.9658508218387
 20
16.02994813718994
 30
0.0
 10
170.9010841173008
 20
16.06763988836552
 30
0.0
 10
170.8232377310596
 20
16.09283375791351
 30
0.0
 10
170.7355160553352
 20
16.09931230998111
 30
0.0
 10
170.6452903277806
 20
16.09235709285606
 30
0.0
 10
170.5594594694064
 20
16.06909190460921
 30
0.0
 10
170.4828343638596
 20
16.03131644107544
 30
0.0
 10
170.4165265636201
 20
15.98051641089575
 30
0.0
 10
170.3622560536964
 20
15.91731143407209
 30
0.0
 10
170.3224925345458
 20
15.84276455710368
 30
0.0
 10
170.2976775510589
 20
15.75917313997761
 30
0.0
 10
170.289212426287
 20
15.65192948382285
 30
0.0
 10
170.3019697987104
 20
15.52965457267559
 30
0.0
 10
170.3681548409273
 20
15.41149724291208
 30
0.0
 10
170.4640977399833
 20
15.32606325709528
 30
0.0
 10
170.5757914963183
 20
15.25583362306726
 30
0.0
 10
170.7010863668702
 20
15.19659162305303
 30
0.0
 10
170.8349823941448
 20
15.14616708086132
 30
0.0
 10
170.9689930333149
 20
15.09322516984382
 30
0.0
 10
171.0950885316915
 20
15.02750170625175
 30
0.0
 10
171.2076216638417
 20
14.94480352537318
 30
0.0
 10
171.3031370284233
 20
14.83996006310077
 30
0.0
 10
171.3672706486964
 20
14.69937117251569
 30
0.0
 10
171.381110372528
 20
14.54065409451592
 30
0.0
 10
171.367395471223
 20
14.38153155217875
 30
0.0
 10
171.3244739153986
 20
14.23483828819209
 30
0.0
 10
171.2545906329066
 20
14.10119796587139
 30
0.0
 10
171.1574592213829
 20
13.98532387699295
 30
0.0
 10
171.0347806023657
 20
13.89089981770086
 30
0.0
 10
170.8874408413168
 20
13.8217927065198
 30
0.0
 10
170.7177132497125
 20
13.77953210858853
 30
0.0
 10
170.5317404979598
 20
13.76781736230406
 30
0.0
 10
170.3528955926183
 20
13.77809486683436
 30
0.0
 10
170.1881733753743
 20
13.81966573769152
 30
0.0
 10
170.0834410841056
 20
13.88797642883941
 30
0.0
 10
169.9350960790365
 20
13.93675219032106
 30
0.0
 10
169.9980378194729
 20
14.02976591290843
 30
0.0
 10
170.0072274430061
 20
14.10296536248279
 30
0.0
 10
170.0303711301232
 20
14.16936294501347
 30
0.0
 10
170.0034588335318
 20
14.2697480952758
 30
0.0
 10
170.052133895634
 20
14.26234033517379
 30
0.0
 10
170.0916530580698
 20
14.26894063620894
 30
0.0
 10
170.0996204944702
 20
14.19078703218933
 30
0.0
 10
170.1305436967923
 20
14.15600927375856
 30
0.0
 10
170.1465954835851
 20
14.13795663215993
 30
0.0
 11
170.1465954835851
 21
14.13795663215993
 31
0.0
 11
170.1982038075865
 21
14.07729869814736
 31
0.0
 11
170.2601105501335
 21
14.0227129516332
 31
0.0
 11
170.3327764009803
 21
13.97583980928383
 31
0.0
 11
170.4166468655844
 21
13.93839906276538
 31
0.0
 11
170.5112210732411
 21
13.91390636311877
 31
0.0
 11
170.6161603327166
 21
13.90575829888471
 31
0.0
 11
170.7240739497552
 21
13.91564048638222
 31
0.0
 11
170.8208419941617
 21
13.94528704887483
 31
0.0
 11
170.9050776083319
 21
13.99175118948819
 31
0.0
 11
170.9756144207687
 21
14.0519141321815
 31
0.0
 11
171.031944210998
 21
14.1250581946632
 31
0.0
 11
171.0736690016003
 21
14.21021434047523
 31
0.0
 11
171.0994680808033
 21
14.30436190989613
 31
0.0
 11
171.1080824729447
 21
14.40451552098219
 31
0.0
 11
171.0878517703357
 21
14.54643250879397
 31
0.0
 11
171.0272522666731
 21
14.65566684036387
 31
0.0
 11
170.9364971286286
 21
14.74081306430095
 31
0.0
 11
170.826010188474
 21
14.81052746532516
 31
0.0
 11
170.7008523531255
 21
14.86979854169922
 31
0.0
 11
170.5662951950999
 21
14.9240425347412
 31
0.0
 11
170.4316884277007
 21
14.98201274306004
 31
0.0
 11
170.3065802017258
 21
15.05297399304232
 31
0.0
 11
170.196027609828
 21
15.14113315968694
 31
0.0
 11
170.1053381235265
 21
15.25080295132617
 31
0.0
 11
170.0447055469485
 21
15.39179720476316
 31
0.0
 11
170.0245079172554
 21
15.57413260402314
 31
0.0
 11
170.0374030471348
 21
15.71216131926641
 31
0.0
 11
170.0761016659392
 21
15.83733128451289
 31
0.0
 11
170.1393141731507
 21
15.94779262129084
 31
0.0
 11
170.2257499954545
 21
16.04196885390621
 31
0.0
 11
170.3336492808962
 21
16.11846540770651
 31
0.0
 11
170.4613526283328
 21
16.17615670109488
 31
0.0
 11
170.6075393259923
 21
16.21220066809974
 31
0.0
 11
170.7709768565451
 21
16.22421385386063
 31
0.0
 11
170.924891843129
 21
16.21434269066864
 31
0.0
 11
171.0564887242608
 21
16.18477329831497
 31
0.0
 11
171.172563634494
 21
16.13439993895252
 31
0.0
 11
171.2800792741122
 21
16.06264163167877
 31
0.0
 11
171.2516994050445
 21
16.00236624106886
 31
0.0
 11
171.2284855254283
 21
15.93879017337647
 31
0.0
 11
171.2078381040801
 21
15.86478841992269
 31
0.0
 11
171.1871840681488
 21
15.77360197897327
 31
0.0
 11
171.1665597978416
 21
15.77360197897327
 31
0.0
 11
171.1459355275343
 21
15.77360197897327
 31
0.0
 11
171.1256706495791
 21
15.82395108486346
 31
0.0
 11
171.0994658759421
 21
15.8785004511693
 31
0.0
 11
171.0650468924451
 21
15.93316116296115
 31
0.0
 11
171.0203554612938
 21
15.98349593725411
 31
0.0
 11
170.9657333359511
 21
16.02777175321529
 31
0.0
 11
170.9016722004327
 21
16.06436142334501
 31
0.0
 11
170.825968296114
 21
16.08882545979727
 31
0.0
 11
170.7365722046449
 21
16.09701100667022
 31
0.0
 11
170.6440937174207
 21
16.08926973931101
 31
0.0
 11
170.5594072091645
 21
16.06609003445566
 31
0.0
 11
170.483702448884
 21
16.02863495634008
 31
0.0
 11
170.4183754766516
 21
15.97832774281103
 31
0.0
 11
170.3650487887664
 21
15.91600293379879
 31
0.0
 11
170.3254809233901
 21
15.84249947895606
 31
0.0
 11
170.3009523754712
 21
15.75988443557391
 31
0.0
 11
170.2927954104109
 21
15.67042329844352
 31
0.0
 11
170.3130095765618
 21
15.52595308146573
 31
0.0
 11
170.373625616682
 21
15.41591177072936
 31
0.0
 11
170.4643479320758
 21
15.33033670130631
 31
0.0
 11
170.5748676948814
 21
15.25941954854626
 31
0.0
 11
170.7000089937719
 21
15.1991430555058
 31
0.0
 11
170.8345826882553
 21
15.14590447913022
 31
0.0
 11
170.9691729191968
 21
15.09039489581074
 31
0.0
 11
171.0942976816297
 21
15.02377281249409
 31
0.0
 11
171.204800907977
 21
14.94118863716749
 31
0.0
 11
171.2955397598289
 21
14.83800003476272
 31
0.0
 11
171.3561557999489
 21
14.70552315979584
 31
0.0
 11
171.3763699660999
 21
14.53526378483839
 31
0.0
 11
171.3621839747999
 21
14.38133030397412
 31
0.0
 11
171.3196087009194
 21
14.23605531269097
 31
0.0
 11
171.2499752884266
 21
14.10398854189067
 31
0.0
 11
171.1544992078713
 21
13.99007218775247
 31
0.0
 11
171.0341060772624
 21
13.89715272597017
 31
0.0
 11
170.8896160201847
 21
13.8283235766818
 31
0.0
 11
170.7223519532714
 21
13.78581275203966
 31
0.0
 11
170.5336103348227
 21
13.7716586461404
 31
0.0
 11
170.3405031726388
 21
13.78581275203966
 31
0.0
 11
170.1878975900911
 21
13.8283235766818
 31
0.0
 11
170.0661897942203
 21
13.88899033013889
 31
0.0
 11
169.9660261826363
 21
13.95734322942737
 31
0.0
 11
169.9922320587039
 21
14.03255545163076
 31
0.0
 11
170.0090121537619
 21
14.10014767383613
 31
0.0
 11
170.0206196447853
 21
14.17275926235961
 31
0.0
 11
170.031360625414
 21
14.26352788212859
 31
0.0
 11
170.0520069443317
 21
14.26352788212859
 31
0.0
 11
170.0726532632493
 21
14.26352788212859
 31
0.0
 11
170.104891639163
 21
14.20119204881084
 31
0.0
 11
170.1465954835851
 21
14.13795663215993
 31
0.0
  0
LWPOLYLINE
  5
B9
102
{ACAD_REACTORS
330
C6
102
}
330
48
100
AcDbEntity
  8
_U_30EC_U_30A4_U_30E4_U_30FC_1
  6
Continuous
 62
     2
100
AcDbPolyline
 90
        5
 70
     1
 43
0.0
 10
192.4578138032673
 20
15.39722336795625
 10
192.4578138032673
 20
15.22875434022057
 10
191.1602971697032
 20
15.22875434022057
 10
191.1602971697032
 20
15.39722336795625
 10
192.4578138032673
 20
15.39722336795625
  0
MTEXT
  5
BB
330
48
100
AcDbEntity
  8
1
 62
     2
100
AcDbMText
 10
32.5
 20
282.0000000000003
 30
0.0
 40
5.0
 41
0.0
 71
     5
 72
     1
  1
図番
  7
CONVERTER_11
 73
     1
 44
0.45454545454545
  0
MTEXT
  5
BC
330
48
100
AcDbEntity
  8
1
 62
     2
100
AcDbMText
 10
29.0
 20
34.00000000000001
 30
0.0
 40
3.5
 41
0.0
 71
     5
 72
     1
  1
備考
  7
CONVERTER_11
 73
     1
 44
0.45454545454545
  0
MTEXT
  5
BD
330
48
100
AcDbEntity
  8
1
 62
     2
100
AcDbMText
 10
29.0
 20
22.75000000000001
 30
0.0
 40
3.5
 41
0.0
 71
     5
 72
     1
  1
品名
  7
CONVERTER_11
 73
     1
 44
0.72727272727273
  0
MTEXT
  5
BE
330
48
100
AcDbEntity
  8
1
 62
     2
100
AcDbMText
 10
29.0
 20
14.25000000000001
 30
0.0
 40
3.5
 41
0.0
 71
     5
 72
     1
  1
品番
  7
CONVERTER_11
 73
     1
 44
0.72727272727273
  0
MTEXT
  5
BF
330
48
100
AcDbEntity
  8
1
 62
     2
100
AcDbMText
 10
101.5
 20
25.00000000000001
 30
0.0
 40
3.0
 41
0.0
 71
     5
 72
     1
  1
承認
  7
CONVERTER_11
 73
     1
 44
0.59090909090909
  0
MTEXT
  5
C0
330
48
100
AcDbEntity
  8
1
 62
     2
100
AcDbMText
 10
175.0
 20
23.50000000000001
 30
0.0
 40
3.5
 41
0.0
 71
     5
 72
     1
  1
第三角法
  7
CONVERTER_11
 73
     1
 44
0.54545454545455
  0
MTEXT
  5
C1
330
48
100
AcDbEntity
  8
1
 62
     2
100
AcDbMText
 10
118.5
 20
25.00000000000001
 30
0.0
 40
3.0
 41
0.0
 71
     5
 72
     1
  1
検図
  7
CONVERTER_11
 73
     1
 44
0.59090909090909
  0
MTEXT
  5
C2
330
48
100
AcDbEntity
  8
1
 62
     2
100
AcDbMText
 10
152.5
 20
25.00000000000001
 30
0.0
 40
3.0
 41
0.0
 71
     5
 72
     1
  1
設計
  7
CONVERTER_11
 73
     1
 44
0.59090909090909
  0
MTEXT
  5
C3
330
48
100
AcDbEntity
  8
1
 62
     2
100
AcDbMText
 10
135.5
 20
25.00000000000001
 30
0.0
 40
3.0
 41
0.0
 71
     5
 72
     1
  1
製図
  7
CONVERTER_11
 73
     1
 44
0.59090909090909
  0
MTEXT
  5
C4
330
48
100
AcDbEntity
  8
1
 62
     2
100
AcDbMText
 10
89.5
 20
24.00000000000001
 30
0.0
 40
3.5
 41
0.0
 71
     5
 72
     1
  1
尺度
  7
CONVERTER_11
 73
     1
 44
0.54545454545455
  0
MTEXT
  5
C5
330
48
100
AcDbEntity
  8
1
 62
   250
100
AcDbMText
 10
25.0
 20
5.0
 30
0.0
 40
3.5
 41
0.0
 71
     4
 72
     1
  1
備考欄の文字列 原点位置=4
  7
CONVERTER_11
 73
     1
 44
0.54545454545455
  0
HATCH
  5
C6
330
48
100
AcDbEntity
  8
1
  6
Continuous
 62
     2
100
AcDbHatch
 10
0.0
 20
0.0
 30
0.0
210
0.0
220
0.0
230
1.0
  2
CUSTOM0
 70
     0
 71
     1
 91
        1
 92
        1
 93
        4
 72
     1
 10
192.4578138032673
 20
15.39722336795625
 11
192.4578138032673
 21
15.22875434022057
 72
     1
 10
192.4578138032673
 20
15.22875434022057
 11
191.1602971697032
 21
15.22875434022057
 72
     1
 10
191.1602971697032
 20
15.22875434022057
 11
191.1602971697032
 21
15.39722336795625
 72
     1
 10
191.1602971697032
 20
15.39722336795625
 11
192.4578138032673
 21
15.39722336795625
 97
        1
330
B9
 75
     1
 76
     2
 52
45.0
 41
0.1
 77
     0
 78
     1
 53
45.0
 43
0.0
 44
0.0
 45
-0.282842712474619
 46
0.0
 79
     0
 98
        1
 10
0.0
 20
0.0
  0
HATCH
  5
C7
330
48
100
AcDbEntity
  8
1
  6
Continuous
 62
     2
100
AcDbHatch
 10
0.0
 20
0.0
 30
0.0
210
0.0
220
0.0
230
1.0
  2
CUSTOM1
 70
     0
 71
     1
 91
        1
 92
        1
 93
        3
 72
     4
 94
        3
 73
     0
 74
     0
 95
       24
 96
       20
 40
0.0
 40
0.0
 40
0.0
 40
0.0
 40
0.2211075008753773
 40
0.4273218586245296
 40
0.5080174679239513
 40
0.5914835907870393
 40
0.8143265690192754
 40
1.054651302686579
 40
1.295452694023174
 40
1.518109231328835
 40
1.540864321905422
 40
1.595126460622683
 40
1.659890947895997
 40
1.714153085187299
 40
1.7369081749616
 40
1.764951100735251
 40
1.801562291220812
 40
1.953914424543498
 40
2.126104167379578
 40
2.126104167379578
 40
2.126104167379578
 40
2.126104167379578
 10
185.937536955689
 20
15.58989295113016
 10
185.9112579081813
 20
15.53097628234373
 10
185.8604698894426
 20
15.41711139679255
 10
185.8131784839113
 20
15.14441958233118
 10
185.7043482802619
 20
15.24445482575454
 10
185.5514800279638
 20
15.2711859336733
 10
185.7686155181199
 20
15.48518135017632
 10
185.7838483674381
 20
15.70332117782488
 10
185.8906889492001
 20
15.88451579066424
 10
185.8305380947078
 20
16.16913226311403
 10
185.9334317395402
 20
16.1411408922245
 10
185.977993346815
 20
16.13243251602299
 10
186.0380842395397
 20
16.12139654183356
 10
186.0756619587438
 20
16.10767523055559
 10
186.1252466928606
 20
16.10756076160224
 10
186.0930158919326
 20
16.07306592398623
 10
186.0171802221882
 20
16.08404104537964
 10
186.0429447159693
 20
15.89858969582449
 10
186.005589676385
 20
15.8070231354959
 10
185.9857704961609
 20
15.75844135397706
 72
     4
 94
        3
 73
     0
 74
     0
 95
       70
 96
       66
 40
0.0
 40
0.0
 40
0.0
 40
0.0
 40
0.0241731073021472
 40
0.0846058988987582
 40
0.1631685280353852
 40
0.2417311571790608
 40
0.302163948829332
 40
0.3263370654896678
 40
0.3533118254250018
 40
0.422878343892323
 40
0.5179999095314504
 40
0.6216398239467168
 40
0.7167613891500736
 40
0.7863279069650894
 40
0.8133026791762866
 40
0.8372943998772704
 40
0.8945054261373332
 40
0.9627895541962819
 40
1.020000580349063
 40
1.043992300975161
 40
1.071934345522859
 40
1.113121768772926
 40
1.145225199332251
 40
1.225483775412782
 40
1.329819923771489
 40
1.434156071994379
 40
1.514414647795795
 40
1.546518078208403
 40
1.578974764260176
 40
1.662678849314171
 40
1.77713137366842
 40
1.901833377474839
 40
2.016285900500658
 40
2.099989982528025
 40
2.132446666570384
 40
2.158782354486108
 40
2.216720867907896
 40
2.274659381334321
 40
2.300995069256254
 40
2.333451754066226
 40
2.417155836543935
 40
2.531608358985374
 40
2.656310362283897
 40
2.77076288638903
 40
2.854466971340224
 40
2.88692365736403
 40
2.913597976833464
 40
2.982389642875268
 40
3.076451716947134
 40
3.178937260458752
 40
3.27299933474016
 40
3.341791001059383
 40
3.368465320663696
 40
3.396976080738917
 40
3.472140811846153
 40
3.578408190308843
 40
3.700226892456279
 40
3.822045594634496
 40
3.928312973256603
 40
4.003477705315
 40
4.031988456867066
 40
4.058324144797866
 40
4.116262658237027
 40
4.174201171400823
 40
4.200536849608757
 40
4.200536849608757
 40
4.200536849608757
 40
4.200536849608757
 10
185.9857704961609
 20
15.75844135397706
 10
185.9938259544679
 20
15.75844359811688
 10
186.0220200663241
 20
15.75845146032798
 10
186.0765534803673
 20
15.75830754828373
 10
186.1482891808604
 20
15.75909120499899
 10
186.2236240137063
 20
15.75627570463811
 10
186.2713052366439
 20
15.76298403400958
 10
186.3195071245617
 20
15.75197563692432
 10
186.3062571799874
 20
15.80546402997033
 10
186.3151093964539
 20
15.86049583543092
 10
186.3108698036286
 20
15.95419908726109
 10
186.3133483481281
 20
16.04959482218533
 10
186.3090938706061
 20
16.14356821983387
 10
186.3179818665847
 20
16.19795062438012
 10
186.3046977409946
 20
16.2523399769146
 10
186.351411927711
 20
16.23842216335358
 10
186.3943254545738
 20
16.24103877374043
 10
186.4605443456686
 20
16.23648422450755
 10
186.5013342271799
 20
16.22778162134162
 10
186.5525145690818
 20
16.23531799890195
 10
186.5253720487202
 20
16.19349970223282
 10
186.4803096055706
 20
16.20284992072598
 10
186.4942065045051
 20
16.13841207371837
 10
186.4858414431653
 20
16.07378219627399
 10
186.4903632178398
 20
15.97529141193888
 10
186.4854741311167
 20
15.87595932842571
 10
186.4950258992082
 20
15.81293115552969
 10
186.47997614552
 20
15.7496401149979
 10
186.5449159457208
 20
15.7651507294427
 10
186.6116246399497
 20
15.75499387697813
 10
186.7241435470828
 20
15.75988800099368
 10
186.8390235448954
 20
15.75691204732785
 10
186.9519871999748
 20
15.76221664184992
 10
187.0176267597678
 20
15.7510730647209
 10
187.0816276691054
 20
15.76744532319858
 10
187.070314288919
 20
15.71761689905276
 10
187.077533987151
 20
15.67416715212124
 10
187.070314261127
 20
15.63071745587446
 10
187.0816277175995
 20
15.58088895196877
 10
187.0176263598972
 20
15.59726166091363
 10
186.951992124046
 20
15.58611271661589
 10
186.8389974317332
 20
15.59144857206855
 10
186.7242456548643
 20
15.58834345663822
 10
186.6113183686861
 20
15.59364894682589
 10
186.5455220903585
 20
15.58257300019594
 10
186.4816097975358
 20
15.59887597847619
 10
186.4936015165126
 20
15.54423524395743
 10
186.4862104613005
 20
15.48854295047842
 10
186.4892684841983
 20
15.39649689140571
 10
186.4893422785683
 20
15.30179109873101
 10
186.486031357836
 20
15.20952782902265
 10
186.4939505989904
 20
15.15435768736139
 10
186.4815076611617
 20
15.10058169100136
 10
186.5389116551631
 20
15.11453768862781
 10
186.5994708140383
 20
15.10511457884225
 10
186.7048680855081
 20
15.10942885928705
 10
186.8204294070622
 20
15.10835504612031
 10
186.9359688877797
 20
15.10725965900994
 10
187.0414181130841
 20
15.11162525770632
 10
187.1018680471805
 20
15.10209426030671
 10
187.159283773911
 20
15.11617289606379
 10
187.1477773876709
 20
15.06707153265683
 10
187.1537566781749
 20
15.02564658018648
 10
187.1520311050802
 20
14.97651677966696
 10
187.1521500122971
 20
14.94854428447608
 10
187.1521871691833
 20
14.9398028819595
 72
     4
 94
        3
 73
     0
 74
     0
 95
       62
 96
       58
 40
0.0
 40
0.0
 40
0.0
 40
0.0
 40
0.0598250028308485
 40
0.2024846486897047
 40
0.3727558389220178
 40
0.5154154847934933
 40
0.5752404975784202
 40
0.9332326775486095
 40
1.29045176283934
 40
1.602077253145744
 40
1.69993163411202
 40
1.799359756424973
 40
2.270120149656977
 40
2.804661928461464
 40
2.882342287383176
 40
3.076543185719027
 40
3.329004354835487
 40
3.581465524568314
 40
3.775666424543598
 40
3.853346784558218
 40
3.899120679594963
 40
3.984129341791848
 40
4.029903236817196
 40
4.105797496059353
 40
4.295533144152314
 40
4.542189486611559
 40
4.788845828875511
 40
4.978581476409895
 40
5.054475735244139
 40
5.621734664339174
 40
6.130867242037183
 40
6.225249780948459
 40
6.318913039727087
 40
6.663579954558689
 40
7.047498900224479
 40
7.435230791575414
 40
7.498943906667826
 40
7.650875181209763
 40
7.832212509001245
 40
7.984143783696631
 40
8.047856898902758
 40
8.091554632732263
 40
8.172707566963922
 40
8.216405300767644
 40
8.289021782160528
 40
8.462184160756873
 40
8.66886183800504
 40
8.842024215263603
 40
8.914640695474798
 40
8.989881580861006
 40
9.155411528826917
 40
9.320941477743705
 40
9.396182352486958
 40
9.454709011143448
 40
9.583467660170468
 40
9.71222630901269
 40
9.770752957989172
 40
9.770752957989172
 40
9.770752957989172
 40
9.770752957989172
 10
187.1521871691833
 20
14.9398028819595
 10
187.1322348171623
 20
14.93980875568671
 10
187.0647037716465
 20
14.93982863806157
 10
186.9410612161788
 20
14.93949362520326
 10
186.7863180150057
 20
14.94107673750512
 10
186.669734948248
 20
14.93686078860495
 10
186.4550942634241
 20
14.95215205331626
 10
186.851894840723
 20
14.59198721286193
 10
186.8945656069268
 20
14.37510503397166
 10
187.3189162146612
 20
14.19325062511445
 10
187.1439821496074
 20
14.08985196568071
 10
187.0194523925083
 20
13.87831523212729
 10
186.7666277235943
 20
14.34806081001564
 10
186.4797602893627
 20
14.99511516984523
 10
186.4906335926659
 20
14.68782672154693
 10
186.488289277796
 20
14.52288616971778
 10
186.4861096126411
 20
14.28879670711693
 10
186.4980774396346
 20
14.04498072421783
 10
186.468798474063
 20
13.89855796860984
 10
186.511452262547
 20
13.75113490174538
 10
186.423981400564
 20
13.76685797306219
 10
186.3768527606745
 20
13.76694303543454
 10
186.2898973207714
 20
13.75109425482909
 10
186.3313474021724
 20
13.89527771422762
 10
186.3029875004286
 20
14.03855052698455
 10
186.3145973775301
 20
14.27674947365265
 10
186.3124175648273
 20
14.50517235240347
 10
186.3103111127995
 20
14.66705729375995
 10
186.3208035438323
 20
14.98153709333754
 10
186.0128963252894
 20
14.29229470872433
 10
185.7055258267458
 20
13.81476750243062
 10
185.5851367066274
 20
14.03741112637422
 10
185.4074607910724
 20
14.15011034955574
 10
185.8853326362895
 20
14.32548143465457
 10
185.9353959057207
 20
14.56091929252035
 10
186.3583799621717
 20
14.95322989344607
 10
186.127675427354
 20
14.93655307029066
 10
186.0049685859341
 20
14.94269518948771
 10
185.8325483095662
 20
14.93312822699573
 10
185.721322469445
 20
14.95448818489666
 10
185.6025779627448
 20
14.92136265357419
 10
185.6183169706687
 20
15.00203900606883
 10
185.6178550933762
 20
15.04645414290854
 10
185.6027881889932
 20
15.12967081778533
 10
185.7372380935444
 20
15.09062651983883
 10
185.8619755545747
 20
15.11739729328422
 10
186.0628755237281
 20
15.10063949044051
 10
186.1921540949354
 20
15.12204225913004
 10
186.3328419928295
 20
15.0886877885342
 10
186.2980927452617
 20
15.22651875785068
 10
186.3222185666713
 20
15.34963257349481
 10
186.2967086182393
 20
15.47024055670336
 10
186.3333251146686
 20
15.60539865141494
 10
186.2211417027771
 20
15.58094545781892
 10
186.1280356457137
 20
15.59307749842023
 10
186.0191547579821
 20
15.58957630069995
 10
185.9569697640965
 20
15.58981755951603
 10
185.9375369557247
 20
15.58989295124145
 97
        3
330
AA
330
A8
330
A9
 75
     1
 76
     2
 52
45.0
 41
0.1
 77
     0
 78
     1
 53
45.0
 43
0.0
 44
0.0
 45
-0.282842712474619
 46
0.0
 79
     0
 98
        1
 10
0.0
 20
0.0
  0
HATCH
  5
C8
330
48
100
AcDbEntity
  8
1
  6
Continuous
 62
     2
100
AcDbHatch
 10
0.0
 20
0.0
 30
0.0
210
0.0
220
0.0
230
1.0
  2
CUSTOM2
 70
     0
 71
     1
 91
        1
 92
        1
 93
        1
 72
     4
 94
        3
 73
     0
 74
     0
 95
      124
 96
      120
 40
0.0
 40
0.0
 40
0.0
 40
0.0
 40
0.0278187229624226
 40
0.1011590162383985
 40
0.2048470170589954
 40
0.3237088716558677
 40
0.4425707262521431
 40
0.5462587270698694
 40
0.6195990203311229
 40
0.6474177522577808
 40
0.6750060736114389
 40
0.7357003855241959
 40
0.796394699805371
 40
0.823983024557102
 40
0.8540933811102114
 40
0.9373396629408794
 40
1.063094687343132
 40
1.22073126863797
 40
1.399622220914644
 40
1.589140358637629
 40
1.778658496423738
 40
1.957549448940377
 40
2.115186030872999
 40
2.240941056914303
 40
2.324187341760372
 40
2.354297700109222
 40
2.38188602467173
 40
2.442580338710322
 40
2.503274652750346
 40
2.530862977314457
 40
2.56098394927841
 40
2.640393784452756
 40
2.752662861758979
 40
2.881361560117967
 40
3.010060258455014
 40
3.122329335705218
 40
3.201739170817775
 40
3.231860142753164
 40
3.264298024030219
 40
3.352343701778092
 40
3.482095226868615
 40
3.639650650172872
 40
3.811108022565329
 40
3.982565394927835
 40
4.140120818152416
 40
4.269872343141127
 40
4.357918020802187
 40
4.390355902043816
 40
4.423256253992386
 40
4.508104530072878
 40
4.624121560636646
 40
4.750528176031374
 40
4.86654520660185
 40
4.951393482691807
 40
4.984293834645208
 40
5.011450833242123
 40
5.071196230151908
 40
5.130941627056987
 40
5.158098625648651
 40
5.190998977601313
 40
5.275847253689139
 40
5.391864284256601
 40
5.518270899648118
 40
5.634287930209129
 40
5.719136206287803
 40
5.752036558235718
 40
5.782130946282744
 40
5.862783906228919
 40
5.979550131774785
 40
6.117984316640192
 40
6.263641154587737
 40
6.402075339413943
 40
6.518841564907738
 40
6.599494524815319
 40
6.629588912848557
 40
6.654403028226133
 40
6.7135751494879
 40
6.784199939329246
 40
6.843372060493348
 40
6.868186175802565
 40
6.896246243201675
 40
6.939586233758018
 40
6.967846564564645
 40
7.043584251089584
 40
7.153234334451442
 40
7.283231855734192
 40
7.420011856035226
 40
7.550009376579577
 40
7.659659458834977
 40
7.73539714441697
 40
7.763657474851142
 40
7.796409728010799
 40
7.880876065096073
 40
7.996370852465459
 40
8.122208446418353
 40
8.237703224798947
 40
8.32216956201067
 40
8.354921815205655
 40
8.382078813307436
 40
8.441824209206741
 40
8.501569605239892
 40
8.52872660348547
 40
8.56147885669549
 40
8.645945193877541
 40
8.761439980865081
 40
8.887277580764223
 40
9.002772362000744
 40
9.087238696660936
 40
9.119990949235419
 40
9.152428830613118
 40
9.240474508638334
 40
9.370226034149283
 40
9.527781457984165
 40
9.699238830981155
 40
9.870696203978344
 40
10.02825162781376
 40
10.15800315332538
 40
10.24604883135093
 40
10.27848670378496
 40
10.27848670378496
 40
10.27848670378496
 40
10.27848670378496
 10
195.3821827564384
 20
14.01410517385757
 10
195.3914554737524
 20
14.01410498511274
 10
195.4251744536861
 20
14.01410430876714
 10
195.4934706812466
 20
14.01411807243305
 10
195.592014171158
 20
14.01403224219544
 10
195.7062066464812
 20
14.01441755612251
 10
195.8185894417071
 20
14.01300835897545
 10
195.9214376600119
 20
14.01719117422243
 10
195.9806839874849
 20
14.00823089251983
 10
196.0371265937032
 20
14.0216443452606
 10
196.0246255586955
 20
13.97087198613361
 10
196.0329549635703
 20
13.92589320939066
 10
196.024817084112
 20
13.88056752990488
 10
196.0370529214456
 20
13.82931932408465
 10
195.9747773490334
 20
13.84447955365275
 10
195.9060513026868
 20
13.83359750710742
 10
195.7782756749591
 20
13.83911304747971
 10
195.6262984511644
 20
13.83700851253698
 10
195.4502695972523
 20
13.83771002588472
 10
195.2644431934287
 20
13.83745237531291
 10
195.0786167437176
 20
13.83771005144602
 10
194.9025880142169
 20
13.8370084184773
 10
194.7506104154195
 20
13.83911332229988
 10
194.6228357664555
 20
13.83359680767639
 10
194.5541077836582
 20
13.84448077125942
 10
194.4918349042884
 20
13.82931786684208
 10
194.5040616290019
 20
13.88057510805171
 10
194.4960004462597
 20
13.92582473272424
 10
194.5040675809893
 20
13.97106357955323
 10
194.4918238487084
 20
14.02234176909958
 10
194.5525017120699
 20
14.00749577363135
 10
194.6162810745737
 20
14.01756448170735
 10
194.7277314353503
 20
14.01294644212
 10
194.8497533443824
 20
14.01413328905469
 10
194.9719538137824
 20
14.01515863900635
 10
195.0829794287392
 20
14.01092475623402
 10
195.1476517413959
 20
14.02018584521739
 10
195.2091162810502
 20
14.00604423049682
 10
195.1930065601337
 20
14.07235527884516
 10
195.204298032736
 20
14.14447790121976
 10
195.1987400822561
 20
14.27513760888286
 10
195.2008035061691
 20
14.42607323708241
 10
195.2000167127295
 20
14.59335873107886
 10
195.2007845215628
 20
14.76061110332302
 10
195.198803878563
 20
14.91163289269914
 10
195.2041306156621
 20
15.04206069552994
 10
195.1933101388426
 20
15.11465442605899
 10
195.2090326429876
 20
15.18150469436798
 10
195.1432708132492
 20
15.16580512490825
 10
195.0756367830764
 20
15.17609243083995
 10
194.9615885293811
 20
15.17113786847122
 10
194.8451242674903
 20
15.17414128030475
 10
194.7306554121478
 20
15.16880303143389
 10
194.6640324657813
 20
15.18001268074824
 10
194.5990769715186
 20
15.16349132665011
 10
194.610798975871
 20
15.21473720477059
 10
194.6032830189121
 20
15.2595033378409
 10
194.6107989878837
 20
15.30426944897961
 10
194.5990769505347
 20
15.3555153612974
 10
194.6640326339201
 20
15.33899381766816
 10
194.7306533339821
 20
15.35020571373943
 10
194.8451352858065
 20
15.34485436710665
 10
194.9615454436963
 20
15.34791188771117
 10
195.0757660174641
 20
15.34278499010708
 10
195.1430150439228
 20
15.35345733355599
 10
195.2083325941439
 20
15.33742082669076
 10
195.1941391448553
 20
15.39949685750054
 10
195.2036059462996
 20
15.46586761628762
 10
195.1990269004085
 20
15.58239972741966
 10
195.2007696555949
 20
15.71426685022376
 10
195.1997551495392
 20
15.85615960150273
 10
195.2017191344372
 20
15.9876905070258
 10
195.1964668553852
 20
16.10524577283002
 10
195.2073408763474
 20
16.16947789001584
 10
195.1919536641855
 20
16.23108802545047
 10
195.2407591537801
 20
16.21702407382111
 10
195.2853995564727
 20
16.21954742075314
 10
195.3538643946744
 20
16.21512797401709
 10
195.3959106169103
 20
16.20613025544036
 10
195.4487544758776
 20
16.21411714866509
 10
195.4207035002014
 20
16.17113917611677
 10
195.3749142248595
 20
16.18259552043835
 10
195.3869539073265
 20
16.12173520005137
 10
195.3796086070643
 20
16.05769299468773
 10
195.3831195826162
 20
15.94909368863911
 10
195.3819806760175
 20
15.82494319144753
 10
195.3819174780263
 20
15.69189719829878
 10
195.3832872966868
 20
15.56797381249555
 10
195.3791638801314
 20
15.45868337849339
 10
195.3877763103565
 20
15.3960858009417
 10
195.3746757454402
 20
15.33740133296365
 10
195.4393884328199
 20
15.35362113810902
 10
195.5060405953157
 20
15.34270260383311
 10
195.6198779541103
 20
15.34793740173756
 10
195.7357259122097
 20
15.34485547516913
 10
195.8496924263281
 20
15.35018259812513
 10
195.9160341018099
 20
15.33904208166542
 10
195.9807188525481
 20
15.35546979593177
 10
195.9689820772723
 20
15.3042592521005
 10
195.9765168063042
 20
15.25950334121001
 10
195.9689820992259
 20
15.21474739010027
 10
195.9807188140737
 20
15.16353690871041
 10
195.9160344075253
 20
15.1799642779422
 10
195.8496886430826
 20
15.1688278444727
 10
195.7357459487013
 20
15.1741311589312
 10
195.6197995623055
 20
15.17114764593544
 10
195.5062756882124
 20
15.17606892268393
 10
195.4389231318805
 20
15.1658508751352
 10
195.3734285122496
 20
15.18145996138816
 10
195.3891713619218
 20
15.11463851827411
 10
195.3783275998215
 20
15.04207057815878
 10
195.3836581629792
 20
14.91162247614416
 10
195.3817136151857
 20
14.76064558185226
 10
195.3823133683214
 20
14.59322243934158
 10
195.3821506559606
 20
14.42656176118371
 10
195.3821895488135
 20
14.27360142921636
 10
195.38218164131
 20
14.14849178985705
 10
195.3821828382745
 20
14.0650789099142
 10
195.3821827716209
 20
14.02491778281976
 10
195.3821827564384
 20
14.01410517385757
 97
        1
330
AB
 75
     1
 76
     2
 52
45.0
 41
0.1
 77
     0
 78
     1
 53
45.0
 43
0.0
 44
0.0
 45
-0.282842712474619
 46
0.0
 79
     0
 98
        1
 10
0.0
 20
0.0
  0
HATCH
  5
C9
330
48
100
AcDbEntity
  8
1
  6
Continuous
 62
     2
100
AcDbHatch
 10
0.0
 20
0.0
 30
0.0
210
0.0
220
0.0
230
1.0
  2
CUSTOM3
 70
     0
 71
     1
 91
        1
 92
        1
 93
        1
 72
     4
 94
        3
 73
     0
 74
     0
 95
      131
 96
      127
 40
0.0
 40
0.0
 40
0.0
 40
0.0
 40
0.0195577029825939
 40
0.0426490537460536
 40
0.2863607575855535
 40
0.5344948436188662
 40
0.7842238845572898
 40
0.8737315789467063
 40
0.9803832810312791
 40
1.092842274517025
 40
1.199761146656808
 40
1.289788768186535
 40
1.351573580786248
 40
1.370727117561492
 40
1.416400936017908
 40
1.470914848356035
 40
1.516588666791826
 40
1.535742203552908
 40
1.634216592293298
 40
1.760283341175155
 40
1.897966686682239
 40
2.031216387369065
 40
2.049689751138059
 40
2.101115601646993
 40
2.179502577740111
 40
2.278859318314225
 40
2.393194462258881
 40
2.516516648383992
 40
2.64283451540612
 40
2.766156701983623
 40
2.880491846754734
 40
2.979848588358775
 40
3.058235565443952
 40
3.109661416669107
 40
3.128134780704282
 40
3.146783742386599
 40
3.191254343315431
 40
3.244332157316034
 40
3.288802758225909
 40
3.30745171989518
 40
3.327717853844792
 40
3.383747753580152
 40
3.468388665924543
 40
3.57448783769885
 40
3.694892515728955
 40
3.822449946852092
 40
3.950007377920483
 40
4.070412055800574
 40
4.176511227368128
 40
4.261152139501576
 40
4.317182039076767
 40
4.337448172964688
 40
4.620011002696284
 40
4.885096638397553
 40
4.94537304351837
 40
5.014107710488726
 40
5.070481727652069
 40
5.319246955636547
 40
5.58481216450604
 40
5.859000912056911
 40
6.133746937542043
 40
6.401732212968831
 40
6.420736683995422
 40
6.472845717451072
 40
6.550702743894
 40
6.646951193874209
 40
6.754234497930533
 40
6.865196086587311
 40
6.972479390357769
 40
7.068727839771931
 40
7.14658486545094
 40
7.19869389818917
 40
7.21769836890531
 40
7.234950401630789
 40
7.276089864269837
 40
7.325191803515947
 40
7.366331266090336
 40
7.38358329876969
 40
7.402779163492095
 40
7.453386443254498
 40
7.524934666445528
 40
7.606953361405868
 40
7.688972056429048
 40
7.760520279784298
 40
7.811127559734569
 40
7.83032342454619
 40
7.847844055299818
 40
7.894799345666861
 40
7.962779392744547
 40
8.043374293560591
 40
8.128174145149497
 40
8.208769044817299
 40
8.276749090376999
 40
8.323704379669557
 40
8.341225010056291
 40
8.35849761480044
 40
8.401679126686616
 40
8.457815092185674
 40
8.513951057728079
 40
8.557132569707978
 40
8.57440517450502
 40
8.602340668616364
 40
8.643455660539933
 40
8.663225271966601
 40
8.715345156564245
 40
8.78903188962858
 40
8.873502045520308
 40
8.957972194323931
 40
9.03165892556782
 40
9.083778811234508
 40
9.103548423002971
 40
9.119550083123508
 40
9.16081752237981
 40
9.217244429110176
 40
9.278724491644661
 40
9.335151398295446
 40
9.376418837357742
 40
9.39242049730053
 40
9.401196302734748
 40
9.417494229384221
 40
9.426270027749492
 40
9.440875075477525
 40
9.475702496998705
 40
9.517270709865869
 40
9.552098131994038
 40
9.566703169884246
 40
9.566703169884246
 40
9.566703169884246
 40
9.566703169884246
 10
194.6170254148479
 20
15.67015871511027
 10
194.6134345093371
 20
15.66453690702159
 10
194.6056039123625
 20
15.65227754419114
 10
194.512996897455
 20
15.61601916040953
 10
194.4887622233248
 20
15.40148444212718
 10
194.3858709845939
 20
15.22197284509707
 10
194.1220492364305
 20
15.03615573798147
 10
194.284547156918
 20
14.9595933656608
 10
194.3607225760839
 20
14.89856693195444
 10
194.4492171072759
 20
14.83515804544759
 10
194.538993023311
 20
14.77525634219561
 10
194.5883817636047
 20
14.72102154849208
 10
194.6745708157383
 20
14.69286240541833
 10
194.641126067423
 20
14.65713309652814
 10
194.6214671166311
 20
14.62550387991906
 10
194.5919888217884
 20
14.58475872796069
 10
194.5688989446032
 20
14.55504663489643
 10
194.5380205968358
 20
14.50211422668493
 10
194.472919336574
 20
14.627403349389
 10
194.3796000122416
 20
14.68213900233934
 10
194.2950636285138
 20
14.73916423939341
 10
194.1722498125742
 20
14.89675287427523
 10
194.1764450847301
 20
14.82035806766837
 10
194.1751478652677
 20
14.77361280161295
 10
194.1758126448076
 20
14.69584785812601
 10
194.1755549986957
 20
14.59902068324423
 10
194.1756431239921
 20
14.48650279078809
 10
194.1756077302281
 20
14.365240859457
 10
194.1756511758279
 20
14.24086897858962
 10
194.1755199942405
 20
14.11967683631336
 10
194.1759477562046
 20
14.00691148919744
 10
194.174667820231
 20
13.91082913768745
 10
194.1779759851044
 20
13.83113826468701
 10
194.1715197740086
 20
13.78815175788785
 10
194.1806208705556
 20
13.74955432372043
 10
194.1447910339935
 20
13.75810887724071
 10
194.1115223815253
 20
13.75342519985448
 10
194.0604562576041
 20
13.75351298759785
 10
194.0269723972814
 20
13.75794430283822
 10
193.9907585408754
 20
13.7496079384251
 10
194.0009782568666
 20
13.79145277179285
 10
193.9936487887774
 20
13.83778560820175
 10
193.9973633136103
 20
13.92374831106015
 10
193.9959480554897
 20
14.0260514270485
 10
193.9964105554639
 20
14.14453223931513
 10
193.9962773686231
 20
14.26957683153357
 10
193.9963015910045
 20
14.39475828107051
 10
193.9963354925553
 20
14.51286645379059
 10
193.9962060293132
 20
14.61628748709517
 10
193.9965507549082
 20
14.69932036153667
 10
193.9958698278691
 20
14.75143368521244
 10
193.9994586600623
 20
14.8791290782136
 10
193.7826171386438
 20
14.5804871681962
 10
193.6021354921953
 20
14.35263981511513
 10
193.5490322295612
 20
14.49373443289817
 10
193.5200429133149
 20
14.54325767560938
 10
193.4196648062822
 20
14.64641779790114
 10
193.7405127723262
 20
14.72695035023778
 10
193.8689897005431
 20
14.91066283036436
 10
194.090645432536
 20
15.11931995771758
 10
194.1770224894069
 20
15.29339211228346
 10
194.4549394229074
 20
15.56967051342512
 10
194.3346247839284
 20
15.56534559551114
 10
194.2863197351348
 20
15.56614856202552
 10
194.2102377454905
 20
15.56574582146584
 10
194.116701000975
 20
15.56590275611609
 10
194.0117594788557
 20
15.56582502576224
 10
193.9033887738717
 20
15.56595464378554
 10
193.7981454235897
 20
15.56554393490692
 10
193.7056237819412
 20
15.56682073671591
 10
193.6268130800708
 20
15.5634076653485
 10
193.5839674565379
 20
15.5702335003632
 10
193.5449499586515
 20
15.56065064201123
 10
193.5526365271863
 20
15.59420779565542
 10
193.5485464404312
 20
15.62523550322233
 10
193.5485531368814
 20
15.672365292709
 10
193.5526239724912
 20
15.70340941646779
 10
193.5449495574582
 20
15.73701861635903
 10
193.5834819405495
 20
15.72748410420873
 10
193.624122801448
 20
15.73397435498071
 10
193.6951471850463
 20
15.73100150650255
 10
193.7729318149634
 20
15.73174761399158
 10
193.8507292246474
 20
15.73247814044526
 10
193.9217232089908
 20
15.72954235514161
 10
193.9624279791821
 20
15.73595468772953
 10
194.000985348991
 20
15.72650524176004
 10
193.9927342754929
 20
15.76264692158785
 10
193.9982346669358
 20
15.80129837613228
 10
193.9955754206164
 20
15.86913528561839
 10
193.9965815471534
 20
15.9459164153874
 10
193.996017801832
 20
16.02849393582758
 10
193.9970714526594
 20
16.10517329229878
 10
193.994267586313
 20
16.173319907767
 10
194.0000702721305
 20
16.21132399809346
 10
193.991565455116
 20
16.24758448077646
 10
194.0255610233125
 20
16.23755723771853
 10
194.0594575683099
 20
16.24073266813706
 10
194.1126669060347
 20
16.2350896564061
 10
194.1660768574483
 20
16.23434774436425
 10
194.199591464949
 20
16.2281922348298
 10
194.2388086183039
 20
16.23346029773593
 10
194.2120263698492
 20
16.19253380793488
 10
194.1708111001724
 20
16.20371204538112
 10
194.1782641540873
 20
16.15867056192124
 10
194.1742227952184
 20
16.11412278028144
 10
194.1761714049641
 20
16.04223572621704
 10
194.1752364849758
 20
15.96168630588771
 10
194.176510719003
 20
15.88173995404995
 10
194.1732043793863
 20
15.80841837083183
 10
194.1802106179962
 20
15.7668864300257
 10
194.1701440380125
 20
15.72752418568113
 10
194.2029814803921
 20
15.73468063430982
 10
194.236457729648
 20
15.73027243137945
 10
194.2915053476019
 20
15.73217943347898
 10
194.3489502595314
 20
15.73185366407289
 10
194.4023026248309
 20
15.73106308733083
 10
194.4398540896638
 20
15.73313959118074
 10
194.4623172523237
 20
15.7302233816711
 10
194.4751678073731
 20
15.73572552644056
 10
194.4858255685889
 20
15.73801118197791
 10
194.4986635650143
 20
15.74494972588052
 10
194.514599103307
 20
15.72853046313672
 10
194.5410623920892
 20
15.71709122319448
 10
194.5726805253757
 20
15.6964468783519
 10
194.5987255892151
 20
15.68116869628294
 10
194.6128517723973
 20
15.67266976323183
 10
194.6170254148479
 20
15.67015871511027
 97
        1
330
AC
 75
     1
 76
     2
 52
45.0
 41
0.1
 77
     0
 78
     1
 53
45.0
 43
0.0
 44
0.0
 45
-0.282842712474619
 46
0.0
 79
     0
 98
        1
 10
0.0
 20
0.0
  0
HATCH
  5
CA
330
48
100
AcDbEntity
  8
1
  6
Continuous
 62
     2
100
AcDbHatch
 10
0.0
 20
0.0
 30
0.0
210
0.0
220
0.0
230
1.0
  2
CUSTOM4
 70
     0
 71
     1
 91
        1
 92
        1
 93
        1
 72
     4
 94
        3
 73
     0
 74
     0
 95
       91
 96
       87
 40
0.0
 40
0.0
 40
0.0
 40
0.0
 40
0.0267532254356701
 40
0.0856103386464155
 40
0.1444674521996709
 40
0.1712206856618621
 40
0.2039416005642643
 40
0.2955601971652591
 40
0.4362601844617024
 40
0.6162252844507357
 40
0.8256392189705088
 40
1.054685709844421
 40
1.293548478893542
 40
1.532411247938285
 40
1.76145773879955
 40
1.970871673298519
 40
2.150836773256715
 40
2.291536760495576
 40
2.383155356836654
 40
2.415876284101302
 40
2.442629517487949
 40
2.501486630949082
 40
2.560343744424233
 40
2.587096977826508
 40
2.617068194440935
 40
2.699247336756076
 40
2.82203264346636
 40
2.97382235325789
 40
3.143014704823332
 40
3.318007936879883
 40
3.487200288186744
 40
3.638989997548225
 40
3.761775303794724
 40
3.843954445753059
 40
3.873925662229754
 40
3.890812773500462
 40
3.907699884771614
 40
3.937960767857241
 40
3.98098361814233
 40
4.199085915228451
 40
4.439444339237243
 40
4.677588241260914
 40
5.0506983178378
 40
5.448212454763186
 40
5.855291218044711
 40
6.138575438885369
 40
6.417434507584231
 40
6.444551104393914
 40
6.504207617363213
 40
6.563864130314538
 40
6.590980727104131
 40
6.848609460381518
 40
7.109611990668476
 40
7.352910904446139
 40
7.557830220705507
 40
7.587518925913425
 40
7.652834077375844
 40
7.718149228845781
 40
7.747837934062084
 40
7.854880190301008
 40
7.976511257403527
 40
8.369487896592357
 40
8.757514959223707
 40
9.12607241933117
 40
9.460639380392175
 40
9.74669559303586
 40
9.777569943118653
 40
9.807050320931827
 40
9.830377336128958
 40
9.886003295436034
 40
9.952395569429944
 40
10.0080215287063
 40
10.03134854388222
 40
10.21356951009595
 40
10.42203479292875
 40
10.66154556731068
 40
10.91693789564312
 40
11.15832906556573
 40
11.18982674596628
 40
11.27286608520415
 40
11.3902665303336
 40
11.52484752840893
 40
11.6594285264845
 40
11.77682897161491
 40
11.85986831085687
 40
11.89136598230433
 40
11.89136598230433
 40
11.89136598230433
 40
11.89136598230433
 10
190.7027885008197
 20
14.70699600701772
 10
190.7028237765289
 20
14.71587847311985
 10
190.7029366710797
 20
14.74430237047347
 10
190.701298456849
 20
14.79409639169803
 10
190.7069750292912
 20
14.83657564478155
 10
190.6956928731708
 20
14.88730154856848
 10
190.7632296979032
 20
14.87012900740109
 10
190.8388029210701
 20
14.88290227165997
 10
190.9828357056002
 20
14.87629729457383
 10
191.1569419185427
 20
14.87888462206467
 10
191.3639599611005
 20
14.87800591955554
 10
191.5894688172378
 20
14.87828207920028
 10
191.8251162293406
 20
14.87818339658664
 10
192.0607640531349
 20
14.87828184412768
 10
192.2862717580627
 20
14.8780067819079
 10
192.4932934632806
 20
14.87888186270736
 10
192.6673888915288
 20
14.87630522678447
 10
192.8114492071987
 20
14.88288290449215
 10
192.8869691915293
 20
14.87016243405605
 10
192.9545776037031
 20
14.88726400191688
 10
192.9430840140676
 20
14.83674785802941
 10
192.9505104581734
 20
14.79253252226502
 10
192.9428838927986
 20
14.7486796650361
 10
192.9546489459426
 20
14.69878374479327
 10
192.8930788491983
 20
14.71393227712512
 10
192.8256791738673
 20
14.70310665350673
 10
192.7013004056222
 20
14.70852031626236
 10
192.5554428236572
 20
14.70649205390785
 10
192.3893576440086
 20
14.70715777578387
 10
192.2188412621725
 20
14.70689643521242
 10
192.051979085539
 20
14.70721553391094
 10
191.9087346827106
 20
14.70635302590762
 10
191.7773313869835
 20
14.70863300482988
 10
191.7239859134658
 20
14.70407704374202
 10
191.6485188456913
 20
14.70999914992877
 10
191.6769075779233
 20
14.70094169343353
 10
191.7033652409543
 20
14.69725912268928
 10
191.6633522907701
 20
14.66654271968273
 10
191.571366369187
 20
14.67667591174636
 10
191.5439396207069
 20
14.43032502247782
 10
191.4478793967235
 20
14.27499558764373
 10
191.1917277964473
 20
13.94525417931569
 10
191.7627537732762
 20
14.0843002221045
 10
192.0173656320516
 20
14.08291779973364
 10
192.6279647048617
 20
13.99790569242083
 10
192.3340698578083
 20
14.29685417558206
 10
192.013330428652
 20
14.4433085690178
 10
192.1313543360433
 20
14.50025540818287
 10
192.1724716466261
 20
14.52420099873348
 10
192.2156812394411
 20
14.5459975881123
 10
192.317457409445
 20
14.60928721253903
 10
192.4328867625247
 20
14.35147151408779
 10
192.6329591642277
 20
14.21616041113682
 10
192.7269077387227
 20
14.03792795138881
 10
192.9558829746393
 20
13.87997821027049
 10
192.8596031846707
 20
13.82915972576299
 10
192.8167959763779
 20
13.79881292523055
 10
192.7718243528779
 20
13.77466130281458
 10
192.7121720925213
 20
13.72552146747568
 10
192.6789731061326
 20
13.8599747567361
 10
192.5582013350796
 20
14.0159426528658
 10
192.1970976005979
 20
13.88569928059556
 10
191.8385061955541
 20
13.90224694409484
 10
191.4570920450079
 20
13.89331229351864
 10
191.1703455282892
 20
13.82882671672411
 10
190.8592055599717
 20
13.94230668192822
 10
190.8268737818789
 20
13.83122259927765
 10
190.7896178253318
 20
13.81196313850012
 10
190.7865737632753
 20
13.85874784087296
 10
190.7679892860607
 20
13.89806853919135
 10
190.7512436616778
 20
13.95765983478233
 10
190.7383730915753
 20
14.00201969871284
 10
190.7042327806428
 20
14.09106331120202
 10
190.9482714457754
 20
14.0218104294377
 10
191.1441394486672
 20
14.00030369057745
 10
191.2395426381276
 20
14.28226484478465
 10
191.2945135769598
 20
14.4436304542112
 10
191.5159619357155
 20
14.71391177589736
 10
191.3849239381218
 20
14.70548446853735
 10
191.3110026555855
 20
14.70779008496969
 10
191.1977459876244
 20
14.70671378321658
 10
191.0694251807485
 20
14.7070763907651
 10
190.9404252030416
 20
14.70697724466085
 10
190.8287840946292
 20
14.70699932712572
 10
190.7514663970028
 20
14.7069957918967
 10
190.7132876532011
 20
14.70699595845081
 10
190.7027885008197
 20
14.70699600701772
 97
        1
330
AD
 75
     1
 76
     2
 52
45.0
 41
0.1
 77
     0
 78
     1
 53
45.0
 43
0.0
 44
0.0
 45
-0.282842712474619
 46
0.0
 79
     0
 98
        1
 10
0.0
 20
0.0
  0
HATCH
  5
CB
330
48
100
AcDbEntity
  8
1
  6
Continuous
 62
     2
100
AcDbHatch
 10
0.0
 20
0.0
 30
0.0
210
0.0
220
0.0
230
1.0
  2
CUSTOM5
 70
     0
 71
     1
 91
        1
 92
        1
 93
        1
 72
     4
 94
        3
 73
     0
 74
     0
 95
       35
 96
       31
 40
0.0
 40
0.0
 40
0.0
 40
0.0
 40
0.0335231036621181
 40
0.0713218571711795
 40
0.4278866681486241
 40
0.8116865841963059
 40
1.198190237999965
 40
1.561379546812593
 40
1.659983174621905
 40
1.759315573807088
 40
2.132719617230972
 40
2.525233363588724
 40
2.910815397779592
 40
3.265244364303181
 40
3.592606723581869
 40
3.964386154603816
 40
4.359942131737637
 40
4.758154118639147
 40
4.843846538699778
 40
4.936650065543129
 40
5.256616602537209
 40
5.581707404415943
 40
5.899719158308039
 40
6.198363494280642
 40
6.466301046615677
 40
6.493895311536999
 40
6.55969702019682
 40
6.638234543442423
 40
6.704036252154232
 40
6.731630508423038
 40
6.731630508423038
 40
6.731630508423038
 40
6.731630508423038
 10
191.973601056867
 20
16.23463843719134
 10
191.967600609779
 20
16.22480690542323
 10
191.9548344099156
 20
16.20388988579802
 10
191.794936200656
 20
16.17127126532673
 10
192.2322025842335
 20
15.88206680336706
 10
192.4345394828262
 20
15.68041138358436
 10
192.6819564267973
 20
15.43749387603274
 10
193.1831513624606
 20
15.36047662757784
 10
193.0125562198971
 20
15.21876939174651
 10
192.9383299463201
 20
15.01710366209114
 10
192.6131432248187
 20
15.36956287174722
 10
192.3277741670664
 20
15.53175212559563
 10
192.0337604077658
 20
15.73687130053047
 10
191.8084452691134
 20
16.21827488595455
 10
191.5993085055523
 20
15.7534304660922
 10
191.3207873674835
 20
15.54350952252912
 10
191.0371383177209
 20
15.37424456359984
 10
190.7078639527833
 20
15.00142360907937
 10
190.6277012318224
 20
15.19708014459003
 10
190.4759724909744
 20
15.32491104190591
 10
190.9083395826794
 20
15.40454031765936
 10
191.0962565329765
 20
15.60026634915472
 10
191.3468477420502
 20
15.81632996916755
 10
191.5714350470162
 20
15.98190992300058
 10
191.6259775409711
 20
16.26133964636826
 10
191.7494661029012
 20
16.24737950408079
 10
191.806027334452
 20
16.24521268867647
 10
191.8761870984945
 20
16.2404685988136
 10
191.9333414022107
 20
16.23709429350541
 10
191.964419032084
 20
16.23519854711119
 10
191.973601056867
 20
16.23463843719134
 97
        1
330
AE
 75
     1
 76
     2
 52
45.0
 41
0.1
 77
     0
 78
     1
 53
45.0
 43
0.0
 44
0.0
 45
-0.282842712474619
 46
0.0
 79
     0
 98
        1
 10
0.0
 20
0.0
  0
HATCH
  5
CC
330
48
100
AcDbEntity
  8
1
  6
Continuous
 62
     2
100
AcDbHatch
 10
0.0
 20
0.0
 30
0.0
210
0.0
220
0.0
230
1.0
  2
CUSTOM6
 70
     0
 71
     1
 91
        1
 92
        1
 93
        1
 72
     4
 94
        3
 73
     0
 74
     0
 95
       15
 96
       11
 40
0.0
 40
0.0
 40
0.0
 40
0.0
 40
0.2785535985096117
 40
0.5215624748198209
 40
0.6076917376039869
 40
0.6938210001740639
 40
0.9405019146454074
 40
1.221691403489086
 40
1.300471877081026
 40
1.379252341684837
 40
1.379252341684837
 40
1.379252341684837
 40
1.379252341684837
 10
189.5681493631
 20
16.22930267330381
 10
189.6296017794179
 20
16.17691646592716
 10
189.7446649974113
 20
16.07882876798221
 10
190.0397348497244
 20
15.92889785897222
 10
189.9025147631856
 20
15.84343227515014
 10
189.8041227843778
 20
15.71085785201553
 10
189.713003359065
 20
16.01616985781425
 10
189.3636839480655
 20
16.07967869465374
 10
189.511925837657
 20
16.17896509880878
 10
189.5494081874237
 20
16.21252348402383
 10
189.5681493631
 20
16.22930267330381
 97
        1
330
AF
 75
     1
 76
     2
 52
45.0
 41
0.1
 77
     0
 78
     1
 53
45.0
 43
0.0
 44
0.0
 45
-0.282842712474619
 46
0.0
 79
     0
 98
        1
 10
0.0
 20
0.0
  0
HATCH
  5
CD
330
48
100
AcDbEntity
  8
1
  6
Continuous
 62
     2
100
AcDbHatch
 10
0.0
 20
0.0
 30
0.0
210
0.0
220
0.0
230
1.0
  2
CUSTOM7
 70
     0
 71
     1
 91
        1
 92
        1
 93
        1
 72
     4
 94
        3
 73
     0
 74
     0
 95
       75
 96
       71
 40
0.0
 40
0.0
 40
0.0
 40
0.0
 40
0.0342546099129691
 40
0.1245622414432364
 40
0.2522385480897518
 40
0.398599192294068
 40
0.5449598364980839
 40
0.6726361431438834
 40
0.7629437746736942
 40
0.7971983935297973
 40
1.101723623449632
 40
1.40859124403658
 40
1.433332471690284
 40
1.487763172450077
 40
1.542193873081906
 40
1.566935100592452
 40
1.923523931821762
 40
2.271755704953562
 40
2.590579755100804
 40
2.858943305581064
 40
2.889120339309058
 40
2.918305855190976
 40
2.941366645531099
 40
2.996357760972996
 40
3.061992318140561
 40
3.116983433626753
 40
3.140044223997432
 40
3.411273122936409
 40
3.732441619741129
 40
3.761068217532827
 40
3.837787499630389
 40
3.948858699126027
 40
4.080541049104404
 40
4.219093782625787
 40
4.350776132722338
 40
4.461847332405673
 40
4.538566614678404
 40
4.567193212544652
 40
4.59490757399891
 40
4.666381453557477
 40
4.764111044011116
 40
4.870592538125948
 40
4.968322128642399
 40
5.039796008287112
 40
5.067510369784571
 40
5.094263603185784
 40
5.153120716668422
 40
5.21197783015087
 40
5.238731063551874
 40
5.272290535139113
 40
5.363380529444974
 40
5.497618415781652
 40
5.660621563453894
 40
5.838007341749595
 40
6.015393119910946
 40
6.178396267038572
 40
6.312634151842524
 40
6.403724143059513
 40
6.437283612672609
 40
6.464036846261225
 40
6.522893960004842
 40
6.581751071484108
 40
6.608504301591054
 40
6.637253941281202
 40
6.711397748903053
 40
6.812778057283637
 40
6.923237199249357
 40
7.024617507624029
 40
7.098761315207653
 40
7.127510946007604
 40
7.127510946007604
 40
7.127510946007604
 40
7.127510946007604
 10
188.4418622390565
 20
14.95849128473264
 10
188.4418622819707
 20
14.9470731340872
 10
188.4418624481129
 20
14.90555257842628
 10
188.4418593081787
 20
14.82146922003771
 10
188.4418788279801
 20
14.70004497322328
 10
188.4417912187738
 20
14.55980494047448
 10
188.4421116235231
 20
14.42006556794575
 10
188.4411605909741
 20
14.29745038894929
 10
188.4431978595968
 20
14.21587074438042
 10
188.4349433178748
 20
14.06271267077699
 10
188.7430797940901
 20
14.2256023605472
 10
189.0350645173735
 20
14.39482938687999
 10
189.0408354448708
 20
14.2597323578191
 10
189.0455471719891
 20
14.21617221160444
 10
189.0482535411917
 20
14.17211249350544
 10
189.0672545672963
 20
14.02272590363135
 10
188.65839422473
 20
14.08681172241261
 10
188.3793710348832
 20
13.97296341411019
 10
188.1018081587168
 20
13.87364095811139
 10
187.8099837184398
 20
13.91630687596363
 10
187.7869144678659
 20
13.8132167974454
 10
187.7537474383333
 20
13.78691091244471
 10
187.748065396274
 20
13.83455309036306
 10
187.7284214559044
 20
13.8718033611507
 10
187.7095089485624
 20
13.93007387847564
 10
187.6942849867706
 20
13.97385201007804
 10
187.6477246372938
 20
14.08759421046315
 10
187.9890897312449
 20
14.05576301120046
 10
188.2679649367389
 20
14.02161435106476
 10
188.2617753034908
 20
14.16913976479652
 10
188.2630935452774
 20
14.24013150908833
 10
188.2624831689949
 20
14.34719767958661
 10
188.2625871570726
 20
14.47398529785998
 10
188.2629987964057
 20
14.6084924349605
 10
188.2613907841969
 20
14.73395549951184
 10
188.2659902567927
 20
14.84505246719117
 10
188.2564186502211
 20
14.90761886800689
 10
188.2704001783692
 20
14.96595388295
 10
188.2147384386706
 20
14.95289710582238
 10
188.1575655197822
 20
14.96136307749499
 10
188.0616048925648
 20
14.95729976080636
 10
187.9633767522821
 20
14.95970889852474
 10
187.867258245756
 20
14.95551600613387
 10
187.8104648525812
 20
14.96429346441163
 10
187.7550356873384
 20
14.95094936850121
 10
187.7670679427917
 20
15.00036910959256
 10
187.7592003173938
 20
15.04393988030395
 10
187.7666295563829
 20
15.08830469118525
 10
187.7551930564144
 20
15.13902297763991
 10
187.8232102370133
 20
15.12162460757743
 10
187.8968496879747
 20
15.13417450237189
 10
188.0325064058211
 20
15.12799677011097
 10
188.1884909024525
 20
15.13029203093084
 10
188.3615926358143
 20
15.1294096826253
 10
188.5346942964181
 20
15.13029207142408
 10
188.6906789811216
 20
15.1279966295555
 10
188.8263351889797
 20
15.13417486262432
 10
188.8999756705652
 20
15.12162394218335
 10
188.9679914174724
 20
15.13902373012142
 10
188.9565590885922
 20
15.08830130414555
 10
188.9639539458298
 20
15.04397060811108
 10
188.956203991227
 20
15.00028307550196
 10
188.9681203741877
 20
14.95063590098477
 10
188.9108170223616
 20
14.96461411338425
 10
188.8520145789773
 20
14.95539755673254
 10
188.75252936332
 20
14.95952268164929
 10
188.6494280098349
 20
14.95822760025887
 10
188.5537846354574
 20
14.9585407707764
 10
188.4857467971617
 20
14.95848776697145
 10
188.4514462213444
 20
14.95849051871656
 10
188.4418622390565
 20
14.95849128473264
 97
        1
330
B0
 75
     1
 76
     2
 52
45.0
 41
0.1
 77
     0
 78
     1
 53
45.0
 43
0.0
 44
0.0
 45
-0.282842712474619
 46
0.0
 79
     0
 98
        1
 10
0.0
 20
0.0
  0
HATCH
  5
CE
330
48
100
AcDbEntity
  8
1
  6
Continuous
 62
     2
100
AcDbHatch
 10
0.0
 20
0.0
 30
0.0
210
0.0
220
0.0
230
1.0
  2
CUSTOM8
 70
     0
 71
     1
 91
        1
 92
        1
 93
        1
 72
     4
 94
        3
 73
     0
 74
     0
 95
       91
 96
       87
 40
0.0
 40
0.0
 40
0.0
 40
0.0
 40
0.0345987051695434
 40
0.1258134969461369
 40
0.2547723404888987
 40
0.4026032099154409
 40
0.5504340793417273
 40
0.6793929228836932
 40
0.7706077146571888
 40
0.8052064287781777
 40
1.124852390615363
 40
1.427402236308954
 40
1.706356627453592
 40
1.955541417875275
 40
2.16948593856642
 40
2.344350786664871
 40
2.480568411562023
 40
2.590440557429045
 40
2.649189927151247
 40
2.749320643306446
 40
2.912632739880138
 40
3.147745656000337
 40
3.244827496385271
 40
3.338490056946809
 40
3.583815413207237
 40
3.761423943238603
 40
3.886956104362765
 40
3.98585545188697
 40
4.091766255337855
 40
4.25018647381202
 40
4.422734315084643
 40
4.628285684838738
 40
4.87209322775858
 40
5.152549652145691
 40
5.464967135837671
 40
5.803201477852592
 40
6.160362988814066
 40
6.193449448276121
 40
6.284170385501776
 40
6.419718138764646
 40
6.587285046385896
 40
6.77406344672381
 40
6.967245678113793
 40
7.154024078817779
 40
7.321590987026164
 40
7.457138740890523
 40
7.547859678556259
 40
7.580946138182819
 40
7.608533084714869
 40
7.669224367077847
 40
7.729915649430062
 40
7.757502595950115
 40
7.790278062553568
 40
7.880146277431066
 40
8.01441996318053
 40
8.180411842398058
 40
8.365434637679527
 40
8.556801071622857
 40
8.741823866830941
 40
8.90781574591648
 40
9.042089431507662
 40
9.131957646249788
 40
9.164733112797364
 40
9.415425063140292
 40
9.667986180958762
 40
9.694169807462929
 40
9.756607686047888
 40
9.831130315322694
 40
9.893568193900158
 40
9.919751820398975
 40
9.950967964690784
 40
9.996421631210948
 40
10.22087981037483
 40
10.44341866197572
 40
10.47847970788884
 40
10.57091337438785
 40
10.70159545461265
 40
10.85140174170393
 40
11.00120802880516
 40
11.13189010907421
 40
11.22432377583046
 40
11.25938480938995
 40
11.28697175596184
 40
11.34766303835958
 40
11.40835432042108
 40
11.43594125892142
 40
11.43594125892142
 40
11.43594125892142
 40
11.43594125892142
 10
190.081811433329
 20
15.55242795125077
 10
190.0702785844941
 20
15.55242790287915
 10
190.0283409445
 20
15.55242773704164
 10
189.9434129719026
 20
15.55243125800908
 10
189.8207688553129
 20
15.55240926435879
 10
189.6791206916993
 20
15.55250801177053
 10
189.537975369849
 20
15.55214686232421
 10
189.4141351317904
 20
15.55321883609088
 10
189.3317217825381
 20
15.55092249091268
 10
189.1727791229693
 20
15.56048569373421
 10
189.3503402353376
 20
15.19785394311371
 10
189.3379739205452
 20
14.95243127723115
 10
189.4064519473864
 20
14.66862501324835
 10
189.469302432097
 20
14.43250999939036
 10
189.5452253431728
 20
14.2332674039613
 10
189.6303189577015
 20
14.07745347451375
 10
189.7244607592935
 20
13.97657857781392
 10
189.8282648207727
 20
13.92465852638967
 10
189.9125872030775
 20
13.97606484379615
 10
189.9351322179452
 20
14.09144544037518
 10
189.974573097537
 20
14.21885149702382
 10
189.9202919734943
 20
14.53622328086754
 10
190.0451218072473
 20
14.38982180140909
 10
190.2019291513603
 20
14.35795300331168
 10
190.0947720007058
 20
14.12421357767629
 10
190.0808711209867
 20
13.95972776583656
 10
190.0234709467226
 20
13.83130869122481
 10
189.9335020145008
 20
13.76018802352828
 10
189.8095274657878
 20
13.74432324142253
 10
189.663427319686
 20
13.77993797554172
 10
189.5243894320284
 20
13.90000570500279
 10
189.4102003962144
 20
14.0743568255032
 10
189.3146141301487
 20
14.2994660311124
 10
189.2318652572626
 20
14.56388246006442
 10
189.1807179256411
 20
14.88187933098543
 10
189.0770189207338
 20
15.15543728488912
 10
189.2042841208519
 20
15.56005818612866
 10
189.0357890623019
 20
15.55112367849678
 10
188.9511995787077
 20
15.55315961418363
 10
188.8189876387627
 20
15.55213937388406
 10
188.6560505094104
 20
15.55253230318429
 10
188.4733759170532
 20
15.55235696313368
 10
188.2847057373383
 20
15.55260105307468
 10
188.1014469020189
 20
15.55185657906236
 10
187.9404746832718
 20
15.55416360522425
 10
187.8029808335276
 20
15.54799804883663
 10
187.728959037231
 20
15.56032838458211
 10
187.6613215186856
 20
15.54329323723556
 10
187.673237371927
 20
15.59524438447527
 10
187.6655677285693
 20
15.64071424966528
 10
187.6732592225116
 20
15.68614453703705
 10
187.6613141797761
 20
15.73802395984569
 10
187.7283588305867
 20
15.72119143490263
 10
187.8017375665676
 20
15.7333540909267
 10
187.9379128305272
 20
15.72727231074958
 10
188.0973811801512
 20
15.72954834315056
 10
188.2789173085837
 20
15.72881233998962
 10
188.465803486218
 20
15.72905954196133
 10
188.6468012316836
 20
15.72886400799253
 10
188.8080802578879
 20
15.72932234714838
 10
188.9393882124887
 20
15.72812673751205
 10
189.0225051322597
 20
15.73051347319742
 10
189.1556236547814
 20
15.72230605725463
 10
189.064589350266
 20
15.97752868952654
 10
188.9789633074419
 20
16.24164358328246
 10
189.0990589003455
 20
16.22904442969165
 10
189.1514264948544
 20
16.22694235763075
 10
189.2214497569715
 20
16.22535399889657
 10
189.2671922337817
 20
16.21602567538112
 10
189.3220812646932
 20
16.22545966915427
 10
189.2963574785682
 20
16.17733028655169
 10
189.1825397571452
 20
16.18266829744175
 10
189.3159346621137
 20
15.95449174576774
 10
189.1943658735471
 20
15.72156856595922
 10
189.3223188769413
 20
15.73087258884438
 10
189.4049048406461
 20
15.72801001754679
 10
189.5307214850824
 20
15.72923437412301
 10
189.6741469838059
 20
15.72932431888964
 10
189.8157420951728
 20
15.72746163183852
 10
189.9459127249968
 20
15.73333075937162
 10
190.0193452286191
 20
15.72070340823202
 10
190.0891112922097
 20
15.73877563110412
 10
190.0775772605397
 20
15.68612850546325
 10
190.0833184346683
 20
15.64221317686547
 10
190.0816615770911
 20
15.59089982676549
 10
190.081775756167
 20
15.56158792021635
 10
190.081811433329
 20
15.55242795125077
 97
        1
330
B1
 75
     1
 76
     2
 52
45.0
 41
0.1
 77
     0
 78
     1
 53
45.0
 43
0.0
 44
0.0
 45
-0.282842712474619
 46
0.0
 79
     0
 98
        1
 10
0.0
 20
0.0
  0
HATCH
  5
CF
330
48
100
AcDbEntity
  8
1
  6
Continuous
 62
     2
100
AcDbHatch
 10
0.0
 20
0.0
 30
0.0
210
0.0
220
0.0
230
1.0
  2
CUSTOM9
 70
     0
 71
     1
 91
        1
 92
        1
 93
        1
 72
     4
 94
        3
 73
     0
 74
     0
 95
      118
 96
      114
 40
0.0
 40
0.0
 40
0.0
 40
0.0
 40
0.1054708162973424
 40
0.246609827005191
 40
0.3965912874591412
 40
0.5285525069754153
 40
0.6156245055642684
 40
0.6431434105797829
 40
0.7036850037986533
 40
0.764226598450493
 40
0.7917455052355235
 40
0.9287404319990473
 40
1.106572819088127
 40
1.287544879681136
 40
1.317578308030655
 40
1.399928030857291
 40
1.522968204800067
 40
1.67507298659069
 40
1.844616533180768
 40
2.019973001638833
 40
2.189516548880148
 40
2.341621331585486
 40
2.464661506320626
 40
2.54701122964719
 40
2.577044658168154
 40
2.603797890893196
 40
2.662655002908883
 40
2.721512114949666
 40
2.748265347702818
 40
2.774215307344894
 40
2.845959313407224
 40
2.954338556588425
 40
3.090194227585604
 40
3.244367517100569
 40
3.407699615844329
 40
3.57103171453948
 40
3.725205003920156
 40
3.861060674729659
 40
3.96943991771635
 40
4.041183923629026
 40
4.067133883213019
 40
4.311886746012203
 40
4.547897258335593
 40
4.764747083044035
 40
4.952749679951823
 40
5.045772974195961
 40
5.137862019645079
 40
5.330543169793126
 40
5.553448265244117
 40
5.795083855888299
 40
6.043293412177361
 40
6.285761695541317
 40
6.313902908752829
 40
6.384255941793419
 40
6.475714884767007
 40
6.567173827759041
 40
6.637526860839819
 40
6.665668074074182
 40
6.692018920328155
 40
6.749990782071225
 40
6.807962643790593
 40
6.834313490018068
 40
6.856393084245346
 40
6.913335195649998
 40
6.991194817302634
 40
7.076026942283867
 40
7.153886563725414
 40
7.210828674844968
 40
7.232908268931303
 40
7.258199334923824
 40
7.324875781592474
 40
7.419142481925131
 40
7.52720430884207
 40
7.635266135230649
 40
7.729532834168634
 40
7.796209279292957
 40
7.821500344594903
 40
7.844652988851002
 40
7.899863140541752
 40
7.965759128053919
 40
8.020969279771231
 40
8.044121924046697
 40
8.069356610160817
 40
8.109134395441641
 40
8.132238100191353
 40
8.193147867786719
 40
8.27926167887689
 40
8.377977512674105
 40
8.476693347146888
 40
8.562807160411943
 40
8.62371693082673
 40
8.64682063685368
 40
8.671988793774494
 40
8.734909185828405
 40
8.81670569518912
 40
8.89850220481569
 40
8.961422597378151
 40
8.986590754551264
 40
9.012941600733418
 40
9.070913462380503
 40
9.128885324081999
 40
9.155236170325319
 40
9.180404327929361
 40
9.243324721948435
 40
9.325121234212228
 40
9.406917746637882
 40
9.469838141978338
 40
9.495006288271112
 40
9.517811184379255
 40
9.572192090487254
 40
9.637098333281484
 40
9.691479239515683
 40
9.714284125643722
 40
9.714284125643722
 40
9.714284125643722
 40
9.714284125643722
 10
185.2874469028653
 20
15.26889163187719
 10
185.3090990569037
 20
15.24111869242811
 10
185.3597257109474
 20
15.17618054561236
 10
185.4349383202592
 20
15.06891060312897
 10
185.5248482274346
 20
14.95377438266626
 10
185.5709169676674
 20
14.85357045748316
 10
185.6655825294655
 20
14.78434006814946
 10
185.6204439320414
 20
14.73771639678272
 10
185.5947047785791
 20
14.6966030886604
 10
185.5645196708013
 20
14.66065971727939
 10
185.5193684730563
 20
14.58579782596093
 10
185.4710504458562
 20
14.80782524253606
 10
185.3968539713073
 20
14.84510677337707
 10
185.2836047324607
 20
15.11610202130602
 10
185.2885133578169
 20
15.00095328446229
 10
185.2868486556306
 20
14.92836675781628
 10
185.2876830076713
 20
14.80625588483987
 10
185.2873609540264
 20
14.65913800810461
 10
185.2875076912456
 20
14.49307063956558
 10
185.2872950092722
 20
14.32187554608602
 10
185.2879497252034
 20
14.15552828635498
 10
185.2859192461139
 20
14.00935173055694
 10
185.291346039993
 20
13.8847104747461
 10
185.2804930868708
 20
13.81718656540627
 10
185.2956739155555
 20
13.75549061417023
 10
185.2457895108134
 20
13.76727503897002
 10
185.2017150342523
 20
13.7594382277997
 10
185.1582371630201
 20
13.76760441372702
 10
185.1092346786489
 20
13.75538056738469
 10
185.1218731234825
 20
13.80960667249313
 10
185.113018296845
 20
13.86936918907558
 10
185.1175058770314
 20
13.9792202904437
 10
185.1157960135992
 20
14.11029975405678
 10
185.1163550915987
 20
14.26198011444329
 10
185.1161928768695
 20
14.42211074929953
 10
185.1162269924675
 20
14.58236865674567
 10
185.1162514960127
 20
14.7337024752044
 10
185.1161453543227
 20
14.86582156338602
 10
185.1164299141931
 20
14.97294802533193
 10
185.1158675547569
 20
15.03808619579475
 10
185.1180765083689
 20
15.16618957858676
 10
185.0319435998603
 20
14.79097610391572
 10
184.9555140818501
 20
14.63918193123397
 10
184.8660040767834
 20
14.47766206446306
 10
184.7640413217326
 20
14.20471848820172
 10
184.7187976491039
 20
14.36717346596512
 10
184.610235594167
 20
14.45605432058117
 10
184.7995791751752
 20
14.60549794961409
 10
184.85653405457
 20
14.79749136974926
 10
184.9717520993353
 20
15.02899622906755
 10
184.9940151630133
 20
15.21797259759065
 10
185.1771905152139
 20
15.49454089325929
 10
185.0538033597553
 20
15.48698978832094
 10
184.9925684166834
 20
15.48856772366118
 10
184.9081999617065
 20
15.48882592573673
 10
184.8204235085966
 20
15.48544845751206
 10
184.7656768696123
 20
15.4939481498202
 10
184.7104703026025
 20
15.48048561049788
 10
184.7222823035537
 20
15.52931442126763
 10
184.7142496151795
 20
15.57269004896709
 10
184.7228186104678
 20
15.61509438309572
 10
184.7102943409158
 20
15.66267796552119
 10
184.7555101538736
 20
15.65267212995109
 10
184.8014815562725
 20
15.65894105174061
 10
184.877722204771
 20
15.65593561405872
 10
184.9561296131995
 20
15.65770448278541
 10
185.0323992648934
 20
15.65464793981659
 10
185.0783009459475
 20
15.66103971376176
 10
185.12317339654
 20
15.65093822978896
 10
185.1105552275635
 20
15.70157201581898
 10
185.1191936582707
 20
15.7550126188207
 10
185.1152361595445
 20
15.8486325513168
 10
185.1162325068335
 20
15.95112606688924
 10
185.1171927413074
 20
16.05353270248163
 10
185.1133211458006
 20
16.14735929609321
 10
185.1217789814365
 20
16.20036542840353
 10
185.1093075932836
 20
16.25211435651189
 10
185.1542106389851
 20
16.23850747226757
 10
185.1955083836773
 20
16.24100480320586
 10
185.2595344281051
 20
16.23648060574487
 10
185.2986111148787
 20
16.22781003043309
 10
185.3476543498743
 20
16.23515102070686
 10
185.3225080030591
 20
16.19602896051758
 10
185.2815901333723
 20
16.2056384245581
 10
185.2910109616604
 20
16.15540148169778
 10
185.2855647318746
 20
16.1038594563949
 10
185.2881699601804
 20
16.0195970758452
 10
185.2870102202153
 20
15.92559135583408
 10
185.2883591064231
 20
15.83196865395526
 10
185.2849970101508
 20
15.74679517552223
 10
185.2920959917769
 20
15.69716856072044
 10
185.2812569154545
 20
15.64993694969989
 10
185.3304010225245
 20
15.66201674936851
 10
185.3794877630147
 20
15.65447393363011
 10
185.4573714280641
 20
15.65686070361432
 10
185.5350365172897
 20
15.65899381905415
 10
185.5845393931354
 20
15.65193391922455
 10
185.6344594750639
 20
15.66360151936214
 10
185.622319851688
 20
15.61540235371393
 10
185.6305838229143
 20
15.57249219801236
 10
185.6223198650783
 20
15.52958201851384
 10
185.6344594549855
 20
15.48138288754865
 10
185.5845395158746
 20
15.4930503447151
 10
185.5350350651202
 20
15.48599202435046
 10
185.4573784382973
 20
15.48811665228603
 10
185.379464386576
 20
15.4905338936576
 10
185.3304500352716
 20
15.48291848194485
 10
185.2813246108943
 20
15.49507952557593
 10
185.2915559988571
 20
15.45073013424158
 10
185.2856677678053
 20
15.40925436202911
 10
185.2878788305569
 20
15.34915394315302
 10
185.2874109346146
 20
15.30225782762889
 10
185.2874386992913
 20
15.27650146418196
 10
185.2874469028653
 20
15.26889163187719
 97
        1
330
B2
 75
     1
 76
     2
 52
45.0
 41
0.1
 77
     0
 78
     1
 53
45.0
 43
0.0
 44
0.0
 45
-0.282842712474619
 46
0.0
 79
     0
 98
        1
 10
0.0
 20
0.0
  0
HATCH
  5
D0
330
48
100
AcDbEntity
  8
1
  6
Continuous
 62
     2
100
AcDbHatch
 10
0.0
 20
0.0
 30
0.0
210
0.0
220
0.0
230
1.0
  2
CUSTOM10
 70
     0
 71
     1
 91
        1
 92
        1
 93
        1
 72
     4
 94
        3
 73
     0
 74
     0
 95
       47
 96
       43
 40
0.0
 40
0.0
 40
0.0
 40
0.0
 40
0.2207912809957112
 40
0.4459404186302937
 40
0.4902387190458589
 40
0.5327473892720983
 40
0.5742260451224871
 40
0.6155432630559596
 40
0.6568164066315083
 40
0.6982511618780287
 40
0.7407663929316237
 40
0.7851366743175141
 40
1.010288833836315
 40
1.231080507002153
 40
1.451765243652386
 40
1.676638205891678
 40
1.720461045359648
 40
1.830018144043513
 40
1.972442372353144
 40
2.114866600677513
 40
2.224423699395138
 40
2.268246538883379
 40
2.493628801207214
 40
2.715602830286611
 40
2.934211330706364
 40
3.149502369855359
 40
3.231387784851089
 40
3.318231873854153
 40
3.405143198198112
 40
3.486970301720464
 40
3.702258172493907
 40
3.920866283534137
 40
4.142839325931923
 40
4.368221903865387
 40
4.412044743359867
 40
4.521601842095882
 40
4.664026070452363
 40
4.806450298809071
 40
4.916007397546763
 40
4.959830237043087
 40
5.184703515847127
 40
5.405387250767502
 40
5.405387250767502
 40
5.405387250767502
 40
5.405387250767502
 10
182.6507427258646
 20
15.73406440953873
 10
182.6568139420004
 20
15.79758482501211
 10
182.6690762107243
 20
15.92587938689626
 10
182.5604706879414
 20
16.20166220174076
 10
182.6761985896604
 20
16.17188133432054
 10
182.7171842509016
 20
16.16765556262819
 10
182.7591205797518
 20
16.16310446389608
 10
182.8004196625711
 20
16.16201982929485
 10
182.8417032115556
 20
16.16310338195227
 10
182.8836148270648
 20
16.16766112711342
 10
182.924598354902
 20
16.1718743020973
 10
183.0404922843489
 20
16.20177611317532
 10
182.9295652727456
 20
15.92339806609893
 10
182.9574856365269
 20
15.74283140824953
 10
182.9404267346969
 20
15.50961042346472
 10
182.9414637282104
 20
15.34906622543145
 10
182.9414099399405
 20
15.22284817558722
 10
182.9414277372482
 20
15.12428963336242
 10
182.9414188581081
 20
14.99280702442962
 10
182.9414263928034
 20
14.86132844968649
 10
182.941412940513
 20
14.76276222694091
 10
182.9414531717493
 20
14.63639735624152
 10
182.9406746403818
 20
14.47482068822869
 10
182.9565958319268
 20
14.24361821892915
 10
182.9333468885407
 20
14.05874351972
 10
183.0360183444367
 20
13.78935602770053
 10
182.8820238362837
 20
13.82660112685817
 10
182.8004129802832
 20
13.82137994680534
 10
182.7188192292583
 20
13.8266062037835
 10
182.5648513666844
 20
13.78937069885389
 10
182.6674183421918
 20
14.0587512986288
 10
182.6442045316089
 20
14.24361585325414
 10
182.6600444655139
 20
14.47482218565639
 10
182.6593296313427
 20
14.63639712308503
 10
182.6593664569907
 20
14.76276231210521
 10
182.659354900027
 20
14.86132756635981
 10
182.6593575019214
 20
14.9928112741722
 10
182.6593648531779
 20
15.124275480312
 10
182.6593442541351
 20
15.22287786275325
 10
182.6594082192028
 20
15.34896149354427
 10
182.658173394759
 20
15.51210091383771
 10
182.6532040396745
 20
15.6605418377755
 10
182.6507427258646
 20
15.73406440953873
 97
        1
330
B3
 75
     1
 76
     2
 52
45.0
 41
0.1
 77
     0
 78
     1
 53
45.0
 43
0.0
 44
0.0
 45
-0.282842712474619
 46
0.0
 79
     0
 98
        1
 10
0.0
 20
0.0
  0
HATCH
  5
D1
330
48
100
AcDbEntity
  8
1
  6
Continuous
 62
     2
100
AcDbHatch
 10
0.0
 20
0.0
 30
0.0
210
0.0
220
0.0
230
1.0
  2
CUSTOM11
 70
     0
 71
     1
 91
        1
 92
        1
 93
        1
 72
     4
 94
        3
 73
     0
 74
     0
 95
      110
 96
      106
 40
0.0
 40
0.0
 40
0.0
 40
0.0
 40
0.2203406257277714
 40
0.4407808782838093
 40
0.595249449461507
 40
0.7488431659393076
 40
0.9023581831309343
 40
1.056801968670404
 40
1.210736449099962
 40
1.363041386539869
 40
1.515315729683126
 40
1.669377239148077
 40
1.721611652756564
 40
1.773199502942948
 40
1.824933793209997
 40
1.877110426487978
 40
1.982682281206742
 40
2.078781667087551
 40
2.172809640822243
 40
2.271937807378926
 40
2.378349933379319
 40
2.494131557736394
 40
2.626681683943584
 40
2.783145050796068
 40
2.890701232940921
 40
2.993130312454827
 40
3.099869730691804
 40
3.220237816691298
 40
3.352695482737583
 40
3.481732806389839
 40
3.593499473690367
 40
3.674323013331874
 40
3.817951711952823
 40
3.946167120793934
 40
4.061405053453535
 40
4.166480796003147
 40
4.262478775059213
 40
4.350736673551254
 40
4.433071991254055
 40
4.511216293814742
 40
4.564262454118079
 40
4.618474415571707
 40
4.670128488754304
 40
4.72229687912651
 40
4.819540945314436
 40
4.931194984128235
 40
5.049996040257934
 40
5.168643755415536
 40
5.283970811762747
 40
5.392260784910572
 40
5.486512254876619
 40
5.559178233950046
 40
5.591425852853713
 40
5.626215969638094
 40
5.667155838674638
 40
5.717449290214451
 40
5.738402360945064
 40
5.784499116554032
 40
5.830595872165
 40
5.851548942897858
 40
5.873019280661974
 40
5.924217778408519
 40
5.985325662817902
 40
6.036524160567921
 40
6.057994498334449
 40
6.236847789607688
 40
6.381409928945854
 40
6.493190424178895
 40
6.574067534230705
 40
6.691018086205714
 40
6.814881554220632
 40
6.944307823240584
 40
7.071266716066209
 40
7.193488604462053
 40
7.309042773128366
 40
7.414007203170963
 40
7.505140441886662
 40
7.531150360599816
 40
7.559221645322391
 40
7.587202218921057
 40
7.612569159499277
 40
7.662550809481144
 40
7.702878875764275
 40
7.857328205231032
 40
8.010799568088734
 40
8.165256399657627
 40
8.322232698714023
 40
8.47956485501671
 40
8.635216230290913
 40
8.790882550925831
 40
8.948305154947397
 40
9.168271839033089
 40
9.38735898098736
 40
9.608047961033604
 40
9.832914234792817
 40
9.858338694963152
 40
9.925366817230158
 40
10.02013071422774
 40
10.12876249859012
 40
10.23739428295263
 40
10.33215817995204
 40
10.39918630222407
 40
10.42461076239796
 40
10.64992019336957
 40
10.87188524531201
 40
10.87188524531201
 40
10.87188524531201
 40
10.87188524531201
 10
179.9057788376618
 20
15.7392326039819
 10
179.9092864933542
 20
15.80616462073804
 10
179.9163033987663
 20
15.94005891915859
 10
179.8198027599073
 20
16.2254855497147
 10
180.0510134726109
 20
16.16284386190284
 10
180.1919290057156
 20
16.1700155405599
 10
180.3490417757588
 20
16.16235883078244
 10
180.5025913427288
 20
16.1625275228304
 10
180.6545104935081
 20
16.16182040535432
 10
180.8142214813232
 20
16.17210158351639
 10
180.9408972601118
 20
16.15496511080752
 10
181.137082112208
 20
16.22727260107145
 10
181.1034395279078
 20
16.12640699080117
 10
181.1052011317184
 20
16.07619253947671
 10
181.1027342073458
 20
16.02712335586465
 10
181.1347076966011
 20
15.94063490846999
 10
181.0010399903256
 20
15.98997438608336
 10
180.9172208688057
 20
15.98430634314169
 10
180.8173861139323
 20
15.99465516706297
 10
180.7186576720146
 20
16.00086450411087
 10
180.612153277111
 20
16.00697763816776
 10
180.491051169806
 20
16.01588883484586
 10
180.3703381502454
 20
16.00521605912382
 10
180.1812553843436
 20
16.06468503080369
 10
180.2129028505312
 20
15.90558320077539
 10
180.1995563316833
 20
15.80839128339904
 10
180.1974958426451
 20
15.69634065110102
 10
180.195818804467
 20
15.57699685629351
 10
180.1973336794232
 20
15.4503259215511
 10
180.1956582478672
 20
15.32301588016117
 10
180.2058844271658
 20
15.22451566404464
 10
180.1779006596582
 20
15.08388702625631
 10
180.3508029999306
 20
15.13989551134096
 10
180.4645020202772
 20
15.12719951478497
 10
180.584015167224
 20
15.13448377051255
 10
180.6888491425071
 20
15.13878017056755
 10
180.7843084898612
 20
15.14330568258978
 10
180.8763823507032
 20
15.15149201146199
 10
180.947655178244
 20
15.14643850638113
 10
181.0544931705686
 20
15.18536425031677
 10
181.0226603598036
 20
15.1051712200588
 10
181.0266164503929
 20
15.05562936846033
 10
181.0234502392013
 20
15.00557478039818
 10
181.0550791490586
 20
14.92128847612021
 10
180.9210133677692
 20
14.97425365495156
 10
180.8292322793201
 20
14.96540080890441
 10
180.7079729189603
 20
14.97570049965155
 10
180.5914113119771
 20
14.97748911767502
 10
180.4783375745879
 20
14.97787017109694
 10
180.3679246308471
 20
14.9841544947218
 10
180.289812406784
 20
14.97189133255363
 10
180.1913625833644
 20
15.00453887616127
 10
180.2012355173561
 20
14.94769748054206
 10
180.1973923244404
 20
14.91392130557983
 10
180.1966789884268
 20
14.87119604709411
 10
180.1963369642975
 20
14.83401607262153
 10
180.1963834255345
 20
14.7948723737077
 10
180.1963649429926
 20
14.75716849497685
 10
180.1963703431806
 20
14.71944955232403
 10
180.19636972142
 20
14.68994324745149
 10
180.1963698151546
 20
14.65873577699301
 10
180.196370428792
 20
14.61414424908084
 10
180.1963671499337
 20
14.5596395650885
 10
180.1963759623481
 20
14.51505540201447
 10
180.1963359653417
 20
14.43117808585739
 10
180.1976024270255
 20
14.31737520677678
 10
180.1950274117843
 20
14.1683039593371
 10
180.2065009381719
 20
14.06597203813905
 10
180.1823506222265
 20
13.93338903885837
 10
180.3332993946476
 20
13.97895732272021
 10
180.4428436671556
 20
13.96427012162349
 10
180.5733970473921
 20
13.96920435125064
 10
180.6990312209514
 20
13.97257705323361
 10
180.8188730625601
 20
13.97711497498773
 10
180.9391362611427
 20
13.99048536182005
 10
181.0222761663516
 20
13.98068712782595
 10
181.1456080421075
 20
14.04126214623318
 10
181.1244269203956
 20
13.98532460134021
 10
181.1235950270119
 20
13.95939249372345
 10
181.1218963707557
 20
13.93197256190939
 10
181.1217974888829
 20
13.89738195206384
 10
181.120365930133
 20
13.86050408220767
 10
181.153280419219
 20
13.76846841021808
 10
180.9551306988106
 20
13.84132015974832
 10
180.8300548294891
 20
13.81825726508606
 10
180.6673071295156
 20
13.82454021985785
 10
180.5129366450001
 20
13.82260943909926
 10
180.3566670436944
 20
13.82393762599267
 10
180.1970544465282
 20
13.82059872487862
 10
180.0540326342237
 20
13.8326579572824
 10
179.8197144881628
 20
13.76952001976918
 10
179.9173810751197
 20
14.05620527466317
 10
179.9006868780058
 20
14.2498830814266
 10
179.9146296709685
 20
14.47848242880295
 10
179.9142987846632
 20
14.63384593955049
 10
179.9143078119264
 20
14.73966336444127
 10
179.9143055876317
 20
14.80205784124215
 10
179.914306555189
 20
14.89220425248327
 10
179.9143065473262
 20
14.99621167157438
 10
179.9143053861104
 20
15.10022131375296
 10
179.9143090971502
 20
15.19036243688768
 10
179.9143011051053
 20
15.25276803097215
 10
179.9143334275018
 20
15.35868835961119
 10
179.913144078832
 20
15.51626716544741
 10
179.9082216489256
 20
15.66528219822065
 10
179.9057788376618
 20
15.7392326039819
 97
        1
330
B4
 75
     1
 76
     2
 52
45.0
 41
0.1
 77
     0
 78
     1
 53
45.0
 43
0.0
 44
0.0
 45
-0.282842712474619
 46
0.0
 79
     0
 98
        1
 10
0.0
 20
0.0
  0
HATCH
  5
D2
330
48
100
AcDbEntity
  8
1
  6
Continuous
 62
     2
100
AcDbHatch
 10
0.0
 20
0.0
 30
0.0
210
0.0
220
0.0
230
1.0
  2
CUSTOM12
 70
     0
 71
     1
 91
        1
 92
        1
 93
        1
 72
     4
 94
        3
 73
     0
 74
     0
 95
       95
 96
       91
 40
0.0
 40
0.0
 40
0.0
 40
0.0
 40
0.6550406656911366
 40
1.308087289031932
 40
1.420803739835789
 40
1.566130759770792
 40
1.757067341888457
 40
2.006513545026452
 40
2.087328263121539
 40
2.185328872295613
 40
2.294612454748363
 40
2.408936380534808
 40
2.526802767798561
 40
2.646360524615601
 40
2.762535723971578
 40
2.870057342870155
 40
2.966883448431641
 40
3.050803243518283
 40
3.115818222436601
 40
3.156030057150234
 40
3.213914225080108
 40
3.276689026450451
 40
3.342960320981285
 40
3.404230667150478
 40
3.453822809493282
 40
3.532499827188341
 40
3.63477518850708
 40
3.754909333008086
 40
3.889736761660573
 40
4.035769602175147
 40
4.187256681197521
 40
4.338733685675868
 40
4.488478734676032
 40
4.634708317831511
 40
4.771493189921181
 40
4.892686571561124
 40
5.199775528944365
 40
5.460353566929559
 40
5.667603142345429
 40
5.814722905404413
 40
5.828990806219739
 40
5.855488336304408
 40
5.86975623711874
 40
6.189796507762751
 40
6.531890469872939
 40
6.883053637016912
 40
7.230512024911347
 40
7.566966656764473
 40
7.88520355970728
 40
8.17288743971914
 40
8.418011594062694
 40
8.443926721190616
 40
8.510760470613103
 40
8.602145393795613
 40
8.701714041647055
 40
8.793098965075284
 40
8.859932715057857
 40
8.885847842603507
 40
9.242301256612722
 40
9.589275455016677
 40
9.921808543164081
 40
10.23479624298459
 40
10.29968150889178
 40
10.35323493887769
 40
10.40154625355151
 40
10.46482922477818
 40
10.55973900668398
 40
10.6923954598561
 40
10.84920353475665
 40
11.01626328594772
 40
11.18672024367436
 40
11.35372582577203
 40
11.50257442292419
 40
11.61866495023284
 40
11.71329869152867
 40
11.825110505739
 40
11.94464880845708
 40
12.069292426425
 40
12.19707290435169
 40
12.32562632860521
 40
12.45034565331271
 40
12.56646595170319
 40
12.67099007414627
 40
12.76077625936774
 40
12.82703233506687
 40
12.87429132785986
 40
12.89831990323326
 40
12.92234847860014
 40
13.53984767410313
 40
14.1829428435936
 40
14.1829428435936
 40
14.1829428435936
 40
14.1829428435936
 10
177.3067935648021
 20
14.70898038201724
 10
177.1752019758551
 20
14.82265058603232
 10
176.912419380273
 20
15.04964496316159
 10
176.3997393441019
 20
15.89214462956287
 10
176.4106654595363
 20
15.53423377577019
 10
176.404122652799
 20
15.39267392272132
 10
176.4028026631773
 20
15.19421305299281
 10
176.4018117602538
 20
15.02150296045982
 10
176.4024101751975
 20
14.8786537325758
 10
176.4038994301882
 20
14.78265005413358
 10
176.4055683588472
 20
14.67545503263142
 10
176.4071934954619
 20
14.56164211517582
 10
176.4092429501685
 20
14.44441572604588
 10
176.4123165501927
 20
14.3265641123297
 10
176.4156339697043
 20
14.2122808732062
 10
176.4193605340281
 20
14.10521401867276
 10
176.4217338161424
 20
14.01007408766921
 10
176.4278718888359
 20
13.92558557205695
 10
176.4239784495948
 20
13.86923087298143
 10
176.4455230443077
 20
13.79825022472356
 10
176.3680940058618
 20
13.82902677604483
 10
176.3116353240191
 20
13.82011242517613
 10
176.2540495896807
 20
13.82896218398276
 10
176.1690163478474
 20
13.79738225225946
 10
176.2009714146382
 20
13.88095155992191
 10
176.199070528254
 20
13.94882608968308
 10
176.21079600473
 20
14.05233256764419
 10
176.2164241053001
 20
14.17002125616695
 10
176.223790217894
 20
14.30388609164424
 10
176.2320759701611
 20
14.44764152872632
 10
176.2398851897426
 20
14.59714022843445
 10
176.2457571222657
 20
14.74792549402078
 10
176.2503667817968
 20
14.89699943878438
 10
176.2542632117544
 20
15.04122913163022
 10
176.2570715126565
 20
15.17583905213018
 10
176.2576698755021
 20
15.36469614347354
 10
176.2616023867151
 20
15.58975494313154
 10
176.2442175378498
 20
15.86367091125708
 10
176.2850417342583
 20
16.02787112098597
 10
176.1995153256003
 20
16.22749661465099
 10
176.2660558907689
 20
16.22385458403979
 10
176.2838724273231
 20
16.22413447160855
 10
176.4056801797503
 20
16.22632927398614
 10
176.5080770335463
 20
15.94675118721515
 10
176.7580021509356
 20
15.74563008536003
 10
176.9870035331111
 20
15.47792614987918
 10
177.2245151213109
 20
15.22646413862373
 10
177.4486090740772
 20
14.98969974061361
 10
177.6750716283009
 20
14.73218692583075
 10
177.8325687886515
 20
14.61649335056926
 10
178.0472129612676
 20
14.27997152538794
 10
178.0422645974619
 20
14.40464754091603
 10
178.0433931602547
 20
14.46327691935737
 10
178.0428877841517
 20
14.55043662371977
 10
178.0430475158114
 20
14.64416143182872
 10
178.043005489132
 20
14.73018971297035
 10
178.0430202040374
 20
14.79153891945496
 10
178.0429706255983
 20
14.94135231520991
 10
178.0458811522812
 20
15.17989612510105
 10
178.0259521041161
 20
15.544865098687
 10
178.0750433936249
 20
15.80799631993415
 10
177.9177951509179
 20
16.2192890494775
 10
178.0762112872422
 20
16.16398282551748
 10
178.131168047863
 20
16.16199686500175
 10
178.182788776674
 20
16.16264778248252
 10
178.2713198965366
 20
16.20369527738244
 10
178.220489830317
 20
16.05696326622985
 10
178.2313389930285
 20
15.95019971954434
 10
178.2166036994847
 20
15.79085705414112
 10
178.2099976446206
 20
15.62853061652874
 10
178.2014961399915
 20
15.45992521892395
 10
178.1943227202199
 20
15.2981481470354
 10
178.188906321539
 20
15.15422331457932
 10
178.1871713967649
 20
15.03437493466925
 10
178.1875440672319
 20
14.92686101590514
 10
178.1873656126264
 20
14.81820024645586
 10
178.187701086314
 20
14.69953570165531
 10
178.1890040622183
 20
14.57555163512741
 10
178.1908887351576
 20
14.44858294171105
 10
178.1925004454849
 20
14.32153861551032
 10
178.1941403137432
 20
14.19854884492178
 10
178.1962570745751
 20
14.0830093138376
 10
178.1963848422363
 20
13.98090903955837
 10
178.2006514396554
 20
13.89009848838156
 10
178.1908440085289
 20
13.83213621208786
 10
178.211847477169
 20
13.76517130132028
 10
178.1725639739896
 20
13.77291153966686
 10
177.9595307117747
 20
13.75755254145192
 10
177.7636297943187
 20
14.31403058094472
 10
177.4611197631544
 20
14.57556035348509
 10
177.3067935648021
 20
14.70898038201724
 97
        1
330
B5
 75
     1
 76
     2
 52
45.0
 41
0.1
 77
     0
 78
     1
 53
45.0
 43
0.0
 44
0.0
 45
-0.282842712474619
 46
0.0
 79
     0
 98
        1
 10
0.0
 20
0.0
  0
HATCH
  5
D3
330
48
100
AcDbEntity
  8
1
  6
Continuous
 62
     2
100
AcDbHatch
 10
0.0
 20
0.0
 30
0.0
210
0.0
220
0.0
230
1.0
  2
CUSTOM13
 70
     0
 71
     1
 91
        2
 92
        1
 93
        1
 72
     4
 94
        3
 73
     0
 74
     0
 95
       57
 96
       53
 40
0.0
 40
0.0
 40
0.0
 40
0.0
 40
0.0471632082810082
 40
0.0914861054633
 40
0.1357762519702667
 40
0.1826527001610678
 40
0.2295203288573155
 40
0.2737751972221609
 40
0.3181310461543635
 40
0.3652607198398511
 40
0.4571007286314658
 40
0.5671851029165464
 40
0.689462328386865
 40
0.8181758272545921
 40
0.9510087229274068
 40
1.085852229674062
 40
1.218126164475302
 40
1.343545131142371
 40
1.454537202956816
 40
1.567187607530796
 40
1.680710966642443
 40
1.794226869736864
 40
1.900009184247635
 40
2.004085860447943
 40
2.108162674451831
 40
2.214000150155291
 40
2.496038577352155
 40
2.762350745479289
 40
2.997275353279401
 40
3.185110082137709
 40
3.246407890063992
 40
3.31260755021278
 40
3.378877742711682
 40
3.440140399651423
 40
4.100501696006418
 40
4.754913085563452
 40
5.411331693423882
 40
6.077890432568696
 40
6.110575292670974
 40
6.143260152775754
 40
6.367989363395129
 40
6.610525374951551
 40
6.863389136467304
 40
7.119380025547555
 40
7.37603660509106
 40
7.631164770966248
 40
7.876722425456399
 40
8.104953735855917
 40
8.312916685924254
 40
8.497730294941293
 40
8.651018984313845
 40
8.76473885362458
 40
8.76473885362458
 40
8.76473885362458
 40
8.76473885362458
 10
174.7922649500514
 20
13.81626739612927
 10
174.7766616726931
 20
13.81826231079078
 10
174.7463947960302
 20
13.82213201360298
 10
174.7010994202253
 20
13.82341984967268
 10
174.6559553129349
 20
13.8230868355405
 10
174.60990171234
 20
13.82314658674224
 10
174.5640496172096
 20
13.8232581365
 10
174.5183711648165
 20
13.82277833456591
 10
174.4750811541608
 20
13.82461109618721
 10
174.4039947951515
 20
13.80049556814658
 10
174.4057477261441
 20
13.92184693977251
 10
174.358619637057
 20
14.00726239751232
 10
174.3191478251761
 20
14.12486929345133
 10
174.2706635532646
 20
14.24232752540441
 10
174.2201017402523
 20
14.36405935761509
 10
174.1718634610478
 20
14.49075967862466
 10
174.1135232947595
 20
14.59933687784954
 10
174.0980892667262
 20
14.75620657134409
 10
173.9566586330636
 20
14.72373446548323
 10
173.8508397414904
 20
14.73512888682179
 10
173.7358569725222
 20
14.73392591514616
 10
173.6253142252141
 20
14.73506945347409
 10
173.5176583522783
 20
14.73418350037526
 10
173.4121322529243
 20
14.73416602390519
 10
173.3109192682013
 20
14.72714032472416
 10
173.1266804827754
 20
14.75135859859862
 10
173.1157393685411
 20
14.44741691121886
 10
173.008769163475
 20
14.22353177253398
 10
172.9098148604347
 20
14.03895314292496
 10
172.9225090524009
 20
13.79530204804205
 10
172.8050091716397
 20
13.82508046753197
 10
172.742205586831
 20
13.82258089509603
 10
172.67858720934
 20
13.82344075102805
 10
172.3946014194076
 20
13.78098039941945
 10
173.0251638499382
 20
14.50081952444789
 10
173.1087645289071
 20
15.01276539435731
 10
173.492925278934
 20
15.53353743550042
 10
173.4777208288565
 20
16.23519626253217
 10
173.7239265722698
 20
16.22345633081257
 10
173.8256346157562
 20
16.23225004452774
 10
173.8249752035819
 20
15.98059650730345
 10
173.9428317155829
 20
15.79818020733958
 10
174.0315515260486
 20
15.55563740662868
 10
174.1322292485259
 20
15.32340030530125
 10
174.2311142712243
 20
15.08674644566915
 10
174.3299676990669
 20
14.85461739170091
 10
174.4256166390926
 20
14.63122222788791
 10
174.5159904573271
 20
14.42272549049315
 10
174.5989944568188
 20
14.23308448529317
 10
174.67260885828
 20
14.06663106068101
 10
174.7342815895546
 20
13.92917699626097
 10
174.7749458885604
 20
13.84999239430034
 10
174.7922649500514
 20
13.81626739612927
 97
        1
330
B7
 92
       16
 93
        1
 72
     4
 94
        3
 73
     0
 74
     0
 95
       25
 96
       21
 40
0.0
 40
0.0
 40
0.0
 40
0.0
 40
0.091147996906539
 40
0.1858117896205802
 40
0.2804128399735345
 40
0.3715889190715649
 40
0.4679080494218995
 40
0.5642683809229234
 40
0.6605683222645277
 40
0.756965301581111
 40
0.8561348172523577
 40
1.092615965104386
 40
1.374867658141978
 40
1.611348812011711
 40
1.710518328425359
 40
1.809403163726677
 40
2.045205463294177
 40
2.326646917622235
 40
2.562449217190693
 40
2.661334043834011
 40
2.661334043834011
 40
2.661334043834011
 40
2.661334043834011
 10
173.2683700567199
 20
14.88614538197292
 10
173.2987525917923
 20
14.88598079714554
 10
173.3606895889112
 20
14.88564528689921
 10
173.4541356960331
 20
14.88269055452
 10
173.5475095236358
 20
14.87977752877149
 10
173.6417760753477
 20
14.87894201643416
 10
173.7354964790967
 20
14.87996644658046
 10
173.8352040303205
 20
14.87916977470973
 10
173.9188949546313
 20
14.88921410235219
 10
174.0637996315046
 20
14.86234617674164
 10
173.9396132444802
 20
15.03665530280048
 10
173.8965867286282
 20
15.19651711006091
 10
173.780892214221
 20
15.45518458550215
 10
173.7017565431256
 20
15.59231052861857
 10
173.6431576621816
 20
15.80937033134076
 10
173.5864803939438
 20
15.59266134213427
 10
173.5052809900477
 20
15.45327012438235
 10
173.4063701281488
 20
15.20406969370194
 10
173.3253625094259
 20
15.01925830226073
 10
173.2813683325838
 20
14.91650446856116
 10
173.2683700567199
 20
14.88614538197292
 97
        1
330
B6
 75
     1
 76
     2
 52
45.0
 41
0.1
 77
     0
 78
     1
 53
45.0
 43
0.0
 44
0.0
 45
-0.282842712474619
 46
0.0
 79
     0
 98
        1
 10
0.0
 20
0.0
  0
HATCH
  5
D4
330
48
100
AcDbEntity
  8
1
  6
Continuous
 62
     2
100
AcDbHatch
 10
0.0
 20
0.0
 30
0.0
210
0.0
220
0.0
230
1.0
  2
CUSTOM14
 70
     0
 71
     1
 91
        1
 92
        1
 93
        1
 72
     4
 94
        3
 73
     0
 74
     0
 95
       99
 96
       95
 40
0.0
 40
0.0
 40
0.0
 40
0.0
 40
0.0796417172272992
 40
0.1621768542355875
 40
0.2486489160957978
 40
0.3404969668525173
 40
0.4381912511165507
 40
0.5434463660245531
 40
0.6518115192847008
 40
0.7530190937887438
 40
0.8492196919725417
 40
0.9419290312998674
 40
1.034249663570076
 40
1.12907860062021
 40
1.226697027573262
 40
1.327220425421716
 40
1.470572134938038
 40
1.59548986337127
 40
1.719934125348412
 40
1.850576620127475
 40
1.989059629987314
 40
2.134139054226879
 40
2.280698007207219
 40
2.424529739039538
 40
2.56592957698586
 40
2.708239260773591
 40
2.861717887443682
 40
3.045168540347387
 40
3.183798301138626
 40
3.314813961455484
 40
3.442083470447324
 40
3.56991270837292
 40
3.702177512509319
 40
3.842307559659488
 40
3.992872223245892
 40
4.156750662218395
 40
4.310981861107559
 40
4.445859909322634
 40
4.572393936131574
 40
4.701656719781949
 40
4.768279086008413
 40
4.835960697898377
 40
4.912788918729301
 40
5.006285208481485
 40
5.026909478751618
 40
5.047533749021239
 40
5.101808031471314
 40
5.16232516553861
 40
5.226919745995927
 40
5.294231806596719
 40
5.36454485255489
 40
5.438319055467934
 40
5.517877651324351
 40
5.607647714861663
 40
5.70044964254451
 40
5.788251142364241
 40
5.872714706039874
 40
5.955167292575379
 40
6.03719239519048
 40
6.120669181469217
 40
6.206848616686424
 40
6.296680855416845
 40
6.442558392872662
 40
6.568190371608341
 40
6.692904567360459
 40
6.824220446557255
 40
6.963121850329442
 40
7.107843738851202
 40
7.253431663907318
 40
7.395187468036744
 40
7.533140753237794
 40
7.670550457175338
 40
7.816236511769355
 40
7.987691657359322
 40
8.14227742196936
 40
8.293662615415121
 40
8.442962460879397
 40
8.59159831618548
 40
8.74367899236191
 40
8.903725323699268
 40
9.076307008890673
 40
9.265578604680671
 40
9.459203795360875
 40
9.617619810273718
 40
9.753609671362076
 40
9.87487330000425
 40
9.954520184977953
 40
10.02416413719265
 40
10.09769764405464
 40
10.18909955924992
 40
10.20974586420153
 40
10.23039218263396
 40
10.3005710188128
 40
10.37632012987558
 40
10.37632012987558
 40
10.37632012987558
 40
10.37632012987558
 10
170.1465954835851
 20
14.13795663215993
 10
170.163221785122
 20
14.11720608845313
 10
170.1970784206578
 20
14.07495111711907
 10
170.2599822541036
 20
14.02029811392067
 10
170.3332500940394
 20
13.97299025121052
 10
170.4175969238636
 20
13.93527231437935
 10
170.5132240615461
 20
13.91040619731951
 10
170.6171853775346
 20
13.90309559345935
 10
170.7224020220405
 20
13.91142322794055
 10
170.8206626371334
 20
13.94149179651527
 10
170.9058986427549
 20
13.98848822971878
 10
170.9779220206104
 20
14.04952991250856
 10
171.0350917709097
 20
14.12412969578583
 10
171.0767868747439
 20
14.21002464660177
 10
171.1026952846293
 20
14.30485850432209
 10
171.1118037332654
 20
14.41854979038367
 10
171.0986864796487
 20
14.54332587770779
 10
171.0325330334414
 20
14.66014719171889
 10
170.9369370919568
 20
14.74512539577377
 10
170.8249681022369
 20
14.81416684459158
 10
170.699365958327
 20
14.87204142045891
 10
170.5656691620858
 20
14.92373723284343
 10
170.4313122818831
 20
14.97899092397181
 10
170.3051983986877
 20
15.04939770641646
 10
170.1926579987536
 20
15.13785540731254
 10
170.0969963064457
 20
15.24981067868468
 10
170.0334157151827
 20
15.39949910101386
 10
170.0200706505016
 20
15.55932794385141
 10
170.0320510987449
 20
15.71048405306846
 10
170.0712298928842
 20
15.83809244591537
 10
170.1354987750911
 20
15.95080874030843
 10
170.223820499974
 20
16.04648609268688
 10
170.3338091207627
 20
16.12354214985753
 10
170.4632284401265
 20
16.18151396936278
 10
170.6111838967793
 20
16.21739177588824
 10
170.7682069455487
 20
16.22746719050566
 10
170.917494046643
 20
16.21863637762589
 10
171.0596253614171
 20
16.19074899340354
 10
171.1595922609626
 20
16.13413314701137
 10
171.3125074736185
 20
16.08674602105508
 10
171.2455131717168
 20
16.00197553001181
 10
171.2296479120269
 20
15.93438901873486
 10
171.1978750531296
 20
15.8692609279319
 10
171.2150202209571
 20
15.76723453256949
 10
171.1666427208233
 20
15.77493211681902
 10
171.1315789440766
 20
15.76806771724805
 10
171.1296697985717
 20
15.83263831158195
 10
171.0985692931989
 20
15.87825639621397
 10
171.0664551628456
 20
15.93561036628451
 10
171.0208038475169
 20
15.98540462692564
 10
170.9658508218387
 20
16.02994813718994
 10
170.9010841173008
 20
16.06763988836552
 10
170.8232377310596
 20
16.09283375791351
 10
170.7355160553352
 20
16.09931230998111
 10
170.6452903277806
 20
16.09235709285606
 10
170.5594594694064
 20
16.06909190460921
 10
170.4828343638596
 20
16.03131644107544
 10
170.4165265636201
 20
15.98051641089575
 10
170.3622560536964
 20
15.91731143407209
 10
170.3224925345458
 20
15.84276455710368
 10
170.2976775510589
 20
15.75917313997761
 10
170.289212426287
 20
15.65192948382285
 10
170.3019697987104
 20
15.52965457267559
 10
170.3681548409273
 20
15.41149724291208
 10
170.4640977399833
 20
15.32606325709528
 10
170.5757914963183
 20
15.25583362306726
 10
170.7010863668702
 20
15.19659162305303
 10
170.8349823941448
 20
15.14616708086132
 10
170.9689930333149
 20
15.09322516984382
 10
171.0950885316915
 20
15.02750170625175
 10
171.2076216638417
 20
14.94480352537318
 10
171.3031370284233
 20
14.83996006310077
 10
171.3672706486964
 20
14.69937117251569
 10
171.381110372528
 20
14.54065409451592
 10
171.367395471223
 20
14.38153155217875
 10
171.3244739153986
 20
14.23483828819209
 10
171.2545906329066
 20
14.10119796587139
 10
171.1574592213829
 20
13.98532387699295
 10
171.0347806023657
 20
13.89089981770086
 10
170.8874408413168
 20
13.8217927065198
 10
170.7177132497125
 20
13.77953210858853
 10
170.5317404979598
 20
13.76781736230406
 10
170.3528955926183
 20
13.77809486683436
 10
170.1881733753743
 20
13.81966573769152
 10
170.0834410841056
 20
13.88797642883941
 10
169.9350960790365
 20
13.93675219032106
 10
169.9980378194729
 20
14.02976591290843
 10
170.0072274430061
 20
14.10296536248279
 10
170.0303711301232
 20
14.16936294501347
 10
170.0034588335318
 20
14.2697480952758
 10
170.052133895634
 20
14.26234033517379
 10
170.0916530580698
 20
14.26894063620894
 10
170.0996204944702
 20
14.19078703218933
 10
170.1305436967923
 20
14.15600927375856
 10
170.1465954835851
 20
14.13795663215993
 97
        1
330
B8
 75
     1
 76
     2
 52
45.0
 41
0.1
 77
     0
 78
     1
 53
45.0
 43
0.0
 44
0.0
 45
-0.282842712474619
 46
0.0
 79
     0
 98
        1
 10
0.0
 20
0.0
  0
ENDBLK
  5
4A
330
48
100
AcDbEntity
  8
0
100
AcDbBlockEnd
  0
BLOCK
  5
4D
330
4B
100
AcDbEntity
  8
0
100
AcDbBlockBegin
  2
開示A4枠
 70
     0
 10
0.0
 20
0.0
 30
0.0
  3
開示A4枠
  1

  0
INSERT
  5
4C
330
4B
100
AcDbEntity
  8
1
100
AcDbBlockReference
  2
開示A4
 10
0.0
 20
0.0
 30
0.0
  0
ENDBLK
  5
4E
330
4B
100
AcDbEntity
  8
0
100
AcDbBlockEnd
  0
BLOCK
  5
50
330
4F
100
AcDbEntity
  8
0
100
AcDbBlockBegin
  2
96-33
 70
     0
 10
-423.0147730509123
 20
76.96667836557978
 30
0.0
  3
96-33
  1

  0
LINE
  5
D5
330
4F
100
AcDbEntity
  8
1
  6
Continuous
 62
     7
100
AcDbLine
 10
101.245578380173
 20
111.0441485169583
 30
0.0
 11
111.995578380173
 21
111.0441485169583
 31
0.0
  0
LINE
  5
D6
330
4F
100
AcDbEntity
  8
1
  6
Continuous
 62
     7
100
AcDbLine
 10
101.245578380173
 20
123.0441485169583
 30
0.0
 11
101.245578380173
 21
111.0441485169583
 31
0.0
  0
LINE
  5
D7
330
4F
100
AcDbEntity
  8
1
  6
Continuous
 62
     7
100
AcDbLine
 10
103.745578380173
 20
123.0441485169583
 30
0.0
 11
101.245578380173
 21
123.0441485169583
 31
0.0
  0
LINE
  5
D8
330
4F
100
AcDbEntity
  8
1
  6
Continuous
 62
     7
100
AcDbLine
 10
111.995578380173
 20
123.0441485169583
 30
0.0
 11
103.745578380173
 21
123.0441485169583
 31
0.0
  0
LINE
  5
D9
330
4F
100
AcDbEntity
  8
1
  6
Continuous
 62
     7
100
AcDbLine
 10
111.995578380173
 20
111.0441485169583
 30
0.0
 11
116.495578380173
 21
111.0441485169583
 31
0.0
  0
LINE
  5
DA
330
4F
100
AcDbEntity
  8
1
  6
Continuous
 62
     7
100
AcDbLine
 10
122.745578380173
 20
111.0441485169583
 30
0.0
 11
122.745578380173
 21
123.0441485169583
 31
0.0
  0
LINE
  5
DB
330
4F
100
AcDbEntity
  8
1
  6
Continuous
 62
     7
100
AcDbLine
 10
122.745578380173
 20
123.0441485169583
 30
0.0
 11
120.245578380173
 21
123.0441485169583
 31
0.0
  0
LINE
  5
DC
330
4F
100
AcDbEntity
  8
1
  6
Continuous
 62
     7
100
AcDbLine
 10
116.495578380173
 20
111.0441485169583
 30
0.0
 11
122.745578380173
 21
111.0441485169583
 31
0.0
  0
LINE
  5
DD
330
4F
100
AcDbEntity
  8
1
  6
Continuous
 62
     7
100
AcDbLine
 10
120.245578380173
 20
123.0441485169583
 30
0.0
 11
111.995578380173
 21
123.0441485169583
 31
0.0
  0
CIRCLE
  5
DE
330
4F
100
AcDbEntity
  8
1
  6
Continuous
 62
     7
100
AcDbCircle
 10
111.995578380173
 20
175.7912160872599
 30
0.0
 40
4.5
  0
CIRCLE
  5
DF
330
4F
100
AcDbEntity
  8
1
  6
Continuous
 62
     7
100
AcDbCircle
 10
111.995578380173
 20
175.7912160872599
 30
0.0
 40
8.25
  0
CIRCLE
  5
E0
330
4F
100
AcDbEntity
  8
1
  6
Continuous
 62
     7
100
AcDbCircle
 10
111.995578380173
 20
175.7912160872599
 30
0.0
 40
10.75
  0
ENDBLK
  5
51
330
4F
100
AcDbEntity
  8
0
100
AcDbBlockEnd
  0
BLOCK
  5
54
330
52
100
AcDbEntity
  8
0
100
AcDbBlockBegin
  2
枠
 70
     0
 10
-403.656112267309
 20
219.5176174625119
 30
0.0
  3
枠
  1

  0
INSERT
  5
53
330
52
100
AcDbEntity
  8
0
100
AcDbBlockReference
  2
96-33
 10
-423.0147730509123
 20
76.96667836557978
 30
0.0
  0
ENDBLK
  5
55
330
52
100
AcDbEntity
  8
0
100
AcDbBlockEnd
  0
BLOCK
  5
F8
330
F1
100
AcDbEntity
  8
0
100
AcDbBlockBegin
  2
*D5
 70
     1
 10
0.0
 20
0.0
 30
0.0
  3
*D5
  1

  0
LINE
  5
F2
330
F1
100
AcDbEntity
  8
1
  6
Continuous
 62
     2
100
AcDbLine
 10
129.766123753202
 20
123.0441485169583
 30
0.0
 11
129.766123753202
 21
111.0441485169583
 31
0.0
  0
LINE
  5
F3
330
F1
100
AcDbEntity
  8
1
  6
Continuous
 62
     2
100
AcDbLine
 10
122.745578380173
 20
111.0441485169583
 30
0.0
 11
130.766123753202
 21
111.0441485169583
 31
0.0
  0
LINE
  5
F4
330
F1
100
AcDbEntity
  8
1
  6
Continuous
 62
     2
100
AcDbLine
 10
122.745578380173
 20
123.0441485169583
 30
0.0
 11
130.766123753202
 21
123.0441485169583
 31
0.0
  0
SOLID
  5
F5
330
F1
100
AcDbEntity
  8
1
 62
     2
100
AcDbTrace
 10
130.2269074947579
 20
119.5441485169583
 30
0.0
 11
129.3053400116461
 21
119.5441485169583
 31
0.0
 12
129.766123753202
 22
123.0441485169583
 32
0.0
 13
129.766123753202
 23
123.0441485169583
 33
0.0
  0
SOLID
  5
F6
330
F1
100
AcDbEntity
  8
1
 62
     2
100
AcDbTrace
 10
129.3053400116461
 20
114.5441485169583
 30
0.0
 11
130.2269074947579
 21
114.5441485169583
 31
0.0
 12
129.766123753202
 22
111.0441485169583
 32
0.0
 13
129.766123753202
 23
111.0441485169583
 33
0.0
  0
MTEXT
  5
F7
330
F1
100
AcDbEntity
  8
1
 62
     7
100
AcDbMText
 10
128.766123753202
 20
114.9484084126081
 30
0.0
 40
3.5
 41
0.0
 71
     7
 72
     1
  1
12
  7
CONVERTER_12
 11
0.0
 21
1.0
 31
0.0
 73
     1
 44
0.60024009603842
  0
ENDBLK
  5
F9
330
F1
100
AcDbEntity
  8
0
100
AcDbBlockEnd
  0
BLOCK
  5
101
330
FC
100
AcDbEntity
  8
0
100
AcDbBlockBegin
  2
*D6
 70
     1
 10
0.0
 20
0.0
 30
0.0
  3
*D6
  1

  0
LINE
  5
FD
330
FC
100
AcDbEntity
  8
1
  6
Continuous
 62
     2
100
AcDbLine
 10
101.3060869031604
 20
184.0365039514205
 30
0.0
 11
131.7964090927956
 21
160.5179405038348
 31
0.0
  0
SOLID
  5
FE
330
FC
100
AcDbEntity
  8
1
 62
     2
100
AcDbTrace
 10
121.5808242651472
 20
168.9796169372021
 30
0.0
 11
121.0179658070356
 21
168.249906733038
 31
0.0
 12
118.5280453939029
 22
170.7524290591617
 32
0.0
 13
118.5280453939029
 23
170.7524290591617
 33
0.0
  0
SOLID
  5
FF
330
FC
100
AcDbEntity
  8
1
 62
     2
100
AcDbTrace
 10
102.4103324951988
 20
182.6028152373177
 30
0.0
 11
102.9731909533104
 21
183.3325254414818
 31
0.0
 12
105.4631113664431
 22
180.8300031153581
 32
0.0
 13
105.4631113664431
 23
180.8300031153581
 33
0.0
  0
MTEXT
  5
100
330
FC
100
AcDbEntity
  8
1
 62
     7
100
AcDbMText
 10
123.5586245492555
 20
168.5770614741523
 30
0.0
 40
3.5
 41
0.0
 71
     7
 72
     1
  1
\C7;{\Fgdt;n}\C7;16,5
  7
CONVERTER_12
 11
0.7918141834824147
 21
-0.6107620640119008
 31
0.0
 73
     1
 44
0.60024009603842
  0
ENDBLK
  5
102
330
FC
100
AcDbEntity
  8
0
100
AcDbBlockEnd
  0
BLOCK
  5
109
330
104
100
AcDbEntity
  8
0
100
AcDbBlockBegin
  2
*D7
 70
     1
 10
0.0
 20
0.0
 30
0.0
  3
*D7
  1

  0
LINE
  5
105
330
104
100
AcDbEntity
  8
1
  6
Continuous
 62
     2
100
AcDbLine
 10
119.2304194455812
 20
182.3272374120632
 30
0.0
 11
98.54254187121764
 21
163.6376203536502
 31
0.0
  0
SOLID
  5
106
330
104
100
AcDbEntity
  8
1
 62
     2
100
AcDbTrace
 10
106.3681900558311
 20
170.086409140172
 30
0.0
 11
105.7504070074348
 21
170.7702444500553
 31
0.0
 12
108.6564209653692
 22
172.7745908604276
 32
0.0
 13
108.6564209653692
 23
172.7745908604276
 33
0.0
  0
SOLID
  5
107
330
104
100
AcDbEntity
  8
1
 62
     2
100
AcDbTrace
 10
117.6229667045149
 20
181.4960230343478
 30
0.0
 11
118.2407497529112
 21
180.8121877244645
 31
0.0
 12
115.3347357949768
 22
178.8078413140922
 32
0.0
 13
115.3347357949768
 23
178.8078413140922
 33
0.0
  0
MTEXT
  5
108
330
104
100
AcDbEntity
  8
1
 62
     7
100
AcDbMText
 10
98.85908723451914
 20
165.2712356795371
 30
0.0
 40
3.5
 41
0.0
 71
     7
 72
     1
  1
\C7;{\Fgdt;n}\C7;9
  7
CONVERTER_12
 11
0.7420349810675081
 21
0.6703611615182841
 31
0.0
 73
     1
 44
0.60024009603842
  0
ENDBLK
  5
10A
330
104
100
AcDbEntity
  8
0
100
AcDbBlockEnd
  0
BLOCK
  5
113
330
10C
100
AcDbEntity
  8
0
100
AcDbBlockBegin
  2
*D8
 70
     1
 10
0.0
 20
0.0
 30
0.0
  3
*D8
  1

  0
LINE
  5
10D
330
10C
100
AcDbEntity
  8
1
  6
Continuous
 62
     2
100
AcDbLine
 10
122.745578380173
 20
197.5593950797859
 30
0.0
 11
101.245578380173
 21
197.5593950797859
 31
0.0
  0
LINE
  5
10E
330
10C
100
AcDbEntity
  8
1
  6
Continuous
 62
     2
100
AcDbLine
 10
101.245578380173
 20
175.7912160872599
 30
0.0
 11
101.245578380173
 21
198.5593950797859
 31
0.0
  0
LINE
  5
10F
330
10C
100
AcDbEntity
  8
1
  6
Continuous
 62
     2
100
AcDbLine
 10
122.745578380173
 20
175.7912160872599
 30
0.0
 11
122.745578380173
 21
198.5593950797859
 31
0.0
  0
SOLID
  5
110
330
10C
100
AcDbEntity
  8
1
 62
     2
100
AcDbTrace
 10
119.245578380173
 20
197.09861133823
 30
0.0
 11
119.245578380173
 21
198.0201788213418
 31
0.0
 12
122.745578380173
 22
197.5593950797859
 32
0.0
 13
122.745578380173
 23
197.5593950797859
 33
0.0
  0
SOLID
  5
111
330
10C
100
AcDbEntity
  8
1
 62
     2
100
AcDbTrace
 10
104.745578380173
 20
198.0201788213418
 30
0.0
 11
104.745578380173
 21
197.09861133823
 31
0.0
 12
101.245578380173
 22
197.5593950797859
 32
0.0
 13
101.245578380173
 23
197.5593950797859
 33
0.0
  0
MTEXT
  5
112
330
10C
100
AcDbEntity
  8
1
 62
     7
100
AcDbMText
 10
108.4618877750884
 20
198.5593881227096
 30
0.0
 40
3.5
 41
0.0
 71
     7
 72
     1
  1
\C7;{\Fgdt;n}\C7;22
  7
CONVERTER_12
 11
0.9999999999970619
 21
2.424068405545306E-6
 31
0.0
 73
     1
 44
0.60024009603842
  0
ENDBLK
  5
114
330
10C
100
AcDbEntity
  8
0
100
AcDbBlockEnd
  0
ENDSEC
  0
SECTION
  2
ENTITIES
  0
INSERT
  5
56
330
1F
100
AcDbEntity
  8
0
100
AcDbBlockReference
  2
開示A4枠
 10
0.0
 20
0.0
 30
0.0
  0
INSERT
  5
57
330
1F
100
AcDbEntity
  8
1
100
AcDbBlockReference
  2
枠
 10
-403.656112267309
 20
219.5176174625119
 30
0.0
  0
LINE
  5
E1
330
1F
100
AcDbEntity
  8
1
  6
DASH_CENTER
 62
     2
100
AcDbLine
 10
98.24264595047461
 20
175.7912160872599
 30
0.0
 11
125.7426459504746
 21
175.7912160872599
 31
0.0
  0
LINE
  5
E2
330
1F
100
AcDbEntity
  8
1
  6
DASH_CENTER
 62
     2
100
AcDbLine
 10
111.995578380173
 20
189.5441485169583
 30
0.0
 11
111.995578380173
 21
162.0441485169583
 31
0.0
  0
LINE
  5
E3
330
1F
100
AcDbEntity
  8
1
  6
DASH_CENTER
 62
     2
100
AcDbLine
 10
111.995578380173
 20
126.0441485169583
 30
0.0
 11
111.995578380173
 21
108.0441485169583
 31
0.0
  0
MTEXT
  5
E5
330
1F
100
AcDbEntity
  8
1
 62
     7
100
AcDbMText
 10
157.5
 20
12.50000000000001
 30
0.0
 40
2.5
 41
0.0
 71
     5
 72
     1
  1
2
  7
CONVERTER_12
 73
     1
 44
0.7202881152461
  0
MTEXT
  5
E6
330
1F
100
AcDbEntity
  8
1
 62
     7
100
AcDbMText
 10
151.75
 20
12.50000000000001
 30
0.0
 40
2.5
 41
0.0
 71
     5
 72
     1
  1
04
  7
CONVERTER_12
 73
     1
 44
0.7202881152461
  0
MTEXT
  5
E7
330
1F
100
AcDbEntity
  8
1
 62
     7
100
AcDbMText
 10
140.5
 20
12.50000000000001
 30
0.0
 40
2.5
 41
0.0
 71
     5
 72
     1
  1
2
  7
CONVERTER_12
 73
     1
 44
0.7202881152461
  0
MTEXT
  5
E8
330
1F
100
AcDbEntity
  8
1
 62
     7
100
AcDbMText
 10
134.75
 20
12.50000000000001
 30
0.0
 40
2.5
 41
0.0
 71
     5
 72
     1
  1
04
  7
CONVERTER_12
 73
     1
 44
0.7202881152461
  0
MTEXT
  5
E9
330
1F
100
AcDbEntity
  8
1
 62
     7
100
AcDbMText
 10
123.5
 20
12.50000000000001
 30
0.0
 40
2.5
 41
0.0
 71
     5
 72
     1
  1
2
  7
CONVERTER_12
 73
     1
 44
0.7202881152461
  0
MTEXT
  5
EA
330
1F
100
AcDbEntity
  8
1
 62
     7
100
AcDbMText
 10
117.75
 20
12.50000000000001
 30
0.0
 40
2.5
 41
0.0
 71
     5
 72
     1
  1
04
  7
CONVERTER_12
 73
     1
 44
0.7202881152461
  0
MTEXT
  5
EB
330
1F
100
AcDbEntity
  8
1
 62
     7
100
AcDbMText
 10
100.75
 20
12.50000000000001
 30
0.0
 40
2.5
 41
0.0
 71
     5
 72
     1
  1
04
  7
CONVERTER_12
 73
     1
 44
0.7202881152461
  0
MTEXT
  5
EC
330
1F
100
AcDbEntity
  8
1
 62
     7
100
AcDbMText
 10
106.5
 20
12.50000000000001
 30
0.0
 40
2.5
 41
0.0
 71
     5
 72
     1
  1
2
  7
CONVERTER_12
 73
     1
 44
0.7202881152461
  0
MTEXT
  5
ED
330
1F
100
AcDbEntity
  8
1
 62
     7
100
AcDbMText
 10
85.25
 20
17.00000000000001
 30
0.0
 40
3.5
 41
0.0
 71
     5
 72
     1
  1
1
  7
CONVERTER_12
 73
     1
 44
0.7202881152461
  0
MTEXT
  5
EE
330
1F
100
AcDbEntity
  8
1
 62
     7
100
AcDbMText
 10
57.0
 20
22.75000000000002
 30
0.0
 40
3.5
 41
0.0
 71
     5
 72
     1
  1
ロ－タンク連結パッキン
  7
CONVERTER_11
 73
     1
 44
0.54545454545455
  0
MTEXT
  5
EF
330
1F
100
AcDbEntity
  8
1
 62
     7
100
AcDbMText
 10
57.0
 20
14.25000000000001
 30
0.0
 40
3.5
 41
0.0
 71
     5
 72
     1
  1
P43-47
  7
CONVERTER_12
 73
     1
 44
0.7202881152461
  0
MTEXT
  5
F0
330
1F
100
AcDbEntity
  8
1
 62
     7
100
AcDbMText
 10
93.75
 20
17.00000000000001
 30
0.0
 40
3.5
 41
0.0
 71
     5
 72
     1
  1
1
  7
CONVERTER_12
 73
     1
 44
0.7202881152461
  0
DIMENSION
  5
FB
330
1F
100
AcDbEntity
  8
1
100
AcDbDimension
  2
*D5
 10
129.766123753202
 20
123.0441485169583
 30
0.0
 11
127.016123753202
 21
117.0484084126081
 31
0.0
 70
    33
  1
<>
 71
     5
 42
-1.0
 53
90.0
  3
ME10_DIM_10
100
AcDbAlignedDimension
 13
122.745578380173
 23
111.0441485169583
 33
0.0
 14
122.745578380173
 24
123.0441485169583
 34
0.0
  0
INSERT
  5
103
330
1F
100
AcDbEntity
  8
1
100
AcDbBlockReference
  2
*D6
 10
0.0
 20
0.0
 30
0.0
  0
INSERT
  5
10B
330
1F
100
AcDbEntity
  8
1
100
AcDbBlockReference
  2
*D7
 10
0.0
 20
0.0
 30
0.0
  0
INSERT
  5
115
330
1F
100
AcDbEntity
  8
1
100
AcDbBlockReference
  2
*D8
 10
0.0
 20
0.0
 30
0.0
  0
ENDSEC
  0
SECTION
  2
OBJECTS
  0
DICTIONARY
  5
C
330
0
100
AcDbDictionary
281
     1
  3
ACAD_GROUP
350
D
  3
ACAD_LAYOUT
350
1A
  3
ACAD_MATERIAL
350
3B
  3
ACAD_MLEADERSTYLE
350
118
  3
ACAD_MLINESTYLE
350
17
  3
ACAD_PLOTSETTINGS
350
19
  3
ACAD_PLOTSTYLENAME
350
E
  3
ACAD_VISUALSTYLE
350
2A
  3
AcDbVariableDictionary
350
116
  0
DICTIONARY
  5
D
102
{ACAD_REACTORS
330
C
102
}
330
C
100
AcDbDictionary
281
     1
  0
DICTIONARY
  5
1A
102
{ACAD_REACTORS
330
C
102
}
330
C
100
AcDbDictionary
281
     1
  3
Layout1
350
1E
  3
Layout2
350
26
  3
Model
350
22
  0
DICTIONARY
  5
3B
102
{ACAD_REACTORS
330
C
102
}
330
C
100
AcDbDictionary
281
     1
  3
ByBlock
350
3D
  3
ByLayer
350
3C
  3
Global
350
3E
  0
DICTIONARY
  5
118
102
{ACAD_REACTORS
330
C
102
}
330
C
100
AcDbDictionary
281
     1
  0
DICTIONARY
  5
17
102
{ACAD_REACTORS
330
C
102
}
330
C
100
AcDbDictionary
281
     1
  3
Standard
350
18
  0
DICTIONARY
  5
19
102
{ACAD_REACTORS
330
C
102
}
330
C
100
AcDbDictionary
281
     1
  0
ACDBDICTIONARYWDFLT
  5
E
102
{ACAD_REACTORS
330
C
102
}
330
C
100
AcDbDictionary
281
     1
  3
Normal
350
F
100
AcDbDictionaryWithDefault
340
F
  0
DICTIONARY
  5
2A
102
{ACAD_REACTORS
330
C
102
}
330
C
100
AcDbDictionary
281
     1
  3
2dWireframe
350
2F
  3
3D Hidden
350
31
  3
3dWireframe
350
30
  3
Basic
350
32
  3
Brighten
350
36
  3
ColorChange
350
3A
  3
Conceptual
350
34
  3
Dim
350
35
  3
Facepattern
350
39
  3
Flat
350
2B
  3
FlatWithEdges
350
2C
  3
Gouraud
350
2D
  3
GouraudWithEdges
350
2E
  3
Linepattern
350
38
  3
Realistic
350
33
  3
Thicken
350
37
  0
DICTIONARY
  5
116
102
{ACAD_REACTORS
330
C
102
}
330
C
100
AcDbDictionary
281
     1
  3
DIMASSOC
350
119
  3
HIDETEXT
350
11A
  0
LAYOUT
  5
1E
102
{ACAD_REACTORS
330
1A
102
}
330
1A
100
AcDbPlotSettings
  1

  2
none_device
  4

  6

 40
0.0
 41
0.0
 42
0.0
 43
0.0
 44
0.0
 45
0.0
 46
0.0
 47
0.0
 48
0.0
 49
0.0
140
0.0
141
0.0
142
1.0
143
1.0
 70
   688
 72
     0
 73
     0
 74
     5
  7

 75
    16
147
1.0
148
0.0
149
0.0
100
AcDbLayout
  1
Layout1
 70
     1
 71
     1
 10
0.0
 20
0.0
 11
12.0
 21
9.0
 12
0.0
 22
0.0
 32
0.0
 14
1.00000000000000E+20
 24
1.00000000000000E+20
 34
1.00000000000000E+20
 15
-1.00000000000000E+20
 25
-1.00000000000000E+20
 35
-1.00000000000000E+20
146
0.0
 13
0.0
 23
0.0
 33
0.0
 16
1.0
 26
0.0
 36
0.0
 17
0.0
 27
1.0
 37
0.0
 76
     0
330
1B
  0
LAYOUT
  5
26
102
{ACAD_REACTORS
330
1A
102
}
330
1A
100
AcDbPlotSettings
  1

  2
none_device
  4

  6

 40
0.0
 41
0.0
 42
0.0
 43
0.0
 44
0.0
 45
0.0
 46
0.0
 47
0.0
 48
0.0
 49
0.0
140
0.0
141
0.0
142
1.0
143
1.0
 70
   688
 72
     0
 73
     0
 74
     5
  7

 75
    16
147
1.0
148
0.0
149
0.0
100
AcDbLayout
  1
Layout2
 70
     1
 71
     2
 10
0.0
 20
0.0
 11
0.0
 21
0.0
 12
0.0
 22
0.0
 32
0.0
 14
0.0
 24
0.0
 34
0.0
 15
0.0
 25
0.0
 35
0.0
146
0.0
 13
0.0
 23
0.0
 33
0.0
 16
1.0
 26
0.0
 36
0.0
 17
0.0
 27
1.0
 37
0.0
 76
     0
330
23
  0
LAYOUT
  5
22
102
{ACAD_REACTORS
330
1A
102
}
330
1A
100
AcDbPlotSettings
  1

  2
none_device
  4

  6

 40
0.0
 41
0.0
 42
0.0
 43
0.0
 44
0.0
 45
0.0
 46
0.0
 47
0.0
 48
0.0
 49
0.0
140
0.0
141
0.0
142
1.0
143
1.0
 70
  1712
 72
     0
 73
     0
 74
     0
  7

 75
     0
147
1.0
148
0.0
149
0.0
100
AcDbLayout
  1
Model
 70
     1
 71
     0
 10
0.0
 20
0.0
 11
12.0
 21
9.0
 12
0.0
 22
0.0
 32
0.0
 14
0.0
 24
0.0
 34
0.0
 15
210.0
 25
297.0
 35
0.0
146
0.0
 13
0.0
 23
0.0
 33
0.0
 16
1.0
 26
0.0
 36
0.0
 17
0.0
 27
1.0
 37
0.0
 76
     0
330
1F
331
29
  0
MATERIAL
  5
3D
102
{ACAD_REACTORS
330
3B
102
}
102
{ACAD_XDICTIONARY
360
13D
102
}
330
3B
100
AcDbMaterial
  1
ByBlock
  0
MATERIAL
  5
3C
102
{ACAD_REACTORS
330
3B
102
}
102
{ACAD_XDICTIONARY
360
13B
102
}
330
3B
100
AcDbMaterial
  1
ByLayer
  0
MATERIAL
  5
3E
102
{ACAD_REACTORS
330
3B
102
}
102
{ACAD_XDICTIONARY
360
13F
102
}
330
3B
100
AcDbMaterial
  1
Global
  0
MLINESTYLE
  5
18
102
{ACAD_REACTORS
330
17
102
}
330
17
100
AcDbMlineStyle
  2
Standard
 70
     0
  3

 62
   256
 51
90.0
 52
90.0
 71
     2
 49
0.5
 62
   256
  6
BYLAYER
 49
-0.5
 62
   256
  6
BYLAYER
  0
ACDBPLACEHOLDER
  5
F
102
{ACAD_REACTORS
330
E
102
}
330
E
  0
VISUALSTYLE
  5
2F
102
{ACAD_REACTORS
330
2A
102
}
102
{ACAD_XDICTIONARY
360
123
102
}
330
2A
100
AcDbVisualStyle
  2
2dWireframe
 70
     4
 71
     0
 72
     2
 73
     0
 90
        0
 40
-0.6
 41
-30.0
 62
     5
 63
     7
 74
     1
 91
        4
 64
     7
 65
   257
 75
     1
175
     1
 42
1.0
 92
        0
 66
   257
 43
1.0
 76
     1
 77
     6
 78
     2
 67
     7
 79
     5
170
     0
171
     0
290
     0
174
     0
 93
        1
 44
0.0
173
     0
291
     0
 45
0.0
1001
ACAD
1000
AcDbSavedByObjectVersion
1070
     0
  0
VISUALSTYLE
  5
31
102
{ACAD_REACTORS
330
2A
102
}
102
{ACAD_XDICTIONARY
360
127
102
}
330
2A
100
AcDbVisualStyle
  2
3D Hidden
 70
     6
 71
     1
 72
     2
 73
     2
 90
        0
 40
-0.6
 41
-30.0
 62
     5
 63
     7
 74
     2
 91
        2
 64
     7
 65
   257
 75
     2
175
     1
 42
40.0
 92
        0
 66
   257
 43
1.0
 76
     1
 77
     6
 78
     2
 67
     7
 79
     3
170
     0
171
     0
290
     0
174
     0
 93
        1
 44
0.0
173
     0
291
     0
 45
0.0
1001
ACAD
1000
AcDbSavedByObjectVersion
1070
     0
  0
VISUALSTYLE
  5
30
102
{ACAD_REACTORS
330
2A
102
}
102
{ACAD_XDICTIONARY
360
125
102
}
330
2A
100
AcDbVisualStyle
  2
3dWireframe
 70
     5
 71
     0
 72
     2
 73
     0
 90
        0
 40
-0.6
 41
-30.0
 62
     5
 63
     7
 74
     1
 91
        4
 64
     7
 65
   257
 75
     1
175
     1
 42
1.0
 92
        0
 66
   257
 43
1.0
 76
     1
 77
     6
 78
     2
 67
     7
 79
     5
170
     0
171
     0
290
     0
174
     0
 93
        1
 44
0.0
173
     0
291
     0
 45
0.0
1001
ACAD
1000
AcDbSavedByObjectVersion
1070
     0
  0
VISUALSTYLE
  5
32
102
{ACAD_REACTORS
330
2A
102
}
102
{ACAD_XDICTIONARY
360
129
102
}
330
2A
100
AcDbVisualStyle
  2
Basic
 70
     7
 71
     1
 72
     0
 73
     1
 90
        0
 40
-0.6
 41
-30.0
 62
     5
 63
     7
 74
     0
 91
        4
 64
     7
 65
   257
 75
     1
175
     1
 42
1.0
 92
        8
 66
     7
 43
1.0
 76
     1
 77
     6
 78
     2
 67
     7
 79
     5
170
     0
171
     0
290
     0
174
     0
 93
        1
 44
0.0
173
     0
291
     1
 45
0.0
1001
ACAD
1000
AcDbSavedByObjectVersion
1070
     0
  0
VISUALSTYLE
  5
36
102
{ACAD_REACTORS
330
2A
102
}
102
{ACAD_XDICTIONARY
360
131
102
}
330
2A
100
AcDbVisualStyle
  2
Brighten
 70
    12
 71
     2
 72
     2
 73
     0
 90
        0
 40
-0.6
 41
-30.0
 62
     5
 63
     7
 74
     1
 91
        4
 64
     7
 65
   257
 75
     1
175
     1
 42
1.0
 92
        8
 66
     7
 43
1.0
 76
     1
 77
     6
 78
     2
 67
     7
 79
     5
170
     0
171
     0
290
     0
174
     0
 93
        1
 44
50.0
173
     0
291
     1
 45
0.0
1001
ACAD
1000
AcDbSavedByObjectVersion
1070
     0
  0
VISUALSTYLE
  5
3A
102
{ACAD_REACTORS
330
2A
102
}
102
{ACAD_XDICTIONARY
360
139
102
}
330
2A
100
AcDbVisualStyle
  2
ColorChange
 70
    16
 71
     2
 72
     2
 73
     3
 90
        0
 40
-0.6
 41
-30.0
 62
     5
 63
     8
 74
     1
 91
        4
 64
     7
 65
   257
 75
     1
175
     1
 42
1.0
 92
        8
 66
     8
 43
1.0
 76
     1
 77
     6
 78
     2
 67
     7
 79
     5
170
     0
171
     0
290
     0
174
     0
 93
        1
 44
0.0
173
     0
291
     1
 45
0.0
1001
ACAD
1000
AcDbSavedByObjectVersion
1070
     0
  0
VISUALSTYLE
  5
34
102
{ACAD_REACTORS
330
2A
102
}
102
{ACAD_XDICTIONARY
360
12D
102
}
330
2A
100
AcDbVisualStyle
  2
Conceptual
 70
     9
 71
     3
 72
     2
 73
     0
 90
        0
 40
-0.6
 41
-30.0
 62
     5
 63
     7
 74
     2
 91
        2
 64
     7
 65
   257
 75
     1
175
     1
 42
40.0
 92
        8
 66
     7
 43
1.0
 76
     1
 77
     6
 78
     2
 67
     7
 79
     3
170
     0
171
     0
290
     0
174
     0
 93
        1
 44
0.0
173
     0
291
     0
 45
0.0
1001
ACAD
1000
AcDbSavedByObjectVersion
1070
     0
  0
VISUALSTYLE
  5
35
102
{ACAD_REACTORS
330
2A
102
}
102
{ACAD_XDICTIONARY
360
12F
102
}
330
2A
100
AcDbVisualStyle
  2
Dim
 70
    11
 71
     2
 72
     2
 73
     0
 90
        0
 40
-0.6
 41
-30.0
 62
     5
 63
     7
 74
     1
 91
        4
 64
     7
 65
   257
 75
     1
175
     1
 42
1.0
 92
        8
 66
     7
 43
1.0
 76
     1
 77
     6
 78
     2
 67
     7
 79
     5
170
     0
171
     0
290
     0
174
     0
 93
        1
 44
-50.0
173
     0
291
     1
 45
0.0
1001
ACAD
1000
AcDbSavedByObjectVersion
1070
     0
  0
VISUALSTYLE
  5
39
102
{ACAD_REACTORS
330
2A
102
}
102
{ACAD_XDICTIONARY
360
137
102
}
330
2A
100
AcDbVisualStyle
  2
Facepattern
 70
    15
 71
     2
 72
     2
 73
     0
 90
        0
 40
-0.6
 41
-30.0
 62
     5
 63
     7
 74
     1
 91
        4
 64
     7
 65
   257
 75
     1
175
     1
 42
1.0
 92
        8
 66
     7
 43
1.0
 76
     1
 77
     6
 78
     2
 67
     7
 79
     5
170
     0
171
     0
290
     0
174
     0
 93
        1
 44
0.0
173
     0
291
     1
 45
0.0
1001
ACAD
1000
AcDbSavedByObjectVersion
1070
     0
  0
VISUALSTYLE
  5
2B
102
{ACAD_REACTORS
330
2A
102
}
102
{ACAD_XDICTIONARY
360
11B
102
}
330
2A
100
AcDbVisualStyle
  2
Flat
 70
     0
 71
     2
 72
     1
 73
     1
 90
        2
 40
-0.6
 41
30.0
 62
     5
 63
     7
 74
     0
 91
        4
 64
     7
 65
   257
 75
     1
175
     1
 42
1.0
 92
        8
 66
     7
 43
1.0
 76
     1
 77
     6
 78
     2
 67
     7
 79
     5
170
     0
171
     0
290
     0
174
     0
 93
       13
 44
0.0
173
     0
291
     1
 45
0.0
1001
ACAD
1000
AcDbSavedByObjectVersion
1070
     0
  0
VISUALSTYLE
  5
2C
102
{ACAD_REACTORS
330
2A
102
}
102
{ACAD_XDICTIONARY
360
11D
102
}
330
2A
100
AcDbVisualStyle
  2
FlatWithEdges
 70
     1
 71
     2
 72
     1
 73
     1
 90
        2
 40
-0.6
 41
30.0
 62
     5
 63
     7
 74
     1
 91
        4
 64
     7
 65
   257
 75
     1
175
     1
 42
1.0
 92
        0
 66
   257
 43
1.0
 76
     1
 77
     6
 78
     2
 67
     7
 79
     5
170
     0
171
     0
290
     0
174
     0
 93
       13
 44
0.0
173
     0
291
     1
 45
0.0
1001
ACAD
1000
AcDbSavedByObjectVersion
1070
     0
  0
VISUALSTYLE
  5
2D
102
{ACAD_REACTORS
330
2A
102
}
102
{ACAD_XDICTIONARY
360
11F
102
}
330
2A
100
AcDbVisualStyle
  2
Gouraud
 70
     2
 71
     2
 72
     2
 73
     1
 90
        2
 40
-0.6
 41
30.0
 62
     5
 63
     7
 74
     0
 91
        4
 64
     7
 65
   257
 75
     1
175
     1
 42
1.0
 92
        0
 66
     7
 43
1.0
 76
     1
 77
     6
 78
     2
 67
     7
 79
     5
170
     0
171
     0
290
     0
174
     0
 93
       13
 44
0.0
173
     0
291
     1
 45
0.0
1001
ACAD
1000
AcDbSavedByObjectVersion
1070
     0
  0
VISUALSTYLE
  5
2E
102
{ACAD_REACTORS
330
2A
102
}
102
{ACAD_XDICTIONARY
360
121
102
}
330
2A
100
AcDbVisualStyle
  2
GouraudWithEdges
 70
     3
 71
     2
 72
     2
 73
     1
 90
        2
 40
-0.6
 41
30.0
 62
     5
 63
     7
 74
     1
 91
        4
 64
     7
 65
   257
 75
     1
175
     1
 42
1.0
 92
        0
 66
   257
 43
1.0
 76
     1
 77
     6
 78
     2
 67
     7
 79
     5
170
     0
171
     0
290
     0
174
     0
 93
       13
 44
0.0
173
     0
291
     1
 45
0.0
1001
ACAD
1000
AcDbSavedByObjectVersion
1070
     0
  0
VISUALSTYLE
  5
38
102
{ACAD_REACTORS
330
2A
102
}
102
{ACAD_XDICTIONARY
360
135
102
}
330
2A
100
AcDbVisualStyle
  2
Linepattern
 70
    14
 71
     2
 72
     2
 73
     0
 90
        0
 40
-0.6
 41
-30.0
 62
     5
 63
     7
 74
     1
 91
        4
 64
     7
 65
   257
 75
     7
175
     7
 42
1.0
 92
        8
 66
     7
 43
1.0
 76
     1
 77
     6
 78
     2
 67
     7
 79
     5
170
     0
171
     0
290
     0
174
     0
 93
        1
 44
0.0
173
     0
291
     1
 45
0.0
1001
ACAD
1000
AcDbSavedByObjectVersion
1070
     0
  0
VISUALSTYLE
  5
33
102
{ACAD_REACTORS
330
2A
102
}
102
{ACAD_XDICTIONARY
360
12B
102
}
330
2A
100
AcDbVisualStyle
  2
Realistic
 70
     8
 71
     2
 72
     2
 73
     0
 90
        0
 40
-0.6
 41
-30.0
 62
     5
 63
     7
 74
     1
 91
        0
 64
     7
 65
   257
 75
     1
175
     1
 42
1.0
 92
        8
 66
     8
 43
1.0
 76
     1
 77
     6
 78
     2
 67
     7
 79
     5
170
     0
171
     0
290
     0
174
     0
 93
       13
 44
0.0
173
     0
291
     0
 45
0.0
1001
ACAD
1000
AcDbSavedByObjectVersion
1070
     0
  0
VISUALSTYLE
  5
37
102
{ACAD_REACTORS
330
2A
102
}
102
{ACAD_XDICTIONARY
360
133
102
}
330
2A
100
AcDbVisualStyle
  2
Thicken
 70
    13
 71
     2
 72
     2
 73
     0
 90
        0
 40
-0.6
 41
-30.0
 62
     5
 63
     7
 74
     1
 91
        4
 64
     7
 65
   257
 75
     1
175
     1
 42
1.0
 92
       12
 66
     7
 43
1.0
 76
     1
 77
     6
 78
     2
 67
     7
 79
     5
170
     0
171
     0
290
     0
174
     0
 93
        1
 44
0.0
173
     0
291
     1
 45
0.0
1001
ACAD
1000
AcDbSavedByObjectVersion
1070
     0
  0
DICTIONARYVAR
  5
119
102
{ACAD_REACTORS
330
116
102
}
330
116
100
DictionaryVariables
280
     0
  1
2
  0
DICTIONARYVAR
  5
11A
102
{ACAD_REACTORS
330
116
102
}
330
116
100
DictionaryVariables
280
     0
  1
1
  0
DICTIONARY
  5
13D
330
3D
100
AcDbDictionary
280
     1
281
     1
  3
ACAD_XREC_ROUNDTRIP
360
13E
  0
DICTIONARY
  5
13B
330
3C
100
AcDbDictionary
280
     1
281
     1
  3
ACAD_XREC_ROUNDTRIP
360
13C
  0
DICTIONARY
  5
13F
330
3E
100
AcDbDictionary
280
     1
281
     1
  3
ACAD_XREC_ROUNDTRIP
360
140
  0
DICTIONARY
  5
123
330
2F
100
AcDbDictionary
280
     1
281
     1
  3
ACAD_XREC_ROUNDTRIP
360
124
  0
DICTIONARY
  5
127
330
31
100
AcDbDictionary
280
     1
281
     1
  3
ACAD_XREC_ROUNDTRIP
360
128
  0
DICTIONARY
  5
125
330
30
100
AcDbDictionary
280
     1
281
     1
  3
ACAD_XREC_ROUNDTRIP
360
126
  0
DICTIONARY
  5
129
330
32
100
AcDbDictionary
280
     1
281
     1
  3
ACAD_XREC_ROUNDTRIP
360
12A
  0
DICTIONARY
  5
131
330
36
100
AcDbDictionary
280
     1
281
     1
  3
ACAD_XREC_ROUNDTRIP
360
132
  0
DICTIONARY
  5
139
330
3A
100
AcDbDictionary
280
     1
281
     1
  3
ACAD_XREC_ROUNDTRIP
360
13A
  0
DICTIONARY
  5
12D
330
34
100
AcDbDictionary
280
     1
281
     1
  3
ACAD_XREC_ROUNDTRIP
360
12E
  0
DICTIONARY
  5
12F
330
35
100
AcDbDictionary
280
     1
281
     1
  3
ACAD_XREC_ROUNDTRIP
360
130
  0
DICTIONARY
  5
137
330
39
100
AcDbDictionary
280
     1
281
     1
  3
ACAD_XREC_ROUNDTRIP
360
138
  0
DICTIONARY
  5
11B
330
2B
100
AcDbDictionary
280
     1
281
     1
  3
ACAD_XREC_ROUNDTRIP
360
11C
  0
DICTIONARY
  5
11D
330
2C
100
AcDbDictionary
280
     1
281
     1
  3
ACAD_XREC_ROUNDTRIP
360
11E
  0
DICTIONARY
  5
11F
330
2D
100
AcDbDictionary
280
     1
281
     1
  3
ACAD_XREC_ROUNDTRIP
360
120
  0
DICTIONARY
  5
121
330
2E
100
AcDbDictionary
280
     1
281
     1
  3
ACAD_XREC_ROUNDTRIP
360
122
  0
DICTIONARY
  5
135
330
38
100
AcDbDictionary
280
     1
281
     1
  3
ACAD_XREC_ROUNDTRIP
360
136
  0
DICTIONARY
  5
12B
330
33
100
AcDbDictionary
280
     1
281
     1
  3
ACAD_XREC_ROUNDTRIP
360
12C
  0
DICTIONARY
  5
133
330
37
100
AcDbDictionary
280
     1
281
     1
  3
ACAD_XREC_ROUNDTRIP
360
134
  0
XRECORD
  5
13E
102
{ACAD_REACTORS
330
13D
102
}
330
13D
100
AcDbXrecord
280
     1
102
MATERIAL
148
0.0
149
0.0
149
0.0
 93
        0
 94
      127
282
     0
 72
     1
 77
     1
171
     1
175
     1
179
     1
273
     0
  0
XRECORD
  5
13C
102
{ACAD_REACTORS
330
13B
102
}
330
13B
100
AcDbXrecord
280
     1
102
MATERIAL
148
0.0
149
0.0
149
0.0
 93
        0
 94
      127
282
     0
 72
     1
 77
     1
171
     1
175
     1
179
     1
273
     0
  0
XRECORD
  5
140
102
{ACAD_REACTORS
330
13F
102
}
330
13F
100
AcDbXrecord
280
     1
102
MATERIAL
148
0.0
149
0.0
149
0.0
 93
        0
 94
      127
282
     0
 72
     1
 77
     1
171
     1
175
     1
179
     1
273
     0
  0
XRECORD
  5
124
102
{ACAD_REACTORS
330
123
102
}
330
123
100
AcDbXrecord
280
     1
102
RTVSPropertyOp0
 70
     1
102
RTVSPropertyOp1
 70
     1
102
RTVSPropertyOp2
 70
     1
102
RTVSPropertyOp3
 70
     1
102
RTVSPropertyOp4
 70
     1
102
RTVSPropertyOp5
 70
     1
102
RTVSPropertyOp6
 70
     1
102
RTVSPropertyOp7
 70
     1
102
RTVSPropertyOp8
 70
     1
102
RTVSPropertyOp9
 70
     1
102
RTVSPropertyOp10
 70
     1
102
RTVSPropertyOp11
 70
     1
102
RTVSPropertyOp12
 70
     1
102
RTVSPropertyOp13
 70
     1
102
RTVSPropertyOp14
 70
     1
102
RTVSPropertyOp15
 70
     1
102
RTVSPropertyOp16
 70
     1
102
RTVSPropertyOp17
 70
     1
102
RTVSPropertyOp18
 70
     1
102
RTVSPropertyOp19
 70
     1
102
RTVSPropertyOp20
 70
     1
102
RTVSPropertyOp21
 70
     1
102
RTVSPropertyOp22
 70
     1
102
RTVSPropertyOp23
 70
     1
102
RTVSPropertyOp24
 70
     1
102
RTVSPropertyOp25
 70
     1
102
RTVSPropertyOp26
 70
     1
102
RTVSPropertyOp27
 70
     1
102
RTVSPropertyOp28
 70
     1
102
RTVSPropertyOp29
 70
     1
102
RTVSPropertyOp30
 70
     1
102
RTVSPropertyOp31
 70
     1
102
RTVSPropertyOp32
 70
     1
  0
XRECORD
  5
128
102
{ACAD_REACTORS
330
127
102
}
330
127
100
AcDbXrecord
280
     1
102
RTVSPropertyOp0
 70
     1
102
RTVSPropertyOp1
 70
     1
102
RTVSPropertyOp2
 70
     1
102
RTVSPropertyOp3
 70
     1
102
RTVSPropertyOp4
 70
     1
102
RTVSPropertyOp5
 70
     1
102
RTVSPropertyOp6
 70
     1
102
RTVSPropertyOp7
 70
     1
102
RTVSPropertyOp8
 70
     1
102
RTVSPropertyOp9
 70
     1
102
RTVSPropertyOp10
 70
     1
102
RTVSPropertyOp11
 70
     1
102
RTVSPropertyOp12
 70
     1
102
RTVSPropertyOp13
 70
     1
102
RTVSPropertyOp14
 70
     1
102
RTVSPropertyOp15
 70
     1
102
RTVSPropertyOp16
 70
     1
102
RTVSPropertyOp17
 70
     1
102
RTVSPropertyOp18
 70
     1
102
RTVSPropertyOp19
 70
     1
102
RTVSPropertyOp20
 70
     1
102
RTVSPropertyOp21
 70
     1
102
RTVSPropertyOp22
 70
     1
102
RTVSPropertyOp23
 70
     1
102
RTVSPropertyOp24
 70
     1
102
RTVSPropertyOp25
 70
     1
102
RTVSPropertyOp26
 70
     1
102
RTVSPropertyOp27
 70
     1
102
RTVSPropertyOp28
 70
     1
102
RTVSPropertyOp29
 70
     1
102
RTVSPropertyOp30
 70
     1
102
RTVSPropertyOp31
 70
     1
102
RTVSPropertyOp32
 70
     1
  0
XRECORD
  5
126
102
{ACAD_REACTORS
330
125
102
}
330
125
100
AcDbXrecord
280
     1
102
RTVSPropertyOp0
 70
     1
102
RTVSPropertyOp1
 70
     1
102
RTVSPropertyOp2
 70
     1
102
RTVSPropertyOp3
 70
     1
102
RTVSPropertyOp4
 70
     1
102
RTVSPropertyOp5
 70
     1
102
RTVSPropertyOp6
 70
     1
102
RTVSPropertyOp7
 70
     1
102
RTVSPropertyOp8
 70
     1
102
RTVSPropertyOp9
 70
     1
102
RTVSPropertyOp10
 70
     1
102
RTVSPropertyOp11
 70
     1
102
RTVSPropertyOp12
 70
     1
102
RTVSPropertyOp13
 70
     1
102
RTVSPropertyOp14
 70
     1
102
RTVSPropertyOp15
 70
     1
102
RTVSPropertyOp16
 70
     1
102
RTVSPropertyOp17
 70
     1
102
RTVSPropertyOp18
 70
     1
102
RTVSPropertyOp19
 70
     1
102
RTVSPropertyOp20
 70
     1
102
RTVSPropertyOp21
 70
     1
102
RTVSPropertyOp22
 70
     1
102
RTVSPropertyOp23
 70
     1
102
RTVSPropertyOp24
 70
     1
102
RTVSPropertyOp25
 70
     1
102
RTVSPropertyOp26
 70
     1
102
RTVSPropertyOp27
 70
     1
102
RTVSPropertyOp28
 70
     1
102
RTVSPropertyOp29
 70
     1
102
RTVSPropertyOp30
 70
     1
102
RTVSPropertyOp31
 70
     1
102
RTVSPropertyOp32
 70
     1
  0
XRECORD
  5
12A
102
{ACAD_REACTORS
330
129
102
}
330
129
100
AcDbXrecord
280
     1
102
RTVSPropertyOp0
 70
     1
102
RTVSPropertyOp1
 70
     1
102
RTVSPropertyOp2
 70
     1
102
RTVSPropertyOp3
 70
     1
102
RTVSPropertyOp4
 70
     1
102
RTVSPropertyOp5
 70
     1
102
RTVSPropertyOp6
 70
     1
102
RTVSPropertyOp7
 70
     1
102
RTVSPropertyOp8
 70
     1
102
RTVSPropertyOp9
 70
     1
102
RTVSPropertyOp10
 70
     1
102
RTVSPropertyOp11
 70
     1
102
RTVSPropertyOp12
 70
     1
102
RTVSPropertyOp13
 70
     1
102
RTVSPropertyOp14
 70
     1
102
RTVSPropertyOp15
 70
     1
102
RTVSPropertyOp16
 70
     1
102
RTVSPropertyOp17
 70
     1
102
RTVSPropertyOp18
 70
     1
102
RTVSPropertyOp19
 70
     1
102
RTVSPropertyOp20
 70
     1
102
RTVSPropertyOp21
 70
     1
102
RTVSPropertyOp22
 70
     1
102
RTVSPropertyOp23
 70
     1
102
RTVSPropertyOp24
 70
     1
102
RTVSPropertyOp25
 70
     1
102
RTVSPropertyOp26
 70
     1
102
RTVSPropertyOp27
 70
     1
102
RTVSPropertyOp28
 70
     1
102
RTVSPropertyOp29
 70
     1
102
RTVSPropertyOp30
 70
     1
102
RTVSPropertyOp31
 70
     1
102
RTVSPropertyOp32
 70
     1
  0
XRECORD
  5
132
102
{ACAD_REACTORS
330
131
102
}
330
131
100
AcDbXrecord
280
     1
102
RTVSPropertyOp0
 70
     1
102
RTVSPropertyOp1
 70
     1
102
RTVSPropertyOp2
 70
     1
102
RTVSPropertyOp3
 70
     1
102
RTVSPropertyOp4
 70
     1
102
RTVSPropertyOp5
 70
     1
102
RTVSPropertyOp6
 70
     1
102
RTVSPropertyOp7
 70
     1
102
RTVSPropertyOp8
 70
     1
102
RTVSPropertyOp9
 70
     1
102
RTVSPropertyOp10
 70
     1
102
RTVSPropertyOp11
 70
     1
102
RTVSPropertyOp12
 70
     1
102
RTVSPropertyOp13
 70
     1
102
RTVSPropertyOp14
 70
     1
102
RTVSPropertyOp15
 70
     1
102
RTVSPropertyOp16
 70
     1
102
RTVSPropertyOp17
 70
     1
102
RTVSPropertyOp18
 70
     1
102
RTVSPropertyOp19
 70
     1
102
RTVSPropertyOp20
 70
     1
102
RTVSPropertyOp21
 70
     1
102
RTVSPropertyOp22
 70
     1
102
RTVSPropertyOp23
 70
     1
102
RTVSPropertyOp24
 70
     1
102
RTVSPropertyOp25
 70
     1
102
RTVSPropertyOp26
 70
     1
102
RTVSPropertyOp27
 70
     1
102
RTVSPropertyOp28
 70
     1
102
RTVSPropertyOp29
 70
     1
102
RTVSPropertyOp30
 70
     1
102
RTVSPropertyOp31
 70
     1
102
RTVSPropertyOp32
 70
     1
  0
XRECORD
  5
13A
102
{ACAD_REACTORS
330
139
102
}
330
139
100
AcDbXrecord
280
     1
102
RTVSPropertyOp0
 70
     1
102
RTVSPropertyOp1
 70
     1
102
RTVSPropertyOp2
 70
     1
102
RTVSPropertyOp3
 70
     1
102
RTVSPropertyOp4
 70
     1
102
RTVSPropertyOp5
 70
     1
102
RTVSPropertyOp6
 70
     1
102
RTVSPropertyOp7
 70
     1
102
RTVSPropertyOp8
 70
     1
102
RTVSPropertyOp9
 70
     1
102
RTVSPropertyOp10
 70
     1
102
RTVSPropertyOp11
 70
     1
102
RTVSPropertyOp12
 70
     1
102
RTVSPropertyOp13
 70
     1
102
RTVSPropertyOp14
 70
     1
102
RTVSPropertyOp15
 70
     1
102
RTVSPropertyOp16
 70
     1
102
RTVSPropertyOp17
 70
     1
102
RTVSPropertyOp18
 70
     1
102
RTVSPropertyOp19
 70
     1
102
RTVSPropertyOp20
 70
     1
102
RTVSPropertyOp21
 70
     1
102
RTVSPropertyOp22
 70
     1
102
RTVSPropertyOp23
 70
     1
102
RTVSPropertyOp24
 70
     1
102
RTVSPropertyOp25
 70
     1
102
RTVSPropertyOp26
 70
     1
102
RTVSPropertyOp27
 70
     1
102
RTVSPropertyOp28
 70
     1
102
RTVSPropertyOp29
 70
     1
102
RTVSPropertyOp30
 70
     1
102
RTVSPropertyOp31
 70
     1
102
RTVSPropertyOp32
 70
     1
  0
XRECORD
  5
12E
102
{ACAD_REACTORS
330
12D
102
}
330
12D
100
AcDbXrecord
280
     1
102
RTVSPropertyOp0
 70
     1
102
RTVSPropertyOp1
 70
     1
102
RTVSPropertyOp2
 70
     1
102
RTVSPropertyOp3
 70
     1
102
RTVSPropertyOp4
 70
     1
102
RTVSPropertyOp5
 70
     1
102
RTVSPropertyOp6
 70
     1
102
RTVSPropertyOp7
 70
     1
102
RTVSPropertyOp8
 70
     1
102
RTVSPropertyOp9
 70
     1
102
RTVSPropertyOp10
 70
     1
102
RTVSPropertyOp11
 70
     1
102
RTVSPropertyOp12
 70
     1
102
RTVSPropertyOp13
 70
     1
102
RTVSPropertyOp14
 70
     1
102
RTVSPropertyOp15
 70
     1
102
RTVSPropertyOp16
 70
     1
102
RTVSPropertyOp17
 70
     1
102
RTVSPropertyOp18
 70
     1
102
RTVSPropertyOp19
 70
     1
102
RTVSPropertyOp20
 70
     1
102
RTVSPropertyOp21
 70
     1
102
RTVSPropertyOp22
 70
     1
102
RTVSPropertyOp23
 70
     1
102
RTVSPropertyOp24
 70
     1
102
RTVSPropertyOp25
 70
     1
102
RTVSPropertyOp26
 70
     1
102
RTVSPropertyOp27
 70
     1
102
RTVSPropertyOp28
 70
     1
102
RTVSPropertyOp29
 70
     1
102
RTVSPropertyOp30
 70
     1
102
RTVSPropertyOp31
 70
     1
102
RTVSPropertyOp32
 70
     1
  0
XRECORD
  5
130
102
{ACAD_REACTORS
330
12F
102
}
330
12F
100
AcDbXrecord
280
     1
102
RTVSPropertyOp0
 70
     1
102
RTVSPropertyOp1
 70
     1
102
RTVSPropertyOp2
 70
     1
102
RTVSPropertyOp3
 70
     1
102
RTVSPropertyOp4
 70
     1
102
RTVSPropertyOp5
 70
     1
102
RTVSPropertyOp6
 70
     1
102
RTVSPropertyOp7
 70
     1
102
RTVSPropertyOp8
 70
     1
102
RTVSPropertyOp9
 70
     1
102
RTVSPropertyOp10
 70
     1
102
RTVSPropertyOp11
 70
     1
102
RTVSPropertyOp12
 70
     1
102
RTVSPropertyOp13
 70
     1
102
RTVSPropertyOp14
 70
     1
102
RTVSPropertyOp15
 70
     1
102
RTVSPropertyOp16
 70
     1
102
RTVSPropertyOp17
 70
     1
102
RTVSPropertyOp18
 70
     1
102
RTVSPropertyOp19
 70
     1
102
RTVSPropertyOp20
 70
     1
102
RTVSPropertyOp21
 70
     1
102
RTVSPropertyOp22
 70
     1
102
RTVSPropertyOp23
 70
     1
102
RTVSPropertyOp24
 70
     1
102
RTVSPropertyOp25
 70
     1
102
RTVSPropertyOp26
 70
     1
102
RTVSPropertyOp27
 70
     1
102
RTVSPropertyOp28
 70
     1
102
RTVSPropertyOp29
 70
     1
102
RTVSPropertyOp30
 70
     1
102
RTVSPropertyOp31
 70
     1
102
RTVSPropertyOp32
 70
     1
  0
XRECORD
  5
138
102
{ACAD_REACTORS
330
137
102
}
330
137
100
AcDbXrecord
280
     1
102
RTVSPropertyOp0
 70
     1
102
RTVSPropertyOp1
 70
     1
102
RTVSPropertyOp2
 70
     1
102
RTVSPropertyOp3
 70
     1
102
RTVSPropertyOp4
 70
     1
102
RTVSPropertyOp5
 70
     1
102
RTVSPropertyOp6
 70
     1
102
RTVSPropertyOp7
 70
     1
102
RTVSPropertyOp8
 70
     1
102
RTVSPropertyOp9
 70
     1
102
RTVSPropertyOp10
 70
     1
102
RTVSPropertyOp11
 70
     1
102
RTVSPropertyOp12
 70
     1
102
RTVSPropertyOp13
 70
     1
102
RTVSPropertyOp14
 70
     1
102
RTVSPropertyOp15
 70
     1
102
RTVSPropertyOp16
 70
     1
102
RTVSPropertyOp17
 70
     1
102
RTVSPropertyOp18
 70
     1
102
RTVSPropertyOp19
 70
     1
102
RTVSPropertyOp20
 70
     1
102
RTVSPropertyOp21
 70
     1
102
RTVSPropertyOp22
 70
     1
102
RTVSPropertyOp23
 70
     1
102
RTVSPropertyOp24
 70
     1
102
RTVSPropertyOp25
 70
     1
102
RTVSPropertyOp26
 70
     1
102
RTVSPropertyOp27
 70
     1
102
RTVSPropertyOp28
 70
     1
102
RTVSPropertyOp29
 70
     1
102
RTVSPropertyOp30
 70
     1
102
RTVSPropertyOp31
 70
     1
102
RTVSPropertyOp32
 70
     1
  0
XRECORD
  5
11C
102
{ACAD_REACTORS
330
11B
102
}
330
11B
100
AcDbXrecord
280
     1
102
RTVSPropertyOp0
 70
     1
102
RTVSPropertyOp1
 70
     1
102
RTVSPropertyOp2
 70
     1
102
RTVSPropertyOp3
 70
     1
102
RTVSPropertyOp4
 70
     1
102
RTVSPropertyOp5
 70
     1
102
RTVSPropertyOp6
 70
     1
102
RTVSPropertyOp7
 70
     1
102
RTVSPropertyOp8
 70
     1
102
RTVSPropertyOp9
 70
     1
102
RTVSPropertyOp10
 70
     1
102
RTVSPropertyOp11
 70
     1
102
RTVSPropertyOp12
 70
     1
102
RTVSPropertyOp13
 70
     1
102
RTVSPropertyOp14
 70
     1
102
RTVSPropertyOp15
 70
     1
102
RTVSPropertyOp16
 70
     1
102
RTVSPropertyOp17
 70
     1
102
RTVSPropertyOp18
 70
     1
102
RTVSPropertyOp19
 70
     1
102
RTVSPropertyOp20
 70
     1
102
RTVSPropertyOp21
 70
     1
102
RTVSPropertyOp22
 70
     1
102
RTVSPropertyOp23
 70
     1
102
RTVSPropertyOp24
 70
     1
102
RTVSPropertyOp25
 70
     1
102
RTVSPropertyOp26
 70
     1
102
RTVSPropertyOp27
 70
     1
102
RTVSPropertyOp28
 70
     1
102
RTVSPropertyOp29
 70
     1
102
RTVSPropertyOp30
 70
     1
102
RTVSPropertyOp31
 70
     1
102
RTVSPropertyOp32
 70
     1
  0
XRECORD
  5
11E
102
{ACAD_REACTORS
330
11D
102
}
330
11D
100
AcDbXrecord
280
     1
102
RTVSPropertyOp0
 70
     1
102
RTVSPropertyOp1
 70
     1
102
RTVSPropertyOp2
 70
     1
102
RTVSPropertyOp3
 70
     1
102
RTVSPropertyOp4
 70
     1
102
RTVSPropertyOp5
 70
     1
102
RTVSPropertyOp6
 70
     1
102
RTVSPropertyOp7
 70
     1
102
RTVSPropertyOp8
 70
     1
102
RTVSPropertyOp9
 70
     1
102
RTVSPropertyOp10
 70
     1
102
RTVSPropertyOp11
 70
     1
102
RTVSPropertyOp12
 70
     1
102
RTVSPropertyOp13
 70
     1
102
RTVSPropertyOp14
 70
     1
102
RTVSPropertyOp15
 70
     1
102
RTVSPropertyOp16
 70
     1
102
RTVSPropertyOp17
 70
     1
102
RTVSPropertyOp18
 70
     1
102
RTVSPropertyOp19
 70
     1
102
RTVSPropertyOp20
 70
     1
102
RTVSPropertyOp21
 70
     1
102
RTVSPropertyOp22
 70
     1
102
RTVSPropertyOp23
 70
     1
102
RTVSPropertyOp24
 70
     1
102
RTVSPropertyOp25
 70
     1
102
RTVSPropertyOp26
 70
     1
102
RTVSPropertyOp27
 70
     1
102
RTVSPropertyOp28
 70
     1
102
RTVSPropertyOp29
 70
     1
102
RTVSPropertyOp30
 70
     1
102
RTVSPropertyOp31
 70
     1
102
RTVSPropertyOp32
 70
     1
  0
XRECORD
  5
120
102
{ACAD_REACTORS
330
11F
102
}
330
11F
100
AcDbXrecord
280
     1
102
RTVSPropertyOp0
 70
     1
102
RTVSPropertyOp1
 70
     1
102
RTVSPropertyOp2
 70
     1
102
RTVSPropertyOp3
 70
     1
102
RTVSPropertyOp4
 70
     1
102
RTVSPropertyOp5
 70
     1
102
RTVSPropertyOp6
 70
     1
102
RTVSPropertyOp7
 70
     1
102
RTVSPropertyOp8
 70
     1
102
RTVSPropertyOp9
 70
     1
102
RTVSPropertyOp10
 70
     1
102
RTVSPropertyOp11
 70
     1
102
RTVSPropertyOp12
 70
     1
102
RTVSPropertyOp13
 70
     1
102
RTVSPropertyOp14
 70
     1
102
RTVSPropertyOp15
 70
     1
102
RTVSPropertyOp16
 70
     1
102
RTVSPropertyOp17
 70
     1
102
RTVSPropertyOp18
 70
     1
102
RTVSPropertyOp19
 70
     1
102
RTVSPropertyOp20
 70
     1
102
RTVSPropertyOp21
 70
     1
102
RTVSPropertyOp22
 70
     1
102
RTVSPropertyOp23
 70
     1
102
RTVSPropertyOp24
 70
     1
102
RTVSPropertyOp25
 70
     1
102
RTVSPropertyOp26
 70
     1
102
RTVSPropertyOp27
 70
     1
102
RTVSPropertyOp28
 70
     1
102
RTVSPropertyOp29
 70
     1
102
RTVSPropertyOp30
 70
     1
102
RTVSPropertyOp31
 70
     1
102
RTVSPropertyOp32
 70
     1
  0
XRECORD
  5
122
102
{ACAD_REACTORS
330
121
102
}
330
121
100
AcDbXrecord
280
     1
102
RTVSPropertyOp0
 70
     1
102
RTVSPropertyOp1
 70
     1
102
RTVSPropertyOp2
 70
     1
102
RTVSPropertyOp3
 70
     1
102
RTVSPropertyOp4
 70
     1
102
RTVSPropertyOp5
 70
     1
102
RTVSPropertyOp6
 70
     1
102
RTVSPropertyOp7
 70
     1
102
RTVSPropertyOp8
 70
     1
102
RTVSPropertyOp9
 70
     1
102
RTVSPropertyOp10
 70
     1
102
RTVSPropertyOp11
 70
     1
102
RTVSPropertyOp12
 70
     1
102
RTVSPropertyOp13
 70
     1
102
RTVSPropertyOp14
 70
     1
102
RTVSPropertyOp15
 70
     1
102
RTVSPropertyOp16
 70
     1
102
RTVSPropertyOp17
 70
     1
102
RTVSPropertyOp18
 70
     1
102
RTVSPropertyOp19
 70
     1
102
RTVSPropertyOp20
 70
     1
102
RTVSPropertyOp21
 70
     1
102
RTVSPropertyOp22
 70
     1
102
RTVSPropertyOp23
 70
     1
102
RTVSPropertyOp24
 70
     1
102
RTVSPropertyOp25
 70
     1
102
RTVSPropertyOp26
 70
     1
102
RTVSPropertyOp27
 70
     1
102
RTVSPropertyOp28
 70
     1
102
RTVSPropertyOp29
 70
     1
102
RTVSPropertyOp30
 70
     1
102
RTVSPropertyOp31
 70
     1
102
RTVSPropertyOp32
 70
     1
  0
XRECORD
  5
136
102
{ACAD_REACTORS
330
135
102
}
330
135
100
AcDbXrecord
280
     1
102
RTVSPropertyOp0
 70
     1
102
RTVSPropertyOp1
 70
     1
102
RTVSPropertyOp2
 70
     1
102
RTVSPropertyOp3
 70
     1
102
RTVSPropertyOp4
 70
     1
102
RTVSPropertyOp5
 70
     1
102
RTVSPropertyOp6
 70
     1
102
RTVSPropertyOp7
 70
     1
102
RTVSPropertyOp8
 70
     1
102
RTVSPropertyOp9
 70
     1
102
RTVSPropertyOp10
 70
     1
102
RTVSPropertyOp11
 70
     1
102
RTVSPropertyOp12
 70
     1
102
RTVSPropertyOp13
 70
     1
102
RTVSPropertyOp14
 70
     1
102
RTVSPropertyOp15
 70
     1
102
RTVSPropertyOp16
 70
     1
102
RTVSPropertyOp17
 70
     1
102
RTVSPropertyOp18
 70
     1
102
RTVSPropertyOp19
 70
     1
102
RTVSPropertyOp20
 70
     1
102
RTVSPropertyOp21
 70
     1
102
RTVSPropertyOp22
 70
     1
102
RTVSPropertyOp23
 70
     1
102
RTVSPropertyOp24
 70
     1
102
RTVSPropertyOp25
 70
     1
102
RTVSPropertyOp26
 70
     1
102
RTVSPropertyOp27
 70
     1
102
RTVSPropertyOp28
 70
     1
102
RTVSPropertyOp29
 70
     1
102
RTVSPropertyOp30
 70
     1
102
RTVSPropertyOp31
 70
     1
102
RTVSPropertyOp32
 70
     1
  0
XRECORD
  5
12C
102
{ACAD_REACTORS
330
12B
102
}
330
12B
100
AcDbXrecord
280
     1
102
RTVSPropertyOp0
 70
     1
102
RTVSPropertyOp1
 70
     1
102
RTVSPropertyOp2
 70
     1
102
RTVSPropertyOp3
 70
     1
102
RTVSPropertyOp4
 70
     1
102
RTVSPropertyOp5
 70
     1
102
RTVSPropertyOp6
 70
     1
102
RTVSPropertyOp7
 70
     1
102
RTVSPropertyOp8
 70
     1
102
RTVSPropertyOp9
 70
     1
102
RTVSPropertyOp10
 70
     1
102
RTVSPropertyOp11
 70
     1
102
RTVSPropertyOp12
 70
     1
102
RTVSPropertyOp13
 70
     1
102
RTVSPropertyOp14
 70
     1
102
RTVSPropertyOp15
 70
     1
102
RTVSPropertyOp16
 70
     1
102
RTVSPropertyOp17
 70
     1
102
RTVSPropertyOp18
 70
     1
102
RTVSPropertyOp19
 70
     1
102
RTVSPropertyOp20
 70
     1
102
RTVSPropertyOp21
 70
     1
102
RTVSPropertyOp22
 70
     1
102
RTVSPropertyOp23
 70
     1
102
RTVSPropertyOp24
 70
     1
102
RTVSPropertyOp25
 70
     1
102
RTVSPropertyOp26
 70
     1
102
RTVSPropertyOp27
 70
     1
102
RTVSPropertyOp28
 70
     1
102
RTVSPropertyOp29
 70
     1
102
RTVSPropertyOp30
 70
     1
102
RTVSPropertyOp31
 70
     1
102
RTVSPropertyOp32
 70
     1
  0
XRECORD
  5
134
102
{ACAD_REACTORS
330
133
102
}
330
133
100
AcDbXrecord
280
     1
102
RTVSPropertyOp0
 70
     1
102
RTVSPropertyOp1
 70
     1
102
RTVSPropertyOp2
 70
     1
102
RTVSPropertyOp3
 70
     1
102
RTVSPropertyOp4
 70
     1
102
RTVSPropertyOp5
 70
     1
102
RTVSPropertyOp6
 70
     1
102
RTVSPropertyOp7
 70
     1
102
RTVSPropertyOp8
 70
     1
102
RTVSPropertyOp9
 70
     1
102
RTVSPropertyOp10
 70
     1
102
RTVSPropertyOp11
 70
     1
102
RTVSPropertyOp12
 70
     1
102
RTVSPropertyOp13
 70
     1
102
RTVSPropertyOp14
 70
     1
102
RTVSPropertyOp15
 70
     1
102
RTVSPropertyOp16
 70
     1
102
RTVSPropertyOp17
 70
     1
102
RTVSPropertyOp18
 70
     1
102
RTVSPropertyOp19
 70
     1
102
RTVSPropertyOp20
 70
     1
102
RTVSPropertyOp21
 70
     1
102
RTVSPropertyOp22
 70
     1
102
RTVSPropertyOp23
 70
     1
102
RTVSPropertyOp24
 70
     1
102
RTVSPropertyOp25
 70
     1
102
RTVSPropertyOp26
 70
     1
102
RTVSPropertyOp27
 70
     1
102
RTVSPropertyOp28
 70
     1
102
RTVSPropertyOp29
 70
     1
102
RTVSPropertyOp30
 70
     1
102
RTVSPropertyOp31
 70
     1
102
RTVSPropertyOp32
 70
     1
  0
ENDSEC
  0
EOF
