  0
SECTION
  2
HEADER
  9
$ACADVER
  1
AC1015
  9
$ACADMAINTVER
 70
     6
  9
$DWGCODEPAGE
  3
ANSI_932
  9
$INSBASE
 10
0.0
 20
0.0
 30
0.0
  9
$EXTMIN
 10
0.0
 20
0.0
 30
0.0
  9
$EXTMAX
 10
210.0
 20
297.0
 30
0.0
  9
$LIMMIN
 10
0.0
 20
0.0
  9
$LIMMAX
 10
12.0
 20
9.0
  9
$ORTHOMODE
 70
     0
  9
$REGENMODE
 70
     1
  9
$FILLMODE
 70
     1
  9
$QTEXTMODE
 70
     0
  9
$MIRRTEXT
 70
     1
  9
$LTSCALE
 40
1.0
  9
$ATTMODE
 70
     1
  9
$TEXTSIZE
 40
0.2
  9
$TRACEWID
 40
0.05
  9
$TEXTSTYLE
  7
Standard
  9
$CLAYER
  8
0
  9
$CELTYPE
  6
ByLayer
  9
$CECOLOR
 62
   256
  9
$CELTSCALE
 40
1.0
  9
$DISPSILH
 70
     0
  9
$DIMSCALE
 40
1.0
  9
$DIMASZ
 40
0.18
  9
$DIMEXO
 40
0.0625
  9
$DIMDLI
 40
0.38
  9
$DIMRND
 40
0.0
  9
$DIMDLE
 40
0.0
  9
$DIMEXE
 40
0.18
  9
$DIMTP
 40
0.0
  9
$DIMTM
 40
0.0
  9
$DIMTXT
 40
0.18
  9
$DIMCEN
 40
0.09
  9
$DIMTSZ
 40
0.0
  9
$DIMTOL
 70
     0
  9
$DIMLIM
 70
     0
  9
$DIMTIH
 70
     1
  9
$DIMTOH
 70
     1
  9
$DIMSE1
 70
     0
  9
$DIMSE2
 70
     0
  9
$DIMTAD
 70
     0
  9
$DIMZIN
 70
     0
  9
$DIMBLK
  1

  9
$DIMASO
 70
     1
  9
$DIMSHO
 70
     1
  9
$DIMPOST
  1

  9
$DIMAPOST
  1

  9
$DIMALT
 70
     0
  9
$DIMALTD
 70
     2
  9
$DIMALTF
 40
25.4
  9
$DIMLFAC
 40
1.0
  9
$DIMTOFL
 70
     0
  9
$DIMTVP
 40
0.0
  9
$DIMTIX
 70
     0
  9
$DIMSOXD
 70
     0
  9
$DIMSAH
 70
     0
  9
$DIMBLK1
  1

  9
$DIMBLK2
  1

  9
$DIMSTYLE
  2
Standard
  9
$DIMCLRD
 70
     0
  9
$DIMCLRE
 70
     0
  9
$DIMCLRT
 70
     0
  9
$DIMTFAC
 40
1.0
  9
$DIMGAP
 40
0.09
  9
$DIMJUST
 70
     0
  9
$DIMSD1
 70
     0
  9
$DIMSD2
 70
     0
  9
$DIMTOLJ
 70
     1
  9
$DIMTZIN
 70
     0
  9
$DIMALTZ
 70
     0
  9
$DIMALTTZ
 70
     0
  9
$DIMUPT
 70
     0
  9
$DIMDEC
 70
     4
  9
$DIMTDEC
 70
     4
  9
$DIMALTU
 70
     2
  9
$DIMALTTD
 70
     2
  9
$DIMTXSTY
  7
Standard
  9
$DIMAUNIT
 70
     0
  9
$DIMADEC
 70
     0
  9
$DIMALTRND
 40
0.0
  9
$DIMAZIN
 70
     0
  9
$DIMDSEP
 70
    46
  9
$DIMATFIT
 70
     3
  9
$DIMFRAC
 70
     0
  9
$DIMLDRBLK
  1

  9
$DIMLUNIT
 70
     2
  9
$DIMLWD
 70
    -2
  9
$DIMLWE
 70
    -2
  9
$DIMTMOVE
 70
     0
  9
$LUNITS
 70
     2
  9
$LUPREC
 70
     4
  9
$SKETCHINC
 40
0.1
  9
$FILLETRAD
 40
0.5
  9
$AUNITS
 70
     0
  9
$AUPREC
 70
     0
  9
$MENU
  1
.
  9
$ELEVATION
 40
0.0
  9
$PELEVATION
 40
0.0
  9
$THICKNESS
 40
0.0
  9
$LIMCHECK
 70
     0
  9
$CHAMFERA
 40
0.5
  9
$CHAMFERB
 40
0.5
  9
$CHAMFERC
 40
1.0
  9
$CHAMFERD
 40
0.0
  9
$SKPOLY
 70
     0
  9
$TDCREATE
 40
2459787.705094074
  9
$TDUCREATE
 40
2459787.330094074
  9
$TDUPDATE
 40
2459787.705095509
  9
$TDUUPDATE
 40
2459787.330095509
  9
$TDINDWG
 40
0.0000000116
  9
$TDUSRTIMER
 40
0.0000000116
  9
$USRTIMER
 70
     1
  9
$ANGBASE
 50
0.0
  9
$ANGDIR
 70
     0
  9
$PDMODE
 70
     0
  9
$PDSIZE
 40
0.0
  9
$PLINEWID
 40
0.0
  9
$SPLFRAME
 70
     0
  9
$SPLINETYPE
 70
     6
  9
$SPLINESEGS
 70
     8
  9
$HANDSEED
  5
137
  9
$SURFTAB1
 70
     6
  9
$SURFTAB2
 70
     6
  9
$SURFTYPE
 70
     6
  9
$SURFU
 70
     6
  9
$SURFV
 70
     6
  9
$UCSBASE
  2

  9
$UCSNAME
  2

  9
$UCSORG
 10
0.0
 20
0.0
 30
0.0
  9
$UCSXDIR
 10
1.0
 20
0.0
 30
0.0
  9
$UCSYDIR
 10
0.0
 20
1.0
 30
0.0
  9
$UCSORTHOREF
  2

  9
$UCSORTHOVIEW
 70
     0
  9
$UCSORGTOP
 10
0.0
 20
0.0
 30
0.0
  9
$UCSORGBOTTOM
 10
0.0
 20
0.0
 30
0.0
  9
$UCSORGLEFT
 10
0.0
 20
0.0
 30
0.0
  9
$UCSORGRIGHT
 10
0.0
 20
0.0
 30
0.0
  9
$UCSORGFRONT
 10
0.0
 20
0.0
 30
0.0
  9
$UCSORGBACK
 10
0.0
 20
0.0
 30
0.0
  9
$PUCSBASE
  2

  9
$PUCSNAME
  2

  9
$PUCSORG
 10
0.0
 20
0.0
 30
0.0
  9
$PUCSXDIR
 10
1.0
 20
0.0
 30
0.0
  9
$PUCSYDIR
 10
0.0
 20
1.0
 30
0.0
  9
$PUCSORTHOREF
  2

  9
$PUCSORTHOVIEW
 70
     0
  9
$PUCSORGTOP
 10
0.0
 20
0.0
 30
0.0
  9
$PUCSORGBOTTOM
 10
0.0
 20
0.0
 30
0.0
  9
$PUCSORGLEFT
 10
0.0
 20
0.0
 30
0.0
  9
$PUCSORGRIGHT
 10
0.0
 20
0.0
 30
0.0
  9
$PUCSORGFRONT
 10
0.0
 20
0.0
 30
0.0
  9
$PUCSORGBACK
 10
0.0
 20
0.0
 30
0.0
  9
$USERI1
 70
     0
  9
$USERI2
 70
     0
  9
$USERI3
 70
     0
  9
$USERI4
 70
     0
  9
$USERI5
 70
     0
  9
$USERR1
 40
18.1
  9
$USERR2
 40
0.0
  9
$USERR3
 40
0.0
  9
$USERR4
 40
0.0
  9
$USERR5
 40
0.0
  9
$WORLDVIEW
 70
     1
  9
$SHADEDGE
 70
     3
  9
$SHADEDIF
 70
    70
  9
$TILEMODE
 70
     1
  9
$MAXACTVP
 70
    64
  9
$PINSBASE
 10
0.0
 20
0.0
 30
0.0
  9
$PLIMCHECK
 70
     0
  9
$PEXTMIN
 10
1.00000000000000E+20
 20
1.00000000000000E+20
 30
1.00000000000000E+20
  9
$PEXTMAX
 10
-1.00000000000000E+20
 20
-1.00000000000000E+20
 30
-1.00000000000000E+20
  9
$PLIMMIN
 10
0.0
 20
0.0
  9
$PLIMMAX
 10
12.0
 20
9.0
  9
$UNITMODE
 70
     0
  9
$VISRETAIN
 70
     1
  9
$PLINEGEN
 70
     0
  9
$PSLTSCALE
 70
     1
  9
$TREEDEPTH
 70
  3020
  9
$CMLSTYLE
  2
Standard
  9
$CMLJUST
 70
     0
  9
$CMLSCALE
 40
1.0
  9
$PROXYGRAPHICS
 70
     1
  9
$MEASUREMENT
 70
     1
  9
$CELWEIGHT
370
    -1
  9
$ENDCAPS
280
     0
  9
$JOINSTYLE
280
     0
  9
$LWDISPLAY
290
     0
  9
$INSUNITS
 70
     4
  9
$HYPERLINKBASE
  1

  9
$STYLESHEET
  1

  9
$XEDIT
290
     1
  9
$CEPSNTYPE
380
     0
  9
$PSTYLEMODE
290
     1
  9
$FINGERPRINTGUID
  2
{899EEE8F-48D8-4EAE-9A2C-55FE76691B87}
  9
$VERSIONGUID
  2
{FAEB1C32-E019-11D5-929B-00C0DF256EC4}
  9
$EXTNAMES
290
     1
  9
$PSVPSCALE
 40
0.0
  9
$OLESTARTUP
290
     0
  0
ENDSEC
  0
SECTION
  2
CLASSES
  0
CLASS
  1
ACDBDICTIONARYWDFLT
  2
AcDbDictionaryWithDefault
  3
ObjectDBX Classes
 90
        0
280
     0
281
     0
  0
CLASS
  1
VISUALSTYLE
  2
AcDbVisualStyle
  3
ObjectDBX Classes
 90
     4095
280
     0
281
     0
  0
CLASS
  1
MATERIAL
  2
AcDbMaterial
  3
ObjectDBX Classes
 90
     1153
280
     0
281
     0
  0
CLASS
  1
DICTIONARYVAR
  2
AcDbDictionaryVar
  3
ObjectDBX Classes
 90
        0
280
     0
281
     0
  0
CLASS
  1
ACDBPLACEHOLDER
  2
AcDbPlaceHolder
  3
ObjectDBX Classes
 90
        0
280
     0
281
     0
  0
CLASS
  1
LAYOUT
  2
AcDbLayout
  3
ObjectDBX Classes
 90
        0
280
     0
281
     0
  0
ENDSEC
  0
SECTION
  2
TABLES
  0
TABLE
  2
VPORT
  5
8
330
0
100
AcDbSymbolTable
 70
     1
  0
VPORT
  5
29
330
8
100
AcDbSymbolTableRecord
100
AcDbViewportTableRecord
  2
*Active
 70
     0
 10
0.0
 20
0.0
 11
1.0
 21
1.0
 12
105.0
 22
148.5
 13
0.0
 23
0.0
 14
0.5
 24
0.5
 15
0.5
 25
0.5
 16
0.0
 26
0.0
 36
1.0
 17
0.0
 27
0.0
 37
0.0
 40
326.7
 41
1.60267857142857
 42
50.0
 43
0.0
 44
0.0
 50
0.0
 51
0.0
 71
     0
 72
   100
 73
     1
 74
     3
 75
     0
 76
     0
 77
     0
 78
     0
281
     0
 65
     1
110
0.0
120
0.0
130
0.0
111
1.0
121
0.0
131
0.0
112
0.0
122
1.0
132
0.0
 79
     0
146
0.0
  0
ENDTAB
  0
TABLE
  2
LTYPE
  5
5
330
0
100
AcDbSymbolTable
 70
     8
  0
LTYPE
  5
14
330
5
100
AcDbSymbolTableRecord
100
AcDbLinetypeTableRecord
  2
ByBlock
 70
     0
  3

 72
    65
 73
     0
 40
0.0
  0
LTYPE
  5
15
330
5
100
AcDbSymbolTableRecord
100
AcDbLinetypeTableRecord
  2
ByLayer
 70
     0
  3

 72
    65
 73
     0
 40
0.0
  0
LTYPE
  5
16
330
5
100
AcDbSymbolTableRecord
100
AcDbLinetypeTableRecord
  2
Continuous
 70
     0
  3
Solid line
 72
    65
 73
     0
 40
0.0
  0
LTYPE
  5
3F
330
5
100
AcDbSymbolTableRecord
100
AcDbLinetypeTableRecord
  2
DASHED
 70
     0
  3
Dashed
 72
    65
 73
     2
 40
15.0
 49
7.0
 74
     0
 49
-8.0
 74
     0
  0
LTYPE
  5
40
330
5
100
AcDbSymbolTableRecord
100
AcDbLinetypeTableRecord
  2
DOTTED
 70
     0
  3
Dotted
 72
    65
 73
     2
 40
1.0
 49
0.0
 74
     0
 49
-1.0
 74
     0
  0
LTYPE
  5
41
330
5
100
AcDbSymbolTableRecord
100
AcDbLinetypeTableRecord
  2
DOT_CENTER
 70
     0
  3
Dot_Center
 72
    65
 73
     4
 40
14.0
 49
12.0
 74
     0
 49
-1.0
 74
     0
 49
0.0
 74
     0
 49
-1.0
 74
     0
  0
LTYPE
  5
42
330
5
100
AcDbSymbolTableRecord
100
AcDbLinetypeTableRecord
  2
LONG_DASHED
 70
     0
  3
Long_Dashed
 72
    65
 73
     2
 40
15.0
 49
10.0
 74
     0
 49
-5.0
 74
     0
  0
LTYPE
  5
43
330
5
100
AcDbSymbolTableRecord
100
AcDbLinetypeTableRecord
  2
DASH_CENTER
 70
     0
  3
Dash_Center
 72
    65
 73
     4
 40
14.0
 49
11.0
 74
     0
 49
-1.0
 74
     0
 49
1.0
 74
     0
 49
-1.0
 74
     0
  0
LTYPE
  5
44
330
5
100
AcDbSymbolTableRecord
100
AcDbLinetypeTableRecord
  2
PHANTOM
 70
     0
  3
Phantom
 72
    65
 73
     6
 40
13.0
 49
10.0
 74
     0
 49
-1.0
 74
     0
 49
0.0
 74
     0
 49
-1.0
 74
     0
 49
0.0
 74
     0
 49
-1.0
 74
     0
  0
LTYPE
  5
45
330
5
100
AcDbSymbolTableRecord
100
AcDbLinetypeTableRecord
  2
CENTER_DASH_DASH
 70
     0
  3
Center_Dash_Dash
 72
    65
 73
     6
 40
14.0
 49
9.0
 74
     0
 49
-1.0
 74
     0
 49
1.0
 74
     0
 49
-1.0
 74
     0
 49
1.0
 74
     0
 49
-1.0
 74
     0
  0
ENDTAB
  0
TABLE
  2
LAYER
  5
2
330
0
100
AcDbSymbolTable
 70
     3
  0
LAYER
  5
10
330
2
100
AcDbSymbolTableRecord
100
AcDbLayerTableRecord
  2
0
 70
     0
 62
     7
  6
Continuous
370
    -3
390
F
  0
LAYER
  5
46
330
2
100
AcDbSymbolTableRecord
100
AcDbLayerTableRecord
  2
1
 70
     0
 62
     7
  6
Continuous
370
    -3
390
F
  0
LAYER
  5
47
330
2
100
AcDbSymbolTableRecord
100
AcDbLayerTableRecord
  2
_U_30EC_U_30A4_U_30E4_U_30FC_1
 70
     0
 62
     7
  6
Continuous
370
    -3
390
F
  0
ENDTAB
  0
TABLE
  2
STYLE
  5
3
330
0
100
AcDbSymbolTable
 70
     3
  0
STYLE
  5
11
330
3
100
AcDbSymbolTableRecord
100
AcDbTextStyleTableRecord
  2
Standard
 70
     0
 40
0.0
 41
1.0
 50
0.0
 71
     0
 42
0.2
  3
txt
  4

  0
STYLE
  5
B6
330
3
100
AcDbSymbolTableRecord
100
AcDbTextStyleTableRecord
  2
CONVERTER_11
 70
     0
 40
0.0
 41
0.89
 50
0.0
 71
     0
 42
0.2
  3
MS Mincho.ttf
  4

1001
ACAD
1000
MS Mincho
1071
    32785
  0
STYLE
  5
E3
330
3
100
AcDbSymbolTableRecord
100
AcDbTextStyleTableRecord
  2
CONVERTER_12
 70
     0
 40
0.0
 41
0.9
 50
0.0
 71
     0
 42
0.2
  3
txt.shx
  4

  0
ENDTAB
  0
TABLE
  2
VIEW
  5
6
330
0
100
AcDbSymbolTable
 70
     0
  0
ENDTAB
  0
TABLE
  2
UCS
  5
7
330
0
100
AcDbSymbolTable
 70
     0
  0
ENDTAB
  0
TABLE
  2
APPID
  5
9
330
0
100
AcDbSymbolTable
 70
     1
  0
APPID
  5
12
330
9
100
AcDbSymbolTableRecord
100
AcDbRegAppTableRecord
  2
ACAD
 70
     0
  0
ENDTAB
  0
TABLE
  2
DIMSTYLE
  5
A
330
0
100
AcDbSymbolTable
 70
     2
100
AcDbDimStyleTable
  0
DIMSTYLE
105
27
330
A
100
AcDbSymbolTableRecord
100
AcDbDimStyleTableRecord
  2
Standard
 70
     0
178
     0
340
11
  0
DIMSTYLE
105
100
102
{ACAD_REACTORS
330
101
102
}
330
A
100
AcDbSymbolTableRecord
100
AcDbDimStyleTableRecord
  2
ME10_DIM_10
 70
     0
 41
3.5
 42
0.0
 44
1.0
 73
     0
 74
     0
 77
     1
 78
     8
140
3.5
147
1.0
172
     1
173
     1
174
     1
175
     1
176
     2
177
     2
271
     2
178
     7
271
     2
340
E3
  0
ENDTAB
  0
TABLE
  2
BLOCK_RECORD
  5
1
330
0
100
AcDbSymbolTable
 70
     6
  0
BLOCK_RECORD
  5
1F
330
1
100
AcDbSymbolTableRecord
100
AcDbBlockTableRecord
  2
*Model_Space
340
22
  0
BLOCK_RECORD
  5
1B
330
1
100
AcDbSymbolTableRecord
100
AcDbBlockTableRecord
  2
*Paper_Space
340
1E
  0
BLOCK_RECORD
  5
23
330
1
100
AcDbSymbolTableRecord
100
AcDbBlockTableRecord
  2
*Paper_Space0
340
26
  0
BLOCK_RECORD
  5
48
330
1
100
AcDbSymbolTableRecord
100
AcDbBlockTableRecord
  2
開示A4
340
0
102
{BLKREFS
331
4C
102
}
  0
BLOCK_RECORD
  5
4B
330
1
100
AcDbSymbolTableRecord
100
AcDbBlockTableRecord
  2
開示A4枠
340
0
102
{BLKREFS
331
52
102
}
  0
BLOCK_RECORD
  5
4F
330
1
100
AcDbSymbolTableRecord
100
AcDbBlockTableRecord
  2
P44-18
340
0
102
{BLKREFS
331
53
102
}
  0
BLOCK_RECORD
  5
F5
330
1
100
AcDbSymbolTableRecord
100
AcDbBlockTableRecord
  2
*D4
340
0
  0
BLOCK_RECORD
  5
102
330
1
100
AcDbSymbolTableRecord
100
AcDbBlockTableRecord
  2
*D5
340
0
102
{BLKREFS
331
10B
102
}
  0
ENDTAB
  0
ENDSEC
  0
SECTION
  2
BLOCKS
  0
BLOCK
  5
20
330
1F
100
AcDbEntity
  8
0
100
AcDbBlockBegin
  2
*Model_Space
 70
     0
 10
0.0
 20
0.0
 30
0.0
  3
*Model_Space
  1

  0
ENDBLK
  5
21
330
1F
100
AcDbEntity
  8
0
100
AcDbBlockEnd
  0
BLOCK
  5
1C
330
1B
100
AcDbEntity
 67
     1
  8
0
100
AcDbBlockBegin
  2
*Paper_Space
 70
     0
 10
0.0
 20
0.0
 30
0.0
  3
*Paper_Space
  1

  0
ENDBLK
  5
1D
330
1B
100
AcDbEntity
 67
     1
  8
0
100
AcDbBlockEnd
  0
BLOCK
  5
24
330
23
100
AcDbEntity
  8
0
100
AcDbBlockBegin
  2
*Paper_Space0
 70
     0
 10
0.0
 20
0.0
 30
0.0
  3
*Paper_Space0
  1

  0
ENDBLK
  5
25
330
23
100
AcDbEntity
  8
0
100
AcDbBlockEnd
  0
BLOCK
  5
49
330
48
100
AcDbEntity
  8
0
100
AcDbBlockBegin
  2
開示A4
 70
     0
 10
0.0
 20
0.0
 30
0.0
  3
開示A4
  1

  0
POINT
  5
54
330
48
100
AcDbEntity
  8
1
 62
     4
100
AcDbPoint
 10
183.0
 20
15.0
 30
0.0
  0
POINT
  5
55
330
48
100
AcDbEntity
  8
1
 62
     4
100
AcDbPoint
 10
93.75
 20
17.0
 30
0.0
  0
POINT
  5
56
330
48
100
AcDbEntity
  8
1
 62
     4
100
AcDbPoint
 10
85.25
 20
17.0
 30
0.0
  0
POINT
  5
57
330
48
100
AcDbEntity
  8
1
 62
     4
100
AcDbPoint
 10
106.5
 20
19.0
 30
0.0
  0
POINT
  5
58
330
48
100
AcDbEntity
  8
1
 62
     4
100
AcDbPoint
 10
106.5
 20
12.5
 30
0.0
  0
POINT
  5
59
330
48
100
AcDbEntity
  8
1
 62
     4
100
AcDbPoint
 10
112.25
 20
12.5
 30
0.0
  0
POINT
  5
5A
330
48
100
AcDbEntity
  8
1
 62
     4
100
AcDbPoint
 10
100.75
 20
12.5
 30
0.0
  0
POINT
  5
5B
330
48
100
AcDbEntity
  8
1
 62
     4
100
AcDbPoint
 10
123.5
 20
19.0
 30
0.0
  0
POINT
  5
5C
330
48
100
AcDbEntity
  8
1
 62
     4
100
AcDbPoint
 10
123.5
 20
12.5
 30
0.0
  0
POINT
  5
5D
330
48
100
AcDbEntity
  8
1
 62
     4
100
AcDbPoint
 10
129.25
 20
12.5
 30
0.0
  0
POINT
  5
5E
330
48
100
AcDbEntity
  8
1
 62
     4
100
AcDbPoint
 10
117.75
 20
12.5
 30
0.0
  0
POINT
  5
5F
330
48
100
AcDbEntity
  8
1
 62
     4
100
AcDbPoint
 10
140.5
 20
19.0
 30
0.0
  0
POINT
  5
60
330
48
100
AcDbEntity
  8
1
 62
     4
100
AcDbPoint
 10
140.5
 20
12.5
 30
0.0
  0
POINT
  5
61
330
48
100
AcDbEntity
  8
1
 62
     4
100
AcDbPoint
 10
146.2499999999999
 20
12.5
 30
0.0
  0
POINT
  5
62
330
48
100
AcDbEntity
  8
1
 62
     4
100
AcDbPoint
 10
134.75
 20
12.5
 30
0.0
  0
POINT
  5
63
330
48
100
AcDbEntity
  8
1
 62
     4
100
AcDbPoint
 10
151.7499999999999
 20
12.5
 30
0.0
  0
POINT
  5
64
330
48
100
AcDbEntity
  8
1
 62
     4
100
AcDbPoint
 10
163.2499999999999
 20
12.5
 30
0.0
  0
POINT
  5
65
330
48
100
AcDbEntity
  8
1
 62
     4
100
AcDbPoint
 10
157.4999999999999
 20
12.5
 30
0.0
  0
POINT
  5
66
330
48
100
AcDbEntity
  8
1
 62
     4
100
AcDbPoint
 10
57.0
 20
14.25
 30
0.0
  0
POINT
  5
67
330
48
100
AcDbEntity
  8
1
 62
     4
100
AcDbPoint
 10
57.0
 20
22.75
 30
0.0
  0
POINT
  5
68
330
48
100
AcDbEntity
  8
1
 62
     4
100
AcDbPoint
 10
47.5
 20
282.0000000000003
 30
0.0
  0
POINT
  5
69
330
48
100
AcDbEntity
  8
1
 62
     4
100
AcDbPoint
 10
157.4999999999999
 20
19.0
 30
0.0
  0
POINT
  5
6A
330
48
100
AcDbEntity
  8
1
 62
     4
100
AcDbPoint
 10
57.0
 20
16.25
 30
0.0
  0
POINT
  5
6B
330
48
100
AcDbEntity
  8
1
 62
     4
100
AcDbPoint
 10
57.0
 20
24.75
 30
0.0
  0
POINT
  5
6C
330
48
100
AcDbEntity
  8
1
 62
     4
100
AcDbPoint
 10
57.0
 20
20.75
 30
0.0
  0
POINT
  5
6D
330
48
100
AcDbEntity
  8
1
 62
     4
100
AcDbPoint
 10
57.0
 20
12.25
 30
0.0
  0
POINT
  5
6E
330
48
100
AcDbEntity
  8
1
 62
     4
100
AcDbPoint
 10
34.0
 20
33.99999999999999
 30
0.0
  0
LINE
  5
73
330
48
100
AcDbEntity
  8
1
  6
Continuous
 62
     7
100
AcDbLine
 10
105.0
 20
10.0
 30
0.0
 11
200.0
 21
10.0
 31
0.0
  0
LINE
  5
74
330
48
100
AcDbEntity
  8
1
  6
Continuous
 62
     2
100
AcDbLine
 10
105.0
 20
10.0
 30
0.0
 11
105.0
 21
5.0
 31
0.0
  0
LINE
  5
75
330
48
100
AcDbEntity
  8
1
  6
Continuous
 62
     7
100
AcDbLine
 10
200.0
 20
148.5
 30
0.0
 11
200.0
 21
287.0000000000003
 31
0.0
  0
LINE
  5
76
330
48
100
AcDbEntity
  8
1
  6
Continuous
 62
     2
100
AcDbLine
 10
200.0
 20
148.5
 30
0.0
 11
205.0
 21
148.5
 31
0.0
  0
LINE
  5
77
330
48
100
AcDbEntity
  8
1
  6
Continuous
 62
     7
100
AcDbLine
 10
25.0
 20
148.5
 30
0.0
 11
25.0
 21
287.0000000000003
 31
0.0
  0
LINE
  5
78
330
48
100
AcDbEntity
  8
1
  6
Continuous
 62
     2
100
AcDbLine
 10
25.0
 20
148.5
 30
0.0
 11
20.0
 21
148.5
 31
0.0
  0
LINE
  5
79
330
48
100
AcDbEntity
  8
1
  6
Continuous
 62
     7
100
AcDbLine
 10
105.0
 20
287.0000000000003
 30
0.0
 11
25.0
 21
287.0000000000003
 31
0.0
  0
LINE
  5
7A
330
48
100
AcDbEntity
  8
1
  6
Continuous
 62
     2
100
AcDbLine
 10
105.0
 20
287.0000000000003
 30
0.0
 11
105.0
 21
292.0000000000003
 31
0.0
  0
LINE
  5
7B
330
48
100
AcDbEntity
  8
1
  6
Continuous
 62
     2
100
AcDbLine
 10
165.9999999999999
 20
20.0
 30
0.0
 11
200.0
 21
20.0
 31
0.0
  0
LINE
  5
7C
330
48
100
AcDbEntity
  8
1
  6
Continuous
 62
     2
100
AcDbLine
 10
98.0
 20
27.0
 30
0.0
 11
98.0
 21
10.0
 31
0.0
  0
LINE
  5
7D
330
48
100
AcDbEntity
  8
1
  6
Continuous
 62
     2
100
AcDbLine
 10
115.0
 20
27.0
 30
0.0
 11
115.0
 21
10.0
 31
0.0
  0
LINE
  5
7E
330
48
100
AcDbEntity
  8
1
  6
Continuous
 62
     2
100
AcDbLine
 10
148.9999999999999
 20
27.0
 30
0.0
 11
148.9999999999999
 21
10.0
 31
0.0
  0
LINE
  5
7F
330
48
100
AcDbEntity
  8
1
  6
Continuous
 62
     2
100
AcDbLine
 10
132.0
 20
27.0
 30
0.0
 11
132.0
 21
10.0
 31
0.0
  0
LINE
  5
80
330
48
100
AcDbEntity
  8
1
  6
Continuous
 62
     2
100
AcDbLine
 10
165.9999999999999
 20
27.0
 30
0.0
 11
165.9999999999999
 21
10.0
 31
0.0
  0
LINE
  5
81
330
48
100
AcDbEntity
  8
1
  6
Continuous
 62
     2
100
AcDbLine
 10
55.0
 20
277.0000000000003
 30
0.0
 11
25.0
 21
277.0000000000003
 31
0.0
  0
LINE
  5
82
330
48
100
AcDbEntity
  8
1
  6
Continuous
 62
     7
100
AcDbLine
 10
25.0
 20
10.0
 30
0.0
 11
25.0
 21
148.5
 31
0.0
  0
LINE
  5
83
330
48
100
AcDbEntity
  8
1
  6
Continuous
 62
     2
100
AcDbLine
 10
40.0
 20
287.0000000000003
 30
0.0
 11
40.0
 21
277.0000000000003
 31
0.0
  0
LINE
  5
84
330
48
100
AcDbEntity
  8
1
  6
Continuous
 62
     2
100
AcDbLine
 10
55.0
 20
287.0000000000003
 30
0.0
 11
55.0
 21
277.0000000000003
 31
0.0
  0
LINE
  5
85
330
48
100
AcDbEntity
  8
1
  6
Continuous
 62
     2
100
AcDbLine
 10
33.0
 20
40.99999999999999
 30
0.0
 11
33.0
 21
27.0
 31
0.0
  0
LINE
  5
86
330
48
100
AcDbEntity
  8
1
  6
Continuous
 62
     7
100
AcDbLine
 10
200.0
 20
27.0
 30
0.0
 11
25.0
 21
27.0
 31
0.0
  0
LINE
  5
87
330
48
100
AcDbEntity
  8
1
  6
Continuous
 62
     7
100
AcDbLine
 10
25.0
 20
40.99999999999999
 30
0.0
 11
200.0
 21
40.99999999999999
 31
0.0
  0
LINE
  5
88
330
48
100
AcDbEntity
  8
1
  6
PHANTOM
 62
     4
100
AcDbLine
 10
0.0
 20
0.0
 30
0.0
 11
210.0
 21
0.0
 31
0.0
  0
LINE
  5
89
330
48
100
AcDbEntity
  8
1
  6
PHANTOM
 62
     4
100
AcDbLine
 10
210.0
 20
0.0
 30
0.0
 11
210.0
 21
297.0
 31
0.0
  0
LINE
  5
8A
330
48
100
AcDbEntity
  8
1
  6
PHANTOM
 62
     4
100
AcDbLine
 10
210.0
 20
297.0
 30
0.0
 11
0.0
 21
297.0
 31
0.0
  0
LINE
  5
8B
330
48
100
AcDbEntity
  8
1
  6
PHANTOM
 62
     4
100
AcDbLine
 10
0.0
 20
297.0
 30
0.0
 11
0.0
 21
0.0
 31
0.0
  0
LINE
  5
8C
330
48
100
AcDbEntity
  8
1
  6
Continuous
 62
     7
100
AcDbLine
 10
25.0
 20
10.0
 30
0.0
 11
105.0
 21
10.0
 31
0.0
  0
LINE
  5
8D
330
48
100
AcDbEntity
  8
1
  6
Continuous
 62
     7
100
AcDbLine
 10
200.0
 20
10.0
 30
0.0
 11
200.0
 21
148.5
 31
0.0
  0
LINE
  5
8E
330
48
100
AcDbEntity
  8
1
  6
Continuous
 62
     7
100
AcDbLine
 10
200.0
 20
287.0000000000003
 30
0.0
 11
105.0
 21
287.0000000000003
 31
0.0
  0
LINE
  5
8F
330
48
100
AcDbEntity
  8
1
  6
Continuous
 62
     2
100
AcDbLine
 10
25.0
 20
18.5
 30
0.0
 11
81.0
 21
18.5
 31
0.0
  0
LINE
  5
90
330
48
100
AcDbEntity
  8
1
  6
Continuous
 62
     2
100
AcDbLine
 10
33.0
 20
27.0
 30
0.0
 11
33.0
 21
10.0
 31
0.0
  0
LINE
  5
91
330
48
100
AcDbEntity
  8
1
  6
Continuous
 62
     7
100
AcDbLine
 10
191.0
 20
24.69999999999999
 30
0.0
 11
191.0
 21
22.29999999999998
 31
0.0
  0
LINE
  5
92
330
48
100
AcDbEntity
  8
1
  6
Continuous
 62
     7
100
AcDbLine
 10
191.0
 20
24.69999999999999
 30
0.0
 11
196.0
 21
25.5
 31
0.0
  0
LINE
  5
93
330
48
100
AcDbEntity
  8
1
  6
Continuous
 62
     7
100
AcDbLine
 10
196.0
 20
25.5
 30
0.0
 11
196.0
 21
21.5
 31
0.0
  0
LINE
  5
94
330
48
100
AcDbEntity
  8
1
  6
Continuous
 62
     7
100
AcDbLine
 10
196.0
 20
21.5
 30
0.0
 11
191.0
 21
22.29999999999998
 31
0.0
  0
LINE
  5
95
330
48
100
AcDbEntity
  8
1
  6
DOT_CENTER
 62
     2
100
AcDbLine
 10
184.0
 20
23.5
 30
0.0
 11
197.0
 21
23.5
 31
0.0
  0
LINE
  5
96
330
48
100
AcDbEntity
  8
1
  6
DOT_CENTER
 62
     2
100
AcDbLine
 10
187.0
 20
26.5
 30
0.0
 11
187.0
 21
20.5
 31
0.0
  0
LINE
  5
97
330
48
100
AcDbEntity
  8
1
  6
Continuous
 62
     2
100
AcDbLine
 10
81.0
 20
27.0
 30
0.0
 11
81.0
 21
10.0
 31
0.0
  0
CIRCLE
  5
98
330
48
100
AcDbEntity
  8
1
  6
Continuous
 62
     7
100
AcDbCircle
 10
103.5
 20
12.5
 30
0.0
 40
0.2999999999999972
  0
CIRCLE
  5
99
330
48
100
AcDbEntity
  8
1
  6
Continuous
 62
     7
100
AcDbCircle
 10
109.5
 20
12.5
 30
0.0
 40
0.2999999999999972
  0
CIRCLE
  5
9A
330
48
100
AcDbEntity
  8
1
  6
Continuous
 62
     7
100
AcDbCircle
 10
120.5
 20
12.5
 30
0.0
 40
0.2999999999999972
  0
CIRCLE
  5
9B
330
48
100
AcDbEntity
  8
1
  6
Continuous
 62
     7
100
AcDbCircle
 10
126.5
 20
12.5
 30
0.0
 40
0.2999999999999972
  0
CIRCLE
  5
9C
330
48
100
AcDbEntity
  8
1
  6
Continuous
 62
     7
100
AcDbCircle
 10
137.5
 20
12.5
 30
0.0
 40
0.3000000000000114
  0
CIRCLE
  5
9D
330
48
100
AcDbEntity
  8
1
  6
Continuous
 62
     7
100
AcDbCircle
 10
143.5
 20
12.5
 30
0.0
 40
0.3000000000000114
  0
CIRCLE
  5
9E
330
48
100
AcDbEntity
  8
1
  6
Continuous
 62
     7
100
AcDbCircle
 10
160.4999999999999
 20
12.5
 30
0.0
 40
0.3000000000002103
  0
CIRCLE
  5
9F
330
48
100
AcDbEntity
  8
1
  6
Continuous
 62
     7
100
AcDbCircle
 10
154.4999999999999
 20
12.5
 30
0.0
 40
0.3000000000002103
  0
CIRCLE
  5
A0
330
48
100
AcDbEntity
  8
1
  6
Continuous
 62
     7
100
AcDbCircle
 10
187.0
 20
23.5
 30
0.0
 40
1.200000000000102
  0
CIRCLE
  5
A1
330
48
100
AcDbEntity
  8
1
  6
Continuous
 62
     7
100
AcDbCircle
 10
187.0
 20
23.5
 30
0.0
 40
2.0
  0
CIRCLE
  5
A2
330
48
100
AcDbEntity
  8
1
  6
DOT_CENTER
 62
     7
100
AcDbCircle
 10
89.5
 20
16.0
 30
0.0
 40
0.1000000000000227
  0
CIRCLE
  5
A3
330
48
100
AcDbEntity
  8
1
  6
DOT_CENTER
 62
     7
100
AcDbCircle
 10
89.5
 20
18.0
 30
0.0
 40
0.1000000000000227
  0
SPLINE
  5
A4
102
{ACAD_REACTORS
330
C3
102
}
330
48
100
AcDbEntity
  8
_U_30EC_U_30A4_U_30E4_U_30FC_1
  6
Continuous
 62
     2
100
AcDbSpline
210
0.0
220
0.0
230
1.0
 70
     8
 71
     3
 72
    24
 73
    20
 74
    18
 42
0.000000001
 43
0.0000000001
 44
0.00000001
 40
0.0
 40
0.0
 40
0.0
 40
0.0
 40
0.221107500875402
 40
0.4273218586245804
 40
0.5080174679239814
 40
0.5914835907870694
 40
0.8143265690193418
 40
1.054651302686656
 40
1.295452694023222
 40
1.518109231328823
 40
1.540864321905464
 40
1.595126460622721
 40
1.659890947896056
 40
1.714153085187438
 40
1.736908174961736
 40
1.764951100735471
 40
1.801562291221108
 40
1.953914424543821
 40
2.126104167379815
 40
2.126104167379815
 40
2.126104167379815
 40
2.126104167379815
 10
185.9375369556889
 20
15.5898929511302
 30
0.0
 10
185.9112579081812
 20
15.53097628234378
 30
0.0
 10
185.8604698894425
 20
15.41711139679259
 30
0.0
 10
185.8131784839111
 20
15.14441958233114
 30
0.0
 10
185.7043482802618
 20
15.24445482575453
 30
0.0
 10
185.5514800279637
 20
15.27118593367329
 30
0.0
 10
185.7686155181199
 20
15.48518135017633
 30
0.0
 10
185.7838483674381
 20
15.70332117782487
 30
0.0
 10
185.8906889492
 20
15.88451579066427
 30
0.0
 10
185.8305380947077
 20
16.1691322631139
 30
0.0
 10
185.9334317395402
 20
16.14114089222447
 30
0.0
 10
185.977993346815
 20
16.13243251602296
 30
0.0
 10
186.0380842395397
 20
16.12139654183355
 30
0.0
 10
186.0756619587439
 20
16.10767523055561
 30
0.0
 10
186.1252466928606
 20
16.10756076160225
 30
0.0
 10
186.0930158919326
 20
16.07306592398621
 30
0.0
 10
186.017180222188
 20
16.08404104537975
 30
0.0
 10
186.0429447159695
 20
15.89858969582451
 30
0.0
 10
186.005589676385
 20
15.80702313549592
 30
0.0
 10
185.985770496161
 20
15.75844135397711
 30
0.0
 11
185.9375369556889
 21
15.5898929511302
 31
0.0
 11
185.8616471328552
 21
15.38221708318562
 31
0.0
 11
185.7717402238433
 21
15.19663392356191
 31
0.0
 11
185.701149392311
 21
15.2357327256355
 31
0.0
 11
185.6245525192651
 21
15.26889163187718
 31
0.0
 11
185.7214026947455
 21
15.46958801203539
 31
0.0
 11
185.7994641467471
 21
15.69688163177025
 31
0.0
 11
185.858971692972
 21
15.93021436608691
 31
0.0
 11
185.9001601511226
 21
16.14902808999048
 31
0.0
 11
185.9224183822215
 21
16.1442988922139
 31
0.0
 11
185.975495702534
 21
16.13302157443896
 31
0.0
 11
186.0388460525845
 21
16.11956154999792
 31
0.0
 11
186.0919233728971
 21
16.10828423222299
 31
0.0
 11
186.1141816039959
 21
16.1035550344464
 31
0.0
 11
186.0964097157461
 21
16.08186250841009
 31
0.0
 11
186.0606122998071
 21
16.0741862844537
 31
0.0
 11
186.028195330148
 21
15.92532288171312
 31
0.0
 11
185.985770496161
 21
15.75844135397711
 31
0.0
  0
SPLINE
  5
A5
102
{ACAD_REACTORS
330
C3
102
}
330
48
100
AcDbEntity
  8
_U_30EC_U_30A4_U_30E4_U_30FC_1
  6
Continuous
 62
     2
100
AcDbSpline
210
0.0
220
0.0
230
1.0
 70
     8
 71
     3
 72
    70
 73
    66
 74
    64
 42
0.000000001
 43
0.0000000001
 44
0.00000001
 40
0.0
 40
0.0
 40
0.0
 40
0.0
 40
0.0241731073021472
 40
0.0846058988986729
 40
0.1631685280352999
 40
0.2417311571788903
 40
0.3021639488291898
 40
0.3263370654894688
 40
0.3533118254248011
 40
0.4228783438921205
 40
0.5179999095312425
 40
0.6216398239465072
 40
0.7167613891498604
 40
0.7863279069648726
 40
0.8133026791760664
 40
0.8372943998770503
 40
0.8945054261371701
 40
0.9627895541961762
 40
1.020000580349044
 40
1.043992300975142
 40
1.071934345522932
 40
1.113121768772866
 40
1.145225199332183
 40
1.225483775412704
 40
1.329819923771394
 40
1.434156071994263
 40
1.514414647795668
 40
1.546518078208271
 40
1.578974764260073
 40
1.662678849314011
 40
1.777131373668231
 40
1.901833377474622
 40
2.016285900500384
 40
2.099989982527723
 40
2.132446666570081
 40
2.158782354485823
 40
2.216720867907654
 40
2.274659381334118
 40
2.300995069256072
 40
2.333451754066044
 40
2.417155836543696
 40
2.531608358985136
 40
2.656310362283631
 40
2.770762886388735
 40
2.854466971339872
 40
2.886923657363678
 40
2.913597976833107
 40
2.982389642874896
 40
3.076451716946745
 40
3.178937260458339
 40
3.272999334739727
 40
3.341791001058937
 40
3.368465320663243
 40
3.396976080738492
 40
3.4721408118457
 40
3.57840819030839
 40
3.700226892455854
 40
3.822045594634071
 40
3.928312973256178
 40
4.003477705314576
 40
4.031988456866642
 40
4.058324144797447
 40
4.116262658236626
 40
4.174201171400443
 40
4.200536849608382
 40
4.200536849608382
 40
4.200536849608382
 40
4.200536849608382
 10
185.985770496161
 20
15.75844135397711
 30
0.0
 10
185.993825954468
 20
15.75844359811693
 30
0.0
 10
186.0220200663241
 20
15.75845146032804
 30
0.0
 10
186.0765534803674
 20
15.75830754828377
 30
0.0
 10
186.1482891808604
 20
15.75909120499904
 30
0.0
 10
186.2236240137062
 20
15.75627570463817
 30
0.0
 10
186.2713052366439
 20
15.76298403400963
 30
0.0
 10
186.3195071245616
 20
15.75197563692439
 30
0.0
 10
186.3062571799873
 20
15.80546402997039
 30
0.0
 10
186.3151093964538
 20
15.86049583543097
 30
0.0
 10
186.3108698036285
 20
15.95419908726114
 30
0.0
 10
186.313348348128
 20
16.04959482218536
 30
0.0
 10
186.3090938706059
 20
16.14356821983391
 30
0.0
 10
186.3179818665847
 20
16.19795062438015
 30
0.0
 10
186.3046977409945
 20
16.25233997691463
 30
0.0
 10
186.3514119277109
 20
16.2384221633536
 30
0.0
 10
186.3943254545736
 20
16.24103877374045
 30
0.0
 10
186.4605443456686
 20
16.23648422450755
 30
0.0
 10
186.5013342271798
 20
16.22778162134162
 30
0.0
 10
186.552514569082
 20
16.23531799890194
 30
0.0
 10
186.5253720487201
 20
16.19349970223289
 30
0.0
 10
186.4803096055708
 20
16.2028499207259
 30
0.0
 10
186.4942065045051
 20
16.13841207371837
 30
0.0
 10
186.4858414431655
 20
16.07378219627399
 30
0.0
 10
186.4903632178399
 20
15.97529141193889
 30
0.0
 10
186.4854741311169
 20
15.87595932842574
 30
0.0
 10
186.4950258992081
 20
15.81293115552973
 30
0.0
 10
186.4799761455201
 20
15.74964011499793
 30
0.0
 10
186.5449159457209
 20
15.76515072944275
 30
0.0
 10
186.6116246399498
 20
15.75499387697819
 30
0.0
 10
186.7241435470828
 20
15.75988800099373
 30
0.0
 10
186.8390235448954
 20
15.7569120473279
 30
0.0
 10
186.9519871999746
 20
15.76221664184996
 30
0.0
 10
187.0176267597678
 20
15.75107306472096
 30
0.0
 10
187.0816276691053
 20
15.76744532319863
 30
0.0
 10
187.0703142889189
 20
15.71761689905278
 30
0.0
 10
187.077533987151
 20
15.67416715212123
 30
0.0
 10
187.0703142611269
 20
15.63071745587442
 30
0.0
 10
187.0816277175994
 20
15.58088895196871
 30
0.0
 10
187.0176263598971
 20
15.59726166091355
 30
0.0
 10
186.951992124046
 20
15.58611271661582
 30
0.0
 10
186.8389974317331
 20
15.59144857206848
 30
0.0
 10
186.7242456548643
 20
15.58834345663815
 30
0.0
 10
186.6113183686861
 20
15.59364894682583
 30
0.0
 10
186.5455220903585
 20
15.58257300019587
 30
0.0
 10
186.4816097975359
 20
15.59887597847612
 30
0.0
 10
186.4936015165127
 20
15.54423524395737
 30
0.0
 10
186.4862104613006
 20
15.48854295047838
 30
0.0
 10
186.4892684841984
 20
15.39649689140568
 30
0.0
 10
186.4893422785684
 20
15.301791098731
 30
0.0
 10
186.486031357836
 20
15.20952782902266
 30
0.0
 10
186.4939505989904
 20
15.15435768736141
 30
0.0
 10
186.4815076611619
 20
15.10058169100138
 30
0.0
 10
186.5389116551632
 20
15.11453768862784
 30
0.0
 10
186.5994708140384
 20
15.1051145788423
 30
0.0
 10
186.7048680855082
 20
15.10942885928708
 30
0.0
 10
186.8204294070624
 20
15.10835504612034
 30
0.0
 10
186.9359688877798
 20
15.10725965900997
 30
0.0
 10
187.0414181130842
 20
15.11162525770635
 30
0.0
 10
187.1018680471805
 20
15.10209426030674
 30
0.0
 10
187.1592837739111
 20
15.11617289606382
 30
0.0
 10
187.1477773876711
 20
15.06707153265684
 30
0.0
 10
187.1537566781749
 20
15.02564658018649
 30
0.0
 10
187.1520311050804
 20
14.97651677966694
 30
0.0
 10
187.1521500122972
 20
14.94854428447606
 30
0.0
 10
187.1521871691834
 20
14.93980288195948
 30
0.0
 11
185.985770496161
 21
15.75844135397711
 31
0.0
 11
186.0099436128282
 21
15.75844135397711
 31
0.0
 11
186.0703764044963
 21
15.75844135397711
 31
0.0
 11
186.1489390336649
 21
15.75844135397711
 31
0.0
 11
186.2275016628334
 21
15.75844135397711
 31
0.0
 11
186.2879344545015
 21
15.75844135397711
 31
0.0
 11
186.3121075711687
 21
15.75844135397711
 31
0.0
 11
186.3121075711687
 21
15.78541612620069
 31
0.0
 11
186.3121075711687
 21
15.85498264404044
 31
0.0
 11
186.3121075711687
 21
15.9501042092499
 31
0.0
 11
186.3121075711687
 21
16.0537441235826
 31
0.0
 11
186.3121075711687
 21
16.14886568879206
 31
0.0
 11
186.3121075711687
 21
16.21843220663181
 31
0.0
 11
186.3121075711687
 21
16.24540697885539
 31
0.0
 11
186.3360407604892
 21
16.24373213107803
 31
0.0
 11
186.3931122119458
 21
16.23973826330123
 31
0.0
 11
186.4612297507811
 21
16.23497138885796
 31
0.0
 11
186.5183012022377
 21
16.23097752108117
 31
0.0
 11
186.5422343915582
 21
16.22930267330381
 31
0.0
 11
186.5274972731229
 21
16.20556293372638
 31
0.0
 11
186.4886640249977
 21
16.1918376733131
 31
0.0
 11
186.4886640249977
 21
16.15973424225117
 31
0.0
 11
186.4886640249977
 21
16.07947566459636
 31
0.0
 11
186.4886640249977
 21
15.9751395136451
 31
0.0
 11
186.4886640249977
 21
15.87080336269385
 31
0.0
 11
186.4886640249977
 21
15.79054478503904
 31
0.0
 11
186.4886640249977
 21
15.75844135397711
 31
0.0
 11
186.5211207110825
 21
15.75844135397711
 31
0.0
 11
186.6048247962486
 21
15.75844135397711
 31
0.0
 11
186.7192773208635
 21
15.75844135397711
 31
0.0
 11
186.8439793252946
 21
15.75844135397711
 31
0.0
 11
186.9584318499095
 21
15.75844135397711
 31
0.0
 11
187.0421359350756
 21
15.75844135397711
 31
0.0
 11
187.0745926211604
 21
15.75844135397711
 31
0.0
 11
187.0745926211604
 21
15.73210566604965
 31
0.0
 11
187.0745926211604
 21
15.67416715260924
 31
0.0
 11
187.0745926211604
 21
15.61622863916884
 31
0.0
 11
187.0745926211604
 21
15.58989295124138
 31
0.0
 11
187.0421359350756
 21
15.58989295124138
 31
0.0
 11
186.9584318499095
 21
15.58989295124138
 31
0.0
 11
186.8439793252946
 21
15.58989295124138
 31
0.0
 11
186.7192773208635
 21
15.58989295124138
 31
0.0
 11
186.6048247962486
 21
15.58989295124138
 31
0.0
 11
186.5211207110825
 21
15.58989295124138
 31
0.0
 11
186.4886640249977
 21
15.58989295124138
 31
0.0
 11
186.4886640249977
 21
15.56321863152016
 31
0.0
 11
186.4886640249977
 21
15.49442696487071
 31
0.0
 11
186.4886640249977
 21
15.40036489006431
 31
0.0
 11
186.4886640249977
 21
15.29787934587227
 31
0.0
 11
186.4886640249977
 21
15.20381727106587
 31
0.0
 11
186.4886640249977
 21
15.13502560441641
 31
0.0
 11
186.4886640249977
 21
15.1083512846952
 31
0.0
 11
186.5171747850994
 21
15.1083512846952
 31
0.0
 11
186.5923395162767
 21
15.1083512846952
 31
0.0
 11
186.6986068948377
 21
15.1083512846952
 31
0.0
 11
186.8204255970905
 21
15.1083512846952
 31
0.0
 11
186.9422442993434
 21
15.1083512846952
 31
0.0
 11
187.0485116779044
 21
15.1083512846952
 31
0.0
 11
187.1236764090817
 21
15.1083512846952
 31
0.0
 11
187.1521871691834
 21
15.1083512846952
 31
0.0
 11
187.1521871691834
 21
15.08201559676774
 31
0.0
 11
187.1521871691834
 21
15.02407708332734
 31
0.0
 11
187.1521871691834
 21
14.96613856988693
 31
0.0
 11
187.1521871691834
 21
14.93980288195948
 31
0.0
  0
SPLINE
  5
A6
102
{ACAD_REACTORS
330
C3
102
}
330
48
100
AcDbEntity
  8
_U_30EC_U_30A4_U_30E4_U_30FC_1
  6
Continuous
 62
     2
100
AcDbSpline
210
0.0
220
0.0
230
1.0
 70
     8
 71
     3
 72
    62
 73
    58
 74
    56
 42
0.000000001
 43
0.0000000001
 44
0.00000001
 40
0.0
 40
0.0
 40
0.0
 40
0.0
 40
0.0598250028308769
 40
0.20248464868979
 40
0.3727558389221599
 40
0.5154154847936923
 40
0.5752404975786476
 40
0.93323267754884
 40
1.290451762839582
 40
1.602077253145946
 40
1.699931634112208
 40
1.799359756425151
 40
2.270120149657214
 40
2.804661928461611
 40
2.882342287383324
 40
3.07654318571918
 40
3.329004354835646
 40
3.581465524568479
 40
3.775666424543765
 40
3.853346784558386
 40
3.899120679595161
 40
3.984129341792187
 40
4.029903236817564
 40
4.105797496059717
 40
4.295533144152676
 40
4.542189486611916
 40
4.788845828875864
 40
4.978581476410245
 40
5.054475735244488
 40
5.62173466433948
 40
6.130867242037505
 40
6.225249780948737
 40
6.318913039727451
 40
6.663579954559093
 40
7.047498900224952
 40
7.435230791575855
 40
7.498943906668267
 40
7.650875181210261
 40
7.832212509001772
 40
7.984143783697157
 40
8.047856898903284
 40
8.091554632732803
 40
8.172707566964485
 40
8.21640530076822
 40
8.289021782161104
 40
8.462184160757477
 40
8.668861838005558
 40
8.84202421526415
 40
8.914640695475345
 40
8.989881580861537
 40
9.155411528827413
 40
9.320941477744165
 40
9.396182352487404
 40
9.454709011143951
 40
9.583467660170886
 40
9.712226309013165
 40
9.770752957989618
 40
9.770752957989618
 40
9.770752957989618
 40
9.770752957989618
 10
187.1521871691834
 20
14.93980288195948
 30
0.0
 10
187.1322348171624
 20
14.93980875568669
 30
0.0
 10
187.0647037716466
 20
14.93982863806155
 30
0.0
 10
186.9410612161789
 20
14.93949362520324
 30
0.0
 10
186.7863180150056
 20
14.9410767375051
 30
0.0
 10
186.669734948248
 20
14.93686078860493
 30
0.0
 10
186.455094263424
 20
14.95215205331625
 30
0.0
 10
186.8518948407228
 20
14.59198721286193
 30
0.0
 10
186.8945656069268
 20
14.37510503397166
 30
0.0
 10
187.318916214661
 20
14.19325062511453
 30
0.0
 10
187.1439821496075
 20
14.08985196568069
 30
0.0
 10
187.0194523925083
 20
13.87831523212724
 30
0.0
 10
186.7666277235944
 20
14.34806081001557
 30
0.0
 10
186.4797602893626
 20
14.99511516984519
 30
0.0
 10
186.4906335926662
 20
14.68782672154693
 30
0.0
 10
186.488289277796
 20
14.52288616971777
 30
0.0
 10
186.4861096126411
 20
14.28879670711691
 30
0.0
 10
186.4980774396348
 20
14.04498072421781
 30
0.0
 10
186.4687984740631
 20
13.89855796860981
 30
0.0
 10
186.511452262547
 20
13.75113490174534
 30
0.0
 10
186.423981400564
 20
13.76685797306217
 30
0.0
 10
186.3768527606745
 20
13.76694303543452
 30
0.0
 10
186.2898973207712
 20
13.75109425482905
 30
0.0
 10
186.3313474021722
 20
13.89527771422759
 30
0.0
 10
186.3029875004286
 20
14.03855052698452
 30
0.0
 10
186.31459737753
 20
14.27674947365261
 30
0.0
 10
186.3124175648272
 20
14.50517235240343
 30
0.0
 10
186.3103111127993
 20
14.66705729375991
 30
0.0
 10
186.3208035438323
 20
14.98153709333747
 30
0.0
 10
186.0128963252894
 20
14.29229470872435
 30
0.0
 10
185.7055258267454
 20
13.8147675024304
 30
0.0
 10
185.5851367066275
 20
14.03741112637431
 30
0.0
 10
185.4074607910721
 20
14.15011034955556
 30
0.0
 10
185.8853326362894
 20
14.32548143465467
 30
0.0
 10
185.9353959057208
 20
14.56091929252027
 30
0.0
 10
186.3583799621717
 20
14.95322989344605
 30
0.0
 10
186.127675427354
 20
14.93655307029064
 30
0.0
 10
186.0049685859341
 20
14.94269518948768
 30
0.0
 10
185.8325483095662
 20
14.93312822699572
 30
0.0
 10
185.7213224694448
 20
14.95448818489663
 30
0.0
 10
185.6025779627448
 20
14.92136265357418
 30
0.0
 10
185.6183169706685
 20
15.00203900606883
 30
0.0
 10
185.6178550933762
 20
15.04645414290855
 30
0.0
 10
185.6027881889931
 20
15.12967081778536
 30
0.0
 10
185.7372380935444
 20
15.09062651983886
 30
0.0
 10
185.8619755545746
 20
15.11739729328424
 30
0.0
 10
186.062875523728
 20
15.10063949044055
 30
0.0
 10
186.1921540949352
 20
15.12204225913006
 30
0.0
 10
186.3328419928295
 20
15.08868778853424
 30
0.0
 10
186.2980927452614
 20
15.22651875785068
 30
0.0
 10
186.3222185666713
 20
15.34963257349479
 30
0.0
 10
186.2967086182391
 20
15.47024055670331
 30
0.0
 10
186.3333251146685
 20
15.60539865141489
 30
0.0
 10
186.2211417027769
 20
15.58094545781885
 30
0.0
 10
186.1280356457137
 20
15.59307749842017
 30
0.0
 10
186.0191547579819
 20
15.58957630069986
 30
0.0
 10
185.9569697640964
 20
15.58981755951597
 30
0.0
 10
185.9375369557246
 20
15.58989295124138
 30
0.0
 11
187.1521871691834
 21
14.93980288195948
 31
0.0
 11
187.0923621563983
 21
14.93980288195948
 31
0.0
 11
186.949702510526
 21
14.93980288195948
 31
0.0
 11
186.7794313202914
 21
14.93980288195948
 31
0.0
 11
186.6367716744192
 21
14.93980288195948
 31
0.0
 11
186.576946661634
 21
14.93980288195948
 31
0.0
 11
186.7679960754843
 21
14.6370512796689
 31
0.0
 11
186.994127278563
 21
14.36051890576685
 31
0.0
 11
187.2244526173371
 21
14.1506125349346
 31
0.0
 11
187.1521596330704
 21
14.08466403668715
 31
0.0
 11
187.0879364402643
 21
14.00876059052558
 31
0.0
 11
186.7732818215558
 21
14.35891458349364
 31
0.0
 11
186.4886640249977
 21
14.811382951436
 31
0.0
 11
186.4886640249977
 21
14.73370259137312
 31
0.0
 11
186.4886640249977
 21
14.53950169121591
 31
0.0
 11
186.4886640249977
 21
14.28704052101154
 31
0.0
 11
186.4886640249977
 21
14.03457935080718
 31
0.0
 11
186.4886640249977
 21
13.84037845064997
 31
0.0
 11
186.4886640249977
 21
13.76269809058709
 31
0.0
 11
186.4428901295606
 21
13.76269809058709
 31
0.0
 11
186.3578814666058
 21
13.76269809058709
 31
0.0
 11
186.3121075711687
 21
13.76269809058709
 31
0.0
 11
186.3121075711687
 21
13.83859234982737
 31
0.0
 11
186.3121075711687
 21
14.02832799792808
 31
0.0
 11
186.3121075711687
 21
14.274984340459
 31
0.0
 11
186.3121075711687
 21
14.52164068298992
 31
0.0
 11
186.3121075711687
 21
14.71137633109063
 31
0.0
 11
186.3121075711687
 21
14.78727059033091
 31
0.0
 11
185.9987626399267
 21
14.3144094619769
 31
0.0
 11
185.6352328662148
 21
13.9579517710938
 31
0.0
 11
185.5773927461628
 21
14.03253450545023
 31
0.0
 11
185.5094852305341
 21
14.0970432293924
 31
0.0
 11
185.7750721898319
 21
14.3167221979589
 31
0.0
 11
186.0233764972061
 21
14.60953395971697
 31
0.0
 11
186.226498280526
 21
14.93980288195948
 31
0.0
 11
186.1627851652721
 21
14.93980288195948
 31
0.0
 11
186.0108538904359
 21
14.93980288195948
 31
0.0
 11
185.8295165624055
 21
14.93980288195948
 31
0.0
 11
185.6775852875693
 21
14.93980288195948
 31
0.0
 11
185.6138721723154
 21
14.93980288195948
 31
0.0
 11
185.6138721723154
 21
14.98350061600208
 31
0.0
 11
185.6138721723154
 21
15.06465355065261
 31
0.0
 11
185.6138721723154
 21
15.1083512846952
 31
0.0
 11
185.6864886537961
 21
15.1083512846952
 31
0.0
 11
185.8596510327118
 21
15.1083512846952
 31
0.0
 11
186.0663287107723
 21
15.1083512846952
 31
0.0
 11
186.239491089688
 21
15.1083512846952
 31
0.0
 11
186.3121075711687
 21
15.1083512846952
 31
0.0
 11
186.3121075711687
 21
15.18359217009304
 31
0.0
 11
186.3121075711687
 21
15.34912211796829
 31
0.0
 11
186.3121075711687
 21
15.51465206584354
 31
0.0
 11
186.3121075711687
 21
15.58989295124138
 31
0.0
 11
186.2535809125055
 21
15.58989295124138
 31
0.0
 11
186.1248222634467
 21
15.58989295124138
 31
0.0
 11
185.9960636143877
 21
15.58989295124138
 31
0.0
 11
185.9375369557246
 21
15.58989295124138
 31
0.0
  0
SPLINE
  5
A7
102
{ACAD_REACTORS
330
C4
102
}
330
48
100
AcDbEntity
  8
_U_30EC_U_30A4_U_30E4_U_30FC_1
  6
Continuous
 62
     2
100
AcDbSpline
210
0.0
220
0.0
230
1.0
 70
    11
 71
     3
 72
   124
 73
   120
 74
   118
 42
0.000000001
 43
0.0000000001
 44
0.00000001
 40
0.0
 40
0.0
 40
0.0
 40
0.0
 40
0.027818722962451
 40
0.1011590162384269
 40
0.2048470170590523
 40
0.3237088716559245
 40
0.4425707262522284
 40
0.5462587270700116
 40
0.6195990203312934
 40
0.6474177522579513
 40
0.6750060736116095
 40
0.7357003855243611
 40
0.7963946998055327
 40
0.8239830245572619
 40
0.8540933811103997
 40
0.9373396629410109
 40
1.063094687343349
 40
1.220731268638215
 40
1.39962222091489
 40
1.589140358637931
 40
1.778658496424069
 40
1.957549448940736
 40
2.115186030873386
 40
2.240941056914719
 40
2.324187341760816
 40
2.354297700109666
 40
2.381886024672174
 40
2.442580338710759
 40
2.503274652750782
 40
2.53086297731489
 40
2.560983949278843
 40
2.640393784453217
 40
2.752662861759441
 40
2.881361560118486
 40
3.010060258455533
 40
3.122329335705708
 40
3.20173917081835
 40
3.231860142753711
 40
3.264298024030768
 40
3.352343701778635
 40
3.482095226869158
 40
3.639650650173416
 40
3.811108022565871
 40
3.982565394928376
 40
4.140120818152956
 40
4.269872343141665
 40
4.357918020802726
 40
4.390355902044353
 40
4.423256253992922
 40
4.508104530073443
 40
4.624121560637211
 40
4.750528176031968
 40
4.866545206602415
 40
4.951393482692372
 40
4.984293834645773
 40
5.011450833242685
 40
5.071196230152464
 40
5.130941627057534
 40
5.158098625649196
 40
5.190998977601887
 40
5.275847253689713
 40
5.391864284257147
 40
5.518270899648692
 40
5.634287930209731
 40
5.719136206288405
 40
5.752036558236292
 40
5.78213094628332
 40
5.862783906229496
 40
5.97955013177537
 40
6.11798431664078
 40
6.26364115458833
 40
6.402075339414544
 40
6.518841564908347
 40
6.599494524815932
 40
6.62958891284917
 40
6.654403028226747
 40
6.713575149488542
 40
6.784199939329917
 40
6.84337206049402
 40
6.868186175803266
 40
6.896246243202337
 40
6.939586233758802
 40
6.96784656456543
 40
7.043584251090368
 40
7.153234334452221
 40
7.283231855734969
 40
7.420011856035999
 40
7.550009376580346
 40
7.659659458835747
 40
7.735397144417736
 40
7.763657474851908
 40
7.796409728011565
 40
7.88087606509684
 40
7.996370852466225
 40
8.12220844641912
 40
8.237703224799715
 40
8.322169562011409
 40
8.354921815206422
 40
8.3820788133082
 40
8.4418242092075
 40
8.501569605240642
 40
8.528726603486218
 40
8.561478856696267
 40
8.645945193878317
 40
8.761439980865829
 40
8.887277580764971
 40
9.002772362001492
 40
9.087238696661712
 40
9.119990949236167
 40
9.152428830613866
 40
9.24047450863908
 40
9.37022603415003
 40
9.527781457984911
 40
9.699238830981898
 40
9.870696203979085
 40
10.02825162781451
 40
10.15800315332612
 40
10.24604883135167
 40
10.2784867037857
 40
10.2784867037857
 40
10.2784867037857
 40
10.2784867037857
 10
195.3821827564383
 20
14.01410517385759
 30
0.0
 10
195.3914554737523
 20
14.01410498511276
 30
0.0
 10
195.425174453686
 20
14.01410430876716
 30
0.0
 10
195.4934706812465
 20
14.01411807243307
 30
0.0
 10
195.592014171158
 20
14.01403224219547
 30
0.0
 10
195.7062066464812
 20
14.01441755612252
 30
0.0
 10
195.8185894417071
 20
14.01300835897547
 30
0.0
 10
195.9214376600119
 20
14.01719117422245
 30
0.0
 10
195.980683987485
 20
14.00823089251985
 30
0.0
 10
196.0371265937034
 20
14.02164434526062
 30
0.0
 10
196.0246255586955
 20
13.97087198613363
 30
0.0
 10
196.0329549635705
 20
13.92589320939069
 30
0.0
 10
196.0248170841119
 20
13.8805675299049
 30
0.0
 10
196.0370529214458
 20
13.82931932408467
 30
0.0
 10
195.9747773490334
 20
13.84447955365278
 30
0.0
 10
195.9060513026869
 20
13.83359750710744
 30
0.0
 10
195.7782756749591
 20
13.83911304747974
 30
0.0
 10
195.6262984511644
 20
13.837008512537
 30
0.0
 10
195.4502695972522
 20
13.83771002588476
 30
0.0
 10
195.2644431934287
 20
13.83745237531293
 30
0.0
 10
195.0786167437175
 20
13.83771005144606
 30
0.0
 10
194.9025880142167
 20
13.83700841847732
 30
0.0
 10
194.7506104154193
 20
13.83911332229991
 30
0.0
 10
194.6228357664553
 20
13.83359680767642
 30
0.0
 10
194.554107783658
 20
13.84448077125944
 30
0.0
 10
194.4918349042881
 20
13.82931786684211
 30
0.0
 10
194.5040616290017
 20
13.88057510805174
 30
0.0
 10
194.4960004462595
 20
13.92582473272427
 30
0.0
 10
194.5040675809892
 20
13.97106357955325
 30
0.0
 10
194.4918238487082
 20
14.0223417690996
 30
0.0
 10
194.5525017120696
 20
14.00749577363136
 30
0.0
 10
194.6162810745735
 20
14.01756448170737
 30
0.0
 10
194.7277314353502
 20
14.01294644212001
 30
0.0
 10
194.8497533443823
 20
14.0141332890547
 30
0.0
 10
194.9719538137823
 20
14.01515863900637
 30
0.0
 10
195.0829794287392
 20
14.01092475623404
 30
0.0
 10
195.1476517413958
 20
14.02018584521741
 30
0.0
 10
195.2091162810501
 20
14.00604423049684
 30
0.0
 10
195.1930065601337
 20
14.07235527884519
 30
0.0
 10
195.2042980327358
 20
14.14447790121978
 30
0.0
 10
195.1987400822561
 20
14.27513760888287
 30
0.0
 10
195.200803506169
 20
14.42607323708243
 30
0.0
 10
195.2000167127295
 20
14.59335873107887
 30
0.0
 10
195.2007845215628
 20
14.76061110332304
 30
0.0
 10
195.1988038785628
 20
14.91163289269915
 30
0.0
 10
195.204130615662
 20
15.04206069552995
 30
0.0
 10
195.1933101388425
 20
15.114654426059
 30
0.0
 10
195.2090326429875
 20
15.18150469436799
 30
0.0
 10
195.143270813249
 20
15.16580512490825
 30
0.0
 10
195.0756367830763
 20
15.17609243083996
 30
0.0
 10
194.9615885293809
 20
15.17113786847123
 30
0.0
 10
194.8451242674902
 20
15.17414128030475
 30
0.0
 10
194.7306554121477
 20
15.16880303143389
 30
0.0
 10
194.6640324657812
 20
15.18001268074826
 30
0.0
 10
194.5990769715186
 20
15.16349132665012
 30
0.0
 10
194.6107989758707
 20
15.21473720477059
 30
0.0
 10
194.6032830189122
 20
15.25950333784091
 30
0.0
 10
194.6107989878835
 20
15.3042694489796
 30
0.0
 10
194.5990769505347
 20
15.3555153612974
 30
0.0
 10
194.66403263392
 20
15.33899381766814
 30
0.0
 10
194.7306533339822
 20
15.35020571373943
 30
0.0
 10
194.8451352858063
 20
15.34485436710663
 30
0.0
 10
194.9615454436962
 20
15.34791188771116
 30
0.0
 10
195.0757660174641
 20
15.34278499010707
 30
0.0
 10
195.1430150439226
 20
15.35345733355597
 30
0.0
 10
195.2083325941438
 20
15.33742082669076
 30
0.0
 10
195.1941391448552
 20
15.39949685750052
 30
0.0
 10
195.2036059462994
 20
15.46586761628762
 30
0.0
 10
195.1990269004085
 20
15.58239972741966
 30
0.0
 10
195.2007696555948
 20
15.71426685022376
 30
0.0
 10
195.1997551495392
 20
15.85615960150274
 30
0.0
 10
195.2017191344372
 20
15.98769050702581
 30
0.0
 10
195.1964668553851
 20
16.10524577283005
 30
0.0
 10
195.2073408763474
 20
16.16947789001586
 30
0.0
 10
195.1919536641853
 20
16.2310880254505
 30
0.0
 10
195.2407591537801
 20
16.21702407382113
 30
0.0
 10
195.2853995564725
 20
16.21954742075315
 30
0.0
 10
195.3538643946743
 20
16.2151279740171
 30
0.0
 10
195.3959106169103
 20
16.20613025544036
 30
0.0
 10
195.4487544758776
 20
16.21411714866508
 30
0.0
 10
195.4207035002013
 20
16.17113917611675
 30
0.0
 10
195.3749142248595
 20
16.18259552043835
 30
0.0
 10
195.3869539073264
 20
16.12173520005135
 30
0.0
 10
195.3796086070641
 20
16.0576929946877
 30
0.0
 10
195.3831195826161
 20
15.94909368863908
 30
0.0
 10
195.3819806760173
 20
15.82494319144751
 30
0.0
 10
195.3819174780262
 20
15.69189719829876
 30
0.0
 10
195.3832872966868
 20
15.56797381249554
 30
0.0
 10
195.3791638801313
 20
15.45868337849337
 30
0.0
 10
195.3877763103564
 20
15.39608580094168
 30
0.0
 10
195.3746757454402
 20
15.33740133296364
 30
0.0
 10
195.4393884328198
 20
15.35362113810901
 30
0.0
 10
195.5060405953156
 20
15.34270260383311
 30
0.0
 10
195.6198779541103
 20
15.34793740173755
 30
0.0
 10
195.7357259122097
 20
15.34485547516912
 30
0.0
 10
195.849692426328
 20
15.35018259812512
 30
0.0
 10
195.9160341018099
 20
15.33904208166541
 30
0.0
 10
195.980718852548
 20
15.35546979593177
 30
0.0
 10
195.9689820772722
 20
15.30425925210049
 30
0.0
 10
195.9765168063041
 20
15.25950334121001
 30
0.0
 10
195.9689820992257
 20
15.21474739010027
 30
0.0
 10
195.9807188140736
 20
15.16353690871041
 30
0.0
 10
195.9160344075252
 20
15.1799642779422
 30
0.0
 10
195.8496886430824
 20
15.1688278444727
 30
0.0
 10
195.7357459487012
 20
15.17413115893121
 30
0.0
 10
195.6197995623054
 20
15.17114764593544
 30
0.0
 10
195.5062756882122
 20
15.17606892268395
 30
0.0
 10
195.4389231318804
 20
15.1658508751352
 30
0.0
 10
195.3734285122495
 20
15.18145996138817
 30
0.0
 10
195.3891713619218
 20
15.11463851827412
 30
0.0
 10
195.3783275998213
 20
15.0420705781588
 30
0.0
 10
195.3836581629792
 20
14.91162247614417
 30
0.0
 10
195.3817136151855
 20
14.76064558185227
 30
0.0
 10
195.3823133683214
 20
14.5932224393416
 30
0.0
 10
195.3821506559604
 20
14.42656176118373
 30
0.0
 10
195.3821895488136
 20
14.27360142921638
 30
0.0
 10
195.38218164131
 20
14.14849178985707
 30
0.0
 10
195.3821828382744
 20
14.06507890991422
 30
0.0
 10
195.3821827716208
 20
14.02491778281978
 30
0.0
 10
195.3821827564383
 20
14.01410517385759
 30
0.0
 11
195.3821827564383
 21
14.01410517385759
 31
0.0
 11
195.4100014883675
 21
14.01410517385759
 31
0.0
 11
195.4833417816353
 21
14.01410517385759
 31
0.0
 11
195.5870297824623
 21
14.01410517385759
 31
0.0
 11
195.7058916370687
 21
14.01410517385759
 31
0.0
 11
195.8247534916752
 21
14.01410517385759
 31
0.0
 11
195.9284414925021
 21
14.01410517385759
 31
0.0
 11
196.0017817857699
 21
14.01410517385759
 31
0.0
 11
196.0296005176991
 21
14.01410517385759
 31
0.0
 11
196.0296005176991
 21
13.98651684921171
 31
0.0
 11
196.0296005176991
 21
13.92582253499079
 31
0.0
 11
196.0296005176991
 21
13.86512822076986
 31
0.0
 11
196.0296005176991
 21
13.83753989612399
 31
0.0
 11
195.9994901593494
 21
13.83753989612399
 31
0.0
 11
195.9162438745005
 21
13.83753989612399
 31
0.0
 11
195.7904888484522
 21
13.83753989612399
 31
0.0
 11
195.6328522665042
 21
13.83753989612399
 31
0.0
 11
195.4539613139565
 21
13.83753989612399
 31
0.0
 11
195.2644431761088
 21
13.83753989612399
 31
0.0
 11
195.0749250382613
 21
13.83753989612399
 31
0.0
 11
194.8960340857136
 21
13.83753989612399
 31
0.0
 11
194.7383975037656
 21
13.83753989612399
 31
0.0
 11
194.6126424777171
 21
13.83753989612399
 31
0.0
 11
194.5293961928682
 21
13.83753989612399
 31
0.0
 11
194.4992858345186
 21
13.83753989612399
 31
0.0
 11
194.4992858345186
 21
13.86512822076987
 31
0.0
 11
194.4992858345186
 21
13.92582253499079
 31
0.0
 11
194.4992858345186
 21
13.98651684921171
 31
0.0
 11
194.4992858345186
 21
14.01410517385759
 31
0.0
 11
194.5294068064946
 21
14.01410517385759
 31
0.0
 11
194.6088166417039
 21
14.01410517385759
 31
0.0
 11
194.7210857190689
 21
14.01410517385759
 31
0.0
 11
194.8497844175117
 21
14.01410517385759
 31
0.0
 11
194.9784831159545
 21
14.01410517385759
 31
0.0
 11
195.0907521933194
 21
14.01410517385759
 31
0.0
 11
195.1701620285289
 21
14.01410517385759
 31
0.0
 11
195.2002830005048
 21
14.01410517385759
 31
0.0
 11
195.2002830005048
 21
14.04654305523837
 31
0.0
 11
195.2002830005048
 21
14.13458873327192
 31
0.0
 11
195.2002830005048
 21
14.26434025879504
 31
0.0
 11
195.2002830005048
 21
14.42189568264455
 31
0.0
 11
195.2002830005048
 21
14.59335305565725
 31
0.0
 11
195.2002830005048
 21
14.76481042866995
 31
0.0
 11
195.2002830005048
 21
14.92236585251946
 31
0.0
 11
195.2002830005048
 21
15.05211737804258
 31
0.0
 11
195.2002830005048
 21
15.14016305607613
 31
0.0
 11
195.2002830005048
 21
15.17260093745691
 31
0.0
 11
195.1673826485529
 21
15.17260093745691
 31
0.0
 11
195.0825343724662
 21
15.17260093745691
 31
0.0
 11
194.9665173418988
 21
15.17260093745691
 31
0.0
 11
194.8401107265044
 21
15.17260093745691
 31
0.0
 11
194.724093695937
 21
15.17260093745691
 31
0.0
 11
194.6392454198503
 21
15.17260093745691
 31
0.0
 11
194.6063450678984
 21
15.17260093745691
 31
0.0
 11
194.6063450678984
 21
15.19975793614803
 31
0.0
 11
194.6063450678984
 21
15.2595033332685
 31
0.0
 11
194.6063450678984
 21
15.31924873038897
 31
0.0
 11
194.6063450678984
 21
15.34640572908009
 31
0.0
 11
194.6392454198504
 21
15.34640572908009
 31
0.0
 11
194.724093695937
 21
15.34640572908009
 31
0.0
 11
194.8401107265044
 21
15.34640572908009
 31
0.0
 11
194.9665173418988
 21
15.34640572908009
 31
0.0
 11
195.0825343724662
 21
15.34640572908009
 31
0.0
 11
195.1673826485529
 21
15.34640572908009
 31
0.0
 11
195.2002830005048
 21
15.34640572908009
 31
0.0
 11
195.2002830005048
 21
15.37650011731369
 31
0.0
 11
195.2002830005048
 21
15.45715307777973
 31
0.0
 11
195.2002830005048
 21
15.57391930412609
 31
0.0
 11
195.2002830005048
 21
15.71235349000064
 31
0.0
 11
195.2002830005048
 21
15.85801032905125
 31
0.0
 11
195.2002830005048
 21
15.9964445149258
 31
0.0
 11
195.2002830005048
 21
16.11321074127216
 31
0.0
 11
195.2002830005048
 21
16.1938637017382
 31
0.0
 11
195.2002830005048
 21
16.2239580899718
 31
0.0
 11
195.2250405288618
 21
16.22228324219444
 31
0.0
 11
195.284077711867
 21
16.21828937441767
 31
0.0
 11
195.3545414464215
 21
16.21352249997442
 31
0.0
 11
195.4135786294266
 21
16.20952863219764
 31
0.0
 11
195.4383361577836
 21
16.20785378442028
 31
0.0
 11
195.4233067224031
 21
16.18415814206512
 31
0.0
 11
195.3821827564383
 21
16.17047697887401
 31
0.0
 11
195.3821827564383
 21
16.1422166479483
 31
0.0
 11
195.3821827564383
 21
16.06647896106737
 31
0.0
 11
195.3821827564383
 21
15.95682887707559
 31
0.0
 11
195.3821827564383
 21
15.82683135481729
 31
0.0
 11
195.3821827564383
 21
15.69005135313681
 31
0.0
 11
195.3821827564383
 21
15.56005383087852
 31
0.0
 11
195.3821827564383
 21
15.45040374688673
 31
0.0
 11
195.3821827564383
 21
15.37466606000581
 31
0.0
 11
195.3821827564383
 21
15.34640572908009
 31
0.0
 11
195.4149350096115
 21
15.34640572908009
 31
0.0
 11
195.4994013467422
 21
15.34640572908009
 31
0.0
 11
195.6148961342476
 21
15.34640572908009
 31
0.0
 11
195.7407337385445
 21
15.34640572908009
 31
0.0
 11
195.8562285260498
 21
15.34640572908009
 31
0.0
 11
195.9406948631806
 21
15.34640572908009
 31
0.0
 11
195.9734471163538
 21
15.34640572908009
 31
0.0
 11
195.9734471163538
 21
15.31924873038897
 31
0.0
 11
195.9734471163538
 21
15.2595033332685
 31
0.0
 11
195.9734471163538
 21
15.19975793614803
 31
0.0
 11
195.9734471163538
 21
15.17260093745691
 31
0.0
 11
195.9406948631806
 21
15.17260093745691
 31
0.0
 11
195.8562285260498
 21
15.17260093745691
 31
0.0
 11
195.7407337385445
 21
15.17260093745691
 31
0.0
 11
195.6148961342476
 21
15.17260093745691
 31
0.0
 11
195.4994013467422
 21
15.17260093745691
 31
0.0
 11
195.4149350096114
 21
15.17260093745691
 31
0.0
 11
195.3821827564383
 21
15.17260093745691
 31
0.0
 11
195.3821827564383
 21
15.14016305607613
 31
0.0
 11
195.3821827564383
 21
15.05211737804258
 31
0.0
 11
195.3821827564383
 21
14.92236585251946
 31
0.0
 11
195.3821827564383
 21
14.76481042866995
 31
0.0
 11
195.3821827564383
 21
14.59335305565725
 31
0.0
 11
195.3821827564383
 21
14.42189568264455
 31
0.0
 11
195.3821827564383
 21
14.26434025879504
 31
0.0
 11
195.3821827564383
 21
14.13458873327192
 31
0.0
 11
195.3821827564383
 21
14.04654305523837
 31
0.0
 11
195.3821827564383
 21
14.01410517385759
 31
0.0
  0
SPLINE
  5
A8
102
{ACAD_REACTORS
330
C5
102
}
330
48
100
AcDbEntity
  8
_U_30EC_U_30A4_U_30E4_U_30FC_1
  6
Continuous
 62
     2
100
AcDbSpline
210
0.0
220
0.0
230
1.0
 70
    11
 71
     3
 72
   131
 73
   127
 74
   125
 42
0.000000001
 43
0.0000000001
 44
0.00000001
 40
0.0
 40
0.0
 40
0.0
 40
0.0
 40
0.0195577029826436
 40
0.0426490537461469
 40
0.2863607575856756
 40
0.5344948436189362
 40
0.7842238845573597
 40
0.8737315789467937
 40
0.9803832810313412
 40
1.092842274517088
 40
1.199761146656854
 40
1.289788768186574
 40
1.351573580786269
 40
1.370727117561495
 40
1.416400936017902
 40
1.470914848356039
 40
1.516588666791827
 40
1.535742203552905
 40
1.634216592293215
 40
1.760283341175002
 40
1.897966686682144
 40
2.031216387368952
 40
2.049689751137947
 40
2.101115601646885
 40
2.179502577740006
 40
2.278859318314126
 40
2.393194462258787
 40
2.516516648383908
 40
2.64283451540604
 40
2.766156701983549
 40
2.880491846754667
 40
2.979848588358713
 40
3.058235565443894
 40
3.10966141666905
 40
3.128134780704228
 40
3.146783742386544
 40
3.191254343315405
 40
3.244332157316064
 40
3.288802758225939
 40
3.30745171989521
 40
3.327717853844822
 40
3.383747753580186
 40
3.46838866592458
 40
3.574487837698891
 40
3.694892515729
 40
3.822449946852144
 40
3.950007377920539
 40
4.070412055800633
 40
4.176511227368193
 40
4.261152139501641
 40
4.317182039076837
 40
4.337448172964757
 40
4.620011002696398
 40
4.885096638397722
 40
4.945373043518524
 40
5.014107710488873
 40
5.07048172765229
 40
5.319246955636801
 40
5.584812164506292
 40
5.859000912057166
 40
6.133746937542372
 40
6.401732212969187
 40
6.420736683995806
 40
6.4728457174514
 40
6.550702743894385
 40
6.646951193874593
 40
6.754234497930917
 40
6.865196086587724
 40
6.972479390358182
 40
7.068727839772373
 40
7.146584865451381
 40
7.198693898189611
 40
7.217698368905752
 40
7.234950401631228
 40
7.276089864270275
 40
7.325191803516385
 40
7.36633126609077
 40
7.383583298770122
 40
7.402779163492528
 40
7.453386443254931
 40
7.524934666445961
 40
7.6069533614063
 40
7.68897205642948
 40
7.760520279784731
 40
7.811127559735001
 40
7.830323424546623
 40
7.847844055300247
 40
7.894799345667287
 40
7.962779392744967
 40
8.043374293561008
 40
8.128174145149906
 40
8.2087690448177
 40
8.276749090377397
 40
8.323704379669952
 40
8.341225010056682
 40
8.35849761480083
 40
8.401679126687007
 40
8.457815092186065
 40
8.51395105772847
 40
8.557132569708369
 40
8.574405174505412
 40
8.602340668616742
 40
8.643455660540285
 40
8.663225271966953
 40
8.71534515656459
 40
8.789031889628921
 40
8.873502045520638
 40
8.957972194324253
 40
9.031658925568136
 40
9.083778811234819
 40
9.10354842300328
 40
9.119550083123846
 40
9.16081752238012
 40
9.217244429110513
 40
9.278724491644999
 40
9.335151398295755
 40
9.37641883735805
 40
9.392420497300838
 40
9.40119630273503
 40
9.417494229384452
 40
9.426270027749725
 40
9.44087507547776
 40
9.475702496998942
 40
9.517270709866109
 40
9.55209813199428
 40
9.566703169884489
 40
9.566703169884489
 40
9.566703169884489
 40
9.566703169884489
 10
194.6170254148479
 20
15.67015871511029
 30
0.0
 10
194.6134345093371
 20
15.66453690702159
 30
0.0
 10
194.6056039123625
 20
15.6522775441911
 30
0.0
 10
194.5129968974544
 20
15.61601916040993
 30
0.0
 10
194.4887622233249
 20
15.40148444212708
 30
0.0
 10
194.3858709845939
 20
15.22197284509708
 30
0.0
 10
194.1220492364305
 20
15.03615573798144
 30
0.0
 10
194.284547156918
 20
14.95959336566083
 30
0.0
 10
194.3607225760838
 20
14.89856693195444
 30
0.0
 10
194.4492171072758
 20
14.83515804544761
 30
0.0
 10
194.538993023311
 20
14.77525634219561
 30
0.0
 10
194.5883817636047
 20
14.72102154849208
 30
0.0
 10
194.6745708157381
 20
14.69286240541827
 30
0.0
 10
194.641126067423
 20
14.65713309652806
 30
0.0
 10
194.621467116631
 20
14.625503879919
 30
0.0
 10
194.5919888217882
 20
14.58475872796065
 30
0.0
 10
194.5688989446031
 20
14.55504663489639
 30
0.0
 10
194.5380205968358
 20
14.50211422668492
 30
0.0
 10
194.472919336574
 20
14.62740334938897
 30
0.0
 10
194.3796000122416
 20
14.68213900233938
 30
0.0
 10
194.295063628514
 20
14.73916423939338
 30
0.0
 10
194.1722498125742
 20
14.89675287427524
 30
0.0
 10
194.1764450847302
 20
14.82035806766839
 30
0.0
 10
194.1751478652678
 20
14.77361280161297
 30
0.0
 10
194.1758126448078
 20
14.69584785812603
 30
0.0
 10
194.1755549986958
 20
14.59902068324423
 30
0.0
 10
194.1756431239922
 20
14.4865027907881
 30
0.0
 10
194.1756077302282
 20
14.36524085945699
 30
0.0
 10
194.175651175828
 20
14.2408689785896
 30
0.0
 10
194.1755199942406
 20
14.11967683631335
 30
0.0
 10
194.1759477562047
 20
14.00691148919741
 30
0.0
 10
194.1746678202312
 20
13.91082913768742
 30
0.0
 10
194.1779759851042
 20
13.83113826468697
 30
0.0
 10
194.1715197740088
 20
13.78815175788782
 30
0.0
 10
194.1806208705556
 20
13.74955432372039
 30
0.0
 10
194.1447910339936
 20
13.75810887724068
 30
0.0
 10
194.1115223815252
 20
13.75342519985443
 30
0.0
 10
194.0604562576042
 20
13.75351298759782
 30
0.0
 10
194.0269723972814
 20
13.75794430283818
 30
0.0
 10
193.9907585408754
 20
13.74960793842506
 30
0.0
 10
194.0009782568667
 20
13.79145277179281
 30
0.0
 10
193.9936487887773
 20
13.83778560820171
 30
0.0
 10
193.9973633136103
 20
13.92374831106012
 30
0.0
 10
193.9959480554897
 20
14.02605142704847
 30
0.0
 10
193.9964105554639
 20
14.1445322393151
 30
0.0
 10
193.9962773686231
 20
14.26957683153355
 30
0.0
 10
193.9963015910046
 20
14.39475828107049
 30
0.0
 10
193.9963354925552
 20
14.51286645379058
 30
0.0
 10
193.9962060293133
 20
14.61628748709516
 30
0.0
 10
193.9965507549081
 20
14.69932036153667
 30
0.0
 10
193.9958698278691
 20
14.75143368521244
 30
0.0
 10
193.9994586600621
 20
14.87912907821362
 30
0.0
 10
193.7826171386438
 20
14.5804871681962
 30
0.0
 10
193.602135492195
 20
14.35263981511507
 30
0.0
 10
193.5490322295612
 20
14.49373443289816
 30
0.0
 10
193.5200429133149
 20
14.54325767560941
 30
0.0
 10
193.4196648062821
 20
14.64641779790112
 30
0.0
 10
193.7405127723261
 20
14.72695035023778
 30
0.0
 10
193.8689897005429
 20
14.91066283036435
 30
0.0
 10
194.090645432536
 20
15.11931995771763
 30
0.0
 10
194.1770224894069
 20
15.29339211228344
 30
0.0
 10
194.4549394229075
 20
15.56967051342517
 30
0.0
 10
194.3346247839285
 20
15.56534559551116
 30
0.0
 10
194.2863197351349
 20
15.56614856202556
 30
0.0
 10
194.2102377454906
 20
15.56574582146587
 30
0.0
 10
194.116701000975
 20
15.56590275611613
 30
0.0
 10
194.0117594788557
 20
15.56582502576227
 30
0.0
 10
193.9033887738718
 20
15.56595464378557
 30
0.0
 10
193.7981454235897
 20
15.56554393490694
 30
0.0
 10
193.7056237819413
 20
15.56682073671594
 30
0.0
 10
193.6268130800707
 20
15.56340766534853
 30
0.0
 10
193.5839674565378
 20
15.57023350036323
 30
0.0
 10
193.5449499586516
 20
15.56065064201126
 30
0.0
 10
193.5526365271863
 20
15.59420779565546
 30
0.0
 10
193.5485464404312
 20
15.62523550322236
 30
0.0
 10
193.5485531368814
 20
15.67236529270903
 30
0.0
 10
193.5526239724911
 20
15.70340941646782
 30
0.0
 10
193.5449495574583
 20
15.73701861635905
 30
0.0
 10
193.5834819405495
 20
15.72748410420875
 30
0.0
 10
193.6241228014479
 20
15.73397435498074
 30
0.0
 10
193.6951471850463
 20
15.73100150650257
 30
0.0
 10
193.7729318149634
 20
15.7317476139916
 30
0.0
 10
193.8507292246474
 20
15.73247814044528
 30
0.0
 10
193.9217232089908
 20
15.72954235514163
 30
0.0
 10
193.9624279791821
 20
15.73595468772955
 30
0.0
 10
194.000985348991
 20
15.72650524176007
 30
0.0
 10
193.9927342754929
 20
15.76264692158787
 30
0.0
 10
193.9982346669358
 20
15.80129837613229
 30
0.0
 10
193.9955754206164
 20
15.86913528561841
 30
0.0
 10
193.9965815471534
 20
15.94591641538741
 30
0.0
 10
193.996017801832
 20
16.02849393582756
 30
0.0
 10
193.9970714526594
 20
16.10517329229878
 30
0.0
 10
193.994267586313
 20
16.17331990776698
 30
0.0
 10
194.0000702721305
 20
16.21132399809345
 30
0.0
 10
193.9915654551159
 20
16.24758448077644
 30
0.0
 10
194.0255610233125
 20
16.2375572377185
 30
0.0
 10
194.0594575683099
 20
16.24073266813705
 30
0.0
 10
194.1126669060347
 20
16.23508965640608
 30
0.0
 10
194.1660768574483
 20
16.23434774436425
 30
0.0
 10
194.199591464949
 20
16.22819223482979
 30
0.0
 10
194.2388086183039
 20
16.23346029773593
 30
0.0
 10
194.2120263698492
 20
16.19253380793485
 30
0.0
 10
194.1708111001725
 20
16.20371204538109
 30
0.0
 10
194.1782641540874
 20
16.15867056192122
 30
0.0
 10
194.1742227952185
 20
16.11412278028143
 30
0.0
 10
194.1761714049641
 20
16.04223572621702
 30
0.0
 10
194.1752364849759
 20
15.9616863058877
 30
0.0
 10
194.176510719003
 20
15.88173995404996
 30
0.0
 10
194.1732043793864
 20
15.80841837083185
 30
0.0
 10
194.1802106179961
 20
15.7668864300257
 30
0.0
 10
194.1701440380126
 20
15.72752418568115
 30
0.0
 10
194.2029814803923
 20
15.73468063430984
 30
0.0
 10
194.2364577296481
 20
15.73027243137947
 30
0.0
 10
194.2915053476019
 20
15.732179433479
 30
0.0
 10
194.3489502595316
 20
15.73185366407291
 30
0.0
 10
194.402302624831
 20
15.73106308733085
 30
0.0
 10
194.4398540896639
 20
15.73313959118077
 30
0.0
 10
194.4623172523238
 20
15.73022338167112
 30
0.0
 10
194.4751678073731
 20
15.73572552644059
 30
0.0
 10
194.4858255685889
 20
15.73801118197794
 30
0.0
 10
194.4986635650143
 20
15.74494972588057
 30
0.0
 10
194.514599103307
 20
15.72853046313675
 30
0.0
 10
194.5410623920892
 20
15.71709122319452
 30
0.0
 10
194.5726805253757
 20
15.69644687835193
 30
0.0
 10
194.5987255892151
 20
15.68116869628296
 30
0.0
 10
194.6128517723973
 20
15.67266976323186
 30
0.0
 10
194.6170254148479
 20
15.67015871511029
 30
0.0
 11
194.6170254148479
 21
15.67015871511029
 31
0.0
 11
194.6049990002243
 21
15.65473571164186
 31
0.0
 11
194.5848961795565
 21
15.64337406233921
 31
0.0
 11
194.4778986355813
 21
15.4244062023116
 31
0.0
 11
194.3477039934325
 21
15.21317201512161
 31
0.0
 11
194.1996540366071
 21
15.01206059027479
 31
0.0
 11
194.2734958253735
 21
14.9614738493538
 31
0.0
 11
194.36056643118
 21
14.89988411653741
 31
0.0
 11
194.4518003750405
 21
14.83413160594427
 31
0.0
 11
194.5381321779688
 21
14.77105653169305
 31
0.0
 11
194.6104963609787
 21
14.7174991079024
 31
0.0
 11
194.6598274450843
 21
14.68029954869098
 31
0.0
 11
194.6486940702213
 21
14.66471410869488
 31
0.0
 11
194.6221452532403
 21
14.62754882870418
 31
0.0
 11
194.5904579555533
 21
14.58319026871528
 31
0.0
 11
194.5639091385723
 21
14.54602498872458
 31
0.0
 11
194.5527757637093
 21
14.53043954872848
 31
0.0
 11
194.4807013362948
 21
14.59754008690614
 31
0.0
 11
194.3852856985382
 21
14.67993354174668
 31
0.0
 11
194.279326415217
 21
14.76785017366917
 31
0.0
 11
194.1756210511091
 21
14.85152024309269
 31
0.0
 11
194.1756210511091
 21
14.83304687900865
 31
0.0
 11
194.1756210511091
 21
14.78162102763957
 31
0.0
 11
194.1756210511091
 21
14.70323405031
 31
0.0
 11
194.1756210511091
 21
14.60387730834449
 31
0.0
 11
194.1756210511091
 21
14.48954216306761
 31
0.0
 11
194.1756210511091
 21
14.36621997580389
 31
0.0
 11
194.1756210511091
 21
14.23990210787789
 31
0.0
 11
194.1756210511091
 21
14.11657992061417
 31
0.0
 11
194.1756210511091
 21
14.00224477533729
 31
0.0
 11
194.1756210511091
 21
13.90288803337178
 31
0.0
 11
194.1756210511091
 21
13.82450105604221
 31
0.0
 11
194.1756210511091
 21
13.77307520467313
 31
0.0
 11
194.1756210511091
 21
13.75460184058909
 31
0.0
 11
194.1569720893627
 21
13.75460184058909
 31
0.0
 11
194.112501488275
 21
13.75460184058909
 31
0.0
 11
194.0594236740737
 21
13.75460184058909
 31
0.0
 11
194.014953072986
 21
13.75460184058909
 31
0.0
 11
193.9963041112396
 21
13.75460184058909
 31
0.0
 11
193.9963041112396
 21
13.77486797460216
 31
0.0
 11
193.9963041112396
 21
13.83089787452064
 31
0.0
 11
193.9963041112396
 21
13.91553878716345
 31
0.0
 11
193.9963041112396
 21
14.02163795934951
 31
0.0
 11
193.9963041112396
 21
14.14204263789774
 31
0.0
 11
193.9963041112396
 21
14.26960006962705
 31
0.0
 11
193.9963041112396
 21
14.39715750135635
 31
0.0
 11
193.9963041112396
 21
14.51756217990458
 31
0.0
 11
193.9963041112396
 21
14.62366135209064
 31
0.0
 11
193.9963041112396
 21
14.70830226473345
 31
0.0
 11
193.9963041112396
 21
14.76433216465193
 31
0.0
 11
193.9963041112396
 21
14.784598298665
 31
0.0
 11
193.7883272849482
 21
14.59331998274056
 31
0.0
 11
193.5763486358425
 21
14.43414885430809
 31
0.0
 11
193.5495629014483
 21
14.48814671952094
 31
0.0
 11
193.5138765415024
 21
14.54689140572026
 31
0.0
 11
193.4799697494124
 21
14.59192871537979
 31
0.0
 11
193.6830287742319
 21
14.73563387201054
 31
0.0
 11
193.881853195826
 21
14.91168423529988
 31
0.0
 11
194.0677041444179
 21
15.1132751452495
 31
0.0
 11
194.2318427502304
 21
15.3336019418611
 31
0.0
 11
194.3655301434865
 21
15.56585996513638
 31
0.0
 11
194.3465256724482
 21
15.56585996513638
 31
0.0
 11
194.2944166389563
 21
15.56585996513638
 31
0.0
 11
194.2165596124448
 21
15.56585996513638
 31
0.0
 11
194.1203111623479
 21
15.56585996513638
 31
0.0
 11
194.0130278580997
 21
15.56585996513638
 31
0.0
 11
193.9020662691345
 21
15.56585996513638
 31
0.0
 11
193.7947829648864
 21
15.56585996513638
 31
0.0
 11
193.6985345147895
 21
15.56585996513638
 31
0.0
 11
193.620677488278
 21
15.56585996513638
 31
0.0
 11
193.568568454786
 21
15.56585996513638
 31
0.0
 11
193.5495639837478
 21
15.56585996513638
 31
0.0
 11
193.5495639837478
 21
15.58311199790984
 31
0.0
 11
193.5495639837478
 21
15.62425146067734
 31
0.0
 11
193.5495639837478
 21
15.67335340010952
 31
0.0
 11
193.5495639837478
 21
15.71449286287701
 31
0.0
 11
193.5495639837478
 21
15.73174489565048
 31
0.0
 11
193.568759848601
 21
15.73174489565048
 31
0.0
 11
193.6193671286684
 21
15.73174489565048
 31
0.0
 11
193.690915352212
 21
15.73174489565048
 31
0.0
 11
193.7729340474937
 21
15.73174489565048
 31
0.0
 11
193.8549527427754
 21
15.73174489565048
 31
0.0
 11
193.926500966319
 21
15.73174489565048
 31
0.0
 11
193.9771082463865
 21
15.73174489565048
 31
0.0
 11
193.9963041112396
 21
15.73174489565048
 31
0.0
 11
193.9963041112396
 21
15.74926552655221
 31
0.0
 11
193.9963041112396
 21
15.79622081736884
 31
0.0
 11
193.9963041112396
 21
15.86420086526755
 31
0.0
 11
193.9963041112396
 21
15.9447957674155
 31
0.0
 11
193.9963041112396
 21
16.02959562097986
 31
0.0
 11
193.9963041112396
 21
16.11019052312781
 31
0.0
 11
193.9963041112396
 21
16.17817057102652
 31
0.0
 11
193.9963041112396
 21
16.22512586184315
 31
0.0
 11
193.9963041112396
 21
16.24264649274488
 31
0.0
 11
194.0135484112112
 21
16.24165806167517
 31
0.0
 11
194.0566591611401
 21
16.2391869840009
 31
0.0
 11
194.1127031360478
 21
16.23597458302434
 31
0.0
 11
194.1687471109554
 21
16.23276218204779
 31
0.0
 11
194.2118578608843
 21
16.23029110437352
 31
0.0
 11
194.2291021608559
 21
16.22930267330381
 31
0.0
 11
194.2143774674852
 21
16.20556293372638
 31
0.0
 11
194.1756210511091
 21
16.1918376733131
 31
0.0
 11
194.1756210511091
 21
16.17206806177291
 31
0.0
 11
194.1756210511091
 21
16.11994817680332
 31
0.0
 11
194.1756210511091
 21
16.04626144288078
 31
0.0
 11
194.1756210511091
 21
15.96179128448179
 31
0.0
 11
194.1756210511091
 21
15.87732112608279
 31
0.0
 11
194.1756210511091
 21
15.80363439216027
 31
0.0
 11
194.1756210511091
 21
15.75151450719067
 31
0.0
 11
194.1756210511091
 21
15.73174489565048
 31
0.0
 11
194.1916227112937
 21
15.73174489565048
 31
0.0
 11
194.2328901507171
 21
15.73174489565048
 31
0.0
 11
194.2893170576838
 21
15.73174489565048
 31
0.0
 11
194.3507971204982
 21
15.73174489565048
 31
0.0
 11
194.4072240274649
 21
15.73174489565048
 31
0.0
 11
194.4484914668883
 21
15.73174489565048
 31
0.0
 11
194.4644931270729
 21
15.73174489565048
 31
0.0
 11
194.4728206422925
 21
15.73451387455924
 31
0.0
 11
194.4882860277004
 21
15.73965626396122
 31
0.0
 11
194.49661354292
 21
15.74242524286998
 31
0.0
 11
194.5091363776005
 21
15.73490952398297
 31
0.0
 11
194.5389985218386
 21
15.71698742509857
 31
0.0
 11
194.5746404359293
 21
15.6955965328817
 31
0.0
 11
194.6045025801674
 21
15.6776744339973
 31
0.0
 11
194.6170254148479
 21
15.67015871511029
 31
0.0
  0
SPLINE
  5
A9
102
{ACAD_REACTORS
330
C6
102
}
330
48
100
AcDbEntity
  8
_U_30EC_U_30A4_U_30E4_U_30FC_1
  6
Continuous
 62
     2
100
AcDbSpline
210
0.0
220
0.0
230
1.0
 70
    11
 71
     3
 72
    91
 73
    87
 74
    85
 42
0.000000001
 43
0.0000000001
 44
0.00000001
 40
0.0
 40
0.0
 40
0.0
 40
0.0
 40
0.0267532254356826
 40
0.0856103386464511
 40
0.1444674521997296
 40
0.1712206856619314
 40
0.2039416005643336
 40
0.2955601971653283
 40
0.4362601844618001
 40
0.6162252844508334
 40
0.8256392189705781
 40
1.054685709844547
 40
1.293548478893668
 40
1.532411247938412
 40
1.761457738799676
 40
1.970871673298673
 40
2.150836773256898
 40
2.291536760495759
 40
2.383155356836837
 40
2.415876284101485
 40
2.442629517488141
 40
2.501486630949299
 40
2.560343744424475
 40
2.58709697782676
 40
2.617068194441187
 40
2.699247336756357
 40
2.822032643466641
 40
2.973822353258199
 40
3.143014704823641
 40
3.31800793688022
 40
3.487200288187053
 40
3.638989997548591
 40
3.76177530379509
 40
3.843954445753424
 40
3.87392566223012
 40
3.890812773500817
 40
3.907699884771985
 40
3.937960767857562
 40
3.980983618142572
 40
4.199085915228739
 40
4.439444339237507
 40
4.677588241261139
 40
5.050698317838053
 40
5.448212454763382
 40
5.855291218044851
 40
6.138575438885482
 40
6.417434507584294
 40
6.444551104393954
 40
6.504207617363231
 40
6.563864130314557
 40
6.590980727104126
 40
6.848609460381562
 40
7.109611990668526
 40
7.352910904446225
 40
7.557830220705569
 40
7.587518925913492
 40
7.652834077375944
 40
7.718149228845939
 40
7.747837934062247
 40
7.854880190301206
 40
7.97651125740374
 40
8.369487896592569
 40
8.75751495922389
 40
9.126072419331324
 40
9.460639380392415
 40
9.746695593036184
 40
9.777569943118959
 40
9.807050320932067
 40
9.830377336129196
 40
9.88600329543629
 40
9.9523955694302
 40
10.00802152870656
 40
10.03134854388248
 40
10.21356951009619
 40
10.42203479292904
 40
10.66154556731097
 40
10.91693789564335
 40
11.15832906556589
 40
11.18982674596647
 40
11.27286608520428
 40
11.39026653033373
 40
11.52484752840904
 40
11.6594285264846
 40
11.77682897161498
 40
11.85986831085695
 40
11.8913659823044
 40
11.8913659823044
 40
11.8913659823044
 40
11.8913659823044
 10
190.7027885008196
 20
14.70699600701769
 30
0.0
 10
190.7028237765288
 20
14.71587847311982
 30
0.0
 10
190.7029366710796
 20
14.74430237047345
 30
0.0
 10
190.7012984568489
 20
14.79409639169804
 30
0.0
 10
190.7069750292911
 20
14.83657564478157
 30
0.0
 10
190.6956928731706
 20
14.88730154856852
 30
0.0
 10
190.7632296979032
 20
14.87012900740114
 30
0.0
 10
190.8388029210701
 20
14.88290227166002
 30
0.0
 10
190.9828357056001
 20
14.87629729457386
 30
0.0
 10
191.1569419185427
 20
14.87888462206471
 30
0.0
 10
191.3639599611003
 20
14.87800591955557
 30
0.0
 10
191.5894688172378
 20
14.87828207920032
 30
0.0
 10
191.8251162293406
 20
14.87818339658668
 30
0.0
 10
192.0607640531349
 20
14.87828184412772
 30
0.0
 10
192.2862717580626
 20
14.87800678190793
 30
0.0
 10
192.4932934632805
 20
14.87888186270739
 30
0.0
 10
192.667388891529
 20
14.87630522678452
 30
0.0
 10
192.8114492071986
 20
14.88288290449218
 30
0.0
 10
192.8869691915293
 20
14.87016243405609
 30
0.0
 10
192.9545776037031
 20
14.88726400191692
 30
0.0
 10
192.9430840140676
 20
14.83674785802943
 30
0.0
 10
192.9505104581734
 20
14.79253252226502
 30
0.0
 10
192.9428838927986
 20
14.74867966503609
 30
0.0
 10
192.9546489459426
 20
14.69878374479325
 30
0.0
 10
192.8930788491983
 20
14.71393227712508
 30
0.0
 10
192.8256791738672
 20
14.70310665350671
 30
0.0
 10
192.7013004056222
 20
14.70852031626233
 30
0.0
 10
192.5554428236572
 20
14.70649205390782
 30
0.0
 10
192.3893576440086
 20
14.70715777578383
 30
0.0
 10
192.2188412621725
 20
14.70689643521239
 30
0.0
 10
192.0519790855389
 20
14.7072155339109
 30
0.0
 10
191.9087346827105
 20
14.70635302590759
 30
0.0
 10
191.7773313869833
 20
14.70863300482984
 30
0.0
 10
191.7239859134657
 20
14.70407704374201
 30
0.0
 10
191.6485188456912
 20
14.70999914992872
 30
0.0
 10
191.6769075779232
 20
14.70094169343353
 30
0.0
 10
191.7033652409542
 20
14.69725912268935
 30
0.0
 10
191.6633522907703
 20
14.66654271968275
 30
0.0
 10
191.5713663691868
 20
14.67667591174631
 30
0.0
 10
191.543939620707
 20
14.4303250224779
 30
0.0
 10
191.4478793967234
 20
14.27499558764376
 30
0.0
 10
191.1917277964475
 20
13.94525417931566
 30
0.0
 10
191.7627537732763
 20
14.08430022210449
 30
0.0
 10
192.0173656320517
 20
14.08291779973363
 30
0.0
 10
192.6279647048617
 20
13.99790569242085
 30
0.0
 10
192.3340698578083
 20
14.29685417558201
 30
0.0
 10
192.0133304286519
 20
14.44330856901773
 30
0.0
 10
192.1313543360434
 20
14.50025540818286
 30
0.0
 10
192.1724716466261
 20
14.52420099873348
 30
0.0
 10
192.2156812394411
 20
14.54599758811229
 30
0.0
 10
192.3174574094452
 20
14.60928721253909
 30
0.0
 10
192.4328867625247
 20
14.35147151408778
 30
0.0
 10
192.6329591642278
 20
14.21616041113679
 30
0.0
 10
192.7269077387229
 20
14.03792795138882
 30
0.0
 10
192.9558829746392
 20
13.87997821027048
 30
0.0
 10
192.8596031846709
 20
13.82915972576297
 30
0.0
 10
192.816795976378
 20
13.7988129252305
 30
0.0
 10
192.7718243528779
 20
13.77466130281455
 30
0.0
 10
192.7121720925214
 20
13.7255214674756
 30
0.0
 10
192.6789731061326
 20
13.85997475673608
 30
0.0
 10
192.5582013350797
 20
14.0159426528658
 30
0.0
 10
192.1970976005978
 20
13.88569928059554
 30
0.0
 10
191.8385061955542
 20
13.90224694409482
 30
0.0
 10
191.4570920450081
 20
13.89331229351862
 30
0.0
 10
191.170345528289
 20
13.82882671672408
 30
0.0
 10
190.8592055599714
 20
13.94230668192819
 30
0.0
 10
190.8268737818788
 20
13.83122259927767
 30
0.0
 10
190.7896178253317
 20
13.81196313850007
 30
0.0
 10
190.7865737632754
 20
13.85874784087295
 30
0.0
 10
190.7679892860606
 20
13.8980685391913
 30
0.0
 10
190.7512436616778
 20
13.95765983478232
 30
0.0
 10
190.7383730915754
 20
14.00201969871282
 30
0.0
 10
190.7042327806429
 20
14.09106331120203
 30
0.0
 10
190.9482714457754
 20
14.02181042943767
 30
0.0
 10
191.1441394486673
 20
14.0003036905774
 30
0.0
 10
191.2395426381277
 20
14.28226484478462
 30
0.0
 10
191.2945135769598
 20
14.44363045421118
 30
0.0
 10
191.5159619357154
 20
14.71391177589737
 30
0.0
 10
191.3849239381215
 20
14.70548446853731
 30
0.0
 10
191.3110026555853
 20
14.70779008496967
 30
0.0
 10
191.1977459876243
 20
14.70671378321655
 30
0.0
 10
191.0694251807484
 20
14.70707639076506
 30
0.0
 10
190.9404252030415
 20
14.70697724466083
 30
0.0
 10
190.8287840946291
 20
14.70699932712569
 30
0.0
 10
190.7514663970027
 20
14.70699579189667
 30
0.0
 10
190.713287653201
 20
14.70699595845078
 30
0.0
 10
190.7027885008196
 20
14.70699600701769
 30
0.0
 11
190.7027885008196
 21
14.70699600701769
 31
0.0
 11
190.7027885008196
 21
14.73374924051796
 31
0.0
 11
190.7027885008196
 21
14.79260635421855
 31
0.0
 11
190.7027885008196
 21
14.85146346791913
 31
0.0
 11
190.7027885008196
 21
14.8782167014194
 31
0.0
 11
190.7355094280989
 21
14.8782167014194
 31
0.0
 11
190.8271280244809
 21
14.8782167014194
 31
0.0
 11
190.9678280117819
 21
14.8782167014194
 31
0.0
 11
191.147793111818
 21
14.8782167014194
 31
0.0
 11
191.3572070464054
 21
14.8782167014194
 31
0.0
 11
191.5862535373604
 21
14.8782167014194
 31
0.0
 11
191.8251163064993
 21
14.8782167014194
 31
0.0
 11
192.0639790756381
 21
14.8782167014194
 31
0.0
 11
192.2930255665931
 21
14.8782167014194
 31
0.0
 11
192.5024395011806
 21
14.8782167014194
 31
0.0
 11
192.6824046012168
 21
14.8782167014194
 31
0.0
 11
192.8231045885177
 21
14.8782167014194
 31
0.0
 11
192.9147231848997
 21
14.8782167014194
 31
0.0
 11
192.947444112179
 21
14.8782167014194
 31
0.0
 11
192.947444112179
 21
14.85146346791913
 31
0.0
 11
192.947444112179
 21
14.79260635421855
 31
0.0
 11
192.947444112179
 21
14.73374924051796
 31
0.0
 11
192.947444112179
 21
14.70699600701769
 31
0.0
 11
192.9174728954758
 21
14.70699600701769
 31
0.0
 11
192.8352937529027
 21
14.70699600701769
 31
0.0
 11
192.712508445764
 21
14.70699600701769
 31
0.0
 11
192.5607187353642
 21
14.70699600701769
 31
0.0
 11
192.3915263830078
 21
14.70699600701769
 31
0.0
 11
192.2165331499991
 21
14.70699600701769
 31
0.0
 11
192.0473407976427
 21
14.70699600701769
 31
0.0
 11
191.8955510872428
 21
14.70699600701769
 31
0.0
 11
191.7727657801042
 21
14.70699600701769
 31
0.0
 11
191.690586637531
 21
14.70699600701769
 31
0.0
 11
191.6606154208279
 21
14.70699600701769
 31
0.0
 11
191.6766359412525
 21
14.70165583340794
 31
0.0
 11
191.6926564616771
 21
14.69631565979819
 31
0.0
 11
191.6706155681421
 21
14.67558114591445
 31
0.0
 11
191.6284861855364
 21
14.66685871536109
 31
0.0
 11
191.5365235541377
 21
14.46909247312658
 31
0.0
 11
191.4279078521764
 21
14.25467511978511
 31
0.0
 11
191.3127500824808
 21
14.0462255905162
 31
0.0
 11
191.6857366675021
 21
14.05582441253028
 31
0.0
 11
192.0830700036151
 21
14.06781232404994
 31
0.0
 11
192.4899342191145
 21
14.08102711828531
 31
0.0
 11
192.2983119496979
 21
14.28966761302477
 31
0.0
 11
192.0966752013699
 21
14.4822942015183
 31
0.0
 11
192.120494779475
 21
14.49525327269563
 31
0.0
 11
192.1728978513062
 21
14.52376322928575
 31
0.0
 11
192.2253009231374
 21
14.55227318587587
 31
0.0
 11
192.2491205012425
 21
14.5652322570532
 31
0.0
 11
192.4387101558627
 21
14.39079508370266
 31
0.0
 11
192.6200310940436
 21
14.20305846374089
 31
0.0
 11
192.7777729231148
 21
14.01782380992434
 31
0.0
 11
192.8966252504059
 21
13.85089253500948
 31
0.0
 11
192.8715408217924
 21
13.83501202286067
 31
0.0
 11
192.8163550788426
 21
13.80007489613329
 31
0.0
 11
192.7611693358928
 21
13.7651377694059
 31
0.0
 11
192.7360849072793
 21
13.74925725725709
 31
0.0
 11
192.6775518151613
 21
13.83887824681807
 31
0.0
 11
192.6050015078458
 21
13.93650288221031
 31
0.0
 11
192.2125412924095
 21
13.91636286943758
 31
0.0
 11
191.8249474069561
 21
13.89803302999772
 31
0.0
 11
191.4567378976213
 21
13.88202178722394
 31
0.0
 11
191.1224308105413
 21
13.86883756444946
 31
0.0
 11
190.8365441918518
 21
13.85898878500748
 31
0.0
 11
190.821186232174
 21
13.83220523466693
 31
0.0
 11
190.7937434290546
 21
13.82143559057241
 31
0.0
 11
190.786792719232
 21
13.84370299445574
 31
0.0
 11
190.7702179496548
 21
13.89680218833136
 31
0.0
 11
190.7504351601596
 21
13.96017864553775
 31
0.0
 11
190.7338603905825
 21
14.01327783941337
 31
0.0
 11
190.7269096807599
 21
14.0355452432967
 31
0.0
 11
190.9091199859154
 21
14.03751638912951
 31
0.0
 11
191.1174975848589
 21
14.04356211829469
 31
0.0
 11
191.2303203127217
 21
14.25483550301553
 31
0.0
 11
191.3407936722035
 21
14.48509813155878
 31
0.0
 11
191.4358254265626
 21
14.70699600701769
 31
0.0
 11
191.4043277461595
 21
14.70699600701769
 31
0.0
 11
191.3212884069152
 21
14.70699600701769
 31
0.0
 11
191.2038879617767
 21
14.70699600701769
 31
0.0
 11
191.0693069636911
 21
14.70699600701769
 31
0.0
 11
190.9347259656055
 21
14.70699600701769
 31
0.0
 11
190.8173255204669
 21
14.70699600701769
 31
0.0
 11
190.7342861812226
 21
14.70699600701769
 31
0.0
 11
190.7027885008196
 21
14.70699600701769
 31
0.0
  0
SPLINE
  5
AA
102
{ACAD_REACTORS
330
C7
102
}
330
48
100
AcDbEntity
  8
_U_30EC_U_30A4_U_30E4_U_30FC_1
  6
Continuous
 62
     2
100
AcDbSpline
210
0.0
220
0.0
230
1.0
 70
    11
 71
     3
 72
    35
 73
    31
 74
    29
 42
0.000000001
 43
0.0000000001
 44
0.00000001
 40
0.0
 40
0.0
 40
0.0
 40
0.0
 40
0.0335231036619709
 40
0.0713218571712012
 40
0.4278866681487431
 40
0.8116865841964609
 40
1.198190238000107
 40
1.561379546812758
 40
1.659983174622172
 40
1.759315573807327
 40
2.132719617231189
 40
2.52523336358895
 40
2.910815397779881
 40
3.265244364303539
 40
3.592606723582322
 40
3.964386154604281
 40
4.359942131738062
 40
4.758154118639567
 40
4.843846538700136
 40
4.936650065543449
 40
5.256616602537538
 40
5.581707404416242
 40
5.899719158308361
 40
6.19836349428092
 40
6.46630104661596
 40
6.493895311537282
 40
6.559697020197075
 40
6.638234543442652
 40
6.704036252154405
 40
6.731630508423212
 40
6.731630508423212
 40
6.731630508423212
 40
6.731630508423212
 10
191.9736010568669
 20
16.23463843719128
 30
0.0
 10
191.9676006097789
 20
16.22480690542317
 30
0.0
 10
191.9548344099157
 20
16.20388988579789
 30
0.0
 10
191.7949362006553
 20
16.17127126532728
 30
0.0
 10
192.2322025842337
 20
15.88206680336684
 30
0.0
 10
192.4345394828262
 20
15.68041138358442
 30
0.0
 10
192.6819564267973
 20
15.43749387603277
 30
0.0
 10
193.1831513624607
 20
15.36047662757773
 30
0.0
 10
193.012556219897
 20
15.2187693917466
 30
0.0
 10
192.9383299463203
 20
15.01710366209096
 30
0.0
 10
192.6131432248188
 20
15.36956287174725
 30
0.0
 10
192.3277741670664
 20
15.53175212559559
 30
0.0
 10
192.0337604077659
 20
15.73687130053048
 30
0.0
 10
191.8084452691133
 20
16.2182748859546
 30
0.0
 10
191.5993085055521
 20
15.75343046609228
 30
0.0
 10
191.3207873674833
 20
15.54350952252914
 30
0.0
 10
191.0371383177209
 20
15.37424456359985
 30
0.0
 10
190.7078639527831
 20
15.00142360907936
 30
0.0
 10
190.6277012318224
 20
15.19708014459002
 30
0.0
 10
190.4759724909745
 20
15.324911041906
 30
0.0
 10
190.9083395826795
 20
15.4045403176593
 30
0.0
 10
191.0962565329767
 20
15.60026634915473
 30
0.0
 10
191.3468477420504
 20
15.81632996916749
 30
0.0
 10
191.5714350470161
 20
15.98190992300059
 30
0.0
 10
191.6259775409712
 20
16.26133964636831
 30
0.0
 10
191.7494661029011
 20
16.24737950408079
 30
0.0
 10
191.806027334452
 20
16.24521268867646
 30
0.0
 10
191.8761870984945
 20
16.24046859881357
 30
0.0
 10
191.9333414022105
 20
16.23709429350536
 30
0.0
 10
191.9644190320839
 20
16.23519854711114
 30
0.0
 10
191.9736010568669
 20
16.23463843719128
 30
0.0
 11
191.9736010568669
 21
16.23463843719128
 31
0.0
 11
191.9525319069885
 21
16.20856374969782
 31
0.0
 11
191.9174464559425
 21
16.1945011455347
 31
0.0
 11
192.1512374769095
 21
15.9252796113138
 31
0.0
 11
192.4414585957567
 21
15.67413407969258
 31
0.0
 11
192.7612797483685
 21
15.45710987618785
 31
0.0
 11
193.083870870629
 21
15.29025232631639
 31
0.0
 11
193.0213299868076
 21
15.21402035584929
 31
0.0
 11
192.9688035818976
 21
15.12971197913419
 31
0.0
 11
192.6436279095815
 21
15.31326404831575
 31
0.0
 11
192.3237227768437
 21
15.54070139743425
 31
0.0
 11
192.0354200158608
 21
15.7967385512331
 31
0.0
 11
191.8050514588095
 21
16.0660900344557
 31
0.0
 11
191.5995531719515
 21
15.81126348721039
 31
0.0
 11
191.3288301341535
 21
15.55645182277757
 31
0.0
 11
191.0119538423246
 21
15.31969466354857
 31
0.0
 11
190.6679957933741
 21
15.11903163191468
 31
0.0
 11
190.6218855341338
 21
15.19126067703554
 31
0.0
 11
190.5636970460349
 21
15.26355586798968
 31
0.0
 11
190.8433040489016
 21
15.41911456961743
 31
0.0
 11
191.1093004621155
 21
15.60601009790402
 31
0.0
 11
191.3499997459747
 21
15.81384496285206
 31
0.0
 11
191.5537153607774
 21
16.03222167446415
 31
0.0
 11
191.7087607668218
 21
16.25074274274289
 31
0.0
 11
191.7363041569865
 21
16.24906789496552
 31
0.0
 11
191.8019845489177
 21
16.24507402718872
 31
0.0
 11
191.880377274771
 21
16.24030715274545
 31
0.0
 11
191.9460576667022
 21
16.23631328496865
 31
0.0
 11
191.9736010568669
 21
16.23463843719128
 31
0.0
  0
SPLINE
  5
AB
102
{ACAD_REACTORS
330
C8
102
}
330
48
100
AcDbEntity
  8
_U_30EC_U_30A4_U_30E4_U_30FC_1
  6
Continuous
 62
     2
100
AcDbSpline
210
0.0
220
0.0
230
1.0
 70
    11
 71
     3
 72
    15
 73
    11
 74
     9
 42
0.000000001
 43
0.0000000001
 44
0.00000001
 40
0.0
 40
0.0
 40
0.0
 40
0.0
 40
0.278553598509676
 40
0.521562474819924
 40
0.607691737604112
 40
0.6938210001741891
 40
0.940501914645539
 40
1.221691403489086
 40
1.300471877080997
 40
1.379252341684778
 40
1.379252341684778
 40
1.379252341684778
 40
1.379252341684778
 10
189.5681493631
 20
16.22930267330381
 30
0.0
 10
189.6296017794179
 20
16.17691646592717
 30
0.0
 10
189.7446649974114
 20
16.07882876798227
 30
0.0
 10
190.0397348497245
 20
15.92889785897213
 30
0.0
 10
189.9025147631856
 20
15.84343227515012
 30
0.0
 10
189.8041227843779
 20
15.71085785201558
 30
0.0
 10
189.7130033590649
 20
16.01616985781414
 30
0.0
 10
189.3636839480657
 20
16.07967869465368
 30
0.0
 10
189.5119258376571
 20
16.17896509880877
 30
0.0
 10
189.5494081874237
 20
16.21252348402381
 30
0.0
 10
189.5681493631
 20
16.22930267330381
 30
0.0
 11
189.5681493631
 21
16.22930267330381
 31
0.0
 11
189.7919222440597
 21
16.06341774278973
 31
0.0
 11
189.9695046306384
 21
15.89753281227559
 31
0.0
 11
189.9066308127979
 21
15.83866743034589
 31
0.0
 11
189.8437569949575
 21
15.7798020484162
 31
0.0
 11
189.6688535117725
 21
15.95375677059489
 31
0.0
 11
189.4478256856141
 21
16.12757920110698
 31
0.0
 11
189.507987524357
 21
16.17844093720539
 31
0.0
 11
189.5681493631
 21
16.22930267330381
 31
0.0
  0
SPLINE
  5
AC
102
{ACAD_REACTORS
330
C9
102
}
330
48
100
AcDbEntity
  8
_U_30EC_U_30A4_U_30E4_U_30FC_1
  6
Continuous
 62
     2
100
AcDbSpline
210
0.0
220
0.0
230
1.0
 70
    11
 71
     3
 72
    75
 73
    71
 74
    69
 42
0.000000001
 43
0.0000000001
 44
0.00000001
 40
0.0
 40
0.0
 40
0.0
 40
0.0
 40
0.0342546099129638
 40
0.1245622414432222
 40
0.2522385480897234
 40
0.3985991922940218
 40
0.5449598364980217
 40
0.6726361431438088
 40
0.7629437746736107
 40
0.7971983935297084
 40
1.101723623449613
 40
1.408591244036566
 40
1.433332471690267
 40
1.487763172450052
 40
1.542193873081874
 40
1.566935100592417
 40
1.923523931821732
 40
2.271755704953476
 40
2.590579755100719
 40
2.858943305580955
 40
2.889120339308919
 40
2.918305855190872
 40
2.94136664553099
 40
2.996357760972864
 40
3.061992318140391
 40
3.116983433626562
 40
3.140044223997243
 40
3.411273122936145
 40
3.732441619740748
 40
3.761068217532446
 40
3.837787499630005
 40
3.948858699125638
 40
4.080541049104011
 40
4.21909378262539
 40
4.350776132721935
 40
4.461847332405266
 40
4.538566614677996
 40
4.56719321254424
 40
4.594907573998499
 40
4.666381453557038
 40
4.76411104401062
 40
4.870592538125423
 40
4.968322128641817
 40
5.039796008286531
 40
5.067510369783961
 40
5.094263603185175
 40
5.153120716667812
 40
5.211977830150258
 40
5.238731063551263
 40
5.27229053513853
 40
5.363380529444334
 40
5.49761841578104
 40
5.660621563453254
 40
5.838007341748955
 40
6.015393119910335
 40
6.178396267037932
 40
6.312634151841912
 40
6.403724143058901
 40
6.437283612671997
 40
6.464036846260611
 40
6.522893960004228
 40
6.581751071483494
 40
6.608504301590441
 40
6.637253941280588
 40
6.711397748902468
 40
6.81277805728308
 40
6.923237199248857
 40
7.024617507623501
 40
7.09876131520721
 40
7.127510946007161
 40
7.127510946007161
 40
7.127510946007161
 40
7.127510946007161
 10
188.4418622390564
 20
14.95849128473259
 30
0.0
 10
188.4418622819707
 20
14.94707313408715
 30
0.0
 10
188.4418624481129
 20
14.90555257842624
 30
0.0
 10
188.4418593081787
 20
14.82146922003768
 30
0.0
 10
188.4418788279801
 20
14.70004497322326
 30
0.0
 10
188.4417912187737
 20
14.55980494047447
 30
0.0
 10
188.442111623523
 20
14.42006556794577
 30
0.0
 10
188.4411605909741
 20
14.29745038894931
 30
0.0
 10
188.4431978595967
 20
14.21587074438045
 30
0.0
 10
188.4349433178746
 20
14.06271267077701
 30
0.0
 10
188.74307979409
 20
14.2256023605471
 30
0.0
 10
189.0350645173739
 20
14.39482938688003
 30
0.0
 10
189.0408354448707
 20
14.2597323578191
 30
0.0
 10
189.0455471719892
 20
14.21617221160445
 30
0.0
 10
189.0482535411919
 20
14.17211249350546
 30
0.0
 10
189.0672545672955
 20
14.02272590363134
 30
0.0
 10
188.6583942247304
 20
14.08681172241263
 30
0.0
 10
188.3793710348832
 20
13.97296341411015
 30
0.0
 10
188.1018081587166
 20
13.87364095811146
 30
0.0
 10
187.8099837184404
 20
13.91630687596349
 30
0.0
 10
187.7869144678658
 20
13.81321679744543
 30
0.0
 10
187.7537474383334
 20
13.78691091244472
 30
0.0
 10
187.7480653962739
 20
13.83455309036306
 30
0.0
 10
187.7284214559045
 20
13.8718033611507
 30
0.0
 10
187.7095089485624
 20
13.93007387847562
 30
0.0
 10
187.6942849867708
 20
13.97385201007803
 30
0.0
 10
187.6477246372936
 20
14.08759421046303
 30
0.0
 10
187.9890897312452
 20
14.05576301120054
 30
0.0
 10
188.2679649367385
 20
14.02161435106478
 30
0.0
 10
188.2617753034907
 20
14.1691397647965
 30
0.0
 10
188.2630935452773
 20
14.2401315090883
 30
0.0
 10
188.2624831689948
 20
14.34719767958659
 30
0.0
 10
188.2625871570725
 20
14.47398529785995
 30
0.0
 10
188.2629987964055
 20
14.60849243496046
 30
0.0
 10
188.2613907841969
 20
14.7339554995118
 30
0.0
 10
188.2659902567925
 20
14.84505246719112
 30
0.0
 10
188.256418650221
 20
14.90761886800684
 30
0.0
 10
188.2704001783691
 20
14.96595388294996
 30
0.0
 10
188.2147384386705
 20
14.95289710582233
 30
0.0
 10
188.1575655197822
 20
14.96136307749494
 30
0.0
 10
188.0616048925647
 20
14.95729976080631
 30
0.0
 10
187.9633767522822
 20
14.95970889852469
 30
0.0
 10
187.8672582457561
 20
14.95551600613383
 30
0.0
 10
187.8104648525812
 20
14.96429346441157
 30
0.0
 10
187.7550356873385
 20
14.95094936850117
 30
0.0
 10
187.7670679427918
 20
15.00036910959252
 30
0.0
 10
187.7592003173937
 20
15.0439398803039
 30
0.0
 10
187.766629556383
 20
15.0883046911852
 30
0.0
 10
187.7551930564144
 20
15.13902297763987
 30
0.0
 10
187.8232102370134
 20
15.12162460757738
 30
0.0
 10
187.8968496879747
 20
15.13417450237184
 30
0.0
 10
188.0325064058211
 20
15.12799677011092
 30
0.0
 10
188.1884909024526
 20
15.13029203093079
 30
0.0
 10
188.3615926358144
 20
15.12940968262525
 30
0.0
 10
188.5346942964182
 20
15.13029207142403
 30
0.0
 10
188.6906789811218
 20
15.12799662955545
 30
0.0
 10
188.8263351889798
 20
15.13417486262426
 30
0.0
 10
188.8999756705653
 20
15.1216239421833
 30
0.0
 10
188.9679914174725
 20
15.13902373012137
 30
0.0
 10
188.9565590885923
 20
15.0883013041455
 30
0.0
 10
188.9639539458297
 20
15.04397060811103
 30
0.0
 10
188.9562039912271
 20
15.00028307550191
 30
0.0
 10
188.9681203741878
 20
14.95063590098472
 30
0.0
 10
188.9108170223617
 20
14.9646141133842
 30
0.0
 10
188.8520145789773
 20
14.95539755673249
 30
0.0
 10
188.75252936332
 20
14.95952268164925
 30
0.0
 10
188.649428009835
 20
14.95822760025882
 30
0.0
 10
188.5537846354574
 20
14.95854077077636
 30
0.0
 10
188.4857467971617
 20
14.95848776697139
 30
0.0
 10
188.4514462213443
 20
14.95849051871651
 30
0.0
 10
188.4418622390564
 20
14.95849128473259
 30
0.0
 11
188.4418622390564
 21
14.95849128473259
 31
0.0
 11
188.4418622390564
 21
14.9242366658718
 31
0.0
 11
188.4418622390564
 21
14.83392903432971
 31
0.0
 11
188.4418622390564
 21
14.70625272766677
 31
0.0
 11
188.4418622390564
 21
14.55989208344339
 31
0.0
 11
188.4418622390564
 21
14.41353143922001
 31
0.0
 11
188.4418622390564
 21
14.28585513255706
 31
0.0
 11
188.4418622390564
 21
14.19554750101498
 31
0.0
 11
188.4418622390564
 21
14.16129288215419
 31
0.0
 11
188.7391932644568
 21
14.22709475713765
 31
0.0
 11
189.0384623627245
 21
14.29496038212071
 31
0.0
 11
189.0405487124976
 21
14.27030727882827
 31
0.0
 11
189.0451386819987
 21
14.2160704515849
 31
0.0
 11
189.0497286514996
 21
14.16183362434153
 31
0.0
 11
189.0518150012728
 21
14.13718052104909
 31
0.0
 11
188.705639688924
 21
14.05163370140898
 31
0.0
 11
188.3669653138838
 21
13.97060877629902
 31
0.0
 11
188.0563731516688
 21
13.89862764024929
 31
0.0
 11
187.7944444777956
 21
13.84021218778989
 31
0.0
 11
187.7817515029293
 21
13.81283442738017
 31
0.0
 11
187.7569794787514
 21
13.79740260446738
 31
0.0
 11
187.7491867589502
 21
13.81910683390639
 31
0.0
 11
187.7306041194242
 21
13.87086307333786
 31
0.0
 11
187.7084248399901
 21
13.9326366494335
 31
0.0
 11
187.6898422004641
 21
13.98439288886497
 31
0.0
 11
187.6820494806629
 21
14.00609711830398
 31
0.0
 11
187.9482776335932
 21
14.05794001759667
 31
0.0
 11
188.2626334936289
 21
14.12373968771908
 31
0.0
 11
188.2626334936289
 21
14.15236628569622
 31
0.0
 11
188.2626334936289
 21
14.22908556827497
 31
0.0
 11
188.2626334936289
 21
14.34015676842628
 31
0.0
 11
188.2626334936289
 21
14.47183911912115
 31
0.0
 11
188.2626334936289
 21
14.61039185333052
 31
0.0
 11
188.2626334936289
 21
14.74207420402538
 31
0.0
 11
188.2626334936289
 21
14.8531454041767
 31
0.0
 11
188.2626334936289
 21
14.92986468675545
 31
0.0
 11
188.2626334936289
 21
14.95849128473259
 31
0.0
 11
188.2349191321108
 21
14.95849128473259
 31
0.0
 11
188.1634452524063
 21
14.95849128473259
 31
0.0
 11
188.0657156617901
 21
14.95849128473259
 31
0.0
 11
187.9592341675364
 21
14.95849128473259
 31
0.0
 11
187.8615045769201
 21
14.95849128473259
 31
0.0
 11
187.7900306972156
 21
14.95849128473259
 31
0.0
 11
187.7623163356976
 21
14.95849128473259
 31
0.0
 11
187.7623163356976
 21
14.98524451823284
 31
0.0
 11
187.7623163356976
 21
15.04410163193339
 31
0.0
 11
187.7623163356976
 21
15.10295874563394
 31
0.0
 11
187.7623163356976
 21
15.12971197913419
 31
0.0
 11
187.7958758072876
 21
15.12971197913419
 31
0.0
 11
187.8869658016031
 21
15.12971197913419
 31
0.0
 11
188.021203687963
 21
15.12971197913419
 31
0.0
 11
188.1842068356856
 21
15.12971197913419
 31
0.0
 11
188.3615926140897
 21
15.12971197913419
 31
0.0
 11
188.5389783924938
 21
15.12971197913419
 31
0.0
 11
188.7019815402165
 21
15.12971197913419
 31
0.0
 11
188.8362194265763
 21
15.12971197913419
 31
0.0
 11
188.9273094208919
 21
15.12971197913419
 31
0.0
 11
188.9608688924819
 21
15.12971197913419
 31
0.0
 11
188.9608688924819
 21
15.10295874563394
 31
0.0
 11
188.9608688924819
 21
15.04410163193339
 31
0.0
 11
188.9608688924819
 21
14.98524451823284
 31
0.0
 11
188.9608688924819
 21
14.95849128473259
 31
0.0
 11
188.9321192527878
 21
14.95849128473259
 31
0.0
 11
188.8579754451555
 21
14.95849128473259
 31
0.0
 11
188.7565951367605
 21
14.95849128473259
 31
0.0
 11
188.6461359947778
 21
14.95849128473259
 31
0.0
 11
188.5447556863828
 21
14.95849128473259
 31
0.0
 11
188.4706118787505
 21
14.95849128473259
 31
0.0
 11
188.4418622390564
 21
14.95849128473259
 31
0.0
  0
SPLINE
  5
AD
102
{ACAD_REACTORS
330
CA
102
}
330
48
100
AcDbEntity
  8
_U_30EC_U_30A4_U_30E4_U_30FC_1
  6
Continuous
 62
     2
100
AcDbSpline
210
0.0
220
0.0
230
1.0
 70
    11
 71
     3
 72
    91
 73
    87
 74
    85
 42
0.000000001
 43
0.0000000001
 44
0.00000001
 40
0.0
 40
0.0
 40
0.0
 40
0.0
 40
0.0345987051695718
 40
0.1258134969461085
 40
0.2547723404888703
 40
0.4026032099153556
 40
0.550434079341642
 40
0.6793929228835227
 40
0.7706077146570467
 40
0.8052064287780072
 40
1.124852390615191
 40
1.427402236308789
 40
1.706356627453436
 40
1.955541417875122
 40
2.169485938566277
 40
2.344350786664753
 40
2.480568411561888
 40
2.590440557428884
 40
2.649189927151038
 40
2.749320643306254
 40
2.91263273987996
 40
3.147745656000169
 40
3.244827496384958
 40
3.338490056946559
 40
3.583815413206965
 40
3.761423943238317
 40
3.88695610436246
 40
3.985855451886664
 40
4.091766255337549
 40
4.250186473811743
 40
4.422734315084389
 40
4.628285684838469
 40
4.872093227758292
 40
5.152549652145401
 40
5.464967135837377
 40
5.803201477852294
 40
6.160362988813761
 40
6.193449448275844
 40
6.284170385501499
 40
6.41971813876434
 40
6.587285046385619
 40
6.774063446723504
 40
6.967245678113487
 40
7.154024078817502
 40
7.321590987025859
 40
7.457138740890217
 40
7.547859678555954
 40
7.580946138182513
 40
7.608533084714567
 40
7.669224367077545
 40
7.729915649429767
 40
7.75750259594982
 40
7.790278062553302
 40
7.880146277430772
 40
8.014419963180206
 40
8.180411842397707
 40
8.365434637679176
 40
8.556801071622449
 40
8.741823866830533
 40
8.9078157459161
 40
9.042089431507197
 40
9.131957646249322
 40
9.164733112796899
 40
9.415425063139795
 40
9.667986180958245
 40
9.694169807462412
 40
9.75660768604737
 40
9.831130315322262
 40
9.893568193899698
 40
9.919751820398544
 40
9.950967964690374
 40
9.996421631210474
 40
10.22087981037438
 40
10.44341866197525
 40
10.47847970788838
 40
10.57091337438738
 40
10.70159545461213
 40
10.85140174170344
 40
11.00120802880461
 40
11.13189010907366
 40
11.22432377582994
 40
11.2593848093894
 40
11.28697175596129
 40
11.34766303835903
 40
11.40835432042054
 40
11.43594125892088
 40
11.43594125892088
 40
11.43594125892088
 40
11.43594125892088
 10
190.0818114333289
 20
15.55242795125079
 30
0.0
 10
190.070278584494
 20
15.55242790287917
 30
0.0
 10
190.0283409444999
 20
15.55242773704167
 30
0.0
 10
189.9434129719025
 20
15.5524312580091
 30
0.0
 10
189.8207688553129
 20
15.55240926435881
 30
0.0
 10
189.6791206916993
 20
15.55250801177056
 30
0.0
 10
189.537975369849
 20
15.55214686232423
 30
0.0
 10
189.4141351317905
 20
15.5532188360909
 30
0.0
 10
189.3317217825382
 20
15.5509224909127
 30
0.0
 10
189.1727791229695
 20
15.56048569373421
 30
0.0
 10
189.3503402353375
 20
15.19785394311372
 30
0.0
 10
189.3379739205453
 20
14.95243127723115
 30
0.0
 10
189.4064519473865
 20
14.66862501324836
 30
0.0
 10
189.469302432097
 20
14.43250999939035
 30
0.0
 10
189.5452253431728
 20
14.23326740396127
 30
0.0
 10
189.6303189577016
 20
14.07745347451373
 30
0.0
 10
189.7244607592936
 20
13.9765785778139
 30
0.0
 10
189.8282648207728
 20
13.92465852638962
 30
0.0
 10
189.9125872030774
 20
13.97606484379614
 30
0.0
 10
189.9351322179452
 20
14.09144544037514
 30
0.0
 10
189.9745730975371
 20
14.21885149702377
 30
0.0
 10
189.9202919734943
 20
14.53622328086754
 30
0.0
 10
190.0451218072473
 20
14.38982180140904
 30
0.0
 10
190.2019291513603
 20
14.35795300331169
 30
0.0
 10
190.0947720007058
 20
14.12421357767628
 30
0.0
 10
190.0808711209866
 20
13.95972776583658
 30
0.0
 10
190.0234709467226
 20
13.83130869122482
 30
0.0
 10
189.9335020145008
 20
13.76018802352829
 30
0.0
 10
189.8095274657877
 20
13.74432324142255
 30
0.0
 10
189.663427319686
 20
13.77993797554174
 30
0.0
 10
189.5243894320284
 20
13.90000570500279
 30
0.0
 10
189.4102003962144
 20
14.07435682550323
 30
0.0
 10
189.3146141301486
 20
14.29946603111244
 30
0.0
 10
189.2318652572627
 20
14.56388246006445
 30
0.0
 10
189.1807179256412
 20
14.88187933098546
 30
0.0
 10
189.077018920734
 20
15.15543728488915
 30
0.0
 10
189.204284120852
 20
15.56005818612869
 30
0.0
 10
189.0357890623019
 20
15.5511236784968
 30
0.0
 10
188.9511995787077
 20
15.55315961418365
 30
0.0
 10
188.8189876387628
 20
15.55213937388407
 30
0.0
 10
188.6560505094104
 20
15.55253230318431
 30
0.0
 10
188.4733759170534
 20
15.5523569631337
 30
0.0
 10
188.2847057373383
 20
15.5526010530747
 30
0.0
 10
188.101446902019
 20
15.55185657906238
 30
0.0
 10
187.9404746832718
 20
15.55416360522428
 30
0.0
 10
187.8029808335277
 20
15.54799804883664
 30
0.0
 10
187.7289590372312
 20
15.56032838458213
 30
0.0
 10
187.6613215186857
 20
15.54329323723558
 30
0.0
 10
187.673237371927
 20
15.5952443844753
 30
0.0
 10
187.6655677285694
 20
15.64071424966531
 30
0.0
 10
187.6732592225117
 20
15.68614453703708
 30
0.0
 10
187.6613141797762
 20
15.73802395984573
 30
0.0
 10
187.7283588305867
 20
15.72119143490266
 30
0.0
 10
187.8017375665678
 20
15.73335409092673
 30
0.0
 10
187.9379128305272
 20
15.7272723107496
 30
0.0
 10
188.0973811801513
 20
15.7295483431506
 30
0.0
 10
188.2789173085837
 20
15.72881233998964
 30
0.0
 10
188.4658034862179
 20
15.72905954196136
 30
0.0
 10
188.6468012316836
 20
15.72886400799256
 30
0.0
 10
188.8080802578879
 20
15.72932234714841
 30
0.0
 10
188.9393882124887
 20
15.72812673751208
 30
0.0
 10
189.0225051322597
 20
15.73051347319745
 30
0.0
 10
189.1556236547813
 20
15.72230605725465
 30
0.0
 10
189.064589350266
 20
15.97752868952656
 30
0.0
 10
188.9789633074419
 20
16.24164358328244
 30
0.0
 10
189.0990589003455
 20
16.22904442969163
 30
0.0
 10
189.1514264948543
 20
16.22694235763074
 30
0.0
 10
189.2214497569717
 20
16.22535399889657
 30
0.0
 10
189.2671922337817
 20
16.21602567538112
 30
0.0
 10
189.3220812646934
 20
16.22545966915427
 30
0.0
 10
189.2963574785682
 20
16.17733028655173
 30
0.0
 10
189.1825397571453
 20
16.18266829744177
 30
0.0
 10
189.3159346621136
 20
15.95449174576776
 30
0.0
 10
189.1943658735471
 20
15.72156856595925
 30
0.0
 10
189.3223188769413
 20
15.73087258884441
 30
0.0
 10
189.4049048406461
 20
15.72801001754682
 30
0.0
 10
189.5307214850824
 20
15.72923437412305
 30
0.0
 10
189.6741469838057
 20
15.72932431888966
 30
0.0
 10
189.8157420951728
 20
15.72746163183855
 30
0.0
 10
189.9459127249967
 20
15.73333075937165
 30
0.0
 10
190.0193452286191
 20
15.72070340823206
 30
0.0
 10
190.0891112922096
 20
15.73877563110414
 30
0.0
 10
190.0775772605396
 20
15.68612850546328
 30
0.0
 10
190.0833184346682
 20
15.64221317686549
 30
0.0
 10
190.081661577091
 20
15.5908998267655
 30
0.0
 10
190.081775756167
 20
15.56158792021636
 30
0.0
 10
190.0818114333289
 20
15.55242795125079
 30
0.0
 11
190.0818114333289
 21
15.55242795125079
 31
0.0
 11
190.0472127192051
 21
15.55242795125079
 31
0.0
 11
189.9559979274241
 21
15.55242795125079
 31
0.0
 11
189.8270390838717
 21
15.55242795125079
 31
0.0
 11
189.6792082144336
 21
15.55242795125079
 31
0.0
 11
189.5313773449955
 21
15.55242795125079
 31
0.0
 11
189.4024185014431
 21
15.55242795125079
 31
0.0
 11
189.3112037096621
 21
15.55242795125079
 31
0.0
 11
189.2766049955383
 21
15.55242795125079
 31
0.0
 11
189.3083140497694
 21
15.23435864930123
 31
0.0
 11
189.3527866656866
 21
14.93509522788082
 31
0.0
 11
189.409238911832
 21
14.66191269512577
 31
0.0
 11
189.4768868567478
 21
14.42208605917227
 31
0.0
 11
189.5549465689762
 21
14.22289032815653
 31
0.0
 11
189.6426341170592
 21
14.07160051021475
 31
0.0
 11
189.7391655695389
 21
13.97549161348314
 31
0.0
 11
189.8437569949575
 21
13.94183864609789
 31
0.0
 11
189.8943077302786
 21
13.97177376978832
 31
0.0
 11
189.9310588991552
 21
14.06491619815045
 31
0.0
 11
189.9562640977528
 21
14.22627151712052
 31
0.0
 11
189.9721769222369
 21
14.4608453126348
 31
0.0
 11
190.0494082682583
 21
14.40202182306618
 31
0.0
 11
190.1327184184385
 21
14.35921885432688
 31
0.0
 11
190.1066365811217
 21
14.1152838866101
 31
0.0
 11
190.0673317805105
 21
13.94207902887563
 31
0.0
 11
190.0105702596765
 21
13.83011272445919
 31
0.0
 11
189.932118261691
 21
13.76989341669647
 31
0.0
 11
189.8277420296256
 21
13.75192954892319
 31
0.0
 11
189.6738595065097
 21
13.78957440012363
 31
0.0
 11
189.5388902376747
 21
13.89707348877405
 31
0.0
 11
189.4221739916163
 21
14.06627361744811
 31
0.0
 11
189.32305053683
 21
14.28902158871946
 31
0.0
 11
189.2408596418114
 21
14.55716420516175
 31
0.0
 11
189.174941075056
 21
14.86254826934863
 31
0.0
 11
189.1246346050594
 21
15.19702058385376
 31
0.0
 11
189.0892800003172
 21
15.55242795125079
 31
0.0
 11
189.0561935405844
 21
15.55242795125079
 31
0.0
 11
188.9654726026075
 21
15.55242795125079
 31
0.0
 11
188.8299248482186
 21
15.55242795125079
 31
0.0
 11
188.6623579392495
 21
15.55242795125079
 31
0.0
 11
188.4755795375324
 21
15.55242795125079
 31
0.0
 11
188.2823973048993
 21
15.55242795125079
 31
0.0
 11
188.0956189031822
 21
15.55242795125079
 31
0.0
 11
187.9280519942132
 21
15.55242795125079
 31
0.0
 11
187.7925042398242
 21
15.55242795125079
 31
0.0
 11
187.7017833018473
 21
15.55242795125079
 31
0.0
 11
187.6686968421146
 21
15.55242795125079
 31
0.0
 11
187.6686968421146
 21
15.58001489785848
 31
0.0
 11
187.6686968421146
 21
15.64070618039539
 31
0.0
 11
187.6686968421146
 21
15.70139746293231
 31
0.0
 11
187.6686968421146
 21
15.72898440954
 31
0.0
 11
187.7014723087632
 21
15.72898440954
 31
0.0
 11
187.7913405237674
 21
15.72898440954
 31
0.0
 11
187.9256142097149
 21
15.72898440954
 31
0.0
 11
188.0916060891932
 21
15.72898440954
 31
0.0
 11
188.2766288847902
 21
15.72898440954
 31
0.0
 11
188.4679953190932
 21
15.72898440954
 31
0.0
 11
188.6530181146902
 21
15.72898440954
 31
0.0
 11
188.8190099941685
 21
15.72898440954
 31
0.0
 11
188.953283680116
 21
15.72898440954
 31
0.0
 11
189.0431518951202
 21
15.72898440954
 31
0.0
 11
189.0759273617688
 21
15.72898440954
 31
0.0
 11
189.0659183950103
 21
15.97947647544958
 31
0.0
 11
189.0599112510663
 21
16.23196614552529
 31
0.0
 11
189.0860575870659
 21
16.2305692160812
 31
0.0
 11
189.1484065421419
 21
16.22723807663759
 31
0.0
 11
189.22282303691
 21
16.22326220052749
 31
0.0
 11
189.285171991986
 21
16.21993106108388
 31
0.0
 11
189.3113183279856
 21
16.21853413163979
 31
0.0
 11
189.2982931113041
 21
16.1901652861608
 31
0.0
 11
189.2551649266406
 21
16.17581274276168
 31
0.0
 11
189.2574991961821
 21
15.95136670115109
 31
0.0
 11
189.2658452735903
 21
15.72898440954
 31
0.0
 11
189.3009063195165
 21
15.72898440954
 31
0.0
 11
189.3933399860495
 21
15.72898440954
 31
0.0
 11
189.5240220663201
 21
15.72898440954
 31
0.0
 11
189.6738283534596
 21
15.72898440954
 31
0.0
 11
189.8236346405991
 21
15.72898440954
 31
0.0
 11
189.9543167208697
 21
15.72898440954
 31
0.0
 11
190.0467503874027
 21
15.72898440954
 31
0.0
 11
190.0818114333289
 21
15.72898440954
 31
0.0
 11
190.0818114333289
 21
15.70139746293231
 31
0.0
 11
190.0818114333289
 21
15.64070618039539
 31
0.0
 11
190.0818114333289
 21
15.58001489785848
 31
0.0
 11
190.0818114333289
 21
15.55242795125079
 31
0.0
  0
SPLINE
  5
AE
102
{ACAD_REACTORS
330
CB
102
}
330
48
100
AcDbEntity
  8
_U_30EC_U_30A4_U_30E4_U_30FC_1
  6
Continuous
 62
     2
100
AcDbSpline
210
0.0
220
0.0
230
1.0
 70
    11
 71
     3
 72
   118
 73
   114
 74
   112
 42
0.000000001
 43
0.0000000001
 44
0.00000001
 40
0.0
 40
0.0
 40
0.0
 40
0.0
 40
0.1054708162972979
 40
0.2466098270051312
 40
0.3965912874590529
 40
0.528552506975333
 40
0.6156245055641599
 40
0.6431434105796869
 40
0.7036850037985488
 40
0.76422659845038
 40
0.7917455052354075
 40
0.9287404319988871
 40
1.106572819087882
 40
1.287544879680859
 40
1.317578308030376
 40
1.399928030857013
 40
1.522968204799789
 40
1.67507298659041
 40
1.844616533180489
 40
2.019973001638551
 40
2.189516548879864
 40
2.341621331585202
 40
2.464661506320337
 40
2.547011229646902
 40
2.577044658167866
 40
2.603797890892965
 40
2.662655002908766
 40
2.721512114949663
 40
2.748265347702843
 40
2.774215307344918
 40
2.84595931340725
 40
2.954338556588447
 40
3.090194227585622
 40
3.244367517100589
 40
3.407699615844344
 40
3.571031714539491
 40
3.725205003920169
 40
3.861060674729668
 40
3.96943991771636
 40
4.041183923629031
 40
4.067133883213025
 40
4.311886746012183
 40
4.5478972583355
 40
4.764747083043965
 40
4.952749679951768
 40
5.045772974195911
 40
5.13786201964493
 40
5.330543169792956
 40
5.553448265243941
 40
5.795083855888122
 40
6.043293412177187
 40
6.285761695541089
 40
6.313902908752601
 40
6.384255941793191
 40
6.475714884766779
 40
6.56717382775887
 40
6.637526860839676
 40
6.665668074074039
 40
6.692018920328019
 40
6.749990782071103
 40
6.807962643790486
 40
6.834313490017966
 40
6.856393084245216
 40
6.913335195649868
 40
6.991194817302503
 40
7.076026942283708
 40
7.153886563725226
 40
7.210828674844752
 40
7.232908268931087
 40
7.25819933492361
 40
7.324875781592265
 40
7.419142481924929
 40
7.527204308841879
 40
7.635266135230466
 40
7.729532834168459
 40
7.796209279292786
 40
7.821500344594735
 40
7.844652988850834
 40
7.899863140541642
 40
7.965759128053809
 40
8.020969279771151
 40
8.044121924046618
 40
8.069356610160698
 40
8.109134395441403
 40
8.132238100191119
 40
8.193147867786484
 40
8.279261678876663
 40
8.377977512673882
 40
8.476693347146673
 40
8.56280716041173
 40
8.623716930826518
 40
8.646820636853473
 40
8.671988793774286
 40
8.734909185828169
 40
8.816705695188883
 40
8.898502204815454
 40
8.961422597377915
 40
8.986590754551028
 40
9.012941600733189
 40
9.070913462380288
 40
9.128885324081796
 40
9.155236170325123
 40
9.180404327929166
 40
9.24332472194824
 40
9.325121234212004
 40
9.406917746637658
 40
9.469838141978114
 40
9.495006288270888
 40
9.517811184379024
 40
9.572192090487013
 40
9.637098333281227
 40
9.691479239515415
 40
9.714284125643449
 40
9.714284125643449
 40
9.714284125643449
 40
9.714284125643449
 10
185.2874469028654
 20
15.26889163187718
 30
0.0
 10
185.3090990569038
 20
15.2411186924281
 30
0.0
 10
185.3597257109474
 20
15.17618054561234
 30
0.0
 10
185.4349383202592
 20
15.06891060312898
 30
0.0
 10
185.5248482274346
 20
14.95377438266624
 30
0.0
 10
185.5709169676673
 20
14.85357045748318
 30
0.0
 10
185.6655825294654
 20
14.78434006814941
 30
0.0
 10
185.6204439320413
 20
14.73771639678272
 30
0.0
 10
185.594704778579
 20
14.69660308866039
 30
0.0
 10
185.5645196708011
 20
14.66065971727939
 30
0.0
 10
185.5193684730563
 20
14.58579782596096
 30
0.0
 10
185.4710504458562
 20
14.80782524253601
 30
0.0
 10
185.3968539713074
 20
14.84510677337708
 30
0.0
 10
185.2836047324608
 20
15.11610202130598
 30
0.0
 10
185.2885133578171
 20
15.00095328446225
 30
0.0
 10
185.2868486556306
 20
14.92836675781624
 30
0.0
 10
185.2876830076715
 20
14.80625588483983
 30
0.0
 10
185.2873609540265
 20
14.65913800810457
 30
0.0
 10
185.2875076912457
 20
14.49307063956554
 30
0.0
 10
185.2872950092723
 20
14.32187554608599
 30
0.0
 10
185.2879497252034
 20
14.15552828635495
 30
0.0
 10
185.2859192461141
 20
14.0093517305569
 30
0.0
 10
185.2913460399931
 20
13.88471047474608
 30
0.0
 10
185.280493086871
 20
13.81718656540623
 30
0.0
 10
185.2956739155555
 20
13.75549061417018
 30
0.0
 10
185.2457895108134
 20
13.76727503896999
 30
0.0
 10
185.2017150342521
 20
13.75943822779966
 30
0.0
 10
185.1582371630201
 20
13.76760441372701
 30
0.0
 10
185.1092346786487
 20
13.75538056738465
 30
0.0
 10
185.1218731234824
 20
13.8096066724931
 30
0.0
 10
185.1130182968448
 20
13.86936918907554
 30
0.0
 10
185.1175058770312
 20
13.97922029044367
 30
0.0
 10
185.115796013599
 20
14.11029975405675
 30
0.0
 10
185.1163550915986
 20
14.26198011444324
 30
0.0
 10
185.1161928768692
 20
14.4221107492995
 30
0.0
 10
185.1162269924674
 20
14.58236865674563
 30
0.0
 10
185.1162514960126
 20
14.73370247520436
 30
0.0
 10
185.1161453543224
 20
14.86582156338597
 30
0.0
 10
185.1164299141931
 20
14.97294802533189
 30
0.0
 10
185.1158675547566
 20
15.0380861957947
 30
0.0
 10
185.1180765083689
 20
15.1661895785867
 30
0.0
 10
185.0319435998601
 20
14.79097610391575
 30
0.0
 10
184.9555140818501
 20
14.63918193123389
 30
0.0
 10
184.8660040767833
 20
14.47766206446305
 30
0.0
 10
184.7640413217326
 20
14.20471848820169
 30
0.0
 10
184.7187976491039
 20
14.36717346596507
 30
0.0
 10
184.6102355941671
 20
14.45605432058122
 30
0.0
 10
184.7995791751753
 20
14.60549794961408
 30
0.0
 10
184.85653405457
 20
14.79749136974926
 30
0.0
 10
184.9717520993353
 20
15.02899622906756
 30
0.0
 10
184.9940151630133
 20
15.21797259759058
 30
0.0
 10
185.177190515214
 20
15.49454089325927
 30
0.0
 10
185.0538033597552
 20
15.48698978832087
 30
0.0
 10
184.9925684166834
 20
15.48856772366113
 30
0.0
 10
184.9081999617064
 20
15.48882592573666
 30
0.0
 10
184.8204235085965
 20
15.48544845751199
 30
0.0
 10
184.7656768696123
 20
15.49394814982014
 30
0.0
 10
184.7104703026024
 20
15.48048561049782
 30
0.0
 10
184.7222823035536
 20
15.52931442126758
 30
0.0
 10
184.7142496151793
 20
15.57269004896704
 30
0.0
 10
184.7228186104679
 20
15.6150943830957
 30
0.0
 10
184.7102943409157
 20
15.66267796552115
 30
0.0
 10
184.7555101538735
 20
15.65267212995107
 30
0.0
 10
184.8014815562723
 20
15.65894105174059
 30
0.0
 10
184.877722204771
 20
15.6559356140587
 30
0.0
 10
184.9561296131993
 20
15.65770448278539
 30
0.0
 10
185.0323992648932
 20
15.65464793981658
 30
0.0
 10
185.0783009459473
 20
15.66103971376175
 30
0.0
 10
185.1231733965399
 20
15.65093822978894
 30
0.0
 10
185.1105552275633
 20
15.70157201581897
 30
0.0
 10
185.1191936582704
 20
15.75501261882068
 30
0.0
 10
185.1152361595441
 20
15.8486325513168
 30
0.0
 10
185.1162325068334
 20
15.95112606688924
 30
0.0
 10
185.1171927413072
 20
16.05353270248164
 30
0.0
 10
185.1133211458005
 20
16.14735929609324
 30
0.0
 10
185.1217789814363
 20
16.20036542840355
 30
0.0
 10
185.1093075932834
 20
16.25211435651191
 30
0.0
 10
185.1542106389849
 20
16.23850747226759
 30
0.0
 10
185.1955083836771
 20
16.24100480320587
 30
0.0
 10
185.259534428105
 20
16.23648060574489
 30
0.0
 10
185.2986111148785
 20
16.22781003043307
 30
0.0
 10
185.3476543498743
 20
16.23515102070688
 30
0.0
 10
185.3225080030591
 20
16.19602896051755
 30
0.0
 10
185.2815901333725
 20
16.20563842455807
 30
0.0
 10
185.2910109616604
 20
16.15540148169778
 30
0.0
 10
185.2855647318747
 20
16.10385945639491
 30
0.0
 10
185.2881699601805
 20
16.0195970758452
 30
0.0
 10
185.2870102202156
 20
15.92559135583408
 30
0.0
 10
185.2883591064232
 20
15.83196865395524
 30
0.0
 10
185.284997010151
 20
15.74679517552222
 30
0.0
 10
185.292095991777
 20
15.69716856072042
 30
0.0
 10
185.2812569154547
 20
15.64993694969987
 30
0.0
 10
185.3304010225245
 20
15.66201674936849
 30
0.0
 10
185.3794877630148
 20
15.6544739336301
 30
0.0
 10
185.4573714280642
 20
15.65686070361431
 30
0.0
 10
185.5350365172897
 20
15.65899381905413
 30
0.0
 10
185.5845393931355
 20
15.65193391922453
 30
0.0
 10
185.6344594750639
 20
15.66360151936212
 30
0.0
 10
185.6223198516882
 20
15.6154023537139
 30
0.0
 10
185.6305838229144
 20
15.57249219801231
 30
0.0
 10
185.6223198650785
 20
15.5295820185138
 30
0.0
 10
185.6344594549855
 20
15.48138288754858
 30
0.0
 10
185.5845395158747
 20
15.49305034471504
 30
0.0
 10
185.5350350651203
 20
15.4859920243504
 30
0.0
 10
185.4573784382974
 20
15.48811665228597
 30
0.0
 10
185.3794643865762
 20
15.49053389365755
 30
0.0
 10
185.3304500352717
 20
15.48291848194479
 30
0.0
 10
185.2813246108944
 20
15.49507952557586
 30
0.0
 10
185.2915559988572
 20
15.45073013424152
 30
0.0
 10
185.2856677678054
 20
15.40925436202907
 30
0.0
 10
185.287878830557
 20
15.349153943153
 30
0.0
 10
185.2874109346147
 20
15.30225782762887
 30
0.0
 10
185.2874386992914
 20
15.27650146418195
 30
0.0
 10
185.2874469028654
 20
15.26889163187718
 30
0.0
 11
185.2874469028654
 21
15.26889163187718
 31
0.0
 11
185.3516977534485
 21
15.18524999634256
 31
0.0
 11
185.4348258835499
 21
15.07118889748221
 31
0.0
 11
185.5216831568896
 21
14.94891767195723
 31
0.0
 11
185.5971214371872
 21
14.84064565642875
 31
0.0
 11
185.6459925881626
 21
14.76858218755788
 31
0.0
 11
185.6296821285093
 21
14.74641782124398
 31
0.0
 11
185.5937991172719
 21
14.69765621535339
 31
0.0
 11
185.5579161060346
 21
14.6488946094628
 31
0.0
 11
185.5416056463813
 21
14.6267302431489
 31
0.0
 11
185.4763067109446
 21
14.74716139023812
 31
0.0
 11
185.3848434243235
 21
14.89966983670203
 31
0.0
 11
185.2874469028654
 21
15.05219788193139
 31
0.0
 11
185.2874469028654
 21
15.0221644532825
 31
0.0
 11
185.2874469028654
 21
14.9398147295678
 31
0.0
 11
185.2874469028654
 21
14.81677455413525
 31
0.0
 11
185.2874469028654
 21
14.6646697703328
 31
0.0
 11
185.2874469028654
 21
14.49512622150842
 31
0.0
 11
185.2874469028654
 21
14.31976975101006
 31
0.0
 11
185.2874469028654
 21
14.15022620218568
 31
0.0
 11
185.2874469028654
 21
13.99812141838323
 31
0.0
 11
185.2874469028654
 21
13.87508124295068
 31
0.0
 11
185.2874469028654
 21
13.79273151923598
 31
0.0
 11
185.2874469028654
 21
13.76269809058709
 31
0.0
 11
185.260693670041
 21
13.76269809058709
 31
0.0
 11
185.2018365578271
 21
13.76269809058709
 31
0.0
 11
185.1429794456133
 21
13.76269809058709
 31
0.0
 11
185.1162262127889
 21
13.76269809058709
 31
0.0
 11
185.1162262127889
 21
13.78864805031247
 31
0.0
 11
185.1162262127889
 21
13.86039205661205
 31
0.0
 11
185.1162262127889
 21
13.96877130017098
 31
0.0
 11
185.1162262127889
 21
14.10462697167444
 31
0.0
 11
185.1162262127889
 21
14.25880026180758
 31
0.0
 11
185.1162262127889
 21
14.42213236125555
 31
0.0
 11
185.1162262127889
 21
14.58546446070352
 31
0.0
 11
185.1162262127889
 21
14.73963775083666
 31
0.0
 11
185.1162262127889
 21
14.87549342234012
 31
0.0
 11
185.1162262127889
 21
14.98387266589905
 31
0.0
 11
185.1162262127889
 21
15.05561667219863
 31
0.0
 11
185.1162262127889
 21
15.08156663192401
 31
0.0
 11
185.0379865861721
 21
14.84965603302369
 31
0.0
 11
184.9497110789304
 21
14.63077616328676
 31
0.0
 11
184.8544106930045
 21
14.43598991333545
 31
0.0
 11
184.7550964303356
 21
14.276360173792
 31
0.0
 11
184.7109198342406
 21
14.35822446196599
 31
0.0
 11
184.6588057383481
 21
14.43414885430809
 31
0.0
 11
184.7627302590299
 21
14.59640087926756
 31
0.0
 11
184.8629319864735
 21
14.7955146542178
 31
0.0
 11
184.9550446607902
 21
15.01890447916196
 31
0.0
 11
185.0347020220913
 21
15.25398465410317
 31
0.0
 11
185.0975378104881
 21
15.48816947904459
 31
0.0
 11
185.0693965972143
 21
15.48816947904459
 31
0.0
 11
184.9990435640298
 21
15.48816947904459
 31
0.0
 11
184.9075846208899
 21
15.48816947904459
 31
0.0
 11
184.81612567775
 21
15.48816947904459
 31
0.0
 11
184.7457726445654
 21
15.48816947904459
 31
0.0
 11
184.7176314312916
 21
15.48816947904459
 31
0.0
 11
184.7176314312916
 21
15.51452032539217
 31
0.0
 11
184.7176314312916
 21
15.57249218735685
 31
0.0
 11
184.7176314312916
 21
15.63046404932152
 31
0.0
 11
184.7176314312916
 21
15.6568148956691
 31
0.0
 11
184.7397110256019
 21
15.6568148956691
 31
0.0
 11
184.7966531372444
 21
15.6568148956691
 31
0.0
 11
184.8745127592862
 21
15.6568148956691
 31
0.0
 11
184.9593448847943
 21
15.6568148956691
 31
0.0
 11
185.0372045068361
 21
15.6568148956691
 31
0.0
 11
185.0941466184785
 21
15.6568148956691
 31
0.0
 11
185.1162262127889
 21
15.6568148956691
 31
0.0
 11
185.1162262127889
 21
15.68210596174351
 31
0.0
 11
185.1162262127889
 21
15.74878240866696
 31
0.0
 11
185.1162262127889
 21
15.84304910948976
 31
0.0
 11
185.1162262127889
 21
15.95111093726224
 31
0.0
 11
185.1162262127889
 21
16.05917276503473
 31
0.0
 11
185.1162262127889
 21
16.15343946585753
 31
0.0
 11
185.1162262127889
 21
16.22011591278098
 31
0.0
 11
185.1162262127889
 21
16.24540697885539
 31
0.0
 11
185.1393181988664
 21
16.24373213107803
 31
0.0
 11
185.1943837041284
 21
16.23973826330123
 31
0.0
 11
185.2601070491183
 21
16.23497138885797
 31
0.0
 11
185.3151725543802
 21
16.23097752108117
 31
0.0
 11
185.3382645404578
 21
16.22930267330381
 31
0.0
 11
185.3249012644362
 21
16.20789677921189
 31
0.0
 11
185.2874469028654
 21
16.1945011455347
 31
0.0
 11
185.2874469028654
 21
16.17139743948579
 31
0.0
 11
185.2874469028654
 21
16.1104876689932
 31
0.0
 11
185.2874469028654
 21
16.02437385553816
 31
0.0
 11
185.2874469028654
 21
15.9256580206019
 31
0.0
 11
185.2874469028654
 21
15.82694218566564
 31
0.0
 11
185.2874469028654
 21
15.7408283722106
 31
0.0
 11
185.2874469028654
 21
15.67991860171801
 31
0.0
 11
185.2874469028654
 21
15.6568148956691
 31
0.0
 11
185.312615060481
 21
15.6568148956691
 31
0.0
 11
185.37553545452
 21
15.6568148956691
 31
0.0
 11
185.4573319667707
 21
15.6568148956691
 31
0.0
 11
185.5391284790213
 21
15.6568148956691
 31
0.0
 11
185.6020488730603
 21
15.6568148956691
 31
0.0
 11
185.6272170306759
 21
15.6568148956691
 31
0.0
 11
185.6272170306759
 21
15.63046404932152
 31
0.0
 11
185.6272170306759
 21
15.57249218735685
 31
0.0
 11
185.6272170306759
 21
15.51452032539217
 31
0.0
 11
185.6272170306759
 21
15.48816947904459
 31
0.0
 11
185.6020488730603
 21
15.48816947904459
 31
0.0
 11
185.5391284790213
 21
15.48816947904459
 31
0.0
 11
185.4573319667707
 21
15.48816947904459
 31
0.0
 11
185.37553545452
 21
15.48816947904459
 31
0.0
 11
185.312615060481
 21
15.48816947904459
 31
0.0
 11
185.2874469028654
 21
15.48816947904459
 31
0.0
 11
185.2874469028654
 21
15.46536458293918
 31
0.0
 11
185.2874469028654
 21
15.41098367684166
 31
0.0
 11
185.2874469028654
 21
15.34607743408011
 31
0.0
 11
185.2874469028654
 21
15.29169652798259
 31
0.0
 11
185.2874469028654
 21
15.26889163187718
 31
0.0
  0
SPLINE
  5
AF
102
{ACAD_REACTORS
330
CC
102
}
330
48
100
AcDbEntity
  8
_U_30EC_U_30A4_U_30E4_U_30FC_1
  6
Continuous
 62
     2
100
AcDbSpline
210
0.0
220
0.0
230
1.0
 70
    11
 71
     3
 72
    47
 73
    43
 74
    41
 42
0.000000001
 43
0.0000000001
 44
0.00000001
 40
0.0
 40
0.0
 40
0.0
 40
0.0
 40
0.2207912809957372
 40
0.4459404186303237
 40
0.4902387190459442
 40
0.532747389272233
 40
0.5742260451225971
 40
0.6155432630561829
 40
0.656816406631646
 40
0.6982511618780851
 40
0.7407663929317295
 40
0.7851366743175345
 40
1.010288833836337
 40
1.231080507002203
 40
1.451765243652384
 40
1.676638205891666
 40
1.720461045359639
 40
1.830018144043505
 40
1.972442372353139
 40
2.114866600677508
 40
2.224423699395137
 40
2.268246538883378
 40
2.493628801207236
 40
2.715602830286617
 40
2.934211330706381
 40
3.149502369855344
 40
3.231387784850875
 40
3.318231873853938
 40
3.405143198197953
 40
3.486970301720445
 40
3.70225817249386
 40
3.920866283534099
 40
4.142839325931873
 40
4.368221903865361
 40
4.412044743359843
 40
4.521601842095858
 40
4.664026070452341
 40
4.806450298809054
 40
4.916007397546748
 40
4.959830237043072
 40
5.184703515847103
 40
5.405387250767431
 40
5.405387250767431
 40
5.405387250767431
 40
5.405387250767431
 10
182.6507427258645
 20
15.73406440953869
 30
0.0
 10
182.6568139420002
 20
15.79758482501207
 30
0.0
 10
182.6690762107242
 20
15.92587938689624
 30
0.0
 10
182.5604706879411
 20
16.20166220174077
 30
0.0
 10
182.6761985896604
 20
16.17188133432051
 30
0.0
 10
182.7171842509015
 20
16.16765556262828
 30
0.0
 10
182.7591205797519
 20
16.16310446389605
 30
0.0
 10
182.8004196625711
 20
16.16201982929488
 30
0.0
 10
182.8417032115556
 20
16.16310338195226
 30
0.0
 10
182.8836148270647
 20
16.16766112711352
 30
0.0
 10
182.9245983549019
 20
16.17187430209726
 30
0.0
 10
183.0404922843488
 20
16.20177611317534
 30
0.0
 10
182.9295652727457
 20
15.92339806609886
 30
0.0
 10
182.9574856365266
 20
15.74283140824952
 30
0.0
 10
182.940426734697
 20
15.50961042346471
 30
0.0
 10
182.9414637282102
 20
15.34906622543147
 30
0.0
 10
182.9414099399405
 20
15.22284817558723
 30
0.0
 10
182.941427737248
 20
15.12428963336242
 30
0.0
 10
182.941418858108
 20
14.99280702442964
 30
0.0
 10
182.9414263928034
 20
14.86132844968651
 30
0.0
 10
182.9414129405127
 20
14.76276222694091
 30
0.0
 10
182.9414531717493
 20
14.63639735624153
 30
0.0
 10
182.9406746403818
 20
14.4748206882287
 30
0.0
 10
182.9565958319266
 20
14.24361821892913
 30
0.0
 10
182.9333468885408
 20
14.05874351972003
 30
0.0
 10
183.0360183444366
 20
13.78935602770061
 30
0.0
 10
182.8820238362837
 20
13.82660112685817
 30
0.0
 10
182.8004129802833
 20
13.82137994680527
 30
0.0
 10
182.7188192292583
 20
13.82660620378351
 30
0.0
 10
182.5648513666843
 20
13.78937069885388
 30
0.0
 10
182.6674183421917
 20
14.05875129862879
 30
0.0
 10
182.6442045316088
 20
14.24361585325414
 30
0.0
 10
182.6600444655138
 20
14.47482218565638
 30
0.0
 10
182.6593296313429
 20
14.63639712308504
 30
0.0
 10
182.6593664569907
 20
14.76276231210521
 30
0.0
 10
182.6593549000272
 20
14.86132756635983
 30
0.0
 10
182.6593575019214
 20
14.9928112741722
 30
0.0
 10
182.6593648531779
 20
15.12427548031201
 30
0.0
 10
182.6593442541352
 20
15.22287786275328
 30
0.0
 10
182.6594082192029
 20
15.34896149354429
 30
0.0
 10
182.658173394759
 20
15.51210091383771
 30
0.0
 10
182.6532040396745
 20
15.66054183777548
 30
0.0
 10
182.6507427258645
 20
15.73406440953869
 30
0.0
 11
182.6507427258645
 21
15.73406440953869
 31
0.0
 11
182.6417328200379
 21
15.95467178795576
 31
0.0
 11
182.6318769706146
 21
16.17960510387178
 31
0.0
 11
182.6756985840801
 21
16.17312391463728
 31
0.0
 11
182.7178400934215
 21
16.16754892331929
 31
0.0
 11
182.7591371409791
 21
16.16367167505632
 31
0.0
 11
182.8004341885366
 21
16.16238072887609
 31
0.0
 11
182.8416871388731
 21
16.16367167505632
 31
0.0
 11
182.8829400892097
 21
16.16754892331929
 31
0.0
 11
182.9250882131343
 21
16.17312391463728
 31
0.0
 11
182.9689825870145
 21
16.17960510387178
 31
0.0
 11
182.9590577693891
 21
15.95467178795576
 31
0.0
 11
182.950038420831
 21
15.73406440953869
 31
0.0
 11
182.9435638463435
 21
15.51347467001056
 31
0.0
 11
182.9414218238286
 21
15.28861190965009
 31
0.0
 11
182.9414218238286
 21
15.24478907015487
 31
0.0
 11
182.9414218238286
 21
15.13523197141684
 31
0.0
 11
182.9414218238286
 21
14.99280774305738
 31
0.0
 11
182.9414218238286
 21
14.85038351469793
 31
0.0
 11
182.9414218238286
 21
14.74082641595989
 31
0.0
 11
182.9414218238286
 21
14.69700357646468
 31
0.0
 11
182.9435638463435
 21
14.47163149318764
 31
0.0
 11
182.950038420831
 21
14.2497519099098
 31
0.0
 11
182.9590577693892
 21
14.03132954885328
 31
0.0
 11
182.9689825870145
 21
13.81626739612929
 31
0.0
 11
182.8872616168771
 21
13.82145433189185
 31
0.0
 11
182.8004341885366
 21
13.82315538223858
 31
0.0
 11
182.713539511934
 21
13.82145433189185
 31
0.0
 11
182.6318769706146
 21
13.81626739612929
 31
0.0
 11
182.6417328200379
 21
14.03132954885328
 31
0.0
 11
182.6507427258645
 21
14.2497519099098
 31
0.0
 11
182.6571833838798
 21
14.47163149318764
 31
0.0
 11
182.6593583588024
 21
14.69700357646468
 31
0.0
 11
182.6593583588024
 21
14.74082641595989
 31
0.0
 11
182.6593583588024
 21
14.85038351469793
 31
0.0
 11
182.6593583588024
 21
14.99280774305738
 31
0.0
 11
182.6593583588024
 21
15.13523197141684
 31
0.0
 11
182.6593583588024
 21
15.24478907015487
 31
0.0
 11
182.6593583588024
 21
15.28861190965009
 31
0.0
 11
182.6571833838798
 21
15.51347467001056
 31
0.0
 11
182.6507427258645
 21
15.73406440953869
 31
0.0
  0
SPLINE
  5
B0
102
{ACAD_REACTORS
330
CD
102
}
330
48
100
AcDbEntity
  8
_U_30EC_U_30A4_U_30E4_U_30FC_1
  6
Continuous
 62
     2
100
AcDbSpline
210
0.0
220
0.0
230
1.0
 70
    11
 71
     3
 72
   110
 73
   106
 74
   104
 42
0.000000001
 43
0.0000000001
 44
0.00000001
 40
0.0
 40
0.0
 40
0.0
 40
0.0
 40
0.2203406257277607
 40
0.440780878283809
 40
0.5952494494615065
 40
0.7488431659393051
 40
0.9023581831308476
 40
1.056801968670403
 40
1.210736449099875
 40
1.363041386539697
 40
1.515315729683067
 40
1.669377239148074
 40
1.721611652756574
 40
1.773199502942981
 40
1.824933793209992
 40
1.877110426488009
 40
1.982682281206776
 40
2.078781667087559
 40
2.172809640822335
 40
2.27193780737896
 40
2.378349933379382
 40
2.494131557736624
 40
2.626681683943731
 40
2.783145050796101
 40
2.89070123294094
 40
2.993130312454878
 40
3.099869730691831
 40
3.220237816691324
 40
3.352695482737595
 40
3.481732806389904
 40
3.593499473690378
 40
3.674323013331851
 40
3.817951711952743
 40
3.946167120793713
 40
4.061405053453397
 40
4.166480796003039
 40
4.262478775059188
 40
4.350736673551032
 40
4.433071991253972
 40
4.511216293814522
 40
4.564262454117844
 40
4.618474415571473
 40
4.670128488754114
 40
4.722296879126336
 40
4.819540945314208
 40
4.931194984128064
 40
5.04999604025765
 40
5.168643755415138
 40
5.283970811762435
 40
5.39226078491029
 40
5.486512254876308
 40
5.559178233949678
 40
5.591425852853329
 40
5.626215969637705
 40
5.66715583867427
 40
5.717449290214106
 40
5.738402360944721
 40
5.784499116553691
 40
5.830595872164666
 40
5.851548942897524
 40
5.873019280661636
 40
5.924217778408178
 40
5.985325662817554
 40
6.036524160567565
 40
6.057994498334094
 40
6.236847789607338
 40
6.381409928945538
 40
6.493190424178556
 40
6.574067534230418
 40
6.691018086205456
 40
6.814881554220231
 40
6.944307823240326
 40
7.071266716065922
 40
7.193488604461769
 40
7.309042773127993
 40
7.414007203170676
 40
7.505140441886458
 40
7.531150360599598
 40
7.559221645322194
 40
7.58720221892084
 40
7.612569159499055
 40
7.66255080948092
 40
7.70287887576405
 40
7.857328205230949
 40
8.010799568088594
 40
8.165256399657572
 40
8.32223269871377
 40
8.479564855016484
 40
8.635216230290688
 40
8.790882550925634
 40
8.948305154947171
 40
9.168271839032867
 40
9.387358980987104
 40
9.608047961033336
 40
9.832914234792597
 40
9.85833869496293
 40
9.925366817229932
 40
10.02013071422751
 40
10.12876249858989
 40
10.23739428295239
 40
10.3321581799518
 40
10.39918630222382
 40
10.42461076239771
 40
10.64992019336928
 40
10.87188524531175
 40
10.87188524531175
 40
10.87188524531175
 40
10.87188524531175
 10
179.9057788376619
 20
15.73923260398189
 30
0.0
 10
179.9092864933542
 20
15.80616462073803
 30
0.0
 10
179.9163033987663
 20
15.94005891915856
 30
0.0
 10
179.8198027599073
 20
16.22548554971469
 30
0.0
 10
180.0510134726109
 20
16.16284386190281
 30
0.0
 10
180.1919290057156
 20
16.17001554055999
 30
0.0
 10
180.3490417757589
 20
16.16235883078242
 30
0.0
 10
180.5025913427288
 20
16.16252752283044
 30
0.0
 10
180.6545104935081
 20
16.16182040535431
 30
0.0
 10
180.8142214813231
 20
16.17210158351647
 30
0.0
 10
180.9408972601118
 20
16.15496511080748
 30
0.0
 10
181.1370821122081
 20
16.22727260107148
 30
0.0
 10
181.1034395279079
 20
16.12640699080113
 30
0.0
 10
181.1052011317185
 20
16.07619253947668
 30
0.0
 10
181.1027342073459
 20
16.02712335586462
 30
0.0
 10
181.1347076966013
 20
15.94063490846993
 30
0.0
 10
181.0010399903256
 20
15.98997438608336
 30
0.0
 10
180.9172208688057
 20
15.98430634314173
 30
0.0
 10
180.8173861139325
 20
15.99465516706296
 30
0.0
 10
180.7186576720146
 20
16.00086450411086
 30
0.0
 10
180.6121532771111
 20
16.00697763816782
 30
0.0
 10
180.491051169806
 20
16.01588883484576
 30
0.0
 10
180.3703381502454
 20
16.00521605912385
 30
0.0
 10
180.1812553843438
 20
16.06468503080361
 30
0.0
 10
180.212902850531
 20
15.90558320077537
 30
0.0
 10
180.1995563316836
 20
15.808391283399
 30
0.0
 10
180.1974958426449
 20
15.696340651101
 30
0.0
 10
180.195818804467
 20
15.57699685629349
 30
0.0
 10
180.1973336794234
 20
15.45032592155107
 30
0.0
 10
180.1956582478669
 20
15.32301588016114
 30
0.0
 10
180.2058844271659
 20
15.22451566404462
 30
0.0
 10
180.1779006596583
 20
15.08388702625637
 30
0.0
 10
180.3508029999306
 20
15.13989551134091
 30
0.0
 10
180.4645020202772
 20
15.12719951478504
 30
0.0
 10
180.5840151672239
 20
15.13448377051249
 30
0.0
 10
180.6888491425072
 20
15.13878017056763
 30
0.0
 10
180.7843084898612
 20
15.14330568258971
 30
0.0
 10
180.8763823507032
 20
15.15149201146205
 30
0.0
 10
180.9476551782439
 20
15.14643850638106
 30
0.0
 10
181.0544931705685
 20
15.18536425031677
 30
0.0
 10
181.0226603598036
 20
15.10517122005882
 30
0.0
 10
181.0266164503929
 20
15.05562936846035
 30
0.0
 10
181.0234502392013
 20
15.00557478039819
 30
0.0
 10
181.0550791490585
 20
14.92128847612017
 30
0.0
 10
180.9210133677691
 20
14.97425365495158
 30
0.0
 10
180.82923227932
 20
14.96540080890438
 30
0.0
 10
180.7079729189603
 20
14.97570049965156
 30
0.0
 10
180.5914113119773
 20
14.97748911767501
 30
0.0
 10
180.4783375745879
 20
14.97787017109693
 30
0.0
 10
180.3679246308471
 20
14.98415449472183
 30
0.0
 10
180.2898124067841
 20
14.97189133255364
 30
0.0
 10
180.1913625833645
 20
15.00453887616126
 30
0.0
 10
180.2012355173562
 20
14.94769748054209
 30
0.0
 10
180.1973923244402
 20
14.91392130557987
 30
0.0
 10
180.1966789884269
 20
14.87119604709412
 30
0.0
 10
180.1963369642975
 20
14.83401607262152
 30
0.0
 10
180.1963834255345
 20
14.79487237370769
 30
0.0
 10
180.1963649429927
 20
14.75716849497684
 30
0.0
 10
180.1963703431806
 20
14.71944955232401
 30
0.0
 10
180.19636972142
 20
14.68994324745147
 30
0.0
 10
180.1963698151546
 20
14.658735776993
 30
0.0
 10
180.196370428792
 20
14.61414424908083
 30
0.0
 10
180.1963671499337
 20
14.5596395650885
 30
0.0
 10
180.196375962348
 20
14.51505540201446
 30
0.0
 10
180.1963359653418
 20
14.4311780858574
 30
0.0
 10
180.1976024270255
 20
14.31737520677676
 30
0.0
 10
180.1950274117841
 20
14.16830395933707
 30
0.0
 10
180.206500938172
 20
14.06597203813902
 30
0.0
 10
180.1823506222264
 20
13.93338903885829
 30
0.0
 10
180.3332993946476
 20
13.97895732272012
 30
0.0
 10
180.4428436671556
 20
13.96427012162341
 30
0.0
 10
180.573397047392
 20
13.9692043512506
 30
0.0
 10
180.6990312209513
 20
13.97257705323354
 30
0.0
 10
180.8188730625602
 20
13.97711497498778
 30
0.0
 10
180.9391362611426
 20
13.99048536181998
 30
0.0
 10
181.0222761663516
 20
13.98068712782594
 30
0.0
 10
181.1456080421076
 20
14.04126214623315
 30
0.0
 10
181.1244269203957
 20
13.98532460134019
 30
0.0
 10
181.1235950270116
 20
13.95939249372345
 30
0.0
 10
181.1218963707558
 20
13.93197256190937
 30
0.0
 10
181.1217974888829
 20
13.89738195206385
 30
0.0
 10
181.1203659301329
 20
13.86050408220766
 30
0.0
 10
181.1532804192192
 20
13.76846841021808
 30
0.0
 10
180.9551306988107
 20
13.8413201597483
 30
0.0
 10
180.8300548294891
 20
13.81825726508601
 30
0.0
 10
180.6673071295156
 20
13.82454021985781
 30
0.0
 10
180.5129366450002
 20
13.82260943909921
 30
0.0
 10
180.3566670436945
 20
13.82393762599264
 30
0.0
 10
180.1970544465283
 20
13.82059872487857
 30
0.0
 10
180.0540326342237
 20
13.8326579572824
 30
0.0
 10
179.8197144881629
 20
13.76952001976922
 30
0.0
 10
179.9173810751197
 20
14.05620527466319
 30
0.0
 10
179.900686878006
 20
14.2498830814266
 30
0.0
 10
179.9146296709686
 20
14.47848242880295
 30
0.0
 10
179.9142987846632
 20
14.63384593955051
 30
0.0
 10
179.9143078119264
 20
14.73966336444129
 30
0.0
 10
179.9143055876316
 20
14.80205784124217
 30
0.0
 10
179.914306555189
 20
14.89220425248329
 30
0.0
 10
179.9143065473262
 20
14.99621167157439
 30
0.0
 10
179.9143053861104
 20
15.10022131375298
 30
0.0
 10
179.9143090971502
 20
15.19036243688768
 30
0.0
 10
179.9143011051052
 20
15.25276803097215
 30
0.0
 10
179.9143334275019
 20
15.35868835961118
 30
0.0
 10
179.913144078832
 20
15.51626716544739
 30
0.0
 10
179.9082216489257
 20
15.66528219822064
 30
0.0
 10
179.9057788376619
 20
15.73923260398189
 30
0.0
 11
179.9057788376619
 21
15.73923260398189
 31
0.0
 11
179.8966918223741
 21
15.95938578101015
 31
0.0
 11
179.8868249573134
 21
16.17960510387178
 31
0.0
 11
180.0411575141401
 21
16.17312391463728
 31
0.0
 11
180.1946500189047
 21
16.16754892331929
 31
0.0
 11
180.3481160653367
 21
16.16367167505632
 31
0.0
 11
180.502554455494
 21
16.16238072887609
 31
0.0
 11
180.6564835227474
 21
16.16367167505632
 31
0.0
 11
180.80873910046
 21
16.16754892331929
 31
0.0
 11
180.9609113551074
 21
16.17312391463728
 31
0.0
 11
181.1148364762484
 21
16.17960510387178
 31
0.0
 11
181.1070811703125
 21
16.12794961777355
 31
0.0
 11
181.1044991623592
 21
16.07642642334199
 31
0.0
 11
181.1070811703125
 21
16.02475660564659
 31
0.0
 11
181.1148364762484
 21
15.97315954836779
 31
0.0
 11
181.0094874054411
 21
15.98001446156058
 31
0.0
 11
180.9136375700061
 21
15.9869355205866
 31
0.0
 11
180.8198593171904
 21
15.99378381919599
 31
0.0
 11
180.7209679915882
 21
16.0006321178054
 31
0.0
 11
180.6147532199924
 21
16.00710999974825
 31
0.0
 11
180.4991060528038
 21
16.01268829835789
 31
0.0
 11
180.3666126447258
 21
16.01656554662086
 31
0.0
 11
180.2101546018424
 21
16.01785649280109
 31
0.0
 11
180.2062663293721
 21
15.91037061609186
 31
0.0
 11
180.2015380048401
 21
15.80805072896459
 31
0.0
 11
180.1976607566749
 21
15.70138175329685
 31
0.0
 11
180.1963698105272
 21
15.58102059013248
 31
0.0
 11
180.1967799146836
 21
15.44856355891564
 31
0.0
 11
180.1980896021502
 21
15.31953288186449
 31
0.0
 11
180.199407457705
 21
15.20777398432308
 31
0.0
 11
180.1998191153661
 21
15.12695149302388
 31
0.0
 11
180.3434452935875
 21
15.12780256941249
 31
0.0
 11
180.4716343930758
 21
15.13039989580079
 31
0.0
 11
180.5868078221795
 21
15.13425509545252
 31
0.0
 11
180.691775631222
 21
15.13901649302079
 31
0.0
 11
180.7876346289422
 21
15.14418027774174
 31
0.0
 11
180.8757413374193
 21
15.14934406246269
 31
0.0
 11
180.9578881438497
 21
15.15491243919738
 31
0.0
 11
181.0357692335571
 21
15.16132086801528
 31
0.0
 11
181.0280180445186
 21
15.1088440711534
 31
0.0
 11
181.0254328449317
 21
15.0546937847086
 31
0.0
 11
181.0280180445186
 21
15.00310444444365
 31
0.0
 11
181.0357692335571
 21
14.95151510417878
 31
0.0
 11
180.9389813454014
 21
14.96092324653756
 31
0.0
 11
180.8275950722015
 21
14.9686512847301
 31
0.0
 11
180.7089261429373
 21
14.97425273438146
 31
0.0
 11
180.5903167449214
 21
14.9772678819501
 31
0.0
 11
180.4750025117521
 21
14.97898767361638
 31
0.0
 11
180.36672619507
 21
14.98070746528259
 31
0.0
 11
180.2724839317709
 21
14.98202486979617
 31
0.0
 11
180.1998191153661
 21
14.9824360763933
 31
0.0
 11
180.199407457705
 21
14.95019108508193
 31
0.0
 11
180.1980896021502
 21
14.91542593752121
 31
0.0
 11
180.1967799146836
 21
14.87450702260086
 31
0.0
 11
180.1963698105272
 21
14.8242152430995
 31
0.0
 11
180.1963698105272
 21
14.8032621723582
 31
0.0
 11
180.1963698105272
 21
14.75716541672734
 31
0.0
 11
180.1963698105272
 21
14.71106866109649
 31
0.0
 11
180.1963698105272
 21
14.69011559035519
 31
0.0
 11
180.1963698105272
 21
14.66864525258278
 31
0.0
 11
180.1963698105272
 21
14.61744675481782
 31
0.0
 11
180.1963698105272
 21
14.55633887038866
 31
0.0
 11
180.1963698105272
 21
14.5051403726237
 31
0.0
 11
180.1963698105272
 21
14.48367003485129
 31
0.0
 11
180.1967799146836
 21
14.30481721371547
 31
0.0
 11
180.1980896021502
 21
14.16026100715439
 31
0.0
 11
180.2002868589709
 21
14.04850210961287
 31
0.0
 11
180.2032586986986
 21
13.96767961831358
 31
0.0
 11
180.3202092517448
 21
13.96767961831358
 31
0.0
 11
180.4440727208745
 21
13.96767961831358
 31
0.0
 11
180.5734925526422
 21
13.96897056449385
 31
0.0
 11
180.7003922282244
 21
13.97284781275678
 31
0.0
 11
180.8224658067973
 21
13.97886708358866
 31
0.0
 11
180.9377587499463
 21
13.98663260441998
 31
0.0
 11
181.0421754573519
 21
13.99734161483399
 31
0.0
 11
181.1320599255449
 21
14.01237656274688
 31
0.0
 11
181.1264254031191
 21
13.98698427976714
 31
0.0
 11
181.1234433285423
 21
13.959071840538
 31
0.0
 11
181.12213398812
 21
13.93112191867001
 31
0.0
 11
181.1217235369195
 21
13.90575829888471
 31
0.0
 11
181.1243087365064
 21
13.85584355063326
 31
0.0
 11
181.1320599255449
 21
13.81626739612929
 31
0.0
 11
180.9776977178344
 21
13.82145433189185
 31
0.0
 11
180.8242357818765
 21
13.82315538223858
 31
0.0
 11
180.6697789496483
 21
13.82315538223858
 31
0.0
 11
180.5128026496769
 21
13.82315538223858
 31
0.0
 11
180.3554704921537
 21
13.82315538223858
 31
0.0
 11
180.1998191153661
 21
13.82315538223858
 31
0.0
 11
180.0441620874242
 21
13.82145433189185
 31
0.0
 11
179.8868249573134
 21
13.81626739612929
 31
0.0
 11
179.8966918223741
 21
14.03601267385213
 31
0.0
 11
179.9057788376619
 21
14.2549112849085
 31
0.0
 11
179.9121721518401
 21
14.47550763902001
 31
0.0
 11
179.914306345501
 21
14.70036378479719
 31
0.0
 11
179.914306345501
 21
14.72578824496878
 31
0.0
 11
179.914306345501
 21
14.79281636723935
 31
0.0
 11
179.914306345501
 21
14.88758026424256
 31
0.0
 11
179.914306345501
 21
14.99621204861209
 31
0.0
 11
179.914306345501
 21
15.10484383298163
 31
0.0
 11
179.914306345501
 21
15.19960772998484
 31
0.0
 11
179.914306345501
 21
15.2666358522554
 31
0.0
 11
179.914306345501
 21
15.292060312427
 31
0.0
 11
179.9121721518401
 21
15.51735963528732
 31
0.0
 11
179.9057788376619
 21
15.73923260398189
 31
0.0
  0
SPLINE
  5
B1
102
{ACAD_REACTORS
330
CE
102
}
330
48
100
AcDbEntity
  8
_U_30EC_U_30A4_U_30E4_U_30FC_1
  6
Continuous
 62
     2
100
AcDbSpline
210
0.0
220
0.0
230
1.0
 70
    11
 71
     3
 72
    95
 73
    91
 74
    89
 42
0.000000001
 43
0.0000000001
 44
0.00000001
 40
0.0
 40
0.0
 40
0.0
 40
0.0
 40
0.6550406656911587
 40
1.308087289031918
 40
1.420803739835772
 40
1.566130759770811
 40
1.757067341888451
 40
2.006513545026411
 40
2.087328263121529
 40
2.185328872295652
 40
2.294612454748389
 40
2.408936380534807
 40
2.526802767798559
 40
2.646360524615603
 40
2.762535723971574
 40
2.870057342870143
 40
2.966883448431686
 40
3.050803243518319
 40
3.115818222436598
 40
3.156030057150225
 40
3.213914225080266
 40
3.276689026450723
 40
3.342960320981357
 40
3.404230667150547
 40
3.453822809493329
 40
3.532499827188323
 40
3.634775188507113
 40
3.754909333008109
 40
3.889736761660629
 40
4.035769602175213
 40
4.187256681197586
 40
4.338733685675869
 40
4.488478734676074
 40
4.634708317831526
 40
4.771493189921257
 40
4.892686571561151
 40
5.199775528944392
 40
5.460353566929637
 40
5.66760314234546
 40
5.814722905404427
 40
5.828990806219725
 40
5.855488336304422
 40
5.869756237118754
 40
6.189796507762748
 40
6.531890469872996
 40
6.883053637016972
 40
7.230512024911389
 40
7.566966656764497
 40
7.885203559707316
 40
8.172887439719117
 40
8.418011594062678
 40
8.4439267211906
 40
8.510760470613091
 40
8.602145393795604
 40
8.70171404164705
 40
8.793098965075286
 40
8.85993271505786
 40
8.88584784260351
 40
9.242301256612699
 40
9.589275455016699
 40
9.921808543164063
 40
10.23479624298456
 40
10.2996815088916
 40
10.35323493887743
 40
10.40154625355124
 40
10.46482922477811
 40
10.55973900668393
 40
10.69239545985608
 40
10.84920353475658
 40
11.01626328594767
 40
11.18672024367427
 40
11.35372582577196
 40
11.50257442292414
 40
11.61866495023278
 40
11.71329869152863
 40
11.82511050573891
 40
11.94464880845702
 40
12.06929242642492
 40
12.19707290435165
 40
12.32562632860514
 40
12.45034565331268
 40
12.56646595170313
 40
12.67099007414618
 40
12.76077625936769
 40
12.82703233506679
 40
12.87429132785979
 40
12.89831990323319
 40
12.92234847860007
 40
13.53984767410317
 40
14.18294284359354
 40
14.18294284359354
 40
14.18294284359354
 40
14.18294284359354
 10
177.3067935648021
 20
14.70898038201719
 30
0.0
 10
177.1752019758551
 20
14.82265058603228
 30
0.0
 10
176.9124193802728
 20
15.04964496316159
 30
0.0
 10
176.3997393441023
 20
15.89214462956285
 30
0.0
 10
176.4106654595362
 20
15.5342337757702
 30
0.0
 10
176.4041226527991
 20
15.39267392272133
 30
0.0
 10
176.4028026631773
 20
15.19421305299282
 30
0.0
 10
176.4018117602538
 20
15.02150296045985
 30
0.0
 10
176.4024101751974
 20
14.8786537325758
 30
0.0
 10
176.4038994301882
 20
14.78265005413357
 30
0.0
 10
176.4055683588473
 20
14.67545503263139
 30
0.0
 10
176.4071934954617
 20
14.56164211517581
 30
0.0
 10
176.4092429501686
 20
14.44441572604589
 30
0.0
 10
176.4123165501927
 20
14.32656411232969
 30
0.0
 10
176.4156339697044
 20
14.21228087320621
 30
0.0
 10
176.4193605340281
 20
14.10521401867276
 30
0.0
 10
176.4217338161424
 20
14.01007408766919
 30
0.0
 10
176.4278718888358
 20
13.92558557205693
 30
0.0
 10
176.4239784495946
 20
13.86923087298139
 30
0.0
 10
176.4455230443079
 20
13.79825022472354
 30
0.0
 10
176.3680940058617
 20
13.82902677604483
 30
0.0
 10
176.311635324019
 20
13.82011242517608
 30
0.0
 10
176.2540495896807
 20
13.82896218398273
 30
0.0
 10
176.1690163478473
 20
13.79738225225948
 30
0.0
 10
176.2009714146382
 20
13.88095155992189
 30
0.0
 10
176.1990705282538
 20
13.94882608968306
 30
0.0
 10
176.2107960047301
 20
14.05233256764415
 30
0.0
 10
176.2164241052999
 20
14.17002125616695
 30
0.0
 10
176.2237902178941
 20
14.30388609164424
 30
0.0
 10
176.232075970161
 20
14.44764152872634
 30
0.0
 10
176.2398851897427
 20
14.59714022843444
 30
0.0
 10
176.2457571222658
 20
14.74792549402077
 30
0.0
 10
176.250366781797
 20
14.89699943878435
 30
0.0
 10
176.2542632117542
 20
15.04122913163022
 30
0.0
 10
176.2570715126564
 20
15.17583905213016
 30
0.0
 10
176.2576698755022
 20
15.36469614347354
 30
0.0
 10
176.261602386715
 20
15.58975494313154
 30
0.0
 10
176.2442175378499
 20
15.86367091125708
 30
0.0
 10
176.2850417342584
 20
16.02787112098597
 30
0.0
 10
176.1995153256002
 20
16.22749661465092
 30
0.0
 10
176.2660558907688
 20
16.22385458403976
 30
0.0
 10
176.283872427323
 20
16.22413447160851
 30
0.0
 10
176.4056801797503
 20
16.2263292739861
 30
0.0
 10
176.5080770335462
 20
15.94675118721514
 30
0.0
 10
176.7580021509357
 20
15.74563008536003
 30
0.0
 10
176.9870035331111
 20
15.47792614987915
 30
0.0
 10
177.2245151213109
 20
15.22646413862374
 30
0.0
 10
177.4486090740771
 20
14.98969974061358
 30
0.0
 10
177.6750716283009
 20
14.7321869258308
 30
0.0
 10
177.8325687886514
 20
14.61649335056923
 30
0.0
 10
178.0472129612674
 20
14.27997152538792
 30
0.0
 10
178.0422645974618
 20
14.40464754091604
 30
0.0
 10
178.0433931602545
 20
14.46327691935737
 30
0.0
 10
178.0428877841517
 20
14.55043662371978
 30
0.0
 10
178.0430475158113
 20
14.64416143182873
 30
0.0
 10
178.0430054891318
 20
14.73018971297036
 30
0.0
 10
178.0430202040372
 20
14.79153891945497
 30
0.0
 10
178.0429706255985
 20
14.94135231520995
 30
0.0
 10
178.0458811522811
 20
15.17989612510106
 30
0.0
 10
178.0259521041162
 20
15.54486509868702
 30
0.0
 10
178.0750433936247
 20
15.80799631993412
 30
0.0
 10
177.9177951509182
 20
16.21928904947749
 30
0.0
 10
178.0762112872421
 20
16.16398282551749
 30
0.0
 10
178.1311680478628
 20
16.16199686500177
 30
0.0
 10
178.182788776674
 20
16.16264778248254
 30
0.0
 10
178.2713198965367
 20
16.20369527738245
 30
0.0
 10
178.2204898303168
 20
16.05696326622984
 30
0.0
 10
178.2313389930283
 20
15.9501997195443
 30
0.0
 10
178.2166036994847
 20
15.7908570541411
 30
0.0
 10
178.2099976446204
 20
15.62853061652873
 30
0.0
 10
178.2014961399914
 20
15.45992521892395
 30
0.0
 10
178.1943227202198
 20
15.2981481470354
 30
0.0
 10
178.188906321539
 20
15.15422331457932
 30
0.0
 10
178.1871713967647
 20
15.03437493466923
 30
0.0
 10
178.1875440672319
 20
14.92686101590514
 30
0.0
 10
178.1873656126262
 20
14.81820024645586
 30
0.0
 10
178.187701086314
 20
14.6995357016553
 30
0.0
 10
178.1890040622186
 20
14.5755516351274
 30
0.0
 10
178.1908887351574
 20
14.44858294171104
 30
0.0
 10
178.1925004454851
 20
14.3215386155103
 30
0.0
 10
178.194140313743
 20
14.19854884492176
 30
0.0
 10
178.1962570745752
 20
14.08300931383759
 30
0.0
 10
178.1963848422364
 20
13.98090903955837
 30
0.0
 10
178.2006514396554
 20
13.89009848838156
 30
0.0
 10
178.190844008529
 20
13.83213621208785
 30
0.0
 10
178.211847477169
 20
13.76517130132028
 30
0.0
 10
178.1725639739897
 20
13.77291153966686
 30
0.0
 10
177.959530711775
 20
13.75755254145196
 30
0.0
 10
177.7636297943184
 20
14.31403058094459
 30
0.0
 10
177.4611197631544
 20
14.57556035348505
 30
0.0
 10
177.3067935648021
 20
14.70898038201719
 30
0.0
 11
177.3067935648021
 21
14.70898038201719
 31
0.0
 11
176.8595529338511
 21
15.18757635411978
 31
0.0
 11
176.4124049070644
 21
15.6635264928897
 31
0.0
 11
176.4089664262494
 21
15.55086249986234
 31
0.0
 11
176.40556101835
 21
15.40557538184308
 31
0.0
 11
176.4029636920274
 21
15.21465645827968
 31
0.0
 11
176.4021126156603
 21
14.96521170139761
 31
0.0
 11
176.4025239230289
 21
14.88439802954281
 31
0.0
 11
176.4038420329817
 21
14.78640628477558
 31
0.0
 11
176.4055192267718
 21
14.67713557299736
 31
0.0
 11
176.4072367127518
 21
14.56282454872039
 31
0.0
 11
176.4094007838773
 21
14.44497802965265
 31
0.0
 11
176.4124049070644
 21
14.32545802100199
 31
0.0
 11
176.4158359733139
 21
14.20933349846156
 31
0.0
 11
176.4192928929999
 21
14.1018674655023
 31
0.0
 11
176.4227085253088
 21
14.0051016235126
 31
0.0
 11
176.4261896983793
 21
13.92125406276969
 31
0.0
 11
176.4296006184313
 21
13.8563286200776
 31
0.0
 11
176.4330776843149
 21
13.81626739612929
 31
0.0
 11
176.3754263821571
 21
13.82145433189185
 31
0.0
 11
176.3126746318308
 21
13.82315538223858
 31
0.0
 11
176.2464251717157
 21
13.82145433189185
 31
0.0
 11
176.1853747739676
 21
13.81626739612929
 31
0.0
 11
176.1926772737813
 21
13.8653189412559
 31
0.0
 11
176.2008793569054
 21
13.94356725720849
 31
0.0
 11
176.2090098822349
 21
14.04551893253027
 31
0.0
 11
176.2163406441397
 21
14.16542920159751
 31
0.0
 11
176.2236358280421
 21
14.30005912343891
 31
0.0
 11
176.2318444255596
 21
14.44586107652748
 31
0.0
 11
176.2395504149466
 21
14.59715203135074
 31
0.0
 11
176.2455763002094
 21
14.74850913200729
 31
0.0
 11
176.2503046247417
 21
14.89817951391435
 31
0.0
 11
176.254192897212
 21
15.0443573958222
 31
0.0
 11
176.2567527408965
 21
15.18111831592698
 31
0.0
 11
176.2576324804574
 21
15.30230850686888
 31
0.0
 11
176.257192610677
 21
15.60939715262542
 31
0.0
 11
176.2559126888348
 21
15.86997204839369
 31
0.0
 11
176.2528658717893
 21
16.07719922716124
 31
0.0
 11
176.2473049112763
 21
16.22421385386059
 31
0.0
 11
176.2615728121469
 21
16.22421385386059
 31
0.0
 11
176.2880703423352
 21
16.22421385386059
 31
0.0
 11
176.3023382432058
 21
16.22421385386059
 31
0.0
 11
176.5194743650277
 21
15.98910179662774
 31
0.0
 11
176.751274412308
 21
15.7375128123156
 31
0.0
 11
176.989481601884
 21
15.47949555543568
 31
0.0
 11
177.2260074557521
 21
15.22497079855489
 31
0.0
 11
177.4555698717705
 21
14.97899759549137
 31
0.0
 11
177.6731797360103
 21
14.74678934034108
 31
0.0
 11
177.8713724913707
 21
14.53826680567101
 31
0.0
 11
178.0430143099086
 21
14.36326697932589
 31
0.0
 11
178.0430143099086
 21
14.38918210687043
 31
0.0
 11
178.0430143099086
 21
14.45601585685372
 31
0.0
 11
178.0430143099086
 21
14.54740078030025
 31
0.0
 11
178.0430143099086
 21
14.64696942823455
 31
0.0
 11
178.0430143099086
 21
14.73835435168108
 31
0.0
 11
178.0430143099086
 21
14.80518810166437
 31
0.0
 11
178.0430143099086
 21
14.83110322920891
 31
0.0
 11
178.0417233637609
 21
15.18755430550866
 31
0.0
 11
178.0378461155959
 21
15.53450684014419
 31
0.0
 11
178.0296197790002
 21
15.86693815950551
 31
0.0
 11
178.0154535467229
 21
16.17960510387178
 31
0.0
 11
178.0790351249619
 21
16.16666367158335
 31
0.0
 11
178.1324170159611
 21
16.16238072887609
 31
0.0
 11
178.1805381084833
 21
16.16666367158335
 31
0.0
 11
178.2424836798198
 21
16.17960510387178
 31
0.0
 11
178.2351216487575
 21
16.08498128445097
 31
0.0
 11
178.2269790968818
 21
15.95257496503959
 31
0.0
 11
178.2183705364004
 21
15.79600336785654
 31
0.0
 11
178.2097547223215
 21
15.62916593734269
 31
0.0
 11
178.2016187850288
 21
15.45890325509362
 31
0.0
 11
178.1942501393835
 21
15.292060312427
 31
0.0
 11
178.1891406931522
 21
15.14329943572807
 31
0.0
 11
178.1874503478904
 21
15.027221215271
 31
0.0
 11
178.1874503478904
 21
14.93258747397516
 31
0.0
 11
178.1874503478904
 21
14.82077565976709
 31
0.0
 11
178.1878461204497
 21
14.70123801222748
 31
0.0
 11
178.1890819450709
 21
14.5766005209392
 31
0.0
 11
178.1908392193318
 21
14.44883212687388
 31
0.0
 11
178.1925303477608
 21
14.32028982655879
 31
0.0
 11
178.1942876220215
 21
14.19558288214552
 31
0.0
 11
178.1959787504506
 21
14.07947489606349
 31
0.0
 11
178.1972884379173
 21
13.9749589672702
 31
0.0
 11
178.1976985420736
 21
13.88517371555651
 31
0.0
 11
178.1976985420736
 21
13.81891763918416
 31
0.0
 11
178.1976985420736
 21
13.7716586461404
 31
0.0
 11
178.1736699662977
 21
13.7716586461404
 31
0.0
 11
178.1496413905218
 21
13.7716586461404
 31
0.0
 11
177.7410729200422
 21
14.2346673526219
 31
0.0
 11
177.3067935648021
 21
14.70898038201719
 31
0.0
  0
SPLINE
  5
B2
102
{ACAD_REACTORS
330
CF
102
}
330
48
100
AcDbEntity
  8
_U_30EC_U_30A4_U_30E4_U_30FC_1
  6
Continuous
 62
     2
100
AcDbSpline
210
0.0
220
0.0
230
1.0
 70
    11
 71
     3
 72
    25
 73
    21
 74
    19
 42
0.000000001
 43
0.0000000001
 44
0.00000001
 40
0.0
 40
0.0
 40
0.0
 40
0.0
 40
0.0911479969064818
 40
0.1858117896204659
 40
0.2804128399735053
 40
0.3715889190714505
 40
0.4679080494218987
 40
0.5642683809230076
 40
0.6605683222644986
 40
0.7569653015810245
 40
0.8561348172522696
 40
1.092615965104281
 40
1.374867658141858
 40
1.611348812011576
 40
1.71051832842522
 40
1.809403163726536
 40
2.045205463294032
 40
2.326646917622084
 40
2.562449217190539
 40
2.661334043833855
 40
2.661334043833855
 40
2.661334043833855
 40
2.661334043833855
 10
173.2683700567199
 20
14.88614538197288
 30
0.0
 10
173.2987525917922
 20
14.88598079714552
 30
0.0
 10
173.3606895889112
 20
14.88564528689922
 30
0.0
 10
173.454135696033
 20
14.88269055452001
 30
0.0
 10
173.5475095236357
 20
14.87977752877151
 30
0.0
 10
173.6417760753477
 20
14.87894201643415
 30
0.0
 10
173.7354964790967
 20
14.87996644658047
 30
0.0
 10
173.8352040303205
 20
14.87916977470967
 30
0.0
 10
173.9188949546313
 20
14.88921410235218
 30
0.0
 10
174.0637996315045
 20
14.8623461767416
 30
0.0
 10
173.9396132444801
 20
15.03665530280045
 30
0.0
 10
173.8965867286282
 20
15.19651711006086
 30
0.0
 10
173.780892214221
 20
15.4551845855021
 30
0.0
 10
173.7017565431256
 20
15.59231052861851
 30
0.0
 10
173.6431576621816
 20
15.8093703313407
 30
0.0
 10
173.5864803939438
 20
15.59266134213422
 30
0.0
 10
173.5052809900477
 20
15.4532701243823
 30
0.0
 10
173.4063701281487
 20
15.20406969370189
 30
0.0
 10
173.325362509426
 20
15.0192583022607
 30
0.0
 10
173.2813683325838
 20
14.91650446856112
 30
0.0
 10
173.2683700567199
 20
14.88614538197288
 30
0.0
 11
173.2683700567199
 21
14.88614538197288
 31
0.0
 11
173.359513773782
 21
14.88526123266759
 31
0.0
 11
173.4541428297581
 21
14.882696979196
 31
0.0
 11
173.5487082179706
 21
14.88009965280778
 31
0.0
 11
173.6398803250196
 21
14.87924857641909
 31
0.0
 11
173.7361985777706
 21
14.8796597830162
 31
0.0
 11
173.8325499034377
 21
14.88097718752968
 31
0.0
 11
173.9288262638286
 21
14.8831081857931
 31
0.0
 11
174.0251753846343
 21
14.88614538197288
 31
0.0
 11
173.9854633323141
 21
14.97701642195016
 31
0.0
 11
173.8907653613968
 21
15.19370890189597
 31
0.0
 11
173.7777387509471
 21
15.45234186183129
 31
0.0
 11
173.6830407800297
 21
15.66903434177711
 31
0.0
 11
173.6433287277095
 21
15.75990538175438
 31
0.0
 11
173.6043330259266
 21
15.6690343417771
 31
0.0
 11
173.5113432755212
 21
15.45234186183129
 31
0.0
 11
173.4003555089082
 21
15.19370890189597
 31
0.0
 11
173.3073657585028
 21
14.97701642195016
 31
0.0
 11
173.2683700567199
 21
14.88614538197288
 31
0.0
  0
SPLINE
  5
B3
102
{ACAD_REACTORS
330
CF
102
}
330
48
100
AcDbEntity
  8
_U_30EC_U_30A4_U_30E4_U_30FC_1
  6
Continuous
 62
     2
100
AcDbSpline
210
0.0
220
0.0
230
1.0
 70
    11
 71
     3
 72
    57
 73
    53
 74
    51
 42
0.000000001
 43
0.0000000001
 44
0.00000001
 40
0.0
 40
0.0
 40
0.0
 40
0.0
 40
0.0471632082808642
 40
0.0914861054632115
 40
0.1357762519702067
 40
0.1826527001609793
 40
0.2295203288571986
 40
0.2737751972219588
 40
0.3181310461542736
 40
0.3652607198398434
 40
0.4571007286314149
 40
0.5671851029165038
 40
0.6894623283867756
 40
0.8181758272545725
 40
0.9510087229273757
 40
1.085852229674103
 40
1.218126164475319
 40
1.343545131142379
 40
1.454537202956795
 40
1.567187607530719
 40
1.680710966642366
 40
1.794226869736701
 40
1.900009184247529
 40
2.00408586044778
 40
2.108162674451697
 40
2.214000150155297
 40
2.496038577352151
 40
2.76235074547928
 40
2.997275353279421
 40
3.185110082137725
 40
3.246407890063893
 40
3.31260755021268
 40
3.378877742711496
 40
3.440140399651433
 40
4.100501696006458
 40
4.754913085563472
 40
5.411331693423872
 40
6.077890432568654
 40
6.110575292670933
 40
6.143260152775713
 40
6.367989363395102
 40
6.610525374951457
 40
6.863389136467235
 40
7.119380025547486
 40
7.376036605091031
 40
7.631164770966235
 40
7.87672242545636
 40
8.10495373585594
 40
8.312916685924266
 40
8.497730294941217
 40
8.651018984313803
 40
8.764738853624491
 40
8.764738853624491
 40
8.764738853624491
 40
8.764738853624491
 10
174.7922649500513
 20
13.81626739612929
 30
0.0
 10
174.7766616726931
 20
13.81826231079079
 30
0.0
 10
174.7463947960302
 20
13.82213201360299
 30
0.0
 10
174.7010994202252
 20
13.82341984967263
 30
0.0
 10
174.6559553129349
 20
13.82308683554047
 30
0.0
 10
174.60990171234
 20
13.8231465867422
 30
0.0
 10
174.5640496172097
 20
13.82325813649997
 30
0.0
 10
174.5183711648165
 20
13.82277833456585
 30
0.0
 10
174.4750811541609
 20
13.82461109618723
 30
0.0
 10
174.4039947951514
 20
13.80049556814659
 30
0.0
 10
174.4057477261442
 20
13.92184693977253
 30
0.0
 10
174.3586196370569
 20
14.00726239751231
 30
0.0
 10
174.3191478251763
 20
14.12486929345139
 30
0.0
 10
174.2706635532644
 20
14.24232752540436
 30
0.0
 10
174.2201017402523
 20
14.36405935761512
 30
0.0
 10
174.1718634610475
 20
14.49075967862462
 30
0.0
 10
174.1135232947595
 20
14.59933687784958
 30
0.0
 10
174.0980892667261
 20
14.75620657134413
 30
0.0
 10
173.9566586330636
 20
14.7237344654832
 30
0.0
 10
173.8508397414904
 20
14.73512888682177
 30
0.0
 10
173.7358569725223
 20
14.73392591514614
 30
0.0
 10
173.6253142252141
 20
14.73506945347406
 30
0.0
 10
173.5176583522784
 20
14.73418350037526
 30
0.0
 10
173.4121322529243
 20
14.73416602390516
 30
0.0
 10
173.3109192682013
 20
14.72714032472412
 30
0.0
 10
173.1266804827754
 20
14.75135859859875
 30
0.0
 10
173.115739368541
 20
14.44741691121886
 30
0.0
 10
173.0087691634751
 20
14.22353177253393
 30
0.0
 10
172.9098148604347
 20
14.03895314292497
 30
0.0
 10
172.9225090524007
 20
13.79530204804211
 30
0.0
 10
172.8050091716397
 20
13.82508046753198
 30
0.0
 10
172.742205586831
 20
13.82258089509597
 30
0.0
 10
172.67858720934
 20
13.82344075102804
 30
0.0
 10
172.3946014194073
 20
13.78098039941952
 30
0.0
 10
173.0251638499382
 20
14.50081952444778
 30
0.0
 10
173.1087645289072
 20
15.01276539435724
 30
0.0
 10
173.4929252789339
 20
15.53353743550042
 30
0.0
 10
173.4777208288565
 20
16.23519626253211
 30
0.0
 10
173.7239265722697
 20
16.22345633081254
 30
0.0
 10
173.8256346157561
 20
16.2322500445277
 30
0.0
 10
173.8249752035818
 20
15.98059650730345
 30
0.0
 10
173.9428317155828
 20
15.79818020733958
 30
0.0
 10
174.0315515260485
 20
15.55563740662867
 30
0.0
 10
174.1322292485259
 20
15.32340030530129
 30
0.0
 10
174.2311142712244
 20
15.08674644566915
 30
0.0
 10
174.3299676990669
 20
14.85461739170091
 30
0.0
 10
174.4256166390925
 20
14.63122222788785
 30
0.0
 10
174.5159904573273
 20
14.42272549049318
 30
0.0
 10
174.598994456819
 20
14.23308448529319
 30
0.0
 10
174.6726088582798
 20
14.06663106068097
 30
0.0
 10
174.7342815895546
 20
13.929176996261
 30
0.0
 10
174.7749458885604
 20
13.84999239430035
 30
0.0
 10
174.7922649500513
 20
13.81626739612929
 30
0.0
 11
174.7922649500513
 21
13.81626739612929
 31
0.0
 11
174.7453878317448
 21
13.82145433189185
 31
0.0
 11
174.7010975896125
 21
13.82315538223858
 31
0.0
 11
174.6568074431729
 21
13.82315538223858
 31
0.0
 11
174.609930994716
 21
13.82315538223858
 31
0.0
 11
174.5630633657034
 21
13.82315538223858
 31
0.0
 11
174.5188084970409
 21
13.82315538223858
 31
0.0
 11
174.4744852776854
 21
13.82145433189185
 31
0.0
 11
174.4276419021443
 21
13.81626739612929
 31
0.0
 11
174.3992532136325
 21
13.90360966173244
 31
0.0
 11
174.3622721815898
 21
14.0072965627482
 31
0.0
 11
174.3188386236702
 21
14.12159987001127
 31
0.0
 11
174.2711055866936
 21
14.24113531268969
 31
0.0
 11
174.2208160133237
 21
14.36408057307564
 31
0.0
 11
174.1696467003931
 21
14.48883822929449
 31
0.0
 11
174.1197531801326
 21
14.61134141502775
 31
0.0
 11
174.0733119111841
 21
14.72784517367919
 31
0.0
 11
173.9623611907589
 21
14.73087465284504
 31
0.0
 11
173.849730922509
 21
14.73300454867788
 31
0.0
 11
173.736215206945
 21
14.73432195319139
 31
0.0
 11
173.6227000476801
 21
14.73473315978851
 31
0.0
 11
173.5169185312816
 21
14.73432195319139
 31
0.0
 11
173.4128501919226
 21
14.73300454867788
 31
0.0
 11
173.3087951724046
 21
14.73087465284504
 31
0.0
 11
173.2030010615596
 21
14.72784517367919
 31
0.0
 11
173.0980914750139
 21
14.46604437513351
 31
0.0
 11
173.0034868690332
 21
14.21710232658458
 31
0.0
 11
172.9252231210298
 21
13.99559756969555
 31
0.0
 11
172.8693431224555
 21
13.81626739612929
 31
0.0
 11
172.8082651639442
 21
13.82145433189185
 31
0.0
 11
172.742087361813
 21
13.82315538223858
 31
0.0
 11
172.6758390041283
 21
13.82145433189185
 31
0.0
 11
172.6147963233938
 21
13.81626739612929
 31
0.0
 11
172.8899684951931
 21
14.41656508695141
 31
0.0
 11
173.1582945734171
 21
15.01343642360769
 31
0.0
 11
173.4240277350405
 21
15.61366245644378
 31
0.0
 11
173.6914740737033
 21
16.22421385386059
 31
0.0
 11
173.7241589339806
 21
16.22421385386059
 31
0.0
 11
173.7568437942579
 21
16.22421385386059
 31
0.0
 11
173.8428300681057
 21
16.01658539037081
 31
0.0
 11
173.9357285813609
 21
15.79254614563519
 31
0.0
 11
174.0328714521463
 21
15.55908663180469
 31
0.0
 11
174.1317936458031
 21
15.32298128464149
 31
0.0
 11
174.2315341249927
 21
15.08649780379783
 31
0.0
 11
174.3313071129353
 21
14.85168781253708
 31
0.0
 11
174.4280608257449
 21
14.62599492196849
 31
0.0
 11
174.5188084970409
 21
14.41658052097918
 31
0.0
 11
174.6022150834546
 21
14.22607611130458
 31
0.0
 11
174.6770293263377
 21
14.05708232662468
 31
0.0
 11
174.7410729186604
 21
13.91781337700667
 31
0.0
 11
174.7922649500513
 21
13.81626739612929
 31
0.0
  0
SPLINE
  5
B4
102
{ACAD_REACTORS
330
D0
102
}
330
48
100
AcDbEntity
  8
_U_30EC_U_30A4_U_30E4_U_30FC_1
  6
Continuous
 62
     2
100
AcDbSpline
210
0.0
220
0.0
230
1.0
 70
    11
 71
     3
 72
    99
 73
    95
 74
    93
 42
0.000000001
 43
0.0000000001
 44
0.00000001
 40
0.0
 40
0.0
 40
0.0
 40
0.0
 40
0.079641717227271
 40
0.1621768542356966
 40
0.2486489160957759
 40
0.3404969668525481
 40
0.4381912511165557
 40
0.5434463660245874
 40
0.6518115192846792
 40
0.753019093788684
 40
0.8492196919725162
 40
0.9419290312998146
 40
1.034249663570033
 40
1.129078600620229
 40
1.2266970275733
 40
1.327220425421733
 40
1.470572134938069
 40
1.595489863371276
 40
1.719934125348415
 40
1.850576620127383
 40
1.98905962998737
 40
2.134139054226987
 40
2.280698007207243
 40
2.424529739039454
 40
2.565929576985873
 40
2.70823926077356
 40
2.861717887443717
 40
3.045168540347374
 40
3.183798301138614
 40
3.314813961455491
 40
3.442083470447357
 40
3.56991270837305
 40
3.702177512509391
 40
3.842307559659623
 40
3.992872223246017
 40
4.15675066221832
 40
4.310981861107483
 40
4.445859909322579
 40
4.572393936131601
 40
4.701656719782037
 40
4.768279086008553
 40
4.835960697898463
 40
4.912788918729434
 40
5.006285208481628
 40
5.026909478751675
 40
5.047533749021183
 40
5.101808031471235
 40
5.162325165538563
 40
5.226919745995832
 40
5.294231806596767
 40
5.364544852554899
 40
5.438319055467955
 40
5.517877651324234
 40
5.607647714861602
 40
5.700449642544421
 40
5.788251142364077
 40
5.872714706039754
 40
5.95516729257533
 40
6.037192395190372
 40
6.1206691814691
 40
6.206848616686337
 40
6.296680855416786
 40
6.442558392872627
 40
6.568190371608273
 40
6.692904567360305
 40
6.824220446557043
 40
6.963121850329276
 40
7.107843738851019
 40
7.253431663907211
 40
7.395187468036705
 40
7.533140753237707
 40
7.670550457175195
 40
7.816236511769206
 40
7.987691657359139
 40
8.142277421969208
 40
8.29366261541494
 40
8.442962460879203
 40
8.591598316185179
 40
8.74367899236172
 40
8.903725323699135
 40
9.07630700889045
 40
9.265578604680533
 40
9.45920379536071
 40
9.617619810273572
 40
9.7536096713619
 40
9.874873300003971
 40
9.954520184977643
 40
10.02416413719228
 40
10.09769764405428
 40
10.18909955924958
 40
10.20974586420125
 40
10.23039218263374
 40
10.30057101881259
 40
10.37632012987532
 40
10.37632012987532
 40
10.37632012987532
 40
10.37632012987532
 10
170.1465954835851
 20
14.13795663215998
 30
0.0
 10
170.1632217851219
 20
14.11720608845315
 30
0.0
 10
170.1970784206577
 20
14.07495111711899
 30
0.0
 10
170.2599822541037
 20
14.02029811392078
 30
0.0
 10
170.3332500940393
 20
13.97299025121048
 30
0.0
 10
170.4175969238637
 20
13.93527231437941
 30
0.0
 10
170.5132240615461
 20
13.91040619731952
 30
0.0
 10
170.6171853775346
 20
13.90309559345934
 30
0.0
 10
170.7224020220405
 20
13.91142322794057
 30
0.0
 10
170.8206626371333
 20
13.94149179651524
 30
0.0
 10
170.9058986427548
 20
13.98848822971876
 30
0.0
 10
170.9779220206103
 20
14.04952991250855
 30
0.0
 10
171.0350917709096
 20
14.12412969578583
 30
0.0
 10
171.0767868747441
 20
14.2100246466017
 30
0.0
 10
171.1026952846293
 20
14.30485850432211
 30
0.0
 10
171.1118037332652
 20
14.41854979038368
 30
0.0
 10
171.0986864796487
 20
14.54332587770779
 30
0.0
 10
171.0325330334414
 20
14.66014719171893
 30
0.0
 10
170.936937091957
 20
14.74512539577374
 30
0.0
 10
170.8249681022369
 20
14.81416684459168
 30
0.0
 10
170.6993659583269
 20
14.87204142045887
 30
0.0
 10
170.5656691620857
 20
14.92373723284341
 30
0.0
 10
170.4313122818831
 20
14.97899092397178
 30
0.0
 10
170.3051983986877
 20
15.0493977064165
 30
0.0
 10
170.1926579987535
 20
15.13785540731244
 30
0.0
 10
170.0969963064459
 20
15.24981067868478
 30
0.0
 10
170.0334157151825
 20
15.3994991010138
 30
0.0
 10
170.0200706505015
 20
15.55932794385141
 30
0.0
 10
170.0320510987448
 20
15.71048405306842
 30
0.0
 10
170.071229892884
 20
15.83809244591539
 30
0.0
 10
170.135498775091
 20
15.95080874030847
 30
0.0
 10
170.2238204999741
 20
16.04648609268678
 30
0.0
 10
170.3338091207628
 20
16.12354214985756
 30
0.0
 10
170.4632284401265
 20
16.1815139693628
 30
0.0
 10
170.6111838967794
 20
16.21739177588819
 30
0.0
 10
170.7682069455486
 20
16.22746719050561
 30
0.0
 10
170.917494046643
 20
16.21863637762587
 30
0.0
 10
171.059625361417
 20
16.19074899340355
 30
0.0
 10
171.1595922609625
 20
16.13413314701137
 30
0.0
 10
171.3125074736186
 20
16.08674602105509
 30
0.0
 10
171.2455131717169
 20
16.00197553001187
 30
0.0
 10
171.229647912027
 20
15.93438901873484
 30
0.0
 10
171.1978750531296
 20
15.86926092793194
 30
0.0
 10
171.2150202209571
 20
15.76723453256955
 30
0.0
 10
171.1666427208232
 20
15.77493211681903
 30
0.0
 10
171.1315789440767
 20
15.76806771724811
 30
0.0
 10
171.1296697985719
 20
15.83263831158199
 30
0.0
 10
171.0985692931989
 20
15.8782563962139
 30
0.0
 10
171.0664551628456
 20
15.9356103662846
 30
0.0
 10
171.0208038475168
 20
15.98540462692554
 30
0.0
 10
170.9658508218387
 20
16.02994813718998
 30
0.0
 10
170.9010841173007
 20
16.06763988836545
 30
0.0
 10
170.8232377310597
 20
16.09283375791351
 30
0.0
 10
170.7355160553352
 20
16.09931230998108
 30
0.0
 10
170.6452903277807
 20
16.09235709285601
 30
0.0
 10
170.5594594694064
 20
16.06909190460927
 30
0.0
 10
170.4828343638597
 20
16.03131644107542
 30
0.0
 10
170.4165265636201
 20
15.98051641089575
 30
0.0
 10
170.3622560536965
 20
15.91731143407205
 30
0.0
 10
170.3224925345458
 20
15.8427645571037
 30
0.0
 10
170.2976775510588
 20
15.75917313997763
 30
0.0
 10
170.2892124262871
 20
15.65192948382283
 30
0.0
 10
170.3019697987104
 20
15.52965457267555
 30
0.0
 10
170.3681548409274
 20
15.41149724291216
 30
0.0
 10
170.4640977399832
 20
15.32606325709529
 30
0.0
 10
170.5757914963182
 20
15.25583362306729
 30
0.0
 10
170.7010863668702
 20
15.19659162305305
 30
0.0
 10
170.8349823941447
 20
15.14616708086128
 30
0.0
 10
170.9689930333149
 20
15.0932251698438
 30
0.0
 10
171.0950885316916
 20
15.02750170625178
 30
0.0
 10
171.2076216638417
 20
14.9448035253732
 30
0.0
 10
171.3031370284232
 20
14.83996006310071
 30
0.0
 10
171.3672706486963
 20
14.6993711725157
 30
0.0
 10
171.3811103725279
 20
14.54065409451592
 30
0.0
 10
171.3673954712229
 20
14.38153155217877
 30
0.0
 10
171.3244739153984
 20
14.23483828819209
 30
0.0
 10
171.2545906329065
 20
14.10119796587145
 30
0.0
 10
171.157459221383
 20
13.9853238769929
 30
0.0
 10
171.0347806023657
 20
13.89089981770088
 30
0.0
 10
170.8874408413168
 20
13.8217927065198
 30
0.0
 10
170.7177132497124
 20
13.77953210858854
 30
0.0
 10
170.5317404979597
 20
13.76781736230405
 30
0.0
 10
170.3528955926183
 20
13.7780948668344
 30
0.0
 10
170.1881733753743
 20
13.81966573769147
 30
0.0
 10
170.0834410841055
 20
13.88797642883942
 30
0.0
 10
169.9350960790367
 20
13.9367521903211
 30
0.0
 10
169.9980378194729
 20
14.02976591290841
 30
0.0
 10
170.0072274430059
 20
14.10296536248278
 30
0.0
 10
170.0303711301231
 20
14.16936294501344
 30
0.0
 10
170.0034588335316
 20
14.26974809527582
 30
0.0
 10
170.0521338956339
 20
14.26234033517378
 30
0.0
 10
170.0916530580698
 20
14.26894063620896
 30
0.0
 10
170.0996204944702
 20
14.19078703218933
 30
0.0
 10
170.1305436967923
 20
14.15600927375859
 30
0.0
 10
170.1465954835851
 20
14.13795663215998
 30
0.0
 11
170.1465954835851
 21
14.13795663215998
 31
0.0
 11
170.1982038075864
 21
14.07729869814737
 31
0.0
 11
170.2601105501336
 21
14.0227129516332
 31
0.0
 11
170.3327764009802
 21
13.97583980928385
 31
0.0
 11
170.4166468655844
 21
13.9383990627654
 31
0.0
 11
170.511221073241
 21
13.91390636311878
 31
0.0
 11
170.6161603327166
 21
13.90575829888471
 31
0.0
 11
170.7240739497551
 21
13.91564048638223
 31
0.0
 11
170.8208419941616
 21
13.9452870488748
 31
0.0
 11
170.9050776083319
 21
13.99175118948818
 31
0.0
 11
170.9756144207686
 21
14.05191413218148
 31
0.0
 11
171.031944210998
 21
14.12505819466317
 31
0.0
 11
171.0736690016004
 21
14.2102143404752
 31
0.0
 11
171.0994680808033
 21
14.30436190989614
 31
0.0
 11
171.1080824729446
 21
14.40451552098219
 31
0.0
 11
171.0878517703357
 21
14.54643250879399
 31
0.0
 11
171.0272522666731
 21
14.65566684036389
 31
0.0
 11
170.9364971286286
 21
14.74081306430096
 31
0.0
 11
170.8260101884741
 21
14.81052746532518
 31
0.0
 11
170.7008523531254
 21
14.86979854169923
 31
0.0
 11
170.5662951950998
 21
14.9240425347412
 31
0.0
 11
170.4316884277007
 21
14.98201274306002
 31
0.0
 11
170.3065802017259
 21
15.05297399304229
 31
0.0
 11
170.196027609828
 21
15.14113315968692
 31
0.0
 11
170.1053381235266
 21
15.25080295132619
 31
0.0
 11
170.0447055469484
 21
15.39179720476318
 31
0.0
 11
170.0245079172553
 21
15.57413260402311
 31
0.0
 11
170.0374030471347
 21
15.71216131926639
 31
0.0
 11
170.0761016659391
 21
15.83733128451289
 31
0.0
 11
170.1393141731507
 21
15.94779262129084
 31
0.0
 11
170.2257499954546
 21
16.04196885390618
 31
0.0
 11
170.3336492808963
 21
16.1184654077065
 31
0.0
 11
170.4613526283329
 21
16.1761567010949
 31
0.0
 11
170.6075393259923
 21
16.21220066809972
 31
0.0
 11
170.770976856545
 21
16.22421385386059
 31
0.0
 11
170.9248918431289
 21
16.21434269066863
 31
0.0
 11
171.0564887242607
 21
16.18477329831498
 31
0.0
 11
171.172563634494
 21
16.13439993895253
 31
0.0
 11
171.2800792741123
 21
16.06264163167879
 31
0.0
 11
171.2516994050445
 21
16.00236624106886
 31
0.0
 11
171.2284855254284
 21
15.9387901733765
 31
0.0
 11
171.2078381040801
 21
15.86478841992269
 31
0.0
 11
171.1871840681487
 21
15.77360197897329
 31
0.0
 11
171.1665597978415
 21
15.77360197897329
 31
0.0
 11
171.1459355275344
 21
15.77360197897329
 31
0.0
 11
171.1256706495791
 21
15.82395108486346
 31
0.0
 11
171.0994658759421
 21
15.87850045116929
 31
0.0
 11
171.0650468924452
 21
15.93316116296114
 31
0.0
 11
171.0203554612937
 21
15.98349593725411
 31
0.0
 11
170.9657333359511
 21
16.0277717532153
 31
0.0
 11
170.9016722004326
 21
16.06436142334499
 31
0.0
 11
170.8259682961141
 21
16.08882545979724
 31
0.0
 11
170.7365722046449
 21
16.09701100667019
 31
0.0
 11
170.6440937174208
 21
16.08926973931098
 31
0.0
 11
170.5594072091646
 21
16.0660900344557
 31
0.0
 11
170.483702448884
 21
16.02863495634008
 31
0.0
 11
170.4183754766516
 21
15.97832774281099
 31
0.0
 11
170.3650487887665
 21
15.91600293379878
 31
0.0
 11
170.3254809233901
 21
15.84249947895609
 31
0.0
 11
170.3009523754711
 21
15.75988443557392
 31
0.0
 11
170.2927954104109
 21
15.6704232984435
 31
0.0
 11
170.3130095765618
 21
15.52595308146569
 31
0.0
 11
170.3736256166821
 21
15.41591177072939
 31
0.0
 11
170.4643479320758
 21
15.33033670130635
 31
0.0
 11
170.5748676948813
 21
15.25941954854631
 31
0.0
 11
170.7000089937719
 21
15.1991430555058
 31
0.0
 11
170.8345826882552
 21
15.1459044791302
 31
0.0
 11
170.9691729191968
 21
15.09039489581072
 31
0.0
 11
171.0942976816298
 21
15.02377281249409
 31
0.0
 11
171.2048009079771
 21
14.9411886371675
 31
0.0
 11
171.2955397598288
 21
14.8380000347627
 31
0.0
 11
171.3561557999489
 21
14.70552315979583
 31
0.0
 11
171.3763699660998
 21
14.53526378483841
 31
0.0
 11
171.3621839747998
 21
14.38133030397411
 31
0.0
 11
171.3196087009193
 21
14.23605531269098
 31
0.0
 11
171.2499752884265
 21
14.10398854189068
 31
0.0
 11
171.1544992078714
 21
13.9900721877525
 31
0.0
 11
171.0341060772624
 21
13.89715272597016
 31
0.0
 11
170.8896160201846
 21
13.82832357668178
 31
0.0
 11
170.7223519532714
 21
13.78581275203967
 31
0.0
 11
170.5336103348226
 21
13.7716586461404
 31
0.0
 11
170.3405031726387
 21
13.78581275203967
 31
0.0
 11
170.187897590091
 21
13.82832357668178
 31
0.0
 11
170.0661897942203
 21
13.88899033013892
 31
0.0
 11
169.9660261826364
 21
13.95734322942738
 31
0.0
 11
169.9922320587039
 21
14.03255545163076
 31
0.0
 11
170.0090121537618
 21
14.10014767383609
 31
0.0
 11
170.0206196447852
 21
14.17275926235959
 31
0.0
 11
170.0313606254139
 21
14.26352788212859
 31
0.0
 11
170.0520069443316
 21
14.26352788212859
 31
0.0
 11
170.0726532632493
 21
14.26352788212859
 31
0.0
 11
170.104891639163
 21
14.20119204881082
 31
0.0
 11
170.1465954835851
 21
14.13795663215998
 31
0.0
  0
LWPOLYLINE
  5
B5
102
{ACAD_REACTORS
330
C2
102
}
330
48
100
AcDbEntity
  8
_U_30EC_U_30A4_U_30E4_U_30FC_1
  6
Continuous
 62
     2
100
AcDbPolyline
 90
        5
 70
     1
 43
0.0
 10
192.4578138032672
 20
15.39722336795629
 10
192.4578138032672
 20
15.2287543402206
 10
191.1602971697031
 20
15.2287543402206
 10
191.1602971697031
 20
15.39722336795629
 10
192.4578138032672
 20
15.39722336795629
  0
MTEXT
  5
B7
330
48
100
AcDbEntity
  8
1
 62
     2
100
AcDbMText
 10
32.5
 20
282.0000000000003
 30
0.0
 40
5.0
 41
0.0
 71
     5
 72
     1
  1
図番
  7
CONVERTER_11
 73
     1
 44
0.45454545454545
  0
MTEXT
  5
B8
330
48
100
AcDbEntity
  8
1
 62
     2
100
AcDbMText
 10
29.0
 20
33.99999999999999
 30
0.0
 40
3.5
 41
0.0
 71
     5
 72
     1
  1
備考
  7
CONVERTER_11
 73
     1
 44
0.45454545454545
  0
MTEXT
  5
B9
330
48
100
AcDbEntity
  8
1
 62
     2
100
AcDbMText
 10
29.0
 20
22.75
 30
0.0
 40
3.5
 41
0.0
 71
     5
 72
     1
  1
品名
  7
CONVERTER_11
 73
     1
 44
0.72727272727273
  0
MTEXT
  5
BA
330
48
100
AcDbEntity
  8
1
 62
     2
100
AcDbMText
 10
29.0
 20
14.25
 30
0.0
 40
3.5
 41
0.0
 71
     5
 72
     1
  1
品番
  7
CONVERTER_11
 73
     1
 44
0.72727272727273
  0
MTEXT
  5
BB
330
48
100
AcDbEntity
  8
1
 62
     2
100
AcDbMText
 10
101.5
 20
25.0
 30
0.0
 40
3.0
 41
0.0
 71
     5
 72
     1
  1
承認
  7
CONVERTER_11
 73
     1
 44
0.59090909090909
  0
MTEXT
  5
BC
330
48
100
AcDbEntity
  8
1
 62
     2
100
AcDbMText
 10
175.0
 20
23.5
 30
0.0
 40
3.5
 41
0.0
 71
     5
 72
     1
  1
第三角法
  7
CONVERTER_11
 73
     1
 44
0.54545454545455
  0
MTEXT
  5
BD
330
48
100
AcDbEntity
  8
1
 62
     2
100
AcDbMText
 10
118.5
 20
25.0
 30
0.0
 40
3.0
 41
0.0
 71
     5
 72
     1
  1
検図
  7
CONVERTER_11
 73
     1
 44
0.59090909090909
  0
MTEXT
  5
BE
330
48
100
AcDbEntity
  8
1
 62
     2
100
AcDbMText
 10
152.4999999999999
 20
25.0
 30
0.0
 40
3.0
 41
0.0
 71
     5
 72
     1
  1
設計
  7
CONVERTER_11
 73
     1
 44
0.59090909090909
  0
MTEXT
  5
BF
330
48
100
AcDbEntity
  8
1
 62
     2
100
AcDbMText
 10
135.5
 20
25.0
 30
0.0
 40
3.0
 41
0.0
 71
     5
 72
     1
  1
製図
  7
CONVERTER_11
 73
     1
 44
0.59090909090909
  0
MTEXT
  5
C0
330
48
100
AcDbEntity
  8
1
 62
     2
100
AcDbMText
 10
89.5
 20
24.0
 30
0.0
 40
3.5
 41
0.0
 71
     5
 72
     1
  1
尺度
  7
CONVERTER_11
 73
     1
 44
0.54545454545455
  0
MTEXT
  5
C1
330
48
100
AcDbEntity
  8
1
 62
   250
100
AcDbMText
 10
25.0
 20
5.0
 30
0.0
 40
3.5
 41
0.0
 71
     4
 72
     1
  1
備考欄の文字列 原点位置=4
  7
CONVERTER_11
 73
     1
 44
0.54545454545455
  0
HATCH
  5
C2
330
48
100
AcDbEntity
  8
1
  6
Continuous
 62
     2
100
AcDbHatch
 10
0.0
 20
0.0
 30
0.0
210
0.0
220
0.0
230
1.0
  2
CUSTOM0
 70
     0
 71
     1
 91
        1
 92
        1
 93
        4
 72
     1
 10
192.4578138032672
 20
15.39722336795629
 11
192.4578138032672
 21
15.2287543402206
 72
     1
 10
192.4578138032672
 20
15.2287543402206
 11
191.1602971697031
 21
15.2287543402206
 72
     1
 10
191.1602971697031
 20
15.2287543402206
 11
191.1602971697031
 21
15.39722336795629
 72
     1
 10
191.1602971697031
 20
15.39722336795629
 11
192.4578138032672
 21
15.39722336795629
 97
        1
330
B5
 75
     1
 76
     2
 52
45.0
 41
0.1
 77
     0
 78
     1
 53
45.0
 43
0.0
 44
0.0
 45
-0.282842712474619
 46
0.0
 79
     0
 98
        1
 10
0.0
 20
0.0
  0
HATCH
  5
C3
330
48
100
AcDbEntity
  8
1
  6
Continuous
 62
     2
100
AcDbHatch
 10
0.0
 20
0.0
 30
0.0
210
0.0
220
0.0
230
1.0
  2
CUSTOM1
 70
     0
 71
     1
 91
        1
 92
        1
 93
        3
 72
     4
 94
        3
 73
     0
 74
     0
 95
       24
 96
       20
 40
0.0
 40
0.0
 40
0.0
 40
0.0
 40
0.221107500875402
 40
0.4273218586245804
 40
0.5080174679239814
 40
0.5914835907870694
 40
0.8143265690193418
 40
1.054651302686656
 40
1.295452694023222
 40
1.518109231328823
 40
1.540864321905464
 40
1.595126460622721
 40
1.659890947896056
 40
1.714153085187438
 40
1.736908174961736
 40
1.764951100735471
 40
1.801562291221108
 40
1.953914424543821
 40
2.126104167379815
 40
2.126104167379815
 40
2.126104167379815
 40
2.126104167379815
 10
185.9375369556889
 20
15.5898929511302
 10
185.9112579081812
 20
15.53097628234378
 10
185.8604698894425
 20
15.41711139679259
 10
185.8131784839111
 20
15.14441958233114
 10
185.7043482802618
 20
15.24445482575453
 10
185.5514800279637
 20
15.27118593367329
 10
185.7686155181199
 20
15.48518135017633
 10
185.7838483674381
 20
15.70332117782487
 10
185.8906889492
 20
15.88451579066427
 10
185.8305380947077
 20
16.1691322631139
 10
185.9334317395402
 20
16.14114089222447
 10
185.977993346815
 20
16.13243251602296
 10
186.0380842395397
 20
16.12139654183355
 10
186.0756619587439
 20
16.10767523055561
 10
186.1252466928606
 20
16.10756076160225
 10
186.0930158919326
 20
16.07306592398621
 10
186.017180222188
 20
16.08404104537975
 10
186.0429447159695
 20
15.89858969582451
 10
186.005589676385
 20
15.80702313549592
 10
185.985770496161
 20
15.75844135397711
 72
     4
 94
        3
 73
     0
 74
     0
 95
       70
 96
       66
 40
0.0
 40
0.0
 40
0.0
 40
0.0
 40
0.0241731073021472
 40
0.0846058988986729
 40
0.1631685280352999
 40
0.2417311571788903
 40
0.3021639488291898
 40
0.3263370654894688
 40
0.3533118254248011
 40
0.4228783438921205
 40
0.5179999095312425
 40
0.6216398239465072
 40
0.7167613891498604
 40
0.7863279069648726
 40
0.8133026791760664
 40
0.8372943998770503
 40
0.8945054261371701
 40
0.9627895541961762
 40
1.020000580349044
 40
1.043992300975142
 40
1.071934345522932
 40
1.113121768772866
 40
1.145225199332183
 40
1.225483775412704
 40
1.329819923771394
 40
1.434156071994263
 40
1.514414647795668
 40
1.546518078208271
 40
1.578974764260073
 40
1.662678849314011
 40
1.777131373668231
 40
1.901833377474622
 40
2.016285900500384
 40
2.099989982527723
 40
2.132446666570081
 40
2.158782354485823
 40
2.216720867907654
 40
2.274659381334118
 40
2.300995069256072
 40
2.333451754066044
 40
2.417155836543696
 40
2.531608358985136
 40
2.656310362283631
 40
2.770762886388735
 40
2.854466971339872
 40
2.886923657363678
 40
2.913597976833107
 40
2.982389642874896
 40
3.076451716946745
 40
3.178937260458339
 40
3.272999334739727
 40
3.341791001058937
 40
3.368465320663243
 40
3.396976080738492
 40
3.4721408118457
 40
3.57840819030839
 40
3.700226892455854
 40
3.822045594634071
 40
3.928312973256178
 40
4.003477705314576
 40
4.031988456866642
 40
4.058324144797447
 40
4.116262658236626
 40
4.174201171400443
 40
4.200536849608382
 40
4.200536849608382
 40
4.200536849608382
 40
4.200536849608382
 10
185.985770496161
 20
15.75844135397711
 10
185.993825954468
 20
15.75844359811693
 10
186.0220200663241
 20
15.75845146032804
 10
186.0765534803674
 20
15.75830754828377
 10
186.1482891808604
 20
15.75909120499904
 10
186.2236240137062
 20
15.75627570463817
 10
186.2713052366439
 20
15.76298403400963
 10
186.3195071245616
 20
15.75197563692439
 10
186.3062571799873
 20
15.80546402997039
 10
186.3151093964538
 20
15.86049583543097
 10
186.3108698036285
 20
15.95419908726114
 10
186.313348348128
 20
16.04959482218536
 10
186.3090938706059
 20
16.14356821983391
 10
186.3179818665847
 20
16.19795062438015
 10
186.3046977409945
 20
16.25233997691463
 10
186.3514119277109
 20
16.2384221633536
 10
186.3943254545736
 20
16.24103877374045
 10
186.4605443456686
 20
16.23648422450755
 10
186.5013342271798
 20
16.22778162134162
 10
186.552514569082
 20
16.23531799890194
 10
186.5253720487201
 20
16.19349970223289
 10
186.4803096055708
 20
16.2028499207259
 10
186.4942065045051
 20
16.13841207371837
 10
186.4858414431655
 20
16.07378219627399
 10
186.4903632178399
 20
15.97529141193889
 10
186.4854741311169
 20
15.87595932842574
 10
186.4950258992081
 20
15.81293115552973
 10
186.4799761455201
 20
15.74964011499793
 10
186.5449159457209
 20
15.76515072944275
 10
186.6116246399498
 20
15.75499387697819
 10
186.7241435470828
 20
15.75988800099373
 10
186.8390235448954
 20
15.7569120473279
 10
186.9519871999746
 20
15.76221664184996
 10
187.0176267597678
 20
15.75107306472096
 10
187.0816276691053
 20
15.76744532319863
 10
187.0703142889189
 20
15.71761689905278
 10
187.077533987151
 20
15.67416715212123
 10
187.0703142611269
 20
15.63071745587442
 10
187.0816277175994
 20
15.58088895196871
 10
187.0176263598971
 20
15.59726166091355
 10
186.951992124046
 20
15.58611271661582
 10
186.8389974317331
 20
15.59144857206848
 10
186.7242456548643
 20
15.58834345663815
 10
186.6113183686861
 20
15.59364894682583
 10
186.5455220903585
 20
15.58257300019587
 10
186.4816097975359
 20
15.59887597847612
 10
186.4936015165127
 20
15.54423524395737
 10
186.4862104613006
 20
15.48854295047838
 10
186.4892684841984
 20
15.39649689140568
 10
186.4893422785684
 20
15.301791098731
 10
186.486031357836
 20
15.20952782902266
 10
186.4939505989904
 20
15.15435768736141
 10
186.4815076611619
 20
15.10058169100138
 10
186.5389116551632
 20
15.11453768862784
 10
186.5994708140384
 20
15.1051145788423
 10
186.7048680855082
 20
15.10942885928708
 10
186.8204294070624
 20
15.10835504612034
 10
186.9359688877798
 20
15.10725965900997
 10
187.0414181130842
 20
15.11162525770635
 10
187.1018680471805
 20
15.10209426030674
 10
187.1592837739111
 20
15.11617289606382
 10
187.1477773876711
 20
15.06707153265684
 10
187.1537566781749
 20
15.02564658018649
 10
187.1520311050804
 20
14.97651677966694
 10
187.1521500122972
 20
14.94854428447606
 10
187.1521871691834
 20
14.93980288195948
 72
     4
 94
        3
 73
     0
 74
     0
 95
       62
 96
       58
 40
0.0
 40
0.0
 40
0.0
 40
0.0
 40
0.0598250028308769
 40
0.20248464868979
 40
0.3727558389221599
 40
0.5154154847936923
 40
0.5752404975786476
 40
0.93323267754884
 40
1.290451762839582
 40
1.602077253145946
 40
1.699931634112208
 40
1.799359756425151
 40
2.270120149657214
 40
2.804661928461611
 40
2.882342287383324
 40
3.07654318571918
 40
3.329004354835646
 40
3.581465524568479
 40
3.775666424543765
 40
3.853346784558386
 40
3.899120679595161
 40
3.984129341792187
 40
4.029903236817564
 40
4.105797496059717
 40
4.295533144152676
 40
4.542189486611916
 40
4.788845828875864
 40
4.978581476410245
 40
5.054475735244488
 40
5.62173466433948
 40
6.130867242037505
 40
6.225249780948737
 40
6.318913039727451
 40
6.663579954559093
 40
7.047498900224952
 40
7.435230791575855
 40
7.498943906668267
 40
7.650875181210261
 40
7.832212509001772
 40
7.984143783697157
 40
8.047856898903284
 40
8.091554632732803
 40
8.172707566964485
 40
8.21640530076822
 40
8.289021782161104
 40
8.462184160757477
 40
8.668861838005558
 40
8.84202421526415
 40
8.914640695475345
 40
8.989881580861537
 40
9.155411528827413
 40
9.320941477744165
 40
9.396182352487404
 40
9.454709011143951
 40
9.583467660170886
 40
9.712226309013165
 40
9.770752957989618
 40
9.770752957989618
 40
9.770752957989618
 40
9.770752957989618
 10
187.1521871691834
 20
14.93980288195948
 10
187.1322348171624
 20
14.93980875568669
 10
187.0647037716466
 20
14.93982863806155
 10
186.9410612161789
 20
14.93949362520324
 10
186.7863180150056
 20
14.9410767375051
 10
186.669734948248
 20
14.93686078860493
 10
186.455094263424
 20
14.95215205331625
 10
186.8518948407228
 20
14.59198721286193
 10
186.8945656069268
 20
14.37510503397166
 10
187.318916214661
 20
14.19325062511453
 10
187.1439821496075
 20
14.08985196568069
 10
187.0194523925083
 20
13.87831523212724
 10
186.7666277235944
 20
14.34806081001557
 10
186.4797602893626
 20
14.99511516984519
 10
186.4906335926662
 20
14.68782672154693
 10
186.488289277796
 20
14.52288616971777
 10
186.4861096126411
 20
14.28879670711691
 10
186.4980774396348
 20
14.04498072421781
 10
186.4687984740631
 20
13.89855796860981
 10
186.511452262547
 20
13.75113490174534
 10
186.423981400564
 20
13.76685797306217
 10
186.3768527606745
 20
13.76694303543452
 10
186.2898973207712
 20
13.75109425482905
 10
186.3313474021722
 20
13.89527771422759
 10
186.3029875004286
 20
14.03855052698452
 10
186.31459737753
 20
14.27674947365261
 10
186.3124175648272
 20
14.50517235240343
 10
186.3103111127993
 20
14.66705729375991
 10
186.3208035438323
 20
14.98153709333747
 10
186.0128963252894
 20
14.29229470872435
 10
185.7055258267454
 20
13.8147675024304
 10
185.5851367066275
 20
14.03741112637431
 10
185.4074607910721
 20
14.15011034955556
 10
185.8853326362894
 20
14.32548143465467
 10
185.9353959057208
 20
14.56091929252027
 10
186.3583799621717
 20
14.95322989344605
 10
186.127675427354
 20
14.93655307029064
 10
186.0049685859341
 20
14.94269518948768
 10
185.8325483095662
 20
14.93312822699572
 10
185.7213224694448
 20
14.95448818489663
 10
185.6025779627448
 20
14.92136265357418
 10
185.6183169706685
 20
15.00203900606883
 10
185.6178550933762
 20
15.04645414290855
 10
185.6027881889931
 20
15.12967081778536
 10
185.7372380935444
 20
15.09062651983886
 10
185.8619755545746
 20
15.11739729328424
 10
186.062875523728
 20
15.10063949044055
 10
186.1921540949352
 20
15.12204225913006
 10
186.3328419928295
 20
15.08868778853424
 10
186.2980927452614
 20
15.22651875785068
 10
186.3222185666713
 20
15.34963257349479
 10
186.2967086182391
 20
15.47024055670331
 10
186.3333251146685
 20
15.60539865141489
 10
186.2211417027769
 20
15.58094545781885
 10
186.1280356457137
 20
15.59307749842017
 10
186.0191547579819
 20
15.58957630069986
 10
185.9569697640964
 20
15.58981755951597
 10
185.9375369557246
 20
15.58989295124138
 97
        3
330
A6
330
A4
330
A5
 75
     1
 76
     2
 52
45.0
 41
0.1
 77
     0
 78
     1
 53
45.0
 43
0.0
 44
0.0
 45
-0.282842712474619
 46
0.0
 79
     0
 98
        1
 10
0.0
 20
0.0
  0
HATCH
  5
C4
330
48
100
AcDbEntity
  8
1
  6
Continuous
 62
     2
100
AcDbHatch
 10
0.0
 20
0.0
 30
0.0
210
0.0
220
0.0
230
1.0
  2
CUSTOM2
 70
     0
 71
     1
 91
        1
 92
        1
 93
        1
 72
     4
 94
        3
 73
     0
 74
     0
 95
      124
 96
      120
 40
0.0
 40
0.0
 40
0.0
 40
0.0
 40
0.027818722962451
 40
0.1011590162384269
 40
0.2048470170590523
 40
0.3237088716559245
 40
0.4425707262522284
 40
0.5462587270700116
 40
0.6195990203312934
 40
0.6474177522579513
 40
0.6750060736116095
 40
0.7357003855243611
 40
0.7963946998055327
 40
0.8239830245572619
 40
0.8540933811103997
 40
0.9373396629410109
 40
1.063094687343349
 40
1.220731268638215
 40
1.39962222091489
 40
1.589140358637931
 40
1.778658496424069
 40
1.957549448940736
 40
2.115186030873386
 40
2.240941056914719
 40
2.324187341760816
 40
2.354297700109666
 40
2.381886024672174
 40
2.442580338710759
 40
2.503274652750782
 40
2.53086297731489
 40
2.560983949278843
 40
2.640393784453217
 40
2.752662861759441
 40
2.881361560118486
 40
3.010060258455533
 40
3.122329335705708
 40
3.20173917081835
 40
3.231860142753711
 40
3.264298024030768
 40
3.352343701778635
 40
3.482095226869158
 40
3.639650650173416
 40
3.811108022565871
 40
3.982565394928376
 40
4.140120818152956
 40
4.269872343141665
 40
4.357918020802726
 40
4.390355902044353
 40
4.423256253992922
 40
4.508104530073443
 40
4.624121560637211
 40
4.750528176031968
 40
4.866545206602415
 40
4.951393482692372
 40
4.984293834645773
 40
5.011450833242685
 40
5.071196230152464
 40
5.130941627057534
 40
5.158098625649196
 40
5.190998977601887
 40
5.275847253689713
 40
5.391864284257147
 40
5.518270899648692
 40
5.634287930209731
 40
5.719136206288405
 40
5.752036558236292
 40
5.78213094628332
 40
5.862783906229496
 40
5.97955013177537
 40
6.11798431664078
 40
6.26364115458833
 40
6.402075339414544
 40
6.518841564908347
 40
6.599494524815932
 40
6.62958891284917
 40
6.654403028226747
 40
6.713575149488542
 40
6.784199939329917
 40
6.84337206049402
 40
6.868186175803266
 40
6.896246243202337
 40
6.939586233758802
 40
6.96784656456543
 40
7.043584251090368
 40
7.153234334452221
 40
7.283231855734969
 40
7.420011856035999
 40
7.550009376580346
 40
7.659659458835747
 40
7.735397144417736
 40
7.763657474851908
 40
7.796409728011565
 40
7.88087606509684
 40
7.996370852466225
 40
8.12220844641912
 40
8.237703224799715
 40
8.322169562011409
 40
8.354921815206422
 40
8.3820788133082
 40
8.4418242092075
 40
8.501569605240642
 40
8.528726603486218
 40
8.561478856696267
 40
8.645945193878317
 40
8.761439980865829
 40
8.887277580764971
 40
9.002772362001492
 40
9.087238696661712
 40
9.119990949236167
 40
9.152428830613866
 40
9.24047450863908
 40
9.37022603415003
 40
9.527781457984911
 40
9.699238830981898
 40
9.870696203979085
 40
10.02825162781451
 40
10.15800315332612
 40
10.24604883135167
 40
10.2784867037857
 40
10.2784867037857
 40
10.2784867037857
 40
10.2784867037857
 10
195.3821827564383
 20
14.01410517385759
 10
195.3914554737523
 20
14.01410498511276
 10
195.425174453686
 20
14.01410430876716
 10
195.4934706812465
 20
14.01411807243307
 10
195.592014171158
 20
14.01403224219547
 10
195.7062066464812
 20
14.01441755612252
 10
195.8185894417071
 20
14.01300835897547
 10
195.9214376600119
 20
14.01719117422245
 10
195.980683987485
 20
14.00823089251985
 10
196.0371265937034
 20
14.02164434526062
 10
196.0246255586955
 20
13.97087198613363
 10
196.0329549635705
 20
13.92589320939069
 10
196.0248170841119
 20
13.8805675299049
 10
196.0370529214458
 20
13.82931932408467
 10
195.9747773490334
 20
13.84447955365278
 10
195.9060513026869
 20
13.83359750710744
 10
195.7782756749591
 20
13.83911304747974
 10
195.6262984511644
 20
13.837008512537
 10
195.4502695972522
 20
13.83771002588476
 10
195.2644431934287
 20
13.83745237531293
 10
195.0786167437175
 20
13.83771005144606
 10
194.9025880142167
 20
13.83700841847732
 10
194.7506104154193
 20
13.83911332229991
 10
194.6228357664553
 20
13.83359680767642
 10
194.554107783658
 20
13.84448077125944
 10
194.4918349042881
 20
13.82931786684211
 10
194.5040616290017
 20
13.88057510805174
 10
194.4960004462595
 20
13.92582473272427
 10
194.5040675809892
 20
13.97106357955325
 10
194.4918238487082
 20
14.0223417690996
 10
194.5525017120696
 20
14.00749577363136
 10
194.6162810745735
 20
14.01756448170737
 10
194.7277314353502
 20
14.01294644212001
 10
194.8497533443823
 20
14.0141332890547
 10
194.9719538137823
 20
14.01515863900637
 10
195.0829794287392
 20
14.01092475623404
 10
195.1476517413958
 20
14.02018584521741
 10
195.2091162810501
 20
14.00604423049684
 10
195.1930065601337
 20
14.07235527884519
 10
195.2042980327358
 20
14.14447790121978
 10
195.1987400822561
 20
14.27513760888287
 10
195.200803506169
 20
14.42607323708243
 10
195.2000167127295
 20
14.59335873107887
 10
195.2007845215628
 20
14.76061110332304
 10
195.1988038785628
 20
14.91163289269915
 10
195.204130615662
 20
15.04206069552995
 10
195.1933101388425
 20
15.114654426059
 10
195.2090326429875
 20
15.18150469436799
 10
195.143270813249
 20
15.16580512490825
 10
195.0756367830763
 20
15.17609243083996
 10
194.9615885293809
 20
15.17113786847123
 10
194.8451242674902
 20
15.17414128030475
 10
194.7306554121477
 20
15.16880303143389
 10
194.6640324657812
 20
15.18001268074826
 10
194.5990769715186
 20
15.16349132665012
 10
194.6107989758707
 20
15.21473720477059
 10
194.6032830189122
 20
15.25950333784091
 10
194.6107989878835
 20
15.3042694489796
 10
194.5990769505347
 20
15.3555153612974
 10
194.66403263392
 20
15.33899381766814
 10
194.7306533339822
 20
15.35020571373943
 10
194.8451352858063
 20
15.34485436710663
 10
194.9615454436962
 20
15.34791188771116
 10
195.0757660174641
 20
15.34278499010707
 10
195.1430150439226
 20
15.35345733355597
 10
195.2083325941438
 20
15.33742082669076
 10
195.1941391448552
 20
15.39949685750052
 10
195.2036059462994
 20
15.46586761628762
 10
195.1990269004085
 20
15.58239972741966
 10
195.2007696555948
 20
15.71426685022376
 10
195.1997551495392
 20
15.85615960150274
 10
195.2017191344372
 20
15.98769050702581
 10
195.1964668553851
 20
16.10524577283005
 10
195.2073408763474
 20
16.16947789001586
 10
195.1919536641853
 20
16.2310880254505
 10
195.2407591537801
 20
16.21702407382113
 10
195.2853995564725
 20
16.21954742075315
 10
195.3538643946743
 20
16.2151279740171
 10
195.3959106169103
 20
16.20613025544036
 10
195.4487544758776
 20
16.21411714866508
 10
195.4207035002013
 20
16.17113917611675
 10
195.3749142248595
 20
16.18259552043835
 10
195.3869539073264
 20
16.12173520005135
 10
195.3796086070641
 20
16.0576929946877
 10
195.3831195826161
 20
15.94909368863908
 10
195.3819806760173
 20
15.82494319144751
 10
195.3819174780262
 20
15.69189719829876
 10
195.3832872966868
 20
15.56797381249554
 10
195.3791638801313
 20
15.45868337849337
 10
195.3877763103564
 20
15.39608580094168
 10
195.3746757454402
 20
15.33740133296364
 10
195.4393884328198
 20
15.35362113810901
 10
195.5060405953156
 20
15.34270260383311
 10
195.6198779541103
 20
15.34793740173755
 10
195.7357259122097
 20
15.34485547516912
 10
195.849692426328
 20
15.35018259812512
 10
195.9160341018099
 20
15.33904208166541
 10
195.980718852548
 20
15.35546979593177
 10
195.9689820772722
 20
15.30425925210049
 10
195.9765168063041
 20
15.25950334121001
 10
195.9689820992257
 20
15.21474739010027
 10
195.9807188140736
 20
15.16353690871041
 10
195.9160344075252
 20
15.1799642779422
 10
195.8496886430824
 20
15.1688278444727
 10
195.7357459487012
 20
15.17413115893121
 10
195.6197995623054
 20
15.17114764593544
 10
195.5062756882122
 20
15.17606892268395
 10
195.4389231318804
 20
15.1658508751352
 10
195.3734285122495
 20
15.18145996138817
 10
195.3891713619218
 20
15.11463851827412
 10
195.3783275998213
 20
15.0420705781588
 10
195.3836581629792
 20
14.91162247614417
 10
195.3817136151855
 20
14.76064558185227
 10
195.3823133683214
 20
14.5932224393416
 10
195.3821506559604
 20
14.42656176118373
 10
195.3821895488136
 20
14.27360142921638
 10
195.38218164131
 20
14.14849178985707
 10
195.3821828382744
 20
14.06507890991422
 10
195.3821827716208
 20
14.02491778281978
 10
195.3821827564383
 20
14.01410517385759
 97
        1
330
A7
 75
     1
 76
     2
 52
45.0
 41
0.1
 77
     0
 78
     1
 53
45.0
 43
0.0
 44
0.0
 45
-0.282842712474619
 46
0.0
 79
     0
 98
        1
 10
0.0
 20
0.0
  0
HATCH
  5
C5
330
48
100
AcDbEntity
  8
1
  6
Continuous
 62
     2
100
AcDbHatch
 10
0.0
 20
0.0
 30
0.0
210
0.0
220
0.0
230
1.0
  2
CUSTOM3
 70
     0
 71
     1
 91
        1
 92
        1
 93
        1
 72
     4
 94
        3
 73
     0
 74
     0
 95
      131
 96
      127
 40
0.0
 40
0.0
 40
0.0
 40
0.0
 40
0.0195577029826436
 40
0.0426490537461469
 40
0.2863607575856756
 40
0.5344948436189362
 40
0.7842238845573597
 40
0.8737315789467937
 40
0.9803832810313412
 40
1.092842274517088
 40
1.199761146656854
 40
1.289788768186574
 40
1.351573580786269
 40
1.370727117561495
 40
1.416400936017902
 40
1.470914848356039
 40
1.516588666791827
 40
1.535742203552905
 40
1.634216592293215
 40
1.760283341175002
 40
1.897966686682144
 40
2.031216387368952
 40
2.049689751137947
 40
2.101115601646885
 40
2.179502577740006
 40
2.278859318314126
 40
2.393194462258787
 40
2.516516648383908
 40
2.64283451540604
 40
2.766156701983549
 40
2.880491846754667
 40
2.979848588358713
 40
3.058235565443894
 40
3.10966141666905
 40
3.128134780704228
 40
3.146783742386544
 40
3.191254343315405
 40
3.244332157316064
 40
3.288802758225939
 40
3.30745171989521
 40
3.327717853844822
 40
3.383747753580186
 40
3.46838866592458
 40
3.574487837698891
 40
3.694892515729
 40
3.822449946852144
 40
3.950007377920539
 40
4.070412055800633
 40
4.176511227368193
 40
4.261152139501641
 40
4.317182039076837
 40
4.337448172964757
 40
4.620011002696398
 40
4.885096638397722
 40
4.945373043518524
 40
5.014107710488873
 40
5.07048172765229
 40
5.319246955636801
 40
5.584812164506292
 40
5.859000912057166
 40
6.133746937542372
 40
6.401732212969187
 40
6.420736683995806
 40
6.4728457174514
 40
6.550702743894385
 40
6.646951193874593
 40
6.754234497930917
 40
6.865196086587724
 40
6.972479390358182
 40
7.068727839772373
 40
7.146584865451381
 40
7.198693898189611
 40
7.217698368905752
 40
7.234950401631228
 40
7.276089864270275
 40
7.325191803516385
 40
7.36633126609077
 40
7.383583298770122
 40
7.402779163492528
 40
7.453386443254931
 40
7.524934666445961
 40
7.6069533614063
 40
7.68897205642948
 40
7.760520279784731
 40
7.811127559735001
 40
7.830323424546623
 40
7.847844055300247
 40
7.894799345667287
 40
7.962779392744967
 40
8.043374293561008
 40
8.128174145149906
 40
8.2087690448177
 40
8.276749090377397
 40
8.323704379669952
 40
8.341225010056682
 40
8.35849761480083
 40
8.401679126687007
 40
8.457815092186065
 40
8.51395105772847
 40
8.557132569708369
 40
8.574405174505412
 40
8.602340668616742
 40
8.643455660540285
 40
8.663225271966953
 40
8.71534515656459
 40
8.789031889628921
 40
8.873502045520638
 40
8.957972194324253
 40
9.031658925568136
 40
9.083778811234819
 40
9.10354842300328
 40
9.119550083123846
 40
9.16081752238012
 40
9.217244429110513
 40
9.278724491644999
 40
9.335151398295755
 40
9.37641883735805
 40
9.392420497300838
 40
9.40119630273503
 40
9.417494229384452
 40
9.426270027749725
 40
9.44087507547776
 40
9.475702496998942
 40
9.517270709866109
 40
9.55209813199428
 40
9.566703169884489
 40
9.566703169884489
 40
9.566703169884489
 40
9.566703169884489
 10
194.6170254148479
 20
15.67015871511029
 10
194.6134345093371
 20
15.66453690702159
 10
194.6056039123625
 20
15.6522775441911
 10
194.5129968974544
 20
15.61601916040993
 10
194.4887622233249
 20
15.40148444212708
 10
194.3858709845939
 20
15.22197284509708
 10
194.1220492364305
 20
15.03615573798144
 10
194.284547156918
 20
14.95959336566083
 10
194.3607225760838
 20
14.89856693195444
 10
194.4492171072758
 20
14.83515804544761
 10
194.538993023311
 20
14.77525634219561
 10
194.5883817636047
 20
14.72102154849208
 10
194.6745708157381
 20
14.69286240541827
 10
194.641126067423
 20
14.65713309652806
 10
194.621467116631
 20
14.625503879919
 10
194.5919888217882
 20
14.58475872796065
 10
194.5688989446031
 20
14.55504663489639
 10
194.5380205968358
 20
14.50211422668492
 10
194.472919336574
 20
14.62740334938897
 10
194.3796000122416
 20
14.68213900233938
 10
194.295063628514
 20
14.73916423939338
 10
194.1722498125742
 20
14.89675287427524
 10
194.1764450847302
 20
14.82035806766839
 10
194.1751478652678
 20
14.77361280161297
 10
194.1758126448078
 20
14.69584785812603
 10
194.1755549986958
 20
14.59902068324423
 10
194.1756431239922
 20
14.4865027907881
 10
194.1756077302282
 20
14.36524085945699
 10
194.175651175828
 20
14.2408689785896
 10
194.1755199942406
 20
14.11967683631335
 10
194.1759477562047
 20
14.00691148919741
 10
194.1746678202312
 20
13.91082913768742
 10
194.1779759851042
 20
13.83113826468697
 10
194.1715197740088
 20
13.78815175788782
 10
194.1806208705556
 20
13.74955432372039
 10
194.1447910339936
 20
13.75810887724068
 10
194.1115223815252
 20
13.75342519985443
 10
194.0604562576042
 20
13.75351298759782
 10
194.0269723972814
 20
13.75794430283818
 10
193.9907585408754
 20
13.74960793842506
 10
194.0009782568667
 20
13.79145277179281
 10
193.9936487887773
 20
13.83778560820171
 10
193.9973633136103
 20
13.92374831106012
 10
193.9959480554897
 20
14.02605142704847
 10
193.9964105554639
 20
14.1445322393151
 10
193.9962773686231
 20
14.26957683153355
 10
193.9963015910046
 20
14.39475828107049
 10
193.9963354925552
 20
14.51286645379058
 10
193.9962060293133
 20
14.61628748709516
 10
193.9965507549081
 20
14.69932036153667
 10
193.9958698278691
 20
14.75143368521244
 10
193.9994586600621
 20
14.87912907821362
 10
193.7826171386438
 20
14.5804871681962
 10
193.602135492195
 20
14.35263981511507
 10
193.5490322295612
 20
14.49373443289816
 10
193.5200429133149
 20
14.54325767560941
 10
193.4196648062821
 20
14.64641779790112
 10
193.7405127723261
 20
14.72695035023778
 10
193.8689897005429
 20
14.91066283036435
 10
194.090645432536
 20
15.11931995771763
 10
194.1770224894069
 20
15.29339211228344
 10
194.4549394229075
 20
15.56967051342517
 10
194.3346247839285
 20
15.56534559551116
 10
194.2863197351349
 20
15.56614856202556
 10
194.2102377454906
 20
15.56574582146587
 10
194.116701000975
 20
15.56590275611613
 10
194.0117594788557
 20
15.56582502576227
 10
193.9033887738718
 20
15.56595464378557
 10
193.7981454235897
 20
15.56554393490694
 10
193.7056237819413
 20
15.56682073671594
 10
193.6268130800707
 20
15.56340766534853
 10
193.5839674565378
 20
15.57023350036323
 10
193.5449499586516
 20
15.56065064201126
 10
193.5526365271863
 20
15.59420779565546
 10
193.5485464404312
 20
15.62523550322236
 10
193.5485531368814
 20
15.67236529270903
 10
193.5526239724911
 20
15.70340941646782
 10
193.5449495574583
 20
15.73701861635905
 10
193.5834819405495
 20
15.72748410420875
 10
193.6241228014479
 20
15.73397435498074
 10
193.6951471850463
 20
15.73100150650257
 10
193.7729318149634
 20
15.7317476139916
 10
193.8507292246474
 20
15.73247814044528
 10
193.9217232089908
 20
15.72954235514163
 10
193.9624279791821
 20
15.73595468772955
 10
194.000985348991
 20
15.72650524176007
 10
193.9927342754929
 20
15.76264692158787
 10
193.9982346669358
 20
15.80129837613229
 10
193.9955754206164
 20
15.86913528561841
 10
193.9965815471534
 20
15.94591641538741
 10
193.996017801832
 20
16.02849393582756
 10
193.9970714526594
 20
16.10517329229878
 10
193.994267586313
 20
16.17331990776698
 10
194.0000702721305
 20
16.21132399809345
 10
193.9915654551159
 20
16.24758448077644
 10
194.0255610233125
 20
16.2375572377185
 10
194.0594575683099
 20
16.24073266813705
 10
194.1126669060347
 20
16.23508965640608
 10
194.1660768574483
 20
16.23434774436425
 10
194.199591464949
 20
16.22819223482979
 10
194.2388086183039
 20
16.23346029773593
 10
194.2120263698492
 20
16.19253380793485
 10
194.1708111001725
 20
16.20371204538109
 10
194.1782641540874
 20
16.15867056192122
 10
194.1742227952185
 20
16.11412278028143
 10
194.1761714049641
 20
16.04223572621702
 10
194.1752364849759
 20
15.9616863058877
 10
194.176510719003
 20
15.88173995404996
 10
194.1732043793864
 20
15.80841837083185
 10
194.1802106179961
 20
15.7668864300257
 10
194.1701440380126
 20
15.72752418568115
 10
194.2029814803923
 20
15.73468063430984
 10
194.2364577296481
 20
15.73027243137947
 10
194.2915053476019
 20
15.732179433479
 10
194.3489502595316
 20
15.73185366407291
 10
194.402302624831
 20
15.73106308733085
 10
194.4398540896639
 20
15.73313959118077
 10
194.4623172523238
 20
15.73022338167112
 10
194.4751678073731
 20
15.73572552644059
 10
194.4858255685889
 20
15.73801118197794
 10
194.4986635650143
 20
15.74494972588057
 10
194.514599103307
 20
15.72853046313675
 10
194.5410623920892
 20
15.71709122319452
 10
194.5726805253757
 20
15.69644687835193
 10
194.5987255892151
 20
15.68116869628296
 10
194.6128517723973
 20
15.67266976323186
 10
194.6170254148479
 20
15.67015871511029
 97
        1
330
A8
 75
     1
 76
     2
 52
45.0
 41
0.1
 77
     0
 78
     1
 53
45.0
 43
0.0
 44
0.0
 45
-0.282842712474619
 46
0.0
 79
     0
 98
        1
 10
0.0
 20
0.0
  0
HATCH
  5
C6
330
48
100
AcDbEntity
  8
1
  6
Continuous
 62
     2
100
AcDbHatch
 10
0.0
 20
0.0
 30
0.0
210
0.0
220
0.0
230
1.0
  2
CUSTOM4
 70
     0
 71
     1
 91
        1
 92
        1
 93
        1
 72
     4
 94
        3
 73
     0
 74
     0
 95
       91
 96
       87
 40
0.0
 40
0.0
 40
0.0
 40
0.0
 40
0.0267532254356826
 40
0.0856103386464511
 40
0.1444674521997296
 40
0.1712206856619314
 40
0.2039416005643336
 40
0.2955601971653283
 40
0.4362601844618001
 40
0.6162252844508334
 40
0.8256392189705781
 40
1.054685709844547
 40
1.293548478893668
 40
1.532411247938412
 40
1.761457738799676
 40
1.970871673298673
 40
2.150836773256898
 40
2.291536760495759
 40
2.383155356836837
 40
2.415876284101485
 40
2.442629517488141
 40
2.501486630949299
 40
2.560343744424475
 40
2.58709697782676
 40
2.617068194441187
 40
2.699247336756357
 40
2.822032643466641
 40
2.973822353258199
 40
3.143014704823641
 40
3.31800793688022
 40
3.487200288187053
 40
3.638989997548591
 40
3.76177530379509
 40
3.843954445753424
 40
3.87392566223012
 40
3.890812773500817
 40
3.907699884771985
 40
3.937960767857562
 40
3.980983618142572
 40
4.199085915228739
 40
4.439444339237507
 40
4.677588241261139
 40
5.050698317838053
 40
5.448212454763382
 40
5.855291218044851
 40
6.138575438885482
 40
6.417434507584294
 40
6.444551104393954
 40
6.504207617363231
 40
6.563864130314557
 40
6.590980727104126
 40
6.848609460381562
 40
7.109611990668526
 40
7.352910904446225
 40
7.557830220705569
 40
7.587518925913492
 40
7.652834077375944
 40
7.718149228845939
 40
7.747837934062247
 40
7.854880190301206
 40
7.97651125740374
 40
8.369487896592569
 40
8.75751495922389
 40
9.126072419331324
 40
9.460639380392415
 40
9.746695593036184
 40
9.777569943118959
 40
9.807050320932067
 40
9.830377336129196
 40
9.88600329543629
 40
9.9523955694302
 40
10.00802152870656
 40
10.03134854388248
 40
10.21356951009619
 40
10.42203479292904
 40
10.66154556731097
 40
10.91693789564335
 40
11.15832906556589
 40
11.18982674596647
 40
11.27286608520428
 40
11.39026653033373
 40
11.52484752840904
 40
11.6594285264846
 40
11.77682897161498
 40
11.85986831085695
 40
11.8913659823044
 40
11.8913659823044
 40
11.8913659823044
 40
11.8913659823044
 10
190.7027885008196
 20
14.70699600701769
 10
190.7028237765288
 20
14.71587847311982
 10
190.7029366710796
 20
14.74430237047345
 10
190.7012984568489
 20
14.79409639169804
 10
190.7069750292911
 20
14.83657564478157
 10
190.6956928731706
 20
14.88730154856852
 10
190.7632296979032
 20
14.87012900740114
 10
190.8388029210701
 20
14.88290227166002
 10
190.9828357056001
 20
14.87629729457386
 10
191.1569419185427
 20
14.87888462206471
 10
191.3639599611003
 20
14.87800591955557
 10
191.5894688172378
 20
14.87828207920032
 10
191.8251162293406
 20
14.87818339658668
 10
192.0607640531349
 20
14.87828184412772
 10
192.2862717580626
 20
14.87800678190793
 10
192.4932934632805
 20
14.87888186270739
 10
192.667388891529
 20
14.87630522678452
 10
192.8114492071986
 20
14.88288290449218
 10
192.8869691915293
 20
14.87016243405609
 10
192.9545776037031
 20
14.88726400191692
 10
192.9430840140676
 20
14.83674785802943
 10
192.9505104581734
 20
14.79253252226502
 10
192.9428838927986
 20
14.74867966503609
 10
192.9546489459426
 20
14.69878374479325
 10
192.8930788491983
 20
14.71393227712508
 10
192.8256791738672
 20
14.70310665350671
 10
192.7013004056222
 20
14.70852031626233
 10
192.5554428236572
 20
14.70649205390782
 10
192.3893576440086
 20
14.70715777578383
 10
192.2188412621725
 20
14.70689643521239
 10
192.0519790855389
 20
14.7072155339109
 10
191.9087346827105
 20
14.70635302590759
 10
191.7773313869833
 20
14.70863300482984
 10
191.7239859134657
 20
14.70407704374201
 10
191.6485188456912
 20
14.70999914992872
 10
191.6769075779232
 20
14.70094169343353
 10
191.7033652409542
 20
14.69725912268935
 10
191.6633522907703
 20
14.66654271968275
 10
191.5713663691868
 20
14.67667591174631
 10
191.543939620707
 20
14.4303250224779
 10
191.4478793967234
 20
14.27499558764376
 10
191.1917277964475
 20
13.94525417931566
 10
191.7627537732763
 20
14.08430022210449
 10
192.0173656320517
 20
14.08291779973363
 10
192.6279647048617
 20
13.99790569242085
 10
192.3340698578083
 20
14.29685417558201
 10
192.0133304286519
 20
14.44330856901773
 10
192.1313543360434
 20
14.50025540818286
 10
192.1724716466261
 20
14.52420099873348
 10
192.2156812394411
 20
14.54599758811229
 10
192.3174574094452
 20
14.60928721253909
 10
192.4328867625247
 20
14.35147151408778
 10
192.6329591642278
 20
14.21616041113679
 10
192.7269077387229
 20
14.03792795138882
 10
192.9558829746392
 20
13.87997821027048
 10
192.8596031846709
 20
13.82915972576297
 10
192.816795976378
 20
13.7988129252305
 10
192.7718243528779
 20
13.77466130281455
 10
192.7121720925214
 20
13.7255214674756
 10
192.6789731061326
 20
13.85997475673608
 10
192.5582013350797
 20
14.0159426528658
 10
192.1970976005978
 20
13.88569928059554
 10
191.8385061955542
 20
13.90224694409482
 10
191.4570920450081
 20
13.89331229351862
 10
191.170345528289
 20
13.82882671672408
 10
190.8592055599714
 20
13.94230668192819
 10
190.8268737818788
 20
13.83122259927767
 10
190.7896178253317
 20
13.81196313850007
 10
190.7865737632754
 20
13.85874784087295
 10
190.7679892860606
 20
13.8980685391913
 10
190.7512436616778
 20
13.95765983478232
 10
190.7383730915754
 20
14.00201969871282
 10
190.7042327806429
 20
14.09106331120203
 10
190.9482714457754
 20
14.02181042943767
 10
191.1441394486673
 20
14.0003036905774
 10
191.2395426381277
 20
14.28226484478462
 10
191.2945135769598
 20
14.44363045421118
 10
191.5159619357154
 20
14.71391177589737
 10
191.3849239381215
 20
14.70548446853731
 10
191.3110026555853
 20
14.70779008496967
 10
191.1977459876243
 20
14.70671378321655
 10
191.0694251807484
 20
14.70707639076506
 10
190.9404252030415
 20
14.70697724466083
 10
190.8287840946291
 20
14.70699932712569
 10
190.7514663970027
 20
14.70699579189667
 10
190.713287653201
 20
14.70699595845078
 10
190.7027885008196
 20
14.70699600701769
 97
        1
330
A9
 75
     1
 76
     2
 52
45.0
 41
0.1
 77
     0
 78
     1
 53
45.0
 43
0.0
 44
0.0
 45
-0.282842712474619
 46
0.0
 79
     0
 98
        1
 10
0.0
 20
0.0
  0
HATCH
  5
C7
330
48
100
AcDbEntity
  8
1
  6
Continuous
 62
     2
100
AcDbHatch
 10
0.0
 20
0.0
 30
0.0
210
0.0
220
0.0
230
1.0
  2
CUSTOM5
 70
     0
 71
     1
 91
        1
 92
        1
 93
        1
 72
     4
 94
        3
 73
     0
 74
     0
 95
       35
 96
       31
 40
0.0
 40
0.0
 40
0.0
 40
0.0
 40
0.0335231036619709
 40
0.0713218571712012
 40
0.4278866681487431
 40
0.8116865841964609
 40
1.198190238000107
 40
1.561379546812758
 40
1.659983174622172
 40
1.759315573807327
 40
2.132719617231189
 40
2.52523336358895
 40
2.910815397779881
 40
3.265244364303539
 40
3.592606723582322
 40
3.964386154604281
 40
4.359942131738062
 40
4.758154118639567
 40
4.843846538700136
 40
4.936650065543449
 40
5.256616602537538
 40
5.581707404416242
 40
5.899719158308361
 40
6.19836349428092
 40
6.46630104661596
 40
6.493895311537282
 40
6.559697020197075
 40
6.638234543442652
 40
6.704036252154405
 40
6.731630508423212
 40
6.731630508423212
 40
6.731630508423212
 40
6.731630508423212
 10
191.9736010568669
 20
16.23463843719128
 10
191.9676006097789
 20
16.22480690542317
 10
191.9548344099157
 20
16.20388988579789
 10
191.7949362006553
 20
16.17127126532728
 10
192.2322025842337
 20
15.88206680336684
 10
192.4345394828262
 20
15.68041138358442
 10
192.6819564267973
 20
15.43749387603277
 10
193.1831513624607
 20
15.36047662757773
 10
193.012556219897
 20
15.2187693917466
 10
192.9383299463203
 20
15.01710366209096
 10
192.6131432248188
 20
15.36956287174725
 10
192.3277741670664
 20
15.53175212559559
 10
192.0337604077659
 20
15.73687130053048
 10
191.8084452691133
 20
16.2182748859546
 10
191.5993085055521
 20
15.75343046609228
 10
191.3207873674833
 20
15.54350952252914
 10
191.0371383177209
 20
15.37424456359985
 10
190.7078639527831
 20
15.00142360907936
 10
190.6277012318224
 20
15.19708014459002
 10
190.4759724909745
 20
15.324911041906
 10
190.9083395826795
 20
15.4045403176593
 10
191.0962565329767
 20
15.60026634915473
 10
191.3468477420504
 20
15.81632996916749
 10
191.5714350470161
 20
15.98190992300059
 10
191.6259775409712
 20
16.26133964636831
 10
191.7494661029011
 20
16.24737950408079
 10
191.806027334452
 20
16.24521268867646
 10
191.8761870984945
 20
16.24046859881357
 10
191.9333414022105
 20
16.23709429350536
 10
191.9644190320839
 20
16.23519854711114
 10
191.9736010568669
 20
16.23463843719128
 97
        1
330
AA
 75
     1
 76
     2
 52
45.0
 41
0.1
 77
     0
 78
     1
 53
45.0
 43
0.0
 44
0.0
 45
-0.282842712474619
 46
0.0
 79
     0
 98
        1
 10
0.0
 20
0.0
  0
HATCH
  5
C8
330
48
100
AcDbEntity
  8
1
  6
Continuous
 62
     2
100
AcDbHatch
 10
0.0
 20
0.0
 30
0.0
210
0.0
220
0.0
230
1.0
  2
CUSTOM6
 70
     0
 71
     1
 91
        1
 92
        1
 93
        1
 72
     4
 94
        3
 73
     0
 74
     0
 95
       15
 96
       11
 40
0.0
 40
0.0
 40
0.0
 40
0.0
 40
0.278553598509676
 40
0.521562474819924
 40
0.607691737604112
 40
0.6938210001741891
 40
0.940501914645539
 40
1.221691403489086
 40
1.300471877080997
 40
1.379252341684778
 40
1.379252341684778
 40
1.379252341684778
 40
1.379252341684778
 10
189.5681493631
 20
16.22930267330381
 10
189.6296017794179
 20
16.17691646592717
 10
189.7446649974114
 20
16.07882876798227
 10
190.0397348497245
 20
15.92889785897213
 10
189.9025147631856
 20
15.84343227515012
 10
189.8041227843779
 20
15.71085785201558
 10
189.7130033590649
 20
16.01616985781414
 10
189.3636839480657
 20
16.07967869465368
 10
189.5119258376571
 20
16.17896509880877
 10
189.5494081874237
 20
16.21252348402381
 10
189.5681493631
 20
16.22930267330381
 97
        1
330
AB
 75
     1
 76
     2
 52
45.0
 41
0.1
 77
     0
 78
     1
 53
45.0
 43
0.0
 44
0.0
 45
-0.282842712474619
 46
0.0
 79
     0
 98
        1
 10
0.0
 20
0.0
  0
HATCH
  5
C9
330
48
100
AcDbEntity
  8
1
  6
Continuous
 62
     2
100
AcDbHatch
 10
0.0
 20
0.0
 30
0.0
210
0.0
220
0.0
230
1.0
  2
CUSTOM7
 70
     0
 71
     1
 91
        1
 92
        1
 93
        1
 72
     4
 94
        3
 73
     0
 74
     0
 95
       75
 96
       71
 40
0.0
 40
0.0
 40
0.0
 40
0.0
 40
0.0342546099129638
 40
0.1245622414432222
 40
0.2522385480897234
 40
0.3985991922940218
 40
0.5449598364980217
 40
0.6726361431438088
 40
0.7629437746736107
 40
0.7971983935297084
 40
1.101723623449613
 40
1.408591244036566
 40
1.433332471690267
 40
1.487763172450052
 40
1.542193873081874
 40
1.566935100592417
 40
1.923523931821732
 40
2.271755704953476
 40
2.590579755100719
 40
2.858943305580955
 40
2.889120339308919
 40
2.918305855190872
 40
2.94136664553099
 40
2.996357760972864
 40
3.061992318140391
 40
3.116983433626562
 40
3.140044223997243
 40
3.411273122936145
 40
3.732441619740748
 40
3.761068217532446
 40
3.837787499630005
 40
3.948858699125638
 40
4.080541049104011
 40
4.21909378262539
 40
4.350776132721935
 40
4.461847332405266
 40
4.538566614677996
 40
4.56719321254424
 40
4.594907573998499
 40
4.666381453557038
 40
4.76411104401062
 40
4.870592538125423
 40
4.968322128641817
 40
5.039796008286531
 40
5.067510369783961
 40
5.094263603185175
 40
5.153120716667812
 40
5.211977830150258
 40
5.238731063551263
 40
5.27229053513853
 40
5.363380529444334
 40
5.49761841578104
 40
5.660621563453254
 40
5.838007341748955
 40
6.015393119910335
 40
6.178396267037932
 40
6.312634151841912
 40
6.403724143058901
 40
6.437283612671997
 40
6.464036846260611
 40
6.522893960004228
 40
6.581751071483494
 40
6.608504301590441
 40
6.637253941280588
 40
6.711397748902468
 40
6.81277805728308
 40
6.923237199248857
 40
7.024617507623501
 40
7.09876131520721
 40
7.127510946007161
 40
7.127510946007161
 40
7.127510946007161
 40
7.127510946007161
 10
188.4418622390564
 20
14.95849128473259
 10
188.4418622819707
 20
14.94707313408715
 10
188.4418624481129
 20
14.90555257842624
 10
188.4418593081787
 20
14.82146922003768
 10
188.4418788279801
 20
14.70004497322326
 10
188.4417912187737
 20
14.55980494047447
 10
188.442111623523
 20
14.42006556794577
 10
188.4411605909741
 20
14.29745038894931
 10
188.4431978595967
 20
14.21587074438045
 10
188.4349433178746
 20
14.06271267077701
 10
188.74307979409
 20
14.2256023605471
 10
189.0350645173739
 20
14.39482938688003
 10
189.0408354448707
 20
14.2597323578191
 10
189.0455471719892
 20
14.21617221160445
 10
189.0482535411919
 20
14.17211249350546
 10
189.0672545672955
 20
14.02272590363134
 10
188.6583942247304
 20
14.08681172241263
 10
188.3793710348832
 20
13.97296341411015
 10
188.1018081587166
 20
13.87364095811146
 10
187.8099837184404
 20
13.91630687596349
 10
187.7869144678658
 20
13.81321679744543
 10
187.7537474383334
 20
13.78691091244472
 10
187.7480653962739
 20
13.83455309036306
 10
187.7284214559045
 20
13.8718033611507
 10
187.7095089485624
 20
13.93007387847562
 10
187.6942849867708
 20
13.97385201007803
 10
187.6477246372936
 20
14.08759421046303
 10
187.9890897312452
 20
14.05576301120054
 10
188.2679649367385
 20
14.02161435106478
 10
188.2617753034907
 20
14.1691397647965
 10
188.2630935452773
 20
14.2401315090883
 10
188.2624831689948
 20
14.34719767958659
 10
188.2625871570725
 20
14.47398529785995
 10
188.2629987964055
 20
14.60849243496046
 10
188.2613907841969
 20
14.7339554995118
 10
188.2659902567925
 20
14.84505246719112
 10
188.256418650221
 20
14.90761886800684
 10
188.2704001783691
 20
14.96595388294996
 10
188.2147384386705
 20
14.95289710582233
 10
188.1575655197822
 20
14.96136307749494
 10
188.0616048925647
 20
14.95729976080631
 10
187.9633767522822
 20
14.95970889852469
 10
187.8672582457561
 20
14.95551600613383
 10
187.8104648525812
 20
14.96429346441157
 10
187.7550356873385
 20
14.95094936850117
 10
187.7670679427918
 20
15.00036910959252
 10
187.7592003173937
 20
15.0439398803039
 10
187.766629556383
 20
15.0883046911852
 10
187.7551930564144
 20
15.13902297763987
 10
187.8232102370134
 20
15.12162460757738
 10
187.8968496879747
 20
15.13417450237184
 10
188.0325064058211
 20
15.12799677011092
 10
188.1884909024526
 20
15.13029203093079
 10
188.3615926358144
 20
15.12940968262525
 10
188.5346942964182
 20
15.13029207142403
 10
188.6906789811218
 20
15.12799662955545
 10
188.8263351889798
 20
15.13417486262426
 10
188.8999756705653
 20
15.1216239421833
 10
188.9679914174725
 20
15.13902373012137
 10
188.9565590885923
 20
15.0883013041455
 10
188.9639539458297
 20
15.04397060811103
 10
188.9562039912271
 20
15.00028307550191
 10
188.9681203741878
 20
14.95063590098472
 10
188.9108170223617
 20
14.9646141133842
 10
188.8520145789773
 20
14.95539755673249
 10
188.75252936332
 20
14.95952268164925
 10
188.649428009835
 20
14.95822760025882
 10
188.5537846354574
 20
14.95854077077636
 10
188.4857467971617
 20
14.95848776697139
 10
188.4514462213443
 20
14.95849051871651
 10
188.4418622390564
 20
14.95849128473259
 97
        1
330
AC
 75
     1
 76
     2
 52
45.0
 41
0.1
 77
     0
 78
     1
 53
45.0
 43
0.0
 44
0.0
 45
-0.282842712474619
 46
0.0
 79
     0
 98
        1
 10
0.0
 20
0.0
  0
HATCH
  5
CA
330
48
100
AcDbEntity
  8
1
  6
Continuous
 62
     2
100
AcDbHatch
 10
0.0
 20
0.0
 30
0.0
210
0.0
220
0.0
230
1.0
  2
CUSTOM8
 70
     0
 71
     1
 91
        1
 92
        1
 93
        1
 72
     4
 94
        3
 73
     0
 74
     0
 95
       91
 96
       87
 40
0.0
 40
0.0
 40
0.0
 40
0.0
 40
0.0345987051695718
 40
0.1258134969461085
 40
0.2547723404888703
 40
0.4026032099153556
 40
0.550434079341642
 40
0.6793929228835227
 40
0.7706077146570467
 40
0.8052064287780072
 40
1.124852390615191
 40
1.427402236308789
 40
1.706356627453436
 40
1.955541417875122
 40
2.169485938566277
 40
2.344350786664753
 40
2.480568411561888
 40
2.590440557428884
 40
2.649189927151038
 40
2.749320643306254
 40
2.91263273987996
 40
3.147745656000169
 40
3.244827496384958
 40
3.338490056946559
 40
3.583815413206965
 40
3.761423943238317
 40
3.88695610436246
 40
3.985855451886664
 40
4.091766255337549
 40
4.250186473811743
 40
4.422734315084389
 40
4.628285684838469
 40
4.872093227758292
 40
5.152549652145401
 40
5.464967135837377
 40
5.803201477852294
 40
6.160362988813761
 40
6.193449448275844
 40
6.284170385501499
 40
6.41971813876434
 40
6.587285046385619
 40
6.774063446723504
 40
6.967245678113487
 40
7.154024078817502
 40
7.321590987025859
 40
7.457138740890217
 40
7.547859678555954
 40
7.580946138182513
 40
7.608533084714567
 40
7.669224367077545
 40
7.729915649429767
 40
7.75750259594982
 40
7.790278062553302
 40
7.880146277430772
 40
8.014419963180206
 40
8.180411842397707
 40
8.365434637679176
 40
8.556801071622449
 40
8.741823866830533
 40
8.9078157459161
 40
9.042089431507197
 40
9.131957646249322
 40
9.164733112796899
 40
9.415425063139795
 40
9.667986180958245
 40
9.694169807462412
 40
9.75660768604737
 40
9.831130315322262
 40
9.893568193899698
 40
9.919751820398544
 40
9.950967964690374
 40
9.996421631210474
 40
10.22087981037438
 40
10.44341866197525
 40
10.47847970788838
 40
10.57091337438738
 40
10.70159545461213
 40
10.85140174170344
 40
11.00120802880461
 40
11.13189010907366
 40
11.22432377582994
 40
11.2593848093894
 40
11.28697175596129
 40
11.34766303835903
 40
11.40835432042054
 40
11.43594125892088
 40
11.43594125892088
 40
11.43594125892088
 40
11.43594125892088
 10
190.0818114333289
 20
15.55242795125079
 10
190.070278584494
 20
15.55242790287917
 10
190.0283409444999
 20
15.55242773704167
 10
189.9434129719025
 20
15.5524312580091
 10
189.8207688553129
 20
15.55240926435881
 10
189.6791206916993
 20
15.55250801177056
 10
189.537975369849
 20
15.55214686232423
 10
189.4141351317905
 20
15.5532188360909
 10
189.3317217825382
 20
15.5509224909127
 10
189.1727791229695
 20
15.56048569373421
 10
189.3503402353375
 20
15.19785394311372
 10
189.3379739205453
 20
14.95243127723115
 10
189.4064519473865
 20
14.66862501324836
 10
189.469302432097
 20
14.43250999939035
 10
189.5452253431728
 20
14.23326740396127
 10
189.6303189577016
 20
14.07745347451373
 10
189.7244607592936
 20
13.9765785778139
 10
189.8282648207728
 20
13.92465852638962
 10
189.9125872030774
 20
13.97606484379614
 10
189.9351322179452
 20
14.09144544037514
 10
189.9745730975371
 20
14.21885149702377
 10
189.9202919734943
 20
14.53622328086754
 10
190.0451218072473
 20
14.38982180140904
 10
190.2019291513603
 20
14.35795300331169
 10
190.0947720007058
 20
14.12421357767628
 10
190.0808711209866
 20
13.95972776583658
 10
190.0234709467226
 20
13.83130869122482
 10
189.9335020145008
 20
13.76018802352829
 10
189.8095274657877
 20
13.74432324142255
 10
189.663427319686
 20
13.77993797554174
 10
189.5243894320284
 20
13.90000570500279
 10
189.4102003962144
 20
14.07435682550323
 10
189.3146141301486
 20
14.29946603111244
 10
189.2318652572627
 20
14.56388246006445
 10
189.1807179256412
 20
14.88187933098546
 10
189.077018920734
 20
15.15543728488915
 10
189.204284120852
 20
15.56005818612869
 10
189.0357890623019
 20
15.5511236784968
 10
188.9511995787077
 20
15.55315961418365
 10
188.8189876387628
 20
15.55213937388407
 10
188.6560505094104
 20
15.55253230318431
 10
188.4733759170534
 20
15.5523569631337
 10
188.2847057373383
 20
15.5526010530747
 10
188.101446902019
 20
15.55185657906238
 10
187.9404746832718
 20
15.55416360522428
 10
187.8029808335277
 20
15.54799804883664
 10
187.7289590372312
 20
15.56032838458213
 10
187.6613215186857
 20
15.54329323723558
 10
187.673237371927
 20
15.5952443844753
 10
187.6655677285694
 20
15.64071424966531
 10
187.6732592225117
 20
15.68614453703708
 10
187.6613141797762
 20
15.73802395984573
 10
187.7283588305867
 20
15.72119143490266
 10
187.8017375665678
 20
15.73335409092673
 10
187.9379128305272
 20
15.7272723107496
 10
188.0973811801513
 20
15.7295483431506
 10
188.2789173085837
 20
15.72881233998964
 10
188.4658034862179
 20
15.72905954196136
 10
188.6468012316836
 20
15.72886400799256
 10
188.8080802578879
 20
15.72932234714841
 10
188.9393882124887
 20
15.72812673751208
 10
189.0225051322597
 20
15.73051347319745
 10
189.1556236547813
 20
15.72230605725465
 10
189.064589350266
 20
15.97752868952656
 10
188.9789633074419
 20
16.24164358328244
 10
189.0990589003455
 20
16.22904442969163
 10
189.1514264948543
 20
16.22694235763074
 10
189.2214497569717
 20
16.22535399889657
 10
189.2671922337817
 20
16.21602567538112
 10
189.3220812646934
 20
16.22545966915427
 10
189.2963574785682
 20
16.17733028655173
 10
189.1825397571453
 20
16.18266829744177
 10
189.3159346621136
 20
15.95449174576776
 10
189.1943658735471
 20
15.72156856595925
 10
189.3223188769413
 20
15.73087258884441
 10
189.4049048406461
 20
15.72801001754682
 10
189.5307214850824
 20
15.72923437412305
 10
189.6741469838057
 20
15.72932431888966
 10
189.8157420951728
 20
15.72746163183855
 10
189.9459127249967
 20
15.73333075937165
 10
190.0193452286191
 20
15.72070340823206
 10
190.0891112922096
 20
15.73877563110414
 10
190.0775772605396
 20
15.68612850546328
 10
190.0833184346682
 20
15.64221317686549
 10
190.081661577091
 20
15.5908998267655
 10
190.081775756167
 20
15.56158792021636
 10
190.0818114333289
 20
15.55242795125079
 97
        1
330
AD
 75
     1
 76
     2
 52
45.0
 41
0.1
 77
     0
 78
     1
 53
45.0
 43
0.0
 44
0.0
 45
-0.282842712474619
 46
0.0
 79
     0
 98
        1
 10
0.0
 20
0.0
  0
HATCH
  5
CB
330
48
100
AcDbEntity
  8
1
  6
Continuous
 62
     2
100
AcDbHatch
 10
0.0
 20
0.0
 30
0.0
210
0.0
220
0.0
230
1.0
  2
CUSTOM9
 70
     0
 71
     1
 91
        1
 92
        1
 93
        1
 72
     4
 94
        3
 73
     0
 74
     0
 95
      118
 96
      114
 40
0.0
 40
0.0
 40
0.0
 40
0.0
 40
0.1054708162972979
 40
0.2466098270051312
 40
0.3965912874590529
 40
0.528552506975333
 40
0.6156245055641599
 40
0.6431434105796869
 40
0.7036850037985488
 40
0.76422659845038
 40
0.7917455052354075
 40
0.9287404319988871
 40
1.106572819087882
 40
1.287544879680859
 40
1.317578308030376
 40
1.399928030857013
 40
1.522968204799789
 40
1.67507298659041
 40
1.844616533180489
 40
2.019973001638551
 40
2.189516548879864
 40
2.341621331585202
 40
2.464661506320337
 40
2.547011229646902
 40
2.577044658167866
 40
2.603797890892965
 40
2.662655002908766
 40
2.721512114949663
 40
2.748265347702843
 40
2.774215307344918
 40
2.84595931340725
 40
2.954338556588447
 40
3.090194227585622
 40
3.244367517100589
 40
3.407699615844344
 40
3.571031714539491
 40
3.725205003920169
 40
3.861060674729668
 40
3.96943991771636
 40
4.041183923629031
 40
4.067133883213025
 40
4.311886746012183
 40
4.5478972583355
 40
4.764747083043965
 40
4.952749679951768
 40
5.045772974195911
 40
5.13786201964493
 40
5.330543169792956
 40
5.553448265243941
 40
5.795083855888122
 40
6.043293412177187
 40
6.285761695541089
 40
6.313902908752601
 40
6.384255941793191
 40
6.475714884766779
 40
6.56717382775887
 40
6.637526860839676
 40
6.665668074074039
 40
6.692018920328019
 40
6.749990782071103
 40
6.807962643790486
 40
6.834313490017966
 40
6.856393084245216
 40
6.913335195649868
 40
6.991194817302503
 40
7.076026942283708
 40
7.153886563725226
 40
7.210828674844752
 40
7.232908268931087
 40
7.25819933492361
 40
7.324875781592265
 40
7.419142481924929
 40
7.527204308841879
 40
7.635266135230466
 40
7.729532834168459
 40
7.796209279292786
 40
7.821500344594735
 40
7.844652988850834
 40
7.899863140541642
 40
7.965759128053809
 40
8.020969279771151
 40
8.044121924046618
 40
8.069356610160698
 40
8.109134395441403
 40
8.132238100191119
 40
8.193147867786484
 40
8.279261678876663
 40
8.377977512673882
 40
8.476693347146673
 40
8.56280716041173
 40
8.623716930826518
 40
8.646820636853473
 40
8.671988793774286
 40
8.734909185828169
 40
8.816705695188883
 40
8.898502204815454
 40
8.961422597377915
 40
8.986590754551028
 40
9.012941600733189
 40
9.070913462380288
 40
9.128885324081796
 40
9.155236170325123
 40
9.180404327929166
 40
9.24332472194824
 40
9.325121234212004
 40
9.406917746637658
 40
9.469838141978114
 40
9.495006288270888
 40
9.517811184379024
 40
9.572192090487013
 40
9.637098333281227
 40
9.691479239515415
 40
9.714284125643449
 40
9.714284125643449
 40
9.714284125643449
 40
9.714284125643449
 10
185.2874469028654
 20
15.26889163187718
 10
185.3090990569038
 20
15.2411186924281
 10
185.3597257109474
 20
15.17618054561234
 10
185.4349383202592
 20
15.06891060312898
 10
185.5248482274346
 20
14.95377438266624
 10
185.5709169676673
 20
14.85357045748318
 10
185.6655825294654
 20
14.78434006814941
 10
185.6204439320413
 20
14.73771639678272
 10
185.594704778579
 20
14.69660308866039
 10
185.5645196708011
 20
14.66065971727939
 10
185.5193684730563
 20
14.58579782596096
 10
185.4710504458562
 20
14.80782524253601
 10
185.3968539713074
 20
14.84510677337708
 10
185.2836047324608
 20
15.11610202130598
 10
185.2885133578171
 20
15.00095328446225
 10
185.2868486556306
 20
14.92836675781624
 10
185.2876830076715
 20
14.80625588483983
 10
185.2873609540265
 20
14.65913800810457
 10
185.2875076912457
 20
14.49307063956554
 10
185.2872950092723
 20
14.32187554608599
 10
185.2879497252034
 20
14.15552828635495
 10
185.2859192461141
 20
14.0093517305569
 10
185.2913460399931
 20
13.88471047474608
 10
185.280493086871
 20
13.81718656540623
 10
185.2956739155555
 20
13.75549061417018
 10
185.2457895108134
 20
13.76727503896999
 10
185.2017150342521
 20
13.75943822779966
 10
185.1582371630201
 20
13.76760441372701
 10
185.1092346786487
 20
13.75538056738465
 10
185.1218731234824
 20
13.8096066724931
 10
185.1130182968448
 20
13.86936918907554
 10
185.1175058770312
 20
13.97922029044367
 10
185.115796013599
 20
14.11029975405675
 10
185.1163550915986
 20
14.26198011444324
 10
185.1161928768692
 20
14.4221107492995
 10
185.1162269924674
 20
14.58236865674563
 10
185.1162514960126
 20
14.73370247520436
 10
185.1161453543224
 20
14.86582156338597
 10
185.1164299141931
 20
14.97294802533189
 10
185.1158675547566
 20
15.0380861957947
 10
185.1180765083689
 20
15.1661895785867
 10
185.0319435998601
 20
14.79097610391575
 10
184.9555140818501
 20
14.63918193123389
 10
184.8660040767833
 20
14.47766206446305
 10
184.7640413217326
 20
14.20471848820169
 10
184.7187976491039
 20
14.36717346596507
 10
184.6102355941671
 20
14.45605432058122
 10
184.7995791751753
 20
14.60549794961408
 10
184.85653405457
 20
14.79749136974926
 10
184.9717520993353
 20
15.02899622906756
 10
184.9940151630133
 20
15.21797259759058
 10
185.177190515214
 20
15.49454089325927
 10
185.0538033597552
 20
15.48698978832087
 10
184.9925684166834
 20
15.48856772366113
 10
184.9081999617064
 20
15.48882592573666
 10
184.8204235085965
 20
15.48544845751199
 10
184.7656768696123
 20
15.49394814982014
 10
184.7104703026024
 20
15.48048561049782
 10
184.7222823035536
 20
15.52931442126758
 10
184.7142496151793
 20
15.57269004896704
 10
184.7228186104679
 20
15.6150943830957
 10
184.7102943409157
 20
15.66267796552115
 10
184.7555101538735
 20
15.65267212995107
 10
184.8014815562723
 20
15.65894105174059
 10
184.877722204771
 20
15.6559356140587
 10
184.9561296131993
 20
15.65770448278539
 10
185.0323992648932
 20
15.65464793981658
 10
185.0783009459473
 20
15.66103971376175
 10
185.1231733965399
 20
15.65093822978894
 10
185.1105552275633
 20
15.70157201581897
 10
185.1191936582704
 20
15.75501261882068
 10
185.1152361595441
 20
15.8486325513168
 10
185.1162325068334
 20
15.95112606688924
 10
185.1171927413072
 20
16.05353270248164
 10
185.1133211458005
 20
16.14735929609324
 10
185.1217789814363
 20
16.20036542840355
 10
185.1093075932834
 20
16.25211435651191
 10
185.1542106389849
 20
16.23850747226759
 10
185.1955083836771
 20
16.24100480320587
 10
185.259534428105
 20
16.23648060574489
 10
185.2986111148785
 20
16.22781003043307
 10
185.3476543498743
 20
16.23515102070688
 10
185.3225080030591
 20
16.19602896051755
 10
185.2815901333725
 20
16.20563842455807
 10
185.2910109616604
 20
16.15540148169778
 10
185.2855647318747
 20
16.10385945639491
 10
185.2881699601805
 20
16.0195970758452
 10
185.2870102202156
 20
15.92559135583408
 10
185.2883591064232
 20
15.83196865395524
 10
185.284997010151
 20
15.74679517552222
 10
185.292095991777
 20
15.69716856072042
 10
185.2812569154547
 20
15.64993694969987
 10
185.3304010225245
 20
15.66201674936849
 10
185.3794877630148
 20
15.6544739336301
 10
185.4573714280642
 20
15.65686070361431
 10
185.5350365172897
 20
15.65899381905413
 10
185.5845393931355
 20
15.65193391922453
 10
185.6344594750639
 20
15.66360151936212
 10
185.6223198516882
 20
15.6154023537139
 10
185.6305838229144
 20
15.57249219801231
 10
185.6223198650785
 20
15.5295820185138
 10
185.6344594549855
 20
15.48138288754858
 10
185.5845395158747
 20
15.49305034471504
 10
185.5350350651203
 20
15.4859920243504
 10
185.4573784382974
 20
15.48811665228597
 10
185.3794643865762
 20
15.49053389365755
 10
185.3304500352717
 20
15.48291848194479
 10
185.2813246108944
 20
15.49507952557586
 10
185.2915559988572
 20
15.45073013424152
 10
185.2856677678054
 20
15.40925436202907
 10
185.287878830557
 20
15.349153943153
 10
185.2874109346147
 20
15.30225782762887
 10
185.2874386992914
 20
15.27650146418195
 10
185.2874469028654
 20
15.26889163187718
 97
        1
330
AE
 75
     1
 76
     2
 52
45.0
 41
0.1
 77
     0
 78
     1
 53
45.0
 43
0.0
 44
0.0
 45
-0.282842712474619
 46
0.0
 79
     0
 98
        1
 10
0.0
 20
0.0
  0
HATCH
  5
CC
330
48
100
AcDbEntity
  8
1
  6
Continuous
 62
     2
100
AcDbHatch
 10
0.0
 20
0.0
 30
0.0
210
0.0
220
0.0
230
1.0
  2
CUSTOM10
 70
     0
 71
     1
 91
        1
 92
        1
 93
        1
 72
     4
 94
        3
 73
     0
 74
     0
 95
       47
 96
       43
 40
0.0
 40
0.0
 40
0.0
 40
0.0
 40
0.2207912809957372
 40
0.4459404186303237
 40
0.4902387190459442
 40
0.532747389272233
 40
0.5742260451225971
 40
0.6155432630561829
 40
0.656816406631646
 40
0.6982511618780851
 40
0.7407663929317295
 40
0.7851366743175345
 40
1.010288833836337
 40
1.231080507002203
 40
1.451765243652384
 40
1.676638205891666
 40
1.720461045359639
 40
1.830018144043505
 40
1.972442372353139
 40
2.114866600677508
 40
2.224423699395137
 40
2.268246538883378
 40
2.493628801207236
 40
2.715602830286617
 40
2.934211330706381
 40
3.149502369855344
 40
3.231387784850875
 40
3.318231873853938
 40
3.405143198197953
 40
3.486970301720445
 40
3.70225817249386
 40
3.920866283534099
 40
4.142839325931873
 40
4.368221903865361
 40
4.412044743359843
 40
4.521601842095858
 40
4.664026070452341
 40
4.806450298809054
 40
4.916007397546748
 40
4.959830237043072
 40
5.184703515847103
 40
5.405387250767431
 40
5.405387250767431
 40
5.405387250767431
 40
5.405387250767431
 10
182.6507427258645
 20
15.73406440953869
 10
182.6568139420002
 20
15.79758482501207
 10
182.6690762107242
 20
15.92587938689624
 10
182.5604706879411
 20
16.20166220174077
 10
182.6761985896604
 20
16.17188133432051
 10
182.7171842509015
 20
16.16765556262828
 10
182.7591205797519
 20
16.16310446389605
 10
182.8004196625711
 20
16.16201982929488
 10
182.8417032115556
 20
16.16310338195226
 10
182.8836148270647
 20
16.16766112711352
 10
182.9245983549019
 20
16.17187430209726
 10
183.0404922843488
 20
16.20177611317534
 10
182.9295652727457
 20
15.92339806609886
 10
182.9574856365266
 20
15.74283140824952
 10
182.940426734697
 20
15.50961042346471
 10
182.9414637282102
 20
15.34906622543147
 10
182.9414099399405
 20
15.22284817558723
 10
182.941427737248
 20
15.12428963336242
 10
182.941418858108
 20
14.99280702442964
 10
182.9414263928034
 20
14.86132844968651
 10
182.9414129405127
 20
14.76276222694091
 10
182.9414531717493
 20
14.63639735624153
 10
182.9406746403818
 20
14.4748206882287
 10
182.9565958319266
 20
14.24361821892913
 10
182.9333468885408
 20
14.05874351972003
 10
183.0360183444366
 20
13.78935602770061
 10
182.8820238362837
 20
13.82660112685817
 10
182.8004129802833
 20
13.82137994680527
 10
182.7188192292583
 20
13.82660620378351
 10
182.5648513666843
 20
13.78937069885388
 10
182.6674183421917
 20
14.05875129862879
 10
182.6442045316088
 20
14.24361585325414
 10
182.6600444655138
 20
14.47482218565638
 10
182.6593296313429
 20
14.63639712308504
 10
182.6593664569907
 20
14.76276231210521
 10
182.6593549000272
 20
14.86132756635983
 10
182.6593575019214
 20
14.9928112741722
 10
182.6593648531779
 20
15.12427548031201
 10
182.6593442541352
 20
15.22287786275328
 10
182.6594082192029
 20
15.34896149354429
 10
182.658173394759
 20
15.51210091383771
 10
182.6532040396745
 20
15.66054183777548
 10
182.6507427258645
 20
15.73406440953869
 97
        1
330
AF
 75
     1
 76
     2
 52
45.0
 41
0.1
 77
     0
 78
     1
 53
45.0
 43
0.0
 44
0.0
 45
-0.282842712474619
 46
0.0
 79
     0
 98
        1
 10
0.0
 20
0.0
  0
HATCH
  5
CD
330
48
100
AcDbEntity
  8
1
  6
Continuous
 62
     2
100
AcDbHatch
 10
0.0
 20
0.0
 30
0.0
210
0.0
220
0.0
230
1.0
  2
CUSTOM11
 70
     0
 71
     1
 91
        1
 92
        1
 93
        1
 72
     4
 94
        3
 73
     0
 74
     0
 95
      110
 96
      106
 40
0.0
 40
0.0
 40
0.0
 40
0.0
 40
0.2203406257277607
 40
0.440780878283809
 40
0.5952494494615065
 40
0.7488431659393051
 40
0.9023581831308476
 40
1.056801968670403
 40
1.210736449099875
 40
1.363041386539697
 40
1.515315729683067
 40
1.669377239148074
 40
1.721611652756574
 40
1.773199502942981
 40
1.824933793209992
 40
1.877110426488009
 40
1.982682281206776
 40
2.078781667087559
 40
2.172809640822335
 40
2.27193780737896
 40
2.378349933379382
 40
2.494131557736624
 40
2.626681683943731
 40
2.783145050796101
 40
2.89070123294094
 40
2.993130312454878
 40
3.099869730691831
 40
3.220237816691324
 40
3.352695482737595
 40
3.481732806389904
 40
3.593499473690378
 40
3.674323013331851
 40
3.817951711952743
 40
3.946167120793713
 40
4.061405053453397
 40
4.166480796003039
 40
4.262478775059188
 40
4.350736673551032
 40
4.433071991253972
 40
4.511216293814522
 40
4.564262454117844
 40
4.618474415571473
 40
4.670128488754114
 40
4.722296879126336
 40
4.819540945314208
 40
4.931194984128064
 40
5.04999604025765
 40
5.168643755415138
 40
5.283970811762435
 40
5.39226078491029
 40
5.486512254876308
 40
5.559178233949678
 40
5.591425852853329
 40
5.626215969637705
 40
5.66715583867427
 40
5.717449290214106
 40
5.738402360944721
 40
5.784499116553691
 40
5.830595872164666
 40
5.851548942897524
 40
5.873019280661636
 40
5.924217778408178
 40
5.985325662817554
 40
6.036524160567565
 40
6.057994498334094
 40
6.236847789607338
 40
6.381409928945538
 40
6.493190424178556
 40
6.574067534230418
 40
6.691018086205456
 40
6.814881554220231
 40
6.944307823240326
 40
7.071266716065922
 40
7.193488604461769
 40
7.309042773127993
 40
7.414007203170676
 40
7.505140441886458
 40
7.531150360599598
 40
7.559221645322194
 40
7.58720221892084
 40
7.612569159499055
 40
7.66255080948092
 40
7.70287887576405
 40
7.857328205230949
 40
8.010799568088594
 40
8.165256399657572
 40
8.32223269871377
 40
8.479564855016484
 40
8.635216230290688
 40
8.790882550925634
 40
8.948305154947171
 40
9.168271839032867
 40
9.387358980987104
 40
9.608047961033336
 40
9.832914234792597
 40
9.85833869496293
 40
9.925366817229932
 40
10.02013071422751
 40
10.12876249858989
 40
10.23739428295239
 40
10.3321581799518
 40
10.39918630222382
 40
10.42461076239771
 40
10.64992019336928
 40
10.87188524531175
 40
10.87188524531175
 40
10.87188524531175
 40
10.87188524531175
 10
179.9057788376619
 20
15.73923260398189
 10
179.9092864933542
 20
15.80616462073803
 10
179.9163033987663
 20
15.94005891915856
 10
179.8198027599073
 20
16.22548554971469
 10
180.0510134726109
 20
16.16284386190281
 10
180.1919290057156
 20
16.17001554055999
 10
180.3490417757589
 20
16.16235883078242
 10
180.5025913427288
 20
16.16252752283044
 10
180.6545104935081
 20
16.16182040535431
 10
180.8142214813231
 20
16.17210158351647
 10
180.9408972601118
 20
16.15496511080748
 10
181.1370821122081
 20
16.22727260107148
 10
181.1034395279079
 20
16.12640699080113
 10
181.1052011317185
 20
16.07619253947668
 10
181.1027342073459
 20
16.02712335586462
 10
181.1347076966013
 20
15.94063490846993
 10
181.0010399903256
 20
15.98997438608336
 10
180.9172208688057
 20
15.98430634314173
 10
180.8173861139325
 20
15.99465516706296
 10
180.7186576720146
 20
16.00086450411086
 10
180.6121532771111
 20
16.00697763816782
 10
180.491051169806
 20
16.01588883484576
 10
180.3703381502454
 20
16.00521605912385
 10
180.1812553843438
 20
16.06468503080361
 10
180.212902850531
 20
15.90558320077537
 10
180.1995563316836
 20
15.808391283399
 10
180.1974958426449
 20
15.696340651101
 10
180.195818804467
 20
15.57699685629349
 10
180.1973336794234
 20
15.45032592155107
 10
180.1956582478669
 20
15.32301588016114
 10
180.2058844271659
 20
15.22451566404462
 10
180.1779006596583
 20
15.08388702625637
 10
180.3508029999306
 20
15.13989551134091
 10
180.4645020202772
 20
15.12719951478504
 10
180.5840151672239
 20
15.13448377051249
 10
180.6888491425072
 20
15.13878017056763
 10
180.7843084898612
 20
15.14330568258971
 10
180.8763823507032
 20
15.15149201146205
 10
180.9476551782439
 20
15.14643850638106
 10
181.0544931705685
 20
15.18536425031677
 10
181.0226603598036
 20
15.10517122005882
 10
181.0266164503929
 20
15.05562936846035
 10
181.0234502392013
 20
15.00557478039819
 10
181.0550791490585
 20
14.92128847612017
 10
180.9210133677691
 20
14.97425365495158
 10
180.82923227932
 20
14.96540080890438
 10
180.7079729189603
 20
14.97570049965156
 10
180.5914113119773
 20
14.97748911767501
 10
180.4783375745879
 20
14.97787017109693
 10
180.3679246308471
 20
14.98415449472183
 10
180.2898124067841
 20
14.97189133255364
 10
180.1913625833645
 20
15.00453887616126
 10
180.2012355173562
 20
14.94769748054209
 10
180.1973923244402
 20
14.91392130557987
 10
180.1966789884269
 20
14.87119604709412
 10
180.1963369642975
 20
14.83401607262152
 10
180.1963834255345
 20
14.79487237370769
 10
180.1963649429927
 20
14.75716849497684
 10
180.1963703431806
 20
14.71944955232401
 10
180.19636972142
 20
14.68994324745147
 10
180.1963698151546
 20
14.658735776993
 10
180.196370428792
 20
14.61414424908083
 10
180.1963671499337
 20
14.5596395650885
 10
180.196375962348
 20
14.51505540201446
 10
180.1963359653418
 20
14.4311780858574
 10
180.1976024270255
 20
14.31737520677676
 10
180.1950274117841
 20
14.16830395933707
 10
180.206500938172
 20
14.06597203813902
 10
180.1823506222264
 20
13.93338903885829
 10
180.3332993946476
 20
13.97895732272012
 10
180.4428436671556
 20
13.96427012162341
 10
180.573397047392
 20
13.9692043512506
 10
180.6990312209513
 20
13.97257705323354
 10
180.8188730625602
 20
13.97711497498778
 10
180.9391362611426
 20
13.99048536181998
 10
181.0222761663516
 20
13.98068712782594
 10
181.1456080421076
 20
14.04126214623315
 10
181.1244269203957
 20
13.98532460134019
 10
181.1235950270116
 20
13.95939249372345
 10
181.1218963707558
 20
13.93197256190937
 10
181.1217974888829
 20
13.89738195206385
 10
181.1203659301329
 20
13.86050408220766
 10
181.1532804192192
 20
13.76846841021808
 10
180.9551306988107
 20
13.8413201597483
 10
180.8300548294891
 20
13.81825726508601
 10
180.6673071295156
 20
13.82454021985781
 10
180.5129366450002
 20
13.82260943909921
 10
180.3566670436945
 20
13.82393762599264
 10
180.1970544465283
 20
13.82059872487857
 10
180.0540326342237
 20
13.8326579572824
 10
179.8197144881629
 20
13.76952001976922
 10
179.9173810751197
 20
14.05620527466319
 10
179.900686878006
 20
14.2498830814266
 10
179.9146296709686
 20
14.47848242880295
 10
179.9142987846632
 20
14.63384593955051
 10
179.9143078119264
 20
14.73966336444129
 10
179.9143055876316
 20
14.80205784124217
 10
179.914306555189
 20
14.89220425248329
 10
179.9143065473262
 20
14.99621167157439
 10
179.9143053861104
 20
15.10022131375298
 10
179.9143090971502
 20
15.19036243688768
 10
179.9143011051052
 20
15.25276803097215
 10
179.9143334275019
 20
15.35868835961118
 10
179.913144078832
 20
15.51626716544739
 10
179.9082216489257
 20
15.66528219822064
 10
179.9057788376619
 20
15.73923260398189
 97
        1
330
B0
 75
     1
 76
     2
 52
45.0
 41
0.1
 77
     0
 78
     1
 53
45.0
 43
0.0
 44
0.0
 45
-0.282842712474619
 46
0.0
 79
     0
 98
        1
 10
0.0
 20
0.0
  0
HATCH
  5
CE
330
48
100
AcDbEntity
  8
1
  6
Continuous
 62
     2
100
AcDbHatch
 10
0.0
 20
0.0
 30
0.0
210
0.0
220
0.0
230
1.0
  2
CUSTOM12
 70
     0
 71
     1
 91
        1
 92
        1
 93
        1
 72
     4
 94
        3
 73
     0
 74
     0
 95
       95
 96
       91
 40
0.0
 40
0.0
 40
0.0
 40
0.0
 40
0.6550406656911587
 40
1.308087289031918
 40
1.420803739835772
 40
1.566130759770811
 40
1.757067341888451
 40
2.006513545026411
 40
2.087328263121529
 40
2.185328872295652
 40
2.294612454748389
 40
2.408936380534807
 40
2.526802767798559
 40
2.646360524615603
 40
2.762535723971574
 40
2.870057342870143
 40
2.966883448431686
 40
3.050803243518319
 40
3.115818222436598
 40
3.156030057150225
 40
3.213914225080266
 40
3.276689026450723
 40
3.342960320981357
 40
3.404230667150547
 40
3.453822809493329
 40
3.532499827188323
 40
3.634775188507113
 40
3.754909333008109
 40
3.889736761660629
 40
4.035769602175213
 40
4.187256681197586
 40
4.338733685675869
 40
4.488478734676074
 40
4.634708317831526
 40
4.771493189921257
 40
4.892686571561151
 40
5.199775528944392
 40
5.460353566929637
 40
5.66760314234546
 40
5.814722905404427
 40
5.828990806219725
 40
5.855488336304422
 40
5.869756237118754
 40
6.189796507762748
 40
6.531890469872996
 40
6.883053637016972
 40
7.230512024911389
 40
7.566966656764497
 40
7.885203559707316
 40
8.172887439719117
 40
8.418011594062678
 40
8.4439267211906
 40
8.510760470613091
 40
8.602145393795604
 40
8.70171404164705
 40
8.793098965075286
 40
8.85993271505786
 40
8.88584784260351
 40
9.242301256612699
 40
9.589275455016699
 40
9.921808543164063
 40
10.23479624298456
 40
10.2996815088916
 40
10.35323493887743
 40
10.40154625355124
 40
10.46482922477811
 40
10.55973900668393
 40
10.69239545985608
 40
10.84920353475658
 40
11.01626328594767
 40
11.18672024367427
 40
11.35372582577196
 40
11.50257442292414
 40
11.61866495023278
 40
11.71329869152863
 40
11.82511050573891
 40
11.94464880845702
 40
12.06929242642492
 40
12.19707290435165
 40
12.32562632860514
 40
12.45034565331268
 40
12.56646595170313
 40
12.67099007414618
 40
12.76077625936769
 40
12.82703233506679
 40
12.87429132785979
 40
12.89831990323319
 40
12.92234847860007
 40
13.53984767410317
 40
14.18294284359354
 40
14.18294284359354
 40
14.18294284359354
 40
14.18294284359354
 10
177.3067935648021
 20
14.70898038201719
 10
177.1752019758551
 20
14.82265058603228
 10
176.9124193802728
 20
15.04964496316159
 10
176.3997393441023
 20
15.89214462956285
 10
176.4106654595362
 20
15.5342337757702
 10
176.4041226527991
 20
15.39267392272133
 10
176.4028026631773
 20
15.19421305299282
 10
176.4018117602538
 20
15.02150296045985
 10
176.4024101751974
 20
14.8786537325758
 10
176.4038994301882
 20
14.78265005413357
 10
176.4055683588473
 20
14.67545503263139
 10
176.4071934954617
 20
14.56164211517581
 10
176.4092429501686
 20
14.44441572604589
 10
176.4123165501927
 20
14.32656411232969
 10
176.4156339697044
 20
14.21228087320621
 10
176.4193605340281
 20
14.10521401867276
 10
176.4217338161424
 20
14.01007408766919
 10
176.4278718888358
 20
13.92558557205693
 10
176.4239784495946
 20
13.86923087298139
 10
176.4455230443079
 20
13.79825022472354
 10
176.3680940058617
 20
13.82902677604483
 10
176.311635324019
 20
13.82011242517608
 10
176.2540495896807
 20
13.82896218398273
 10
176.1690163478473
 20
13.79738225225948
 10
176.2009714146382
 20
13.88095155992189
 10
176.1990705282538
 20
13.94882608968306
 10
176.2107960047301
 20
14.05233256764415
 10
176.2164241052999
 20
14.17002125616695
 10
176.2237902178941
 20
14.30388609164424
 10
176.232075970161
 20
14.44764152872634
 10
176.2398851897427
 20
14.59714022843444
 10
176.2457571222658
 20
14.74792549402077
 10
176.250366781797
 20
14.89699943878435
 10
176.2542632117542
 20
15.04122913163022
 10
176.2570715126564
 20
15.17583905213016
 10
176.2576698755022
 20
15.36469614347354
 10
176.261602386715
 20
15.58975494313154
 10
176.2442175378499
 20
15.86367091125708
 10
176.2850417342584
 20
16.02787112098597
 10
176.1995153256002
 20
16.22749661465092
 10
176.2660558907688
 20
16.22385458403976
 10
176.283872427323
 20
16.22413447160851
 10
176.4056801797503
 20
16.2263292739861
 10
176.5080770335462
 20
15.94675118721514
 10
176.7580021509357
 20
15.74563008536003
 10
176.9870035331111
 20
15.47792614987915
 10
177.2245151213109
 20
15.22646413862374
 10
177.4486090740771
 20
14.98969974061358
 10
177.6750716283009
 20
14.7321869258308
 10
177.8325687886514
 20
14.61649335056923
 10
178.0472129612674
 20
14.27997152538792
 10
178.0422645974618
 20
14.40464754091604
 10
178.0433931602545
 20
14.46327691935737
 10
178.0428877841517
 20
14.55043662371978
 10
178.0430475158113
 20
14.64416143182873
 10
178.0430054891318
 20
14.73018971297036
 10
178.0430202040372
 20
14.79153891945497
 10
178.0429706255985
 20
14.94135231520995
 10
178.0458811522811
 20
15.17989612510106
 10
178.0259521041162
 20
15.54486509868702
 10
178.0750433936247
 20
15.80799631993412
 10
177.9177951509182
 20
16.21928904947749
 10
178.0762112872421
 20
16.16398282551749
 10
178.1311680478628
 20
16.16199686500177
 10
178.182788776674
 20
16.16264778248254
 10
178.2713198965367
 20
16.20369527738245
 10
178.2204898303168
 20
16.05696326622984
 10
178.2313389930283
 20
15.9501997195443
 10
178.2166036994847
 20
15.7908570541411
 10
178.2099976446204
 20
15.62853061652873
 10
178.2014961399914
 20
15.45992521892395
 10
178.1943227202198
 20
15.2981481470354
 10
178.188906321539
 20
15.15422331457932
 10
178.1871713967647
 20
15.03437493466923
 10
178.1875440672319
 20
14.92686101590514
 10
178.1873656126262
 20
14.81820024645586
 10
178.187701086314
 20
14.6995357016553
 10
178.1890040622186
 20
14.5755516351274
 10
178.1908887351574
 20
14.44858294171104
 10
178.1925004454851
 20
14.3215386155103
 10
178.194140313743
 20
14.19854884492176
 10
178.1962570745752
 20
14.08300931383759
 10
178.1963848422364
 20
13.98090903955837
 10
178.2006514396554
 20
13.89009848838156
 10
178.190844008529
 20
13.83213621208785
 10
178.211847477169
 20
13.76517130132028
 10
178.1725639739897
 20
13.77291153966686
 10
177.959530711775
 20
13.75755254145196
 10
177.7636297943184
 20
14.31403058094459
 10
177.4611197631544
 20
14.57556035348505
 10
177.3067935648021
 20
14.70898038201719
 97
        1
330
B1
 75
     1
 76
     2
 52
45.0
 41
0.1
 77
     0
 78
     1
 53
45.0
 43
0.0
 44
0.0
 45
-0.282842712474619
 46
0.0
 79
     0
 98
        1
 10
0.0
 20
0.0
  0
HATCH
  5
CF
330
48
100
AcDbEntity
  8
1
  6
Continuous
 62
     2
100
AcDbHatch
 10
0.0
 20
0.0
 30
0.0
210
0.0
220
0.0
230
1.0
  2
CUSTOM13
 70
     0
 71
     1
 91
        2
 92
        1
 93
        1
 72
     4
 94
        3
 73
     0
 74
     0
 95
       57
 96
       53
 40
0.0
 40
0.0
 40
0.0
 40
0.0
 40
0.0471632082808642
 40
0.0914861054632115
 40
0.1357762519702067
 40
0.1826527001609793
 40
0.2295203288571986
 40
0.2737751972219588
 40
0.3181310461542736
 40
0.3652607198398434
 40
0.4571007286314149
 40
0.5671851029165038
 40
0.6894623283867756
 40
0.8181758272545725
 40
0.9510087229273757
 40
1.085852229674103
 40
1.218126164475319
 40
1.343545131142379
 40
1.454537202956795
 40
1.567187607530719
 40
1.680710966642366
 40
1.794226869736701
 40
1.900009184247529
 40
2.00408586044778
 40
2.108162674451697
 40
2.214000150155297
 40
2.496038577352151
 40
2.76235074547928
 40
2.997275353279421
 40
3.185110082137725
 40
3.246407890063893
 40
3.31260755021268
 40
3.378877742711496
 40
3.440140399651433
 40
4.100501696006458
 40
4.754913085563472
 40
5.411331693423872
 40
6.077890432568654
 40
6.110575292670933
 40
6.143260152775713
 40
6.367989363395102
 40
6.610525374951457
 40
6.863389136467235
 40
7.119380025547486
 40
7.376036605091031
 40
7.631164770966235
 40
7.87672242545636
 40
8.10495373585594
 40
8.312916685924266
 40
8.497730294941217
 40
8.651018984313803
 40
8.764738853624491
 40
8.764738853624491
 40
8.764738853624491
 40
8.764738853624491
 10
174.7922649500513
 20
13.81626739612929
 10
174.7766616726931
 20
13.81826231079079
 10
174.7463947960302
 20
13.82213201360299
 10
174.7010994202252
 20
13.82341984967263
 10
174.6559553129349
 20
13.82308683554047
 10
174.60990171234
 20
13.8231465867422
 10
174.5640496172097
 20
13.82325813649997
 10
174.5183711648165
 20
13.82277833456585
 10
174.4750811541609
 20
13.82461109618723
 10
174.4039947951514
 20
13.80049556814659
 10
174.4057477261442
 20
13.92184693977253
 10
174.3586196370569
 20
14.00726239751231
 10
174.3191478251763
 20
14.12486929345139
 10
174.2706635532644
 20
14.24232752540436
 10
174.2201017402523
 20
14.36405935761512
 10
174.1718634610475
 20
14.49075967862462
 10
174.1135232947595
 20
14.59933687784958
 10
174.0980892667261
 20
14.75620657134413
 10
173.9566586330636
 20
14.7237344654832
 10
173.8508397414904
 20
14.73512888682177
 10
173.7358569725223
 20
14.73392591514614
 10
173.6253142252141
 20
14.73506945347406
 10
173.5176583522784
 20
14.73418350037526
 10
173.4121322529243
 20
14.73416602390516
 10
173.3109192682013
 20
14.72714032472412
 10
173.1266804827754
 20
14.75135859859875
 10
173.115739368541
 20
14.44741691121886
 10
173.0087691634751
 20
14.22353177253393
 10
172.9098148604347
 20
14.03895314292497
 10
172.9225090524007
 20
13.79530204804211
 10
172.8050091716397
 20
13.82508046753198
 10
172.742205586831
 20
13.82258089509597
 10
172.67858720934
 20
13.82344075102804
 10
172.3946014194073
 20
13.78098039941952
 10
173.0251638499382
 20
14.50081952444778
 10
173.1087645289072
 20
15.01276539435724
 10
173.4929252789339
 20
15.53353743550042
 10
173.4777208288565
 20
16.23519626253211
 10
173.7239265722697
 20
16.22345633081254
 10
173.8256346157561
 20
16.2322500445277
 10
173.8249752035818
 20
15.98059650730345
 10
173.9428317155828
 20
15.79818020733958
 10
174.0315515260485
 20
15.55563740662867
 10
174.1322292485259
 20
15.32340030530129
 10
174.2311142712244
 20
15.08674644566915
 10
174.3299676990669
 20
14.85461739170091
 10
174.4256166390925
 20
14.63122222788785
 10
174.5159904573273
 20
14.42272549049318
 10
174.598994456819
 20
14.23308448529319
 10
174.6726088582798
 20
14.06663106068097
 10
174.7342815895546
 20
13.929176996261
 10
174.7749458885604
 20
13.84999239430035
 10
174.7922649500513
 20
13.81626739612929
 97
        1
330
B3
 92
       16
 93
        1
 72
     4
 94
        3
 73
     0
 74
     0
 95
       25
 96
       21
 40
0.0
 40
0.0
 40
0.0
 40
0.0
 40
0.0911479969064818
 40
0.1858117896204659
 40
0.2804128399735053
 40
0.3715889190714505
 40
0.4679080494218987
 40
0.5642683809230076
 40
0.6605683222644986
 40
0.7569653015810245
 40
0.8561348172522696
 40
1.092615965104281
 40
1.374867658141858
 40
1.611348812011576
 40
1.71051832842522
 40
1.809403163726536
 40
2.045205463294032
 40
2.326646917622084
 40
2.562449217190539
 40
2.661334043833855
 40
2.661334043833855
 40
2.661334043833855
 40
2.661334043833855
 10
173.2683700567199
 20
14.88614538197288
 10
173.2987525917922
 20
14.88598079714552
 10
173.3606895889112
 20
14.88564528689922
 10
173.454135696033
 20
14.88269055452001
 10
173.5475095236357
 20
14.87977752877151
 10
173.6417760753477
 20
14.87894201643415
 10
173.7354964790967
 20
14.87996644658047
 10
173.8352040303205
 20
14.87916977470967
 10
173.9188949546313
 20
14.88921410235218
 10
174.0637996315045
 20
14.8623461767416
 10
173.9396132444801
 20
15.03665530280045
 10
173.8965867286282
 20
15.19651711006086
 10
173.780892214221
 20
15.4551845855021
 10
173.7017565431256
 20
15.59231052861851
 10
173.6431576621816
 20
15.8093703313407
 10
173.5864803939438
 20
15.59266134213422
 10
173.5052809900477
 20
15.4532701243823
 10
173.4063701281487
 20
15.20406969370189
 10
173.325362509426
 20
15.0192583022607
 10
173.2813683325838
 20
14.91650446856112
 10
173.2683700567199
 20
14.88614538197288
 97
        1
330
B2
 75
     1
 76
     2
 52
45.0
 41
0.1
 77
     0
 78
     1
 53
45.0
 43
0.0
 44
0.0
 45
-0.282842712474619
 46
0.0
 79
     0
 98
        1
 10
0.0
 20
0.0
  0
HATCH
  5
D0
330
48
100
AcDbEntity
  8
1
  6
Continuous
 62
     2
100
AcDbHatch
 10
0.0
 20
0.0
 30
0.0
210
0.0
220
0.0
230
1.0
  2
CUSTOM14
 70
     0
 71
     1
 91
        1
 92
        1
 93
        1
 72
     4
 94
        3
 73
     0
 74
     0
 95
       99
 96
       95
 40
0.0
 40
0.0
 40
0.0
 40
0.0
 40
0.079641717227271
 40
0.1621768542356966
 40
0.2486489160957759
 40
0.3404969668525481
 40
0.4381912511165557
 40
0.5434463660245874
 40
0.6518115192846792
 40
0.753019093788684
 40
0.8492196919725162
 40
0.9419290312998146
 40
1.034249663570033
 40
1.129078600620229
 40
1.2266970275733
 40
1.327220425421733
 40
1.470572134938069
 40
1.595489863371276
 40
1.719934125348415
 40
1.850576620127383
 40
1.98905962998737
 40
2.134139054226987
 40
2.280698007207243
 40
2.424529739039454
 40
2.565929576985873
 40
2.70823926077356
 40
2.861717887443717
 40
3.045168540347374
 40
3.183798301138614
 40
3.314813961455491
 40
3.442083470447357
 40
3.56991270837305
 40
3.702177512509391
 40
3.842307559659623
 40
3.992872223246017
 40
4.15675066221832
 40
4.310981861107483
 40
4.445859909322579
 40
4.572393936131601
 40
4.701656719782037
 40
4.768279086008553
 40
4.835960697898463
 40
4.912788918729434
 40
5.006285208481628
 40
5.026909478751675
 40
5.047533749021183
 40
5.101808031471235
 40
5.162325165538563
 40
5.226919745995832
 40
5.294231806596767
 40
5.364544852554899
 40
5.438319055467955
 40
5.517877651324234
 40
5.607647714861602
 40
5.700449642544421
 40
5.788251142364077
 40
5.872714706039754
 40
5.95516729257533
 40
6.037192395190372
 40
6.1206691814691
 40
6.206848616686337
 40
6.296680855416786
 40
6.442558392872627
 40
6.568190371608273
 40
6.692904567360305
 40
6.824220446557043
 40
6.963121850329276
 40
7.107843738851019
 40
7.253431663907211
 40
7.395187468036705
 40
7.533140753237707
 40
7.670550457175195
 40
7.816236511769206
 40
7.987691657359139
 40
8.142277421969208
 40
8.29366261541494
 40
8.442962460879203
 40
8.591598316185179
 40
8.74367899236172
 40
8.903725323699135
 40
9.07630700889045
 40
9.265578604680533
 40
9.45920379536071
 40
9.617619810273572
 40
9.7536096713619
 40
9.874873300003971
 40
9.954520184977643
 40
10.02416413719228
 40
10.09769764405428
 40
10.18909955924958
 40
10.20974586420125
 40
10.23039218263374
 40
10.30057101881259
 40
10.37632012987532
 40
10.37632012987532
 40
10.37632012987532
 40
10.37632012987532
 10
170.1465954835851
 20
14.13795663215998
 10
170.1632217851219
 20
14.11720608845315
 10
170.1970784206577
 20
14.07495111711899
 10
170.2599822541037
 20
14.02029811392078
 10
170.3332500940393
 20
13.97299025121048
 10
170.4175969238637
 20
13.93527231437941
 10
170.5132240615461
 20
13.91040619731952
 10
170.6171853775346
 20
13.90309559345934
 10
170.7224020220405
 20
13.91142322794057
 10
170.8206626371333
 20
13.94149179651524
 10
170.9058986427548
 20
13.98848822971876
 10
170.9779220206103
 20
14.04952991250855
 10
171.0350917709096
 20
14.12412969578583
 10
171.0767868747441
 20
14.2100246466017
 10
171.1026952846293
 20
14.30485850432211
 10
171.1118037332652
 20
14.41854979038368
 10
171.0986864796487
 20
14.54332587770779
 10
171.0325330334414
 20
14.66014719171893
 10
170.936937091957
 20
14.74512539577374
 10
170.8249681022369
 20
14.81416684459168
 10
170.6993659583269
 20
14.87204142045887
 10
170.5656691620857
 20
14.92373723284341
 10
170.4313122818831
 20
14.97899092397178
 10
170.3051983986877
 20
15.0493977064165
 10
170.1926579987535
 20
15.13785540731244
 10
170.0969963064459
 20
15.24981067868478
 10
170.0334157151825
 20
15.3994991010138
 10
170.0200706505015
 20
15.55932794385141
 10
170.0320510987448
 20
15.71048405306842
 10
170.071229892884
 20
15.83809244591539
 10
170.135498775091
 20
15.95080874030847
 10
170.2238204999741
 20
16.04648609268678
 10
170.3338091207628
 20
16.12354214985756
 10
170.4632284401265
 20
16.1815139693628
 10
170.6111838967794
 20
16.21739177588819
 10
170.7682069455486
 20
16.22746719050561
 10
170.917494046643
 20
16.21863637762587
 10
171.059625361417
 20
16.19074899340355
 10
171.1595922609625
 20
16.13413314701137
 10
171.3125074736186
 20
16.08674602105509
 10
171.2455131717169
 20
16.00197553001187
 10
171.229647912027
 20
15.93438901873484
 10
171.1978750531296
 20
15.86926092793194
 10
171.2150202209571
 20
15.76723453256955
 10
171.1666427208232
 20
15.77493211681903
 10
171.1315789440767
 20
15.76806771724811
 10
171.1296697985719
 20
15.83263831158199
 10
171.0985692931989
 20
15.8782563962139
 10
171.0664551628456
 20
15.9356103662846
 10
171.0208038475168
 20
15.98540462692554
 10
170.9658508218387
 20
16.02994813718998
 10
170.9010841173007
 20
16.06763988836545
 10
170.8232377310597
 20
16.09283375791351
 10
170.7355160553352
 20
16.09931230998108
 10
170.6452903277807
 20
16.09235709285601
 10
170.5594594694064
 20
16.06909190460927
 10
170.4828343638597
 20
16.03131644107542
 10
170.4165265636201
 20
15.98051641089575
 10
170.3622560536965
 20
15.91731143407205
 10
170.3224925345458
 20
15.8427645571037
 10
170.2976775510588
 20
15.75917313997763
 10
170.2892124262871
 20
15.65192948382283
 10
170.3019697987104
 20
15.52965457267555
 10
170.3681548409274
 20
15.41149724291216
 10
170.4640977399832
 20
15.32606325709529
 10
170.5757914963182
 20
15.25583362306729
 10
170.7010863668702
 20
15.19659162305305
 10
170.8349823941447
 20
15.14616708086128
 10
170.9689930333149
 20
15.0932251698438
 10
171.0950885316916
 20
15.02750170625178
 10
171.2076216638417
 20
14.9448035253732
 10
171.3031370284232
 20
14.83996006310071
 10
171.3672706486963
 20
14.6993711725157
 10
171.3811103725279
 20
14.54065409451592
 10
171.3673954712229
 20
14.38153155217877
 10
171.3244739153984
 20
14.23483828819209
 10
171.2545906329065
 20
14.10119796587145
 10
171.157459221383
 20
13.9853238769929
 10
171.0347806023657
 20
13.89089981770088
 10
170.8874408413168
 20
13.8217927065198
 10
170.7177132497124
 20
13.77953210858854
 10
170.5317404979597
 20
13.76781736230405
 10
170.3528955926183
 20
13.7780948668344
 10
170.1881733753743
 20
13.81966573769147
 10
170.0834410841055
 20
13.88797642883942
 10
169.9350960790367
 20
13.9367521903211
 10
169.9980378194729
 20
14.02976591290841
 10
170.0072274430059
 20
14.10296536248278
 10
170.0303711301231
 20
14.16936294501344
 10
170.0034588335316
 20
14.26974809527582
 10
170.0521338956339
 20
14.26234033517378
 10
170.0916530580698
 20
14.26894063620896
 10
170.0996204944702
 20
14.19078703218933
 10
170.1305436967923
 20
14.15600927375859
 10
170.1465954835851
 20
14.13795663215998
 97
        1
330
B4
 75
     1
 76
     2
 52
45.0
 41
0.1
 77
     0
 78
     1
 53
45.0
 43
0.0
 44
0.0
 45
-0.282842712474619
 46
0.0
 79
     0
 98
        1
 10
0.0
 20
0.0
  0
ENDBLK
  5
4A
330
48
100
AcDbEntity
  8
0
100
AcDbBlockEnd
  0
BLOCK
  5
4D
330
4B
100
AcDbEntity
  8
0
100
AcDbBlockBegin
  2
開示A4枠
 70
     0
 10
0.0
 20
0.0
 30
0.0
  3
開示A4枠
  1

  0
INSERT
  5
4C
330
4B
100
AcDbEntity
  8
1
100
AcDbBlockReference
  2
開示A4
 10
0.0
 20
0.0
 30
0.0
  0
ENDBLK
  5
4E
330
4B
100
AcDbEntity
  8
0
100
AcDbBlockEnd
  0
BLOCK
  5
50
330
4F
100
AcDbEntity
  8
0
100
AcDbBlockBegin
  2
P44-18
 70
     0
 10
89.97715667844936
 20
122.4705080353867
 30
0.0
  3
P44-18
  1

  0
LINE
  5
D1
330
4F
100
AcDbEntity
  8
1
  6
Continuous
 62
     7
100
AcDbLine
 10
105.0
 20
131.4705080353867
 30
0.0
 11
123.0
 21
131.4705080353867
 31
0.0
  0
LINE
  5
D2
330
4F
100
AcDbEntity
  8
1
  6
Continuous
 62
     7
100
AcDbLine
 10
123.0
 20
129.4705080353867
 30
0.0
 11
105.0
 21
129.4705080353867
 31
0.0
  0
LINE
  5
D3
330
4F
100
AcDbEntity
  8
1
  6
Continuous
 62
     7
100
AcDbLine
 10
123.0
 20
131.4705080353867
 30
0.0
 11
123.0
 21
129.4705080353867
 31
0.0
  0
LINE
  5
D4
330
4F
100
AcDbEntity
  8
1
  6
Continuous
 62
     7
100
AcDbLine
 10
105.0
 20
131.4705080353867
 30
0.0
 11
105.0
 21
129.4705080353867
 31
0.0
  0
CIRCLE
  5
D5
330
4F
100
AcDbEntity
  8
1
  6
Continuous
 62
     7
100
AcDbCircle
 10
114.0
 20
188.705928232753
 30
0.0
 40
9.0
  0
ENDBLK
  5
51
330
4F
100
AcDbEntity
  8
0
100
AcDbBlockEnd
  0
BLOCK
  5
FE
330
F5
100
AcDbEntity
  8
0
100
AcDbBlockBegin
  2
*D4
 70
     1
 10
0.0
 20
0.0
 30
0.0
  3
*D4
  1

  0
LINE
  5
F6
330
F5
100
AcDbEntity
  8
1
  6
Continuous
 62
     2
100
AcDbLine
 10
93.97715667844936
 20
129.4705080353867
 30
0.0
 11
93.97715667844936
 21
122.4705080353867
 31
0.0
  0
LINE
  5
F7
330
F5
100
AcDbEntity
  8
1
  6
Continuous
 62
     2
100
AcDbLine
 10
93.97715667844936
 20
131.4705080353867
 30
0.0
 11
93.97715667844936
 21
129.4705080353867
 31
0.0
  0
LINE
  5
F8
330
F5
100
AcDbEntity
  8
1
  6
Continuous
 62
     2
100
AcDbLine
 10
93.97715667844936
 20
138.4705080353867
 30
0.0
 11
93.97715667844936
 21
131.4705080353867
 31
0.0
  0
LINE
  5
F9
330
F5
100
AcDbEntity
  8
1
  6
Continuous
 62
     2
100
AcDbLine
 10
105.0
 20
129.4705080353867
 30
0.0
 11
92.97715667844936
 21
129.4705080353867
 31
0.0
  0
LINE
  5
FA
330
F5
100
AcDbEntity
  8
1
  6
Continuous
 62
     2
100
AcDbLine
 10
105.0
 20
131.4705080353867
 30
0.0
 11
92.97715667844936
 21
131.4705080353867
 31
0.0
  0
SOLID
  5
FB
330
F5
100
AcDbEntity
  8
1
 62
     2
100
AcDbTrace
 10
93.51637293689348
 20
134.9705080353867
 30
0.0
 11
94.43794042000525
 21
134.9705080353867
 31
0.0
 12
93.97715667844936
 22
131.4705080353867
 32
0.0
 13
93.97715667844936
 23
131.4705080353867
 33
0.0
  0
SOLID
  5
FC
330
F5
100
AcDbEntity
  8
1
 62
     2
100
AcDbTrace
 10
94.43794042000525
 20
125.9705080353867
 30
0.0
 11
93.51637293689348
 21
125.9705080353867
 31
0.0
 12
93.97715667844936
 22
129.4705080353867
 32
0.0
 13
93.97715667844936
 23
129.4705080353867
 33
0.0
  0
MTEXT
  5
FD
330
F5
100
AcDbEntity
  8
1
 62
     7
100
AcDbMText
 10
92.97715667844936
 20
133.6880315073255
 30
0.0
 40
3.5
 41
0.0
 71
     7
 72
     1
  1
2
  7
CONVERTER_12
 11
0.0
 21
1.0
 31
0.0
 73
     1
 44
0.60024009603842
  0
ENDBLK
  5
FF
330
F5
100
AcDbEntity
  8
0
100
AcDbBlockEnd
  0
BLOCK
  5
109
330
102
100
AcDbEntity
  8
0
100
AcDbBlockBegin
  2
*D5
 70
     1
 10
0.0
 20
0.0
 30
0.0
  3
*D5
  1

  0
LINE
  5
103
330
102
100
AcDbEntity
  8
1
  6
Continuous
 62
     2
100
AcDbLine
 10
123.0
 20
208.9363468257702
 30
0.0
 11
105.0
 21
208.9363468257702
 31
0.0
  0
LINE
  5
104
330
102
100
AcDbEntity
  8
1
  6
Continuous
 62
     2
100
AcDbLine
 10
105.0
 20
188.705928232753
 30
0.0
 11
105.0
 21
209.9363468257702
 31
0.0
  0
LINE
  5
105
330
102
100
AcDbEntity
  8
1
  6
Continuous
 62
     2
100
AcDbLine
 10
123.0
 20
188.705928232753
 30
0.0
 11
123.0
 21
209.9363468257702
 31
0.0
  0
SOLID
  5
106
330
102
100
AcDbEntity
  8
1
 62
     2
100
AcDbTrace
 10
119.5
 20
208.4755630842143
 30
0.0
 11
119.5
 21
209.3971305673261
 31
0.0
 12
123.0
 22
208.9363468257702
 32
0.0
 13
123.0
 23
208.9363468257702
 33
0.0
  0
SOLID
  5
107
330
102
100
AcDbEntity
  8
1
 62
     2
100
AcDbTrace
 10
108.5
 20
209.3971305673261
 30
0.0
 11
108.5
 21
208.4755630842143
 31
0.0
 12
105.0
 22
208.9363468257702
 32
0.0
 13
105.0
 23
208.9363468257702
 33
0.0
  0
MTEXT
  5
108
330
102
100
AcDbEntity
  8
1
 62
     7
100
AcDbMText
 10
112.0283117427189
 20
209.9363398686939
 30
0.0
 40
3.5
 41
0.0
 71
     7
 72
     1
  1
\C7;{\Fgdt;n}\C7;A
  7
CONVERTER_12
 11
0.9999999999970619
 21
2.424068405545306E-6
 31
0.0
 73
     1
 44
0.60024009603842
  0
ENDBLK
  5
10A
330
102
100
AcDbEntity
  8
0
100
AcDbBlockEnd
  0
ENDSEC
  0
SECTION
  2
ENTITIES
  0
INSERT
  5
52
330
1F
100
AcDbEntity
  8
0
100
AcDbBlockReference
  2
開示A4枠
 10
0.0
 20
0.0
 30
0.0
  0
INSERT
  5
53
330
1F
100
AcDbEntity
  8
1
100
AcDbBlockReference
  2
P44-18
 10
89.97715667844936
 20
122.4705080353867
 30
0.0
  0
LINE
  5
D6
330
1F
100
AcDbEntity
  8
1
  6
Continuous
 62
     2
100
AcDbLine
 10
188.7518348623858
 20
62.17614678899119
 30
0.0
 11
132.7518348623858
 21
62.17614678899119
 31
0.0
  0
LINE
  5
D7
330
1F
100
AcDbEntity
  8
1
  6
Continuous
 62
     2
100
AcDbLine
 10
162.7518348623857
 20
48.17614678899119
 30
0.0
 11
162.7518348623857
 21
69.17614678899119
 31
0.0
  0
LINE
  5
D8
330
1F
100
AcDbEntity
  8
1
  6
Continuous
 62
     7
100
AcDbLine
 10
132.7518348623858
 20
69.17614678899119
 30
0.0
 11
188.7518348623858
 21
69.17614678899119
 31
0.0
  0
LINE
  5
D9
330
1F
100
AcDbEntity
  8
1
  6
Continuous
 62
     7
100
AcDbLine
 10
188.7518348623858
 20
69.17614678899119
 30
0.0
 11
188.7518348623858
 21
48.17614678899119
 31
0.0
  0
LINE
  5
DA
330
1F
100
AcDbEntity
  8
1
  6
Continuous
 62
     2
100
AcDbLine
 10
188.7518348623858
 20
55.17614678899119
 30
0.0
 11
132.7518348623858
 21
55.17614678899119
 31
0.0
  0
LINE
  5
DB
330
1F
100
AcDbEntity
  8
1
  6
Continuous
 62
     7
100
AcDbLine
 10
188.7518348623858
 20
48.17614678899119
 30
0.0
 11
132.7518348623858
 21
48.17614678899119
 31
0.0
  0
LINE
  5
DC
330
1F
100
AcDbEntity
  8
1
  6
Continuous
 62
     7
100
AcDbLine
 10
132.7518348623858
 20
48.17614678899119
 30
0.0
 11
132.7518348623858
 21
69.17614678899119
 31
0.0
  0
LINE
  5
DD
330
1F
100
AcDbEntity
  8
1
  6
DASH_CENTER
 62
     2
100
AcDbLine
 10
114.0
 20
200.705928232753
 30
0.0
 11
114.0
 21
176.7148845646656
 31
0.0
  0
LINE
  5
DE
330
1F
100
AcDbEntity
  8
1
  6
DASH_CENTER
 62
     2
100
AcDbLine
 10
114.0
 20
134.4705080353867
 30
0.0
 11
114.0
 21
134.0394267439208
 31
0.0
  0
LINE
  5
DF
330
1F
100
AcDbEntity
  8
1
  6
DASH_CENTER
 62
     2
100
AcDbLine
 10
114.0
 20
126.0394267439208
 30
0.0
 11
114.0
 21
126.4705080353867
 31
0.0
  0
LINE
  5
E0
330
1F
100
AcDbEntity
  8
1
  6
DASH_CENTER
 62
     2
100
AcDbLine
 10
102.0
 20
188.705928232753
 30
0.0
 11
126.0
 21
188.705928232753
 31
0.0
  0
LINE
  5
E1
330
1F
100
AcDbEntity
  8
1
  6
DASH_CENTER
 62
     2
100
AcDbLine
 10
114.0
 20
134.0394267439208
 30
0.0
 11
114.0
 21
126.0394267439208
 31
0.0
  0
MTEXT
  5
E2
330
1F
100
AcDbEntity
  8
1
 62
     2
100
AcDbMText
 10
147.7518348623857
 20
65.67614678899119
 30
0.0
 40
3.0
 41
0.0
 71
     5
 72
     1
  1
品番
  7
CONVERTER_11
 73
     1
 44
0.54545454545455
  0
MTEXT
  5
E4
330
1F
100
AcDbEntity
  8
1
 62
     7
100
AcDbMText
 10
147.7518348623857
 20
58.67614678899119
 30
0.0
 40
3.0
 41
0.0
 71
     5
 72
     1
  1
P44-18
  7
CONVERTER_12
 73
     1
 44
0.7202881152461
  0
MTEXT
  5
E5
330
1F
100
AcDbEntity
  8
1
 62
     7
100
AcDbMText
 10
147.7518348623857
 20
51.67614678899119
 30
0.0
 40
3.0
 41
0.0
 71
     5
 72
     1
  1
P44-30
  7
CONVERTER_12
 73
     1
 44
0.7202881152461
  0
MTEXT
  5
E6
330
1F
100
AcDbEntity
  8
1
 62
     2
100
AcDbMText
 10
175.7518348623858
 20
65.67614678899119
 30
0.0
 40
3.0
 41
0.0
 71
     5
 72
     1
  1
{\Fgdt;n}A
  7
CONVERTER_12
 73
     1
 44
0.7202881152461
  0
MTEXT
  5
E7
330
1F
100
AcDbEntity
  8
1
 62
     7
100
AcDbMText
 10
175.7518348623858
 20
58.67614678899119
 30
0.0
 40
3.0
 41
0.0
 71
     5
 72
     1
  1
18
  7
CONVERTER_12
 73
     1
 44
0.7202881152461
  0
MTEXT
  5
E8
330
1F
100
AcDbEntity
  8
1
 62
     7
100
AcDbMText
 10
175.7518348623858
 20
51.67614678899119
 30
0.0
 40
3.0
 41
0.0
 71
     5
 72
     1
  1
30
  7
CONVERTER_12
 73
     1
 44
0.7202881152461
  0
MTEXT
  5
E9
330
1F
100
AcDbEntity
  8
1
 62
     7
100
AcDbMText
 10
157.5
 20
12.5
 30
0.0
 40
2.5
 41
0.0
 71
     5
 72
     1
  1
2
  7
CONVERTER_12
 73
     1
 44
0.7202881152461
  0
MTEXT
  5
EA
330
1F
100
AcDbEntity
  8
1
 62
     7
100
AcDbMText
 10
151.75
 20
12.5
 30
0.0
 40
2.5
 41
0.0
 71
     5
 72
     1
  1
04
  7
CONVERTER_12
 73
     1
 44
0.7202881152461
  0
MTEXT
  5
EB
330
1F
100
AcDbEntity
  8
1
 62
     7
100
AcDbMText
 10
140.5
 20
12.5
 30
0.0
 40
2.5
 41
0.0
 71
     5
 72
     1
  1
2
  7
CONVERTER_12
 73
     1
 44
0.7202881152461
  0
MTEXT
  5
EC
330
1F
100
AcDbEntity
  8
1
 62
     7
100
AcDbMText
 10
134.75
 20
12.5
 30
0.0
 40
2.5
 41
0.0
 71
     5
 72
     1
  1
04
  7
CONVERTER_12
 73
     1
 44
0.7202881152461
  0
MTEXT
  5
ED
330
1F
100
AcDbEntity
  8
1
 62
     7
100
AcDbMText
 10
123.5
 20
12.5
 30
0.0
 40
2.5
 41
0.0
 71
     5
 72
     1
  1
2
  7
CONVERTER_12
 73
     1
 44
0.7202881152461
  0
MTEXT
  5
EE
330
1F
100
AcDbEntity
  8
1
 62
     7
100
AcDbMText
 10
117.75
 20
12.5
 30
0.0
 40
2.5
 41
0.0
 71
     5
 72
     1
  1
04
  7
CONVERTER_12
 73
     1
 44
0.7202881152461
  0
MTEXT
  5
EF
330
1F
100
AcDbEntity
  8
1
 62
     7
100
AcDbMText
 10
100.75
 20
12.5
 30
0.0
 40
2.5
 41
0.0
 71
     5
 72
     1
  1
04
  7
CONVERTER_12
 73
     1
 44
0.7202881152461
  0
MTEXT
  5
F0
330
1F
100
AcDbEntity
  8
1
 62
     7
100
AcDbMText
 10
106.5
 20
12.5
 30
0.0
 40
2.5
 41
0.0
 71
     5
 72
     1
  1
2
  7
CONVERTER_12
 73
     1
 44
0.7202881152461
  0
MTEXT
  5
F1
330
1F
100
AcDbEntity
  8
1
 62
     7
100
AcDbMText
 10
85.25
 20
17.0
 30
0.0
 40
3.5
 41
0.0
 71
     5
 72
     1
  1
1
  7
CONVERTER_12
 73
     1
 44
0.7202881152461
  0
MTEXT
  5
F2
330
1F
100
AcDbEntity
  8
1
 62
     7
100
AcDbMText
 10
57.0
 20
22.75
 30
0.0
 40
3.5
 41
0.0
 71
     5
 72
     1
  1
キャップパッキン
  7
CONVERTER_11
 73
     1
 44
0.54545454545455
  0
MTEXT
  5
F3
330
1F
100
AcDbEntity
  8
1
 62
     7
100
AcDbMText
 10
57.0
 20
14.25
 30
0.0
 40
3.5
 41
0.0
 71
     5
 72
     1
  1
P44-(各サイズ)
  7
CONVERTER_11
 73
     1
 44
0.54545454545455
  0
MTEXT
  5
F4
330
1F
100
AcDbEntity
  8
1
 62
     7
100
AcDbMText
 10
93.75
 20
17.0
 30
0.0
 40
3.5
 41
0.0
 71
     5
 72
     1
  1
1
  7
CONVERTER_12
 73
     1
 44
0.7202881152461
  0
DIMENSION
  5
101
330
1F
100
AcDbEntity
  8
1
100
AcDbDimension
  2
*D4
 10
93.97715667844936
 20
131.4705080353867
 30
0.0
 11
91.22715667844936
 21
134.7380315073255
 31
0.0
 70
    32
  1
<>
 71
     5
 42
-1.0
 53
90.0
  3
ME10_DIM_10
100
AcDbAlignedDimension
 13
105.0
 23
129.4705080353867
 33
0.0
 14
105.0
 24
131.4705080353867
 34
0.0
 50
90.0
100
AcDbRotatedDimension
  0
INSERT
  5
10B
330
1F
100
AcDbEntity
  8
1
100
AcDbBlockReference
  2
*D5
 10
0.0
 20
0.0
 30
0.0
  0
ENDSEC
  0
SECTION
  2
OBJECTS
  0
DICTIONARY
  5
C
330
0
100
AcDbDictionary
281
     1
  3
ACAD_GROUP
350
D
  3
ACAD_LAYOUT
350
1A
  3
ACAD_MATERIAL
350
3B
  3
ACAD_MLEADERSTYLE
350
10E
  3
ACAD_MLINESTYLE
350
17
  3
ACAD_PLOTSETTINGS
350
19
  3
ACAD_PLOTSTYLENAME
350
E
  3
ACAD_VISUALSTYLE
350
2A
  3
AcDbVariableDictionary
350
10C
  0
DICTIONARY
  5
D
102
{ACAD_REACTORS
330
C
102
}
330
C
100
AcDbDictionary
281
     1
  0
DICTIONARY
  5
1A
102
{ACAD_REACTORS
330
C
102
}
330
C
100
AcDbDictionary
281
     1
  3
Layout1
350
1E
  3
Layout2
350
26
  3
Model
350
22
  0
DICTIONARY
  5
3B
102
{ACAD_REACTORS
330
C
102
}
330
C
100
AcDbDictionary
281
     1
  3
ByBlock
350
3D
  3
ByLayer
350
3C
  3
Global
350
3E
  0
DICTIONARY
  5
10E
102
{ACAD_REACTORS
330
C
102
}
330
C
100
AcDbDictionary
281
     1
  0
DICTIONARY
  5
17
102
{ACAD_REACTORS
330
C
102
}
330
C
100
AcDbDictionary
281
     1
  3
Standard
350
18
  0
DICTIONARY
  5
19
102
{ACAD_REACTORS
330
C
102
}
330
C
100
AcDbDictionary
281
     1
  0
ACDBDICTIONARYWDFLT
  5
E
102
{ACAD_REACTORS
330
C
102
}
330
C
100
AcDbDictionary
281
     1
  3
Normal
350
F
100
AcDbDictionaryWithDefault
340
F
  0
DICTIONARY
  5
2A
102
{ACAD_REACTORS
330
C
102
}
330
C
100
AcDbDictionary
281
     1
  3
2dWireframe
350
2F
  3
3D Hidden
350
31
  3
3dWireframe
350
30
  3
Basic
350
32
  3
Brighten
350
36
  3
ColorChange
350
3A
  3
Conceptual
350
34
  3
Dim
350
35
  3
Facepattern
350
39
  3
Flat
350
2B
  3
FlatWithEdges
350
2C
  3
Gouraud
350
2D
  3
GouraudWithEdges
350
2E
  3
Linepattern
350
38
  3
Realistic
350
33
  3
Thicken
350
37
  0
DICTIONARY
  5
10C
102
{ACAD_REACTORS
330
C
102
}
330
C
100
AcDbDictionary
281
     1
  3
DIMASSOC
350
10F
  3
HIDETEXT
350
110
  0
LAYOUT
  5
1E
102
{ACAD_REACTORS
330
1A
102
}
330
1A
100
AcDbPlotSettings
  1

  2
none_device
  4

  6

 40
0.0
 41
0.0
 42
0.0
 43
0.0
 44
0.0
 45
0.0
 46
0.0
 47
0.0
 48
0.0
 49
0.0
140
0.0
141
0.0
142
1.0
143
1.0
 70
   688
 72
     0
 73
     0
 74
     5
  7

 75
    16
147
1.0
148
0.0
149
0.0
100
AcDbLayout
  1
Layout1
 70
     1
 71
     1
 10
0.0
 20
0.0
 11
12.0
 21
9.0
 12
0.0
 22
0.0
 32
0.0
 14
1.00000000000000E+20
 24
1.00000000000000E+20
 34
1.00000000000000E+20
 15
-1.00000000000000E+20
 25
-1.00000000000000E+20
 35
-1.00000000000000E+20
146
0.0
 13
0.0
 23
0.0
 33
0.0
 16
1.0
 26
0.0
 36
0.0
 17
0.0
 27
1.0
 37
0.0
 76
     0
330
1B
  0
LAYOUT
  5
26
102
{ACAD_REACTORS
330
1A
102
}
330
1A
100
AcDbPlotSettings
  1

  2
none_device
  4

  6

 40
0.0
 41
0.0
 42
0.0
 43
0.0
 44
0.0
 45
0.0
 46
0.0
 47
0.0
 48
0.0
 49
0.0
140
0.0
141
0.0
142
1.0
143
1.0
 70
   688
 72
     0
 73
     0
 74
     5
  7

 75
    16
147
1.0
148
0.0
149
0.0
100
AcDbLayout
  1
Layout2
 70
     1
 71
     2
 10
0.0
 20
0.0
 11
0.0
 21
0.0
 12
0.0
 22
0.0
 32
0.0
 14
0.0
 24
0.0
 34
0.0
 15
0.0
 25
0.0
 35
0.0
146
0.0
 13
0.0
 23
0.0
 33
0.0
 16
1.0
 26
0.0
 36
0.0
 17
0.0
 27
1.0
 37
0.0
 76
     0
330
23
  0
LAYOUT
  5
22
102
{ACAD_REACTORS
330
1A
102
}
330
1A
100
AcDbPlotSettings
  1

  2
none_device
  4

  6

 40
0.0
 41
0.0
 42
0.0
 43
0.0
 44
0.0
 45
0.0
 46
0.0
 47
0.0
 48
0.0
 49
0.0
140
0.0
141
0.0
142
1.0
143
1.0
 70
  1712
 72
     0
 73
     0
 74
     0
  7

 75
     0
147
1.0
148
0.0
149
0.0
100
AcDbLayout
  1
Model
 70
     1
 71
     0
 10
0.0
 20
0.0
 11
12.0
 21
9.0
 12
0.0
 22
0.0
 32
0.0
 14
0.0
 24
0.0
 34
0.0
 15
210.0
 25
297.0
 35
0.0
146
0.0
 13
0.0
 23
0.0
 33
0.0
 16
1.0
 26
0.0
 36
0.0
 17
0.0
 27
1.0
 37
0.0
 76
     0
330
1F
331
29
  0
MATERIAL
  5
3D
102
{ACAD_REACTORS
330
3B
102
}
102
{ACAD_XDICTIONARY
360
133
102
}
330
3B
100
AcDbMaterial
  1
ByBlock
  0
MATERIAL
  5
3C
102
{ACAD_REACTORS
330
3B
102
}
102
{ACAD_XDICTIONARY
360
131
102
}
330
3B
100
AcDbMaterial
  1
ByLayer
  0
MATERIAL
  5
3E
102
{ACAD_REACTORS
330
3B
102
}
102
{ACAD_XDICTIONARY
360
135
102
}
330
3B
100
AcDbMaterial
  1
Global
  0
MLINESTYLE
  5
18
102
{ACAD_REACTORS
330
17
102
}
330
17
100
AcDbMlineStyle
  2
Standard
 70
     0
  3

 62
   256
 51
90.0
 52
90.0
 71
     2
 49
0.5
 62
   256
  6
BYLAYER
 49
-0.5
 62
   256
  6
BYLAYER
  0
ACDBPLACEHOLDER
  5
F
102
{ACAD_REACTORS
330
E
102
}
330
E
  0
VISUALSTYLE
  5
2F
102
{ACAD_REACTORS
330
2A
102
}
102
{ACAD_XDICTIONARY
360
119
102
}
330
2A
100
AcDbVisualStyle
  2
2dWireframe
 70
     4
 71
     0
 72
     2
 73
     0
 90
        0
 40
-0.6
 41
-30.0
 62
     5
 63
     7
 74
     1
 91
        4
 64
     7
 65
   257
 75
     1
175
     1
 42
1.0
 92
        0
 66
   257
 43
1.0
 76
     1
 77
     6
 78
     2
 67
     7
 79
     5
170
     0
171
     0
290
     0
174
     0
 93
        1
 44
0.0
173
     0
291
     0
 45
0.0
1001
ACAD
1000
AcDbSavedByObjectVersion
1070
     0
  0
VISUALSTYLE
  5
31
102
{ACAD_REACTORS
330
2A
102
}
102
{ACAD_XDICTIONARY
360
11D
102
}
330
2A
100
AcDbVisualStyle
  2
3D Hidden
 70
     6
 71
     1
 72
     2
 73
     2
 90
        0
 40
-0.6
 41
-30.0
 62
     5
 63
     7
 74
     2
 91
        2
 64
     7
 65
   257
 75
     2
175
     1
 42
40.0
 92
        0
 66
   257
 43
1.0
 76
     1
 77
     6
 78
     2
 67
     7
 79
     3
170
     0
171
     0
290
     0
174
     0
 93
        1
 44
0.0
173
     0
291
     0
 45
0.0
1001
ACAD
1000
AcDbSavedByObjectVersion
1070
     0
  0
VISUALSTYLE
  5
30
102
{ACAD_REACTORS
330
2A
102
}
102
{ACAD_XDICTIONARY
360
11B
102
}
330
2A
100
AcDbVisualStyle
  2
3dWireframe
 70
     5
 71
     0
 72
     2
 73
     0
 90
        0
 40
-0.6
 41
-30.0
 62
     5
 63
     7
 74
     1
 91
        4
 64
     7
 65
   257
 75
     1
175
     1
 42
1.0
 92
        0
 66
   257
 43
1.0
 76
     1
 77
     6
 78
     2
 67
     7
 79
     5
170
     0
171
     0
290
     0
174
     0
 93
        1
 44
0.0
173
     0
291
     0
 45
0.0
1001
ACAD
1000
AcDbSavedByObjectVersion
1070
     0
  0
VISUALSTYLE
  5
32
102
{ACAD_REACTORS
330
2A
102
}
102
{ACAD_XDICTIONARY
360
11F
102
}
330
2A
100
AcDbVisualStyle
  2
Basic
 70
     7
 71
     1
 72
     0
 73
     1
 90
        0
 40
-0.6
 41
-30.0
 62
     5
 63
     7
 74
     0
 91
        4
 64
     7
 65
   257
 75
     1
175
     1
 42
1.0
 92
        8
 66
     7
 43
1.0
 76
     1
 77
     6
 78
     2
 67
     7
 79
     5
170
     0
171
     0
290
     0
174
     0
 93
        1
 44
0.0
173
     0
291
     1
 45
0.0
1001
ACAD
1000
AcDbSavedByObjectVersion
1070
     0
  0
VISUALSTYLE
  5
36
102
{ACAD_REACTORS
330
2A
102
}
102
{ACAD_XDICTIONARY
360
127
102
}
330
2A
100
AcDbVisualStyle
  2
Brighten
 70
    12
 71
     2
 72
     2
 73
     0
 90
        0
 40
-0.6
 41
-30.0
 62
     5
 63
     7
 74
     1
 91
        4
 64
     7
 65
   257
 75
     1
175
     1
 42
1.0
 92
        8
 66
     7
 43
1.0
 76
     1
 77
     6
 78
     2
 67
     7
 79
     5
170
     0
171
     0
290
     0
174
     0
 93
        1
 44
50.0
173
     0
291
     1
 45
0.0
1001
ACAD
1000
AcDbSavedByObjectVersion
1070
     0
  0
VISUALSTYLE
  5
3A
102
{ACAD_REACTORS
330
2A
102
}
102
{ACAD_XDICTIONARY
360
12F
102
}
330
2A
100
AcDbVisualStyle
  2
ColorChange
 70
    16
 71
     2
 72
     2
 73
     3
 90
        0
 40
-0.6
 41
-30.0
 62
     5
 63
     8
 74
     1
 91
        4
 64
     7
 65
   257
 75
     1
175
     1
 42
1.0
 92
        8
 66
     8
 43
1.0
 76
     1
 77
     6
 78
     2
 67
     7
 79
     5
170
     0
171
     0
290
     0
174
     0
 93
        1
 44
0.0
173
     0
291
     1
 45
0.0
1001
ACAD
1000
AcDbSavedByObjectVersion
1070
     0
  0
VISUALSTYLE
  5
34
102
{ACAD_REACTORS
330
2A
102
}
102
{ACAD_XDICTIONARY
360
123
102
}
330
2A
100
AcDbVisualStyle
  2
Conceptual
 70
     9
 71
     3
 72
     2
 73
     0
 90
        0
 40
-0.6
 41
-30.0
 62
     5
 63
     7
 74
     2
 91
        2
 64
     7
 65
   257
 75
     1
175
     1
 42
40.0
 92
        8
 66
     7
 43
1.0
 76
     1
 77
     6
 78
     2
 67
     7
 79
     3
170
     0
171
     0
290
     0
174
     0
 93
        1
 44
0.0
173
     0
291
     0
 45
0.0
1001
ACAD
1000
AcDbSavedByObjectVersion
1070
     0
  0
VISUALSTYLE
  5
35
102
{ACAD_REACTORS
330
2A
102
}
102
{ACAD_XDICTIONARY
360
125
102
}
330
2A
100
AcDbVisualStyle
  2
Dim
 70
    11
 71
     2
 72
     2
 73
     0
 90
        0
 40
-0.6
 41
-30.0
 62
     5
 63
     7
 74
     1
 91
        4
 64
     7
 65
   257
 75
     1
175
     1
 42
1.0
 92
        8
 66
     7
 43
1.0
 76
     1
 77
     6
 78
     2
 67
     7
 79
     5
170
     0
171
     0
290
     0
174
     0
 93
        1
 44
-50.0
173
     0
291
     1
 45
0.0
1001
ACAD
1000
AcDbSavedByObjectVersion
1070
     0
  0
VISUALSTYLE
  5
39
102
{ACAD_REACTORS
330
2A
102
}
102
{ACAD_XDICTIONARY
360
12D
102
}
330
2A
100
AcDbVisualStyle
  2
Facepattern
 70
    15
 71
     2
 72
     2
 73
     0
 90
        0
 40
-0.6
 41
-30.0
 62
     5
 63
     7
 74
     1
 91
        4
 64
     7
 65
   257
 75
     1
175
     1
 42
1.0
 92
        8
 66
     7
 43
1.0
 76
     1
 77
     6
 78
     2
 67
     7
 79
     5
170
     0
171
     0
290
     0
174
     0
 93
        1
 44
0.0
173
     0
291
     1
 45
0.0
1001
ACAD
1000
AcDbSavedByObjectVersion
1070
     0
  0
VISUALSTYLE
  5
2B
102
{ACAD_REACTORS
330
2A
102
}
102
{ACAD_XDICTIONARY
360
111
102
}
330
2A
100
AcDbVisualStyle
  2
Flat
 70
     0
 71
     2
 72
     1
 73
     1
 90
        2
 40
-0.6
 41
30.0
 62
     5
 63
     7
 74
     0
 91
        4
 64
     7
 65
   257
 75
     1
175
     1
 42
1.0
 92
        8
 66
     7
 43
1.0
 76
     1
 77
     6
 78
     2
 67
     7
 79
     5
170
     0
171
     0
290
     0
174
     0
 93
       13
 44
0.0
173
     0
291
     1
 45
0.0
1001
ACAD
1000
AcDbSavedByObjectVersion
1070
     0
  0
VISUALSTYLE
  5
2C
102
{ACAD_REACTORS
330
2A
102
}
102
{ACAD_XDICTIONARY
360
113
102
}
330
2A
100
AcDbVisualStyle
  2
FlatWithEdges
 70
     1
 71
     2
 72
     1
 73
     1
 90
        2
 40
-0.6
 41
30.0
 62
     5
 63
     7
 74
     1
 91
        4
 64
     7
 65
   257
 75
     1
175
     1
 42
1.0
 92
        0
 66
   257
 43
1.0
 76
     1
 77
     6
 78
     2
 67
     7
 79
     5
170
     0
171
     0
290
     0
174
     0
 93
       13
 44
0.0
173
     0
291
     1
 45
0.0
1001
ACAD
1000
AcDbSavedByObjectVersion
1070
     0
  0
VISUALSTYLE
  5
2D
102
{ACAD_REACTORS
330
2A
102
}
102
{ACAD_XDICTIONARY
360
115
102
}
330
2A
100
AcDbVisualStyle
  2
Gouraud
 70
     2
 71
     2
 72
     2
 73
     1
 90
        2
 40
-0.6
 41
30.0
 62
     5
 63
     7
 74
     0
 91
        4
 64
     7
 65
   257
 75
     1
175
     1
 42
1.0
 92
        0
 66
     7
 43
1.0
 76
     1
 77
     6
 78
     2
 67
     7
 79
     5
170
     0
171
     0
290
     0
174
     0
 93
       13
 44
0.0
173
     0
291
     1
 45
0.0
1001
ACAD
1000
AcDbSavedByObjectVersion
1070
     0
  0
VISUALSTYLE
  5
2E
102
{ACAD_REACTORS
330
2A
102
}
102
{ACAD_XDICTIONARY
360
117
102
}
330
2A
100
AcDbVisualStyle
  2
GouraudWithEdges
 70
     3
 71
     2
 72
     2
 73
     1
 90
        2
 40
-0.6
 41
30.0
 62
     5
 63
     7
 74
     1
 91
        4
 64
     7
 65
   257
 75
     1
175
     1
 42
1.0
 92
        0
 66
   257
 43
1.0
 76
     1
 77
     6
 78
     2
 67
     7
 79
     5
170
     0
171
     0
290
     0
174
     0
 93
       13
 44
0.0
173
     0
291
     1
 45
0.0
1001
ACAD
1000
AcDbSavedByObjectVersion
1070
     0
  0
VISUALSTYLE
  5
38
102
{ACAD_REACTORS
330
2A
102
}
102
{ACAD_XDICTIONARY
360
12B
102
}
330
2A
100
AcDbVisualStyle
  2
Linepattern
 70
    14
 71
     2
 72
     2
 73
     0
 90
        0
 40
-0.6
 41
-30.0
 62
     5
 63
     7
 74
     1
 91
        4
 64
     7
 65
   257
 75
     7
175
     7
 42
1.0
 92
        8
 66
     7
 43
1.0
 76
     1
 77
     6
 78
     2
 67
     7
 79
     5
170
     0
171
     0
290
     0
174
     0
 93
        1
 44
0.0
173
     0
291
     1
 45
0.0
1001
ACAD
1000
AcDbSavedByObjectVersion
1070
     0
  0
VISUALSTYLE
  5
33
102
{ACAD_REACTORS
330
2A
102
}
102
{ACAD_XDICTIONARY
360
121
102
}
330
2A
100
AcDbVisualStyle
  2
Realistic
 70
     8
 71
     2
 72
     2
 73
     0
 90
        0
 40
-0.6
 41
-30.0
 62
     5
 63
     7
 74
     1
 91
        0
 64
     7
 65
   257
 75
     1
175
     1
 42
1.0
 92
        8
 66
     8
 43
1.0
 76
     1
 77
     6
 78
     2
 67
     7
 79
     5
170
     0
171
     0
290
     0
174
     0
 93
       13
 44
0.0
173
     0
291
     0
 45
0.0
1001
ACAD
1000
AcDbSavedByObjectVersion
1070
     0
  0
VISUALSTYLE
  5
37
102
{ACAD_REACTORS
330
2A
102
}
102
{ACAD_XDICTIONARY
360
129
102
}
330
2A
100
AcDbVisualStyle
  2
Thicken
 70
    13
 71
     2
 72
     2
 73
     0
 90
        0
 40
-0.6
 41
-30.0
 62
     5
 63
     7
 74
     1
 91
        4
 64
     7
 65
   257
 75
     1
175
     1
 42
1.0
 92
       12
 66
     7
 43
1.0
 76
     1
 77
     6
 78
     2
 67
     7
 79
     5
170
     0
171
     0
290
     0
174
     0
 93
        1
 44
0.0
173
     0
291
     1
 45
0.0
1001
ACAD
1000
AcDbSavedByObjectVersion
1070
     0
  0
DICTIONARYVAR
  5
10F
102
{ACAD_REACTORS
330
10C
102
}
330
10C
100
DictionaryVariables
280
     0
  1
2
  0
DICTIONARYVAR
  5
110
102
{ACAD_REACTORS
330
10C
102
}
330
10C
100
DictionaryVariables
280
     0
  1
1
  0
DICTIONARY
  5
133
330
3D
100
AcDbDictionary
280
     1
281
     1
  3
ACAD_XREC_ROUNDTRIP
360
134
  0
DICTIONARY
  5
131
330
3C
100
AcDbDictionary
280
     1
281
     1
  3
ACAD_XREC_ROUNDTRIP
360
132
  0
DICTIONARY
  5
135
330
3E
100
AcDbDictionary
280
     1
281
     1
  3
ACAD_XREC_ROUNDTRIP
360
136
  0
DICTIONARY
  5
119
330
2F
100
AcDbDictionary
280
     1
281
     1
  3
ACAD_XREC_ROUNDTRIP
360
11A
  0
DICTIONARY
  5
11D
330
31
100
AcDbDictionary
280
     1
281
     1
  3
ACAD_XREC_ROUNDTRIP
360
11E
  0
DICTIONARY
  5
11B
330
30
100
AcDbDictionary
280
     1
281
     1
  3
ACAD_XREC_ROUNDTRIP
360
11C
  0
DICTIONARY
  5
11F
330
32
100
AcDbDictionary
280
     1
281
     1
  3
ACAD_XREC_ROUNDTRIP
360
120
  0
DICTIONARY
  5
127
330
36
100
AcDbDictionary
280
     1
281
     1
  3
ACAD_XREC_ROUNDTRIP
360
128
  0
DICTIONARY
  5
12F
330
3A
100
AcDbDictionary
280
     1
281
     1
  3
ACAD_XREC_ROUNDTRIP
360
130
  0
DICTIONARY
  5
123
330
34
100
AcDbDictionary
280
     1
281
     1
  3
ACAD_XREC_ROUNDTRIP
360
124
  0
DICTIONARY
  5
125
330
35
100
AcDbDictionary
280
     1
281
     1
  3
ACAD_XREC_ROUNDTRIP
360
126
  0
DICTIONARY
  5
12D
330
39
100
AcDbDictionary
280
     1
281
     1
  3
ACAD_XREC_ROUNDTRIP
360
12E
  0
DICTIONARY
  5
111
330
2B
100
AcDbDictionary
280
     1
281
     1
  3
ACAD_XREC_ROUNDTRIP
360
112
  0
DICTIONARY
  5
113
330
2C
100
AcDbDictionary
280
     1
281
     1
  3
ACAD_XREC_ROUNDTRIP
360
114
  0
DICTIONARY
  5
115
330
2D
100
AcDbDictionary
280
     1
281
     1
  3
ACAD_XREC_ROUNDTRIP
360
116
  0
DICTIONARY
  5
117
330
2E
100
AcDbDictionary
280
     1
281
     1
  3
ACAD_XREC_ROUNDTRIP
360
118
  0
DICTIONARY
  5
12B
330
38
100
AcDbDictionary
280
     1
281
     1
  3
ACAD_XREC_ROUNDTRIP
360
12C
  0
DICTIONARY
  5
121
330
33
100
AcDbDictionary
280
     1
281
     1
  3
ACAD_XREC_ROUNDTRIP
360
122
  0
DICTIONARY
  5
129
330
37
100
AcDbDictionary
280
     1
281
     1
  3
ACAD_XREC_ROUNDTRIP
360
12A
  0
XRECORD
  5
134
102
{ACAD_REACTORS
330
133
102
}
330
133
100
AcDbXrecord
280
     1
102
MATERIAL
148
0.0
149
0.0
149
0.0
 93
        0
 94
      127
282
     0
 72
     1
 77
     1
171
     1
175
     1
179
     1
273
     0
  0
XRECORD
  5
132
102
{ACAD_REACTORS
330
131
102
}
330
131
100
AcDbXrecord
280
     1
102
MATERIAL
148
0.0
149
0.0
149
0.0
 93
        0
 94
      127
282
     0
 72
     1
 77
     1
171
     1
175
     1
179
     1
273
     0
  0
XRECORD
  5
136
102
{ACAD_REACTORS
330
135
102
}
330
135
100
AcDbXrecord
280
     1
102
MATERIAL
148
0.0
149
0.0
149
0.0
 93
        0
 94
      127
282
     0
 72
     1
 77
     1
171
     1
175
     1
179
     1
273
     0
  0
XRECORD
  5
11A
102
{ACAD_REACTORS
330
119
102
}
330
119
100
AcDbXrecord
280
     1
102
RTVSPropertyOp0
 70
     1
102
RTVSPropertyOp1
 70
     1
102
RTVSPropertyOp2
 70
     1
102
RTVSPropertyOp3
 70
     1
102
RTVSPropertyOp4
 70
     1
102
RTVSPropertyOp5
 70
     1
102
RTVSPropertyOp6
 70
     1
102
RTVSPropertyOp7
 70
     1
102
RTVSPropertyOp8
 70
     1
102
RTVSPropertyOp9
 70
     1
102
RTVSPropertyOp10
 70
     1
102
RTVSPropertyOp11
 70
     1
102
RTVSPropertyOp12
 70
     1
102
RTVSPropertyOp13
 70
     1
102
RTVSPropertyOp14
 70
     1
102
RTVSPropertyOp15
 70
     1
102
RTVSPropertyOp16
 70
     1
102
RTVSPropertyOp17
 70
     1
102
RTVSPropertyOp18
 70
     1
102
RTVSPropertyOp19
 70
     1
102
RTVSPropertyOp20
 70
     1
102
RTVSPropertyOp21
 70
     1
102
RTVSPropertyOp22
 70
     1
102
RTVSPropertyOp23
 70
     1
102
RTVSPropertyOp24
 70
     1
102
RTVSPropertyOp25
 70
     1
102
RTVSPropertyOp26
 70
     1
102
RTVSPropertyOp27
 70
     1
102
RTVSPropertyOp28
 70
     1
102
RTVSPropertyOp29
 70
     1
102
RTVSPropertyOp30
 70
     1
102
RTVSPropertyOp31
 70
     1
102
RTVSPropertyOp32
 70
     1
  0
XRECORD
  5
11E
102
{ACAD_REACTORS
330
11D
102
}
330
11D
100
AcDbXrecord
280
     1
102
RTVSPropertyOp0
 70
     1
102
RTVSPropertyOp1
 70
     1
102
RTVSPropertyOp2
 70
     1
102
RTVSPropertyOp3
 70
     1
102
RTVSPropertyOp4
 70
     1
102
RTVSPropertyOp5
 70
     1
102
RTVSPropertyOp6
 70
     1
102
RTVSPropertyOp7
 70
     1
102
RTVSPropertyOp8
 70
     1
102
RTVSPropertyOp9
 70
     1
102
RTVSPropertyOp10
 70
     1
102
RTVSPropertyOp11
 70
     1
102
RTVSPropertyOp12
 70
     1
102
RTVSPropertyOp13
 70
     1
102
RTVSPropertyOp14
 70
     1
102
RTVSPropertyOp15
 70
     1
102
RTVSPropertyOp16
 70
     1
102
RTVSPropertyOp17
 70
     1
102
RTVSPropertyOp18
 70
     1
102
RTVSPropertyOp19
 70
     1
102
RTVSPropertyOp20
 70
     1
102
RTVSPropertyOp21
 70
     1
102
RTVSPropertyOp22
 70
     1
102
RTVSPropertyOp23
 70
     1
102
RTVSPropertyOp24
 70
     1
102
RTVSPropertyOp25
 70
     1
102
RTVSPropertyOp26
 70
     1
102
RTVSPropertyOp27
 70
     1
102
RTVSPropertyOp28
 70
     1
102
RTVSPropertyOp29
 70
     1
102
RTVSPropertyOp30
 70
     1
102
RTVSPropertyOp31
 70
     1
102
RTVSPropertyOp32
 70
     1
  0
XRECORD
  5
11C
102
{ACAD_REACTORS
330
11B
102
}
330
11B
100
AcDbXrecord
280
     1
102
RTVSPropertyOp0
 70
     1
102
RTVSPropertyOp1
 70
     1
102
RTVSPropertyOp2
 70
     1
102
RTVSPropertyOp3
 70
     1
102
RTVSPropertyOp4
 70
     1
102
RTVSPropertyOp5
 70
     1
102
RTVSPropertyOp6
 70
     1
102
RTVSPropertyOp7
 70
     1
102
RTVSPropertyOp8
 70
     1
102
RTVSPropertyOp9
 70
     1
102
RTVSPropertyOp10
 70
     1
102
RTVSPropertyOp11
 70
     1
102
RTVSPropertyOp12
 70
     1
102
RTVSPropertyOp13
 70
     1
102
RTVSPropertyOp14
 70
     1
102
RTVSPropertyOp15
 70
     1
102
RTVSPropertyOp16
 70
     1
102
RTVSPropertyOp17
 70
     1
102
RTVSPropertyOp18
 70
     1
102
RTVSPropertyOp19
 70
     1
102
RTVSPropertyOp20
 70
     1
102
RTVSPropertyOp21
 70
     1
102
RTVSPropertyOp22
 70
     1
102
RTVSPropertyOp23
 70
     1
102
RTVSPropertyOp24
 70
     1
102
RTVSPropertyOp25
 70
     1
102
RTVSPropertyOp26
 70
     1
102
RTVSPropertyOp27
 70
     1
102
RTVSPropertyOp28
 70
     1
102
RTVSPropertyOp29
 70
     1
102
RTVSPropertyOp30
 70
     1
102
RTVSPropertyOp31
 70
     1
102
RTVSPropertyOp32
 70
     1
  0
XRECORD
  5
120
102
{ACAD_REACTORS
330
11F
102
}
330
11F
100
AcDbXrecord
280
     1
102
RTVSPropertyOp0
 70
     1
102
RTVSPropertyOp1
 70
     1
102
RTVSPropertyOp2
 70
     1
102
RTVSPropertyOp3
 70
     1
102
RTVSPropertyOp4
 70
     1
102
RTVSPropertyOp5
 70
     1
102
RTVSPropertyOp6
 70
     1
102
RTVSPropertyOp7
 70
     1
102
RTVSPropertyOp8
 70
     1
102
RTVSPropertyOp9
 70
     1
102
RTVSPropertyOp10
 70
     1
102
RTVSPropertyOp11
 70
     1
102
RTVSPropertyOp12
 70
     1
102
RTVSPropertyOp13
 70
     1
102
RTVSPropertyOp14
 70
     1
102
RTVSPropertyOp15
 70
     1
102
RTVSPropertyOp16
 70
     1
102
RTVSPropertyOp17
 70
     1
102
RTVSPropertyOp18
 70
     1
102
RTVSPropertyOp19
 70
     1
102
RTVSPropertyOp20
 70
     1
102
RTVSPropertyOp21
 70
     1
102
RTVSPropertyOp22
 70
     1
102
RTVSPropertyOp23
 70
     1
102
RTVSPropertyOp24
 70
     1
102
RTVSPropertyOp25
 70
     1
102
RTVSPropertyOp26
 70
     1
102
RTVSPropertyOp27
 70
     1
102
RTVSPropertyOp28
 70
     1
102
RTVSPropertyOp29
 70
     1
102
RTVSPropertyOp30
 70
     1
102
RTVSPropertyOp31
 70
     1
102
RTVSPropertyOp32
 70
     1
  0
XRECORD
  5
128
102
{ACAD_REACTORS
330
127
102
}
330
127
100
AcDbXrecord
280
     1
102
RTVSPropertyOp0
 70
     1
102
RTVSPropertyOp1
 70
     1
102
RTVSPropertyOp2
 70
     1
102
RTVSPropertyOp3
 70
     1
102
RTVSPropertyOp4
 70
     1
102
RTVSPropertyOp5
 70
     1
102
RTVSPropertyOp6
 70
     1
102
RTVSPropertyOp7
 70
     1
102
RTVSPropertyOp8
 70
     1
102
RTVSPropertyOp9
 70
     1
102
RTVSPropertyOp10
 70
     1
102
RTVSPropertyOp11
 70
     1
102
RTVSPropertyOp12
 70
     1
102
RTVSPropertyOp13
 70
     1
102
RTVSPropertyOp14
 70
     1
102
RTVSPropertyOp15
 70
     1
102
RTVSPropertyOp16
 70
     1
102
RTVSPropertyOp17
 70
     1
102
RTVSPropertyOp18
 70
     1
102
RTVSPropertyOp19
 70
     1
102
RTVSPropertyOp20
 70
     1
102
RTVSPropertyOp21
 70
     1
102
RTVSPropertyOp22
 70
     1
102
RTVSPropertyOp23
 70
     1
102
RTVSPropertyOp24
 70
     1
102
RTVSPropertyOp25
 70
     1
102
RTVSPropertyOp26
 70
     1
102
RTVSPropertyOp27
 70
     1
102
RTVSPropertyOp28
 70
     1
102
RTVSPropertyOp29
 70
     1
102
RTVSPropertyOp30
 70
     1
102
RTVSPropertyOp31
 70
     1
102
RTVSPropertyOp32
 70
     1
  0
XRECORD
  5
130
102
{ACAD_REACTORS
330
12F
102
}
330
12F
100
AcDbXrecord
280
     1
102
RTVSPropertyOp0
 70
     1
102
RTVSPropertyOp1
 70
     1
102
RTVSPropertyOp2
 70
     1
102
RTVSPropertyOp3
 70
     1
102
RTVSPropertyOp4
 70
     1
102
RTVSPropertyOp5
 70
     1
102
RTVSPropertyOp6
 70
     1
102
RTVSPropertyOp7
 70
     1
102
RTVSPropertyOp8
 70
     1
102
RTVSPropertyOp9
 70
     1
102
RTVSPropertyOp10
 70
     1
102
RTVSPropertyOp11
 70
     1
102
RTVSPropertyOp12
 70
     1
102
RTVSPropertyOp13
 70
     1
102
RTVSPropertyOp14
 70
     1
102
RTVSPropertyOp15
 70
     1
102
RTVSPropertyOp16
 70
     1
102
RTVSPropertyOp17
 70
     1
102
RTVSPropertyOp18
 70
     1
102
RTVSPropertyOp19
 70
     1
102
RTVSPropertyOp20
 70
     1
102
RTVSPropertyOp21
 70
     1
102
RTVSPropertyOp22
 70
     1
102
RTVSPropertyOp23
 70
     1
102
RTVSPropertyOp24
 70
     1
102
RTVSPropertyOp25
 70
     1
102
RTVSPropertyOp26
 70
     1
102
RTVSPropertyOp27
 70
     1
102
RTVSPropertyOp28
 70
     1
102
RTVSPropertyOp29
 70
     1
102
RTVSPropertyOp30
 70
     1
102
RTVSPropertyOp31
 70
     1
102
RTVSPropertyOp32
 70
     1
  0
XRECORD
  5
124
102
{ACAD_REACTORS
330
123
102
}
330
123
100
AcDbXrecord
280
     1
102
RTVSPropertyOp0
 70
     1
102
RTVSPropertyOp1
 70
     1
102
RTVSPropertyOp2
 70
     1
102
RTVSPropertyOp3
 70
     1
102
RTVSPropertyOp4
 70
     1
102
RTVSPropertyOp5
 70
     1
102
RTVSPropertyOp6
 70
     1
102
RTVSPropertyOp7
 70
     1
102
RTVSPropertyOp8
 70
     1
102
RTVSPropertyOp9
 70
     1
102
RTVSPropertyOp10
 70
     1
102
RTVSPropertyOp11
 70
     1
102
RTVSPropertyOp12
 70
     1
102
RTVSPropertyOp13
 70
     1
102
RTVSPropertyOp14
 70
     1
102
RTVSPropertyOp15
 70
     1
102
RTVSPropertyOp16
 70
     1
102
RTVSPropertyOp17
 70
     1
102
RTVSPropertyOp18
 70
     1
102
RTVSPropertyOp19
 70
     1
102
RTVSPropertyOp20
 70
     1
102
RTVSPropertyOp21
 70
     1
102
RTVSPropertyOp22
 70
     1
102
RTVSPropertyOp23
 70
     1
102
RTVSPropertyOp24
 70
     1
102
RTVSPropertyOp25
 70
     1
102
RTVSPropertyOp26
 70
     1
102
RTVSPropertyOp27
 70
     1
102
RTVSPropertyOp28
 70
     1
102
RTVSPropertyOp29
 70
     1
102
RTVSPropertyOp30
 70
     1
102
RTVSPropertyOp31
 70
     1
102
RTVSPropertyOp32
 70
     1
  0
XRECORD
  5
126
102
{ACAD_REACTORS
330
125
102
}
330
125
100
AcDbXrecord
280
     1
102
RTVSPropertyOp0
 70
     1
102
RTVSPropertyOp1
 70
     1
102
RTVSPropertyOp2
 70
     1
102
RTVSPropertyOp3
 70
     1
102
RTVSPropertyOp4
 70
     1
102
RTVSPropertyOp5
 70
     1
102
RTVSPropertyOp6
 70
     1
102
RTVSPropertyOp7
 70
     1
102
RTVSPropertyOp8
 70
     1
102
RTVSPropertyOp9
 70
     1
102
RTVSPropertyOp10
 70
     1
102
RTVSPropertyOp11
 70
     1
102
RTVSPropertyOp12
 70
     1
102
RTVSPropertyOp13
 70
     1
102
RTVSPropertyOp14
 70
     1
102
RTVSPropertyOp15
 70
     1
102
RTVSPropertyOp16
 70
     1
102
RTVSPropertyOp17
 70
     1
102
RTVSPropertyOp18
 70
     1
102
RTVSPropertyOp19
 70
     1
102
RTVSPropertyOp20
 70
     1
102
RTVSPropertyOp21
 70
     1
102
RTVSPropertyOp22
 70
     1
102
RTVSPropertyOp23
 70
     1
102
RTVSPropertyOp24
 70
     1
102
RTVSPropertyOp25
 70
     1
102
RTVSPropertyOp26
 70
     1
102
RTVSPropertyOp27
 70
     1
102
RTVSPropertyOp28
 70
     1
102
RTVSPropertyOp29
 70
     1
102
RTVSPropertyOp30
 70
     1
102
RTVSPropertyOp31
 70
     1
102
RTVSPropertyOp32
 70
     1
  0
XRECORD
  5
12E
102
{ACAD_REACTORS
330
12D
102
}
330
12D
100
AcDbXrecord
280
     1
102
RTVSPropertyOp0
 70
     1
102
RTVSPropertyOp1
 70
     1
102
RTVSPropertyOp2
 70
     1
102
RTVSPropertyOp3
 70
     1
102
RTVSPropertyOp4
 70
     1
102
RTVSPropertyOp5
 70
     1
102
RTVSPropertyOp6
 70
     1
102
RTVSPropertyOp7
 70
     1
102
RTVSPropertyOp8
 70
     1
102
RTVSPropertyOp9
 70
     1
102
RTVSPropertyOp10
 70
     1
102
RTVSPropertyOp11
 70
     1
102
RTVSPropertyOp12
 70
     1
102
RTVSPropertyOp13
 70
     1
102
RTVSPropertyOp14
 70
     1
102
RTVSPropertyOp15
 70
     1
102
RTVSPropertyOp16
 70
     1
102
RTVSPropertyOp17
 70
     1
102
RTVSPropertyOp18
 70
     1
102
RTVSPropertyOp19
 70
     1
102
RTVSPropertyOp20
 70
     1
102
RTVSPropertyOp21
 70
     1
102
RTVSPropertyOp22
 70
     1
102
RTVSPropertyOp23
 70
     1
102
RTVSPropertyOp24
 70
     1
102
RTVSPropertyOp25
 70
     1
102
RTVSPropertyOp26
 70
     1
102
RTVSPropertyOp27
 70
     1
102
RTVSPropertyOp28
 70
     1
102
RTVSPropertyOp29
 70
     1
102
RTVSPropertyOp30
 70
     1
102
RTVSPropertyOp31
 70
     1
102
RTVSPropertyOp32
 70
     1
  0
XRECORD
  5
112
102
{ACAD_REACTORS
330
111
102
}
330
111
100
AcDbXrecord
280
     1
102
RTVSPropertyOp0
 70
     1
102
RTVSPropertyOp1
 70
     1
102
RTVSPropertyOp2
 70
     1
102
RTVSPropertyOp3
 70
     1
102
RTVSPropertyOp4
 70
     1
102
RTVSPropertyOp5
 70
     1
102
RTVSPropertyOp6
 70
     1
102
RTVSPropertyOp7
 70
     1
102
RTVSPropertyOp8
 70
     1
102
RTVSPropertyOp9
 70
     1
102
RTVSPropertyOp10
 70
     1
102
RTVSPropertyOp11
 70
     1
102
RTVSPropertyOp12
 70
     1
102
RTVSPropertyOp13
 70
     1
102
RTVSPropertyOp14
 70
     1
102
RTVSPropertyOp15
 70
     1
102
RTVSPropertyOp16
 70
     1
102
RTVSPropertyOp17
 70
     1
102
RTVSPropertyOp18
 70
     1
102
RTVSPropertyOp19
 70
     1
102
RTVSPropertyOp20
 70
     1
102
RTVSPropertyOp21
 70
     1
102
RTVSPropertyOp22
 70
     1
102
RTVSPropertyOp23
 70
     1
102
RTVSPropertyOp24
 70
     1
102
RTVSPropertyOp25
 70
     1
102
RTVSPropertyOp26
 70
     1
102
RTVSPropertyOp27
 70
     1
102
RTVSPropertyOp28
 70
     1
102
RTVSPropertyOp29
 70
     1
102
RTVSPropertyOp30
 70
     1
102
RTVSPropertyOp31
 70
     1
102
RTVSPropertyOp32
 70
     1
  0
XRECORD
  5
114
102
{ACAD_REACTORS
330
113
102
}
330
113
100
AcDbXrecord
280
     1
102
RTVSPropertyOp0
 70
     1
102
RTVSPropertyOp1
 70
     1
102
RTVSPropertyOp2
 70
     1
102
RTVSPropertyOp3
 70
     1
102
RTVSPropertyOp4
 70
     1
102
RTVSPropertyOp5
 70
     1
102
RTVSPropertyOp6
 70
     1
102
RTVSPropertyOp7
 70
     1
102
RTVSPropertyOp8
 70
     1
102
RTVSPropertyOp9
 70
     1
102
RTVSPropertyOp10
 70
     1
102
RTVSPropertyOp11
 70
     1
102
RTVSPropertyOp12
 70
     1
102
RTVSPropertyOp13
 70
     1
102
RTVSPropertyOp14
 70
     1
102
RTVSPropertyOp15
 70
     1
102
RTVSPropertyOp16
 70
     1
102
RTVSPropertyOp17
 70
     1
102
RTVSPropertyOp18
 70
     1
102
RTVSPropertyOp19
 70
     1
102
RTVSPropertyOp20
 70
     1
102
RTVSPropertyOp21
 70
     1
102
RTVSPropertyOp22
 70
     1
102
RTVSPropertyOp23
 70
     1
102
RTVSPropertyOp24
 70
     1
102
RTVSPropertyOp25
 70
     1
102
RTVSPropertyOp26
 70
     1
102
RTVSPropertyOp27
 70
     1
102
RTVSPropertyOp28
 70
     1
102
RTVSPropertyOp29
 70
     1
102
RTVSPropertyOp30
 70
     1
102
RTVSPropertyOp31
 70
     1
102
RTVSPropertyOp32
 70
     1
  0
XRECORD
  5
116
102
{ACAD_REACTORS
330
115
102
}
330
115
100
AcDbXrecord
280
     1
102
RTVSPropertyOp0
 70
     1
102
RTVSPropertyOp1
 70
     1
102
RTVSPropertyOp2
 70
     1
102
RTVSPropertyOp3
 70
     1
102
RTVSPropertyOp4
 70
     1
102
RTVSPropertyOp5
 70
     1
102
RTVSPropertyOp6
 70
     1
102
RTVSPropertyOp7
 70
     1
102
RTVSPropertyOp8
 70
     1
102
RTVSPropertyOp9
 70
     1
102
RTVSPropertyOp10
 70
     1
102
RTVSPropertyOp11
 70
     1
102
RTVSPropertyOp12
 70
     1
102
RTVSPropertyOp13
 70
     1
102
RTVSPropertyOp14
 70
     1
102
RTVSPropertyOp15
 70
     1
102
RTVSPropertyOp16
 70
     1
102
RTVSPropertyOp17
 70
     1
102
RTVSPropertyOp18
 70
     1
102
RTVSPropertyOp19
 70
     1
102
RTVSPropertyOp20
 70
     1
102
RTVSPropertyOp21
 70
     1
102
RTVSPropertyOp22
 70
     1
102
RTVSPropertyOp23
 70
     1
102
RTVSPropertyOp24
 70
     1
102
RTVSPropertyOp25
 70
     1
102
RTVSPropertyOp26
 70
     1
102
RTVSPropertyOp27
 70
     1
102
RTVSPropertyOp28
 70
     1
102
RTVSPropertyOp29
 70
     1
102
RTVSPropertyOp30
 70
     1
102
RTVSPropertyOp31
 70
     1
102
RTVSPropertyOp32
 70
     1
  0
XRECORD
  5
118
102
{ACAD_REACTORS
330
117
102
}
330
117
100
AcDbXrecord
280
     1
102
RTVSPropertyOp0
 70
     1
102
RTVSPropertyOp1
 70
     1
102
RTVSPropertyOp2
 70
     1
102
RTVSPropertyOp3
 70
     1
102
RTVSPropertyOp4
 70
     1
102
RTVSPropertyOp5
 70
     1
102
RTVSPropertyOp6
 70
     1
102
RTVSPropertyOp7
 70
     1
102
RTVSPropertyOp8
 70
     1
102
RTVSPropertyOp9
 70
     1
102
RTVSPropertyOp10
 70
     1
102
RTVSPropertyOp11
 70
     1
102
RTVSPropertyOp12
 70
     1
102
RTVSPropertyOp13
 70
     1
102
RTVSPropertyOp14
 70
     1
102
RTVSPropertyOp15
 70
     1
102
RTVSPropertyOp16
 70
     1
102
RTVSPropertyOp17
 70
     1
102
RTVSPropertyOp18
 70
     1
102
RTVSPropertyOp19
 70
     1
102
RTVSPropertyOp20
 70
     1
102
RTVSPropertyOp21
 70
     1
102
RTVSPropertyOp22
 70
     1
102
RTVSPropertyOp23
 70
     1
102
RTVSPropertyOp24
 70
     1
102
RTVSPropertyOp25
 70
     1
102
RTVSPropertyOp26
 70
     1
102
RTVSPropertyOp27
 70
     1
102
RTVSPropertyOp28
 70
     1
102
RTVSPropertyOp29
 70
     1
102
RTVSPropertyOp30
 70
     1
102
RTVSPropertyOp31
 70
     1
102
RTVSPropertyOp32
 70
     1
  0
XRECORD
  5
12C
102
{ACAD_REACTORS
330
12B
102
}
330
12B
100
AcDbXrecord
280
     1
102
RTVSPropertyOp0
 70
     1
102
RTVSPropertyOp1
 70
     1
102
RTVSPropertyOp2
 70
     1
102
RTVSPropertyOp3
 70
     1
102
RTVSPropertyOp4
 70
     1
102
RTVSPropertyOp5
 70
     1
102
RTVSPropertyOp6
 70
     1
102
RTVSPropertyOp7
 70
     1
102
RTVSPropertyOp8
 70
     1
102
RTVSPropertyOp9
 70
     1
102
RTVSPropertyOp10
 70
     1
102
RTVSPropertyOp11
 70
     1
102
RTVSPropertyOp12
 70
     1
102
RTVSPropertyOp13
 70
     1
102
RTVSPropertyOp14
 70
     1
102
RTVSPropertyOp15
 70
     1
102
RTVSPropertyOp16
 70
     1
102
RTVSPropertyOp17
 70
     1
102
RTVSPropertyOp18
 70
     1
102
RTVSPropertyOp19
 70
     1
102
RTVSPropertyOp20
 70
     1
102
RTVSPropertyOp21
 70
     1
102
RTVSPropertyOp22
 70
     1
102
RTVSPropertyOp23
 70
     1
102
RTVSPropertyOp24
 70
     1
102
RTVSPropertyOp25
 70
     1
102
RTVSPropertyOp26
 70
     1
102
RTVSPropertyOp27
 70
     1
102
RTVSPropertyOp28
 70
     1
102
RTVSPropertyOp29
 70
     1
102
RTVSPropertyOp30
 70
     1
102
RTVSPropertyOp31
 70
     1
102
RTVSPropertyOp32
 70
     1
  0
XRECORD
  5
122
102
{ACAD_REACTORS
330
121
102
}
330
121
100
AcDbXrecord
280
     1
102
RTVSPropertyOp0
 70
     1
102
RTVSPropertyOp1
 70
     1
102
RTVSPropertyOp2
 70
     1
102
RTVSPropertyOp3
 70
     1
102
RTVSPropertyOp4
 70
     1
102
RTVSPropertyOp5
 70
     1
102
RTVSPropertyOp6
 70
     1
102
RTVSPropertyOp7
 70
     1
102
RTVSPropertyOp8
 70
     1
102
RTVSPropertyOp9
 70
     1
102
RTVSPropertyOp10
 70
     1
102
RTVSPropertyOp11
 70
     1
102
RTVSPropertyOp12
 70
     1
102
RTVSPropertyOp13
 70
     1
102
RTVSPropertyOp14
 70
     1
102
RTVSPropertyOp15
 70
     1
102
RTVSPropertyOp16
 70
     1
102
RTVSPropertyOp17
 70
     1
102
RTVSPropertyOp18
 70
     1
102
RTVSPropertyOp19
 70
     1
102
RTVSPropertyOp20
 70
     1
102
RTVSPropertyOp21
 70
     1
102
RTVSPropertyOp22
 70
     1
102
RTVSPropertyOp23
 70
     1
102
RTVSPropertyOp24
 70
     1
102
RTVSPropertyOp25
 70
     1
102
RTVSPropertyOp26
 70
     1
102
RTVSPropertyOp27
 70
     1
102
RTVSPropertyOp28
 70
     1
102
RTVSPropertyOp29
 70
     1
102
RTVSPropertyOp30
 70
     1
102
RTVSPropertyOp31
 70
     1
102
RTVSPropertyOp32
 70
     1
  0
XRECORD
  5
12A
102
{ACAD_REACTORS
330
129
102
}
330
129
100
AcDbXrecord
280
     1
102
RTVSPropertyOp0
 70
     1
102
RTVSPropertyOp1
 70
     1
102
RTVSPropertyOp2
 70
     1
102
RTVSPropertyOp3
 70
     1
102
RTVSPropertyOp4
 70
     1
102
RTVSPropertyOp5
 70
     1
102
RTVSPropertyOp6
 70
     1
102
RTVSPropertyOp7
 70
     1
102
RTVSPropertyOp8
 70
     1
102
RTVSPropertyOp9
 70
     1
102
RTVSPropertyOp10
 70
     1
102
RTVSPropertyOp11
 70
     1
102
RTVSPropertyOp12
 70
     1
102
RTVSPropertyOp13
 70
     1
102
RTVSPropertyOp14
 70
     1
102
RTVSPropertyOp15
 70
     1
102
RTVSPropertyOp16
 70
     1
102
RTVSPropertyOp17
 70
     1
102
RTVSPropertyOp18
 70
     1
102
RTVSPropertyOp19
 70
     1
102
RTVSPropertyOp20
 70
     1
102
RTVSPropertyOp21
 70
     1
102
RTVSPropertyOp22
 70
     1
102
RTVSPropertyOp23
 70
     1
102
RTVSPropertyOp24
 70
     1
102
RTVSPropertyOp25
 70
     1
102
RTVSPropertyOp26
 70
     1
102
RTVSPropertyOp27
 70
     1
102
RTVSPropertyOp28
 70
     1
102
RTVSPropertyOp29
 70
     1
102
RTVSPropertyOp30
 70
     1
102
RTVSPropertyOp31
 70
     1
102
RTVSPropertyOp32
 70
     1
  0
ENDSEC
  0
EOF
