  0
SECTION
  2
HEADER
  9
$ACADVER
  1
AC1015
  9
$ACADMAINTVER
 70
     6
  9
$DWGCODEPAGE
  3
ANSI_932
  9
$INSBASE
 10
0.0
 20
0.0
 30
0.0
  9
$EXTMIN
 10
0.0
 20
0.00000000000001
 30
0.0
  9
$EXTMAX
 10
210.0000000000001
 20
297.0
 30
0.0
  9
$LIMMIN
 10
0.0
 20
0.0
  9
$LIMMAX
 10
12.0
 20
9.0
  9
$ORTHOMODE
 70
     0
  9
$REGENMODE
 70
     1
  9
$FILLMODE
 70
     1
  9
$QTEXTMODE
 70
     0
  9
$MIRRTEXT
 70
     1
  9
$LTSCALE
 40
1.0
  9
$ATTMODE
 70
     1
  9
$TEXTSIZE
 40
0.2
  9
$TRACEWID
 40
0.05
  9
$TEXTSTYLE
  7
Standard
  9
$CLAYER
  8
0
  9
$CELTYPE
  6
ByLayer
  9
$CECOLOR
 62
   256
  9
$CELTSCALE
 40
1.0
  9
$DISPSILH
 70
     0
  9
$DIMSCALE
 40
1.0
  9
$DIMASZ
 40
0.18
  9
$DIMEXO
 40
0.0625
  9
$DIMDLI
 40
0.38
  9
$DIMRND
 40
0.0
  9
$DIMDLE
 40
0.0
  9
$DIMEXE
 40
0.18
  9
$DIMTP
 40
0.0
  9
$DIMTM
 40
0.0
  9
$DIMTXT
 40
0.18
  9
$DIMCEN
 40
0.09
  9
$DIMTSZ
 40
0.0
  9
$DIMTOL
 70
     0
  9
$DIMLIM
 70
     0
  9
$DIMTIH
 70
     1
  9
$DIMTOH
 70
     1
  9
$DIMSE1
 70
     0
  9
$DIMSE2
 70
     0
  9
$DIMTAD
 70
     0
  9
$DIMZIN
 70
     0
  9
$DIMBLK
  1

  9
$DIMASO
 70
     1
  9
$DIMSHO
 70
     1
  9
$DIMPOST
  1

  9
$DIMAPOST
  1

  9
$DIMALT
 70
     0
  9
$DIMALTD
 70
     2
  9
$DIMALTF
 40
25.4
  9
$DIMLFAC
 40
1.0
  9
$DIMTOFL
 70
     0
  9
$DIMTVP
 40
0.0
  9
$DIMTIX
 70
     0
  9
$DIMSOXD
 70
     0
  9
$DIMSAH
 70
     0
  9
$DIMBLK1
  1

  9
$DIMBLK2
  1

  9
$DIMSTYLE
  2
Standard
  9
$DIMCLRD
 70
     0
  9
$DIMCLRE
 70
     0
  9
$DIMCLRT
 70
     0
  9
$DIMTFAC
 40
1.0
  9
$DIMGAP
 40
0.09
  9
$DIMJUST
 70
     0
  9
$DIMSD1
 70
     0
  9
$DIMSD2
 70
     0
  9
$DIMTOLJ
 70
     1
  9
$DIMTZIN
 70
     0
  9
$DIMALTZ
 70
     0
  9
$DIMALTTZ
 70
     0
  9
$DIMUPT
 70
     0
  9
$DIMDEC
 70
     4
  9
$DIMTDEC
 70
     4
  9
$DIMALTU
 70
     2
  9
$DIMALTTD
 70
     2
  9
$DIMTXSTY
  7
Standard
  9
$DIMAUNIT
 70
     0
  9
$DIMADEC
 70
     0
  9
$DIMALTRND
 40
0.0
  9
$DIMAZIN
 70
     0
  9
$DIMDSEP
 70
    46
  9
$DIMATFIT
 70
     3
  9
$DIMFRAC
 70
     0
  9
$DIMLDRBLK
  1

  9
$DIMLUNIT
 70
     2
  9
$DIMLWD
 70
    -2
  9
$DIMLWE
 70
    -2
  9
$DIMTMOVE
 70
     0
  9
$LUNITS
 70
     2
  9
$LUPREC
 70
     4
  9
$SKETCHINC
 40
0.1
  9
$FILLETRAD
 40
0.5
  9
$AUNITS
 70
     0
  9
$AUPREC
 70
     0
  9
$MENU
  1
.
  9
$ELEVATION
 40
0.0
  9
$PELEVATION
 40
0.0
  9
$THICKNESS
 40
0.0
  9
$LIMCHECK
 70
     0
  9
$CHAMFERA
 40
0.5
  9
$CHAMFERB
 40
0.5
  9
$CHAMFERC
 40
1.0
  9
$CHAMFERD
 40
0.0
  9
$SKPOLY
 70
     0
  9
$TDCREATE
 40
2459788.602812095
  9
$TDUCREATE
 40
2459788.227812095
  9
$TDUPDATE
 40
2459788.602813368
  9
$TDUUPDATE
 40
2459788.227813368
  9
$TDINDWG
 40
0.0000000116
  9
$TDUSRTIMER
 40
0.0000000116
  9
$USRTIMER
 70
     1
  9
$ANGBASE
 50
0.0
  9
$ANGDIR
 70
     0
  9
$PDMODE
 70
     0
  9
$PDSIZE
 40
0.0
  9
$PLINEWID
 40
0.0
  9
$SPLFRAME
 70
     0
  9
$SPLINETYPE
 70
     6
  9
$SPLINESEGS
 70
     8
  9
$HANDSEED
  5
12A
  9
$SURFTAB1
 70
     6
  9
$SURFTAB2
 70
     6
  9
$SURFTYPE
 70
     6
  9
$SURFU
 70
     6
  9
$SURFV
 70
     6
  9
$UCSBASE
  2

  9
$UCSNAME
  2

  9
$UCSORG
 10
0.0
 20
0.0
 30
0.0
  9
$UCSXDIR
 10
1.0
 20
0.0
 30
0.0
  9
$UCSYDIR
 10
0.0
 20
1.0
 30
0.0
  9
$UCSORTHOREF
  2

  9
$UCSORTHOVIEW
 70
     0
  9
$UCSORGTOP
 10
0.0
 20
0.0
 30
0.0
  9
$UCSORGBOTTOM
 10
0.0
 20
0.0
 30
0.0
  9
$UCSORGLEFT
 10
0.0
 20
0.0
 30
0.0
  9
$UCSORGRIGHT
 10
0.0
 20
0.0
 30
0.0
  9
$UCSORGFRONT
 10
0.0
 20
0.0
 30
0.0
  9
$UCSORGBACK
 10
0.0
 20
0.0
 30
0.0
  9
$PUCSBASE
  2

  9
$PUCSNAME
  2

  9
$PUCSORG
 10
0.0
 20
0.0
 30
0.0
  9
$PUCSXDIR
 10
1.0
 20
0.0
 30
0.0
  9
$PUCSYDIR
 10
0.0
 20
1.0
 30
0.0
  9
$PUCSORTHOREF
  2

  9
$PUCSORTHOVIEW
 70
     0
  9
$PUCSORGTOP
 10
0.0
 20
0.0
 30
0.0
  9
$PUCSORGBOTTOM
 10
0.0
 20
0.0
 30
0.0
  9
$PUCSORGLEFT
 10
0.0
 20
0.0
 30
0.0
  9
$PUCSORGRIGHT
 10
0.0
 20
0.0
 30
0.0
  9
$PUCSORGFRONT
 10
0.0
 20
0.0
 30
0.0
  9
$PUCSORGBACK
 10
0.0
 20
0.0
 30
0.0
  9
$USERI1
 70
     0
  9
$USERI2
 70
     0
  9
$USERI3
 70
     0
  9
$USERI4
 70
     0
  9
$USERI5
 70
     0
  9
$USERR1
 40
18.1
  9
$USERR2
 40
0.0
  9
$USERR3
 40
0.0
  9
$USERR4
 40
0.0
  9
$USERR5
 40
0.0
  9
$WORLDVIEW
 70
     1
  9
$SHADEDGE
 70
     3
  9
$SHADEDIF
 70
    70
  9
$TILEMODE
 70
     1
  9
$MAXACTVP
 70
    64
  9
$PINSBASE
 10
0.0
 20
0.0
 30
0.0
  9
$PLIMCHECK
 70
     0
  9
$PEXTMIN
 10
1.00000000000000E+20
 20
1.00000000000000E+20
 30
1.00000000000000E+20
  9
$PEXTMAX
 10
-1.00000000000000E+20
 20
-1.00000000000000E+20
 30
-1.00000000000000E+20
  9
$PLIMMIN
 10
0.0
 20
0.0
  9
$PLIMMAX
 10
12.0
 20
9.0
  9
$UNITMODE
 70
     0
  9
$VISRETAIN
 70
     1
  9
$PLINEGEN
 70
     0
  9
$PSLTSCALE
 70
     1
  9
$TREEDEPTH
 70
  3020
  9
$CMLSTYLE
  2
Standard
  9
$CMLJUST
 70
     0
  9
$CMLSCALE
 40
1.0
  9
$PROXYGRAPHICS
 70
     1
  9
$MEASUREMENT
 70
     1
  9
$CELWEIGHT
370
    -1
  9
$ENDCAPS
280
     0
  9
$JOINSTYLE
280
     0
  9
$LWDISPLAY
290
     0
  9
$INSUNITS
 70
     4
  9
$HYPERLINKBASE
  1

  9
$STYLESHEET
  1

  9
$XEDIT
290
     1
  9
$CEPSNTYPE
380
     0
  9
$PSTYLEMODE
290
     1
  9
$FINGERPRINTGUID
  2
{CE64D978-F9E4-4D29-AF2C-9C54CDCB3F1C}
  9
$VERSIONGUID
  2
{FAEB1C32-E019-11D5-929B-00C0DF256EC4}
  9
$EXTNAMES
290
     1
  9
$PSVPSCALE
 40
0.0
  9
$OLESTARTUP
290
     0
  0
ENDSEC
  0
SECTION
  2
CLASSES
  0
CLASS
  1
ACDBDICTIONARYWDFLT
  2
AcDbDictionaryWithDefault
  3
ObjectDBX Classes
 90
        0
280
     0
281
     0
  0
CLASS
  1
VISUALSTYLE
  2
AcDbVisualStyle
  3
ObjectDBX Classes
 90
     4095
280
     0
281
     0
  0
CLASS
  1
MATERIAL
  2
AcDbMaterial
  3
ObjectDBX Classes
 90
     1153
280
     0
281
     0
  0
CLASS
  1
DICTIONARYVAR
  2
AcDbDictionaryVar
  3
ObjectDBX Classes
 90
        0
280
     0
281
     0
  0
CLASS
  1
ACDBPLACEHOLDER
  2
AcDbPlaceHolder
  3
ObjectDBX Classes
 90
        0
280
     0
281
     0
  0
CLASS
  1
LAYOUT
  2
AcDbLayout
  3
ObjectDBX Classes
 90
        0
280
     0
281
     0
  0
ENDSEC
  0
SECTION
  2
TABLES
  0
TABLE
  2
VPORT
  5
8
330
0
100
AcDbSymbolTable
 70
     1
  0
VPORT
  5
29
330
8
100
AcDbSymbolTableRecord
100
AcDbViewportTableRecord
  2
*Active
 70
     0
 10
0.0
 20
0.0
 11
1.0
 21
1.0
 12
105.0000000000001
 22
148.5
 13
0.0
 23
0.0
 14
0.5
 24
0.5
 15
0.5
 25
0.5
 16
0.0
 26
0.0
 36
1.0
 17
0.0
 27
0.0
 37
0.0
 40
326.7
 41
1.60267857142857
 42
50.0
 43
0.0
 44
0.0
 50
0.0
 51
0.0
 71
     0
 72
   100
 73
     1
 74
     3
 75
     0
 76
     0
 77
     0
 78
     0
281
     0
 65
     1
110
0.0
120
0.0
130
0.0
111
1.0
121
0.0
131
0.0
112
0.0
122
1.0
132
0.0
 79
     0
146
0.0
  0
ENDTAB
  0
TABLE
  2
LTYPE
  5
5
330
0
100
AcDbSymbolTable
 70
     8
  0
LTYPE
  5
14
330
5
100
AcDbSymbolTableRecord
100
AcDbLinetypeTableRecord
  2
ByBlock
 70
     0
  3

 72
    65
 73
     0
 40
0.0
  0
LTYPE
  5
15
330
5
100
AcDbSymbolTableRecord
100
AcDbLinetypeTableRecord
  2
ByLayer
 70
     0
  3

 72
    65
 73
     0
 40
0.0
  0
LTYPE
  5
16
330
5
100
AcDbSymbolTableRecord
100
AcDbLinetypeTableRecord
  2
Continuous
 70
     0
  3
Solid line
 72
    65
 73
     0
 40
0.0
  0
LTYPE
  5
3F
330
5
100
AcDbSymbolTableRecord
100
AcDbLinetypeTableRecord
  2
DASHED
 70
     0
  3
Dashed
 72
    65
 73
     2
 40
15.0
 49
7.0
 74
     0
 49
-8.0
 74
     0
  0
LTYPE
  5
40
330
5
100
AcDbSymbolTableRecord
100
AcDbLinetypeTableRecord
  2
DOTTED
 70
     0
  3
Dotted
 72
    65
 73
     2
 40
1.0
 49
0.0
 74
     0
 49
-1.0
 74
     0
  0
LTYPE
  5
41
330
5
100
AcDbSymbolTableRecord
100
AcDbLinetypeTableRecord
  2
DOT_CENTER
 70
     0
  3
Dot_Center
 72
    65
 73
     4
 40
14.0
 49
12.0
 74
     0
 49
-1.0
 74
     0
 49
0.0
 74
     0
 49
-1.0
 74
     0
  0
LTYPE
  5
42
330
5
100
AcDbSymbolTableRecord
100
AcDbLinetypeTableRecord
  2
LONG_DASHED
 70
     0
  3
Long_Dashed
 72
    65
 73
     2
 40
15.0
 49
10.0
 74
     0
 49
-5.0
 74
     0
  0
LTYPE
  5
43
330
5
100
AcDbSymbolTableRecord
100
AcDbLinetypeTableRecord
  2
DASH_CENTER
 70
     0
  3
Dash_Center
 72
    65
 73
     4
 40
14.0
 49
11.0
 74
     0
 49
-1.0
 74
     0
 49
1.0
 74
     0
 49
-1.0
 74
     0
  0
LTYPE
  5
44
330
5
100
AcDbSymbolTableRecord
100
AcDbLinetypeTableRecord
  2
PHANTOM
 70
     0
  3
Phantom
 72
    65
 73
     6
 40
13.0
 49
10.0
 74
     0
 49
-1.0
 74
     0
 49
0.0
 74
     0
 49
-1.0
 74
     0
 49
0.0
 74
     0
 49
-1.0
 74
     0
  0
LTYPE
  5
45
330
5
100
AcDbSymbolTableRecord
100
AcDbLinetypeTableRecord
  2
CENTER_DASH_DASH
 70
     0
  3
Center_Dash_Dash
 72
    65
 73
     6
 40
14.0
 49
9.0
 74
     0
 49
-1.0
 74
     0
 49
1.0
 74
     0
 49
-1.0
 74
     0
 49
1.0
 74
     0
 49
-1.0
 74
     0
  0
ENDTAB
  0
TABLE
  2
LAYER
  5
2
330
0
100
AcDbSymbolTable
 70
     3
  0
LAYER
  5
10
330
2
100
AcDbSymbolTableRecord
100
AcDbLayerTableRecord
  2
0
 70
     0
 62
     7
  6
Continuous
370
    -3
390
F
  0
LAYER
  5
46
330
2
100
AcDbSymbolTableRecord
100
AcDbLayerTableRecord
  2
1
 70
     0
 62
     7
  6
Continuous
370
    -3
390
F
  0
LAYER
  5
47
330
2
100
AcDbSymbolTableRecord
100
AcDbLayerTableRecord
  2
_U_30EC_U_30A4_U_30E4_U_30FC_1
 70
     0
 62
     7
  6
Continuous
370
    -3
390
F
  0
ENDTAB
  0
TABLE
  2
STYLE
  5
3
330
0
100
AcDbSymbolTable
 70
     3
  0
STYLE
  5
11
330
3
100
AcDbSymbolTableRecord
100
AcDbTextStyleTableRecord
  2
Standard
 70
     0
 40
0.0
 41
1.0
 50
0.0
 71
     0
 42
0.2
  3
txt
  4

  0
STYLE
  5
B6
330
3
100
AcDbSymbolTableRecord
100
AcDbTextStyleTableRecord
  2
CONVERTER_11
 70
     0
 40
0.0
 41
0.89
 50
0.0
 71
     0
 42
0.2
  3
MS Mincho.ttf
  4

1001
ACAD
1000
MS Mincho
1071
    32785
  0
STYLE
  5
DC
330
3
100
AcDbSymbolTableRecord
100
AcDbTextStyleTableRecord
  2
CONVERTER_12
 70
     0
 40
0.0
 41
0.9
 50
0.0
 71
     0
 42
0.2
  3
txt.shx
  4

  0
ENDTAB
  0
TABLE
  2
VIEW
  5
6
330
0
100
AcDbSymbolTable
 70
     0
  0
ENDTAB
  0
TABLE
  2
UCS
  5
7
330
0
100
AcDbSymbolTable
 70
     0
  0
ENDTAB
  0
TABLE
  2
APPID
  5
9
330
0
100
AcDbSymbolTable
 70
     1
  0
APPID
  5
12
330
9
100
AcDbSymbolTableRecord
100
AcDbRegAppTableRecord
  2
ACAD
 70
     0
  0
ENDTAB
  0
TABLE
  2
DIMSTYLE
  5
A
330
0
100
AcDbSymbolTable
 70
     2
100
AcDbDimStyleTable
  0
DIMSTYLE
105
27
330
A
100
AcDbSymbolTableRecord
100
AcDbDimStyleTableRecord
  2
Standard
 70
     0
178
     0
340
11
  0
DIMSTYLE
105
F5
102
{ACAD_REACTORS
330
F6
102
}
330
A
100
AcDbSymbolTableRecord
100
AcDbDimStyleTableRecord
  2
ME10_DIM_10
 70
     0
  3
{\Fgdt;n}<>
 41
3.5
 42
0.0
 44
1.0
 73
     0
 74
     0
 77
     1
 78
     8
140
3.5
147
1.0
172
     1
173
     1
174
     1
175
     1
176
     2
177
     2
271
     2
178
     7
271
     2
340
DC
  0
ENDTAB
  0
TABLE
  2
BLOCK_RECORD
  5
1
330
0
100
AcDbSymbolTable
 70
     6
  0
BLOCK_RECORD
  5
1F
330
1
100
AcDbSymbolTableRecord
100
AcDbBlockTableRecord
  2
*Model_Space
340
22
  0
BLOCK_RECORD
  5
1B
330
1
100
AcDbSymbolTableRecord
100
AcDbBlockTableRecord
  2
*Paper_Space
340
1E
  0
BLOCK_RECORD
  5
23
330
1
100
AcDbSymbolTableRecord
100
AcDbBlockTableRecord
  2
*Paper_Space0
340
26
  0
BLOCK_RECORD
  5
48
330
1
100
AcDbSymbolTableRecord
100
AcDbBlockTableRecord
  2
開示A4
340
0
102
{BLKREFS
331
4C
102
}
  0
BLOCK_RECORD
  5
4B
330
1
100
AcDbSymbolTableRecord
100
AcDbBlockTableRecord
  2
開示A4枠
340
0
102
{BLKREFS
331
52
102
}
  0
BLOCK_RECORD
  5
4F
330
1
100
AcDbSymbolTableRecord
100
AcDbBlockTableRecord
  2
95-20-12
340
0
102
{BLKREFS
331
53
102
}
  0
BLOCK_RECORD
  5
EA
330
1
100
AcDbSymbolTableRecord
100
AcDbBlockTableRecord
  2
*D4
340
0
  0
BLOCK_RECORD
  5
F7
330
1
100
AcDbSymbolTableRecord
100
AcDbBlockTableRecord
  2
*D5
340
0
102
{BLKREFS
331
FE
102
}
  0
ENDTAB
  0
ENDSEC
  0
SECTION
  2
BLOCKS
  0
BLOCK
  5
20
330
1F
100
AcDbEntity
  8
0
100
AcDbBlockBegin
  2
*Model_Space
 70
     0
 10
0.0
 20
0.0
 30
0.0
  3
*Model_Space
  1

  0
ENDBLK
  5
21
330
1F
100
AcDbEntity
  8
0
100
AcDbBlockEnd
  0
BLOCK
  5
1C
330
1B
100
AcDbEntity
 67
     1
  8
0
100
AcDbBlockBegin
  2
*Paper_Space
 70
     0
 10
0.0
 20
0.0
 30
0.0
  3
*Paper_Space
  1

  0
ENDBLK
  5
1D
330
1B
100
AcDbEntity
 67
     1
  8
0
100
AcDbBlockEnd
  0
BLOCK
  5
24
330
23
100
AcDbEntity
  8
0
100
AcDbBlockBegin
  2
*Paper_Space0
 70
     0
 10
0.0
 20
0.0
 30
0.0
  3
*Paper_Space0
  1

  0
ENDBLK
  5
25
330
23
100
AcDbEntity
  8
0
100
AcDbBlockEnd
  0
BLOCK
  5
49
330
48
100
AcDbEntity
  8
0
100
AcDbBlockBegin
  2
開示A4
 70
     0
 10
0.0
 20
0.00000000000001
 30
0.0
  3
開示A4
  1

  0
POINT
  5
54
330
48
100
AcDbEntity
  8
1
 62
     4
100
AcDbPoint
 10
183.0000000000001
 20
15.00000000000001
 30
0.0
  0
POINT
  5
55
330
48
100
AcDbEntity
  8
1
 62
     4
100
AcDbPoint
 10
93.75000000000006
 20
17.00000000000003
 30
0.0
  0
POINT
  5
56
330
48
100
AcDbEntity
  8
1
 62
     4
100
AcDbPoint
 10
85.25000000000006
 20
17.00000000000003
 30
0.0
  0
POINT
  5
57
330
48
100
AcDbEntity
  8
1
 62
     4
100
AcDbPoint
 10
106.5000000000001
 20
19.00000000000003
 30
0.0
  0
POINT
  5
58
330
48
100
AcDbEntity
  8
1
 62
     4
100
AcDbPoint
 10
106.5000000000001
 20
12.50000000000001
 30
0.0
  0
POINT
  5
59
330
48
100
AcDbEntity
  8
1
 62
     4
100
AcDbPoint
 10
112.2500000000001
 20
12.50000000000001
 30
0.0
  0
POINT
  5
5A
330
48
100
AcDbEntity
  8
1
 62
     4
100
AcDbPoint
 10
100.7500000000001
 20
12.50000000000001
 30
0.0
  0
POINT
  5
5B
330
48
100
AcDbEntity
  8
1
 62
     4
100
AcDbPoint
 10
123.5000000000001
 20
19.00000000000003
 30
0.0
  0
POINT
  5
5C
330
48
100
AcDbEntity
  8
1
 62
     4
100
AcDbPoint
 10
123.5000000000001
 20
12.50000000000001
 30
0.0
  0
POINT
  5
5D
330
48
100
AcDbEntity
  8
1
 62
     4
100
AcDbPoint
 10
129.2500000000001
 20
12.50000000000001
 30
0.0
  0
POINT
  5
5E
330
48
100
AcDbEntity
  8
1
 62
     4
100
AcDbPoint
 10
117.7500000000001
 20
12.50000000000001
 30
0.0
  0
POINT
  5
5F
330
48
100
AcDbEntity
  8
1
 62
     4
100
AcDbPoint
 10
140.5000000000001
 20
19.00000000000003
 30
0.0
  0
POINT
  5
60
330
48
100
AcDbEntity
  8
1
 62
     4
100
AcDbPoint
 10
140.5000000000001
 20
12.50000000000001
 30
0.0
  0
POINT
  5
61
330
48
100
AcDbEntity
  8
1
 62
     4
100
AcDbPoint
 10
146.2500000000001
 20
12.50000000000001
 30
0.0
  0
POINT
  5
62
330
48
100
AcDbEntity
  8
1
 62
     4
100
AcDbPoint
 10
134.7500000000001
 20
12.50000000000001
 30
0.0
  0
POINT
  5
63
330
48
100
AcDbEntity
  8
1
 62
     4
100
AcDbPoint
 10
151.7500000000001
 20
12.50000000000001
 30
0.0
  0
POINT
  5
64
330
48
100
AcDbEntity
  8
1
 62
     4
100
AcDbPoint
 10
163.2500000000001
 20
12.50000000000001
 30
0.0
  0
POINT
  5
65
330
48
100
AcDbEntity
  8
1
 62
     4
100
AcDbPoint
 10
157.5000000000001
 20
12.50000000000001
 30
0.0
  0
POINT
  5
66
330
48
100
AcDbEntity
  8
1
 62
     4
100
AcDbPoint
 10
57.00000000000006
 20
14.25000000000001
 30
0.0
  0
POINT
  5
67
330
48
100
AcDbEntity
  8
1
 62
     4
100
AcDbPoint
 10
57.00000000000006
 20
22.75000000000003
 30
0.0
  0
POINT
  5
68
330
48
100
AcDbEntity
  8
1
 62
     4
100
AcDbPoint
 10
47.50000000000006
 20
282.0000000000003
 30
0.0
  0
POINT
  5
69
330
48
100
AcDbEntity
  8
1
 62
     4
100
AcDbPoint
 10
157.5000000000001
 20
19.00000000000003
 30
0.0
  0
POINT
  5
6A
330
48
100
AcDbEntity
  8
1
 62
     4
100
AcDbPoint
 10
57.00000000000006
 20
16.25000000000003
 30
0.0
  0
POINT
  5
6B
330
48
100
AcDbEntity
  8
1
 62
     4
100
AcDbPoint
 10
57.00000000000006
 20
24.75000000000003
 30
0.0
  0
POINT
  5
6C
330
48
100
AcDbEntity
  8
1
 62
     4
100
AcDbPoint
 10
57.00000000000006
 20
20.75000000000003
 30
0.0
  0
POINT
  5
6D
330
48
100
AcDbEntity
  8
1
 62
     4
100
AcDbPoint
 10
57.00000000000006
 20
12.25000000000001
 30
0.0
  0
POINT
  5
6E
330
48
100
AcDbEntity
  8
1
 62
     4
100
AcDbPoint
 10
34.0
 20
34.00000000000003
 30
0.0
  0
LINE
  5
73
330
48
100
AcDbEntity
  8
1
  6
Continuous
 62
     7
100
AcDbLine
 10
105.0000000000001
 20
10.00000000000001
 30
0.0
 11
200.0000000000001
 21
10.00000000000001
 31
0.0
  0
LINE
  5
74
330
48
100
AcDbEntity
  8
1
  6
Continuous
 62
     2
100
AcDbLine
 10
105.0000000000001
 20
10.00000000000001
 30
0.0
 11
105.0000000000001
 21
5.00000000000001
 31
0.0
  0
LINE
  5
75
330
48
100
AcDbEntity
  8
1
  6
Continuous
 62
     7
100
AcDbLine
 10
200.0000000000001
 20
148.5
 30
0.0
 11
200.0000000000001
 21
287.0000000000003
 31
0.0
  0
LINE
  5
76
330
48
100
AcDbEntity
  8
1
  6
Continuous
 62
     2
100
AcDbLine
 10
200.0000000000001
 20
148.5
 30
0.0
 11
205.0000000000001
 21
148.5
 31
0.0
  0
LINE
  5
77
330
48
100
AcDbEntity
  8
1
  6
Continuous
 62
     7
100
AcDbLine
 10
25.0
 20
148.5
 30
0.0
 11
25.0
 21
287.0000000000003
 31
0.0
  0
LINE
  5
78
330
48
100
AcDbEntity
  8
1
  6
Continuous
 62
     2
100
AcDbLine
 10
25.0
 20
148.5
 30
0.0
 11
20.0
 21
148.5
 31
0.0
  0
LINE
  5
79
330
48
100
AcDbEntity
  8
1
  6
Continuous
 62
     7
100
AcDbLine
 10
105.0000000000001
 20
287.0000000000003
 30
0.0
 11
25.0
 21
287.0000000000003
 31
0.0
  0
LINE
  5
7A
330
48
100
AcDbEntity
  8
1
  6
Continuous
 62
     2
100
AcDbLine
 10
105.0000000000001
 20
287.0000000000003
 30
0.0
 11
105.0000000000001
 21
292.0000000000003
 31
0.0
  0
LINE
  5
7B
330
48
100
AcDbEntity
  8
1
  6
Continuous
 62
     2
100
AcDbLine
 10
166.0000000000001
 20
20.00000000000003
 30
0.0
 11
200.0000000000001
 21
20.00000000000003
 31
0.0
  0
LINE
  5
7C
330
48
100
AcDbEntity
  8
1
  6
Continuous
 62
     2
100
AcDbLine
 10
98.00000000000006
 20
27.00000000000003
 30
0.0
 11
98.00000000000006
 21
10.00000000000001
 31
0.0
  0
LINE
  5
7D
330
48
100
AcDbEntity
  8
1
  6
Continuous
 62
     2
100
AcDbLine
 10
115.0000000000001
 20
27.00000000000003
 30
0.0
 11
115.0000000000001
 21
10.00000000000001
 31
0.0
  0
LINE
  5
7E
330
48
100
AcDbEntity
  8
1
  6
Continuous
 62
     2
100
AcDbLine
 10
149.0000000000001
 20
27.00000000000003
 30
0.0
 11
149.0000000000001
 21
10.00000000000001
 31
0.0
  0
LINE
  5
7F
330
48
100
AcDbEntity
  8
1
  6
Continuous
 62
     2
100
AcDbLine
 10
132.0000000000001
 20
27.00000000000003
 30
0.0
 11
132.0000000000001
 21
10.00000000000001
 31
0.0
  0
LINE
  5
80
330
48
100
AcDbEntity
  8
1
  6
Continuous
 62
     2
100
AcDbLine
 10
166.0000000000001
 20
27.00000000000003
 30
0.0
 11
166.0000000000001
 21
10.00000000000001
 31
0.0
  0
LINE
  5
81
330
48
100
AcDbEntity
  8
1
  6
Continuous
 62
     2
100
AcDbLine
 10
55.00000000000006
 20
277.0000000000003
 30
0.0
 11
25.0
 21
277.0000000000003
 31
0.0
  0
LINE
  5
82
330
48
100
AcDbEntity
  8
1
  6
Continuous
 62
     7
100
AcDbLine
 10
25.0
 20
10.00000000000001
 30
0.0
 11
25.0
 21
148.5
 31
0.0
  0
LINE
  5
83
330
48
100
AcDbEntity
  8
1
  6
Continuous
 62
     2
100
AcDbLine
 10
40.0
 20
287.0000000000003
 30
0.0
 11
40.0
 21
277.0000000000003
 31
0.0
  0
LINE
  5
84
330
48
100
AcDbEntity
  8
1
  6
Continuous
 62
     2
100
AcDbLine
 10
55.00000000000006
 20
287.0000000000003
 30
0.0
 11
55.00000000000006
 21
277.0000000000003
 31
0.0
  0
LINE
  5
85
330
48
100
AcDbEntity
  8
1
  6
Continuous
 62
     2
100
AcDbLine
 10
33.0
 20
41.00000000000003
 30
0.0
 11
33.0
 21
27.00000000000003
 31
0.0
  0
LINE
  5
86
330
48
100
AcDbEntity
  8
1
  6
Continuous
 62
     7
100
AcDbLine
 10
200.0000000000001
 20
27.00000000000003
 30
0.0
 11
25.0
 21
27.00000000000003
 31
0.0
  0
LINE
  5
87
330
48
100
AcDbEntity
  8
1
  6
Continuous
 62
     7
100
AcDbLine
 10
25.0
 20
41.00000000000003
 30
0.0
 11
200.0000000000001
 21
41.00000000000003
 31
0.0
  0
LINE
  5
88
330
48
100
AcDbEntity
  8
1
  6
PHANTOM
 62
     4
100
AcDbLine
 10
0.0
 20
0.00000000000001
 30
0.0
 11
210.0000000000001
 21
0.00000000000001
 31
0.0
  0
LINE
  5
89
330
48
100
AcDbEntity
  8
1
  6
PHANTOM
 62
     4
100
AcDbLine
 10
210.0000000000001
 20
0.00000000000001
 30
0.0
 11
210.0000000000001
 21
297.0
 31
0.0
  0
LINE
  5
8A
330
48
100
AcDbEntity
  8
1
  6
PHANTOM
 62
     4
100
AcDbLine
 10
210.0000000000001
 20
297.0
 30
0.0
 11
0.0
 21
297.0
 31
0.0
  0
LINE
  5
8B
330
48
100
AcDbEntity
  8
1
  6
PHANTOM
 62
     4
100
AcDbLine
 10
0.0
 20
297.0
 30
0.0
 11
0.0
 21
0.00000000000001
 31
0.0
  0
LINE
  5
8C
330
48
100
AcDbEntity
  8
1
  6
Continuous
 62
     7
100
AcDbLine
 10
25.0
 20
10.00000000000001
 30
0.0
 11
105.0000000000001
 21
10.00000000000001
 31
0.0
  0
LINE
  5
8D
330
48
100
AcDbEntity
  8
1
  6
Continuous
 62
     7
100
AcDbLine
 10
200.0000000000001
 20
10.00000000000001
 30
0.0
 11
200.0000000000001
 21
148.5
 31
0.0
  0
LINE
  5
8E
330
48
100
AcDbEntity
  8
1
  6
Continuous
 62
     7
100
AcDbLine
 10
200.0000000000001
 20
287.0000000000003
 30
0.0
 11
105.0000000000001
 21
287.0000000000003
 31
0.0
  0
LINE
  5
8F
330
48
100
AcDbEntity
  8
1
  6
Continuous
 62
     2
100
AcDbLine
 10
25.0
 20
18.50000000000003
 30
0.0
 11
81.00000000000006
 21
18.50000000000003
 31
0.0
  0
LINE
  5
90
330
48
100
AcDbEntity
  8
1
  6
Continuous
 62
     2
100
AcDbLine
 10
33.0
 20
27.00000000000003
 30
0.0
 11
33.0
 21
10.00000000000001
 31
0.0
  0
LINE
  5
91
330
48
100
AcDbEntity
  8
1
  6
Continuous
 62
     7
100
AcDbLine
 10
191.0000000000001
 20
24.70000000000013
 30
0.0
 11
191.0000000000001
 21
22.30000000000013
 31
0.0
  0
LINE
  5
92
330
48
100
AcDbEntity
  8
1
  6
Continuous
 62
     7
100
AcDbLine
 10
191.0000000000001
 20
24.70000000000013
 30
0.0
 11
196.0000000000001
 21
25.50000000000003
 31
0.0
  0
LINE
  5
93
330
48
100
AcDbEntity
  8
1
  6
Continuous
 62
     7
100
AcDbLine
 10
196.0000000000001
 20
25.50000000000003
 30
0.0
 11
196.0000000000001
 21
21.50000000000003
 31
0.0
  0
LINE
  5
94
330
48
100
AcDbEntity
  8
1
  6
Continuous
 62
     7
100
AcDbLine
 10
196.0000000000001
 20
21.50000000000003
 30
0.0
 11
191.0000000000001
 21
22.30000000000013
 31
0.0
  0
LINE
  5
95
330
48
100
AcDbEntity
  8
1
  6
DOT_CENTER
 62
     2
100
AcDbLine
 10
184.0000000000001
 20
23.50000000000003
 30
0.0
 11
197.0000000000001
 21
23.50000000000003
 31
0.0
  0
LINE
  5
96
330
48
100
AcDbEntity
  8
1
  6
DOT_CENTER
 62
     2
100
AcDbLine
 10
187.0000000000001
 20
26.50000000000003
 30
0.0
 11
187.0000000000001
 21
20.50000000000003
 31
0.0
  0
LINE
  5
97
330
48
100
AcDbEntity
  8
1
  6
Continuous
 62
     2
100
AcDbLine
 10
81.00000000000006
 20
27.00000000000003
 30
0.0
 11
81.00000000000006
 21
10.00000000000001
 31
0.0
  0
CIRCLE
  5
98
330
48
100
AcDbEntity
  8
1
  6
Continuous
 62
     7
100
AcDbCircle
 10
103.5000000000001
 20
12.50000000000001
 30
0.0
 40
0.2999999999998977
  0
CIRCLE
  5
99
330
48
100
AcDbEntity
  8
1
  6
Continuous
 62
     7
100
AcDbCircle
 10
109.5000000000001
 20
12.50000000000001
 30
0.0
 40
0.2999999999998977
  0
CIRCLE
  5
9A
330
48
100
AcDbEntity
  8
1
  6
Continuous
 62
     7
100
AcDbCircle
 10
120.5000000000001
 20
12.50000000000001
 30
0.0
 40
0.2999999999998977
  0
CIRCLE
  5
9B
330
48
100
AcDbEntity
  8
1
  6
Continuous
 62
     7
100
AcDbCircle
 10
126.5000000000001
 20
12.50000000000001
 30
0.0
 40
0.2999999999998977
  0
CIRCLE
  5
9C
330
48
100
AcDbEntity
  8
1
  6
Continuous
 62
     7
100
AcDbCircle
 10
137.5000000000001
 20
12.50000000000001
 30
0.0
 40
0.2999999999998977
  0
CIRCLE
  5
9D
330
48
100
AcDbEntity
  8
1
  6
Continuous
 62
     7
100
AcDbCircle
 10
143.5000000000001
 20
12.50000000000001
 30
0.0
 40
0.2999999999998977
  0
CIRCLE
  5
9E
330
48
100
AcDbEntity
  8
1
  6
Continuous
 62
     7
100
AcDbCircle
 10
160.5000000000001
 20
12.50000000000001
 30
0.0
 40
0.2999999999998977
  0
CIRCLE
  5
9F
330
48
100
AcDbEntity
  8
1
  6
Continuous
 62
     7
100
AcDbCircle
 10
154.5000000000001
 20
12.50000000000001
 30
0.0
 40
0.2999999999998977
  0
CIRCLE
  5
A0
330
48
100
AcDbEntity
  8
1
  6
Continuous
 62
     7
100
AcDbCircle
 10
187.0000000000001
 20
23.50000000000003
 30
0.0
 40
1.199999999999989
  0
CIRCLE
  5
A1
330
48
100
AcDbEntity
  8
1
  6
Continuous
 62
     7
100
AcDbCircle
 10
187.0000000000001
 20
23.50000000000003
 30
0.0
 40
2.0
  0
CIRCLE
  5
A2
330
48
100
AcDbEntity
  8
1
  6
DOT_CENTER
 62
     7
100
AcDbCircle
 10
89.50000000000006
 20
16.00000000000001
 30
0.0
 40
0.1000000000000227
  0
CIRCLE
  5
A3
330
48
100
AcDbEntity
  8
1
  6
DOT_CENTER
 62
     7
100
AcDbCircle
 10
89.50000000000006
 20
18.00000000000003
 30
0.0
 40
0.1000000000000227
  0
SPLINE
  5
A4
102
{ACAD_REACTORS
330
C3
102
}
330
48
100
AcDbEntity
  8
_U_30EC_U_30A4_U_30E4_U_30FC_1
  6
Continuous
 62
     2
100
AcDbSpline
210
0.0
220
0.0
230
1.0
 70
     8
 71
     3
 72
    24
 73
    20
 74
    18
 42
0.000000001
 43
0.0000000001
 44
0.00000001
 40
0.0
 40
0.0
 40
0.0
 40
0.0
 40
0.2211075008753692
 40
0.4273218586245051
 40
0.5080174679238375
 40
0.5914835907869657
 40
0.8143265690192253
 40
1.054651302686551
 40
1.29545269402315
 40
1.518109231328816
 40
1.540864321905459
 40
1.595126460622721
 40
1.659890947896064
 40
1.71415308518745
 40
1.736908174961751
 40
1.764951100735453
 40
1.801562291221102
 40
1.953914424543774
 40
2.126104167379817
 40
2.126104167379817
 40
2.126104167379817
 40
2.126104167379817
 10
185.9375369556889
 20
15.58989295113022
 30
0.0
 10
185.9112579081812
 20
15.53097628234379
 30
0.0
 10
185.8604698894426
 20
15.41711139679261
 30
0.0
 10
185.8131784839111
 20
15.14441958233128
 30
0.0
 10
185.7043482802618
 20
15.24445482575463
 30
0.0
 10
185.5514800279637
 20
15.27118593367328
 30
0.0
 10
185.7686155181199
 20
15.48518135017638
 30
0.0
 10
185.7838483674381
 20
15.70332117782491
 30
0.0
 10
185.8906889492001
 20
15.88451579066433
 30
0.0
 10
185.8305380947077
 20
16.16913226311409
 30
0.0
 10
185.9334317395402
 20
16.14114089222459
 30
0.0
 10
185.977993346815
 20
16.13243251602306
 30
0.0
 10
186.0380842395397
 20
16.1213965418336
 30
0.0
 10
186.0756619587438
 20
16.10767523055566
 30
0.0
 10
186.1252466928607
 20
16.10756076160228
 30
0.0
 10
186.0930158919325
 20
16.07306592398629
 30
0.0
 10
186.0171802221882
 20
16.08404104537969
 30
0.0
 10
186.0429447159694
 20
15.89858969582457
 30
0.0
 10
186.0055896763849
 20
15.80702313549595
 30
0.0
 10
185.985770496161
 20
15.75844135397712
 30
0.0
 11
185.9375369556889
 21
15.58989295113022
 31
0.0
 11
185.8616471328552
 21
15.38221708318565
 31
0.0
 11
185.7717402238433
 21
15.19663392356202
 31
0.0
 11
185.701149392311
 21
15.23573272563557
 31
0.0
 11
185.6245525192651
 21
15.26889163187722
 31
0.0
 11
185.7214026947455
 21
15.46958801203542
 31
0.0
 11
185.7994641467471
 21
15.69688163177029
 31
0.0
 11
185.858971692972
 21
15.93021436608698
 31
0.0
 11
185.9001601511226
 21
16.14902808999062
 31
0.0
 11
185.9224183822215
 21
16.14429889221402
 31
0.0
 11
185.975495702534
 21
16.13302157443907
 31
0.0
 11
186.0388460525845
 21
16.11956154999798
 31
0.0
 11
186.0919233728971
 21
16.10828423222303
 31
0.0
 11
186.1141816039959
 21
16.10355503444643
 31
0.0
 11
186.0964097157461
 21
16.08186250841016
 31
0.0
 11
186.0606122998071
 21
16.07418628445372
 31
0.0
 11
186.028195330148
 21
15.92532288171318
 31
0.0
 11
185.985770496161
 21
15.75844135397712
 31
0.0
  0
SPLINE
  5
A5
102
{ACAD_REACTORS
330
C3
102
}
330
48
100
AcDbEntity
  8
_U_30EC_U_30A4_U_30E4_U_30FC_1
  6
Continuous
 62
     2
100
AcDbSpline
210
0.0
220
0.0
230
1.0
 70
     8
 71
     3
 72
    70
 73
    66
 74
    64
 42
0.000000001
 43
0.0000000001
 44
0.00000001
 40
0.0
 40
0.0
 40
0.0
 40
0.0
 40
0.0241731073021472
 40
0.0846058988986729
 40
0.1631685280352999
 40
0.2417311571788903
 40
0.3021639488291898
 40
0.3263370654894688
 40
0.3533118254248028
 40
0.4228783438921223
 40
0.5179999095312479
 40
0.6216398239465107
 40
0.7167613891498675
 40
0.7863279069648833
 40
0.813302679176077
 40
0.837294399877061
 40
0.8945054261371813
 40
0.962789554196188
 40
1.020000580349055
 40
1.043992300975154
 40
1.071934345522875
 40
1.113121768772795
 40
1.145225199332123
 40
1.225483775412662
 40
1.329819923771379
 40
1.434156071994275
 40
1.514414647795701
 40
1.546518078208311
 40
1.578974764260113
 40
1.662678849314051
 40
1.777131373668271
 40
1.901833377474662
 40
2.016285900500424
 40
2.099989982527763
 40
2.132446666570121
 40
2.158782354485843
 40
2.216720867907628
 40
2.27465938133405
 40
2.300995069255982
 40
2.333451754065954
 40
2.417155836543607
 40
2.531608358985046
 40
2.656310362283541
 40
2.770762886388645
 40
2.854466971339782
 40
2.886923657363588
 40
2.913597976833024
 40
2.98238964287483
 40
3.076451716946703
 40
3.178937260458322
 40
3.272999334739735
 40
3.341791001058961
 40
3.368465320663274
 40
3.396976080738523
 40
3.472140811845731
 40
3.578408190308421
 40
3.700226892455885
 40
3.822045594634103
 40
3.928312973256209
 40
4.003477705314607
 40
4.031988456866673
 40
4.05832414479746
 40
4.116262658236597
 40
4.174201171400371
 40
4.200536849608293
 40
4.200536849608293
 40
4.200536849608293
 40
4.200536849608293
 10
185.985770496161
 20
15.75844135397712
 30
0.0
 10
185.993825954468
 20
15.75844359811694
 30
0.0
 10
186.0220200663241
 20
15.75845146032803
 30
0.0
 10
186.0765534803674
 20
15.75830754828379
 30
0.0
 10
186.1482891808604
 20
15.75909120499905
 30
0.0
 10
186.2236240137062
 20
15.75627570463818
 30
0.0
 10
186.2713052366439
 20
15.76298403400964
 30
0.0
 10
186.3195071245615
 20
15.75197563692439
 30
0.0
 10
186.3062571799874
 20
15.8054640299704
 30
0.0
 10
186.3151093964538
 20
15.86049583543098
 30
0.0
 10
186.3108698036285
 20
15.95419908726115
 30
0.0
 10
186.313348348128
 20
16.04959482218538
 30
0.0
 10
186.309093870606
 20
16.14356821983392
 30
0.0
 10
186.3179818665846
 20
16.19795062438018
 30
0.0
 10
186.3046977409945
 20
16.25233997691466
 30
0.0
 10
186.3514119277109
 20
16.23842216335363
 30
0.0
 10
186.3943254545737
 20
16.24103877374047
 30
0.0
 10
186.4605443456686
 20
16.23648422450756
 30
0.0
 10
186.5013342271798
 20
16.22778162134163
 30
0.0
 10
186.552514569082
 20
16.23531799890193
 30
0.0
 10
186.52537204872
 20
16.19349970223298
 30
0.0
 10
186.4803096055707
 20
16.20284992072602
 30
0.0
 10
186.4942065045051
 20
16.13841207371847
 30
0.0
 10
186.4858414431655
 20
16.07378219627407
 30
0.0
 10
186.4903632178399
 20
15.97529141193896
 30
0.0
 10
186.4854741311168
 20
15.87595932842578
 30
0.0
 10
186.4950258992082
 20
15.81293115552976
 30
0.0
 10
186.4799761455201
 20
15.74964011499795
 30
0.0
 10
186.5449159457209
 20
15.76515072944276
 30
0.0
 10
186.6116246399498
 20
15.75499387697819
 30
0.0
 10
186.7241435470828
 20
15.75988800099374
 30
0.0
 10
186.8390235448954
 20
15.75691204732791
 30
0.0
 10
186.9519871999746
 20
15.76221664184998
 30
0.0
 10
187.0176267597678
 20
15.75107306472096
 30
0.0
 10
187.0816276691053
 20
15.76744532319864
 30
0.0
 10
187.0703142889189
 20
15.71761689905282
 30
0.0
 10
187.0775339871509
 20
15.6741671521213
 30
0.0
 10
187.0703142611269
 20
15.63071745587452
 30
0.0
 10
187.0816277175994
 20
15.58088895196885
 30
0.0
 10
187.0176263598971
 20
15.5972616609137
 30
0.0
 10
186.951992124046
 20
15.58611271661596
 30
0.0
 10
186.838997431733
 20
15.59144857206862
 30
0.0
 10
186.7242456548643
 20
15.58834345663829
 30
0.0
 10
186.6113183686861
 20
15.59364894682596
 30
0.0
 10
186.5455220903585
 20
15.58257300019602
 30
0.0
 10
186.4816097975359
 20
15.59887597847626
 30
0.0
 10
186.4936015165127
 20
15.54423524395749
 30
0.0
 10
186.4862104613005
 20
15.48854295047849
 30
0.0
 10
186.4892684841984
 20
15.39649689140577
 30
0.0
 10
186.4893422785684
 20
15.30179109873107
 30
0.0
 10
186.486031357836
 20
15.20952782902271
 30
0.0
 10
186.4939505989903
 20
15.15435768736144
 30
0.0
 10
186.4815076611618
 20
15.1005816910014
 30
0.0
 10
186.5389116551632
 20
15.11453768862785
 30
0.0
 10
186.5994708140384
 20
15.10511457884232
 30
0.0
 10
186.7048680855082
 20
15.10942885928709
 30
0.0
 10
186.8204294070624
 20
15.10835504612037
 30
0.0
 10
186.9359688877798
 20
15.10725965901
 30
0.0
 10
187.0414181130842
 20
15.11162525770637
 30
0.0
 10
187.1018680471805
 20
15.10209426030675
 30
0.0
 10
187.1592837739111
 20
15.11617289606385
 30
0.0
 10
187.147777387671
 20
15.06707153265689
 30
0.0
 10
187.1537566781749
 20
15.02564658018657
 30
0.0
 10
187.1520311050804
 20
14.97651677966706
 30
0.0
 10
187.1521500122972
 20
14.9485442844762
 30
0.0
 10
187.1521871691834
 20
14.93980288195962
 30
0.0
 11
185.985770496161
 21
15.75844135397712
 31
0.0
 11
186.0099436128282
 21
15.75844135397712
 31
0.0
 11
186.0703764044963
 21
15.75844135397712
 31
0.0
 11
186.1489390336649
 21
15.75844135397712
 31
0.0
 11
186.2275016628334
 21
15.75844135397712
 31
0.0
 11
186.2879344545015
 21
15.75844135397712
 31
0.0
 11
186.3121075711687
 21
15.75844135397712
 31
0.0
 11
186.3121075711687
 21
15.7854161262007
 31
0.0
 11
186.3121075711687
 21
15.85498264404045
 31
0.0
 11
186.3121075711687
 21
15.95010420924992
 31
0.0
 11
186.3121075711687
 21
16.05374412358261
 31
0.0
 11
186.3121075711687
 21
16.14886568879207
 31
0.0
 11
186.3121075711687
 21
16.21843220663183
 31
0.0
 11
186.3121075711687
 21
16.24540697885541
 31
0.0
 11
186.3360407604892
 21
16.24373213107805
 31
0.0
 11
186.3931122119458
 21
16.23973826330125
 31
0.0
 11
186.4612297507811
 21
16.23497138885797
 31
0.0
 11
186.5183012022377
 21
16.23097752108118
 31
0.0
 11
186.5422343915582
 21
16.22930267330381
 31
0.0
 11
186.5274972731229
 21
16.20556293372647
 31
0.0
 11
186.4886640249977
 21
16.19183767331322
 31
0.0
 11
186.4886640249977
 21
16.15973424225128
 31
0.0
 11
186.4886640249977
 21
16.07947566459645
 31
0.0
 11
186.4886640249977
 21
15.97513951364517
 31
0.0
 11
186.4886640249977
 21
15.87080336269389
 31
0.0
 11
186.4886640249977
 21
15.79054478503905
 31
0.0
 11
186.4886640249977
 21
15.75844135397712
 31
0.0
 11
186.5211207110825
 21
15.75844135397712
 31
0.0
 11
186.6048247962486
 21
15.75844135397712
 31
0.0
 11
186.7192773208635
 21
15.75844135397712
 31
0.0
 11
186.8439793252946
 21
15.75844135397712
 31
0.0
 11
186.9584318499095
 21
15.75844135397712
 31
0.0
 11
187.0421359350756
 21
15.75844135397712
 31
0.0
 11
187.0745926211604
 21
15.75844135397712
 31
0.0
 11
187.0745926211604
 21
15.73210566604968
 31
0.0
 11
187.0745926211604
 21
15.67416715260932
 31
0.0
 11
187.0745926211604
 21
15.61622863916896
 31
0.0
 11
187.0745926211604
 21
15.58989295124152
 31
0.0
 11
187.0421359350756
 21
15.58989295124152
 31
0.0
 11
186.9584318499095
 21
15.58989295124152
 31
0.0
 11
186.8439793252946
 21
15.58989295124152
 31
0.0
 11
186.7192773208635
 21
15.58989295124152
 31
0.0
 11
186.6048247962486
 21
15.58989295124152
 31
0.0
 11
186.5211207110825
 21
15.58989295124152
 31
0.0
 11
186.4886640249977
 21
15.58989295124152
 31
0.0
 11
186.4886640249977
 21
15.56321863152029
 31
0.0
 11
186.4886640249977
 21
15.49442696487083
 31
0.0
 11
186.4886640249977
 21
15.40036489006441
 31
0.0
 11
186.4886640249977
 21
15.29787934587234
 31
0.0
 11
186.4886640249977
 21
15.20381727106591
 31
0.0
 11
186.4886640249977
 21
15.13502560441644
 31
0.0
 11
186.4886640249977
 21
15.10835128469522
 31
0.0
 11
186.5171747850994
 21
15.10835128469522
 31
0.0
 11
186.5923395162767
 21
15.10835128469522
 31
0.0
 11
186.6986068948377
 21
15.10835128469522
 31
0.0
 11
186.8204255970905
 21
15.10835128469522
 31
0.0
 11
186.9422442993434
 21
15.10835128469522
 31
0.0
 11
187.0485116779044
 21
15.10835128469522
 31
0.0
 11
187.1236764090817
 21
15.10835128469522
 31
0.0
 11
187.1521871691834
 21
15.10835128469522
 31
0.0
 11
187.1521871691834
 21
15.08201559676778
 31
0.0
 11
187.1521871691834
 21
15.02407708332742
 31
0.0
 11
187.1521871691834
 21
14.96613856988706
 31
0.0
 11
187.1521871691834
 21
14.93980288195962
 31
0.0
  0
SPLINE
  5
A6
102
{ACAD_REACTORS
330
C3
102
}
330
48
100
AcDbEntity
  8
_U_30EC_U_30A4_U_30E4_U_30FC_1
  6
Continuous
 62
     2
100
AcDbSpline
210
0.0
220
0.0
230
1.0
 70
     8
 71
     3
 72
    62
 73
    58
 74
    56
 42
0.000000001
 43
0.0000000001
 44
0.00000001
 40
0.0
 40
0.0
 40
0.0
 40
0.0
 40
0.0598250028308769
 40
0.2024846486897616
 40
0.3727558389220746
 40
0.515415484793607
 40
0.5752404975785339
 40
0.9332326775487818
 40
1.29045176283951
 40
1.60207725314586
 40
1.699931634112038
 40
1.799359756424964
 40
2.270120149656945
 40
2.804661928461324
 40
2.882342287383032
 40
3.076543185718863
 40
3.329004354835303
 40
3.581465524568109
 40
3.775666424543377
 40
3.853346784557989
 40
3.899120679594763
 40
3.98412934179179
 40
4.029903236817167
 40
4.105797496059322
 40
4.295533144152274
 40
4.54218948661151
 40
4.788845828875451
 40
4.97858147640983
 40
5.054475735244071
 40
5.62173466433905
 40
6.130867242037079
 40
6.225249780948224
 40
6.318913039726935
 40
6.663579954558493
 40
7.047498900224372
 40
7.435230791575348
 40
7.49894390666776
 40
7.650875181209782
 40
7.832212509001321
 40
7.984143783696735
 40
8.047856898902891
 40
8.091554632732377
 40
8.172707566964002
 40
8.216405300767706
 40
8.28902178216059
 40
8.462184160756964
 40
8.668861838005045
 40
8.842024215263637
 40
8.914640695474832
 40
8.989881580861041
 40
9.155411528826962
 40
9.320941477743755
 40
9.396182352487012
 40
9.454709011143558
 40
9.583467660170493
 40
9.712226309012772
 40
9.770752957989226
 40
9.770752957989226
 40
9.770752957989226
 40
9.770752957989226
 10
187.1521871691834
 20
14.93980288195962
 30
0.0
 10
187.1322348171624
 20
14.93980875568684
 30
0.0
 10
187.0647037716466
 20
14.9398286380617
 30
0.0
 10
186.9410612161789
 20
14.93949362520337
 30
0.0
 10
186.7863180150057
 20
14.94107673750524
 30
0.0
 10
186.6697349482481
 20
14.93686078860507
 30
0.0
 10
186.4550942634241
 20
14.95215205331638
 30
0.0
 10
186.8518948407229
 20
14.59198721286201
 30
0.0
 10
186.8945656069268
 20
14.37510503397167
 30
0.0
 10
187.318916214661
 20
14.19325062511458
 30
0.0
 10
187.1439821496075
 20
14.08985196568074
 30
0.0
 10
187.0194523925082
 20
13.87831523212752
 30
0.0
 10
186.7666277235944
 20
14.34806081001557
 30
0.0
 10
186.4797602893624
 20
14.9951151698452
 30
0.0
 10
186.4906335926662
 20
14.68782672154696
 30
0.0
 10
186.488289277796
 20
14.52288616971782
 30
0.0
 10
186.4861096126412
 20
14.28879670711699
 30
0.0
 10
186.4980774396348
 20
14.04498072421791
 30
0.0
 10
186.4687984740631
 20
13.89855796860993
 30
0.0
 10
186.5114522625472
 20
13.75113490174548
 30
0.0
 10
186.4239814005639
 20
13.7668579730623
 30
0.0
 10
186.3768527606745
 20
13.76694303543465
 30
0.0
 10
186.2898973207712
 20
13.75109425482919
 30
0.0
 10
186.3313474021723
 20
13.89527771422772
 30
0.0
 10
186.3029875004284
 20
14.03855052698464
 30
0.0
 10
186.31459737753
 20
14.27674947365273
 30
0.0
 10
186.3124175648272
 20
14.50517235240354
 30
0.0
 10
186.3103111127993
 20
14.66705729376002
 30
0.0
 10
186.3208035438324
 20
14.98153709333758
 30
0.0
 10
186.0128963252894
 20
14.29229470872447
 30
0.0
 10
185.7055258267454
 20
13.81476750243055
 30
0.0
 10
185.5851367066275
 20
14.03741112637437
 30
0.0
 10
185.4074607910723
 20
14.15011034955574
 30
0.0
 10
185.8853326362895
 20
14.32548143465473
 30
0.0
 10
185.9353959057207
 20
14.56091929252041
 30
0.0
 10
186.3583799621719
 20
14.9532298934462
 30
0.0
 10
186.1276754273541
 20
14.93655307029077
 30
0.0
 10
186.0049685859342
 20
14.94269518948783
 30
0.0
 10
185.8325483095662
 20
14.93312822699585
 30
0.0
 10
185.7213224694449
 20
14.95448818489679
 30
0.0
 10
185.6025779627448
 20
14.92136265357431
 30
0.0
 10
185.6183169706686
 20
15.00203900606893
 30
0.0
 10
185.6178550933762
 20
15.04645414290861
 30
0.0
 10
185.6027881889931
 20
15.12967081778538
 30
0.0
 10
185.7372380935443
 20
15.09062651983887
 30
0.0
 10
185.8619755545747
 20
15.11739729328427
 30
0.0
 10
186.062875523728
 20
15.10063949044057
 30
0.0
 10
186.1921540949352
 20
15.12204225913008
 30
0.0
 10
186.3328419928295
 20
15.08868778853426
 30
0.0
 10
186.2980927452614
 20
15.22651875785073
 30
0.0
 10
186.3222185666713
 20
15.34963257349487
 30
0.0
 10
186.2967086182392
 20
15.47024055670343
 30
0.0
 10
186.3333251146685
 20
15.60539865141503
 30
0.0
 10
186.2211417027769
 20
15.58094545781899
 30
0.0
 10
186.1280356457136
 20
15.5930774984203
 30
0.0
 10
186.0191547579819
 20
15.58957630070001
 30
0.0
 10
185.9569697640964
 20
15.58981755951611
 30
0.0
 10
185.9375369557246
 20
15.58989295124152
 30
0.0
 11
187.1521871691834
 21
14.93980288195962
 31
0.0
 11
187.0923621563983
 21
14.93980288195962
 31
0.0
 11
186.949702510526
 21
14.93980288195962
 31
0.0
 11
186.7794313202915
 21
14.93980288195962
 31
0.0
 11
186.6367716744192
 21
14.93980288195962
 31
0.0
 11
186.5769466616341
 21
14.93980288195962
 31
0.0
 11
186.7679960754843
 21
14.63705127966896
 31
0.0
 11
186.994127278563
 21
14.36051890576688
 31
0.0
 11
187.2244526173371
 21
14.15061253493462
 31
0.0
 11
187.1521596330705
 21
14.08466403668723
 31
0.0
 11
187.0879364402643
 21
14.00876059052573
 31
0.0
 11
186.7732818215558
 21
14.35891458349368
 31
0.0
 11
186.4886640249977
 21
14.81138295143602
 31
0.0
 11
186.4886640249977
 21
14.73370259137314
 31
0.0
 11
186.4886640249977
 21
14.53950169121596
 31
0.0
 11
186.4886640249977
 21
14.28704052101162
 31
0.0
 11
186.4886640249977
 21
14.03457935080728
 31
0.0
 11
186.4886640249977
 21
13.84037845065009
 31
0.0
 11
186.4886640249977
 21
13.76269809058722
 31
0.0
 11
186.4428901295606
 21
13.76269809058722
 31
0.0
 11
186.3578814666058
 21
13.76269809058722
 31
0.0
 11
186.3121075711687
 21
13.76269809058722
 31
0.0
 11
186.3121075711687
 21
13.8385923498275
 31
0.0
 11
186.3121075711687
 21
14.0283279979282
 31
0.0
 11
186.3121075711687
 21
14.27498434045912
 31
0.0
 11
186.3121075711687
 21
14.52164068299004
 31
0.0
 11
186.3121075711687
 21
14.71137633109074
 31
0.0
 11
186.3121075711687
 21
14.78727059033102
 31
0.0
 11
185.9987626399267
 21
14.31440946197703
 31
0.0
 11
185.6352328662148
 21
13.95795177109392
 31
0.0
 11
185.5773927461628
 21
14.03253450545028
 31
0.0
 11
185.5094852305342
 21
14.09704322939251
 31
0.0
 11
185.7750721898319
 21
14.31672219795899
 31
0.0
 11
186.0233764972062
 21
14.60953395971708
 31
0.0
 11
186.2264982805261
 21
14.93980288195962
 31
0.0
 11
186.1627851652722
 21
14.93980288195962
 31
0.0
 11
186.010853890436
 21
14.93980288195962
 31
0.0
 11
185.8295165624056
 21
14.93980288195962
 31
0.0
 11
185.6775852875693
 21
14.93980288195962
 31
0.0
 11
185.6138721723154
 21
14.93980288195962
 31
0.0
 11
185.6138721723154
 21
14.98350061600218
 31
0.0
 11
185.6138721723154
 21
15.06465355065266
 31
0.0
 11
185.6138721723154
 21
15.10835128469522
 31
0.0
 11
185.6864886537961
 21
15.10835128469522
 31
0.0
 11
185.8596510327118
 21
15.10835128469522
 31
0.0
 11
186.0663287107723
 21
15.10835128469522
 31
0.0
 11
186.239491089688
 21
15.10835128469522
 31
0.0
 11
186.3121075711687
 21
15.10835128469522
 31
0.0
 11
186.3121075711687
 21
15.18359217009308
 31
0.0
 11
186.3121075711687
 21
15.34912211796837
 31
0.0
 11
186.3121075711687
 21
15.51465206584366
 31
0.0
 11
186.3121075711687
 21
15.58989295124152
 31
0.0
 11
186.2535809125055
 21
15.58989295124152
 31
0.0
 11
186.1248222634467
 21
15.58989295124152
 31
0.0
 11
185.9960636143877
 21
15.58989295124152
 31
0.0
 11
185.9375369557246
 21
15.58989295124152
 31
0.0
  0
SPLINE
  5
A7
102
{ACAD_REACTORS
330
C4
102
}
330
48
100
AcDbEntity
  8
_U_30EC_U_30A4_U_30E4_U_30FC_1
  6
Continuous
 62
     2
100
AcDbSpline
210
0.0
220
0.0
230
1.0
 70
    11
 71
     3
 72
   124
 73
   120
 74
   118
 42
0.000000001
 43
0.0000000001
 44
0.00000001
 40
0.0
 40
0.0
 40
0.0
 40
0.0
 40
0.027818722962451
 40
0.1011590162384269
 40
0.2048470170590523
 40
0.3237088716559245
 40
0.4425707262522284
 40
0.5462587270700116
 40
0.6195990203312934
 40
0.6474177522579513
 40
0.6750060736116095
 40
0.7357003855243665
 40
0.7963946998055398
 40
0.8239830245572726
 40
0.8540933811104103
 40
0.9373396629410216
 40
1.063094687343359
 40
1.220731268638197
 40
1.399622220914872
 40
1.589140358637857
 40
1.778658496424023
 40
1.95754944894069
 40
2.11518603087334
 40
2.240941056914616
 40
2.324187341760713
 40
2.354297700109563
 40
2.381886024672071
 40
2.442580338710662
 40
2.503274652750691
 40
2.530862977314798
 40
2.560983949278751
 40
2.640393784453097
 40
2.75266286175932
 40
2.881361560118337
 40
3.010060258455383
 40
3.122329335705531
 40
3.201739170818144
 40
3.231860142753505
 40
3.26429802403056
 40
3.352343701778428
 40
3.482095226868947
 40
3.639650650173203
 40
3.811108022565654
 40
3.982565394928156
 40
4.140120818152734
 40
4.269872343141439
 40
4.3579180208025
 40
4.390355902044127
 40
4.423256253992697
 40
4.508104530073218
 40
4.624121560636985
 40
4.750528176031742
 40
4.866545206602189
 40
4.951393482692146
 40
4.984293834645547
 40
5.011450833242464
 40
5.071196230152247
 40
5.130941627057324
 40
5.15809862564899
 40
5.190998977601681
 40
5.275847253689506
 40
5.391864284256941
 40
5.518270899648486
 40
5.634287930209525
 40
5.719136206288199
 40
5.752036558236086
 40
5.782130946283112
 40
5.862783906229288
 40
5.979550131775166
 40
6.117984316640576
 40
6.263641154588126
 40
6.402075339414339
 40
6.518841564908139
 40
6.599494524815728
 40
6.629588912848965
 40
6.654403028226542
 40
6.713575149488338
 40
6.784199939329713
 40
6.843372060493816
 40
6.868186175803062
 40
6.89624624320209
 40
6.939586233758588
 40
6.967846564565219
 40
7.043584251090161
 40
7.153234334452028
 40
7.283231855734789
 40
7.420011856035831
 40
7.550009376580192
 40
7.659659458835604
 40
7.7353971444176
 40
7.763657474851774
 40
7.796409728011431
 40
7.880876065096706
 40
7.996370852466091
 40
8.122208446418986
 40
8.23770322479958
 40
8.322169562011274
 40
8.354921815206287
 40
8.38207881330807
 40
8.441824209207374
 40
8.501569605240524
 40
8.528726603486103
 40
8.561478856696151
 40
8.645945193878202
 40
8.761439980865713
 40
8.887277580764856
 40
9.002772362001377
 40
9.087238696661597
 40
9.119990949236051
 40
9.152428830613749
 40
9.240474508638963
 40
9.37022603414991
 40
9.527781457984785
 40
9.699238830981773
 40
9.870696203978959
 40
10.02825162781438
 40
10.15800315332599
 40
10.24604883135154
 40
10.27848670378556
 40
10.27848670378556
 40
10.27848670378556
 40
10.27848670378556
 10
195.3821827564383
 20
14.01410517385762
 30
0.0
 10
195.3914554737523
 20
14.01410498511279
 30
0.0
 10
195.425174453686
 20
14.01410430876719
 30
0.0
 10
195.4934706812465
 20
14.01411807243309
 30
0.0
 10
195.592014171158
 20
14.0140322421955
 30
0.0
 10
195.7062066464812
 20
14.01441755612255
 30
0.0
 10
195.8185894417071
 20
14.0130083589755
 30
0.0
 10
195.9214376600119
 20
14.01719117422248
 30
0.0
 10
195.980683987485
 20
14.00823089251988
 30
0.0
 10
196.0371265937034
 20
14.02164434526065
 30
0.0
 10
196.0246255586956
 20
13.97087198613366
 30
0.0
 10
196.0329549635704
 20
13.92589320939071
 30
0.0
 10
196.024817084112
 20
13.88056752990492
 30
0.0
 10
196.0370529214458
 20
13.82931932408469
 30
0.0
 10
195.9747773490333
 20
13.8444795536528
 30
0.0
 10
195.9060513026869
 20
13.83359750710747
 30
0.0
 10
195.7782756749592
 20
13.83911304747976
 30
0.0
 10
195.6262984511643
 20
13.83700851253702
 30
0.0
 10
195.4502695972523
 20
13.83771002588477
 30
0.0
 10
195.2644431934287
 20
13.83745237531295
 30
0.0
 10
195.0786167437175
 20
13.83771005144607
 30
0.0
 10
194.9025880142169
 20
13.83700841847735
 30
0.0
 10
194.7506104154194
 20
13.83911332229992
 30
0.0
 10
194.6228357664555
 20
13.83359680767644
 30
0.0
 10
194.554107783658
 20
13.84448077125946
 30
0.0
 10
194.4918349042883
 20
13.82931786684213
 30
0.0
 10
194.5040616290017
 20
13.88057510805176
 30
0.0
 10
194.4960004462597
 20
13.9258247327243
 30
0.0
 10
194.5040675809892
 20
13.97106357955328
 30
0.0
 10
194.4918238487083
 20
14.02234176909963
 30
0.0
 10
194.5525017120698
 20
14.0074957736314
 30
0.0
 10
194.6162810745736
 20
14.01756448170739
 30
0.0
 10
194.7277314353502
 20
14.01294644212004
 30
0.0
 10
194.8497533443824
 20
14.01413328905473
 30
0.0
 10
194.9719538137823
 20
14.0151586390064
 30
0.0
 10
195.0829794287392
 20
14.01092475623406
 30
0.0
 10
195.1476517413959
 20
14.02018584521744
 30
0.0
 10
195.2091162810501
 20
14.00604423049687
 30
0.0
 10
195.1930065601337
 20
14.07235527884522
 30
0.0
 10
195.2042980327358
 20
14.1444779012198
 30
0.0
 10
195.1987400822561
 20
14.27513760888291
 30
0.0
 10
195.2008035061689
 20
14.42607323708244
 30
0.0
 10
195.2000167127296
 20
14.59335873107889
 30
0.0
 10
195.2007845215627
 20
14.76061110332305
 30
0.0
 10
195.1988038785628
 20
14.91163289269917
 30
0.0
 10
195.2041306156621
 20
15.04206069552997
 30
0.0
 10
195.1933101388425
 20
15.11465442605902
 30
0.0
 10
195.2090326429875
 20
15.18150469436799
 30
0.0
 10
195.143270813249
 20
15.16580512490827
 30
0.0
 10
195.0756367830763
 20
15.17609243083997
 30
0.0
 10
194.9615885293809
 20
15.17113786847124
 30
0.0
 10
194.8451242674902
 20
15.17414128030476
 30
0.0
 10
194.7306554121477
 20
15.16880303143391
 30
0.0
 10
194.6640324657812
 20
15.18001268074827
 30
0.0
 10
194.5990769715185
 20
15.16349132665013
 30
0.0
 10
194.6107989758708
 20
15.21473720477061
 30
0.0
 10
194.6032830189121
 20
15.25950333784092
 30
0.0
 10
194.6107989878835
 20
15.30426944897963
 30
0.0
 10
194.5990769505347
 20
15.35551536129743
 30
0.0
 10
194.66403263392
 20
15.33899381766817
 30
0.0
 10
194.7306533339821
 20
15.35020571373946
 30
0.0
 10
194.8451352858063
 20
15.34485436710666
 30
0.0
 10
194.9615454436962
 20
15.3479118877112
 30
0.0
 10
195.0757660174641
 20
15.3427849901071
 30
0.0
 10
195.1430150439227
 20
15.353457333556
 30
0.0
 10
195.2083325941438
 20
15.33742082669079
 30
0.0
 10
195.1941391448553
 20
15.39949685750056
 30
0.0
 10
195.2036059462995
 20
15.46586761628766
 30
0.0
 10
195.1990269004085
 20
15.58239972741968
 30
0.0
 10
195.2007696555948
 20
15.7142668502238
 30
0.0
 10
195.199755149539
 20
15.85615960150277
 30
0.0
 10
195.2017191344373
 20
15.98769050702586
 30
0.0
 10
195.196466855385
 20
16.10524577283007
 30
0.0
 10
195.2073408763475
 20
16.1694778900159
 30
0.0
 10
195.1919536641853
 20
16.23108802545053
 30
0.0
 10
195.24075915378
 20
16.21702407382116
 30
0.0
 10
195.2853995564726
 20
16.21954742075318
 30
0.0
 10
195.3538643946743
 20
16.21512797401713
 30
0.0
 10
195.3959106169103
 20
16.20613025544037
 30
0.0
 10
195.4487544758776
 20
16.21411714866513
 30
0.0
 10
195.4207035002014
 20
16.17113917611674
 30
0.0
 10
195.3749142248594
 20
16.1825955204385
 30
0.0
 10
195.3869539073265
 20
16.12173520005144
 30
0.0
 10
195.3796086070641
 20
16.05769299468781
 30
0.0
 10
195.3831195826161
 20
15.94909368863918
 30
0.0
 10
195.3819806760173
 20
15.82494319144758
 30
0.0
 10
195.3819174780263
 20
15.69189719829883
 30
0.0
 10
195.3832872966868
 20
15.56797381249559
 30
0.0
 10
195.3791638801313
 20
15.45868337849341
 30
0.0
 10
195.3877763103564
 20
15.39608580094172
 30
0.0
 10
195.3746757454401
 20
15.33740133296367
 30
0.0
 10
195.4393884328198
 20
15.35362113810904
 30
0.0
 10
195.5060405953156
 20
15.34270260383313
 30
0.0
 10
195.6198779541102
 20
15.34793740173757
 30
0.0
 10
195.7357259122097
 20
15.34485547516916
 30
0.0
 10
195.849692426328
 20
15.35018259812513
 30
0.0
 10
195.9160341018099
 20
15.33904208166545
 30
0.0
 10
195.980718852548
 20
15.3554697959318
 30
0.0
 10
195.9689820772722
 20
15.30425925210052
 30
0.0
 10
195.9765168063041
 20
15.25950334121003
 30
0.0
 10
195.9689820992257
 20
15.21474739010029
 30
0.0
 10
195.9807188140737
 20
15.16353690871042
 30
0.0
 10
195.9160344075252
 20
15.17996427794222
 30
0.0
 10
195.8496886430824
 20
15.16882784447271
 30
0.0
 10
195.7357459487012
 20
15.17413115893122
 30
0.0
 10
195.6197995623054
 20
15.17114764593546
 30
0.0
 10
195.5062756882122
 20
15.17606892268395
 30
0.0
 10
195.4389231318804
 20
15.16585087513521
 30
0.0
 10
195.3734285122495
 20
15.18145996138818
 30
0.0
 10
195.3891713619218
 20
15.11463851827413
 30
0.0
 10
195.3783275998211
 20
15.0420705781588
 30
0.0
 10
195.3836581629793
 20
14.91162247614419
 30
0.0
 10
195.3817136151854
 20
14.76064558185228
 30
0.0
 10
195.3823133683215
 20
14.59322243934162
 30
0.0
 10
195.3821506559605
 20
14.42656176118376
 30
0.0
 10
195.3821895488135
 20
14.2736014292164
 30
0.0
 10
195.38218164131
 20
14.1484917898571
 30
0.0
 10
195.3821828382745
 20
14.06507890991424
 30
0.0
 10
195.3821827716208
 20
14.02491778281981
 30
0.0
 10
195.3821827564383
 20
14.01410517385762
 30
0.0
 11
195.3821827564383
 21
14.01410517385762
 31
0.0
 11
195.4100014883675
 21
14.01410517385762
 31
0.0
 11
195.4833417816353
 21
14.01410517385762
 31
0.0
 11
195.5870297824623
 21
14.01410517385762
 31
0.0
 11
195.7058916370687
 21
14.01410517385762
 31
0.0
 11
195.8247534916752
 21
14.01410517385762
 31
0.0
 11
195.9284414925021
 21
14.01410517385762
 31
0.0
 11
196.0017817857699
 21
14.01410517385762
 31
0.0
 11
196.0296005176991
 21
14.01410517385762
 31
0.0
 11
196.0296005176991
 21
13.98651684921174
 31
0.0
 11
196.0296005176991
 21
13.92582253499081
 31
0.0
 11
196.0296005176991
 21
13.86512822076989
 31
0.0
 11
196.0296005176991
 21
13.83753989612401
 31
0.0
 11
195.9994901593494
 21
13.83753989612401
 31
0.0
 11
195.9162438745005
 21
13.83753989612401
 31
0.0
 11
195.7904888484522
 21
13.83753989612401
 31
0.0
 11
195.6328522665042
 21
13.83753989612401
 31
0.0
 11
195.4539613139565
 21
13.83753989612401
 31
0.0
 11
195.2644431761089
 21
13.83753989612401
 31
0.0
 11
195.0749250382613
 21
13.83753989612401
 31
0.0
 11
194.8960340857136
 21
13.83753989612401
 31
0.0
 11
194.7383975037656
 21
13.83753989612401
 31
0.0
 11
194.6126424777173
 21
13.83753989612401
 31
0.0
 11
194.5293961928683
 21
13.83753989612401
 31
0.0
 11
194.4992858345187
 21
13.83753989612401
 31
0.0
 11
194.4992858345187
 21
13.86512822076989
 31
0.0
 11
194.4992858345187
 21
13.92582253499081
 31
0.0
 11
194.4992858345187
 21
13.98651684921175
 31
0.0
 11
194.4992858345187
 21
14.01410517385762
 31
0.0
 11
194.5294068064947
 21
14.01410517385762
 31
0.0
 11
194.608816641704
 21
14.01410517385762
 31
0.0
 11
194.721085719069
 21
14.01410517385762
 31
0.0
 11
194.8497844175118
 21
14.01410517385762
 31
0.0
 11
194.9784831159545
 21
14.01410517385762
 31
0.0
 11
195.0907521933195
 21
14.01410517385762
 31
0.0
 11
195.1701620285289
 21
14.01410517385762
 31
0.0
 11
195.2002830005048
 21
14.01410517385762
 31
0.0
 11
195.2002830005048
 21
14.0465430552384
 31
0.0
 11
195.2002830005048
 21
14.13458873327195
 31
0.0
 11
195.2002830005048
 21
14.26434025879507
 31
0.0
 11
195.2002830005048
 21
14.42189568264457
 31
0.0
 11
195.2002830005048
 21
14.59335305565727
 31
0.0
 11
195.2002830005048
 21
14.76481042866997
 31
0.0
 11
195.2002830005048
 21
14.92236585251947
 31
0.0
 11
195.2002830005048
 21
15.05211737804259
 31
0.0
 11
195.2002830005048
 21
15.14016305607614
 31
0.0
 11
195.2002830005048
 21
15.17260093745692
 31
0.0
 11
195.1673826485529
 21
15.17260093745692
 31
0.0
 11
195.0825343724662
 21
15.17260093745692
 31
0.0
 11
194.9665173418988
 21
15.17260093745692
 31
0.0
 11
194.8401107265044
 21
15.17260093745692
 31
0.0
 11
194.724093695937
 21
15.17260093745692
 31
0.0
 11
194.6392454198503
 21
15.17260093745692
 31
0.0
 11
194.6063450678984
 21
15.17260093745692
 31
0.0
 11
194.6063450678984
 21
15.19975793614805
 31
0.0
 11
194.6063450678984
 21
15.25950333326852
 31
0.0
 11
194.6063450678984
 21
15.319248730389
 31
0.0
 11
194.6063450678984
 21
15.34640572908012
 31
0.0
 11
194.6392454198504
 21
15.34640572908012
 31
0.0
 11
194.724093695937
 21
15.34640572908012
 31
0.0
 11
194.8401107265044
 21
15.34640572908012
 31
0.0
 11
194.9665173418988
 21
15.34640572908012
 31
0.0
 11
195.0825343724662
 21
15.34640572908012
 31
0.0
 11
195.1673826485529
 21
15.34640572908012
 31
0.0
 11
195.2002830005048
 21
15.34640572908012
 31
0.0
 11
195.2002830005048
 21
15.37650011731372
 31
0.0
 11
195.2002830005048
 21
15.45715307777976
 31
0.0
 11
195.2002830005048
 21
15.57391930412612
 31
0.0
 11
195.2002830005048
 21
15.71235349000067
 31
0.0
 11
195.2002830005048
 21
15.85801032905128
 31
0.0
 11
195.2002830005048
 21
15.99644451492583
 31
0.0
 11
195.2002830005048
 21
16.11321074127219
 31
0.0
 11
195.2002830005048
 21
16.19386370173823
 31
0.0
 11
195.2002830005048
 21
16.22395808997183
 31
0.0
 11
195.2250405288618
 21
16.22228324219447
 31
0.0
 11
195.284077711867
 21
16.2182893744177
 31
0.0
 11
195.3545414464215
 21
16.21352249997445
 31
0.0
 11
195.4135786294266
 21
16.20952863219767
 31
0.0
 11
195.4383361577836
 21
16.20785378442031
 31
0.0
 11
195.4233067224031
 21
16.18415814206516
 31
0.0
 11
195.3821827564383
 21
16.17047697887412
 31
0.0
 11
195.3821827564383
 21
16.1422166479484
 31
0.0
 11
195.3821827564383
 21
16.06647896106747
 31
0.0
 11
195.3821827564383
 21
15.95682887707568
 31
0.0
 11
195.3821827564383
 21
15.82683135481736
 31
0.0
 11
195.3821827564383
 21
15.69005135313688
 31
0.0
 11
195.3821827564383
 21
15.56005383087857
 31
0.0
 11
195.3821827564383
 21
15.45040374688677
 31
0.0
 11
195.3821827564383
 21
15.37466606000584
 31
0.0
 11
195.3821827564383
 21
15.34640572908012
 31
0.0
 11
195.4149350096115
 21
15.34640572908012
 31
0.0
 11
195.4994013467422
 21
15.34640572908012
 31
0.0
 11
195.6148961342476
 21
15.34640572908012
 31
0.0
 11
195.7407337385445
 21
15.34640572908012
 31
0.0
 11
195.8562285260498
 21
15.34640572908012
 31
0.0
 11
195.9406948631806
 21
15.34640572908012
 31
0.0
 11
195.9734471163538
 21
15.34640572908012
 31
0.0
 11
195.9734471163538
 21
15.31924873038899
 31
0.0
 11
195.9734471163538
 21
15.25950333326852
 31
0.0
 11
195.9734471163538
 21
15.19975793614804
 31
0.0
 11
195.9734471163538
 21
15.17260093745692
 31
0.0
 11
195.9406948631806
 21
15.17260093745692
 31
0.0
 11
195.8562285260498
 21
15.17260093745692
 31
0.0
 11
195.7407337385445
 21
15.17260093745692
 31
0.0
 11
195.6148961342476
 21
15.17260093745692
 31
0.0
 11
195.4994013467422
 21
15.17260093745692
 31
0.0
 11
195.4149350096114
 21
15.17260093745692
 31
0.0
 11
195.3821827564383
 21
15.17260093745692
 31
0.0
 11
195.3821827564383
 21
15.14016305607614
 31
0.0
 11
195.3821827564383
 21
15.05211737804259
 31
0.0
 11
195.3821827564383
 21
14.92236585251947
 31
0.0
 11
195.3821827564383
 21
14.76481042866997
 31
0.0
 11
195.3821827564383
 21
14.59335305565727
 31
0.0
 11
195.3821827564383
 21
14.42189568264457
 31
0.0
 11
195.3821827564383
 21
14.26434025879507
 31
0.0
 11
195.3821827564383
 21
14.13458873327195
 31
0.0
 11
195.3821827564383
 21
14.0465430552384
 31
0.0
 11
195.3821827564383
 21
14.01410517385762
 31
0.0
  0
SPLINE
  5
A8
102
{ACAD_REACTORS
330
C5
102
}
330
48
100
AcDbEntity
  8
_U_30EC_U_30A4_U_30E4_U_30FC_1
  6
Continuous
 62
     2
100
AcDbSpline
210
0.0
220
0.0
230
1.0
 70
    11
 71
     3
 72
   131
 73
   127
 74
   125
 42
0.000000001
 43
0.0000000001
 44
0.00000001
 40
0.0
 40
0.0
 40
0.0
 40
0.0
 40
0.0195577029825932
 40
0.0426490537460395
 40
0.2863607575855883
 40
0.5344948436188772
 40
0.7842238845572979
 40
0.8737315789467308
 40
0.9803832810312985
 40
1.092842274517064
 40
1.199761146656796
 40
1.289788768186497
 40
1.351573580786136
 40
1.37072711756136
 40
1.416400936017753
 40
1.470914848355859
 40
1.516588666791627
 40
1.535742203552706
 40
1.634216592293043
 40
1.760283341174846
 40
1.897966686681966
 40
2.031216387368767
 40
2.049689751137761
 40
2.101115601646693
 40
2.179502577739807
 40
2.278859318313918
 40
2.393194462258569
 40
2.516516648383677
 40
2.642834515405797
 40
2.766156701983297
 40
2.880491846754406
 40
2.979848588358442
 40
3.058235565443615
 40
3.109661416668768
 40
3.128134780703943
 40
3.14678374238626
 40
3.191254343315121
 40
3.24433215731578
 40
3.288802758225655
 40
3.307451719894926
 40
3.327717853844538
 40
3.383747753579895
 40
3.46838866592428
 40
3.574487837698578
 40
3.694892515728675
 40
3.822449946851805
 40
3.950007377920187
 40
4.070412055800267
 40
4.176511227367815
 40
4.261152139501258
 40
4.317182039076446
 40
4.337448172964365
 40
4.620011002695946
 40
4.885096638397266
 40
4.945373043517994
 40
5.01410771048831
 40
5.070481727651755
 40
5.319246955636287
 40
5.584812164505819
 40
5.859000912056681
 40
6.13374693754184
 40
6.401732212968652
 40
6.420736683995271
 40
6.472845717450836
 40
6.550702743893821
 40
6.646951193874029
 40
6.754234497930325
 40
6.865196086587103
 40
6.972479390357561
 40
7.068727839771723
 40
7.146584865450732
 40
7.198693898188962
 40
7.217698368905102
 40
7.234950401630584
 40
7.276089864269629
 40
7.325191803515741
 40
7.366331266090128
 40
7.383583298769482
 40
7.402779163491887
 40
7.453386443254262
 40
7.524934666445292
 40
7.606953361405603
 40
7.688972056428783
 40
7.760520279783977
 40
7.811127559734247
 40
7.830323424545869
 40
7.8478440552995
 40
7.894799345666545
 40
7.962779392744238
 40
8.043374293560294
 40
8.128174145149211
 40
8.208769044817023
 40
8.27674909037673
 40
8.323704379669296
 40
8.34122501005603
 40
8.358497614800179
 40
8.401679126686357
 40
8.457815092185417
 40
8.513951057727823
 40
8.557132569707724
 40
8.574405174504767
 40
8.602340668616028
 40
8.643455660539558
 40
8.663225271966226
 40
8.715345156563878
 40
8.789031889628216
 40
8.873502045519952
 40
8.957972194323585
 40
9.03165892556748
 40
9.083778811234172
 40
9.103548423002636
 40
9.119550083123201
 40
9.160817522379475
 40
9.217244429109869
 40
9.278724491644354
 40
9.33515139829511
 40
9.376418837357406
 40
9.392420497300193
 40
9.401196302734386
 40
9.417494229383808
 40
9.42627002774908
 40
9.440875075477113
 40
9.475702496998295
 40
9.517270709865462
 40
9.552098131993633
 40
9.566703169883843
 40
9.566703169883843
 40
9.566703169883843
 40
9.566703169883843
 10
194.6170254148479
 20
15.67015871511032
 30
0.0
 10
194.6134345093371
 20
15.66453690702166
 30
0.0
 10
194.6056039123624
 20
15.65227754419123
 30
0.0
 10
194.5129968974552
 20
15.61601916040942
 30
0.0
 10
194.4887622233247
 20
15.40148444212731
 30
0.0
 10
194.3858709845939
 20
15.22197284509705
 30
0.0
 10
194.1220492364305
 20
15.03615573798146
 30
0.0
 10
194.2845471569181
 20
14.95959336566085
 30
0.0
 10
194.3607225760838
 20
14.89856693195446
 30
0.0
 10
194.4492171072759
 20
14.83515804544766
 30
0.0
 10
194.5389930233111
 20
14.77525634219565
 30
0.0
 10
194.5883817636047
 20
14.72102154849217
 30
0.0
 10
194.6745708157382
 20
14.6928624054184
 30
0.0
 10
194.6411260674229
 20
14.6571330965282
 30
0.0
 10
194.6214671166312
 20
14.62550387991915
 30
0.0
 10
194.5919888217882
 20
14.58475872796078
 30
0.0
 10
194.5688989446033
 20
14.55504663489653
 30
0.0
 10
194.5380205968357
 20
14.50211422668504
 30
0.0
 10
194.4729193365741
 20
14.62740334938908
 30
0.0
 10
194.3796000122417
 20
14.68213900233944
 30
0.0
 10
194.2950636285139
 20
14.73916423939343
 30
0.0
 10
194.1722498125741
 20
14.89675287427526
 30
0.0
 10
194.1764450847302
 20
14.82035806766842
 30
0.0
 10
194.1751478652678
 20
14.77361280161301
 30
0.0
 10
194.1758126448077
 20
14.69584785812606
 30
0.0
 10
194.1755549986959
 20
14.59902068324429
 30
0.0
 10
194.1756431239922
 20
14.48650279078816
 30
0.0
 10
194.1756077302282
 20
14.36524085945707
 30
0.0
 10
194.175651175828
 20
14.24086897858969
 30
0.0
 10
194.1755199942407
 20
14.11967683631345
 30
0.0
 10
194.1759477562047
 20
14.00691148919752
 30
0.0
 10
194.1746678202312
 20
13.91082913768754
 30
0.0
 10
194.1779759851044
 20
13.83113826468709
 30
0.0
 10
194.1715197740087
 20
13.78815175788794
 30
0.0
 10
194.1806208705557
 20
13.74955432372053
 30
0.0
 10
194.1447910339936
 20
13.7581088772408
 30
0.0
 10
194.1115223815253
 20
13.75342519985456
 30
0.0
 10
194.0604562576042
 20
13.75351298759794
 30
0.0
 10
194.0269723972814
 20
13.75794430283831
 30
0.0
 10
193.9907585408754
 20
13.74960793842519
 30
0.0
 10
194.0009782568666
 20
13.79145277179294
 30
0.0
 10
193.9936487887774
 20
13.83778560820183
 30
0.0
 10
193.9973633136103
 20
13.92374831106023
 30
0.0
 10
193.9959480554897
 20
14.02605142704857
 30
0.0
 10
193.9964105554639
 20
14.14453223931519
 30
0.0
 10
193.9962773686231
 20
14.26957683153362
 30
0.0
 10
193.9963015910046
 20
14.39475828107055
 30
0.0
 10
193.9963354925552
 20
14.51286645379063
 30
0.0
 10
193.9962060293133
 20
14.6162874870952
 30
0.0
 10
193.9965507549081
 20
14.6993203615367
 30
0.0
 10
193.9958698278691
 20
14.75143368521246
 30
0.0
 10
193.9994586600623
 20
14.87912907821364
 30
0.0
 10
193.7826171386437
 20
14.58048716819618
 30
0.0
 10
193.6021354921952
 20
14.35263981511523
 30
0.0
 10
193.5490322295611
 20
14.49373443289822
 30
0.0
 10
193.5200429133149
 20
14.54325767560949
 30
0.0
 10
193.4196648062819
 20
14.64641779790107
 30
0.0
 10
193.7405127723261
 20
14.7269503502379
 30
0.0
 10
193.868989700543
 20
14.91066283036438
 30
0.0
 10
194.090645432536
 20
15.11931995771766
 30
0.0
 10
194.177022489407
 20
15.29339211228349
 30
0.0
 10
194.4549394229075
 20
15.5696705134252
 30
0.0
 10
194.3346247839285
 20
15.56534559551119
 30
0.0
 10
194.286319735135
 20
15.56614856202559
 30
0.0
 10
194.2102377454905
 20
15.5657458214659
 30
0.0
 10
194.1167010009752
 20
15.56590275611615
 30
0.0
 10
194.0117594788557
 20
15.56582502576229
 30
0.0
 10
193.9033887738719
 20
15.56595464378561
 30
0.0
 10
193.7981454235898
 20
15.56554393490698
 30
0.0
 10
193.7056237819414
 20
15.56682073671597
 30
0.0
 10
193.6268130800709
 20
15.56340766534856
 30
0.0
 10
193.583967456538
 20
15.57023350036325
 30
0.0
 10
193.5449499586516
 20
15.56065064201129
 30
0.0
 10
193.5526365271865
 20
15.59420779565548
 30
0.0
 10
193.5485464404314
 20
15.62523550322239
 30
0.0
 10
193.5485531368815
 20
15.67236529270906
 30
0.0
 10
193.5526239724912
 20
15.70340941646785
 30
0.0
 10
193.5449495574584
 20
15.73701861635909
 30
0.0
 10
193.5834819405496
 20
15.72748410420879
 30
0.0
 10
193.624122801448
 20
15.73397435498078
 30
0.0
 10
193.6951471850464
 20
15.73100150650261
 30
0.0
 10
193.7729318149634
 20
15.73174761399164
 30
0.0
 10
193.8507292246476
 20
15.73247814044533
 30
0.0
 10
193.9217232089908
 20
15.72954235514167
 30
0.0
 10
193.9624279791821
 20
15.73595468772959
 30
0.0
 10
194.000985348991
 20
15.72650524176011
 30
0.0
 10
193.9927342754929
 20
15.76264692158792
 30
0.0
 10
193.9982346669358
 20
15.80129837613234
 30
0.0
 10
193.9955754206164
 20
15.86913528561847
 30
0.0
 10
193.9965815471534
 20
15.94591641538748
 30
0.0
 10
193.996017801832
 20
16.02849393582767
 30
0.0
 10
193.9970714526594
 20
16.10517329229889
 30
0.0
 10
193.9942675863131
 20
16.17331990776711
 30
0.0
 10
194.0000702721305
 20
16.21132399809358
 30
0.0
 10
193.9915654551159
 20
16.24758448077658
 30
0.0
 10
194.0255610233125
 20
16.23755723771862
 30
0.0
 10
194.05945756831
 20
16.24073266813715
 30
0.0
 10
194.1126669060347
 20
16.23508965640615
 30
0.0
 10
194.1660768574483
 20
16.23434774436429
 30
0.0
 10
194.1995914649491
 20
16.22819223482981
 30
0.0
 10
194.2388086183039
 20
16.23346029773593
 30
0.0
 10
194.2120263698492
 20
16.19253380793495
 30
0.0
 10
194.1708111001725
 20
16.20371204538121
 30
0.0
 10
194.1782641540875
 20
16.15867056192133
 30
0.0
 10
194.1742227952184
 20
16.11412278028153
 30
0.0
 10
194.1761714049641
 20
16.04223572621712
 30
0.0
 10
194.175236484976
 20
15.96168630588779
 30
0.0
 10
194.1765107190031
 20
15.88173995405003
 30
0.0
 10
194.1732043793864
 20
15.8084183708319
 30
0.0
 10
194.1802106179962
 20
15.76688643002575
 30
0.0
 10
194.1701440380126
 20
15.72752418568119
 30
0.0
 10
194.2029814803922
 20
15.73468063430988
 30
0.0
 10
194.2364577296481
 20
15.7302724313795
 30
0.0
 10
194.2915053476019
 20
15.73217943347904
 30
0.0
 10
194.3489502595316
 20
15.73185366407295
 30
0.0
 10
194.402302624831
 20
15.73106308733089
 30
0.0
 10
194.4398540896639
 20
15.73313959118081
 30
0.0
 10
194.4623172523238
 20
15.73022338167116
 30
0.0
 10
194.4751678073731
 20
15.73572552644063
 30
0.0
 10
194.4858255685888
 20
15.73801118197798
 30
0.0
 10
194.4986635650144
 20
15.74494972588059
 30
0.0
 10
194.5145991033071
 20
15.72853046313679
 30
0.0
 10
194.5410623920892
 20
15.71709122319455
 30
0.0
 10
194.5726805253757
 20
15.69644687835196
 30
0.0
 10
194.5987255892151
 20
15.681168696283
 30
0.0
 10
194.6128517723974
 20
15.67266976323188
 30
0.0
 10
194.6170254148479
 20
15.67015871511032
 30
0.0
 11
194.6170254148479
 21
15.67015871511032
 31
0.0
 11
194.6049990002243
 21
15.65473571164195
 31
0.0
 11
194.5848961795566
 21
15.64337406233922
 31
0.0
 11
194.4778986355814
 21
15.42440620231161
 31
0.0
 11
194.3477039934325
 21
15.21317201512162
 31
0.0
 11
194.1996540366071
 21
15.01206059027481
 31
0.0
 11
194.2734958253735
 21
14.96147384935382
 31
0.0
 11
194.36056643118
 21
14.89988411653744
 31
0.0
 11
194.4518003750405
 21
14.83413160594431
 31
0.0
 11
194.5381321779688
 21
14.7710565316931
 31
0.0
 11
194.6104963609788
 21
14.71749910790248
 31
0.0
 11
194.6598274450843
 21
14.68029954869112
 31
0.0
 11
194.6486940702213
 21
14.66471410869502
 31
0.0
 11
194.6221452532403
 21
14.62754882870432
 31
0.0
 11
194.5904579555534
 21
14.58319026871542
 31
0.0
 11
194.5639091385724
 21
14.54602498872472
 31
0.0
 11
194.5527757637094
 21
14.53043954872862
 31
0.0
 11
194.4807013362948
 21
14.59754008690625
 31
0.0
 11
194.3852856985382
 21
14.67993354174675
 31
0.0
 11
194.279326415217
 21
14.76785017366921
 31
0.0
 11
194.1756210511091
 21
14.85152024309272
 31
0.0
 11
194.1756210511091
 21
14.83304687900868
 31
0.0
 11
194.1756210511091
 21
14.78162102763961
 31
0.0
 11
194.1756210511091
 21
14.70323405031004
 31
0.0
 11
194.1756210511091
 21
14.60387730834455
 31
0.0
 11
194.1756210511091
 21
14.48954216306767
 31
0.0
 11
194.1756210511091
 21
14.36621997580396
 31
0.0
 11
194.1756210511091
 21
14.23990210787798
 31
0.0
 11
194.1756210511091
 21
14.11657992061427
 31
0.0
 11
194.1756210511091
 21
14.00224477533739
 31
0.0
 11
194.1756210511091
 21
13.9028880333719
 31
0.0
 11
194.1756210511091
 21
13.82450105604233
 31
0.0
 11
194.1756210511091
 21
13.77307520467326
 31
0.0
 11
194.1756210511091
 21
13.75460184058922
 31
0.0
 11
194.1569720893627
 21
13.75460184058922
 31
0.0
 11
194.112501488275
 21
13.75460184058922
 31
0.0
 11
194.0594236740737
 21
13.75460184058922
 31
0.0
 11
194.014953072986
 21
13.75460184058922
 31
0.0
 11
193.9963041112396
 21
13.75460184058922
 31
0.0
 11
193.9963041112396
 21
13.77486797460229
 31
0.0
 11
193.9963041112396
 21
13.83089787452076
 31
0.0
 11
193.9963041112396
 21
13.91553878716356
 31
0.0
 11
193.9963041112396
 21
14.02163795934961
 31
0.0
 11
193.9963041112396
 21
14.14204263789783
 31
0.0
 11
193.9963041112396
 21
14.26960006962712
 31
0.0
 11
193.9963041112396
 21
14.39715750135642
 31
0.0
 11
193.9963041112396
 21
14.51756217990463
 31
0.0
 11
193.9963041112396
 21
14.62366135209068
 31
0.0
 11
193.9963041112396
 21
14.70830226473348
 31
0.0
 11
193.9963041112396
 21
14.76433216465196
 31
0.0
 11
193.9963041112396
 21
14.78459829866502
 31
0.0
 11
193.7883272849482
 21
14.59331998274061
 31
0.0
 11
193.5763486358425
 21
14.43414885430822
 31
0.0
 11
193.5495629014483
 21
14.488146719521
 31
0.0
 11
193.5138765415025
 21
14.5468914057203
 31
0.0
 11
193.4799697494124
 21
14.59192871537982
 31
0.0
 11
193.6830287742319
 21
14.73563387201061
 31
0.0
 11
193.8818531958261
 21
14.91168423529995
 31
0.0
 11
194.0677041444179
 21
15.11327514524955
 31
0.0
 11
194.2318427502304
 21
15.33360194186114
 31
0.0
 11
194.3655301434865
 21
15.56585996513641
 31
0.0
 11
194.3465256724482
 21
15.56585996513641
 31
0.0
 11
194.2944166389563
 21
15.56585996513641
 31
0.0
 11
194.2165596124448
 21
15.56585996513641
 31
0.0
 11
194.1203111623479
 21
15.56585996513641
 31
0.0
 11
194.0130278580998
 21
15.56585996513641
 31
0.0
 11
193.9020662691346
 21
15.56585996513641
 31
0.0
 11
193.7947829648865
 21
15.56585996513641
 31
0.0
 11
193.6985345147896
 21
15.56585996513641
 31
0.0
 11
193.6206774882781
 21
15.56585996513641
 31
0.0
 11
193.5685684547861
 21
15.56585996513641
 31
0.0
 11
193.5495639837479
 21
15.56585996513641
 31
0.0
 11
193.5495639837479
 21
15.58311199790988
 31
0.0
 11
193.5495639837479
 21
15.62425146067738
 31
0.0
 11
193.5495639837479
 21
15.67335340010955
 31
0.0
 11
193.5495639837479
 21
15.71449286287705
 31
0.0
 11
193.5495639837479
 21
15.73174489565052
 31
0.0
 11
193.5687598486011
 21
15.73174489565052
 31
0.0
 11
193.6193671286684
 21
15.73174489565052
 31
0.0
 11
193.6909153522121
 21
15.73174489565052
 31
0.0
 11
193.7729340474937
 21
15.73174489565052
 31
0.0
 11
193.8549527427755
 21
15.73174489565052
 31
0.0
 11
193.926500966319
 21
15.73174489565052
 31
0.0
 11
193.9771082463865
 21
15.73174489565052
 31
0.0
 11
193.9963041112396
 21
15.73174489565052
 31
0.0
 11
193.9963041112396
 21
15.74926552655225
 31
0.0
 11
193.9963041112396
 21
15.79622081736889
 31
0.0
 11
193.9963041112396
 21
15.86420086526761
 31
0.0
 11
193.9963041112396
 21
15.94479576741558
 31
0.0
 11
193.9963041112396
 21
16.02959562097996
 31
0.0
 11
193.9963041112396
 21
16.11019052312793
 31
0.0
 11
193.9963041112396
 21
16.17817057102665
 31
0.0
 11
193.9963041112396
 21
16.22512586184329
 31
0.0
 11
193.9963041112396
 21
16.24264649274502
 31
0.0
 11
194.0135484112112
 21
16.2416580616753
 31
0.0
 11
194.0566591611401
 21
16.239186984001
 31
0.0
 11
194.1127031360478
 21
16.23597458302442
 31
0.0
 11
194.1687471109554
 21
16.23276218204783
 31
0.0
 11
194.2118578608843
 21
16.23029110437353
 31
0.0
 11
194.2291021608559
 21
16.22930267330381
 31
0.0
 11
194.2143774674852
 21
16.20556293372647
 31
0.0
 11
194.1756210511091
 21
16.19183767331322
 31
0.0
 11
194.1756210511091
 21
16.17206806177303
 31
0.0
 11
194.1756210511091
 21
16.11994817680342
 31
0.0
 11
194.1756210511091
 21
16.04626144288088
 31
0.0
 11
194.1756210511091
 21
15.96179128448187
 31
0.0
 11
194.1756210511091
 21
15.87732112608286
 31
0.0
 11
194.1756210511091
 21
15.80363439216032
 31
0.0
 11
194.1756210511091
 21
15.75151450719071
 31
0.0
 11
194.1756210511091
 21
15.73174489565052
 31
0.0
 11
194.1916227112937
 21
15.73174489565052
 31
0.0
 11
194.2328901507171
 21
15.73174489565052
 31
0.0
 11
194.2893170576838
 21
15.73174489565052
 31
0.0
 11
194.3507971204982
 21
15.73174489565052
 31
0.0
 11
194.4072240274649
 21
15.73174489565052
 31
0.0
 11
194.4484914668883
 21
15.73174489565052
 31
0.0
 11
194.4644931270729
 21
15.73174489565052
 31
0.0
 11
194.4728206422925
 21
15.73451387455928
 31
0.0
 11
194.4882860277004
 21
15.73965626396125
 31
0.0
 11
194.49661354292
 21
15.74242524287001
 31
0.0
 11
194.5091363776005
 21
15.734909523983
 31
0.0
 11
194.5389985218386
 21
15.7169874250986
 31
0.0
 11
194.5746404359293
 21
15.69559653288173
 31
0.0
 11
194.6045025801674
 21
15.67767443399733
 31
0.0
 11
194.6170254148479
 21
15.67015871511032
 31
0.0
  0
SPLINE
  5
A9
102
{ACAD_REACTORS
330
C6
102
}
330
48
100
AcDbEntity
  8
_U_30EC_U_30A4_U_30E4_U_30FC_1
  6
Continuous
 62
     2
100
AcDbSpline
210
0.0
220
0.0
230
1.0
 70
    11
 71
     3
 72
    91
 73
    87
 74
    85
 42
0.000000001
 43
0.0000000001
 44
0.00000001
 40
0.0
 40
0.0
 40
0.0
 40
0.0
 40
0.0267532254356648
 40
0.085610338646396
 40
0.1444674521996372
 40
0.171220685661823
 40
0.2039416005642252
 40
0.29556019716522
 40
0.4362601844616918
 40
0.616225284450725
 40
0.8256392189704698
 40
1.054685709844439
 40
1.29354847889356
 40
1.532411247938303
 40
1.761457738799568
 40
1.970871673298565
 40
2.150836773256789
 40
2.29153676049565
 40
2.383155356836729
 40
2.415876284101377
 40
2.442629517488016
 40
2.501486630949137
 40
2.560343744424276
 40
2.587096977826543
 40
2.617068194440971
 40
2.69924733675614
 40
2.822032643466424
 40
2.973822353257982
 40
3.143014704823424
 40
3.318007936880004
 40
3.487200288186837
 40
3.638989997548374
 40
3.761775303794873
 40
3.843954445753208
 40
3.873925662229904
 40
3.890812773500616
 40
3.9076998847718
 40
3.937960767857382
 40
3.980983618142392
 40
4.199085915228563
 40
4.439444339237332
 40
4.677588241260965
 40
5.05069831783788
 40
5.448212454763237
 40
5.85529121804476
 40
6.13857543888552
 40
6.417434507584335
 40
6.444551104393987
 40
6.504207617363252
 40
6.563864130314566
 40
6.59098072710413
 40
6.848609460381527
 40
7.109611990668477
 40
7.352910904446188
 40
7.557830220705576
 40
7.587518925913467
 40
7.65283407737588
 40
7.718149228845835
 40
7.747837934062113
 40
7.854880190301103
 40
7.97651125740366
 40
8.36948789659246
 40
8.757514959223753
 40
9.126072419331244
 40
9.460639380392335
 40
9.746695593036105
 40
9.777569943118888
 40
9.807050320931998
 40
9.830377336129118
 40
9.88600329543619
 40
9.952395569430074
 40
10.00802152870642
 40
10.03134854388233
 40
10.21356951009603
 40
10.42203479292889
 40
10.66154556731076
 40
10.91693789564317
 40
11.15832906556582
 40
11.18982674596639
 40
11.27286608520424
 40
11.39026653033371
 40
11.52484752840908
 40
11.65942852648467
 40
11.77682897161508
 40
11.85986831085708
 40
11.89136598230453
 40
11.89136598230453
 40
11.89136598230453
 40
11.89136598230453
 10
190.7027885008196
 20
14.70699600701782
 30
0.0
 10
190.7028237765288
 20
14.71587847311995
 30
0.0
 10
190.7029366710796
 20
14.74430237047356
 30
0.0
 10
190.7012984568489
 20
14.79409639169811
 30
0.0
 10
190.7069750292911
 20
14.83657564478162
 30
0.0
 10
190.6956928731706
 20
14.88730154856854
 30
0.0
 10
190.7632296979032
 20
14.87012900740116
 30
0.0
 10
190.8388029210701
 20
14.88290227166003
 30
0.0
 10
190.9828357056001
 20
14.87629729457389
 30
0.0
 10
191.1569419185427
 20
14.87888462206473
 30
0.0
 10
191.3639599611003
 20
14.8780059195556
 30
0.0
 10
191.5894688172378
 20
14.87828207920034
 30
0.0
 10
191.8251162293406
 20
14.87818339658669
 30
0.0
 10
192.0607640531349
 20
14.87828184412774
 30
0.0
 10
192.2862717580626
 20
14.87800678190796
 30
0.0
 10
192.4932934632805
 20
14.87888186270741
 30
0.0
 10
192.667388891529
 20
14.87630522678454
 30
0.0
 10
192.8114492071986
 20
14.8828829044922
 30
0.0
 10
192.8869691915293
 20
14.87016243405611
 30
0.0
 10
192.9545776037031
 20
14.88726400191694
 30
0.0
 10
192.9430840140676
 20
14.83674785802948
 30
0.0
 10
192.9505104581734
 20
14.7925325222651
 30
0.0
 10
192.9428838927986
 20
14.74867966503619
 30
0.0
 10
192.9546489459426
 20
14.69878374479338
 30
0.0
 10
192.8930788491983
 20
14.71393227712522
 30
0.0
 10
192.8256791738673
 20
14.70310665350684
 30
0.0
 10
192.7013004056222
 20
14.70852031626246
 30
0.0
 10
192.5554428236572
 20
14.70649205390795
 30
0.0
 10
192.3893576440086
 20
14.70715777578396
 30
0.0
 10
192.2188412621725
 20
14.70689643521252
 30
0.0
 10
192.0519790855389
 20
14.70721553391104
 30
0.0
 10
191.9087346827105
 20
14.70635302590771
 30
0.0
 10
191.7773313869834
 20
14.70863300482999
 30
0.0
 10
191.7239859134656
 20
14.70407704374211
 30
0.0
 10
191.6485188456912
 20
14.70999914992888
 30
0.0
 10
191.6769075779232
 20
14.70094169343361
 30
0.0
 10
191.7033652409542
 20
14.69725912268937
 30
0.0
 10
191.6633522907702
 20
14.66654271968277
 30
0.0
 10
191.5713663691869
 20
14.67667591174634
 30
0.0
 10
191.5439396207069
 20
14.43032502247792
 30
0.0
 10
191.4478793967234
 20
14.27499558764379
 30
0.0
 10
191.1917277964475
 20
13.94525417931568
 30
0.0
 10
191.7627537732763
 20
14.0843002221046
 30
0.0
 10
192.0173656320517
 20
14.08291779973368
 30
0.0
 10
192.6279647048618
 20
13.99790569242085
 30
0.0
 10
192.3340698578084
 20
14.29685417558208
 30
0.0
 10
192.0133304286518
 20
14.44330856901787
 30
0.0
 10
192.1313543360434
 20
14.50025540818295
 30
0.0
 10
192.1724716466262
 20
14.52420099873355
 30
0.0
 10
192.2156812394412
 20
14.54599758811234
 30
0.0
 10
192.3174574094449
 20
14.60928721253907
 30
0.0
 10
192.4328867625248
 20
14.35147151408789
 30
0.0
 10
192.6329591642278
 20
14.21616041113689
 30
0.0
 10
192.7269077387228
 20
14.03792795138891
 30
0.0
 10
192.9558829746395
 20
13.87997821027056
 30
0.0
 10
192.8596031846708
 20
13.82915972576302
 30
0.0
 10
192.816795976378
 20
13.79881292523058
 30
0.0
 10
192.771824352878
 20
13.77466130281466
 30
0.0
 10
192.7121720925215
 20
13.72552146747572
 30
0.0
 10
192.6789731061324
 20
13.85997475673614
 30
0.0
 10
192.5582013350798
 20
14.01594265286594
 30
0.0
 10
192.1970976005979
 20
13.88569928059565
 30
0.0
 10
191.8385061955542
 20
13.90224694409493
 30
0.0
 10
191.4570920450081
 20
13.89331229351874
 30
0.0
 10
191.1703455282891
 20
13.82882671672419
 30
0.0
 10
190.8592055599714
 20
13.94230668192834
 30
0.0
 10
190.8268737818788
 20
13.83122259927779
 30
0.0
 10
190.7896178253317
 20
13.81196313850018
 30
0.0
 10
190.7865737632754
 20
13.85874784087305
 30
0.0
 10
190.7679892860607
 20
13.89806853919138
 30
0.0
 10
190.7512436616778
 20
13.95765983478237
 30
0.0
 10
190.7383730915754
 20
14.00201969871286
 30
0.0
 10
190.7042327806429
 20
14.09106331120204
 30
0.0
 10
190.9482714457755
 20
14.02181042943775
 30
0.0
 10
191.1441394486671
 20
14.00030369057754
 30
0.0
 10
191.2395426381278
 20
14.28226484478469
 30
0.0
 10
191.2945135769597
 20
14.44363045421129
 30
0.0
 10
191.5159619357157
 20
14.71391177589749
 30
0.0
 10
191.3849239381217
 20
14.70548446853744
 30
0.0
 10
191.3110026555854
 20
14.7077900849698
 30
0.0
 10
191.1977459876244
 20
14.70671378321668
 30
0.0
 10
191.0694251807485
 20
14.7070763907652
 30
0.0
 10
190.9404252030415
 20
14.70697724466096
 30
0.0
 10
190.8287840946292
 20
14.70699932712582
 30
0.0
 10
190.7514663970025
 20
14.7069957918968
 30
0.0
 10
190.713287653201
 20
14.70699595845091
 30
0.0
 10
190.7027885008196
 20
14.70699600701782
 30
0.0
 11
190.7027885008196
 21
14.70699600701782
 31
0.0
 11
190.7027885008196
 21
14.73374924051807
 31
0.0
 11
190.7027885008196
 21
14.79260635421862
 31
0.0
 11
190.7027885008196
 21
14.85146346791917
 31
0.0
 11
190.7027885008196
 21
14.87821670141942
 31
0.0
 11
190.7355094280989
 21
14.87821670141942
 31
0.0
 11
190.8271280244809
 21
14.87821670141942
 31
0.0
 11
190.9678280117819
 21
14.87821670141942
 31
0.0
 11
191.147793111818
 21
14.87821670141942
 31
0.0
 11
191.3572070464054
 21
14.87821670141942
 31
0.0
 11
191.5862535373604
 21
14.87821670141942
 31
0.0
 11
191.8251163064993
 21
14.87821670141942
 31
0.0
 11
192.0639790756381
 21
14.87821670141942
 31
0.0
 11
192.2930255665931
 21
14.87821670141942
 31
0.0
 11
192.5024395011806
 21
14.87821670141942
 31
0.0
 11
192.6824046012168
 21
14.87821670141942
 31
0.0
 11
192.8231045885177
 21
14.87821670141942
 31
0.0
 11
192.9147231848997
 21
14.87821670141942
 31
0.0
 11
192.947444112179
 21
14.87821670141942
 31
0.0
 11
192.947444112179
 21
14.85146346791917
 31
0.0
 11
192.947444112179
 21
14.79260635421862
 31
0.0
 11
192.947444112179
 21
14.73374924051807
 31
0.0
 11
192.947444112179
 21
14.70699600701782
 31
0.0
 11
192.9174728954758
 21
14.70699600701782
 31
0.0
 11
192.8352937529027
 21
14.70699600701782
 31
0.0
 11
192.712508445764
 21
14.70699600701782
 31
0.0
 11
192.5607187353642
 21
14.70699600701782
 31
0.0
 11
192.3915263830078
 21
14.70699600701782
 31
0.0
 11
192.2165331499991
 21
14.70699600701782
 31
0.0
 11
192.0473407976427
 21
14.70699600701782
 31
0.0
 11
191.8955510872428
 21
14.70699600701782
 31
0.0
 11
191.7727657801042
 21
14.70699600701782
 31
0.0
 11
191.690586637531
 21
14.70699600701782
 31
0.0
 11
191.6606154208279
 21
14.70699600701782
 31
0.0
 11
191.6766359412525
 21
14.70165583340802
 31
0.0
 11
191.6926564616771
 21
14.69631565979822
 31
0.0
 11
191.6706155681421
 21
14.67558114591447
 31
0.0
 11
191.6284861855364
 21
14.66685871536112
 31
0.0
 11
191.5365235541377
 21
14.4690924731266
 31
0.0
 11
191.4279078521764
 21
14.25467511978513
 31
0.0
 11
191.3127500824808
 21
14.04622559051622
 31
0.0
 11
191.6857366675021
 21
14.05582441253035
 31
0.0
 11
192.0830700036151
 21
14.06781232405
 31
0.0
 11
192.4899342191146
 21
14.08102711828532
 31
0.0
 11
192.2983119496979
 21
14.28966761302487
 31
0.0
 11
192.0966752013699
 21
14.48229420151841
 31
0.0
 11
192.120494779475
 21
14.49525327269573
 31
0.0
 11
192.1728978513062
 21
14.52376322928582
 31
0.0
 11
192.2253009231374
 21
14.55227318587592
 31
0.0
 11
192.2491205012425
 21
14.56523225705323
 31
0.0
 11
192.4387101558627
 21
14.39079508370275
 31
0.0
 11
192.6200310940436
 21
14.203058463741
 31
0.0
 11
192.7777729231148
 21
14.01782380992443
 31
0.0
 11
192.8966252504059
 21
13.85089253500952
 31
0.0
 11
192.8715408217924
 21
13.83501202286072
 31
0.0
 11
192.8163550788427
 21
13.80007489613337
 31
0.0
 11
192.7611693358929
 21
13.76513776940601
 31
0.0
 11
192.7360849072794
 21
13.74925725725721
 31
0.0
 11
192.6775518151613
 21
13.83887824681815
 31
0.0
 11
192.6050015078458
 21
13.93650288221042
 31
0.0
 11
192.2125412924096
 21
13.91636286943769
 31
0.0
 11
191.8249474069561
 21
13.89803302999783
 31
0.0
 11
191.4567378976213
 21
13.88202178722405
 31
0.0
 11
191.1224308105413
 21
13.86883756444958
 31
0.0
 11
190.8365441918518
 21
13.85898878500761
 31
0.0
 11
190.821186232174
 21
13.83220523466705
 31
0.0
 11
190.7937434290546
 21
13.82143559057252
 31
0.0
 11
190.786792719232
 21
13.84370299445584
 31
0.0
 11
190.7702179496548
 21
13.89680218833144
 31
0.0
 11
190.7504351601596
 21
13.9601786455378
 31
0.0
 11
190.7338603905825
 21
14.0132778394134
 31
0.0
 11
190.7269096807599
 21
14.03554524329672
 31
0.0
 11
190.9091199859154
 21
14.03751638912958
 31
0.0
 11
191.1174975848589
 21
14.04356211829482
 31
0.0
 11
191.2303203127217
 21
14.25483550301559
 31
0.0
 11
191.3407936722036
 21
14.48509813155885
 31
0.0
 11
191.4358254265628
 21
14.70699600701782
 31
0.0
 11
191.4043277461597
 21
14.70699600701782
 31
0.0
 11
191.3212884069154
 21
14.70699600701782
 31
0.0
 11
191.2038879617768
 21
14.70699600701782
 31
0.0
 11
191.0693069636912
 21
14.70699600701782
 31
0.0
 11
190.9347259656055
 21
14.70699600701782
 31
0.0
 11
190.817325520467
 21
14.70699600701782
 31
0.0
 11
190.7342861812226
 21
14.70699600701782
 31
0.0
 11
190.7027885008196
 21
14.70699600701782
 31
0.0
  0
SPLINE
  5
AA
102
{ACAD_REACTORS
330
C7
102
}
330
48
100
AcDbEntity
  8
_U_30EC_U_30A4_U_30E4_U_30FC_1
  6
Continuous
 62
     2
100
AcDbSpline
210
0.0
220
0.0
230
1.0
 70
    11
 71
     3
 72
    35
 73
    31
 74
    29
 42
0.000000001
 43
0.0000000001
 44
0.00000001
 40
0.0
 40
0.0
 40
0.0
 40
0.0
 40
0.0335231036619848
 40
0.0713218571712507
 40
0.4278866681487591
 40
0.8116865841964781
 40
1.198190238000136
 40
1.561379546812796
 40
1.65998317462213
 40
1.759315573807286
 40
2.13271961723115
 40
2.525233363588906
 40
2.910815397779814
 40
3.265244364303415
 40
3.592606723582097
 40
3.96438615460405
 40
4.359942131737896
 40
4.75815411863945
 40
4.843846538700043
 40
4.936650065543334
 40
5.256616602537441
 40
5.581707404416179
 40
5.899719158308274
 40
6.198363494280854
 40
6.466301046615895
 40
6.493895311537216
 40
6.559697020196952
 40
6.638234543442526
 40
6.70403625215425
 40
6.731630508423027
 40
6.731630508423027
 40
6.731630508423027
 40
6.731630508423027
 10
191.9736010568669
 20
16.23463843719142
 30
0.0
 10
191.9676006097789
 20
16.22480690542331
 30
0.0
 10
191.9548344099157
 20
16.20388988579802
 30
0.0
 10
191.7949362006555
 20
16.17127126532702
 30
0.0
 10
192.2322025842336
 20
15.88206680336705
 30
0.0
 10
192.4345394828263
 20
15.68041138358446
 30
0.0
 10
192.6819564267973
 20
15.43749387603283
 30
0.0
 10
193.1831513624607
 20
15.3604766275778
 30
0.0
 10
193.0125562198971
 20
15.21876939174665
 30
0.0
 10
192.9383299463203
 20
15.01710366209113
 30
0.0
 10
192.6131432248189
 20
15.36956287174735
 30
0.0
 10
192.3277741670665
 20
15.53175212559572
 30
0.0
 10
192.0337604077658
 20
15.73687130053055
 30
0.0
 10
191.8084452691134
 20
16.21827488595459
 30
0.0
 10
191.5993085055522
 20
15.75343046609226
 30
0.0
 10
191.3207873674835
 20
15.54350952252916
 30
0.0
 10
191.0371383177209
 20
15.3742445635999
 30
0.0
 10
190.7078639527831
 20
15.00142360907936
 30
0.0
 10
190.6277012318224
 20
15.19708014459009
 30
0.0
 10
190.4759724909746
 20
15.32491104190603
 30
0.0
 10
190.9083395826796
 20
15.40454031765941
 30
0.0
 10
191.0962565329766
 20
15.60026634915479
 30
0.0
 10
191.3468477420504
 20
15.81632996916761
 30
0.0
 10
191.5714350470161
 20
15.98190992300067
 30
0.0
 10
191.6259775409713
 20
16.2613396463683
 30
0.0
 10
191.7494661029012
 20
16.24737950408084
 30
0.0
 10
191.8060273344521
 20
16.24521268867653
 30
0.0
 10
191.8761870984945
 20
16.24046859881368
 30
0.0
 10
191.9333414022106
 20
16.23709429350549
 30
0.0
 10
191.9644190320839
 20
16.23519854711127
 30
0.0
 10
191.9736010568669
 20
16.23463843719142
 30
0.0
 11
191.9736010568669
 21
16.23463843719142
 31
0.0
 11
191.9525319069885
 21
16.20856374969794
 31
0.0
 11
191.9174464559425
 21
16.19450114553473
 31
0.0
 11
192.1512374769095
 21
15.92527961131387
 31
0.0
 11
192.4414585957567
 21
15.67413407969265
 31
0.0
 11
192.7612797483685
 21
15.4571098761879
 31
0.0
 11
193.083870870629
 21
15.29025232631642
 31
0.0
 11
193.0213299868077
 21
15.21402035584937
 31
0.0
 11
192.9688035818976
 21
15.12971197913431
 31
0.0
 11
192.6436279095815
 21
15.31326404831587
 31
0.0
 11
192.3237227768437
 21
15.54070139743437
 31
0.0
 11
192.0354200158608
 21
15.79673855123318
 31
0.0
 11
191.8050514588095
 21
16.06609003445571
 31
0.0
 11
191.5995531719517
 21
15.81126348721041
 31
0.0
 11
191.3288301341536
 21
15.55645182277761
 31
0.0
 11
191.0119538423247
 21
15.3196946635486
 31
0.0
 11
190.6679957933741
 21
15.11903163191472
 31
0.0
 11
190.6218855341338
 21
15.1912606770356
 31
0.0
 11
190.5636970460349
 21
15.26355586798972
 31
0.0
 11
190.8433040489016
 21
15.41911456961751
 31
0.0
 11
191.1093004621155
 21
15.60601009790411
 31
0.0
 11
191.3499997459747
 21
15.81384496285215
 31
0.0
 11
191.5537153607775
 21
16.03222167446422
 31
0.0
 11
191.7087607668219
 21
16.25074274274292
 31
0.0
 11
191.7363041569866
 21
16.24906789496556
 31
0.0
 11
191.8019845489177
 21
16.24507402718879
 31
0.0
 11
191.8803772747711
 21
16.24030715274555
 31
0.0
 11
191.9460576667022
 21
16.23631328496878
 31
0.0
 11
191.9736010568669
 21
16.23463843719142
 31
0.0
  0
SPLINE
  5
AB
102
{ACAD_REACTORS
330
C8
102
}
330
48
100
AcDbEntity
  8
_U_30EC_U_30A4_U_30E4_U_30FC_1
  6
Continuous
 62
     2
100
AcDbSpline
210
0.0
220
0.0
230
1.0
 70
    11
 71
     3
 72
    15
 73
    11
 74
     9
 42
0.000000001
 43
0.0000000001
 44
0.00000001
 40
0.0
 40
0.0
 40
0.0
 40
0.0
 40
0.2785535985096548
 40
0.5215624748198459
 40
0.6076917376040056
 40
0.6938210001740949
 40
0.9405019146455642
 40
1.221691403489158
 40
1.300471877081021
 40
1.379252341684752
 40
1.379252341684752
 40
1.379252341684752
 40
1.379252341684752
 10
189.5681493631
 20
16.22930267330381
 30
0.0
 10
189.6296017794179
 20
16.17691646592717
 30
0.0
 10
189.7446649974114
 20
16.07882876798227
 30
0.0
 10
190.0397348497245
 20
15.92889785897231
 30
0.0
 10
189.9025147631858
 20
15.84343227515017
 30
0.0
 10
189.804122784378
 20
15.71085785201555
 30
0.0
 10
189.7130033590651
 20
16.01616985781419
 30
0.0
 10
189.3636839480656
 20
16.07967869465387
 30
0.0
 10
189.5119258376571
 20
16.17896509880884
 30
0.0
 10
189.5494081874237
 20
16.21252348402385
 30
0.0
 10
189.5681493631
 20
16.22930267330381
 30
0.0
 11
189.5681493631
 21
16.22930267330381
 31
0.0
 11
189.7919222440597
 21
16.06341774278977
 31
0.0
 11
189.9695046306384
 21
15.89753281227571
 31
0.0
 11
189.906630812798
 21
15.83866743034596
 31
0.0
 11
189.8437569949576
 21
15.77980204841622
 31
0.0
 11
189.6688535117725
 21
15.95375677059497
 31
0.0
 11
189.4478256856141
 21
16.12757920110713
 31
0.0
 11
189.507987524357
 21
16.17844093720547
 31
0.0
 11
189.5681493631
 21
16.22930267330381
 31
0.0
  0
SPLINE
  5
AC
102
{ACAD_REACTORS
330
C9
102
}
330
48
100
AcDbEntity
  8
_U_30EC_U_30A4_U_30E4_U_30FC_1
  6
Continuous
 62
     2
100
AcDbSpline
210
0.0
220
0.0
230
1.0
 70
    11
 71
     3
 72
    75
 73
    71
 74
    69
 42
0.000000001
 43
0.0000000001
 44
0.00000001
 40
0.0
 40
0.0
 40
0.0
 40
0.0
 40
0.0342546099129691
 40
0.12456224144324
 40
0.2522385480897572
 40
0.3985991922940769
 40
0.5449598364980981
 40
0.6726361431438994
 40
0.762943774673712
 40
0.7971983935298168
 40
1.101723623449741
 40
1.408591244036693
 40
1.433332471690408
 40
1.487763172450222
 40
1.542193873082069
 40
1.566935100592626
 40
1.923523931821876
 40
2.271755704953646
 40
2.590579755100859
 40
2.858943305581141
 40
2.889120339309193
 40
2.918305855191142
 40
2.94136664553127
 40
2.996357760973162
 40
3.061992318140714
 40
3.116983433626906
 40
3.140044223997597
 40
3.411273122936512
 40
3.732441619741105
 40
3.761068217532803
 40
3.83778749963036
 40
3.948858699125995
 40
4.080541049104364
 40
4.21909378262574
 40
4.350776132722285
 40
4.461847332405614
 40
4.538566614678342
 40
4.567193212544587
 40
4.594907573998845
 40
4.666381453557384
 40
4.764111044010966
 40
4.870592538125769
 40
4.968322128642163
 40
5.039796008286877
 40
5.067510369784308
 40
5.09426360318552
 40
5.153120716668153
 40
5.211977830150597
 40
5.2387310635516
 40
5.272290535138867
 40
5.363380529444671
 40
5.497618415781377
 40
5.660621563453591
 40
5.838007341749292
 40
6.015393119910672
 40
6.178396267038269
 40
6.312634151842249
 40
6.403724143059239
 40
6.437283612672334
 40
6.464036846260949
 40
6.522893960004562
 40
6.581751071483825
 40
6.608504301590769
 40
6.637253941280917
 40
6.711397748902797
 40
6.812778057283409
 40
6.923237199249185
 40
7.024617507623829
 40
7.098761315207539
 40
7.127510946007489
 40
7.127510946007489
 40
7.127510946007489
 40
7.127510946007489
 10
188.4418622390564
 20
14.95849128473272
 30
0.0
 10
188.4418622819707
 20
14.94707313408728
 30
0.0
 10
188.4418624481129
 20
14.90555257842637
 30
0.0
 10
188.4418593081787
 20
14.82146922003779
 30
0.0
 10
188.4418788279801
 20
14.70004497322336
 30
0.0
 10
188.4417912187737
 20
14.55980494047455
 30
0.0
 10
188.442111623523
 20
14.42006556794582
 30
0.0
 10
188.4411605909741
 20
14.29745038894935
 30
0.0
 10
188.4431978595967
 20
14.21587074438049
 30
0.0
 10
188.4349433178748
 20
14.06271267077702
 30
0.0
 10
188.74307979409
 20
14.22560236054725
 30
0.0
 10
189.0350645173737
 20
14.39482938688012
 30
0.0
 10
189.0408354448707
 20
14.25973235781919
 30
0.0
 10
189.0455471719891
 20
14.21617221160451
 30
0.0
 10
189.0482535411918
 20
14.17211249350551
 30
0.0
 10
189.0672545672957
 20
14.0227259036314
 30
0.0
 10
188.6583942247303
 20
14.08681172241269
 30
0.0
 10
188.3793710348833
 20
13.97296341411025
 30
0.0
 10
188.1018081587167
 20
13.8736409581115
 30
0.0
 10
187.8099837184401
 20
13.91630687596368
 30
0.0
 10
187.7869144678659
 20
13.81321679744549
 30
0.0
 10
187.7537474383333
 20
13.78691091244476
 30
0.0
 10
187.7480653962739
 20
13.83455309036312
 30
0.0
 10
187.7284214559045
 20
13.87180336115077
 30
0.0
 10
187.7095089485623
 20
13.93007387847571
 30
0.0
 10
187.6942849867709
 20
13.97385201007815
 30
0.0
 10
187.6477246372935
 20
14.08759421046316
 30
0.0
 10
187.9890897312451
 20
14.05576301120051
 30
0.0
 10
188.2679649367386
 20
14.02161435106495
 30
0.0
 10
188.2617753034907
 20
14.16913976479663
 30
0.0
 10
188.2630935452773
 20
14.24013150908844
 30
0.0
 10
188.2624831689949
 20
14.34719767958673
 30
0.0
 10
188.2625871570725
 20
14.47398529786008
 30
0.0
 10
188.2629987964055
 20
14.6084924349606
 30
0.0
 10
188.2613907841969
 20
14.73395549951193
 30
0.0
 10
188.2659902567925
 20
14.84505246719125
 30
0.0
 10
188.2564186502211
 20
14.90761886800697
 30
0.0
 10
188.2704001783691
 20
14.96595388295009
 30
0.0
 10
188.2147384386705
 20
14.95289710582246
 30
0.0
 10
188.1575655197822
 20
14.96136307749507
 30
0.0
 10
188.0616048925647
 20
14.95729976080644
 30
0.0
 10
187.9633767522822
 20
14.95970889852482
 30
0.0
 10
187.8672582457561
 20
14.95551600613396
 30
0.0
 10
187.8104648525812
 20
14.9642934644117
 30
0.0
 10
187.7550356873385
 20
14.9509493685013
 30
0.0
 10
187.7670679427918
 20
15.00036910959264
 30
0.0
 10
187.7592003173938
 20
15.04393988030403
 30
0.0
 10
187.766629556383
 20
15.08830469118532
 30
0.0
 10
187.7551930564144
 20
15.13902297763999
 30
0.0
 10
187.8232102370134
 20
15.1216246075775
 30
0.0
 10
187.8968496879747
 20
15.13417450237196
 30
0.0
 10
188.0325064058211
 20
15.12799677011104
 30
0.0
 10
188.1884909024526
 20
15.1302920309309
 30
0.0
 10
188.3615926358144
 20
15.12940968262537
 30
0.0
 10
188.5346942964182
 20
15.13029207142415
 30
0.0
 10
188.6906789811218
 20
15.12799662955557
 30
0.0
 10
188.8263351889798
 20
15.13417486262438
 30
0.0
 10
188.8999756705653
 20
15.12162394218342
 30
0.0
 10
188.9679914174725
 20
15.1390237301215
 30
0.0
 10
188.9565590885923
 20
15.08830130414562
 30
0.0
 10
188.9639539458298
 20
15.04397060811116
 30
0.0
 10
188.9562039912271
 20
15.00028307550203
 30
0.0
 10
188.9681203741877
 20
14.95063590098485
 30
0.0
 10
188.9108170223617
 20
14.96461411338433
 30
0.0
 10
188.8520145789773
 20
14.95539755673262
 30
0.0
 10
188.75252936332
 20
14.95952268164937
 30
0.0
 10
188.649428009835
 20
14.95822760025895
 30
0.0
 10
188.5537846354574
 20
14.95854077077649
 30
0.0
 10
188.4857467971617
 20
14.95848776697152
 30
0.0
 10
188.4514462213443
 20
14.95849051871664
 30
0.0
 10
188.4418622390564
 20
14.95849128473272
 30
0.0
 11
188.4418622390564
 21
14.95849128473272
 31
0.0
 11
188.4418622390564
 21
14.92423666587193
 31
0.0
 11
188.4418622390564
 21
14.83392903432983
 31
0.0
 11
188.4418622390564
 21
14.70625272766686
 31
0.0
 11
188.4418622390564
 21
14.55989208344347
 31
0.0
 11
188.4418622390564
 21
14.41353143922007
 31
0.0
 11
188.4418622390564
 21
14.2858551325571
 31
0.0
 11
188.4418622390564
 21
14.19554750101501
 31
0.0
 11
188.4418622390564
 21
14.16129288215421
 31
0.0
 11
188.7391932644568
 21
14.22709475713777
 31
0.0
 11
189.0384623627245
 21
14.29496038212082
 31
0.0
 11
189.0405487124976
 21
14.27030727882837
 31
0.0
 11
189.0451386819987
 21
14.21607045158497
 31
0.0
 11
189.0497286514996
 21
14.16183362434157
 31
0.0
 11
189.0518150012728
 21
14.13718052104912
 31
0.0
 11
188.705639688924
 21
14.05163370140905
 31
0.0
 11
188.3669653138839
 21
13.97060877629909
 31
0.0
 11
188.0563731516689
 21
13.89862764024938
 31
0.0
 11
187.7944444777956
 21
13.84021218779002
 31
0.0
 11
187.7817515029293
 21
13.8128344273802
 31
0.0
 11
187.7569794787514
 21
13.79740260446742
 31
0.0
 11
187.7491867589502
 21
13.81910683390644
 31
0.0
 11
187.7306041194242
 21
13.87086307333793
 31
0.0
 11
187.7084248399901
 21
13.9326366494336
 31
0.0
 11
187.6898422004641
 21
13.9843928888651
 31
0.0
 11
187.6820494806629
 21
14.00609711830411
 31
0.0
 11
187.9482776335932
 21
14.05794001759672
 31
0.0
 11
188.2626334936289
 21
14.12373968771922
 31
0.0
 11
188.2626334936289
 21
14.15236628569637
 31
0.0
 11
188.2626334936289
 21
14.22908556827511
 31
0.0
 11
188.2626334936289
 21
14.34015676842643
 31
0.0
 11
188.2626334936289
 21
14.47183911912128
 31
0.0
 11
188.2626334936289
 21
14.61039185333066
 31
0.0
 11
188.2626334936289
 21
14.74207420402552
 31
0.0
 11
188.2626334936289
 21
14.85314540417683
 31
0.0
 11
188.2626334936289
 21
14.92986468675558
 31
0.0
 11
188.2626334936289
 21
14.95849128473272
 31
0.0
 11
188.2349191321108
 21
14.95849128473272
 31
0.0
 11
188.1634452524063
 21
14.95849128473272
 31
0.0
 11
188.0657156617901
 21
14.95849128473272
 31
0.0
 11
187.9592341675364
 21
14.95849128473272
 31
0.0
 11
187.8615045769201
 21
14.95849128473272
 31
0.0
 11
187.7900306972156
 21
14.95849128473272
 31
0.0
 11
187.7623163356976
 21
14.95849128473272
 31
0.0
 11
187.7623163356976
 21
14.98524451823297
 31
0.0
 11
187.7623163356976
 21
15.04410163193351
 31
0.0
 11
187.7623163356976
 21
15.10295874563406
 31
0.0
 11
187.7623163356976
 21
15.12971197913431
 31
0.0
 11
187.7958758072876
 21
15.12971197913431
 31
0.0
 11
187.8869658016031
 21
15.12971197913431
 31
0.0
 11
188.021203687963
 21
15.12971197913431
 31
0.0
 11
188.1842068356856
 21
15.12971197913431
 31
0.0
 11
188.3615926140897
 21
15.12971197913431
 31
0.0
 11
188.5389783924938
 21
15.12971197913431
 31
0.0
 11
188.7019815402165
 21
15.12971197913431
 31
0.0
 11
188.8362194265763
 21
15.12971197913431
 31
0.0
 11
188.9273094208919
 21
15.12971197913431
 31
0.0
 11
188.9608688924819
 21
15.12971197913431
 31
0.0
 11
188.9608688924819
 21
15.10295874563406
 31
0.0
 11
188.9608688924819
 21
15.04410163193351
 31
0.0
 11
188.9608688924819
 21
14.98524451823297
 31
0.0
 11
188.9608688924819
 21
14.95849128473272
 31
0.0
 11
188.9321192527878
 21
14.95849128473272
 31
0.0
 11
188.8579754451555
 21
14.95849128473272
 31
0.0
 11
188.7565951367605
 21
14.95849128473272
 31
0.0
 11
188.6461359947778
 21
14.95849128473272
 31
0.0
 11
188.5447556863828
 21
14.95849128473272
 31
0.0
 11
188.4706118787505
 21
14.95849128473272
 31
0.0
 11
188.4418622390564
 21
14.95849128473272
 31
0.0
  0
SPLINE
  5
AD
102
{ACAD_REACTORS
330
CA
102
}
330
48
100
AcDbEntity
  8
_U_30EC_U_30A4_U_30E4_U_30FC_1
  6
Continuous
 62
     2
100
AcDbSpline
210
0.0
220
0.0
230
1.0
 70
    11
 71
     3
 72
    91
 73
    87
 74
    85
 42
0.000000001
 43
0.0000000001
 44
0.00000001
 40
0.0
 40
0.0
 40
0.0
 40
0.0
 40
0.0345987051695718
 40
0.1258134969461085
 40
0.2547723404888703
 40
0.4026032099153556
 40
0.550434079341642
 40
0.6793929228835227
 40
0.7706077146570467
 40
0.8052064287780072
 40
1.124852390615194
 40
1.427402236308787
 40
1.70635662745342
 40
1.955541417875087
 40
2.169485938566224
 40
2.344350786664683
 40
2.480568411561829
 40
2.59044055742885
 40
2.649189927150954
 40
2.749320643306164
 40
2.912632739879867
 40
3.147745656000075
 40
3.244827496384905
 40
3.338490056946469
 40
3.583815413206927
 40
3.761423943238298
 40
3.886956104362456
 40
3.98585545188664
 40
4.091766255337468
 40
4.250186473811689
 40
4.422734315084357
 40
4.628285684838452
 40
4.872093227758281
 40
5.152549652145394
 40
5.464967135837368
 40
5.803201477852287
 40
6.160362988813759
 40
6.193449448275842
 40
6.284170385501497
 40
6.419718138764338
 40
6.587285046385617
 40
6.774063446723503
 40
6.967245678113485
 40
7.1540240788175
 40
7.321590987025857
 40
7.457138740890215
 40
7.547859678555952
 40
7.580946138182512
 40
7.608533084714562
 40
7.66922436707754
 40
7.729915649429758
 40
7.757502595949807
 40
7.790278062553289
 40
7.880146277430759
 40
8.014419963180194
 40
8.180411842397694
 40
8.365434637679163
 40
8.556801071622436
 40
8.74182386683052
 40
8.907815745916087
 40
9.042089431507184
 40
9.13195764624931
 40
9.164733112796887
 40
9.415425063139836
 40
9.667986180958327
 40
9.694169807462465
 40
9.756607686047397
 40
9.831130315322234
 40
9.8935681938997
 40
9.919751820398517
 40
9.950967964690316
 40
9.996421631210422
 40
10.2208798103743
 40
10.44341866197522
 40
10.47847970788834
 40
10.57091337438735
 40
10.70159545461209
 40
10.8514017417034
 40
11.00120802880457
 40
11.13189010907362
 40
11.2243237758299
 40
11.25938480938936
 40
11.28697175596125
 40
11.34766303835899
 40
11.40835432042049
 40
11.43594125892083
 40
11.43594125892083
 40
11.43594125892083
 40
11.43594125892083
 10
190.0818114333289
 20
15.55242795125082
 30
0.0
 10
190.070278584494
 20
15.5524279028792
 30
0.0
 10
190.0283409444999
 20
15.5524277370417
 30
0.0
 10
189.9434129719025
 20
15.55243125800914
 30
0.0
 10
189.8207688553129
 20
15.55240926435884
 30
0.0
 10
189.6791206916993
 20
15.55250801177059
 30
0.0
 10
189.537975369849
 20
15.55214686232426
 30
0.0
 10
189.4141351317905
 20
15.55321883609093
 30
0.0
 10
189.3317217825382
 20
15.55092249091273
 30
0.0
 10
189.1727791229694
 20
15.56048569373424
 30
0.0
 10
189.3503402353376
 20
15.19785394311375
 30
0.0
 10
189.3379739205454
 20
14.9524312772312
 30
0.0
 10
189.4064519473866
 20
14.66862501324841
 30
0.0
 10
189.469302432097
 20
14.43250999939042
 30
0.0
 10
189.5452253431729
 20
14.23326740396137
 30
0.0
 10
189.6303189577018
 20
14.07745347451383
 30
0.0
 10
189.7244607592936
 20
13.97657857781402
 30
0.0
 10
189.8282648207729
 20
13.92465852638973
 30
0.0
 10
189.9125872030774
 20
13.9760648437963
 30
0.0
 10
189.9351322179453
 20
14.09144544037526
 30
0.0
 10
189.9745730975372
 20
14.21885149702388
 30
0.0
 10
189.9202919734944
 20
14.53622328086773
 30
0.0
 10
190.0451218072473
 20
14.38982180140907
 30
0.0
 10
190.2019291513604
 20
14.35795300331188
 30
0.0
 10
190.0947720007057
 20
14.12421357767634
 30
0.0
 10
190.0808711209867
 20
13.95972776583664
 30
0.0
 10
190.0234709467226
 20
13.83130869122486
 30
0.0
 10
189.933502014501
 20
13.76018802352833
 30
0.0
 10
189.8095274657878
 20
13.74432324142258
 30
0.0
 10
189.6634273196861
 20
13.77993797554177
 30
0.0
 10
189.5243894320285
 20
13.90000570500282
 30
0.0
 10
189.4102003962145
 20
14.07435682550325
 30
0.0
 10
189.3146141301486
 20
14.29946603111245
 30
0.0
 10
189.2318652572627
 20
14.56388246006447
 30
0.0
 10
189.1807179256413
 20
14.88187933098549
 30
0.0
 10
189.0770189207338
 20
15.15543728488916
 30
0.0
 10
189.2042841208521
 20
15.56005818612874
 30
0.0
 10
189.0357890623019
 20
15.55112367849683
 30
0.0
 10
188.9511995787077
 20
15.55315961418368
 30
0.0
 10
188.8189876387628
 20
15.55213937388411
 30
0.0
 10
188.6560505094104
 20
15.55253230318434
 30
0.0
 10
188.4733759170534
 20
15.55235696313374
 30
0.0
 10
188.2847057373383
 20
15.55260105307473
 30
0.0
 10
188.101446902019
 20
15.55185657906241
 30
0.0
 10
187.9404746832719
 20
15.55416360522431
 30
0.0
 10
187.8029808335276
 20
15.54799804883667
 30
0.0
 10
187.7289590372312
 20
15.56032838458216
 30
0.0
 10
187.6613215186857
 20
15.54329323723561
 30
0.0
 10
187.6732373719271
 20
15.59524438447533
 30
0.0
 10
187.6655677285694
 20
15.64071424966533
 30
0.0
 10
187.6732592225117
 20
15.6861445370371
 30
0.0
 10
187.6613141797762
 20
15.73802395984575
 30
0.0
 10
187.7283588305868
 20
15.72119143490268
 30
0.0
 10
187.8017375665677
 20
15.73335409092674
 30
0.0
 10
187.9379128305273
 20
15.72727231074963
 30
0.0
 10
188.0973811801513
 20
15.72954834315062
 30
0.0
 10
188.2789173085837
 20
15.72881233998966
 30
0.0
 10
188.4658034862179
 20
15.72905954196138
 30
0.0
 10
188.6468012316836
 20
15.72886400799257
 30
0.0
 10
188.8080802578879
 20
15.72932234714844
 30
0.0
 10
188.9393882124887
 20
15.7281267375121
 30
0.0
 10
189.0225051322596
 20
15.73051347319747
 30
0.0
 10
189.1556236547814
 20
15.72230605725468
 30
0.0
 10
189.064589350266
 20
15.9775286895266
 30
0.0
 10
188.9789633074419
 20
16.24164358328259
 30
0.0
 10
189.0990589003456
 20
16.22904442969174
 30
0.0
 10
189.1514264948544
 20
16.22694235763082
 30
0.0
 10
189.2214497569717
 20
16.22535399889662
 30
0.0
 10
189.2671922337817
 20
16.21602567538115
 30
0.0
 10
189.3220812646934
 20
16.22545966915428
 30
0.0
 10
189.2963574785682
 20
16.17733028655178
 30
0.0
 10
189.1825397571454
 20
16.18266829744176
 30
0.0
 10
189.3159346621136
 20
15.95449174576781
 30
0.0
 10
189.194365873547
 20
15.72156856595927
 30
0.0
 10
189.3223188769413
 20
15.73087258884443
 30
0.0
 10
189.4049048406461
 20
15.72801001754685
 30
0.0
 10
189.5307214850824
 20
15.72923437412306
 30
0.0
 10
189.6741469838057
 20
15.72932431888968
 30
0.0
 10
189.8157420951728
 20
15.72746163183857
 30
0.0
 10
189.9459127249967
 20
15.73333075937167
 30
0.0
 10
190.0193452286191
 20
15.72070340823207
 30
0.0
 10
190.0891112922096
 20
15.73877563110416
 30
0.0
 10
190.0775772605396
 20
15.6861285054633
 30
0.0
 10
190.0833184346682
 20
15.64221317686552
 30
0.0
 10
190.0816615770911
 20
15.59089982676554
 30
0.0
 10
190.081775756167
 20
15.56158792021639
 30
0.0
 10
190.0818114333289
 20
15.55242795125082
 30
0.0
 11
190.0818114333289
 21
15.55242795125082
 31
0.0
 11
190.0472127192051
 21
15.55242795125082
 31
0.0
 11
189.9559979274241
 21
15.55242795125082
 31
0.0
 11
189.8270390838717
 21
15.55242795125082
 31
0.0
 11
189.6792082144336
 21
15.55242795125082
 31
0.0
 11
189.5313773449955
 21
15.55242795125082
 31
0.0
 11
189.4024185014431
 21
15.55242795125082
 31
0.0
 11
189.3112037096621
 21
15.55242795125082
 31
0.0
 11
189.2766049955383
 21
15.55242795125082
 31
0.0
 11
189.3083140497694
 21
15.23435864930126
 31
0.0
 11
189.3527866656866
 21
14.93509522788086
 31
0.0
 11
189.4092389118321
 21
14.66191269512582
 31
0.0
 11
189.4768868567479
 21
14.42208605917234
 31
0.0
 11
189.5549465689762
 21
14.22289032815662
 31
0.0
 11
189.6426341170592
 21
14.07160051021487
 31
0.0
 11
189.739165569539
 21
13.97549161348326
 31
0.0
 11
189.8437569949576
 21
13.94183864609802
 31
0.0
 11
189.8943077302786
 21
13.97177376978845
 31
0.0
 11
189.9310588991552
 21
14.06491619815057
 31
0.0
 11
189.9562640977528
 21
14.22627151712064
 31
0.0
 11
189.9721769222369
 21
14.46084531263492
 31
0.0
 11
190.0494082682583
 21
14.40202182306623
 31
0.0
 11
190.1327184184385
 21
14.35921885432701
 31
0.0
 11
190.1066365811217
 21
14.11528388661017
 31
0.0
 11
190.0673317805106
 21
13.94207902887568
 31
0.0
 11
190.0105702596765
 21
13.83011272445922
 31
0.0
 11
189.9321182616911
 21
13.7698934166965
 31
0.0
 11
189.8277420296257
 21
13.75192954892322
 31
0.0
 11
189.6738595065098
 21
13.78957440012366
 31
0.0
 11
189.5388902376748
 21
13.89707348877408
 31
0.0
 11
189.4221739916163
 21
14.06627361744814
 31
0.0
 11
189.32305053683
 21
14.28902158871948
 31
0.0
 11
189.2408596418114
 21
14.55716420516177
 31
0.0
 11
189.174941075056
 21
14.86254826934865
 31
0.0
 11
189.1246346050594
 21
15.19702058385379
 31
0.0
 11
189.0892800003172
 21
15.55242795125082
 31
0.0
 11
189.0561935405844
 21
15.55242795125082
 31
0.0
 11
188.9654726026075
 21
15.55242795125082
 31
0.0
 11
188.8299248482186
 21
15.55242795125082
 31
0.0
 11
188.6623579392495
 21
15.55242795125082
 31
0.0
 11
188.4755795375324
 21
15.55242795125082
 31
0.0
 11
188.2823973048993
 21
15.55242795125082
 31
0.0
 11
188.0956189031822
 21
15.55242795125082
 31
0.0
 11
187.9280519942132
 21
15.55242795125082
 31
0.0
 11
187.7925042398242
 21
15.55242795125082
 31
0.0
 11
187.7017833018473
 21
15.55242795125082
 31
0.0
 11
187.6686968421146
 21
15.55242795125082
 31
0.0
 11
187.6686968421146
 21
15.58001489785851
 31
0.0
 11
187.6686968421146
 21
15.64070618039542
 31
0.0
 11
187.6686968421146
 21
15.70139746293233
 31
0.0
 11
187.6686968421146
 21
15.72898440954002
 31
0.0
 11
187.7014723087632
 21
15.72898440954002
 31
0.0
 11
187.7913405237674
 21
15.72898440954002
 31
0.0
 11
187.9256142097149
 21
15.72898440954002
 31
0.0
 11
188.0916060891932
 21
15.72898440954002
 31
0.0
 11
188.2766288847902
 21
15.72898440954002
 31
0.0
 11
188.4679953190932
 21
15.72898440954002
 31
0.0
 11
188.6530181146902
 21
15.72898440954002
 31
0.0
 11
188.8190099941685
 21
15.72898440954002
 31
0.0
 11
188.953283680116
 21
15.72898440954002
 31
0.0
 11
189.0431518951202
 21
15.72898440954002
 31
0.0
 11
189.0759273617688
 21
15.72898440954002
 31
0.0
 11
189.0659183950104
 21
15.97947647544965
 31
0.0
 11
189.0599112510664
 21
16.23196614552541
 31
0.0
 11
189.086057587066
 21
16.23056921608131
 31
0.0
 11
189.148406542142
 21
16.22723807663768
 31
0.0
 11
189.22282303691
 21
16.22326220052754
 31
0.0
 11
189.285171991986
 21
16.21993106108391
 31
0.0
 11
189.3113183279856
 21
16.21853413163981
 31
0.0
 11
189.2982931113041
 21
16.19016528616086
 31
0.0
 11
189.2551649266406
 21
16.17581274276171
 31
0.0
 11
189.2574991961822
 21
15.95136670115116
 31
0.0
 11
189.2658452735903
 21
15.72898440954002
 31
0.0
 11
189.3009063195165
 21
15.72898440954002
 31
0.0
 11
189.3933399860495
 21
15.72898440954002
 31
0.0
 11
189.5240220663201
 21
15.72898440954002
 31
0.0
 11
189.6738283534596
 21
15.72898440954002
 31
0.0
 11
189.8236346405991
 21
15.72898440954002
 31
0.0
 11
189.9543167208697
 21
15.72898440954002
 31
0.0
 11
190.0467503874027
 21
15.72898440954002
 31
0.0
 11
190.0818114333289
 21
15.72898440954002
 31
0.0
 11
190.0818114333289
 21
15.70139746293233
 31
0.0
 11
190.0818114333289
 21
15.64070618039542
 31
0.0
 11
190.0818114333289
 21
15.58001489785851
 31
0.0
 11
190.0818114333289
 21
15.55242795125082
 31
0.0
  0
SPLINE
  5
AE
102
{ACAD_REACTORS
330
CB
102
}
330
48
100
AcDbEntity
  8
_U_30EC_U_30A4_U_30E4_U_30FC_1
  6
Continuous
 62
     2
100
AcDbSpline
210
0.0
220
0.0
230
1.0
 70
    11
 71
     3
 72
   118
 73
   114
 74
   112
 42
0.000000001
 43
0.0000000001
 44
0.00000001
 40
0.0
 40
0.0
 40
0.0
 40
0.0
 40
0.1054708162973021
 40
0.2466098270051493
 40
0.396591287459055
 40
0.5285525069753088
 40
0.6156245055640712
 40
0.6431434105795986
 40
0.7036850037984822
 40
0.7642265984503198
 40
0.7917455052353646
 40
0.9287404319989161
 40
1.106572819087977
 40
1.287544879680975
 40
1.317578308030494
 40
1.399928030857127
 40
1.522968204799905
 40
1.675072986590525
 40
1.844616533180603
 40
2.019973001638666
 40
2.18951654887998
 40
2.341621331585317
 40
2.464661506320455
 40
2.547011229647019
 40
2.577044658167983
 40
2.603797890893053
 40
2.662655002908769
 40
2.721512114949609
 40
2.74826534770276
 40
2.774215307344837
 40
2.845959313407165
 40
2.954338556588362
 40
3.090194227585536
 40
3.244367517100498
 40
3.407699615844253
 40
3.571031714539399
 40
3.72520500392007
 40
3.861060674729566
 40
3.969439917716259
 40
4.04118392362893
 40
4.067133883212923
 40
4.31188674601209
 40
4.547897258335452
 40
4.764747083043924
 40
4.952749679951734
 40
5.045772974195797
 40
5.137862019644915
 40
5.330543169792916
 40
5.55344826524389
 40
5.795083855888048
 40
6.043293412177133
 40
6.285761695541079
 40
6.313902908752591
 40
6.384255941793181
 40
6.475714884766769
 40
6.56717382775886
 40
6.637526860839666
 40
6.66566807407403
 40
6.692018920328008
 40
6.749990782071088
 40
6.807962643790467
 40
6.834313490017945
 40
6.856393084245224
 40
6.913335195649847
 40
6.99119481730254
 40
7.076026942283829
 40
7.153886563725348
 40
7.210828674844902
 40
7.232908268931266
 40
7.258199334923787
 40
7.324875781592429
 40
7.419142481925079
 40
7.527204308842014
 40
7.635266135230585
 40
7.729532834168563
 40
7.796209279292882
 40
7.821500344594825
 40
7.844652988850895
 40
7.899863140541647
 40
7.965759128053786
 40
8.020969279771043
 40
8.04412192404651
 40
8.0693566101605
 40
8.109134395441233
 40
8.132238100190945
 40
8.1931478677863
 40
8.279261678876464
 40
8.37797751267367
 40
8.476693347146444
 40
8.56280716041149
 40
8.623716930826268
 40
8.64682063685322
 40
8.671988793774034
 40
8.734909185827917
 40
8.816705695188631
 40
8.898502204815202
 40
8.961422597377663
 40
8.986590754550775
 40
9.012941600732935
 40
9.07091346238003
 40
9.128885324081534
 40
9.15523617032486
 40
9.180404327928903
 40
9.243324721947976
 40
9.32512123421174
 40
9.406917746637395
 40
9.469838141977851
 40
9.495006288270625
 40
9.51781118437877
 40
9.572192090486778
 40
9.637098333281015
 40
9.691479239515223
 40
9.714284125643266
 40
9.714284125643266
 40
9.714284125643266
 40
9.714284125643266
 10
185.2874469028654
 20
15.26889163187722
 30
0.0
 10
185.3090990569038
 20
15.24111869242814
 30
0.0
 10
185.3597257109475
 20
15.17618054561238
 30
0.0
 10
185.4349383202592
 20
15.06891060312902
 30
0.0
 10
185.5248482274346
 20
14.9537743826663
 30
0.0
 10
185.5709169676674
 20
14.85357045748327
 30
0.0
 10
185.6655825294655
 20
14.78434006814956
 30
0.0
 10
185.6204439320413
 20
14.73771639678283
 30
0.0
 10
185.5947047785791
 20
14.69660308866048
 30
0.0
 10
185.5645196708013
 20
14.66065971727942
 30
0.0
 10
185.5193684730563
 20
14.58579782596093
 30
0.0
 10
185.4710504458562
 20
14.80782524253606
 30
0.0
 10
185.3968539713073
 20
14.84510677337716
 30
0.0
 10
185.2836047324607
 20
15.11610202130609
 30
0.0
 10
185.2885133578171
 20
15.00095328446239
 30
0.0
 10
185.2868486556306
 20
14.92836675781637
 30
0.0
 10
185.2876830076715
 20
14.80625588483997
 30
0.0
 10
185.2873609540266
 20
14.6591380081047
 30
0.0
 10
185.2875076912457
 20
14.49307063956567
 30
0.0
 10
185.2872950092724
 20
14.32187554608612
 30
0.0
 10
185.2879497252034
 20
14.15552828635508
 30
0.0
 10
185.285919246114
 20
14.00935173055703
 30
0.0
 10
185.2913460399932
 20
13.88471047474621
 30
0.0
 10
185.2804930868708
 20
13.81718656540636
 30
0.0
 10
185.2956739155556
 20
13.75549061417032
 30
0.0
 10
185.2457895108134
 20
13.76727503897012
 30
0.0
 10
185.2017150342522
 20
13.75943822779979
 30
0.0
 10
185.1582371630201
 20
13.76760441372713
 30
0.0
 10
185.1092346786489
 20
13.75538056738478
 30
0.0
 10
185.1218731234826
 20
13.80960667249323
 30
0.0
 10
185.113018296845
 20
13.86936918907567
 30
0.0
 10
185.1175058770314
 20
13.9792202904438
 30
0.0
 10
185.1157960135992
 20
14.11029975405688
 30
0.0
 10
185.1163550915987
 20
14.26198011444337
 30
0.0
 10
185.1161928768694
 20
14.42211074929961
 30
0.0
 10
185.1162269924676
 20
14.58236865674575
 30
0.0
 10
185.1162514960127
 20
14.73370247520447
 30
0.0
 10
185.1161453543226
 20
14.86582156338608
 30
0.0
 10
185.1164299141931
 20
14.97294802533201
 30
0.0
 10
185.1158675547569
 20
15.0380861957948
 30
0.0
 10
185.1180765083689
 20
15.16618957858682
 30
0.0
 10
185.0319435998603
 20
14.79097610391586
 30
0.0
 10
184.95551408185
 20
14.63918193123403
 30
0.0
 10
184.8660040767833
 20
14.47766206446319
 30
0.0
 10
184.7640413217326
 20
14.20471848820181
 30
0.0
 10
184.7187976491039
 20
14.36717346596518
 30
0.0
 10
184.6102355941671
 20
14.45605432058131
 30
0.0
 10
184.7995791751753
 20
14.60549794961416
 30
0.0
 10
184.8565340545701
 20
14.79749136974931
 30
0.0
 10
184.9717520993352
 20
15.02899622906763
 30
0.0
 10
184.9940151630134
 20
15.21797259759067
 30
0.0
 10
185.177190515214
 20
15.49454089325936
 30
0.0
 10
185.0538033597553
 20
15.486989788321
 30
0.0
 10
184.9925684166834
 20
15.48856772366124
 30
0.0
 10
184.9081999617064
 20
15.48882592573679
 30
0.0
 10
184.8204235085966
 20
15.48544845751211
 30
0.0
 10
184.7656768696123
 20
15.49394814982027
 30
0.0
 10
184.7104703026024
 20
15.48048561049794
 30
0.0
 10
184.7222823035536
 20
15.5293144212677
 30
0.0
 10
184.7142496151794
 20
15.57269004896716
 30
0.0
 10
184.7228186104679
 20
15.61509438309581
 30
0.0
 10
184.7102943409156
 20
15.66267796552127
 30
0.0
 10
184.7555101538736
 20
15.65267212995118
 30
0.0
 10
184.8014815562723
 20
15.6589410517407
 30
0.0
 10
184.877722204771
 20
15.65593561405881
 30
0.0
 10
184.9561296131994
 20
15.6577044827855
 30
0.0
 10
185.0323992648933
 20
15.65464793981669
 30
0.0
 10
185.0783009459475
 20
15.66103971376186
 30
0.0
 10
185.1231733965401
 20
15.65093822978905
 30
0.0
 10
185.1105552275635
 20
15.70157201581907
 30
0.0
 10
185.1191936582707
 20
15.75501261882078
 30
0.0
 10
185.1152361595444
 20
15.84863255131688
 30
0.0
 10
185.1162325068336
 20
15.95112606688931
 30
0.0
 10
185.1171927413074
 20
16.05353270248169
 30
0.0
 10
185.1133211458007
 20
16.14735929609327
 30
0.0
 10
185.1217789814364
 20
16.20036542840358
 30
0.0
 10
185.1093075932836
 20
16.25211435651193
 30
0.0
 10
185.154210638985
 20
16.23850747226761
 30
0.0
 10
185.1955083836772
 20
16.24100480320588
 30
0.0
 10
185.2595344281051
 20
16.23648060574489
 30
0.0
 10
185.2986111148786
 20
16.22781003043309
 30
0.0
 10
185.3476543498741
 20
16.23515102070687
 30
0.0
 10
185.3225080030591
 20
16.19602896051769
 30
0.0
 10
185.2815901333724
 20
16.2056384245581
 30
0.0
 10
185.2910109616604
 20
16.15540148169783
 30
0.0
 10
185.2855647318747
 20
16.10385945639495
 30
0.0
 10
185.2881699601804
 20
16.01959707584526
 30
0.0
 10
185.2870102202156
 20
15.92559135583415
 30
0.0
 10
185.2883591064232
 20
15.83196865395533
 30
0.0
 10
185.284997010151
 20
15.74679517552231
 30
0.0
 10
185.292095991777
 20
15.69716856072053
 30
0.0
 10
185.2812569154546
 20
15.64993694969997
 30
0.0
 10
185.3304010225246
 20
15.6620167493686
 30
0.0
 10
185.3794877630148
 20
15.6544739336302
 30
0.0
 10
185.4573714280642
 20
15.65686070361442
 30
0.0
 10
185.5350365172897
 20
15.65899381905424
 30
0.0
 10
185.5845393931355
 20
15.65193391922464
 30
0.0
 10
185.634459475064
 20
15.66360151936222
 30
0.0
 10
185.6223198516882
 20
15.61540235371402
 30
0.0
 10
185.6305838229144
 20
15.57249219801243
 30
0.0
 10
185.6223198650784
 20
15.52958201851391
 30
0.0
 10
185.6344594549855
 20
15.4813828875487
 30
0.0
 10
185.5845395158747
 20
15.49305034471516
 30
0.0
 10
185.5350350651203
 20
15.48599202435052
 30
0.0
 10
185.4573784382974
 20
15.48811665228609
 30
0.0
 10
185.3794643865762
 20
15.49053389365766
 30
0.0
 10
185.3304500352717
 20
15.48291848194491
 30
0.0
 10
185.2813246108944
 20
15.49507952557598
 30
0.0
 10
185.2915559988572
 20
15.45073013424164
 30
0.0
 10
185.2856677678054
 20
15.40925436202916
 30
0.0
 10
185.287878830557
 20
15.34915394315307
 30
0.0
 10
185.2874109346147
 20
15.30225782762892
 30
0.0
 10
185.2874386992914
 20
15.27650146418199
 30
0.0
 10
185.2874469028654
 20
15.26889163187722
 30
0.0
 11
185.2874469028654
 21
15.26889163187722
 31
0.0
 11
185.3516977534485
 21
15.1852499963426
 31
0.0
 11
185.43482588355
 21
15.07118889748224
 31
0.0
 11
185.5216831568896
 21
14.94891767195728
 31
0.0
 11
185.5971214371872
 21
14.84064565642884
 31
0.0
 11
185.6459925881626
 21
14.76858218755803
 31
0.0
 11
185.6296821285093
 21
14.74641782124411
 31
0.0
 11
185.593799117272
 21
14.69765621535347
 31
0.0
 11
185.5579161060347
 21
14.64889460946283
 31
0.0
 11
185.5416056463814
 21
14.62673024314891
 31
0.0
 11
185.4763067109446
 21
14.74716139023817
 31
0.0
 11
185.3848434243235
 21
14.89966983670213
 31
0.0
 11
185.2874469028654
 21
15.05219788193152
 31
0.0
 11
185.2874469028654
 21
15.02216445328263
 31
0.0
 11
185.2874469028654
 21
14.93981472956793
 31
0.0
 11
185.2874469028654
 21
14.81677455413538
 31
0.0
 11
185.2874469028654
 21
14.66466977033293
 31
0.0
 11
185.2874469028654
 21
14.49512622150855
 31
0.0
 11
185.2874469028654
 21
14.31976975101019
 31
0.0
 11
185.2874469028654
 21
14.15022620218581
 31
0.0
 11
185.2874469028654
 21
13.99812141838336
 31
0.0
 11
185.2874469028654
 21
13.87508124295081
 31
0.0
 11
185.2874469028654
 21
13.79273151923611
 31
0.0
 11
185.2874469028654
 21
13.76269809058722
 31
0.0
 11
185.260693670041
 21
13.76269809058722
 31
0.0
 11
185.2018365578272
 21
13.76269809058722
 31
0.0
 11
185.1429794456135
 21
13.76269809058722
 31
0.0
 11
185.1162262127891
 21
13.76269809058722
 31
0.0
 11
185.1162262127891
 21
13.7886480503126
 31
0.0
 11
185.1162262127891
 21
13.86039205661218
 31
0.0
 11
185.1162262127891
 21
13.96877130017111
 31
0.0
 11
185.1162262127891
 21
14.10462697167456
 31
0.0
 11
185.1162262127891
 21
14.2588002618077
 31
0.0
 11
185.1162262127891
 21
14.42213236125567
 31
0.0
 11
185.1162262127891
 21
14.58546446070364
 31
0.0
 11
185.1162262127891
 21
14.73963775083678
 31
0.0
 11
185.1162262127891
 21
14.87549342234023
 31
0.0
 11
185.1162262127891
 21
14.98387266589916
 31
0.0
 11
185.1162262127891
 21
15.05561667219874
 31
0.0
 11
185.1162262127891
 21
15.08156663192412
 31
0.0
 11
185.0379865861722
 21
14.84965603302382
 31
0.0
 11
184.9497110789304
 21
14.63077616328689
 31
0.0
 11
184.8544106930045
 21
14.43598991333556
 31
0.0
 11
184.7550964303356
 21
14.27636017379211
 31
0.0
 11
184.7109198342406
 21
14.35822446196604
 31
0.0
 11
184.6588057383481
 21
14.43414885430822
 31
0.0
 11
184.76273025903
 21
14.59640087926764
 31
0.0
 11
184.8629319864735
 21
14.79551465421786
 31
0.0
 11
184.9550446607902
 21
15.01890447916201
 31
0.0
 11
185.0347020220913
 21
15.25398465410325
 31
0.0
 11
185.0975378104881
 21
15.48816947904471
 31
0.0
 11
185.0693965972143
 21
15.48816947904471
 31
0.0
 11
184.9990435640298
 21
15.48816947904471
 31
0.0
 11
184.9075846208899
 21
15.48816947904471
 31
0.0
 11
184.81612567775
 21
15.48816947904471
 31
0.0
 11
184.7457726445654
 21
15.48816947904471
 31
0.0
 11
184.7176314312916
 21
15.48816947904471
 31
0.0
 11
184.7176314312916
 21
15.51452032539229
 31
0.0
 11
184.7176314312916
 21
15.57249218735696
 31
0.0
 11
184.7176314312916
 21
15.63046404932163
 31
0.0
 11
184.7176314312916
 21
15.65681489566921
 31
0.0
 11
184.739711025602
 21
15.65681489566921
 31
0.0
 11
184.7966531372444
 21
15.65681489566921
 31
0.0
 11
184.8745127592862
 21
15.65681489566921
 31
0.0
 11
184.9593448847945
 21
15.65681489566921
 31
0.0
 11
185.0372045068362
 21
15.65681489566921
 31
0.0
 11
185.0941466184787
 21
15.65681489566921
 31
0.0
 11
185.1162262127891
 21
15.65681489566921
 31
0.0
 11
185.1162262127891
 21
15.68210596174362
 31
0.0
 11
185.1162262127891
 21
15.74878240866705
 31
0.0
 11
185.1162262127891
 21
15.84304910948984
 31
0.0
 11
185.1162262127891
 21
15.95111093726231
 31
0.0
 11
185.1162262127891
 21
16.05917276503478
 31
0.0
 11
185.1162262127891
 21
16.15343946585757
 31
0.0
 11
185.1162262127891
 21
16.220115912781
 31
0.0
 11
185.1162262127891
 21
16.24540697885541
 31
0.0
 11
185.1393181988666
 21
16.24373213107805
 31
0.0
 11
185.1943837041285
 21
16.23973826330125
 31
0.0
 11
185.2601070491184
 21
16.23497138885797
 31
0.0
 11
185.3151725543802
 21
16.23097752108118
 31
0.0
 11
185.3382645404578
 21
16.22930267330381
 31
0.0
 11
185.3249012644362
 21
16.20789677921199
 31
0.0
 11
185.2874469028654
 21
16.19450114553473
 31
0.0
 11
185.2874469028654
 21
16.17139743948582
 31
0.0
 11
185.2874469028654
 21
16.11048766899324
 31
0.0
 11
185.2874469028654
 21
16.02437385553822
 31
0.0
 11
185.2874469028654
 21
15.92565802060197
 31
0.0
 11
185.2874469028654
 21
15.82694218566572
 31
0.0
 11
185.2874469028654
 21
15.7408283722107
 31
0.0
 11
185.2874469028654
 21
15.67991860171812
 31
0.0
 11
185.2874469028654
 21
15.65681489566921
 31
0.0
 11
185.312615060481
 21
15.65681489566921
 31
0.0
 11
185.37553545452
 21
15.65681489566921
 31
0.0
 11
185.4573319667707
 21
15.65681489566921
 31
0.0
 11
185.5391284790213
 21
15.65681489566921
 31
0.0
 11
185.6020488730603
 21
15.65681489566921
 31
0.0
 11
185.6272170306759
 21
15.65681489566921
 31
0.0
 11
185.6272170306759
 21
15.63046404932163
 31
0.0
 11
185.6272170306759
 21
15.57249218735696
 31
0.0
 11
185.6272170306759
 21
15.51452032539229
 31
0.0
 11
185.6272170306759
 21
15.48816947904471
 31
0.0
 11
185.6020488730603
 21
15.48816947904471
 31
0.0
 11
185.5391284790213
 21
15.48816947904471
 31
0.0
 11
185.4573319667707
 21
15.48816947904471
 31
0.0
 11
185.37553545452
 21
15.48816947904471
 31
0.0
 11
185.312615060481
 21
15.48816947904471
 31
0.0
 11
185.2874469028654
 21
15.48816947904471
 31
0.0
 11
185.2874469028654
 21
15.46536458293929
 31
0.0
 11
185.2874469028654
 21
15.41098367684175
 31
0.0
 11
185.2874469028654
 21
15.34607743408018
 31
0.0
 11
185.2874469028654
 21
15.29169652798264
 31
0.0
 11
185.2874469028654
 21
15.26889163187722
 31
0.0
  0
SPLINE
  5
AF
102
{ACAD_REACTORS
330
CC
102
}
330
48
100
AcDbEntity
  8
_U_30EC_U_30A4_U_30E4_U_30FC_1
  6
Continuous
 62
     2
100
AcDbSpline
210
0.0
220
0.0
230
1.0
 70
    11
 71
     3
 72
    47
 73
    43
 74
    41
 42
0.000000001
 43
0.0000000001
 44
0.00000001
 40
0.0
 40
0.0
 40
0.0
 40
0.0
 40
0.2207912809956793
 40
0.4459404186302195
 40
0.4902387190457785
 40
0.5327473892721006
 40
0.5742260451223768
 40
0.6155432630559636
 40
0.6568164066314277
 40
0.6982511618778638
 40
0.7407663929315134
 40
0.7851366743173132
 40
1.010288833836069
 40
1.231080507001878
 40
1.451765243652142
 40
1.676638205891442
 40
1.720461045359415
 40
1.830018144043279
 40
1.972442372352908
 40
2.114866600677279
 40
2.224423699394902
 40
2.268246538883143
 40
2.493628801206983
 40
2.715602830286404
 40
2.934211330706122
 40
3.149502369855115
 40
3.231387784850649
 40
3.318231873853713
 40
3.405143198197702
 40
3.486970301720111
 40
3.702258172493554
 40
3.92086628353375
 40
4.142839325931565
 40
4.368221903865034
 40
4.412044743359515
 40
4.521601842095527
 40
4.664026070452008
 40
4.806450298808717
 40
4.91600739754641
 40
4.959830237042733
 40
5.184703515846782
 40
5.405387250767194
 40
5.405387250767194
 40
5.405387250767194
 40
5.405387250767194
 10
182.6507427258645
 20
15.73406440953882
 30
0.0
 10
182.6568139420002
 20
15.7975848250122
 30
0.0
 10
182.6690762107243
 20
15.92587938689635
 30
0.0
 10
182.5604706879413
 20
16.20166220174071
 30
0.0
 10
182.6761985896605
 20
16.1718813343206
 30
0.0
 10
182.7171842509016
 20
16.16765556262828
 30
0.0
 10
182.7591205797519
 20
16.16310446389614
 30
0.0
 10
182.8004196625711
 20
16.16201982929488
 30
0.0
 10
182.8417032115556
 20
16.16310338195235
 30
0.0
 10
182.8836148270647
 20
16.16766112711352
 30
0.0
 10
182.9245983549019
 20
16.17187430209735
 30
0.0
 10
183.0404922843489
 20
16.20177611317527
 30
0.0
 10
182.9295652727458
 20
15.92339806609899
 30
0.0
 10
182.9574856365268
 20
15.7428314082496
 30
0.0
 10
182.9404267346971
 20
15.50961042346479
 30
0.0
 10
182.9414637282104
 20
15.34906622543151
 30
0.0
 10
182.9414099399405
 20
15.22284817558726
 30
0.0
 10
182.9414277372482
 20
15.12428963336246
 30
0.0
 10
182.9414188581082
 20
14.99280702442968
 30
0.0
 10
182.9414263928034
 20
14.86132844968654
 30
0.0
 10
182.9414129405129
 20
14.76276222694095
 30
0.0
 10
182.9414531717493
 20
14.63639735624156
 30
0.0
 10
182.9406746403819
 20
14.47482068822874
 30
0.0
 10
182.9565958319268
 20
14.24361821892917
 30
0.0
 10
182.9333468885408
 20
14.05874351972007
 30
0.0
 10
183.0360183444365
 20
13.7893560277006
 30
0.0
 10
182.8820238362837
 20
13.82660112685825
 30
0.0
 10
182.8004129802832
 20
13.82137994680545
 30
0.0
 10
182.7188192292583
 20
13.82660620378358
 30
0.0
 10
182.5648513666843
 20
13.78937069885389
 30
0.0
 10
182.6674183421918
 20
14.05875129862885
 30
0.0
 10
182.6442045316087
 20
14.24361585325418
 30
0.0
 10
182.660044465514
 20
14.47482218565642
 30
0.0
 10
182.6593296313427
 20
14.63639712308507
 30
0.0
 10
182.6593664569908
 20
14.76276231210526
 30
0.0
 10
182.6593549000271
 20
14.86132756635986
 30
0.0
 10
182.6593575019215
 20
14.99281127417225
 30
0.0
 10
182.659364853178
 20
15.12427548031204
 30
0.0
 10
182.6593442541352
 20
15.2228778627533
 30
0.0
 10
182.6594082192029
 20
15.34896149354432
 30
0.0
 10
182.658173394759
 20
15.51210091383778
 30
0.0
 10
182.6532040396745
 20
15.66054183777559
 30
0.0
 10
182.6507427258645
 20
15.73406440953882
 30
0.0
 11
182.6507427258645
 21
15.73406440953882
 31
0.0
 11
182.6417328200379
 21
15.95467178795583
 31
0.0
 11
182.6318769706147
 21
16.17960510387181
 31
0.0
 11
182.6756985840802
 21
16.17312391463735
 31
0.0
 11
182.7178400934216
 21
16.16754892331932
 31
0.0
 11
182.7591371409791
 21
16.16367167505638
 31
0.0
 11
182.8004341885366
 21
16.16238072887612
 31
0.0
 11
182.8416871388731
 21
16.16367167505638
 31
0.0
 11
182.8829400892097
 21
16.16754892331932
 31
0.0
 11
182.9250882131343
 21
16.17312391463735
 31
0.0
 11
182.9689825870145
 21
16.17960510387181
 31
0.0
 11
182.9590577693892
 21
15.95467178795583
 31
0.0
 11
182.9500384208311
 21
15.73406440953882
 31
0.0
 11
182.9435638463436
 21
15.51347467001061
 31
0.0
 11
182.9414218238287
 21
15.28861190965012
 31
0.0
 11
182.9414218238287
 21
15.2447890701549
 31
0.0
 11
182.9414218238287
 21
15.13523197141687
 31
0.0
 11
182.9414218238287
 21
14.99280774305742
 31
0.0
 11
182.9414218238287
 21
14.85038351469797
 31
0.0
 11
182.9414218238287
 21
14.74082641595994
 31
0.0
 11
182.9414218238287
 21
14.69700357646472
 31
0.0
 11
182.9435638463436
 21
14.4716314931877
 31
0.0
 11
182.9500384208311
 21
14.24975190990982
 31
0.0
 11
182.9590577693892
 21
14.03132954885334
 31
0.0
 11
182.9689825870145
 21
13.81626739612932
 31
0.0
 11
182.8872616168771
 21
13.82145433189193
 31
0.0
 11
182.8004341885366
 21
13.82315538223872
 31
0.0
 11
182.713539511934
 21
13.82145433189193
 31
0.0
 11
182.6318769706147
 21
13.81626739612932
 31
0.0
 11
182.6417328200379
 21
14.03132954885334
 31
0.0
 11
182.6507427258645
 21
14.24975190990982
 31
0.0
 11
182.6571833838798
 21
14.4716314931877
 31
0.0
 11
182.6593583588024
 21
14.69700357646472
 31
0.0
 11
182.6593583588024
 21
14.74082641595994
 31
0.0
 11
182.6593583588024
 21
14.85038351469797
 31
0.0
 11
182.6593583588024
 21
14.99280774305742
 31
0.0
 11
182.6593583588024
 21
15.13523197141687
 31
0.0
 11
182.6593583588024
 21
15.2447890701549
 31
0.0
 11
182.6593583588024
 21
15.28861190965012
 31
0.0
 11
182.6571833838798
 21
15.51347467001061
 31
0.0
 11
182.6507427258645
 21
15.73406440953882
 31
0.0
  0
SPLINE
  5
B0
102
{ACAD_REACTORS
330
CD
102
}
330
48
100
AcDbEntity
  8
_U_30EC_U_30A4_U_30E4_U_30FC_1
  6
Continuous
 62
     2
100
AcDbSpline
210
0.0
220
0.0
230
1.0
 70
    11
 71
     3
 72
   110
 73
   106
 74
   104
 42
0.000000001
 43
0.0000000001
 44
0.00000001
 40
0.0
 40
0.0
 40
0.0
 40
0.0
 40
0.2203406257277962
 40
0.4407808782838107
 40
0.5952494494615068
 40
0.7488431659393069
 40
0.9023581831308486
 40
1.056801968670404
 40
1.210736449099876
 40
1.363041386539783
 40
1.515315729683097
 40
1.669377239148075
 40
1.721611652756498
 40
1.773199502942893
 40
1.824933793209937
 40
1.877110426487912
 40
1.982682281206676
 40
2.078781667087453
 40
2.17280964082223
 40
2.271937807378855
 40
2.37834993337925
 40
2.494131557736525
 40
2.626681683943631
 40
2.783145050796002
 40
2.890701232940883
 40
2.993130312454777
 40
3.099869730691768
 40
3.220237816691212
 40
3.352695482737566
 40
3.481732806389803
 40
3.593499473690377
 40
3.674323013331839
 40
3.817951711952732
 40
3.9461671207937
 40
4.061405053453414
 40
4.166480796003026
 40
4.262478775059178
 40
4.350736673551133
 40
4.433071991254018
 40
4.511216293814509
 40
4.564262454117837
 40
4.618474415571476
 40
4.670128488754057
 40
4.722296879126214
 40
4.81954094531408
 40
4.931194984127938
 40
5.049996040257521
 40
5.168643755415008
 40
5.283970811762305
 40
5.39226078491016
 40
5.486512254876177
 40
5.559178233949548
 40
5.591425852853186
 40
5.626215969637572
 40
5.667155838674125
 40
5.717449290213965
 40
5.738402360944564
 40
5.784499116553494
 40
5.83059587216443
 40
5.851548942897271
 40
5.873019280661394
 40
5.924217778407959
 40
5.985325662817365
 40
6.036524160567405
 40
6.057994498333942
 40
6.236847789607184
 40
6.381409928945285
 40
6.493190424178382
 40
6.574067534230156
 40
6.691018086205222
 40
6.814881554220168
 40
6.944307823240149
 40
7.071266716065661
 40
7.193488604461503
 40
7.309042773127733
 40
7.414007203170415
 40
7.5051404418862
 40
7.531150360599351
 40
7.559221645321936
 40
7.587202218920631
 40
7.612569159498809
 40
7.662550809480708
 40
7.702878875763868
 40
7.857328205230683
 40
8.0107995680883
 40
8.16525639965728
 40
8.32223269871359
 40
8.479564855016305
 40
8.635216230290508
 40
8.790882550925454
 40
8.948305154946993
 40
9.168271839032677
 40
9.387358980986916
 40
9.608047961033188
 40
9.832914234792419
 40
9.85833869496275
 40
9.925366817229753
 40
10.02013071422733
 40
10.1287624985897
 40
10.2373942829522
 40
10.3321581799516
 40
10.39918630222363
 40
10.42461076239752
 40
10.64992019336917
 40
10.87188524531157
 40
10.87188524531157
 40
10.87188524531157
 40
10.87188524531157
 10
179.9057788376619
 20
15.73923260398192
 30
0.0
 10
179.9092864933542
 20
15.80616462073807
 30
0.0
 10
179.9163033987663
 20
15.94005891915862
 30
0.0
 10
179.8198027599074
 20
16.2254855497147
 30
0.0
 10
180.0510134726109
 20
16.16284386190291
 30
0.0
 10
180.1919290057156
 20
16.17001554055998
 30
0.0
 10
180.3490417757588
 20
16.16235883078252
 30
0.0
 10
180.5025913427288
 20
16.16252752283043
 30
0.0
 10
180.6545104935082
 20
16.1618204053544
 30
0.0
 10
180.8142214813231
 20
16.17210158351646
 30
0.0
 10
180.9408972601119
 20
16.15496511080758
 30
0.0
 10
181.1370821122081
 20
16.22727260107149
 30
0.0
 10
181.103439527908
 20
16.12640699080123
 30
0.0
 10
181.1052011317184
 20
16.07619253947678
 30
0.0
 10
181.1027342073459
 20
16.02712335586473
 30
0.0
 10
181.1347076966011
 20
15.94063490847006
 30
0.0
 10
181.0010399903257
 20
15.98997438608346
 30
0.0
 10
180.9172208688057
 20
15.98430634314171
 30
0.0
 10
180.8173861139325
 20
15.99465516706301
 30
0.0
 10
180.7186576720146
 20
16.00086450411087
 30
0.0
 10
180.6121532771112
 20
16.00697763816785
 30
0.0
 10
180.491051169806
 20
16.01588883484593
 30
0.0
 10
180.3703381502453
 20
16.00521605912391
 30
0.0
 10
180.1812553843438
 20
16.06468503080375
 30
0.0
 10
180.212902850531
 20
15.90558320077548
 30
0.0
 10
180.1995563316835
 20
15.80839128339911
 30
0.0
 10
180.1974958426449
 20
15.69634065110112
 30
0.0
 10
180.1958188044671
 20
15.57699685629359
 30
0.0
 10
180.1973336794234
 20
15.45032592155118
 30
0.0
 10
180.1956582478669
 20
15.32301588016122
 30
0.0
 10
180.2058844271659
 20
15.2245156640447
 30
0.0
 10
180.1779006596583
 20
15.0838870262564
 30
0.0
 10
180.3508029999305
 20
15.13989551134102
 30
0.0
 10
180.4645020202771
 20
15.12719951478502
 30
0.0
 10
180.5840151672239
 20
15.13448377051261
 30
0.0
 10
180.6888491425072
 20
15.1387801705676
 30
0.0
 10
180.7843084898613
 20
15.14330568258988
 30
0.0
 10
180.8763823507033
 20
15.15149201146204
 30
0.0
 10
180.947655178244
 20
15.14643850638115
 30
0.0
 10
181.0544931705684
 20
15.18536425031679
 30
0.0
 10
181.0226603598037
 20
15.10517122005884
 30
0.0
 10
181.0266164503929
 20
15.05562936846039
 30
0.0
 10
181.0234502392014
 20
15.00557478039827
 30
0.0
 10
181.0550791490583
 20
14.92128847612032
 30
0.0
 10
180.9210133677692
 20
14.97425365495164
 30
0.0
 10
180.82923227932
 20
14.96540080890452
 30
0.0
 10
180.7079729189603
 20
14.97570049965159
 30
0.0
 10
180.5914113119772
 20
14.97748911767501
 30
0.0
 10
180.4783375745879
 20
14.97787017109696
 30
0.0
 10
180.3679246308471
 20
14.98415449472187
 30
0.0
 10
180.289812406784
 20
14.97189133255365
 30
0.0
 10
180.1913625833645
 20
15.00453887616128
 30
0.0
 10
180.2012355173561
 20
14.94769748054209
 30
0.0
 10
180.1973923244402
 20
14.91392130557989
 30
0.0
 10
180.1966789884269
 20
14.87119604709413
 30
0.0
 10
180.1963369642975
 20
14.83401607262156
 30
0.0
 10
180.1963834255345
 20
14.79487237370773
 30
0.0
 10
180.1963649429927
 20
14.75716849497691
 30
0.0
 10
180.1963703431806
 20
14.71944955232411
 30
0.0
 10
180.1963697214201
 20
14.6899432474516
 30
0.0
 10
180.1963698151545
 20
14.6587357769931
 30
0.0
 10
180.1963704287921
 20
14.61414424908093
 30
0.0
 10
180.1963671499336
 20
14.55963956508856
 30
0.0
 10
180.1963759623481
 20
14.51505540201451
 30
0.0
 10
180.1963359653416
 20
14.43117808585743
 30
0.0
 10
180.1976024270256
 20
14.31737520677683
 30
0.0
 10
180.1950274117842
 20
14.16830395933714
 30
0.0
 10
180.206500938172
 20
14.06597203813913
 30
0.0
 10
180.1823506222265
 20
13.93338903885842
 30
0.0
 10
180.3332993946476
 20
13.97895732272029
 30
0.0
 10
180.4428436671557
 20
13.96427012162356
 30
0.0
 10
180.5733970473921
 20
13.9692043512507
 30
0.0
 10
180.6990312209514
 20
13.97257705323375
 30
0.0
 10
180.8188730625601
 20
13.97711497498776
 30
0.0
 10
180.9391362611426
 20
13.99048536182017
 30
0.0
 10
181.0222761663515
 20
13.98068712782603
 30
0.0
 10
181.1456080421076
 20
14.04126214623332
 30
0.0
 10
181.1244269203957
 20
13.9853246013403
 30
0.0
 10
181.1235950270118
 20
13.95939249372355
 30
0.0
 10
181.1218963707559
 20
13.93197256190948
 30
0.0
 10
181.121797488883
 20
13.89738195206392
 30
0.0
 10
181.120365930133
 20
13.86050408220775
 30
0.0
 10
181.153280419219
 20
13.76846841021811
 30
0.0
 10
180.9551306988108
 20
13.84132015974838
 30
0.0
 10
180.8300548294892
 20
13.81825726508616
 30
0.0
 10
180.6673071295157
 20
13.82454021985795
 30
0.0
 10
180.5129366450002
 20
13.82260943909936
 30
0.0
 10
180.3566670436944
 20
13.82393762599277
 30
0.0
 10
180.1970544465283
 20
13.82059872487873
 30
0.0
 10
180.0540326342237
 20
13.83265795728248
 30
0.0
 10
179.8197144881629
 20
13.76952001976923
 30
0.0
 10
179.9173810751198
 20
14.05620527466322
 30
0.0
 10
179.9006868780059
 20
14.24988308142663
 30
0.0
 10
179.9146296709685
 20
14.47848242880299
 30
0.0
 10
179.9142987846633
 20
14.63384593955053
 30
0.0
 10
179.9143078119264
 20
14.73966336444132
 30
0.0
 10
179.9143055876316
 20
14.8020578412422
 30
0.0
 10
179.914306555189
 20
14.89220425248331
 30
0.0
 10
179.9143065473262
 20
14.99621167157442
 30
0.0
 10
179.9143053861104
 20
15.10022131375299
 30
0.0
 10
179.9143090971502
 20
15.1903624368877
 30
0.0
 10
179.9143011051053
 20
15.25276803097216
 30
0.0
 10
179.9143334275017
 20
15.35868835961122
 30
0.0
 10
179.9131440788322
 20
15.51626716544744
 30
0.0
 10
179.9082216489257
 20
15.66528219822069
 30
0.0
 10
179.9057788376619
 20
15.73923260398192
 30
0.0
 11
179.9057788376619
 21
15.73923260398192
 31
0.0
 11
179.8966918223741
 21
15.95938578101022
 31
0.0
 11
179.8868249573134
 21
16.17960510387181
 31
0.0
 11
180.0411575141401
 21
16.17312391463735
 31
0.0
 11
180.1946500189047
 21
16.16754892331932
 31
0.0
 11
180.3481160653367
 21
16.16367167505638
 31
0.0
 11
180.502554455494
 21
16.16238072887612
 31
0.0
 11
180.6564835227474
 21
16.16367167505638
 31
0.0
 11
180.8087391004601
 21
16.16754892331932
 31
0.0
 11
180.9609113551074
 21
16.17312391463735
 31
0.0
 11
181.1148364762484
 21
16.17960510387181
 31
0.0
 11
181.1070811703125
 21
16.12794961777366
 31
0.0
 11
181.1044991623592
 21
16.07642642334211
 31
0.0
 11
181.1070811703125
 21
16.02475660564668
 31
0.0
 11
181.1148364762484
 21
15.97315954836792
 31
0.0
 11
181.0094874054411
 21
15.98001446156066
 31
0.0
 11
180.9136375700061
 21
15.98693552058661
 31
0.0
 11
180.8198593171904
 21
15.99378381919601
 31
0.0
 11
180.7209679915882
 21
16.00063211780542
 31
0.0
 11
180.6147532199925
 21
16.0071099997483
 31
0.0
 11
180.4991060528038
 21
16.01268829835802
 31
0.0
 11
180.3666126447258
 21
16.01656554662096
 31
0.0
 11
180.2101546018424
 21
16.01785649280122
 31
0.0
 11
180.2062663293722
 21
15.91037061609194
 31
0.0
 11
180.2015380048401
 21
15.80805072896472
 31
0.0
 11
180.1976607566749
 21
15.70138175329694
 31
0.0
 11
180.1963698105272
 21
15.58102059013262
 31
0.0
 11
180.1967799146836
 21
15.4485635589157
 31
0.0
 11
180.1980896021502
 21
15.31953288186462
 31
0.0
 11
180.199407457705
 21
15.20777398432311
 31
0.0
 11
180.1998191153661
 21
15.12695149302392
 31
0.0
 11
180.3434452935875
 21
15.12780256941257
 31
0.0
 11
180.4716343930758
 21
15.13039989580082
 31
0.0
 11
180.5868078221796
 21
15.13425509545259
 31
0.0
 11
180.691775631222
 21
15.13901649302082
 31
0.0
 11
180.7876346289422
 21
15.14418027774184
 31
0.0
 11
180.8757413374194
 21
15.14934406246272
 31
0.0
 11
180.9578881438497
 21
15.15491243919744
 31
0.0
 11
181.0357692335571
 21
15.16132086801532
 31
0.0
 11
181.0280180445186
 21
15.10884407115343
 31
0.0
 11
181.0254328449317
 21
15.05469378470862
 31
0.0
 11
181.0280180445186
 21
15.00310444444373
 31
0.0
 11
181.0357692335571
 21
14.95151510417892
 31
0.0
 11
180.9389813454014
 21
14.96092324653764
 31
0.0
 11
180.8275950722015
 21
14.96865128473021
 31
0.0
 11
180.7089261429373
 21
14.9742527343815
 31
0.0
 11
180.5903167449214
 21
14.97726788195011
 31
0.0
 11
180.4750025117521
 21
14.97898767361641
 31
0.0
 11
180.36672619507
 21
14.98070746528262
 31
0.0
 11
180.2724839317709
 21
14.98202486979619
 31
0.0
 11
180.1998191153661
 21
14.98243607639331
 31
0.0
 11
180.199407457705
 21
14.95019108508196
 31
0.0
 11
180.1980896021502
 21
14.91542593752122
 31
0.0
 11
180.1967799146836
 21
14.87450702260088
 31
0.0
 11
180.1963698105272
 21
14.82421524309952
 31
0.0
 11
180.1963698105272
 21
14.80326217235824
 31
0.0
 11
180.1963698105272
 21
14.75716541672742
 31
0.0
 11
180.1963698105272
 21
14.7110686610966
 31
0.0
 11
180.1963698105272
 21
14.69011559035532
 31
0.0
 11
180.1963698105272
 21
14.66864525258291
 31
0.0
 11
180.1963698105272
 21
14.61744675481791
 31
0.0
 11
180.1963698105272
 21
14.55633887038873
 31
0.0
 11
180.1963698105272
 21
14.50514037262374
 31
0.0
 11
180.1963698105272
 21
14.48367003485132
 31
0.0
 11
180.1967799146836
 21
14.3048172137155
 31
0.0
 11
180.1980896021502
 21
14.16026100715452
 31
0.0
 11
180.2002868589709
 21
14.04850210961292
 31
0.0
 11
180.2032586986986
 21
13.96767961831372
 31
0.0
 11
180.3202092517448
 21
13.96767961831372
 31
0.0
 11
180.4440727208747
 21
13.96767961831372
 31
0.0
 11
180.5734925526423
 21
13.96897056449398
 31
0.0
 11
180.7003922282244
 21
13.97284781275693
 31
0.0
 11
180.8224658067973
 21
13.97886708358872
 31
0.0
 11
180.9377587499463
 21
13.98663260442012
 31
0.0
 11
181.0421754573519
 21
13.99734161483412
 31
0.0
 11
181.1320599255449
 21
14.01237656274702
 31
0.0
 11
181.1264254031192
 21
13.98698427976725
 31
0.0
 11
181.1234433285424
 21
13.95907184053812
 31
0.0
 11
181.1221339881201
 21
13.93112191867009
 31
0.0
 11
181.1217235369196
 21
13.90575829888482
 31
0.0
 11
181.1243087365065
 21
13.85584355063333
 31
0.0
 11
181.1320599255449
 21
13.81626739612932
 31
0.0
 11
180.9776977178345
 21
13.82145433189193
 31
0.0
 11
180.8242357818766
 21
13.82315538223872
 31
0.0
 11
180.6697789496484
 21
13.82315538223872
 31
0.0
 11
180.5128026496769
 21
13.82315538223872
 31
0.0
 11
180.3554704921537
 21
13.82315538223872
 31
0.0
 11
180.1998191153661
 21
13.82315538223872
 31
0.0
 11
180.0441620874242
 21
13.82145433189193
 31
0.0
 11
179.8868249573134
 21
13.81626739612932
 31
0.0
 11
179.8966918223741
 21
14.03601267385215
 31
0.0
 11
179.9057788376619
 21
14.25491128490852
 31
0.0
 11
179.9121721518401
 21
14.47550763902007
 31
0.0
 11
179.914306345501
 21
14.70036378479722
 31
0.0
 11
179.914306345501
 21
14.72578824496881
 31
0.0
 11
179.914306345501
 21
14.79281636723938
 31
0.0
 11
179.914306345501
 21
14.88758026424258
 31
0.0
 11
179.914306345501
 21
14.99621204861212
 31
0.0
 11
179.914306345501
 21
15.10484383298165
 31
0.0
 11
179.914306345501
 21
15.19960772998486
 31
0.0
 11
179.914306345501
 21
15.26663585225542
 31
0.0
 11
179.914306345501
 21
15.29206031242701
 31
0.0
 11
179.9121721518401
 21
15.51735963528742
 31
0.0
 11
179.9057788376619
 21
15.73923260398192
 31
0.0
  0
SPLINE
  5
B1
102
{ACAD_REACTORS
330
CE
102
}
330
48
100
AcDbEntity
  8
_U_30EC_U_30A4_U_30E4_U_30FC_1
  6
Continuous
 62
     2
100
AcDbSpline
210
0.0
220
0.0
230
1.0
 70
    11
 71
     3
 72
    95
 73
    91
 74
    89
 42
0.000000001
 43
0.0000000001
 44
0.00000001
 40
0.0
 40
0.0
 40
0.0
 40
0.0
 40
0.6550406656911546
 40
1.308087289031915
 40
1.420803739835748
 40
1.566130759770685
 40
1.75706734188839
 40
2.006513545026418
 40
2.087328263121497
 40
2.185328872295527
 40
2.294612454748318
 40
2.408936380534803
 40
2.526802767798511
 40
2.646360524615588
 40
2.76253572397157
 40
2.870057342870139
 40
2.966883448431572
 40
3.050803243518207
 40
3.115818222436546
 40
3.156030057150207
 40
3.213914225080139
 40
3.276689026450597
 40
3.34296032098129
 40
3.404230667150542
 40
3.453822809493365
 40
3.532499827188405
 40
3.63477518850712
 40
3.754909333008182
 40
3.889736761660633
 40
4.035769602175216
 40
4.187256681197593
 40
4.338733685675952
 40
4.488478734676113
 40
4.634708317831611
 40
4.771493189921284
 40
4.892686571561266
 40
5.199775528944472
 40
5.460353566929632
 40
5.667603142345506
 40
5.81472290540453
 40
5.828990806219828
 40
5.855488336304525
 40
5.869756237118857
 40
6.189796507762892
 40
6.531890469873121
 40
6.883053637017094
 40
7.230512024911649
 40
7.56696665676469
 40
7.885203559707568
 40
8.17288743971938
 40
8.418011594062865
 40
8.443926721190788
 40
8.510760470613276
 40
8.602145393795787
 40
8.70171404164723
 40
8.793098965075464
 40
8.859932715058036
 40
8.885847842603686
 40
9.242301256612931
 40
9.589275455016894
 40
9.921808543164296
 40
10.23479624298475
 40
10.29968150889183
 40
10.35323493887774
 40
10.4015462535515
 40
10.46482922477831
 40
10.55973900668409
 40
10.69239545985618
 40
10.84920353475674
 40
11.01626328594787
 40
11.18672024367448
 40
11.35372582577218
 40
11.50257442292431
 40
11.618664950233
 40
11.71329869152876
 40
11.82511050573911
 40
11.94464880845719
 40
12.06929242642513
 40
12.19707290435178
 40
12.32562632860534
 40
12.45034565331281
 40
12.56646595170333
 40
12.67099007414638
 40
12.76077625936781
 40
12.82703233506696
 40
12.87429132786001
 40
12.8983199032334
 40
12.92234847860028
 40
13.53984767410334
 40
14.18294284359376
 40
14.18294284359376
 40
14.18294284359376
 40
14.18294284359376
 10
177.3067935648022
 20
14.70898038201732
 30
0.0
 10
177.1752019758551
 20
14.82265058603238
 30
0.0
 10
176.9124193802729
 20
15.04964496316161
 30
0.0
 10
176.3997393441025
 20
15.89214462956289
 30
0.0
 10
176.4106654595361
 20
15.53423377577027
 30
0.0
 10
176.4041226527993
 20
15.39267392272141
 30
0.0
 10
176.4028026631773
 20
15.19421305299289
 30
0.0
 10
176.4018117602538
 20
15.02150296045989
 30
0.0
 10
176.4024101751974
 20
14.87865373257587
 30
0.0
 10
176.4038994301883
 20
14.78265005413366
 30
0.0
 10
176.4055683588472
 20
14.67545503263147
 30
0.0
 10
176.407193495462
 20
14.56164211517587
 30
0.0
 10
176.4092429501686
 20
14.44441572604592
 30
0.0
 10
176.4123165501927
 20
14.32656411232973
 30
0.0
 10
176.4156339697044
 20
14.21228087320623
 30
0.0
 10
176.419360534028
 20
14.10521401867281
 30
0.0
 10
176.4217338161424
 20
14.01007408766928
 30
0.0
 10
176.427871888836
 20
13.92558557205704
 30
0.0
 10
176.4239784495946
 20
13.86923087298149
 30
0.0
 10
176.4455230443079
 20
13.7982502247236
 30
0.0
 10
176.3680940058618
 20
13.82902677604491
 30
0.0
 10
176.3116353240191
 20
13.82011242517625
 30
0.0
 10
176.2540495896807
 20
13.82896218398282
 30
0.0
 10
176.1690163478474
 20
13.79738225225948
 30
0.0
 10
176.2009714146382
 20
13.88095155992197
 30
0.0
 10
176.1990705282539
 20
13.94882608968314
 30
0.0
 10
176.2107960047301
 20
14.05233256764424
 30
0.0
 10
176.2164241052999
 20
14.17002125616701
 30
0.0
 10
176.2237902178942
 20
14.3038860916443
 30
0.0
 10
176.2320759701609
 20
14.44764152872638
 30
0.0
 10
176.2398851897428
 20
14.5971402284345
 30
0.0
 10
176.2457571222658
 20
14.74792549402085
 30
0.0
 10
176.2503667817969
 20
14.89699943878445
 30
0.0
 10
176.2542632117542
 20
15.04122913163031
 30
0.0
 10
176.2570715126565
 20
15.17583905213028
 30
0.0
 10
176.2576698755023
 20
15.36469614347365
 30
0.0
 10
176.2616023867151
 20
15.58975494313163
 30
0.0
 10
176.2442175378499
 20
15.86367091125716
 30
0.0
 10
176.2850417342583
 20
16.02787112098604
 30
0.0
 10
176.1995153256002
 20
16.22749661465108
 30
0.0
 10
176.2660558907688
 20
16.22385458403989
 30
0.0
 10
176.283872427323
 20
16.22413447160865
 30
0.0
 10
176.4056801797508
 20
16.22632927398625
 30
0.0
 10
176.508077033546
 20
15.94675118721522
 30
0.0
 10
176.7580021509357
 20
15.74563008536014
 30
0.0
 10
176.9870035331111
 20
15.47792614987922
 30
0.0
 10
177.2245151213109
 20
15.22646413862383
 30
0.0
 10
177.4486090740772
 20
14.98969974061361
 30
0.0
 10
177.6750716283011
 20
14.73218692583085
 30
0.0
 10
177.8325687886515
 20
14.61649335056929
 30
0.0
 10
178.0472129612674
 20
14.27997152538798
 30
0.0
 10
178.0422645974619
 20
14.40464754091606
 30
0.0
 10
178.0433931602545
 20
14.46327691935739
 30
0.0
 10
178.0428877841517
 20
14.55043662371979
 30
0.0
 10
178.0430475158113
 20
14.64416143182875
 30
0.0
 10
178.0430054891318
 20
14.73018971297038
 30
0.0
 10
178.0430202040372
 20
14.79153891945498
 30
0.0
 10
178.0429706255985
 20
14.94135231520997
 30
0.0
 10
178.0458811522811
 20
15.1798961251011
 30
0.0
 10
178.0259521041163
 20
15.54486509868707
 30
0.0
 10
178.0750433936248
 20
15.80799631993418
 30
0.0
 10
177.917795150918
 20
16.21928904947749
 30
0.0
 10
178.0762112872423
 20
16.16398282551752
 30
0.0
 10
178.1311680478628
 20
16.1619968650018
 30
0.0
 10
178.1827887766741
 20
16.16264778248258
 30
0.0
 10
178.2713198965367
 20
16.20369527738247
 30
0.0
 10
178.2204898303169
 20
16.05696326622994
 30
0.0
 10
178.2313389930284
 20
15.95019971954438
 30
0.0
 10
178.2166036994848
 20
15.79085705414117
 30
0.0
 10
178.2099976446204
 20
15.62853061652878
 30
0.0
 10
178.2014961399915
 20
15.45992521892397
 30
0.0
 10
178.1943227202198
 20
15.29814814703544
 30
0.0
 10
178.1889063215389
 20
15.15422331457933
 30
0.0
 10
178.1871713967648
 20
15.03437493466928
 30
0.0
 10
178.1875440672319
 20
14.92686101590519
 30
0.0
 10
178.1873656126263
 20
14.81820024645591
 30
0.0
 10
178.187701086314
 20
14.69953570165534
 30
0.0
 10
178.1890040622185
 20
14.57555163512746
 30
0.0
 10
178.1908887351575
 20
14.44858294171109
 30
0.0
 10
178.1925004454852
 20
14.32153861551037
 30
0.0
 10
178.194140313743
 20
14.19854884492182
 30
0.0
 10
178.1962570745752
 20
14.08300931383764
 30
0.0
 10
178.1963848422364
 20
13.98090903955843
 30
0.0
 10
178.2006514396555
 20
13.89009848838164
 30
0.0
 10
178.190844008529
 20
13.83213621208793
 30
0.0
 10
178.211847477169
 20
13.7651713013203
 30
0.0
 10
178.1725639739898
 20
13.77291153966689
 30
0.0
 10
177.9595307117747
 20
13.75755254145196
 30
0.0
 10
177.7636297943185
 20
14.31403058094467
 30
0.0
 10
177.4611197631545
 20
14.57556035348516
 30
0.0
 10
177.3067935648022
 20
14.70898038201732
 30
0.0
 11
177.3067935648022
 21
14.70898038201732
 31
0.0
 11
176.8595529338511
 21
15.18757635411982
 31
0.0
 11
176.4124049070644
 21
15.66352649288972
 31
0.0
 11
176.4089664262494
 21
15.55086249986238
 31
0.0
 11
176.4055610183501
 21
15.40557538184322
 31
0.0
 11
176.4029636920275
 21
15.21465645827976
 31
0.0
 11
176.4021126156603
 21
14.96521170139762
 31
0.0
 11
176.4025239230289
 21
14.88439802954286
 31
0.0
 11
176.4038420329817
 21
14.78640628477572
 31
0.0
 11
176.4055192267718
 21
14.67713557299745
 31
0.0
 11
176.4072367127519
 21
14.56282454872041
 31
0.0
 11
176.4094007838773
 21
14.44497802965271
 31
0.0
 11
176.4124049070644
 21
14.32545802100202
 31
0.0
 11
176.4158359733139
 21
14.20933349846158
 31
0.0
 11
176.4192928929999
 21
14.10186746550232
 31
0.0
 11
176.4227085253088
 21
14.00510162351273
 31
0.0
 11
176.4261896983794
 21
13.92125406276982
 31
0.0
 11
176.4296006184313
 21
13.85632862007767
 31
0.0
 11
176.4330776843149
 21
13.81626739612932
 31
0.0
 11
176.3754263821572
 21
13.82145433189193
 31
0.0
 11
176.3126746318309
 21
13.82315538223872
 31
0.0
 11
176.2464251717157
 21
13.82145433189193
 31
0.0
 11
176.1853747739676
 21
13.81626739612932
 31
0.0
 11
176.1926772737813
 21
13.86531894125597
 31
0.0
 11
176.2008793569054
 21
13.94356725720861
 31
0.0
 11
176.2090098822349
 21
14.04551893253032
 31
0.0
 11
176.2163406441397
 21
14.16542920159762
 31
0.0
 11
176.2236358280422
 21
14.30005912343894
 31
0.0
 11
176.2318444255596
 21
14.44586107652752
 31
0.0
 11
176.2395504149467
 21
14.59715203135078
 31
0.0
 11
176.2455763002094
 21
14.74850913200741
 31
0.0
 11
176.2503046247417
 21
14.89817951391442
 31
0.0
 11
176.254192897212
 21
15.04435739582232
 31
0.0
 11
176.2567527408965
 21
15.18111831592705
 31
0.0
 11
176.2576324804575
 21
15.30230850686903
 31
0.0
 11
176.2571926106771
 21
15.60939715262554
 31
0.0
 11
176.2559126888348
 21
15.86997204839372
 31
0.0
 11
176.2528658717893
 21
16.07719922716132
 31
0.0
 11
176.2473049112763
 21
16.22421385386073
 31
0.0
 11
176.2615728121469
 21
16.22421385386073
 31
0.0
 11
176.2880703423352
 21
16.22421385386073
 31
0.0
 11
176.3023382432058
 21
16.22421385386073
 31
0.0
 11
176.5194743650277
 21
15.98910179662782
 31
0.0
 11
176.751274412308
 21
15.73751281231571
 31
0.0
 11
176.989481601884
 21
15.47949555543579
 31
0.0
 11
177.2260074557522
 21
15.22497079855492
 31
0.0
 11
177.4555698717706
 21
14.97899759549144
 31
0.0
 11
177.6731797360104
 21
14.74678934034112
 31
0.0
 11
177.8713724913708
 21
14.53826680567103
 31
0.0
 11
178.0430143099086
 21
14.36326697932591
 31
0.0
 11
178.0430143099086
 21
14.38918210687045
 31
0.0
 11
178.0430143099086
 21
14.45601585685374
 31
0.0
 11
178.0430143099086
 21
14.54740078030027
 31
0.0
 11
178.0430143099086
 21
14.64696942823456
 31
0.0
 11
178.0430143099086
 21
14.73835435168109
 31
0.0
 11
178.0430143099086
 21
14.80518810166438
 31
0.0
 11
178.0430143099086
 21
14.83110322920892
 31
0.0
 11
178.0417233637609
 21
15.18755430550873
 31
0.0
 11
178.0378461155959
 21
15.53450684014422
 31
0.0
 11
178.0296197790002
 21
15.86693815950558
 31
0.0
 11
178.0154535467229
 21
16.17960510387181
 31
0.0
 11
178.0790351249619
 21
16.16666367158338
 31
0.0
 11
178.1324170159612
 21
16.16238072887612
 31
0.0
 11
178.1805381084833
 21
16.16666367158338
 31
0.0
 11
178.2424836798198
 21
16.17960510387181
 31
0.0
 11
178.2351216487575
 21
16.08498128445105
 31
0.0
 11
178.2269790968819
 21
15.95257496503972
 31
0.0
 11
178.2183705364005
 21
15.79600336785662
 31
0.0
 11
178.2097547223215
 21
15.62916593734272
 31
0.0
 11
178.2016187850289
 21
15.45890325509364
 31
0.0
 11
178.1942501393835
 21
15.29206031242701
 31
0.0
 11
178.1891406931522
 21
15.14329943572814
 31
0.0
 11
178.1874503478904
 21
15.02722121527101
 31
0.0
 11
178.1874503478904
 21
14.93258747397525
 31
0.0
 11
178.1874503478904
 21
14.82077565976712
 31
0.0
 11
178.1878461204497
 21
14.70123801222754
 31
0.0
 11
178.1890819450709
 21
14.57660052093922
 31
0.0
 11
178.1908392193318
 21
14.44883212687398
 31
0.0
 11
178.1925303477609
 21
14.32028982655882
 31
0.0
 11
178.1942876220215
 21
14.19558288214562
 31
0.0
 11
178.1959787504506
 21
14.07947489606352
 31
0.0
 11
178.1972884379173
 21
13.97495896727023
 31
0.0
 11
178.1976985420736
 21
13.88517371555662
 31
0.0
 11
178.1976985420736
 21
13.81891763918423
 31
0.0
 11
178.1976985420736
 21
13.77165864614042
 31
0.0
 11
178.1736699662977
 21
13.77165864614042
 31
0.0
 11
178.1496413905218
 21
13.77165864614042
 31
0.0
 11
177.7410729200423
 21
14.23466735262194
 31
0.0
 11
177.3067935648022
 21
14.70898038201732
 31
0.0
  0
SPLINE
  5
B2
102
{ACAD_REACTORS
330
CF
102
}
330
48
100
AcDbEntity
  8
_U_30EC_U_30A4_U_30E4_U_30FC_1
  6
Continuous
 62
     2
100
AcDbSpline
210
0.0
220
0.0
230
1.0
 70
    11
 71
     3
 72
    25
 73
    21
 74
    19
 42
0.000000001
 43
0.0000000001
 44
0.00000001
 40
0.0
 40
0.0
 40
0.0
 40
0.0
 40
0.091147996906454
 40
0.1858117896204967
 40
0.2804128399735074
 40
0.3715889190714809
 40
0.4679080494218155
 40
0.5642683809229256
 40
0.6605683222644725
 40
0.7569653015809429
 40
0.856134817252188
 40
1.092615965104187
 40
1.374867658141765
 40
1.611348812011448
 40
1.710518328425104
 40
1.809403163726407
 40
2.045205463293927
 40
2.326646917621968
 40
2.562449217190435
 40
2.661334043833739
 40
2.661334043833739
 40
2.661334043833739
 40
2.661334043833739
 10
173.26837005672
 20
14.88614538197302
 30
0.0
 10
173.2987525917923
 20
14.88598079714564
 30
0.0
 10
173.3606895889113
 20
14.8856452868993
 30
0.0
 10
173.4541356960331
 20
14.88269055452001
 30
0.0
 10
173.5475095236358
 20
14.87977752877154
 30
0.0
 10
173.6417760753477
 20
14.87894201643419
 30
0.0
 10
173.7354964790968
 20
14.87996644658047
 30
0.0
 10
173.8352040303205
 20
14.87916977470987
 30
0.0
 10
173.9188949546313
 20
14.88921410235224
 30
0.0
 10
174.0637996315044
 20
14.86234617674177
 30
0.0
 10
173.9396132444801
 20
15.03665530280057
 30
0.0
 10
173.8965867286282
 20
15.19651711006102
 30
0.0
 10
173.780892214221
 20
15.45518458550221
 30
0.0
 10
173.7017565431257
 20
15.59231052861868
 30
0.0
 10
173.6431576621817
 20
15.80937033134084
 30
0.0
 10
173.586480393944
 20
15.59266134213434
 30
0.0
 10
173.5052809900478
 20
15.45327012438247
 30
0.0
 10
173.4063701281489
 20
15.20406969370201
 30
0.0
 10
173.3253625094259
 20
15.01925830226084
 30
0.0
 10
173.2813683325839
 20
14.91650446856126
 30
0.0
 10
173.26837005672
 20
14.88614538197302
 30
0.0
 11
173.26837005672
 21
14.88614538197302
 31
0.0
 11
173.3595137737821
 21
14.88526123266767
 31
0.0
 11
173.4541428297582
 21
14.88269697919601
 31
0.0
 11
173.5487082179707
 21
14.8800996528078
 31
0.0
 11
173.6398803250197
 21
14.87924857641912
 31
0.0
 11
173.7361985777706
 21
14.87965978301624
 31
0.0
 11
173.8325499034377
 21
14.88097718752982
 31
0.0
 11
173.9288262638287
 21
14.8831081857932
 31
0.0
 11
174.0251753846343
 21
14.88614538197302
 31
0.0
 11
173.9854633323141
 21
14.9770164219503
 31
0.0
 11
173.8907653613968
 21
15.19370890189611
 31
0.0
 11
173.7777387509471
 21
15.45234186183143
 31
0.0
 11
173.6830407800298
 21
15.66903434177724
 31
0.0
 11
173.6433287277096
 21
15.75990538175452
 31
0.0
 11
173.6043330259267
 21
15.66903434177724
 31
0.0
 11
173.5113432755213
 21
15.45234186183143
 31
0.0
 11
173.4003555089083
 21
15.19370890189611
 31
0.0
 11
173.3073657585029
 21
14.9770164219503
 31
0.0
 11
173.26837005672
 21
14.88614538197302
 31
0.0
  0
SPLINE
  5
B3
102
{ACAD_REACTORS
330
CF
102
}
330
48
100
AcDbEntity
  8
_U_30EC_U_30A4_U_30E4_U_30FC_1
  6
Continuous
 62
     2
100
AcDbSpline
210
0.0
220
0.0
230
1.0
 70
    11
 71
     3
 72
    57
 73
    53
 74
    51
 42
0.000000001
 43
0.0000000001
 44
0.00000001
 40
0.0
 40
0.0
 40
0.0
 40
0.0
 40
0.0471632082808699
 40
0.0914861054632194
 40
0.1357762519702146
 40
0.1826527001609872
 40
0.2295203288571497
 40
0.2737751972219666
 40
0.3181310461542269
 40
0.3652607198398589
 40
0.4571007286314608
 40
0.5671851029165096
 40
0.6894623283868212
 40
0.8181758272545884
 40
0.9510087229273905
 40
1.085852229674076
 40
1.218126164475337
 40
1.343545131142385
 40
1.454537202956802
 40
1.567187607530727
 40
1.680710966642317
 40
1.794226869736709
 40
1.900009184247509
 40
2.004085860447788
 40
2.108162674451706
 40
2.214000150155307
 40
2.496038577352127
 40
2.762350745479177
 40
2.99727535327938
 40
3.185110082137726
 40
3.246407890063899
 40
3.312607550212574
 40
3.378877742711505
 40
3.440140399651447
 40
4.100501696006509
 40
4.754913085563568
 40
5.411331693423971
 40
6.077890432568766
 40
6.110575292671045
 40
6.143260152775825
 40
6.367989363395298
 40
6.610525374951678
 40
6.863389136467435
 40
7.119380025547749
 40
7.376036605091212
 40
7.631164770966389
 40
7.876722425456587
 40
8.10495373585614
 40
8.312916685924408
 40
8.49773029494142
 40
8.651018984313986
 40
8.764738853624703
 40
8.764738853624703
 40
8.764738853624703
 40
8.764738853624703
 10
174.7922649500513
 20
13.81626739612932
 30
0.0
 10
174.7766616726931
 20
13.81826231079083
 30
0.0
 10
174.7463947960302
 20
13.82213201360307
 30
0.0
 10
174.7010994202253
 20
13.82341984967278
 30
0.0
 10
174.6559553129349
 20
13.8230868355406
 30
0.0
 10
174.60990171234
 20
13.82314658674233
 30
0.0
 10
174.5640496172097
 20
13.8232581365001
 30
0.0
 10
174.5183711648165
 20
13.82277833456601
 30
0.0
 10
174.4750811541609
 20
13.82461109618729
 30
0.0
 10
174.4039947951513
 20
13.80049556814658
 30
0.0
 10
174.4057477261442
 20
13.92184693977257
 30
0.0
 10
174.3586196370569
 20
14.00726239751235
 30
0.0
 10
174.3191478251763
 20
14.12486929345144
 30
0.0
 10
174.2706635532645
 20
14.24232752540438
 30
0.0
 10
174.2201017402523
 20
14.36405935761518
 30
0.0
 10
174.1718634610477
 20
14.49075967862469
 30
0.0
 10
174.1135232947595
 20
14.59933687784958
 30
0.0
 10
174.0980892667261
 20
14.75620657134414
 30
0.0
 10
173.9566586330636
 20
14.72373446548325
 30
0.0
 10
173.8508397414905
 20
14.73512888682198
 30
0.0
 10
173.7358569725223
 20
14.73392591514617
 30
0.0
 10
173.6253142252142
 20
14.73506945347422
 30
0.0
 10
173.5176583522783
 20
14.73418350037528
 30
0.0
 10
173.4121322529244
 20
14.73416602390537
 30
0.0
 10
173.3109192682014
 20
14.72714032472418
 30
0.0
 10
173.1266804827753
 20
14.75135859859874
 30
0.0
 10
173.1157393685412
 20
14.44741691121891
 30
0.0
 10
173.0087691634751
 20
14.22353177253404
 30
0.0
 10
172.9098148604347
 20
14.03895314292508
 30
0.0
 10
172.9225090524007
 20
13.7953020480421
 30
0.0
 10
172.8050091716398
 20
13.82508046753204
 30
0.0
 10
172.7422055868311
 20
13.82258089509615
 30
0.0
 10
172.67858720934
 20
13.82344075102812
 30
0.0
 10
172.3946014194074
 20
13.78098039941941
 30
0.0
 10
173.0251638499382
 20
14.50081952444792
 30
0.0
 10
173.1087645289072
 20
15.01276539435734
 30
0.0
 10
173.4929252789338
 20
15.53353743550054
 30
0.0
 10
173.4777208288565
 20
16.23519626253224
 30
0.0
 10
173.7239265722696
 20
16.22345633081267
 30
0.0
 10
173.8256346157563
 20
16.23225004452784
 30
0.0
 10
173.8249752035818
 20
15.98059650730355
 30
0.0
 10
173.9428317155828
 20
15.79818020733961
 30
0.0
 10
174.0315515260484
 20
15.55563740662869
 30
0.0
 10
174.1322292485261
 20
15.32340030530138
 30
0.0
 10
174.2311142712242
 20
15.08674644566917
 30
0.0
 10
174.3299676990671
 20
14.85461739170105
 30
0.0
 10
174.4256166390926
 20
14.63122222788791
 30
0.0
 10
174.5159904573272
 20
14.42272549049322
 30
0.0
 10
174.598994456819
 20
14.23308448529326
 30
0.0
 10
174.6726088582798
 20
14.06663106068102
 30
0.0
 10
174.7342815895546
 20
13.92917699626105
 30
0.0
 10
174.7749458885604
 20
13.84999239430039
 30
0.0
 10
174.7922649500513
 20
13.81626739612932
 30
0.0
 11
174.7922649500513
 21
13.81626739612932
 31
0.0
 11
174.7453878317448
 21
13.82145433189193
 31
0.0
 11
174.7010975896125
 21
13.82315538223872
 31
0.0
 11
174.6568074431729
 21
13.82315538223872
 31
0.0
 11
174.609930994716
 21
13.82315538223872
 31
0.0
 11
174.5630633657034
 21
13.82315538223872
 31
0.0
 11
174.5188084970409
 21
13.82315538223872
 31
0.0
 11
174.4744852776855
 21
13.82145433189193
 31
0.0
 11
174.4276419021443
 21
13.81626739612932
 31
0.0
 11
174.3992532136325
 21
13.90360966173251
 31
0.0
 11
174.3622721815898
 21
14.00729656274822
 31
0.0
 11
174.3188386236702
 21
14.12159987001133
 31
0.0
 11
174.2711055866936
 21
14.24113531268972
 31
0.0
 11
174.2208160133237
 21
14.3640805730757
 31
0.0
 11
174.1696467003932
 21
14.48883822929452
 31
0.0
 11
174.1197531801326
 21
14.61134141502778
 31
0.0
 11
174.0733119111841
 21
14.72784517367921
 31
0.0
 11
173.9623611907589
 21
14.73087465284511
 31
0.0
 11
173.849730922509
 21
14.73300454867803
 31
0.0
 11
173.736215206945
 21
14.73432195319147
 31
0.0
 11
173.6227000476801
 21
14.73473315978862
 31
0.0
 11
173.5169185312816
 21
14.73432195319147
 31
0.0
 11
173.4128501919226
 21
14.73300454867803
 31
0.0
 11
173.3087951724046
 21
14.73087465284512
 31
0.0
 11
173.2030010615596
 21
14.72784517367921
 31
0.0
 11
173.0980914750139
 21
14.46604437513354
 31
0.0
 11
173.0034868690332
 21
14.21710232658472
 31
0.0
 11
172.9252231210298
 21
13.99559756969563
 31
0.0
 11
172.8693431224555
 21
13.81626739612932
 31
0.0
 11
172.8082651639442
 21
13.82145433189193
 31
0.0
 11
172.7420873618131
 21
13.82315538223872
 31
0.0
 11
172.6758390041283
 21
13.82145433189193
 31
0.0
 11
172.6147963233938
 21
13.81626739612932
 31
0.0
 11
172.8899684951931
 21
14.41656508695148
 31
0.0
 11
173.1582945734171
 21
15.01343642360781
 31
0.0
 11
173.4240277350405
 21
15.61366245644391
 31
0.0
 11
173.6914740737033
 21
16.22421385386073
 31
0.0
 11
173.7241589339806
 21
16.22421385386073
 31
0.0
 11
173.7568437942579
 21
16.22421385386073
 31
0.0
 11
173.8428300681058
 21
16.01658539037088
 31
0.0
 11
173.9357285813609
 21
15.79254614563521
 31
0.0
 11
174.0328714521464
 21
15.55908663180474
 31
0.0
 11
174.1317936458032
 21
15.32298128464151
 31
0.0
 11
174.2315341249927
 21
15.08649780379791
 31
0.0
 11
174.3313071129354
 21
14.85168781253722
 31
0.0
 11
174.4280608257449
 21
14.62599492196853
 31
0.0
 11
174.5188084970409
 21
14.41658052097922
 31
0.0
 11
174.6022150834546
 21
14.22607611130469
 31
0.0
 11
174.6770293263377
 21
14.05708232662472
 31
0.0
 11
174.7410729186604
 21
13.91781337700673
 31
0.0
 11
174.7922649500513
 21
13.81626739612932
 31
0.0
  0
SPLINE
  5
B4
102
{ACAD_REACTORS
330
D0
102
}
330
48
100
AcDbEntity
  8
_U_30EC_U_30A4_U_30E4_U_30FC_1
  6
Continuous
 62
     2
100
AcDbSpline
210
0.0
220
0.0
230
1.0
 70
    11
 71
     3
 72
    99
 73
    95
 74
    93
 42
0.000000001
 43
0.0000000001
 44
0.00000001
 40
0.0
 40
0.0
 40
0.0
 40
0.0
 40
0.079641717227267
 40
0.1621768542357019
 40
0.24864891609585
 40
0.3404969668525515
 40
0.4381912511165444
 40
0.5434463660245729
 40
0.6518115192847465
 40
0.7530190937886828
 40
0.849219691972503
 40
0.9419290312998302
 40
1.034249663570043
 40
1.129078600620226
 40
1.226697027573221
 40
1.327220425421658
 40
1.470572134938001
 40
1.595489863371222
 40
1.719934125348365
 40
1.850576620127336
 40
1.989059629987283
 40
2.134139054226934
 40
2.280698007207208
 40
2.424529739039447
 40
2.565929576985833
 40
2.708239260773491
 40
2.861717887443661
 40
3.045168540347383
 40
3.183798301138622
 40
3.314813961455414
 40
3.442083470447303
 40
3.569912708373058
 40
3.702177512509432
 40
3.842307559659571
 40
3.992872223245978
 40
4.156750662218285
 40
4.310981861107594
 40
4.445859909322647
 40
4.572393936131576
 40
4.701656719782034
 40
4.768279086008511
 40
4.83596069789847
 40
4.91278891872942
 40
5.006285208481622
 40
5.02690947875167
 40
5.047533749021178
 40
5.101808031471258
 40
5.162325165538559
 40
5.226919745995863
 40
5.29423180659675
 40
5.364544852554921
 40
5.438319055468006
 40
5.517877651324283
 40
5.607647714861651
 40
5.700449642544471
 40
5.788251142364152
 40
5.872714706039774
 40
5.955167292575249
 40
6.037192395190406
 40
6.120669181469141
 40
6.206848616686365
 40
6.296680855416744
 40
6.442558392872597
 40
6.56819037160829
 40
6.692904567360326
 40
6.824220446557073
 40
6.963121850329419
 40
7.107843738851186
 40
7.253431663907285
 40
7.395187468036733
 40
7.533140753237756
 40
7.670550457175175
 40
7.81623651176925
 40
7.987691657359231
 40
8.142277421969217
 40
8.293662615415013
 40
8.442962460879263
 40
8.591598316185264
 40
8.743678992361767
 40
8.903725323699152
 40
9.076307008890439
 40
9.26557860468058
 40
9.459203795360729
 40
9.617619810273457
 40
9.75360967136181
 40
9.874873300003976
 40
9.954520184977683
 40
10.02416413719237
 40
10.09769764405432
 40
10.18909955924957
 40
10.20974586420124
 40
10.23039218263372
 40
10.30057101881255
 40
10.37632012987529
 40
10.37632012987529
 40
10.37632012987529
 40
10.37632012987529
 10
170.1465954835851
 20
14.13795663216001
 30
0.0
 10
170.1632217851219
 20
14.11720608845319
 30
0.0
 10
170.1970784206577
 20
14.07495111711903
 30
0.0
 10
170.2599822541036
 20
14.02029811392076
 30
0.0
 10
170.3332500940394
 20
13.97299025121056
 30
0.0
 10
170.4175969238637
 20
13.93527231437938
 30
0.0
 10
170.513224061546
 20
13.91040619731959
 30
0.0
 10
170.6171853775346
 20
13.90309559345948
 30
0.0
 10
170.7224020220406
 20
13.9114232279406
 30
0.0
 10
170.8206626371333
 20
13.9414917965154
 30
0.0
 10
170.9058986427548
 20
13.98848822971884
 30
0.0
 10
170.9779220206103
 20
14.04952991250869
 30
0.0
 10
171.0350917709096
 20
14.12412969578596
 30
0.0
 10
171.076786874744
 20
14.21002464660181
 30
0.0
 10
171.1026952846293
 20
14.30485850432217
 30
0.0
 10
171.1118037332654
 20
14.41854979038371
 30
0.0
 10
171.0986864796487
 20
14.54332587770783
 30
0.0
 10
171.0325330334414
 20
14.66014719171895
 30
0.0
 10
170.9369370919569
 20
14.74512539577379
 30
0.0
 10
170.824968102237
 20
14.81416684459169
 30
0.0
 10
170.699365958327
 20
14.87204142045899
 30
0.0
 10
170.5656691620856
 20
14.92373723284339
 30
0.0
 10
170.431312281883
 20
14.97899092397185
 30
0.0
 10
170.3051983986877
 20
15.04939770641663
 30
0.0
 10
170.1926579987535
 20
15.13785540731249
 30
0.0
 10
170.0969963064459
 20
15.24981067868482
 30
0.0
 10
170.0334157151825
 20
15.39949910101387
 30
0.0
 10
170.0200706505016
 20
15.55932794385149
 30
0.0
 10
170.0320510987448
 20
15.71048405306851
 30
0.0
 10
170.0712298928841
 20
15.83809244591544
 30
0.0
 10
170.1354987750911
 20
15.95080874030851
 30
0.0
 10
170.2238204999741
 20
16.04648609268694
 30
0.0
 10
170.3338091207628
 20
16.12354214985757
 30
0.0
 10
170.4632284401266
 20
16.18151396936284
 30
0.0
 10
170.6111838967793
 20
16.21739177588827
 30
0.0
 10
170.7682069455487
 20
16.22746719050577
 30
0.0
 10
170.917494046643
 20
16.21863637762598
 30
0.0
 10
171.059625361417
 20
16.19074899340356
 30
0.0
 10
171.1595922609626
 20
16.13413314701144
 30
0.0
 10
171.3125074736186
 20
16.08674602105512
 30
0.0
 10
171.2455131717168
 20
16.00197553001192
 30
0.0
 10
171.229647912027
 20
15.93438901873488
 30
0.0
 10
171.1978750531297
 20
15.86926092793194
 30
0.0
 10
171.2150202209571
 20
15.76723453256959
 30
0.0
 10
171.1666427208232
 20
15.77493211681905
 30
0.0
 10
171.1315789440766
 20
15.76806771724814
 30
0.0
 10
171.1296697985719
 20
15.83263831158203
 30
0.0
 10
171.0985692931988
 20
15.87825639621393
 30
0.0
 10
171.0664551628457
 20
15.93561036628467
 30
0.0
 10
171.0208038475167
 20
15.98540462692555
 30
0.0
 10
170.9658508218387
 20
16.02994813719006
 30
0.0
 10
170.9010841173008
 20
16.06763988836559
 30
0.0
 10
170.8232377310596
 20
16.09283375791362
 30
0.0
 10
170.7355160553353
 20
16.0993123099812
 30
0.0
 10
170.6452903277807
 20
16.09235709285615
 30
0.0
 10
170.5594594694064
 20
16.06909190460923
 30
0.0
 10
170.4828343638598
 20
16.03131644107553
 30
0.0
 10
170.4165265636202
 20
15.98051641089581
 30
0.0
 10
170.3622560536965
 20
15.91731143407219
 30
0.0
 10
170.3224925345459
 20
15.84276455710371
 30
0.0
 10
170.2976775510588
 20
15.75917313997769
 30
0.0
 10
170.2892124262871
 20
15.65192948382293
 30
0.0
 10
170.3019697987104
 20
15.52965457267567
 30
0.0
 10
170.3681548409274
 20
15.41149724291218
 30
0.0
 10
170.4640977399832
 20
15.32606325709532
 30
0.0
 10
170.5757914963183
 20
15.25583362306727
 30
0.0
 10
170.7010863668703
 20
15.1965916230531
 30
0.0
 10
170.8349823941448
 20
15.14616708086144
 30
0.0
 10
170.9689930333151
 20
15.09322516984389
 30
0.0
 10
171.0950885316915
 20
15.02750170625175
 30
0.0
 10
171.2076216638418
 20
14.94480352537332
 30
0.0
 10
171.3031370284232
 20
14.83996006310077
 30
0.0
 10
171.3672706486963
 20
14.69937117251578
 30
0.0
 10
171.3811103725279
 20
14.54065409451597
 30
0.0
 10
171.367395471223
 20
14.38153155217881
 30
0.0
 10
171.3244739153984
 20
14.23483828819216
 30
0.0
 10
171.2545906329066
 20
14.10119796587151
 30
0.0
 10
171.1574592213829
 20
13.98532387699292
 30
0.0
 10
171.0347806023657
 20
13.89089981770095
 30
0.0
 10
170.8874408413168
 20
13.82179270652
 30
0.0
 10
170.7177132497125
 20
13.77953210858852
 30
0.0
 10
170.5317404979597
 20
13.76781736230409
 30
0.0
 10
170.3528955926184
 20
13.77809486683436
 30
0.0
 10
170.1881733753744
 20
13.81966573769173
 30
0.0
 10
170.0834410841057
 20
13.88797642883944
 30
0.0
 10
169.9350960790367
 20
13.93675219032111
 30
0.0
 10
169.9980378194729
 20
14.02976591290849
 30
0.0
 10
170.007227443006
 20
14.10296536248288
 30
0.0
 10
170.0303711301232
 20
14.16936294501352
 30
0.0
 10
170.0034588335317
 20
14.26974809527584
 30
0.0
 10
170.0521338956339
 20
14.2623403351738
 30
0.0
 10
170.0916530580697
 20
14.26894063620897
 30
0.0
 10
170.0996204944703
 20
14.1907870321894
 30
0.0
 10
170.1305436967923
 20
14.15600927375863
 30
0.0
 10
170.1465954835851
 20
14.13795663216001
 30
0.0
 11
170.1465954835851
 21
14.13795663216001
 31
0.0
 11
170.1982038075864
 21
14.07729869814741
 31
0.0
 11
170.2601105501336
 21
14.02271295163322
 31
0.0
 11
170.3327764009803
 21
13.97583980928388
 31
0.0
 11
170.4166468655844
 21
13.93839906276541
 31
0.0
 11
170.511221073241
 21
13.91390636311885
 31
0.0
 11
170.6161603327166
 21
13.90575829888482
 31
0.0
 11
170.7240739497552
 21
13.91564048638231
 31
0.0
 11
170.8208419941616
 21
13.94528704887492
 31
0.0
 11
170.9050776083319
 21
13.99175118948827
 31
0.0
 11
170.9756144207686
 21
14.05191413218162
 31
0.0
 11
171.031944210998
 21
14.1250581946633
 31
0.0
 11
171.0736690016004
 21
14.21021434047532
 31
0.0
 11
171.0994680808033
 21
14.30436190989617
 31
0.0
 11
171.1080824729447
 21
14.40451552098222
 31
0.0
 11
171.0878517703357
 21
14.54643250879402
 31
0.0
 11
171.0272522666731
 21
14.65566684036392
 31
0.0
 11
170.9364971286286
 21
14.740813064301
 31
0.0
 11
170.8260101884741
 21
14.81052746532522
 31
0.0
 11
170.7008523531255
 21
14.86979854169929
 31
0.0
 11
170.5662951950998
 21
14.92404253474122
 31
0.0
 11
170.4316884277007
 21
14.98201274306009
 31
0.0
 11
170.3065802017259
 21
15.05297399304241
 31
0.0
 11
170.196027609828
 21
15.14113315968699
 31
0.0
 11
170.1053381235266
 21
15.25080295132622
 31
0.0
 11
170.0447055469484
 21
15.39179720476322
 31
0.0
 11
170.0245079172553
 21
15.57413260402322
 31
0.0
 11
170.0374030471347
 21
15.71216131926649
 31
0.0
 11
170.0761016659391
 21
15.83733128451291
 31
0.0
 11
170.1393141731507
 21
15.94779262129089
 31
0.0
 11
170.2257499954546
 21
16.04196885390631
 31
0.0
 11
170.3336492808963
 21
16.11846540770657
 31
0.0
 11
170.4613526283329
 21
16.17615670109493
 31
0.0
 11
170.6075393259923
 21
16.2122006680998
 31
0.0
 11
170.770976856545
 21
16.22421385386073
 31
0.0
 11
170.924891843129
 21
16.21434269066872
 31
0.0
 11
171.0564887242608
 21
16.18477329831501
 31
0.0
 11
171.172563634494
 21
16.13439993895259
 31
0.0
 11
171.2800792741123
 21
16.06264163167882
 31
0.0
 11
171.2516994050445
 21
16.00236624106893
 31
0.0
 11
171.2284855254284
 21
15.93879017337652
 31
0.0
 11
171.2078381040801
 21
15.86478841992272
 31
0.0
 11
171.1871840681487
 21
15.77360197897332
 31
0.0
 11
171.1665597978415
 21
15.77360197897332
 31
0.0
 11
171.1459355275344
 21
15.77360197897332
 31
0.0
 11
171.1256706495791
 21
15.82395108486352
 31
0.0
 11
171.0994658759421
 21
15.87850045116932
 31
0.0
 11
171.0650468924452
 21
15.93316116296121
 31
0.0
 11
171.0203554612937
 21
15.98349593725412
 31
0.0
 11
170.9657333359511
 21
16.02777175321537
 31
0.0
 11
170.9016722004326
 21
16.06436142334512
 31
0.0
 11
170.8259682961141
 21
16.08882545979736
 31
0.0
 11
170.7365722046449
 21
16.09701100667031
 31
0.0
 11
170.6440937174208
 21
16.08926973931109
 31
0.0
 11
170.5594072091646
 21
16.06609003445571
 31
0.0
 11
170.4837024488841
 21
16.02863495634015
 31
0.0
 11
170.4183754766517
 21
15.97832774281112
 31
0.0
 11
170.3650487887665
 21
15.91600293379886
 31
0.0
 11
170.3254809233902
 21
15.84249947895611
 31
0.0
 11
170.3009523754712
 21
15.75988443557397
 31
0.0
 11
170.2927954104109
 21
15.67042329844362
 31
0.0
 11
170.3130095765619
 21
15.52595308146581
 31
0.0
 11
170.3736256166821
 21
15.41591177072942
 31
0.0
 11
170.4643479320758
 21
15.33033670130637
 31
0.0
 11
170.5748676948813
 21
15.25941954854632
 31
0.0
 11
170.700008993772
 21
15.19914305550584
 31
0.0
 11
170.8345826882554
 21
15.14590447913032
 31
0.0
 11
170.9691729191968
 21
15.09039489581081
 31
0.0
 11
171.0942976816298
 21
15.02377281249412
 31
0.0
 11
171.2048009079771
 21
14.94118863716757
 31
0.0
 11
171.2955397598288
 21
14.83800003476281
 31
0.0
 11
171.3561557999489
 21
14.7055231597959
 31
0.0
 11
171.3763699660998
 21
14.53526378483842
 31
0.0
 11
171.3621839747998
 21
14.3813303039742
 31
0.0
 11
171.3196087009193
 21
14.23605531269102
 31
0.0
 11
171.2499752884265
 21
14.10398854189074
 31
0.0
 11
171.1544992078714
 21
13.99007218775252
 31
0.0
 11
171.0341060772624
 21
13.89715272597025
 31
0.0
 11
170.8896160201846
 21
13.82832357668193
 31
0.0
 11
170.7223519532714
 21
13.78581275203971
 31
0.0
 11
170.5336103348226
 21
13.77165864614042
 31
0.0
 11
170.3405031726388
 21
13.78581275203971
 31
0.0
 11
170.1878975900912
 21
13.82832357668193
 31
0.0
 11
170.0661897942204
 21
13.88899033013895
 31
0.0
 11
169.9660261826364
 21
13.95734322942742
 31
0.0
 11
169.9922320587039
 21
14.03255545163084
 31
0.0
 11
170.0090121537618
 21
14.10014767383622
 31
0.0
 11
170.0206196447852
 21
14.17275926235967
 31
0.0
 11
170.0313606254139
 21
14.26352788212861
 31
0.0
 11
170.0520069443316
 21
14.26352788212861
 31
0.0
 11
170.0726532632493
 21
14.26352788212861
 31
0.0
 11
170.104891639163
 21
14.20119204881089
 31
0.0
 11
170.1465954835851
 21
14.13795663216001
 31
0.0
  0
LWPOLYLINE
  5
B5
102
{ACAD_REACTORS
330
C2
102
}
330
48
100
AcDbEntity
  8
_U_30EC_U_30A4_U_30E4_U_30FC_1
  6
Continuous
 62
     2
100
AcDbPolyline
 90
        5
 70
     1
 43
0.0
 10
192.4578138032672
 20
15.39722336795632
 10
192.4578138032672
 20
15.22875434022062
 10
191.1602971697031
 20
15.22875434022062
 10
191.1602971697031
 20
15.39722336795632
 10
192.4578138032672
 20
15.39722336795632
  0
MTEXT
  5
B7
330
48
100
AcDbEntity
  8
1
 62
     2
100
AcDbMText
 10
32.5
 20
282.0000000000003
 30
0.0
 40
5.0
 41
0.0
 71
     5
 72
     1
  1
図番
  7
CONVERTER_11
 73
     1
 44
0.45454545454545
  0
MTEXT
  5
B8
330
48
100
AcDbEntity
  8
1
 62
     2
100
AcDbMText
 10
29.0
 20
34.00000000000003
 30
0.0
 40
3.5
 41
0.0
 71
     5
 72
     1
  1
備考
  7
CONVERTER_11
 73
     1
 44
0.45454545454545
  0
MTEXT
  5
B9
330
48
100
AcDbEntity
  8
1
 62
     2
100
AcDbMText
 10
29.0
 20
22.75000000000003
 30
0.0
 40
3.5
 41
0.0
 71
     5
 72
     1
  1
品名
  7
CONVERTER_11
 73
     1
 44
0.72727272727273
  0
MTEXT
  5
BA
330
48
100
AcDbEntity
  8
1
 62
     2
100
AcDbMText
 10
29.0
 20
14.25000000000001
 30
0.0
 40
3.5
 41
0.0
 71
     5
 72
     1
  1
品番
  7
CONVERTER_11
 73
     1
 44
0.72727272727273
  0
MTEXT
  5
BB
330
48
100
AcDbEntity
  8
1
 62
     2
100
AcDbMText
 10
101.5000000000001
 20
25.00000000000003
 30
0.0
 40
3.0
 41
0.0
 71
     5
 72
     1
  1
承認
  7
CONVERTER_11
 73
     1
 44
0.59090909090909
  0
MTEXT
  5
BC
330
48
100
AcDbEntity
  8
1
 62
     2
100
AcDbMText
 10
175.0000000000001
 20
23.50000000000003
 30
0.0
 40
3.5
 41
0.0
 71
     5
 72
     1
  1
第三角法
  7
CONVERTER_11
 73
     1
 44
0.54545454545455
  0
MTEXT
  5
BD
330
48
100
AcDbEntity
  8
1
 62
     2
100
AcDbMText
 10
118.5000000000001
 20
25.00000000000003
 30
0.0
 40
3.0
 41
0.0
 71
     5
 72
     1
  1
検図
  7
CONVERTER_11
 73
     1
 44
0.59090909090909
  0
MTEXT
  5
BE
330
48
100
AcDbEntity
  8
1
 62
     2
100
AcDbMText
 10
152.5000000000001
 20
25.00000000000003
 30
0.0
 40
3.0
 41
0.0
 71
     5
 72
     1
  1
設計
  7
CONVERTER_11
 73
     1
 44
0.59090909090909
  0
MTEXT
  5
BF
330
48
100
AcDbEntity
  8
1
 62
     2
100
AcDbMText
 10
135.5000000000001
 20
25.00000000000003
 30
0.0
 40
3.0
 41
0.0
 71
     5
 72
     1
  1
製図
  7
CONVERTER_11
 73
     1
 44
0.59090909090909
  0
MTEXT
  5
C0
330
48
100
AcDbEntity
  8
1
 62
     2
100
AcDbMText
 10
89.50000000000006
 20
24.00000000000003
 30
0.0
 40
3.5
 41
0.0
 71
     5
 72
     1
  1
尺度
  7
CONVERTER_11
 73
     1
 44
0.54545454545455
  0
MTEXT
  5
C1
330
48
100
AcDbEntity
  8
1
 62
   250
100
AcDbMText
 10
25.0
 20
5.00000000000001
 30
0.0
 40
3.5
 41
0.0
 71
     4
 72
     1
  1
備考欄の文字列 原点位置=4
  7
CONVERTER_11
 73
     1
 44
0.54545454545455
  0
HATCH
  5
C2
330
48
100
AcDbEntity
  8
1
  6
Continuous
 62
     2
100
AcDbHatch
 10
0.0
 20
0.0
 30
0.0
210
0.0
220
0.0
230
1.0
  2
CUSTOM0
 70
     0
 71
     1
 91
        1
 92
        1
 93
        4
 72
     1
 10
192.4578138032672
 20
15.39722336795632
 11
192.4578138032672
 21
15.22875434022062
 72
     1
 10
192.4578138032672
 20
15.22875434022062
 11
191.1602971697031
 21
15.22875434022062
 72
     1
 10
191.1602971697031
 20
15.22875434022062
 11
191.1602971697031
 21
15.39722336795632
 72
     1
 10
191.1602971697031
 20
15.39722336795632
 11
192.4578138032672
 21
15.39722336795632
 97
        1
330
B5
 75
     1
 76
     2
 52
45.0
 41
0.1
 77
     0
 78
     1
 53
45.0
 43
0.0
 44
0.0
 45
-0.282842712474619
 46
0.0
 79
     0
 98
        1
 10
0.0
 20
0.0
  0
HATCH
  5
C3
330
48
100
AcDbEntity
  8
1
  6
Continuous
 62
     2
100
AcDbHatch
 10
0.0
 20
0.0
 30
0.0
210
0.0
220
0.0
230
1.0
  2
CUSTOM1
 70
     0
 71
     1
 91
        1
 92
        1
 93
        3
 72
     4
 94
        3
 73
     0
 74
     0
 95
       24
 96
       20
 40
0.0
 40
0.0
 40
0.0
 40
0.0
 40
0.2211075008753692
 40
0.4273218586245051
 40
0.5080174679238375
 40
0.5914835907869657
 40
0.8143265690192253
 40
1.054651302686551
 40
1.29545269402315
 40
1.518109231328816
 40
1.540864321905459
 40
1.595126460622721
 40
1.659890947896064
 40
1.71415308518745
 40
1.736908174961751
 40
1.764951100735453
 40
1.801562291221102
 40
1.953914424543774
 40
2.126104167379817
 40
2.126104167379817
 40
2.126104167379817
 40
2.126104167379817
 10
185.9375369556889
 20
15.58989295113022
 10
185.9112579081812
 20
15.53097628234379
 10
185.8604698894426
 20
15.41711139679261
 10
185.8131784839111
 20
15.14441958233128
 10
185.7043482802618
 20
15.24445482575463
 10
185.5514800279637
 20
15.27118593367328
 10
185.7686155181199
 20
15.48518135017638
 10
185.7838483674381
 20
15.70332117782491
 10
185.8906889492001
 20
15.88451579066433
 10
185.8305380947077
 20
16.16913226311409
 10
185.9334317395402
 20
16.14114089222459
 10
185.977993346815
 20
16.13243251602306
 10
186.0380842395397
 20
16.1213965418336
 10
186.0756619587438
 20
16.10767523055566
 10
186.1252466928607
 20
16.10756076160228
 10
186.0930158919325
 20
16.07306592398629
 10
186.0171802221882
 20
16.08404104537969
 10
186.0429447159694
 20
15.89858969582457
 10
186.0055896763849
 20
15.80702313549595
 10
185.985770496161
 20
15.75844135397712
 72
     4
 94
        3
 73
     0
 74
     0
 95
       70
 96
       66
 40
0.0
 40
0.0
 40
0.0
 40
0.0
 40
0.0241731073021472
 40
0.0846058988986729
 40
0.1631685280352999
 40
0.2417311571788903
 40
0.3021639488291898
 40
0.3263370654894688
 40
0.3533118254248028
 40
0.4228783438921223
 40
0.5179999095312479
 40
0.6216398239465107
 40
0.7167613891498675
 40
0.7863279069648833
 40
0.813302679176077
 40
0.837294399877061
 40
0.8945054261371813
 40
0.962789554196188
 40
1.020000580349055
 40
1.043992300975154
 40
1.071934345522875
 40
1.113121768772795
 40
1.145225199332123
 40
1.225483775412662
 40
1.329819923771379
 40
1.434156071994275
 40
1.514414647795701
 40
1.546518078208311
 40
1.578974764260113
 40
1.662678849314051
 40
1.777131373668271
 40
1.901833377474662
 40
2.016285900500424
 40
2.099989982527763
 40
2.132446666570121
 40
2.158782354485843
 40
2.216720867907628
 40
2.27465938133405
 40
2.300995069255982
 40
2.333451754065954
 40
2.417155836543607
 40
2.531608358985046
 40
2.656310362283541
 40
2.770762886388645
 40
2.854466971339782
 40
2.886923657363588
 40
2.913597976833024
 40
2.98238964287483
 40
3.076451716946703
 40
3.178937260458322
 40
3.272999334739735
 40
3.341791001058961
 40
3.368465320663274
 40
3.396976080738523
 40
3.472140811845731
 40
3.578408190308421
 40
3.700226892455885
 40
3.822045594634103
 40
3.928312973256209
 40
4.003477705314607
 40
4.031988456866673
 40
4.05832414479746
 40
4.116262658236597
 40
4.174201171400371
 40
4.200536849608293
 40
4.200536849608293
 40
4.200536849608293
 40
4.200536849608293
 10
185.985770496161
 20
15.75844135397712
 10
185.993825954468
 20
15.75844359811694
 10
186.0220200663241
 20
15.75845146032803
 10
186.0765534803674
 20
15.75830754828379
 10
186.1482891808604
 20
15.75909120499905
 10
186.2236240137062
 20
15.75627570463818
 10
186.2713052366439
 20
15.76298403400964
 10
186.3195071245615
 20
15.75197563692439
 10
186.3062571799874
 20
15.8054640299704
 10
186.3151093964538
 20
15.86049583543098
 10
186.3108698036285
 20
15.95419908726115
 10
186.313348348128
 20
16.04959482218538
 10
186.309093870606
 20
16.14356821983392
 10
186.3179818665846
 20
16.19795062438018
 10
186.3046977409945
 20
16.25233997691466
 10
186.3514119277109
 20
16.23842216335363
 10
186.3943254545737
 20
16.24103877374047
 10
186.4605443456686
 20
16.23648422450756
 10
186.5013342271798
 20
16.22778162134163
 10
186.552514569082
 20
16.23531799890193
 10
186.52537204872
 20
16.19349970223298
 10
186.4803096055707
 20
16.20284992072602
 10
186.4942065045051
 20
16.13841207371847
 10
186.4858414431655
 20
16.07378219627407
 10
186.4903632178399
 20
15.97529141193896
 10
186.4854741311168
 20
15.87595932842578
 10
186.4950258992082
 20
15.81293115552976
 10
186.4799761455201
 20
15.74964011499795
 10
186.5449159457209
 20
15.76515072944276
 10
186.6116246399498
 20
15.75499387697819
 10
186.7241435470828
 20
15.75988800099374
 10
186.8390235448954
 20
15.75691204732791
 10
186.9519871999746
 20
15.76221664184998
 10
187.0176267597678
 20
15.75107306472096
 10
187.0816276691053
 20
15.76744532319864
 10
187.0703142889189
 20
15.71761689905282
 10
187.0775339871509
 20
15.6741671521213
 10
187.0703142611269
 20
15.63071745587452
 10
187.0816277175994
 20
15.58088895196885
 10
187.0176263598971
 20
15.5972616609137
 10
186.951992124046
 20
15.58611271661596
 10
186.838997431733
 20
15.59144857206862
 10
186.7242456548643
 20
15.58834345663829
 10
186.6113183686861
 20
15.59364894682596
 10
186.5455220903585
 20
15.58257300019602
 10
186.4816097975359
 20
15.59887597847626
 10
186.4936015165127
 20
15.54423524395749
 10
186.4862104613005
 20
15.48854295047849
 10
186.4892684841984
 20
15.39649689140577
 10
186.4893422785684
 20
15.30179109873107
 10
186.486031357836
 20
15.20952782902271
 10
186.4939505989903
 20
15.15435768736144
 10
186.4815076611618
 20
15.1005816910014
 10
186.5389116551632
 20
15.11453768862785
 10
186.5994708140384
 20
15.10511457884232
 10
186.7048680855082
 20
15.10942885928709
 10
186.8204294070624
 20
15.10835504612037
 10
186.9359688877798
 20
15.10725965901
 10
187.0414181130842
 20
15.11162525770637
 10
187.1018680471805
 20
15.10209426030675
 10
187.1592837739111
 20
15.11617289606385
 10
187.147777387671
 20
15.06707153265689
 10
187.1537566781749
 20
15.02564658018657
 10
187.1520311050804
 20
14.97651677966706
 10
187.1521500122972
 20
14.9485442844762
 10
187.1521871691834
 20
14.93980288195962
 72
     4
 94
        3
 73
     0
 74
     0
 95
       62
 96
       58
 40
0.0
 40
0.0
 40
0.0
 40
0.0
 40
0.0598250028308769
 40
0.2024846486897616
 40
0.3727558389220746
 40
0.515415484793607
 40
0.5752404975785339
 40
0.9332326775487818
 40
1.29045176283951
 40
1.60207725314586
 40
1.699931634112038
 40
1.799359756424964
 40
2.270120149656945
 40
2.804661928461324
 40
2.882342287383032
 40
3.076543185718863
 40
3.329004354835303
 40
3.581465524568109
 40
3.775666424543377
 40
3.853346784557989
 40
3.899120679594763
 40
3.98412934179179
 40
4.029903236817167
 40
4.105797496059322
 40
4.295533144152274
 40
4.54218948661151
 40
4.788845828875451
 40
4.97858147640983
 40
5.054475735244071
 40
5.62173466433905
 40
6.130867242037079
 40
6.225249780948224
 40
6.318913039726935
 40
6.663579954558493
 40
7.047498900224372
 40
7.435230791575348
 40
7.49894390666776
 40
7.650875181209782
 40
7.832212509001321
 40
7.984143783696735
 40
8.047856898902891
 40
8.091554632732377
 40
8.172707566964002
 40
8.216405300767706
 40
8.28902178216059
 40
8.462184160756964
 40
8.668861838005045
 40
8.842024215263637
 40
8.914640695474832
 40
8.989881580861041
 40
9.155411528826962
 40
9.320941477743755
 40
9.396182352487012
 40
9.454709011143558
 40
9.583467660170493
 40
9.712226309012772
 40
9.770752957989226
 40
9.770752957989226
 40
9.770752957989226
 40
9.770752957989226
 10
187.1521871691834
 20
14.93980288195962
 10
187.1322348171624
 20
14.93980875568684
 10
187.0647037716466
 20
14.9398286380617
 10
186.9410612161789
 20
14.93949362520337
 10
186.7863180150057
 20
14.94107673750524
 10
186.6697349482481
 20
14.93686078860507
 10
186.4550942634241
 20
14.95215205331638
 10
186.8518948407229
 20
14.59198721286201
 10
186.8945656069268
 20
14.37510503397167
 10
187.318916214661
 20
14.19325062511458
 10
187.1439821496075
 20
14.08985196568074
 10
187.0194523925082
 20
13.87831523212752
 10
186.7666277235944
 20
14.34806081001557
 10
186.4797602893624
 20
14.9951151698452
 10
186.4906335926662
 20
14.68782672154696
 10
186.488289277796
 20
14.52288616971782
 10
186.4861096126412
 20
14.28879670711699
 10
186.4980774396348
 20
14.04498072421791
 10
186.4687984740631
 20
13.89855796860993
 10
186.5114522625472
 20
13.75113490174548
 10
186.4239814005639
 20
13.7668579730623
 10
186.3768527606745
 20
13.76694303543465
 10
186.2898973207712
 20
13.75109425482919
 10
186.3313474021723
 20
13.89527771422772
 10
186.3029875004284
 20
14.03855052698464
 10
186.31459737753
 20
14.27674947365273
 10
186.3124175648272
 20
14.50517235240354
 10
186.3103111127993
 20
14.66705729376002
 10
186.3208035438324
 20
14.98153709333758
 10
186.0128963252894
 20
14.29229470872447
 10
185.7055258267454
 20
13.81476750243055
 10
185.5851367066275
 20
14.03741112637437
 10
185.4074607910723
 20
14.15011034955574
 10
185.8853326362895
 20
14.32548143465473
 10
185.9353959057207
 20
14.56091929252041
 10
186.3583799621719
 20
14.9532298934462
 10
186.1276754273541
 20
14.93655307029077
 10
186.0049685859342
 20
14.94269518948783
 10
185.8325483095662
 20
14.93312822699585
 10
185.7213224694449
 20
14.95448818489679
 10
185.6025779627448
 20
14.92136265357431
 10
185.6183169706686
 20
15.00203900606893
 10
185.6178550933762
 20
15.04645414290861
 10
185.6027881889931
 20
15.12967081778538
 10
185.7372380935443
 20
15.09062651983887
 10
185.8619755545747
 20
15.11739729328427
 10
186.062875523728
 20
15.10063949044057
 10
186.1921540949352
 20
15.12204225913008
 10
186.3328419928295
 20
15.08868778853426
 10
186.2980927452614
 20
15.22651875785073
 10
186.3222185666713
 20
15.34963257349487
 10
186.2967086182392
 20
15.47024055670343
 10
186.3333251146685
 20
15.60539865141503
 10
186.2211417027769
 20
15.58094545781899
 10
186.1280356457136
 20
15.5930774984203
 10
186.0191547579819
 20
15.58957630070001
 10
185.9569697640964
 20
15.58981755951611
 10
185.9375369557246
 20
15.58989295124152
 97
        3
330
A6
330
A4
330
A5
 75
     1
 76
     2
 52
45.0
 41
0.1
 77
     0
 78
     1
 53
45.0
 43
0.0
 44
0.0
 45
-0.282842712474619
 46
0.0
 79
     0
 98
        1
 10
0.0
 20
0.0
  0
HATCH
  5
C4
330
48
100
AcDbEntity
  8
1
  6
Continuous
 62
     2
100
AcDbHatch
 10
0.0
 20
0.0
 30
0.0
210
0.0
220
0.0
230
1.0
  2
CUSTOM2
 70
     0
 71
     1
 91
        1
 92
        1
 93
        1
 72
     4
 94
        3
 73
     0
 74
     0
 95
      124
 96
      120
 40
0.0
 40
0.0
 40
0.0
 40
0.0
 40
0.027818722962451
 40
0.1011590162384269
 40
0.2048470170590523
 40
0.3237088716559245
 40
0.4425707262522284
 40
0.5462587270700116
 40
0.6195990203312934
 40
0.6474177522579513
 40
0.6750060736116095
 40
0.7357003855243665
 40
0.7963946998055398
 40
0.8239830245572726
 40
0.8540933811104103
 40
0.9373396629410216
 40
1.063094687343359
 40
1.220731268638197
 40
1.399622220914872
 40
1.589140358637857
 40
1.778658496424023
 40
1.95754944894069
 40
2.11518603087334
 40
2.240941056914616
 40
2.324187341760713
 40
2.354297700109563
 40
2.381886024672071
 40
2.442580338710662
 40
2.503274652750691
 40
2.530862977314798
 40
2.560983949278751
 40
2.640393784453097
 40
2.75266286175932
 40
2.881361560118337
 40
3.010060258455383
 40
3.122329335705531
 40
3.201739170818144
 40
3.231860142753505
 40
3.26429802403056
 40
3.352343701778428
 40
3.482095226868947
 40
3.639650650173203
 40
3.811108022565654
 40
3.982565394928156
 40
4.140120818152734
 40
4.269872343141439
 40
4.3579180208025
 40
4.390355902044127
 40
4.423256253992697
 40
4.508104530073218
 40
4.624121560636985
 40
4.750528176031742
 40
4.866545206602189
 40
4.951393482692146
 40
4.984293834645547
 40
5.011450833242464
 40
5.071196230152247
 40
5.130941627057324
 40
5.15809862564899
 40
5.190998977601681
 40
5.275847253689506
 40
5.391864284256941
 40
5.518270899648486
 40
5.634287930209525
 40
5.719136206288199
 40
5.752036558236086
 40
5.782130946283112
 40
5.862783906229288
 40
5.979550131775166
 40
6.117984316640576
 40
6.263641154588126
 40
6.402075339414339
 40
6.518841564908139
 40
6.599494524815728
 40
6.629588912848965
 40
6.654403028226542
 40
6.713575149488338
 40
6.784199939329713
 40
6.843372060493816
 40
6.868186175803062
 40
6.89624624320209
 40
6.939586233758588
 40
6.967846564565219
 40
7.043584251090161
 40
7.153234334452028
 40
7.283231855734789
 40
7.420011856035831
 40
7.550009376580192
 40
7.659659458835604
 40
7.7353971444176
 40
7.763657474851774
 40
7.796409728011431
 40
7.880876065096706
 40
7.996370852466091
 40
8.122208446418986
 40
8.23770322479958
 40
8.322169562011274
 40
8.354921815206287
 40
8.38207881330807
 40
8.441824209207374
 40
8.501569605240524
 40
8.528726603486103
 40
8.561478856696151
 40
8.645945193878202
 40
8.761439980865713
 40
8.887277580764856
 40
9.002772362001377
 40
9.087238696661597
 40
9.119990949236051
 40
9.152428830613749
 40
9.240474508638963
 40
9.37022603414991
 40
9.527781457984785
 40
9.699238830981773
 40
9.870696203978959
 40
10.02825162781438
 40
10.15800315332599
 40
10.24604883135154
 40
10.27848670378556
 40
10.27848670378556
 40
10.27848670378556
 40
10.27848670378556
 10
195.3821827564383
 20
14.01410517385762
 10
195.3914554737523
 20
14.01410498511279
 10
195.425174453686
 20
14.01410430876719
 10
195.4934706812465
 20
14.01411807243309
 10
195.592014171158
 20
14.0140322421955
 10
195.7062066464812
 20
14.01441755612255
 10
195.8185894417071
 20
14.0130083589755
 10
195.9214376600119
 20
14.01719117422248
 10
195.980683987485
 20
14.00823089251988
 10
196.0371265937034
 20
14.02164434526065
 10
196.0246255586956
 20
13.97087198613366
 10
196.0329549635704
 20
13.92589320939071
 10
196.024817084112
 20
13.88056752990492
 10
196.0370529214458
 20
13.82931932408469
 10
195.9747773490333
 20
13.8444795536528
 10
195.9060513026869
 20
13.83359750710747
 10
195.7782756749592
 20
13.83911304747976
 10
195.6262984511643
 20
13.83700851253702
 10
195.4502695972523
 20
13.83771002588477
 10
195.2644431934287
 20
13.83745237531295
 10
195.0786167437175
 20
13.83771005144607
 10
194.9025880142169
 20
13.83700841847735
 10
194.7506104154194
 20
13.83911332229992
 10
194.6228357664555
 20
13.83359680767644
 10
194.554107783658
 20
13.84448077125946
 10
194.4918349042883
 20
13.82931786684213
 10
194.5040616290017
 20
13.88057510805176
 10
194.4960004462597
 20
13.9258247327243
 10
194.5040675809892
 20
13.97106357955328
 10
194.4918238487083
 20
14.02234176909963
 10
194.5525017120698
 20
14.0074957736314
 10
194.6162810745736
 20
14.01756448170739
 10
194.7277314353502
 20
14.01294644212004
 10
194.8497533443824
 20
14.01413328905473
 10
194.9719538137823
 20
14.0151586390064
 10
195.0829794287392
 20
14.01092475623406
 10
195.1476517413959
 20
14.02018584521744
 10
195.2091162810501
 20
14.00604423049687
 10
195.1930065601337
 20
14.07235527884522
 10
195.2042980327358
 20
14.1444779012198
 10
195.1987400822561
 20
14.27513760888291
 10
195.2008035061689
 20
14.42607323708244
 10
195.2000167127296
 20
14.59335873107889
 10
195.2007845215627
 20
14.76061110332305
 10
195.1988038785628
 20
14.91163289269917
 10
195.2041306156621
 20
15.04206069552997
 10
195.1933101388425
 20
15.11465442605902
 10
195.2090326429875
 20
15.18150469436799
 10
195.143270813249
 20
15.16580512490827
 10
195.0756367830763
 20
15.17609243083997
 10
194.9615885293809
 20
15.17113786847124
 10
194.8451242674902
 20
15.17414128030476
 10
194.7306554121477
 20
15.16880303143391
 10
194.6640324657812
 20
15.18001268074827
 10
194.5990769715185
 20
15.16349132665013
 10
194.6107989758708
 20
15.21473720477061
 10
194.6032830189121
 20
15.25950333784092
 10
194.6107989878835
 20
15.30426944897963
 10
194.5990769505347
 20
15.35551536129743
 10
194.66403263392
 20
15.33899381766817
 10
194.7306533339821
 20
15.35020571373946
 10
194.8451352858063
 20
15.34485436710666
 10
194.9615454436962
 20
15.3479118877112
 10
195.0757660174641
 20
15.3427849901071
 10
195.1430150439227
 20
15.353457333556
 10
195.2083325941438
 20
15.33742082669079
 10
195.1941391448553
 20
15.39949685750056
 10
195.2036059462995
 20
15.46586761628766
 10
195.1990269004085
 20
15.58239972741968
 10
195.2007696555948
 20
15.7142668502238
 10
195.199755149539
 20
15.85615960150277
 10
195.2017191344373
 20
15.98769050702586
 10
195.196466855385
 20
16.10524577283007
 10
195.2073408763475
 20
16.1694778900159
 10
195.1919536641853
 20
16.23108802545053
 10
195.24075915378
 20
16.21702407382116
 10
195.2853995564726
 20
16.21954742075318
 10
195.3538643946743
 20
16.21512797401713
 10
195.3959106169103
 20
16.20613025544037
 10
195.4487544758776
 20
16.21411714866513
 10
195.4207035002014
 20
16.17113917611674
 10
195.3749142248594
 20
16.1825955204385
 10
195.3869539073265
 20
16.12173520005144
 10
195.3796086070641
 20
16.05769299468781
 10
195.3831195826161
 20
15.94909368863918
 10
195.3819806760173
 20
15.82494319144758
 10
195.3819174780263
 20
15.69189719829883
 10
195.3832872966868
 20
15.56797381249559
 10
195.3791638801313
 20
15.45868337849341
 10
195.3877763103564
 20
15.39608580094172
 10
195.3746757454401
 20
15.33740133296367
 10
195.4393884328198
 20
15.35362113810904
 10
195.5060405953156
 20
15.34270260383313
 10
195.6198779541102
 20
15.34793740173757
 10
195.7357259122097
 20
15.34485547516916
 10
195.849692426328
 20
15.35018259812513
 10
195.9160341018099
 20
15.33904208166545
 10
195.980718852548
 20
15.3554697959318
 10
195.9689820772722
 20
15.30425925210052
 10
195.9765168063041
 20
15.25950334121003
 10
195.9689820992257
 20
15.21474739010029
 10
195.9807188140737
 20
15.16353690871042
 10
195.9160344075252
 20
15.17996427794222
 10
195.8496886430824
 20
15.16882784447271
 10
195.7357459487012
 20
15.17413115893122
 10
195.6197995623054
 20
15.17114764593546
 10
195.5062756882122
 20
15.17606892268395
 10
195.4389231318804
 20
15.16585087513521
 10
195.3734285122495
 20
15.18145996138818
 10
195.3891713619218
 20
15.11463851827413
 10
195.3783275998211
 20
15.0420705781588
 10
195.3836581629793
 20
14.91162247614419
 10
195.3817136151854
 20
14.76064558185228
 10
195.3823133683215
 20
14.59322243934162
 10
195.3821506559605
 20
14.42656176118376
 10
195.3821895488135
 20
14.2736014292164
 10
195.38218164131
 20
14.1484917898571
 10
195.3821828382745
 20
14.06507890991424
 10
195.3821827716208
 20
14.02491778281981
 10
195.3821827564383
 20
14.01410517385762
 97
        1
330
A7
 75
     1
 76
     2
 52
45.0
 41
0.1
 77
     0
 78
     1
 53
45.0
 43
0.0
 44
0.0
 45
-0.282842712474619
 46
0.0
 79
     0
 98
        1
 10
0.0
 20
0.0
  0
HATCH
  5
C5
330
48
100
AcDbEntity
  8
1
  6
Continuous
 62
     2
100
AcDbHatch
 10
0.0
 20
0.0
 30
0.0
210
0.0
220
0.0
230
1.0
  2
CUSTOM3
 70
     0
 71
     1
 91
        1
 92
        1
 93
        1
 72
     4
 94
        3
 73
     0
 74
     0
 95
      131
 96
      127
 40
0.0
 40
0.0
 40
0.0
 40
0.0
 40
0.0195577029825932
 40
0.0426490537460395
 40
0.2863607575855883
 40
0.5344948436188772
 40
0.7842238845572979
 40
0.8737315789467308
 40
0.9803832810312985
 40
1.092842274517064
 40
1.199761146656796
 40
1.289788768186497
 40
1.351573580786136
 40
1.37072711756136
 40
1.416400936017753
 40
1.470914848355859
 40
1.516588666791627
 40
1.535742203552706
 40
1.634216592293043
 40
1.760283341174846
 40
1.897966686681966
 40
2.031216387368767
 40
2.049689751137761
 40
2.101115601646693
 40
2.179502577739807
 40
2.278859318313918
 40
2.393194462258569
 40
2.516516648383677
 40
2.642834515405797
 40
2.766156701983297
 40
2.880491846754406
 40
2.979848588358442
 40
3.058235565443615
 40
3.109661416668768
 40
3.128134780703943
 40
3.14678374238626
 40
3.191254343315121
 40
3.24433215731578
 40
3.288802758225655
 40
3.307451719894926
 40
3.327717853844538
 40
3.383747753579895
 40
3.46838866592428
 40
3.574487837698578
 40
3.694892515728675
 40
3.822449946851805
 40
3.950007377920187
 40
4.070412055800267
 40
4.176511227367815
 40
4.261152139501258
 40
4.317182039076446
 40
4.337448172964365
 40
4.620011002695946
 40
4.885096638397266
 40
4.945373043517994
 40
5.01410771048831
 40
5.070481727651755
 40
5.319246955636287
 40
5.584812164505819
 40
5.859000912056681
 40
6.13374693754184
 40
6.401732212968652
 40
6.420736683995271
 40
6.472845717450836
 40
6.550702743893821
 40
6.646951193874029
 40
6.754234497930325
 40
6.865196086587103
 40
6.972479390357561
 40
7.068727839771723
 40
7.146584865450732
 40
7.198693898188962
 40
7.217698368905102
 40
7.234950401630584
 40
7.276089864269629
 40
7.325191803515741
 40
7.366331266090128
 40
7.383583298769482
 40
7.402779163491887
 40
7.453386443254262
 40
7.524934666445292
 40
7.606953361405603
 40
7.688972056428783
 40
7.760520279783977
 40
7.811127559734247
 40
7.830323424545869
 40
7.8478440552995
 40
7.894799345666545
 40
7.962779392744238
 40
8.043374293560294
 40
8.128174145149211
 40
8.208769044817023
 40
8.27674909037673
 40
8.323704379669296
 40
8.34122501005603
 40
8.358497614800179
 40
8.401679126686357
 40
8.457815092185417
 40
8.513951057727823
 40
8.557132569707724
 40
8.574405174504767
 40
8.602340668616028
 40
8.643455660539558
 40
8.663225271966226
 40
8.715345156563878
 40
8.789031889628216
 40
8.873502045519952
 40
8.957972194323585
 40
9.03165892556748
 40
9.083778811234172
 40
9.103548423002636
 40
9.119550083123201
 40
9.160817522379475
 40
9.217244429109869
 40
9.278724491644354
 40
9.33515139829511
 40
9.376418837357406
 40
9.392420497300193
 40
9.401196302734386
 40
9.417494229383808
 40
9.42627002774908
 40
9.440875075477113
 40
9.475702496998295
 40
9.517270709865462
 40
9.552098131993633
 40
9.566703169883843
 40
9.566703169883843
 40
9.566703169883843
 40
9.566703169883843
 10
194.6170254148479
 20
15.67015871511032
 10
194.6134345093371
 20
15.66453690702166
 10
194.6056039123624
 20
15.65227754419123
 10
194.5129968974552
 20
15.61601916040942
 10
194.4887622233247
 20
15.40148444212731
 10
194.3858709845939
 20
15.22197284509705
 10
194.1220492364305
 20
15.03615573798146
 10
194.2845471569181
 20
14.95959336566085
 10
194.3607225760838
 20
14.89856693195446
 10
194.4492171072759
 20
14.83515804544766
 10
194.5389930233111
 20
14.77525634219565
 10
194.5883817636047
 20
14.72102154849217
 10
194.6745708157382
 20
14.6928624054184
 10
194.6411260674229
 20
14.6571330965282
 10
194.6214671166312
 20
14.62550387991915
 10
194.5919888217882
 20
14.58475872796078
 10
194.5688989446033
 20
14.55504663489653
 10
194.5380205968357
 20
14.50211422668504
 10
194.4729193365741
 20
14.62740334938908
 10
194.3796000122417
 20
14.68213900233944
 10
194.2950636285139
 20
14.73916423939343
 10
194.1722498125741
 20
14.89675287427526
 10
194.1764450847302
 20
14.82035806766842
 10
194.1751478652678
 20
14.77361280161301
 10
194.1758126448077
 20
14.69584785812606
 10
194.1755549986959
 20
14.59902068324429
 10
194.1756431239922
 20
14.48650279078816
 10
194.1756077302282
 20
14.36524085945707
 10
194.175651175828
 20
14.24086897858969
 10
194.1755199942407
 20
14.11967683631345
 10
194.1759477562047
 20
14.00691148919752
 10
194.1746678202312
 20
13.91082913768754
 10
194.1779759851044
 20
13.83113826468709
 10
194.1715197740087
 20
13.78815175788794
 10
194.1806208705557
 20
13.74955432372053
 10
194.1447910339936
 20
13.7581088772408
 10
194.1115223815253
 20
13.75342519985456
 10
194.0604562576042
 20
13.75351298759794
 10
194.0269723972814
 20
13.75794430283831
 10
193.9907585408754
 20
13.74960793842519
 10
194.0009782568666
 20
13.79145277179294
 10
193.9936487887774
 20
13.83778560820183
 10
193.9973633136103
 20
13.92374831106023
 10
193.9959480554897
 20
14.02605142704857
 10
193.9964105554639
 20
14.14453223931519
 10
193.9962773686231
 20
14.26957683153362
 10
193.9963015910046
 20
14.39475828107055
 10
193.9963354925552
 20
14.51286645379063
 10
193.9962060293133
 20
14.6162874870952
 10
193.9965507549081
 20
14.6993203615367
 10
193.9958698278691
 20
14.75143368521246
 10
193.9994586600623
 20
14.87912907821364
 10
193.7826171386437
 20
14.58048716819618
 10
193.6021354921952
 20
14.35263981511523
 10
193.5490322295611
 20
14.49373443289822
 10
193.5200429133149
 20
14.54325767560949
 10
193.4196648062819
 20
14.64641779790107
 10
193.7405127723261
 20
14.7269503502379
 10
193.868989700543
 20
14.91066283036438
 10
194.090645432536
 20
15.11931995771766
 10
194.177022489407
 20
15.29339211228349
 10
194.4549394229075
 20
15.5696705134252
 10
194.3346247839285
 20
15.56534559551119
 10
194.286319735135
 20
15.56614856202559
 10
194.2102377454905
 20
15.5657458214659
 10
194.1167010009752
 20
15.56590275611615
 10
194.0117594788557
 20
15.56582502576229
 10
193.9033887738719
 20
15.56595464378561
 10
193.7981454235898
 20
15.56554393490698
 10
193.7056237819414
 20
15.56682073671597
 10
193.6268130800709
 20
15.56340766534856
 10
193.583967456538
 20
15.57023350036325
 10
193.5449499586516
 20
15.56065064201129
 10
193.5526365271865
 20
15.59420779565548
 10
193.5485464404314
 20
15.62523550322239
 10
193.5485531368815
 20
15.67236529270906
 10
193.5526239724912
 20
15.70340941646785
 10
193.5449495574584
 20
15.73701861635909
 10
193.5834819405496
 20
15.72748410420879
 10
193.624122801448
 20
15.73397435498078
 10
193.6951471850464
 20
15.73100150650261
 10
193.7729318149634
 20
15.73174761399164
 10
193.8507292246476
 20
15.73247814044533
 10
193.9217232089908
 20
15.72954235514167
 10
193.9624279791821
 20
15.73595468772959
 10
194.000985348991
 20
15.72650524176011
 10
193.9927342754929
 20
15.76264692158792
 10
193.9982346669358
 20
15.80129837613234
 10
193.9955754206164
 20
15.86913528561847
 10
193.9965815471534
 20
15.94591641538748
 10
193.996017801832
 20
16.02849393582767
 10
193.9970714526594
 20
16.10517329229889
 10
193.9942675863131
 20
16.17331990776711
 10
194.0000702721305
 20
16.21132399809358
 10
193.9915654551159
 20
16.24758448077658
 10
194.0255610233125
 20
16.23755723771862
 10
194.05945756831
 20
16.24073266813715
 10
194.1126669060347
 20
16.23508965640615
 10
194.1660768574483
 20
16.23434774436429
 10
194.1995914649491
 20
16.22819223482981
 10
194.2388086183039
 20
16.23346029773593
 10
194.2120263698492
 20
16.19253380793495
 10
194.1708111001725
 20
16.20371204538121
 10
194.1782641540875
 20
16.15867056192133
 10
194.1742227952184
 20
16.11412278028153
 10
194.1761714049641
 20
16.04223572621712
 10
194.175236484976
 20
15.96168630588779
 10
194.1765107190031
 20
15.88173995405003
 10
194.1732043793864
 20
15.8084183708319
 10
194.1802106179962
 20
15.76688643002575
 10
194.1701440380126
 20
15.72752418568119
 10
194.2029814803922
 20
15.73468063430988
 10
194.2364577296481
 20
15.7302724313795
 10
194.2915053476019
 20
15.73217943347904
 10
194.3489502595316
 20
15.73185366407295
 10
194.402302624831
 20
15.73106308733089
 10
194.4398540896639
 20
15.73313959118081
 10
194.4623172523238
 20
15.73022338167116
 10
194.4751678073731
 20
15.73572552644063
 10
194.4858255685888
 20
15.73801118197798
 10
194.4986635650144
 20
15.74494972588059
 10
194.5145991033071
 20
15.72853046313679
 10
194.5410623920892
 20
15.71709122319455
 10
194.5726805253757
 20
15.69644687835196
 10
194.5987255892151
 20
15.681168696283
 10
194.6128517723974
 20
15.67266976323188
 10
194.6170254148479
 20
15.67015871511032
 97
        1
330
A8
 75
     1
 76
     2
 52
45.0
 41
0.1
 77
     0
 78
     1
 53
45.0
 43
0.0
 44
0.0
 45
-0.282842712474619
 46
0.0
 79
     0
 98
        1
 10
0.0
 20
0.0
  0
HATCH
  5
C6
330
48
100
AcDbEntity
  8
1
  6
Continuous
 62
     2
100
AcDbHatch
 10
0.0
 20
0.0
 30
0.0
210
0.0
220
0.0
230
1.0
  2
CUSTOM4
 70
     0
 71
     1
 91
        1
 92
        1
 93
        1
 72
     4
 94
        3
 73
     0
 74
     0
 95
       91
 96
       87
 40
0.0
 40
0.0
 40
0.0
 40
0.0
 40
0.0267532254356648
 40
0.085610338646396
 40
0.1444674521996372
 40
0.171220685661823
 40
0.2039416005642252
 40
0.29556019716522
 40
0.4362601844616918
 40
0.616225284450725
 40
0.8256392189704698
 40
1.054685709844439
 40
1.29354847889356
 40
1.532411247938303
 40
1.761457738799568
 40
1.970871673298565
 40
2.150836773256789
 40
2.29153676049565
 40
2.383155356836729
 40
2.415876284101377
 40
2.442629517488016
 40
2.501486630949137
 40
2.560343744424276
 40
2.587096977826543
 40
2.617068194440971
 40
2.69924733675614
 40
2.822032643466424
 40
2.973822353257982
 40
3.143014704823424
 40
3.318007936880004
 40
3.487200288186837
 40
3.638989997548374
 40
3.761775303794873
 40
3.843954445753208
 40
3.873925662229904
 40
3.890812773500616
 40
3.9076998847718
 40
3.937960767857382
 40
3.980983618142392
 40
4.199085915228563
 40
4.439444339237332
 40
4.677588241260965
 40
5.05069831783788
 40
5.448212454763237
 40
5.85529121804476
 40
6.13857543888552
 40
6.417434507584335
 40
6.444551104393987
 40
6.504207617363252
 40
6.563864130314566
 40
6.59098072710413
 40
6.848609460381527
 40
7.109611990668477
 40
7.352910904446188
 40
7.557830220705576
 40
7.587518925913467
 40
7.65283407737588
 40
7.718149228845835
 40
7.747837934062113
 40
7.854880190301103
 40
7.97651125740366
 40
8.36948789659246
 40
8.757514959223753
 40
9.126072419331244
 40
9.460639380392335
 40
9.746695593036105
 40
9.777569943118888
 40
9.807050320931998
 40
9.830377336129118
 40
9.88600329543619
 40
9.952395569430074
 40
10.00802152870642
 40
10.03134854388233
 40
10.21356951009603
 40
10.42203479292889
 40
10.66154556731076
 40
10.91693789564317
 40
11.15832906556582
 40
11.18982674596639
 40
11.27286608520424
 40
11.39026653033371
 40
11.52484752840908
 40
11.65942852648467
 40
11.77682897161508
 40
11.85986831085708
 40
11.89136598230453
 40
11.89136598230453
 40
11.89136598230453
 40
11.89136598230453
 10
190.7027885008196
 20
14.70699600701782
 10
190.7028237765288
 20
14.71587847311995
 10
190.7029366710796
 20
14.74430237047356
 10
190.7012984568489
 20
14.79409639169811
 10
190.7069750292911
 20
14.83657564478162
 10
190.6956928731706
 20
14.88730154856854
 10
190.7632296979032
 20
14.87012900740116
 10
190.8388029210701
 20
14.88290227166003
 10
190.9828357056001
 20
14.87629729457389
 10
191.1569419185427
 20
14.87888462206473
 10
191.3639599611003
 20
14.8780059195556
 10
191.5894688172378
 20
14.87828207920034
 10
191.8251162293406
 20
14.87818339658669
 10
192.0607640531349
 20
14.87828184412774
 10
192.2862717580626
 20
14.87800678190796
 10
192.4932934632805
 20
14.87888186270741
 10
192.667388891529
 20
14.87630522678454
 10
192.8114492071986
 20
14.8828829044922
 10
192.8869691915293
 20
14.87016243405611
 10
192.9545776037031
 20
14.88726400191694
 10
192.9430840140676
 20
14.83674785802948
 10
192.9505104581734
 20
14.7925325222651
 10
192.9428838927986
 20
14.74867966503619
 10
192.9546489459426
 20
14.69878374479338
 10
192.8930788491983
 20
14.71393227712522
 10
192.8256791738673
 20
14.70310665350684
 10
192.7013004056222
 20
14.70852031626246
 10
192.5554428236572
 20
14.70649205390795
 10
192.3893576440086
 20
14.70715777578396
 10
192.2188412621725
 20
14.70689643521252
 10
192.0519790855389
 20
14.70721553391104
 10
191.9087346827105
 20
14.70635302590771
 10
191.7773313869834
 20
14.70863300482999
 10
191.7239859134656
 20
14.70407704374211
 10
191.6485188456912
 20
14.70999914992888
 10
191.6769075779232
 20
14.70094169343361
 10
191.7033652409542
 20
14.69725912268937
 10
191.6633522907702
 20
14.66654271968277
 10
191.5713663691869
 20
14.67667591174634
 10
191.5439396207069
 20
14.43032502247792
 10
191.4478793967234
 20
14.27499558764379
 10
191.1917277964475
 20
13.94525417931568
 10
191.7627537732763
 20
14.0843002221046
 10
192.0173656320517
 20
14.08291779973368
 10
192.6279647048618
 20
13.99790569242085
 10
192.3340698578084
 20
14.29685417558208
 10
192.0133304286518
 20
14.44330856901787
 10
192.1313543360434
 20
14.50025540818295
 10
192.1724716466262
 20
14.52420099873355
 10
192.2156812394412
 20
14.54599758811234
 10
192.3174574094449
 20
14.60928721253907
 10
192.4328867625248
 20
14.35147151408789
 10
192.6329591642278
 20
14.21616041113689
 10
192.7269077387228
 20
14.03792795138891
 10
192.9558829746395
 20
13.87997821027056
 10
192.8596031846708
 20
13.82915972576302
 10
192.816795976378
 20
13.79881292523058
 10
192.771824352878
 20
13.77466130281466
 10
192.7121720925215
 20
13.72552146747572
 10
192.6789731061324
 20
13.85997475673614
 10
192.5582013350798
 20
14.01594265286594
 10
192.1970976005979
 20
13.88569928059565
 10
191.8385061955542
 20
13.90224694409493
 10
191.4570920450081
 20
13.89331229351874
 10
191.1703455282891
 20
13.82882671672419
 10
190.8592055599714
 20
13.94230668192834
 10
190.8268737818788
 20
13.83122259927779
 10
190.7896178253317
 20
13.81196313850018
 10
190.7865737632754
 20
13.85874784087305
 10
190.7679892860607
 20
13.89806853919138
 10
190.7512436616778
 20
13.95765983478237
 10
190.7383730915754
 20
14.00201969871286
 10
190.7042327806429
 20
14.09106331120204
 10
190.9482714457755
 20
14.02181042943775
 10
191.1441394486671
 20
14.00030369057754
 10
191.2395426381278
 20
14.28226484478469
 10
191.2945135769597
 20
14.44363045421129
 10
191.5159619357157
 20
14.71391177589749
 10
191.3849239381217
 20
14.70548446853744
 10
191.3110026555854
 20
14.7077900849698
 10
191.1977459876244
 20
14.70671378321668
 10
191.0694251807485
 20
14.7070763907652
 10
190.9404252030415
 20
14.70697724466096
 10
190.8287840946292
 20
14.70699932712582
 10
190.7514663970025
 20
14.7069957918968
 10
190.713287653201
 20
14.70699595845091
 10
190.7027885008196
 20
14.70699600701782
 97
        1
330
A9
 75
     1
 76
     2
 52
45.0
 41
0.1
 77
     0
 78
     1
 53
45.0
 43
0.0
 44
0.0
 45
-0.282842712474619
 46
0.0
 79
     0
 98
        1
 10
0.0
 20
0.0
  0
HATCH
  5
C7
330
48
100
AcDbEntity
  8
1
  6
Continuous
 62
     2
100
AcDbHatch
 10
0.0
 20
0.0
 30
0.0
210
0.0
220
0.0
230
1.0
  2
CUSTOM5
 70
     0
 71
     1
 91
        1
 92
        1
 93
        1
 72
     4
 94
        3
 73
     0
 74
     0
 95
       35
 96
       31
 40
0.0
 40
0.0
 40
0.0
 40
0.0
 40
0.0335231036619848
 40
0.0713218571712507
 40
0.4278866681487591
 40
0.8116865841964781
 40
1.198190238000136
 40
1.561379546812796
 40
1.65998317462213
 40
1.759315573807286
 40
2.13271961723115
 40
2.525233363588906
 40
2.910815397779814
 40
3.265244364303415
 40
3.592606723582097
 40
3.96438615460405
 40
4.359942131737896
 40
4.75815411863945
 40
4.843846538700043
 40
4.936650065543334
 40
5.256616602537441
 40
5.581707404416179
 40
5.899719158308274
 40
6.198363494280854
 40
6.466301046615895
 40
6.493895311537216
 40
6.559697020196952
 40
6.638234543442526
 40
6.70403625215425
 40
6.731630508423027
 40
6.731630508423027
 40
6.731630508423027
 40
6.731630508423027
 10
191.9736010568669
 20
16.23463843719142
 10
191.9676006097789
 20
16.22480690542331
 10
191.9548344099157
 20
16.20388988579802
 10
191.7949362006555
 20
16.17127126532702
 10
192.2322025842336
 20
15.88206680336705
 10
192.4345394828263
 20
15.68041138358446
 10
192.6819564267973
 20
15.43749387603283
 10
193.1831513624607
 20
15.3604766275778
 10
193.0125562198971
 20
15.21876939174665
 10
192.9383299463203
 20
15.01710366209113
 10
192.6131432248189
 20
15.36956287174735
 10
192.3277741670665
 20
15.53175212559572
 10
192.0337604077658
 20
15.73687130053055
 10
191.8084452691134
 20
16.21827488595459
 10
191.5993085055522
 20
15.75343046609226
 10
191.3207873674835
 20
15.54350952252916
 10
191.0371383177209
 20
15.3742445635999
 10
190.7078639527831
 20
15.00142360907936
 10
190.6277012318224
 20
15.19708014459009
 10
190.4759724909746
 20
15.32491104190603
 10
190.9083395826796
 20
15.40454031765941
 10
191.0962565329766
 20
15.60026634915479
 10
191.3468477420504
 20
15.81632996916761
 10
191.5714350470161
 20
15.98190992300067
 10
191.6259775409713
 20
16.2613396463683
 10
191.7494661029012
 20
16.24737950408084
 10
191.8060273344521
 20
16.24521268867653
 10
191.8761870984945
 20
16.24046859881368
 10
191.9333414022106
 20
16.23709429350549
 10
191.9644190320839
 20
16.23519854711127
 10
191.9736010568669
 20
16.23463843719142
 97
        1
330
AA
 75
     1
 76
     2
 52
45.0
 41
0.1
 77
     0
 78
     1
 53
45.0
 43
0.0
 44
0.0
 45
-0.282842712474619
 46
0.0
 79
     0
 98
        1
 10
0.0
 20
0.0
  0
HATCH
  5
C8
330
48
100
AcDbEntity
  8
1
  6
Continuous
 62
     2
100
AcDbHatch
 10
0.0
 20
0.0
 30
0.0
210
0.0
220
0.0
230
1.0
  2
CUSTOM6
 70
     0
 71
     1
 91
        1
 92
        1
 93
        1
 72
     4
 94
        3
 73
     0
 74
     0
 95
       15
 96
       11
 40
0.0
 40
0.0
 40
0.0
 40
0.0
 40
0.2785535985096548
 40
0.5215624748198459
 40
0.6076917376040056
 40
0.6938210001740949
 40
0.9405019146455642
 40
1.221691403489158
 40
1.300471877081021
 40
1.379252341684752
 40
1.379252341684752
 40
1.379252341684752
 40
1.379252341684752
 10
189.5681493631
 20
16.22930267330381
 10
189.6296017794179
 20
16.17691646592717
 10
189.7446649974114
 20
16.07882876798227
 10
190.0397348497245
 20
15.92889785897231
 10
189.9025147631858
 20
15.84343227515017
 10
189.804122784378
 20
15.71085785201555
 10
189.7130033590651
 20
16.01616985781419
 10
189.3636839480656
 20
16.07967869465387
 10
189.5119258376571
 20
16.17896509880884
 10
189.5494081874237
 20
16.21252348402385
 10
189.5681493631
 20
16.22930267330381
 97
        1
330
AB
 75
     1
 76
     2
 52
45.0
 41
0.1
 77
     0
 78
     1
 53
45.0
 43
0.0
 44
0.0
 45
-0.282842712474619
 46
0.0
 79
     0
 98
        1
 10
0.0
 20
0.0
  0
HATCH
  5
C9
330
48
100
AcDbEntity
  8
1
  6
Continuous
 62
     2
100
AcDbHatch
 10
0.0
 20
0.0
 30
0.0
210
0.0
220
0.0
230
1.0
  2
CUSTOM7
 70
     0
 71
     1
 91
        1
 92
        1
 93
        1
 72
     4
 94
        3
 73
     0
 74
     0
 95
       75
 96
       71
 40
0.0
 40
0.0
 40
0.0
 40
0.0
 40
0.0342546099129691
 40
0.12456224144324
 40
0.2522385480897572
 40
0.3985991922940769
 40
0.5449598364980981
 40
0.6726361431438994
 40
0.762943774673712
 40
0.7971983935298168
 40
1.101723623449741
 40
1.408591244036693
 40
1.433332471690408
 40
1.487763172450222
 40
1.542193873082069
 40
1.566935100592626
 40
1.923523931821876
 40
2.271755704953646
 40
2.590579755100859
 40
2.858943305581141
 40
2.889120339309193
 40
2.918305855191142
 40
2.94136664553127
 40
2.996357760973162
 40
3.061992318140714
 40
3.116983433626906
 40
3.140044223997597
 40
3.411273122936512
 40
3.732441619741105
 40
3.761068217532803
 40
3.83778749963036
 40
3.948858699125995
 40
4.080541049104364
 40
4.21909378262574
 40
4.350776132722285
 40
4.461847332405614
 40
4.538566614678342
 40
4.567193212544587
 40
4.594907573998845
 40
4.666381453557384
 40
4.764111044010966
 40
4.870592538125769
 40
4.968322128642163
 40
5.039796008286877
 40
5.067510369784308
 40
5.09426360318552
 40
5.153120716668153
 40
5.211977830150597
 40
5.2387310635516
 40
5.272290535138867
 40
5.363380529444671
 40
5.497618415781377
 40
5.660621563453591
 40
5.838007341749292
 40
6.015393119910672
 40
6.178396267038269
 40
6.312634151842249
 40
6.403724143059239
 40
6.437283612672334
 40
6.464036846260949
 40
6.522893960004562
 40
6.581751071483825
 40
6.608504301590769
 40
6.637253941280917
 40
6.711397748902797
 40
6.812778057283409
 40
6.923237199249185
 40
7.024617507623829
 40
7.098761315207539
 40
7.127510946007489
 40
7.127510946007489
 40
7.127510946007489
 40
7.127510946007489
 10
188.4418622390564
 20
14.95849128473272
 10
188.4418622819707
 20
14.94707313408728
 10
188.4418624481129
 20
14.90555257842637
 10
188.4418593081787
 20
14.82146922003779
 10
188.4418788279801
 20
14.70004497322336
 10
188.4417912187737
 20
14.55980494047455
 10
188.442111623523
 20
14.42006556794582
 10
188.4411605909741
 20
14.29745038894935
 10
188.4431978595967
 20
14.21587074438049
 10
188.4349433178748
 20
14.06271267077702
 10
188.74307979409
 20
14.22560236054725
 10
189.0350645173737
 20
14.39482938688012
 10
189.0408354448707
 20
14.25973235781919
 10
189.0455471719891
 20
14.21617221160451
 10
189.0482535411918
 20
14.17211249350551
 10
189.0672545672957
 20
14.0227259036314
 10
188.6583942247303
 20
14.08681172241269
 10
188.3793710348833
 20
13.97296341411025
 10
188.1018081587167
 20
13.8736409581115
 10
187.8099837184401
 20
13.91630687596368
 10
187.7869144678659
 20
13.81321679744549
 10
187.7537474383333
 20
13.78691091244476
 10
187.7480653962739
 20
13.83455309036312
 10
187.7284214559045
 20
13.87180336115077
 10
187.7095089485623
 20
13.93007387847571
 10
187.6942849867709
 20
13.97385201007815
 10
187.6477246372935
 20
14.08759421046316
 10
187.9890897312451
 20
14.05576301120051
 10
188.2679649367386
 20
14.02161435106495
 10
188.2617753034907
 20
14.16913976479663
 10
188.2630935452773
 20
14.24013150908844
 10
188.2624831689949
 20
14.34719767958673
 10
188.2625871570725
 20
14.47398529786008
 10
188.2629987964055
 20
14.6084924349606
 10
188.2613907841969
 20
14.73395549951193
 10
188.2659902567925
 20
14.84505246719125
 10
188.2564186502211
 20
14.90761886800697
 10
188.2704001783691
 20
14.96595388295009
 10
188.2147384386705
 20
14.95289710582246
 10
188.1575655197822
 20
14.96136307749507
 10
188.0616048925647
 20
14.95729976080644
 10
187.9633767522822
 20
14.95970889852482
 10
187.8672582457561
 20
14.95551600613396
 10
187.8104648525812
 20
14.9642934644117
 10
187.7550356873385
 20
14.9509493685013
 10
187.7670679427918
 20
15.00036910959264
 10
187.7592003173938
 20
15.04393988030403
 10
187.766629556383
 20
15.08830469118532
 10
187.7551930564144
 20
15.13902297763999
 10
187.8232102370134
 20
15.1216246075775
 10
187.8968496879747
 20
15.13417450237196
 10
188.0325064058211
 20
15.12799677011104
 10
188.1884909024526
 20
15.1302920309309
 10
188.3615926358144
 20
15.12940968262537
 10
188.5346942964182
 20
15.13029207142415
 10
188.6906789811218
 20
15.12799662955557
 10
188.8263351889798
 20
15.13417486262438
 10
188.8999756705653
 20
15.12162394218342
 10
188.9679914174725
 20
15.1390237301215
 10
188.9565590885923
 20
15.08830130414562
 10
188.9639539458298
 20
15.04397060811116
 10
188.9562039912271
 20
15.00028307550203
 10
188.9681203741877
 20
14.95063590098485
 10
188.9108170223617
 20
14.96461411338433
 10
188.8520145789773
 20
14.95539755673262
 10
188.75252936332
 20
14.95952268164937
 10
188.649428009835
 20
14.95822760025895
 10
188.5537846354574
 20
14.95854077077649
 10
188.4857467971617
 20
14.95848776697152
 10
188.4514462213443
 20
14.95849051871664
 10
188.4418622390564
 20
14.95849128473272
 97
        1
330
AC
 75
     1
 76
     2
 52
45.0
 41
0.1
 77
     0
 78
     1
 53
45.0
 43
0.0
 44
0.0
 45
-0.282842712474619
 46
0.0
 79
     0
 98
        1
 10
0.0
 20
0.0
  0
HATCH
  5
CA
330
48
100
AcDbEntity
  8
1
  6
Continuous
 62
     2
100
AcDbHatch
 10
0.0
 20
0.0
 30
0.0
210
0.0
220
0.0
230
1.0
  2
CUSTOM8
 70
     0
 71
     1
 91
        1
 92
        1
 93
        1
 72
     4
 94
        3
 73
     0
 74
     0
 95
       91
 96
       87
 40
0.0
 40
0.0
 40
0.0
 40
0.0
 40
0.0345987051695718
 40
0.1258134969461085
 40
0.2547723404888703
 40
0.4026032099153556
 40
0.550434079341642
 40
0.6793929228835227
 40
0.7706077146570467
 40
0.8052064287780072
 40
1.124852390615194
 40
1.427402236308787
 40
1.70635662745342
 40
1.955541417875087
 40
2.169485938566224
 40
2.344350786664683
 40
2.480568411561829
 40
2.59044055742885
 40
2.649189927150954
 40
2.749320643306164
 40
2.912632739879867
 40
3.147745656000075
 40
3.244827496384905
 40
3.338490056946469
 40
3.583815413206927
 40
3.761423943238298
 40
3.886956104362456
 40
3.98585545188664
 40
4.091766255337468
 40
4.250186473811689
 40
4.422734315084357
 40
4.628285684838452
 40
4.872093227758281
 40
5.152549652145394
 40
5.464967135837368
 40
5.803201477852287
 40
6.160362988813759
 40
6.193449448275842
 40
6.284170385501497
 40
6.419718138764338
 40
6.587285046385617
 40
6.774063446723503
 40
6.967245678113485
 40
7.1540240788175
 40
7.321590987025857
 40
7.457138740890215
 40
7.547859678555952
 40
7.580946138182512
 40
7.608533084714562
 40
7.66922436707754
 40
7.729915649429758
 40
7.757502595949807
 40
7.790278062553289
 40
7.880146277430759
 40
8.014419963180194
 40
8.180411842397694
 40
8.365434637679163
 40
8.556801071622436
 40
8.74182386683052
 40
8.907815745916087
 40
9.042089431507184
 40
9.13195764624931
 40
9.164733112796887
 40
9.415425063139836
 40
9.667986180958327
 40
9.694169807462465
 40
9.756607686047397
 40
9.831130315322234
 40
9.8935681938997
 40
9.919751820398517
 40
9.950967964690316
 40
9.996421631210422
 40
10.2208798103743
 40
10.44341866197522
 40
10.47847970788834
 40
10.57091337438735
 40
10.70159545461209
 40
10.8514017417034
 40
11.00120802880457
 40
11.13189010907362
 40
11.2243237758299
 40
11.25938480938936
 40
11.28697175596125
 40
11.34766303835899
 40
11.40835432042049
 40
11.43594125892083
 40
11.43594125892083
 40
11.43594125892083
 40
11.43594125892083
 10
190.0818114333289
 20
15.55242795125082
 10
190.070278584494
 20
15.5524279028792
 10
190.0283409444999
 20
15.5524277370417
 10
189.9434129719025
 20
15.55243125800914
 10
189.8207688553129
 20
15.55240926435884
 10
189.6791206916993
 20
15.55250801177059
 10
189.537975369849
 20
15.55214686232426
 10
189.4141351317905
 20
15.55321883609093
 10
189.3317217825382
 20
15.55092249091273
 10
189.1727791229694
 20
15.56048569373424
 10
189.3503402353376
 20
15.19785394311375
 10
189.3379739205454
 20
14.9524312772312
 10
189.4064519473866
 20
14.66862501324841
 10
189.469302432097
 20
14.43250999939042
 10
189.5452253431729
 20
14.23326740396137
 10
189.6303189577018
 20
14.07745347451383
 10
189.7244607592936
 20
13.97657857781402
 10
189.8282648207729
 20
13.92465852638973
 10
189.9125872030774
 20
13.9760648437963
 10
189.9351322179453
 20
14.09144544037526
 10
189.9745730975372
 20
14.21885149702388
 10
189.9202919734944
 20
14.53622328086773
 10
190.0451218072473
 20
14.38982180140907
 10
190.2019291513604
 20
14.35795300331188
 10
190.0947720007057
 20
14.12421357767634
 10
190.0808711209867
 20
13.95972776583664
 10
190.0234709467226
 20
13.83130869122486
 10
189.933502014501
 20
13.76018802352833
 10
189.8095274657878
 20
13.74432324142258
 10
189.6634273196861
 20
13.77993797554177
 10
189.5243894320285
 20
13.90000570500282
 10
189.4102003962145
 20
14.07435682550325
 10
189.3146141301486
 20
14.29946603111245
 10
189.2318652572627
 20
14.56388246006447
 10
189.1807179256413
 20
14.88187933098549
 10
189.0770189207338
 20
15.15543728488916
 10
189.2042841208521
 20
15.56005818612874
 10
189.0357890623019
 20
15.55112367849683
 10
188.9511995787077
 20
15.55315961418368
 10
188.8189876387628
 20
15.55213937388411
 10
188.6560505094104
 20
15.55253230318434
 10
188.4733759170534
 20
15.55235696313374
 10
188.2847057373383
 20
15.55260105307473
 10
188.101446902019
 20
15.55185657906241
 10
187.9404746832719
 20
15.55416360522431
 10
187.8029808335276
 20
15.54799804883667
 10
187.7289590372312
 20
15.56032838458216
 10
187.6613215186857
 20
15.54329323723561
 10
187.6732373719271
 20
15.59524438447533
 10
187.6655677285694
 20
15.64071424966533
 10
187.6732592225117
 20
15.6861445370371
 10
187.6613141797762
 20
15.73802395984575
 10
187.7283588305868
 20
15.72119143490268
 10
187.8017375665677
 20
15.73335409092674
 10
187.9379128305273
 20
15.72727231074963
 10
188.0973811801513
 20
15.72954834315062
 10
188.2789173085837
 20
15.72881233998966
 10
188.4658034862179
 20
15.72905954196138
 10
188.6468012316836
 20
15.72886400799257
 10
188.8080802578879
 20
15.72932234714844
 10
188.9393882124887
 20
15.7281267375121
 10
189.0225051322596
 20
15.73051347319747
 10
189.1556236547814
 20
15.72230605725468
 10
189.064589350266
 20
15.9775286895266
 10
188.9789633074419
 20
16.24164358328259
 10
189.0990589003456
 20
16.22904442969174
 10
189.1514264948544
 20
16.22694235763082
 10
189.2214497569717
 20
16.22535399889662
 10
189.2671922337817
 20
16.21602567538115
 10
189.3220812646934
 20
16.22545966915428
 10
189.2963574785682
 20
16.17733028655178
 10
189.1825397571454
 20
16.18266829744176
 10
189.3159346621136
 20
15.95449174576781
 10
189.194365873547
 20
15.72156856595927
 10
189.3223188769413
 20
15.73087258884443
 10
189.4049048406461
 20
15.72801001754685
 10
189.5307214850824
 20
15.72923437412306
 10
189.6741469838057
 20
15.72932431888968
 10
189.8157420951728
 20
15.72746163183857
 10
189.9459127249967
 20
15.73333075937167
 10
190.0193452286191
 20
15.72070340823207
 10
190.0891112922096
 20
15.73877563110416
 10
190.0775772605396
 20
15.6861285054633
 10
190.0833184346682
 20
15.64221317686552
 10
190.0816615770911
 20
15.59089982676554
 10
190.081775756167
 20
15.56158792021639
 10
190.0818114333289
 20
15.55242795125082
 97
        1
330
AD
 75
     1
 76
     2
 52
45.0
 41
0.1
 77
     0
 78
     1
 53
45.0
 43
0.0
 44
0.0
 45
-0.282842712474619
 46
0.0
 79
     0
 98
        1
 10
0.0
 20
0.0
  0
HATCH
  5
CB
330
48
100
AcDbEntity
  8
1
  6
Continuous
 62
     2
100
AcDbHatch
 10
0.0
 20
0.0
 30
0.0
210
0.0
220
0.0
230
1.0
  2
CUSTOM9
 70
     0
 71
     1
 91
        1
 92
        1
 93
        1
 72
     4
 94
        3
 73
     0
 74
     0
 95
      118
 96
      114
 40
0.0
 40
0.0
 40
0.0
 40
0.0
 40
0.1054708162973021
 40
0.2466098270051493
 40
0.396591287459055
 40
0.5285525069753088
 40
0.6156245055640712
 40
0.6431434105795986
 40
0.7036850037984822
 40
0.7642265984503198
 40
0.7917455052353646
 40
0.9287404319989161
 40
1.106572819087977
 40
1.287544879680975
 40
1.317578308030494
 40
1.399928030857127
 40
1.522968204799905
 40
1.675072986590525
 40
1.844616533180603
 40
2.019973001638666
 40
2.18951654887998
 40
2.341621331585317
 40
2.464661506320455
 40
2.547011229647019
 40
2.577044658167983
 40
2.603797890893053
 40
2.662655002908769
 40
2.721512114949609
 40
2.74826534770276
 40
2.774215307344837
 40
2.845959313407165
 40
2.954338556588362
 40
3.090194227585536
 40
3.244367517100498
 40
3.407699615844253
 40
3.571031714539399
 40
3.72520500392007
 40
3.861060674729566
 40
3.969439917716259
 40
4.04118392362893
 40
4.067133883212923
 40
4.31188674601209
 40
4.547897258335452
 40
4.764747083043924
 40
4.952749679951734
 40
5.045772974195797
 40
5.137862019644915
 40
5.330543169792916
 40
5.55344826524389
 40
5.795083855888048
 40
6.043293412177133
 40
6.285761695541079
 40
6.313902908752591
 40
6.384255941793181
 40
6.475714884766769
 40
6.56717382775886
 40
6.637526860839666
 40
6.66566807407403
 40
6.692018920328008
 40
6.749990782071088
 40
6.807962643790467
 40
6.834313490017945
 40
6.856393084245224
 40
6.913335195649847
 40
6.99119481730254
 40
7.076026942283829
 40
7.153886563725348
 40
7.210828674844902
 40
7.232908268931266
 40
7.258199334923787
 40
7.324875781592429
 40
7.419142481925079
 40
7.527204308842014
 40
7.635266135230585
 40
7.729532834168563
 40
7.796209279292882
 40
7.821500344594825
 40
7.844652988850895
 40
7.899863140541647
 40
7.965759128053786
 40
8.020969279771043
 40
8.04412192404651
 40
8.0693566101605
 40
8.109134395441233
 40
8.132238100190945
 40
8.1931478677863
 40
8.279261678876464
 40
8.37797751267367
 40
8.476693347146444
 40
8.56280716041149
 40
8.623716930826268
 40
8.64682063685322
 40
8.671988793774034
 40
8.734909185827917
 40
8.816705695188631
 40
8.898502204815202
 40
8.961422597377663
 40
8.986590754550775
 40
9.012941600732935
 40
9.07091346238003
 40
9.128885324081534
 40
9.15523617032486
 40
9.180404327928903
 40
9.243324721947976
 40
9.32512123421174
 40
9.406917746637395
 40
9.469838141977851
 40
9.495006288270625
 40
9.51781118437877
 40
9.572192090486778
 40
9.637098333281015
 40
9.691479239515223
 40
9.714284125643266
 40
9.714284125643266
 40
9.714284125643266
 40
9.714284125643266
 10
185.2874469028654
 20
15.26889163187722
 10
185.3090990569038
 20
15.24111869242814
 10
185.3597257109475
 20
15.17618054561238
 10
185.4349383202592
 20
15.06891060312902
 10
185.5248482274346
 20
14.9537743826663
 10
185.5709169676674
 20
14.85357045748327
 10
185.6655825294655
 20
14.78434006814956
 10
185.6204439320413
 20
14.73771639678283
 10
185.5947047785791
 20
14.69660308866048
 10
185.5645196708013
 20
14.66065971727942
 10
185.5193684730563
 20
14.58579782596093
 10
185.4710504458562
 20
14.80782524253606
 10
185.3968539713073
 20
14.84510677337716
 10
185.2836047324607
 20
15.11610202130609
 10
185.2885133578171
 20
15.00095328446239
 10
185.2868486556306
 20
14.92836675781637
 10
185.2876830076715
 20
14.80625588483997
 10
185.2873609540266
 20
14.6591380081047
 10
185.2875076912457
 20
14.49307063956567
 10
185.2872950092724
 20
14.32187554608612
 10
185.2879497252034
 20
14.15552828635508
 10
185.285919246114
 20
14.00935173055703
 10
185.2913460399932
 20
13.88471047474621
 10
185.2804930868708
 20
13.81718656540636
 10
185.2956739155556
 20
13.75549061417032
 10
185.2457895108134
 20
13.76727503897012
 10
185.2017150342522
 20
13.75943822779979
 10
185.1582371630201
 20
13.76760441372713
 10
185.1092346786489
 20
13.75538056738478
 10
185.1218731234826
 20
13.80960667249323
 10
185.113018296845
 20
13.86936918907567
 10
185.1175058770314
 20
13.9792202904438
 10
185.1157960135992
 20
14.11029975405688
 10
185.1163550915987
 20
14.26198011444337
 10
185.1161928768694
 20
14.42211074929961
 10
185.1162269924676
 20
14.58236865674575
 10
185.1162514960127
 20
14.73370247520447
 10
185.1161453543226
 20
14.86582156338608
 10
185.1164299141931
 20
14.97294802533201
 10
185.1158675547569
 20
15.0380861957948
 10
185.1180765083689
 20
15.16618957858682
 10
185.0319435998603
 20
14.79097610391586
 10
184.95551408185
 20
14.63918193123403
 10
184.8660040767833
 20
14.47766206446319
 10
184.7640413217326
 20
14.20471848820181
 10
184.7187976491039
 20
14.36717346596518
 10
184.6102355941671
 20
14.45605432058131
 10
184.7995791751753
 20
14.60549794961416
 10
184.8565340545701
 20
14.79749136974931
 10
184.9717520993352
 20
15.02899622906763
 10
184.9940151630134
 20
15.21797259759067
 10
185.177190515214
 20
15.49454089325936
 10
185.0538033597553
 20
15.486989788321
 10
184.9925684166834
 20
15.48856772366124
 10
184.9081999617064
 20
15.48882592573679
 10
184.8204235085966
 20
15.48544845751211
 10
184.7656768696123
 20
15.49394814982027
 10
184.7104703026024
 20
15.48048561049794
 10
184.7222823035536
 20
15.5293144212677
 10
184.7142496151794
 20
15.57269004896716
 10
184.7228186104679
 20
15.61509438309581
 10
184.7102943409156
 20
15.66267796552127
 10
184.7555101538736
 20
15.65267212995118
 10
184.8014815562723
 20
15.6589410517407
 10
184.877722204771
 20
15.65593561405881
 10
184.9561296131994
 20
15.6577044827855
 10
185.0323992648933
 20
15.65464793981669
 10
185.0783009459475
 20
15.66103971376186
 10
185.1231733965401
 20
15.65093822978905
 10
185.1105552275635
 20
15.70157201581907
 10
185.1191936582707
 20
15.75501261882078
 10
185.1152361595444
 20
15.84863255131688
 10
185.1162325068336
 20
15.95112606688931
 10
185.1171927413074
 20
16.05353270248169
 10
185.1133211458007
 20
16.14735929609327
 10
185.1217789814364
 20
16.20036542840358
 10
185.1093075932836
 20
16.25211435651193
 10
185.154210638985
 20
16.23850747226761
 10
185.1955083836772
 20
16.24100480320588
 10
185.2595344281051
 20
16.23648060574489
 10
185.2986111148786
 20
16.22781003043309
 10
185.3476543498741
 20
16.23515102070687
 10
185.3225080030591
 20
16.19602896051769
 10
185.2815901333724
 20
16.2056384245581
 10
185.2910109616604
 20
16.15540148169783
 10
185.2855647318747
 20
16.10385945639495
 10
185.2881699601804
 20
16.01959707584526
 10
185.2870102202156
 20
15.92559135583415
 10
185.2883591064232
 20
15.83196865395533
 10
185.284997010151
 20
15.74679517552231
 10
185.292095991777
 20
15.69716856072053
 10
185.2812569154546
 20
15.64993694969997
 10
185.3304010225246
 20
15.6620167493686
 10
185.3794877630148
 20
15.6544739336302
 10
185.4573714280642
 20
15.65686070361442
 10
185.5350365172897
 20
15.65899381905424
 10
185.5845393931355
 20
15.65193391922464
 10
185.634459475064
 20
15.66360151936222
 10
185.6223198516882
 20
15.61540235371402
 10
185.6305838229144
 20
15.57249219801243
 10
185.6223198650784
 20
15.52958201851391
 10
185.6344594549855
 20
15.4813828875487
 10
185.5845395158747
 20
15.49305034471516
 10
185.5350350651203
 20
15.48599202435052
 10
185.4573784382974
 20
15.48811665228609
 10
185.3794643865762
 20
15.49053389365766
 10
185.3304500352717
 20
15.48291848194491
 10
185.2813246108944
 20
15.49507952557598
 10
185.2915559988572
 20
15.45073013424164
 10
185.2856677678054
 20
15.40925436202916
 10
185.287878830557
 20
15.34915394315307
 10
185.2874109346147
 20
15.30225782762892
 10
185.2874386992914
 20
15.27650146418199
 10
185.2874469028654
 20
15.26889163187722
 97
        1
330
AE
 75
     1
 76
     2
 52
45.0
 41
0.1
 77
     0
 78
     1
 53
45.0
 43
0.0
 44
0.0
 45
-0.282842712474619
 46
0.0
 79
     0
 98
        1
 10
0.0
 20
0.0
  0
HATCH
  5
CC
330
48
100
AcDbEntity
  8
1
  6
Continuous
 62
     2
100
AcDbHatch
 10
0.0
 20
0.0
 30
0.0
210
0.0
220
0.0
230
1.0
  2
CUSTOM10
 70
     0
 71
     1
 91
        1
 92
        1
 93
        1
 72
     4
 94
        3
 73
     0
 74
     0
 95
       47
 96
       43
 40
0.0
 40
0.0
 40
0.0
 40
0.0
 40
0.2207912809956793
 40
0.4459404186302195
 40
0.4902387190457785
 40
0.5327473892721006
 40
0.5742260451223768
 40
0.6155432630559636
 40
0.6568164066314277
 40
0.6982511618778638
 40
0.7407663929315134
 40
0.7851366743173132
 40
1.010288833836069
 40
1.231080507001878
 40
1.451765243652142
 40
1.676638205891442
 40
1.720461045359415
 40
1.830018144043279
 40
1.972442372352908
 40
2.114866600677279
 40
2.224423699394902
 40
2.268246538883143
 40
2.493628801206983
 40
2.715602830286404
 40
2.934211330706122
 40
3.149502369855115
 40
3.231387784850649
 40
3.318231873853713
 40
3.405143198197702
 40
3.486970301720111
 40
3.702258172493554
 40
3.92086628353375
 40
4.142839325931565
 40
4.368221903865034
 40
4.412044743359515
 40
4.521601842095527
 40
4.664026070452008
 40
4.806450298808717
 40
4.91600739754641
 40
4.959830237042733
 40
5.184703515846782
 40
5.405387250767194
 40
5.405387250767194
 40
5.405387250767194
 40
5.405387250767194
 10
182.6507427258645
 20
15.73406440953882
 10
182.6568139420002
 20
15.7975848250122
 10
182.6690762107243
 20
15.92587938689635
 10
182.5604706879413
 20
16.20166220174071
 10
182.6761985896605
 20
16.1718813343206
 10
182.7171842509016
 20
16.16765556262828
 10
182.7591205797519
 20
16.16310446389614
 10
182.8004196625711
 20
16.16201982929488
 10
182.8417032115556
 20
16.16310338195235
 10
182.8836148270647
 20
16.16766112711352
 10
182.9245983549019
 20
16.17187430209735
 10
183.0404922843489
 20
16.20177611317527
 10
182.9295652727458
 20
15.92339806609899
 10
182.9574856365268
 20
15.7428314082496
 10
182.9404267346971
 20
15.50961042346479
 10
182.9414637282104
 20
15.34906622543151
 10
182.9414099399405
 20
15.22284817558726
 10
182.9414277372482
 20
15.12428963336246
 10
182.9414188581082
 20
14.99280702442968
 10
182.9414263928034
 20
14.86132844968654
 10
182.9414129405129
 20
14.76276222694095
 10
182.9414531717493
 20
14.63639735624156
 10
182.9406746403819
 20
14.47482068822874
 10
182.9565958319268
 20
14.24361821892917
 10
182.9333468885408
 20
14.05874351972007
 10
183.0360183444365
 20
13.7893560277006
 10
182.8820238362837
 20
13.82660112685825
 10
182.8004129802832
 20
13.82137994680545
 10
182.7188192292583
 20
13.82660620378358
 10
182.5648513666843
 20
13.78937069885389
 10
182.6674183421918
 20
14.05875129862885
 10
182.6442045316087
 20
14.24361585325418
 10
182.660044465514
 20
14.47482218565642
 10
182.6593296313427
 20
14.63639712308507
 10
182.6593664569908
 20
14.76276231210526
 10
182.6593549000271
 20
14.86132756635986
 10
182.6593575019215
 20
14.99281127417225
 10
182.659364853178
 20
15.12427548031204
 10
182.6593442541352
 20
15.2228778627533
 10
182.6594082192029
 20
15.34896149354432
 10
182.658173394759
 20
15.51210091383778
 10
182.6532040396745
 20
15.66054183777559
 10
182.6507427258645
 20
15.73406440953882
 97
        1
330
AF
 75
     1
 76
     2
 52
45.0
 41
0.1
 77
     0
 78
     1
 53
45.0
 43
0.0
 44
0.0
 45
-0.282842712474619
 46
0.0
 79
     0
 98
        1
 10
0.0
 20
0.0
  0
HATCH
  5
CD
330
48
100
AcDbEntity
  8
1
  6
Continuous
 62
     2
100
AcDbHatch
 10
0.0
 20
0.0
 30
0.0
210
0.0
220
0.0
230
1.0
  2
CUSTOM11
 70
     0
 71
     1
 91
        1
 92
        1
 93
        1
 72
     4
 94
        3
 73
     0
 74
     0
 95
      110
 96
      106
 40
0.0
 40
0.0
 40
0.0
 40
0.0
 40
0.2203406257277962
 40
0.4407808782838107
 40
0.5952494494615068
 40
0.7488431659393069
 40
0.9023581831308486
 40
1.056801968670404
 40
1.210736449099876
 40
1.363041386539783
 40
1.515315729683097
 40
1.669377239148075
 40
1.721611652756498
 40
1.773199502942893
 40
1.824933793209937
 40
1.877110426487912
 40
1.982682281206676
 40
2.078781667087453
 40
2.17280964082223
 40
2.271937807378855
 40
2.37834993337925
 40
2.494131557736525
 40
2.626681683943631
 40
2.783145050796002
 40
2.890701232940883
 40
2.993130312454777
 40
3.099869730691768
 40
3.220237816691212
 40
3.352695482737566
 40
3.481732806389803
 40
3.593499473690377
 40
3.674323013331839
 40
3.817951711952732
 40
3.9461671207937
 40
4.061405053453414
 40
4.166480796003026
 40
4.262478775059178
 40
4.350736673551133
 40
4.433071991254018
 40
4.511216293814509
 40
4.564262454117837
 40
4.618474415571476
 40
4.670128488754057
 40
4.722296879126214
 40
4.81954094531408
 40
4.931194984127938
 40
5.049996040257521
 40
5.168643755415008
 40
5.283970811762305
 40
5.39226078491016
 40
5.486512254876177
 40
5.559178233949548
 40
5.591425852853186
 40
5.626215969637572
 40
5.667155838674125
 40
5.717449290213965
 40
5.738402360944564
 40
5.784499116553494
 40
5.83059587216443
 40
5.851548942897271
 40
5.873019280661394
 40
5.924217778407959
 40
5.985325662817365
 40
6.036524160567405
 40
6.057994498333942
 40
6.236847789607184
 40
6.381409928945285
 40
6.493190424178382
 40
6.574067534230156
 40
6.691018086205222
 40
6.814881554220168
 40
6.944307823240149
 40
7.071266716065661
 40
7.193488604461503
 40
7.309042773127733
 40
7.414007203170415
 40
7.5051404418862
 40
7.531150360599351
 40
7.559221645321936
 40
7.587202218920631
 40
7.612569159498809
 40
7.662550809480708
 40
7.702878875763868
 40
7.857328205230683
 40
8.0107995680883
 40
8.16525639965728
 40
8.32223269871359
 40
8.479564855016305
 40
8.635216230290508
 40
8.790882550925454
 40
8.948305154946993
 40
9.168271839032677
 40
9.387358980986916
 40
9.608047961033188
 40
9.832914234792419
 40
9.85833869496275
 40
9.925366817229753
 40
10.02013071422733
 40
10.1287624985897
 40
10.2373942829522
 40
10.3321581799516
 40
10.39918630222363
 40
10.42461076239752
 40
10.64992019336917
 40
10.87188524531157
 40
10.87188524531157
 40
10.87188524531157
 40
10.87188524531157
 10
179.9057788376619
 20
15.73923260398192
 10
179.9092864933542
 20
15.80616462073807
 10
179.9163033987663
 20
15.94005891915862
 10
179.8198027599074
 20
16.2254855497147
 10
180.0510134726109
 20
16.16284386190291
 10
180.1919290057156
 20
16.17001554055998
 10
180.3490417757588
 20
16.16235883078252
 10
180.5025913427288
 20
16.16252752283043
 10
180.6545104935082
 20
16.1618204053544
 10
180.8142214813231
 20
16.17210158351646
 10
180.9408972601119
 20
16.15496511080758
 10
181.1370821122081
 20
16.22727260107149
 10
181.103439527908
 20
16.12640699080123
 10
181.1052011317184
 20
16.07619253947678
 10
181.1027342073459
 20
16.02712335586473
 10
181.1347076966011
 20
15.94063490847006
 10
181.0010399903257
 20
15.98997438608346
 10
180.9172208688057
 20
15.98430634314171
 10
180.8173861139325
 20
15.99465516706301
 10
180.7186576720146
 20
16.00086450411087
 10
180.6121532771112
 20
16.00697763816785
 10
180.491051169806
 20
16.01588883484593
 10
180.3703381502453
 20
16.00521605912391
 10
180.1812553843438
 20
16.06468503080375
 10
180.212902850531
 20
15.90558320077548
 10
180.1995563316835
 20
15.80839128339911
 10
180.1974958426449
 20
15.69634065110112
 10
180.1958188044671
 20
15.57699685629359
 10
180.1973336794234
 20
15.45032592155118
 10
180.1956582478669
 20
15.32301588016122
 10
180.2058844271659
 20
15.2245156640447
 10
180.1779006596583
 20
15.0838870262564
 10
180.3508029999305
 20
15.13989551134102
 10
180.4645020202771
 20
15.12719951478502
 10
180.5840151672239
 20
15.13448377051261
 10
180.6888491425072
 20
15.1387801705676
 10
180.7843084898613
 20
15.14330568258988
 10
180.8763823507033
 20
15.15149201146204
 10
180.947655178244
 20
15.14643850638115
 10
181.0544931705684
 20
15.18536425031679
 10
181.0226603598037
 20
15.10517122005884
 10
181.0266164503929
 20
15.05562936846039
 10
181.0234502392014
 20
15.00557478039827
 10
181.0550791490583
 20
14.92128847612032
 10
180.9210133677692
 20
14.97425365495164
 10
180.82923227932
 20
14.96540080890452
 10
180.7079729189603
 20
14.97570049965159
 10
180.5914113119772
 20
14.97748911767501
 10
180.4783375745879
 20
14.97787017109696
 10
180.3679246308471
 20
14.98415449472187
 10
180.289812406784
 20
14.97189133255365
 10
180.1913625833645
 20
15.00453887616128
 10
180.2012355173561
 20
14.94769748054209
 10
180.1973923244402
 20
14.91392130557989
 10
180.1966789884269
 20
14.87119604709413
 10
180.1963369642975
 20
14.83401607262156
 10
180.1963834255345
 20
14.79487237370773
 10
180.1963649429927
 20
14.75716849497691
 10
180.1963703431806
 20
14.71944955232411
 10
180.1963697214201
 20
14.6899432474516
 10
180.1963698151545
 20
14.6587357769931
 10
180.1963704287921
 20
14.61414424908093
 10
180.1963671499336
 20
14.55963956508856
 10
180.1963759623481
 20
14.51505540201451
 10
180.1963359653416
 20
14.43117808585743
 10
180.1976024270256
 20
14.31737520677683
 10
180.1950274117842
 20
14.16830395933714
 10
180.206500938172
 20
14.06597203813913
 10
180.1823506222265
 20
13.93338903885842
 10
180.3332993946476
 20
13.97895732272029
 10
180.4428436671557
 20
13.96427012162356
 10
180.5733970473921
 20
13.9692043512507
 10
180.6990312209514
 20
13.97257705323375
 10
180.8188730625601
 20
13.97711497498776
 10
180.9391362611426
 20
13.99048536182017
 10
181.0222761663515
 20
13.98068712782603
 10
181.1456080421076
 20
14.04126214623332
 10
181.1244269203957
 20
13.9853246013403
 10
181.1235950270118
 20
13.95939249372355
 10
181.1218963707559
 20
13.93197256190948
 10
181.121797488883
 20
13.89738195206392
 10
181.120365930133
 20
13.86050408220775
 10
181.153280419219
 20
13.76846841021811
 10
180.9551306988108
 20
13.84132015974838
 10
180.8300548294892
 20
13.81825726508616
 10
180.6673071295157
 20
13.82454021985795
 10
180.5129366450002
 20
13.82260943909936
 10
180.3566670436944
 20
13.82393762599277
 10
180.1970544465283
 20
13.82059872487873
 10
180.0540326342237
 20
13.83265795728248
 10
179.8197144881629
 20
13.76952001976923
 10
179.9173810751198
 20
14.05620527466322
 10
179.9006868780059
 20
14.24988308142663
 10
179.9146296709685
 20
14.47848242880299
 10
179.9142987846633
 20
14.63384593955053
 10
179.9143078119264
 20
14.73966336444132
 10
179.9143055876316
 20
14.8020578412422
 10
179.914306555189
 20
14.89220425248331
 10
179.9143065473262
 20
14.99621167157442
 10
179.9143053861104
 20
15.10022131375299
 10
179.9143090971502
 20
15.1903624368877
 10
179.9143011051053
 20
15.25276803097216
 10
179.9143334275017
 20
15.35868835961122
 10
179.9131440788322
 20
15.51626716544744
 10
179.9082216489257
 20
15.66528219822069
 10
179.9057788376619
 20
15.73923260398192
 97
        1
330
B0
 75
     1
 76
     2
 52
45.0
 41
0.1
 77
     0
 78
     1
 53
45.0
 43
0.0
 44
0.0
 45
-0.282842712474619
 46
0.0
 79
     0
 98
        1
 10
0.0
 20
0.0
  0
HATCH
  5
CE
330
48
100
AcDbEntity
  8
1
  6
Continuous
 62
     2
100
AcDbHatch
 10
0.0
 20
0.0
 30
0.0
210
0.0
220
0.0
230
1.0
  2
CUSTOM12
 70
     0
 71
     1
 91
        1
 92
        1
 93
        1
 72
     4
 94
        3
 73
     0
 74
     0
 95
       95
 96
       91
 40
0.0
 40
0.0
 40
0.0
 40
0.0
 40
0.6550406656911546
 40
1.308087289031915
 40
1.420803739835748
 40
1.566130759770685
 40
1.75706734188839
 40
2.006513545026418
 40
2.087328263121497
 40
2.185328872295527
 40
2.294612454748318
 40
2.408936380534803
 40
2.526802767798511
 40
2.646360524615588
 40
2.76253572397157
 40
2.870057342870139
 40
2.966883448431572
 40
3.050803243518207
 40
3.115818222436546
 40
3.156030057150207
 40
3.213914225080139
 40
3.276689026450597
 40
3.34296032098129
 40
3.404230667150542
 40
3.453822809493365
 40
3.532499827188405
 40
3.63477518850712
 40
3.754909333008182
 40
3.889736761660633
 40
4.035769602175216
 40
4.187256681197593
 40
4.338733685675952
 40
4.488478734676113
 40
4.634708317831611
 40
4.771493189921284
 40
4.892686571561266
 40
5.199775528944472
 40
5.460353566929632
 40
5.667603142345506
 40
5.81472290540453
 40
5.828990806219828
 40
5.855488336304525
 40
5.869756237118857
 40
6.189796507762892
 40
6.531890469873121
 40
6.883053637017094
 40
7.230512024911649
 40
7.56696665676469
 40
7.885203559707568
 40
8.17288743971938
 40
8.418011594062865
 40
8.443926721190788
 40
8.510760470613276
 40
8.602145393795787
 40
8.70171404164723
 40
8.793098965075464
 40
8.859932715058036
 40
8.885847842603686
 40
9.242301256612931
 40
9.589275455016894
 40
9.921808543164296
 40
10.23479624298475
 40
10.29968150889183
 40
10.35323493887774
 40
10.4015462535515
 40
10.46482922477831
 40
10.55973900668409
 40
10.69239545985618
 40
10.84920353475674
 40
11.01626328594787
 40
11.18672024367448
 40
11.35372582577218
 40
11.50257442292431
 40
11.618664950233
 40
11.71329869152876
 40
11.82511050573911
 40
11.94464880845719
 40
12.06929242642513
 40
12.19707290435178
 40
12.32562632860534
 40
12.45034565331281
 40
12.56646595170333
 40
12.67099007414638
 40
12.76077625936781
 40
12.82703233506696
 40
12.87429132786001
 40
12.8983199032334
 40
12.92234847860028
 40
13.53984767410334
 40
14.18294284359376
 40
14.18294284359376
 40
14.18294284359376
 40
14.18294284359376
 10
177.3067935648022
 20
14.70898038201732
 10
177.1752019758551
 20
14.82265058603238
 10
176.9124193802729
 20
15.04964496316161
 10
176.3997393441025
 20
15.89214462956289
 10
176.4106654595361
 20
15.53423377577027
 10
176.4041226527993
 20
15.39267392272141
 10
176.4028026631773
 20
15.19421305299289
 10
176.4018117602538
 20
15.02150296045989
 10
176.4024101751974
 20
14.87865373257587
 10
176.4038994301883
 20
14.78265005413366
 10
176.4055683588472
 20
14.67545503263147
 10
176.407193495462
 20
14.56164211517587
 10
176.4092429501686
 20
14.44441572604592
 10
176.4123165501927
 20
14.32656411232973
 10
176.4156339697044
 20
14.21228087320623
 10
176.419360534028
 20
14.10521401867281
 10
176.4217338161424
 20
14.01007408766928
 10
176.427871888836
 20
13.92558557205704
 10
176.4239784495946
 20
13.86923087298149
 10
176.4455230443079
 20
13.7982502247236
 10
176.3680940058618
 20
13.82902677604491
 10
176.3116353240191
 20
13.82011242517625
 10
176.2540495896807
 20
13.82896218398282
 10
176.1690163478474
 20
13.79738225225948
 10
176.2009714146382
 20
13.88095155992197
 10
176.1990705282539
 20
13.94882608968314
 10
176.2107960047301
 20
14.05233256764424
 10
176.2164241052999
 20
14.17002125616701
 10
176.2237902178942
 20
14.3038860916443
 10
176.2320759701609
 20
14.44764152872638
 10
176.2398851897428
 20
14.5971402284345
 10
176.2457571222658
 20
14.74792549402085
 10
176.2503667817969
 20
14.89699943878445
 10
176.2542632117542
 20
15.04122913163031
 10
176.2570715126565
 20
15.17583905213028
 10
176.2576698755023
 20
15.36469614347365
 10
176.2616023867151
 20
15.58975494313163
 10
176.2442175378499
 20
15.86367091125716
 10
176.2850417342583
 20
16.02787112098604
 10
176.1995153256002
 20
16.22749661465108
 10
176.2660558907688
 20
16.22385458403989
 10
176.283872427323
 20
16.22413447160865
 10
176.4056801797508
 20
16.22632927398625
 10
176.508077033546
 20
15.94675118721522
 10
176.7580021509357
 20
15.74563008536014
 10
176.9870035331111
 20
15.47792614987922
 10
177.2245151213109
 20
15.22646413862383
 10
177.4486090740772
 20
14.98969974061361
 10
177.6750716283011
 20
14.73218692583085
 10
177.8325687886515
 20
14.61649335056929
 10
178.0472129612674
 20
14.27997152538798
 10
178.0422645974619
 20
14.40464754091606
 10
178.0433931602545
 20
14.46327691935739
 10
178.0428877841517
 20
14.55043662371979
 10
178.0430475158113
 20
14.64416143182875
 10
178.0430054891318
 20
14.73018971297038
 10
178.0430202040372
 20
14.79153891945498
 10
178.0429706255985
 20
14.94135231520997
 10
178.0458811522811
 20
15.1798961251011
 10
178.0259521041163
 20
15.54486509868707
 10
178.0750433936248
 20
15.80799631993418
 10
177.917795150918
 20
16.21928904947749
 10
178.0762112872423
 20
16.16398282551752
 10
178.1311680478628
 20
16.1619968650018
 10
178.1827887766741
 20
16.16264778248258
 10
178.2713198965367
 20
16.20369527738247
 10
178.2204898303169
 20
16.05696326622994
 10
178.2313389930284
 20
15.95019971954438
 10
178.2166036994848
 20
15.79085705414117
 10
178.2099976446204
 20
15.62853061652878
 10
178.2014961399915
 20
15.45992521892397
 10
178.1943227202198
 20
15.29814814703544
 10
178.1889063215389
 20
15.15422331457933
 10
178.1871713967648
 20
15.03437493466928
 10
178.1875440672319
 20
14.92686101590519
 10
178.1873656126263
 20
14.81820024645591
 10
178.187701086314
 20
14.69953570165534
 10
178.1890040622185
 20
14.57555163512746
 10
178.1908887351575
 20
14.44858294171109
 10
178.1925004454852
 20
14.32153861551037
 10
178.194140313743
 20
14.19854884492182
 10
178.1962570745752
 20
14.08300931383764
 10
178.1963848422364
 20
13.98090903955843
 10
178.2006514396555
 20
13.89009848838164
 10
178.190844008529
 20
13.83213621208793
 10
178.211847477169
 20
13.7651713013203
 10
178.1725639739898
 20
13.77291153966689
 10
177.9595307117747
 20
13.75755254145196
 10
177.7636297943185
 20
14.31403058094467
 10
177.4611197631545
 20
14.57556035348516
 10
177.3067935648022
 20
14.70898038201732
 97
        1
330
B1
 75
     1
 76
     2
 52
45.0
 41
0.1
 77
     0
 78
     1
 53
45.0
 43
0.0
 44
0.0
 45
-0.282842712474619
 46
0.0
 79
     0
 98
        1
 10
0.0
 20
0.0
  0
HATCH
  5
CF
330
48
100
AcDbEntity
  8
1
  6
Continuous
 62
     2
100
AcDbHatch
 10
0.0
 20
0.0
 30
0.0
210
0.0
220
0.0
230
1.0
  2
CUSTOM13
 70
     0
 71
     1
 91
        2
 92
        1
 93
        1
 72
     4
 94
        3
 73
     0
 74
     0
 95
       57
 96
       53
 40
0.0
 40
0.0
 40
0.0
 40
0.0
 40
0.0471632082808699
 40
0.0914861054632194
 40
0.1357762519702146
 40
0.1826527001609872
 40
0.2295203288571497
 40
0.2737751972219666
 40
0.3181310461542269
 40
0.3652607198398589
 40
0.4571007286314608
 40
0.5671851029165096
 40
0.6894623283868212
 40
0.8181758272545884
 40
0.9510087229273905
 40
1.085852229674076
 40
1.218126164475337
 40
1.343545131142385
 40
1.454537202956802
 40
1.567187607530727
 40
1.680710966642317
 40
1.794226869736709
 40
1.900009184247509
 40
2.004085860447788
 40
2.108162674451706
 40
2.214000150155307
 40
2.496038577352127
 40
2.762350745479177
 40
2.99727535327938
 40
3.185110082137726
 40
3.246407890063899
 40
3.312607550212574
 40
3.378877742711505
 40
3.440140399651447
 40
4.100501696006509
 40
4.754913085563568
 40
5.411331693423971
 40
6.077890432568766
 40
6.110575292671045
 40
6.143260152775825
 40
6.367989363395298
 40
6.610525374951678
 40
6.863389136467435
 40
7.119380025547749
 40
7.376036605091212
 40
7.631164770966389
 40
7.876722425456587
 40
8.10495373585614
 40
8.312916685924408
 40
8.49773029494142
 40
8.651018984313986
 40
8.764738853624703
 40
8.764738853624703
 40
8.764738853624703
 40
8.764738853624703
 10
174.7922649500513
 20
13.81626739612932
 10
174.7766616726931
 20
13.81826231079083
 10
174.7463947960302
 20
13.82213201360307
 10
174.7010994202253
 20
13.82341984967278
 10
174.6559553129349
 20
13.8230868355406
 10
174.60990171234
 20
13.82314658674233
 10
174.5640496172097
 20
13.8232581365001
 10
174.5183711648165
 20
13.82277833456601
 10
174.4750811541609
 20
13.82461109618729
 10
174.4039947951513
 20
13.80049556814658
 10
174.4057477261442
 20
13.92184693977257
 10
174.3586196370569
 20
14.00726239751235
 10
174.3191478251763
 20
14.12486929345144
 10
174.2706635532645
 20
14.24232752540438
 10
174.2201017402523
 20
14.36405935761518
 10
174.1718634610477
 20
14.49075967862469
 10
174.1135232947595
 20
14.59933687784958
 10
174.0980892667261
 20
14.75620657134414
 10
173.9566586330636
 20
14.72373446548325
 10
173.8508397414905
 20
14.73512888682198
 10
173.7358569725223
 20
14.73392591514617
 10
173.6253142252142
 20
14.73506945347422
 10
173.5176583522783
 20
14.73418350037528
 10
173.4121322529244
 20
14.73416602390537
 10
173.3109192682014
 20
14.72714032472418
 10
173.1266804827753
 20
14.75135859859874
 10
173.1157393685412
 20
14.44741691121891
 10
173.0087691634751
 20
14.22353177253404
 10
172.9098148604347
 20
14.03895314292508
 10
172.9225090524007
 20
13.7953020480421
 10
172.8050091716398
 20
13.82508046753204
 10
172.7422055868311
 20
13.82258089509615
 10
172.67858720934
 20
13.82344075102812
 10
172.3946014194074
 20
13.78098039941941
 10
173.0251638499382
 20
14.50081952444792
 10
173.1087645289072
 20
15.01276539435734
 10
173.4929252789338
 20
15.53353743550054
 10
173.4777208288565
 20
16.23519626253224
 10
173.7239265722696
 20
16.22345633081267
 10
173.8256346157563
 20
16.23225004452784
 10
173.8249752035818
 20
15.98059650730355
 10
173.9428317155828
 20
15.79818020733961
 10
174.0315515260484
 20
15.55563740662869
 10
174.1322292485261
 20
15.32340030530138
 10
174.2311142712242
 20
15.08674644566917
 10
174.3299676990671
 20
14.85461739170105
 10
174.4256166390926
 20
14.63122222788791
 10
174.5159904573272
 20
14.42272549049322
 10
174.598994456819
 20
14.23308448529326
 10
174.6726088582798
 20
14.06663106068102
 10
174.7342815895546
 20
13.92917699626105
 10
174.7749458885604
 20
13.84999239430039
 10
174.7922649500513
 20
13.81626739612932
 97
        1
330
B3
 92
       16
 93
        1
 72
     4
 94
        3
 73
     0
 74
     0
 95
       25
 96
       21
 40
0.0
 40
0.0
 40
0.0
 40
0.0
 40
0.091147996906454
 40
0.1858117896204967
 40
0.2804128399735074
 40
0.3715889190714809
 40
0.4679080494218155
 40
0.5642683809229256
 40
0.6605683222644725
 40
0.7569653015809429
 40
0.856134817252188
 40
1.092615965104187
 40
1.374867658141765
 40
1.611348812011448
 40
1.710518328425104
 40
1.809403163726407
 40
2.045205463293927
 40
2.326646917621968
 40
2.562449217190435
 40
2.661334043833739
 40
2.661334043833739
 40
2.661334043833739
 40
2.661334043833739
 10
173.26837005672
 20
14.88614538197302
 10
173.2987525917923
 20
14.88598079714564
 10
173.3606895889113
 20
14.8856452868993
 10
173.4541356960331
 20
14.88269055452001
 10
173.5475095236358
 20
14.87977752877154
 10
173.6417760753477
 20
14.87894201643419
 10
173.7354964790968
 20
14.87996644658047
 10
173.8352040303205
 20
14.87916977470987
 10
173.9188949546313
 20
14.88921410235224
 10
174.0637996315044
 20
14.86234617674177
 10
173.9396132444801
 20
15.03665530280057
 10
173.8965867286282
 20
15.19651711006102
 10
173.780892214221
 20
15.45518458550221
 10
173.7017565431257
 20
15.59231052861868
 10
173.6431576621817
 20
15.80937033134084
 10
173.586480393944
 20
15.59266134213434
 10
173.5052809900478
 20
15.45327012438247
 10
173.4063701281489
 20
15.20406969370201
 10
173.3253625094259
 20
15.01925830226084
 10
173.2813683325839
 20
14.91650446856126
 10
173.26837005672
 20
14.88614538197302
 97
        1
330
B2
 75
     1
 76
     2
 52
45.0
 41
0.1
 77
     0
 78
     1
 53
45.0
 43
0.0
 44
0.0
 45
-0.282842712474619
 46
0.0
 79
     0
 98
        1
 10
0.0
 20
0.0
  0
HATCH
  5
D0
330
48
100
AcDbEntity
  8
1
  6
Continuous
 62
     2
100
AcDbHatch
 10
0.0
 20
0.0
 30
0.0
210
0.0
220
0.0
230
1.0
  2
CUSTOM14
 70
     0
 71
     1
 91
        1
 92
        1
 93
        1
 72
     4
 94
        3
 73
     0
 74
     0
 95
       99
 96
       95
 40
0.0
 40
0.0
 40
0.0
 40
0.0
 40
0.079641717227267
 40
0.1621768542357019
 40
0.24864891609585
 40
0.3404969668525515
 40
0.4381912511165444
 40
0.5434463660245729
 40
0.6518115192847465
 40
0.7530190937886828
 40
0.849219691972503
 40
0.9419290312998302
 40
1.034249663570043
 40
1.129078600620226
 40
1.226697027573221
 40
1.327220425421658
 40
1.470572134938001
 40
1.595489863371222
 40
1.719934125348365
 40
1.850576620127336
 40
1.989059629987283
 40
2.134139054226934
 40
2.280698007207208
 40
2.424529739039447
 40
2.565929576985833
 40
2.708239260773491
 40
2.861717887443661
 40
3.045168540347383
 40
3.183798301138622
 40
3.314813961455414
 40
3.442083470447303
 40
3.569912708373058
 40
3.702177512509432
 40
3.842307559659571
 40
3.992872223245978
 40
4.156750662218285
 40
4.310981861107594
 40
4.445859909322647
 40
4.572393936131576
 40
4.701656719782034
 40
4.768279086008511
 40
4.83596069789847
 40
4.91278891872942
 40
5.006285208481622
 40
5.02690947875167
 40
5.047533749021178
 40
5.101808031471258
 40
5.162325165538559
 40
5.226919745995863
 40
5.29423180659675
 40
5.364544852554921
 40
5.438319055468006
 40
5.517877651324283
 40
5.607647714861651
 40
5.700449642544471
 40
5.788251142364152
 40
5.872714706039774
 40
5.955167292575249
 40
6.037192395190406
 40
6.120669181469141
 40
6.206848616686365
 40
6.296680855416744
 40
6.442558392872597
 40
6.56819037160829
 40
6.692904567360326
 40
6.824220446557073
 40
6.963121850329419
 40
7.107843738851186
 40
7.253431663907285
 40
7.395187468036733
 40
7.533140753237756
 40
7.670550457175175
 40
7.81623651176925
 40
7.987691657359231
 40
8.142277421969217
 40
8.293662615415013
 40
8.442962460879263
 40
8.591598316185264
 40
8.743678992361767
 40
8.903725323699152
 40
9.076307008890439
 40
9.26557860468058
 40
9.459203795360729
 40
9.617619810273457
 40
9.75360967136181
 40
9.874873300003976
 40
9.954520184977683
 40
10.02416413719237
 40
10.09769764405432
 40
10.18909955924957
 40
10.20974586420124
 40
10.23039218263372
 40
10.30057101881255
 40
10.37632012987529
 40
10.37632012987529
 40
10.37632012987529
 40
10.37632012987529
 10
170.1465954835851
 20
14.13795663216001
 10
170.1632217851219
 20
14.11720608845319
 10
170.1970784206577
 20
14.07495111711903
 10
170.2599822541036
 20
14.02029811392076
 10
170.3332500940394
 20
13.97299025121056
 10
170.4175969238637
 20
13.93527231437938
 10
170.513224061546
 20
13.91040619731959
 10
170.6171853775346
 20
13.90309559345948
 10
170.7224020220406
 20
13.9114232279406
 10
170.8206626371333
 20
13.9414917965154
 10
170.9058986427548
 20
13.98848822971884
 10
170.9779220206103
 20
14.04952991250869
 10
171.0350917709096
 20
14.12412969578596
 10
171.076786874744
 20
14.21002464660181
 10
171.1026952846293
 20
14.30485850432217
 10
171.1118037332654
 20
14.41854979038371
 10
171.0986864796487
 20
14.54332587770783
 10
171.0325330334414
 20
14.66014719171895
 10
170.9369370919569
 20
14.74512539577379
 10
170.824968102237
 20
14.81416684459169
 10
170.699365958327
 20
14.87204142045899
 10
170.5656691620856
 20
14.92373723284339
 10
170.431312281883
 20
14.97899092397185
 10
170.3051983986877
 20
15.04939770641663
 10
170.1926579987535
 20
15.13785540731249
 10
170.0969963064459
 20
15.24981067868482
 10
170.0334157151825
 20
15.39949910101387
 10
170.0200706505016
 20
15.55932794385149
 10
170.0320510987448
 20
15.71048405306851
 10
170.0712298928841
 20
15.83809244591544
 10
170.1354987750911
 20
15.95080874030851
 10
170.2238204999741
 20
16.04648609268694
 10
170.3338091207628
 20
16.12354214985757
 10
170.4632284401266
 20
16.18151396936284
 10
170.6111838967793
 20
16.21739177588827
 10
170.7682069455487
 20
16.22746719050577
 10
170.917494046643
 20
16.21863637762598
 10
171.059625361417
 20
16.19074899340356
 10
171.1595922609626
 20
16.13413314701144
 10
171.3125074736186
 20
16.08674602105512
 10
171.2455131717168
 20
16.00197553001192
 10
171.229647912027
 20
15.93438901873488
 10
171.1978750531297
 20
15.86926092793194
 10
171.2150202209571
 20
15.76723453256959
 10
171.1666427208232
 20
15.77493211681905
 10
171.1315789440766
 20
15.76806771724814
 10
171.1296697985719
 20
15.83263831158203
 10
171.0985692931988
 20
15.87825639621393
 10
171.0664551628457
 20
15.93561036628467
 10
171.0208038475167
 20
15.98540462692555
 10
170.9658508218387
 20
16.02994813719006
 10
170.9010841173008
 20
16.06763988836559
 10
170.8232377310596
 20
16.09283375791362
 10
170.7355160553353
 20
16.0993123099812
 10
170.6452903277807
 20
16.09235709285615
 10
170.5594594694064
 20
16.06909190460923
 10
170.4828343638598
 20
16.03131644107553
 10
170.4165265636202
 20
15.98051641089581
 10
170.3622560536965
 20
15.91731143407219
 10
170.3224925345459
 20
15.84276455710371
 10
170.2976775510588
 20
15.75917313997769
 10
170.2892124262871
 20
15.65192948382293
 10
170.3019697987104
 20
15.52965457267567
 10
170.3681548409274
 20
15.41149724291218
 10
170.4640977399832
 20
15.32606325709532
 10
170.5757914963183
 20
15.25583362306727
 10
170.7010863668703
 20
15.1965916230531
 10
170.8349823941448
 20
15.14616708086144
 10
170.9689930333151
 20
15.09322516984389
 10
171.0950885316915
 20
15.02750170625175
 10
171.2076216638418
 20
14.94480352537332
 10
171.3031370284232
 20
14.83996006310077
 10
171.3672706486963
 20
14.69937117251578
 10
171.3811103725279
 20
14.54065409451597
 10
171.367395471223
 20
14.38153155217881
 10
171.3244739153984
 20
14.23483828819216
 10
171.2545906329066
 20
14.10119796587151
 10
171.1574592213829
 20
13.98532387699292
 10
171.0347806023657
 20
13.89089981770095
 10
170.8874408413168
 20
13.82179270652
 10
170.7177132497125
 20
13.77953210858852
 10
170.5317404979597
 20
13.76781736230409
 10
170.3528955926184
 20
13.77809486683436
 10
170.1881733753744
 20
13.81966573769173
 10
170.0834410841057
 20
13.88797642883944
 10
169.9350960790367
 20
13.93675219032111
 10
169.9980378194729
 20
14.02976591290849
 10
170.007227443006
 20
14.10296536248288
 10
170.0303711301232
 20
14.16936294501352
 10
170.0034588335317
 20
14.26974809527584
 10
170.0521338956339
 20
14.2623403351738
 10
170.0916530580697
 20
14.26894063620897
 10
170.0996204944703
 20
14.1907870321894
 10
170.1305436967923
 20
14.15600927375863
 10
170.1465954835851
 20
14.13795663216001
 97
        1
330
B4
 75
     1
 76
     2
 52
45.0
 41
0.1
 77
     0
 78
     1
 53
45.0
 43
0.0
 44
0.0
 45
-0.282842712474619
 46
0.0
 79
     0
 98
        1
 10
0.0
 20
0.0
  0
ENDBLK
  5
4A
330
48
100
AcDbEntity
  8
0
100
AcDbBlockEnd
  0
BLOCK
  5
4D
330
4B
100
AcDbEntity
  8
0
100
AcDbBlockBegin
  2
開示A4枠
 70
     0
 10
0.0
 20
0.00000000000001
 30
0.0
  3
開示A4枠
  1

  0
INSERT
  5
4C
330
4B
100
AcDbEntity
  8
1
100
AcDbBlockReference
  2
開示A4
 10
0.0
 20
0.00000000000001
 30
0.0
  0
ENDBLK
  5
4E
330
4B
100
AcDbEntity
  8
0
100
AcDbBlockEnd
  0
BLOCK
  5
50
330
4F
100
AcDbEntity
  8
0
100
AcDbBlockBegin
  2
95-20-12
 70
     0
 10
151.8715741474205
 20
160.1612469834254
 30
0.0
  3
95-20-12
  1

  0
LINE
  5
D1
330
4F
100
AcDbEntity
  8
1
  6
Continuous
 62
     7
100
AcDbLine
 10
129.7140464667129
 20
169.1499037594281
 30
0.0
 11
129.7140464667129
 21
154.6499037595482
 31
0.0
  0
LINE
  5
D2
330
4F
100
AcDbEntity
  8
1
  6
Continuous
 62
     7
100
AcDbLine
 10
132.114046466713
 20
154.6499037595482
 30
0.0
 11
132.114046466713
 21
169.1499037594281
 31
0.0
  0
ARC
  5
D3
330
4F
100
AcDbEntity
  8
1
  6
Continuous
 62
     7
100
AcDbCircle
 10
100.5633966579329
 20
161.899903759428
 30
0.0
 40
8.500000000000085
100
AcDbArc
 50
90.0
 51
180.0
  0
ARC
  5
D4
330
4F
100
AcDbEntity
  8
1
  6
Continuous
 62
     7
100
AcDbCircle
 10
100.5633966579329
 20
161.899903759428
 30
0.0
 40
8.5000000000001
100
AcDbArc
 50
0.0
 51
90.0
  0
ARC
  5
D5
330
4F
100
AcDbEntity
  8
1
  6
Continuous
 62
     7
100
AcDbCircle
 10
100.5633966579329
 20
161.899903759428
 30
0.0
 40
8.500000000000156
100
AcDbArc
 50
180.0
 51
0.0
  0
ARC
  5
D6
330
4F
100
AcDbEntity
  8
1
  6
Continuous
 62
     7
100
AcDbCircle
 10
130.9140464667129
 20
169.1499037594281
 30
0.0
 40
1.200000000000102
100
AcDbArc
 50
0.0
 51
180.0
  0
ARC
  5
D7
330
4F
100
AcDbEntity
  8
1
  6
Continuous
 62
     7
100
AcDbCircle
 10
130.9140464667129
 20
154.6499037595482
 30
0.0
 40
1.200000000000017
100
AcDbArc
 50
180.0
 51
0.0
  0
CIRCLE
  5
D8
330
4F
100
AcDbEntity
  8
1
  6
Continuous
 62
     7
100
AcDbCircle
 10
100.5633966579329
 20
161.899903759428
 30
0.0
 40
5.900000000000105
  0
ENDBLK
  5
51
330
4F
100
AcDbEntity
  8
0
100
AcDbBlockEnd
  0
BLOCK
  5
F3
330
EA
100
AcDbEntity
  8
0
100
AcDbBlockBegin
  2
*D4
 70
     1
 10
0.0
 20
0.0
 30
0.0
  3
*D4
  1

  0
LINE
  5
EB
330
EA
100
AcDbEntity
  8
1
  6
Continuous
 62
     2
100
AcDbLine
 10
132.114046466713
 20
176.300881621616
 30
0.0
 11
143.8299301700799
 21
176.300881621616
 31
0.0
  0
LINE
  5
EC
330
EA
100
AcDbEntity
  8
1
  6
Continuous
 62
     2
100
AcDbLine
 10
129.7140464667129
 20
176.300881621616
 30
0.0
 11
132.114046466713
 21
176.300881621616
 31
0.0
  0
LINE
  5
ED
330
EA
100
AcDbEntity
  8
1
  6
Continuous
 62
     2
100
AcDbLine
 10
122.7140464667129
 20
176.300881621616
 30
0.0
 11
129.7140464667129
 21
176.300881621616
 31
0.0
  0
LINE
  5
EE
330
EA
100
AcDbEntity
  8
1
  6
Continuous
 62
     2
100
AcDbLine
 10
132.114046466713
 20
169.1499037594281
 30
0.0
 11
132.114046466713
 21
177.300881621616
 31
0.0
  0
LINE
  5
EF
330
EA
100
AcDbEntity
  8
1
  6
Continuous
 62
     2
100
AcDbLine
 10
129.7140464667129
 20
169.1499037594281
 30
0.0
 11
129.7140464667129
 21
177.300881621616
 31
0.0
  0
SOLID
  5
F0
330
EA
100
AcDbEntity
  8
1
 62
     2
100
AcDbTrace
 10
126.2140464667129
 20
175.8400978800601
 30
0.0
 11
126.2140464667129
 21
176.7616653631719
 31
0.0
 12
129.7140464667129
 22
176.300881621616
 32
0.0
 13
129.7140464667129
 23
176.300881621616
 33
0.0
  0
SOLID
  5
F1
330
EA
100
AcDbEntity
  8
1
 62
     2
100
AcDbTrace
 10
135.614046466713
 20
176.7616653631719
 30
0.0
 11
135.614046466713
 21
175.8400978800601
 31
0.0
 12
132.114046466713
 22
176.300881621616
 32
0.0
 13
132.114046466713
 23
176.300881621616
 33
0.0
  0
MTEXT
  5
F2
330
EA
100
AcDbEntity
  8
1
 62
     7
100
AcDbMText
 10
134.4849301700883
 20
177.6508746645397
 30
0.0
 40
3.5
 41
0.0
 71
     7
 72
     1
  1
\C7;{\Fgdt;n}\C7;2,4
  7
CONVERTER_12
 11
0.9999999999970619
 21
2.424068405545306E-6
 31
0.0
 73
     1
 44
0.60024009603842
  0
ENDBLK
  5
F4
330
EA
100
AcDbEntity
  8
0
100
AcDbBlockEnd
  0
BLOCK
  5
FC
330
F7
100
AcDbEntity
  8
0
100
AcDbBlockBegin
  2
*D5
 70
     1
 10
0.0
 20
0.0
 30
0.0
  3
*D5
  1

  0
LINE
  5
F8
330
F7
100
AcDbEntity
  8
1
  6
Continuous
 62
     2
100
AcDbLine
 10
91.97766307660805
 20
154.7859963330896
 30
0.0
 11
117.9235655574043
 21
176.2840717849845
 31
0.0
  0
SOLID
  5
F9
330
F7
100
AcDbEntity
  8
1
 62
     2
100
AcDbTrace
 10
107.5076049793197
 20
168.2520917640187
 30
0.0
 11
108.0955821777036
 21
167.5424654961075
 31
0.0
 12
105.1065202570196
 22
165.6642135186564
 32
0.0
 13
105.1065202570196
 23
165.6642135186564
 33
0.0
  0
SOLID
  5
FA
330
F7
100
AcDbEntity
  8
1
 62
     2
100
AcDbTrace
 10
93.61918833654605
 20
155.5477157548373
 30
0.0
 11
93.03121113816212
 21
156.2573420227485
 31
0.0
 12
96.02027305884617
 22
158.1355940001995
 32
0.0
 13
96.02027305884617
 23
158.1355940001995
 33
0.0
  0
MTEXT
  5
FB
330
F7
100
AcDbEntity
  8
1
 62
     7
100
AcDbMText
 10
109.0578726781732
 20
170.6913966852537
 30
0.0
 40
3.5
 41
0.0
 71
     7
 72
     1
  1
\C7;{\Fgdt;n}\C7;11,8
  7
CONVERTER_12
 11
0.770020948997737
 21
0.6380186032590465
 31
0.0
 73
     1
 44
0.60024009603842
  0
ENDBLK
  5
FD
330
F7
100
AcDbEntity
  8
0
100
AcDbBlockEnd
  0
ENDSEC
  0
SECTION
  2
ENTITIES
  0
INSERT
  5
52
330
1F
100
AcDbEntity
  8
0
100
AcDbBlockReference
  2
開示A4枠
 10
0.0
 20
0.00000000000001
 30
0.0
  0
INSERT
  5
53
330
1F
100
AcDbEntity
  8
1
100
AcDbBlockReference
  2
95-20-12
 10
151.8715741474205
 20
160.1612469834254
 30
0.0
  0
LINE
  5
D9
330
1F
100
AcDbEntity
  8
1
  6
DASH_CENTER
 62
     2
100
AcDbLine
 10
100.563396657933
 20
150.358543995984
 30
0.0
 11
100.563396657933
 21
173.2981649892146
 31
0.0
  0
LINE
  5
DA
330
1F
100
AcDbEntity
  8
1
  6
DASH_CENTER
 62
     2
100
AcDbLine
 10
89.02203689448885
 20
161.899903759428
 30
0.0
 11
112.0220368944889
 21
161.899903759428
 31
0.0
  0
LINE
  5
DB
330
1F
100
AcDbEntity
  8
1
  6
DASH_CENTER
 62
     2
100
AcDbLine
 10
126.6140464667129
 20
161.899903759428
 30
0.0
 11
135.214046466713
 21
161.899903759428
 31
0.0
  0
MTEXT
  5
DD
330
1F
100
AcDbEntity
  8
1
 62
     7
100
AcDbMText
 10
157.5000000000001
 20
12.50000000000001
 30
0.0
 40
2.5
 41
0.0
 71
     5
 72
     1
  1
2
  7
CONVERTER_12
 73
     1
 44
0.7202881152461
  0
MTEXT
  5
DE
330
1F
100
AcDbEntity
  8
1
 62
     7
100
AcDbMText
 10
151.7500000000001
 20
12.50000000000001
 30
0.0
 40
2.5
 41
0.0
 71
     5
 72
     1
  1
04
  7
CONVERTER_12
 73
     1
 44
0.7202881152461
  0
MTEXT
  5
DF
330
1F
100
AcDbEntity
  8
1
 62
     7
100
AcDbMText
 10
140.5000000000001
 20
12.50000000000001
 30
0.0
 40
2.5
 41
0.0
 71
     5
 72
     1
  1
2
  7
CONVERTER_12
 73
     1
 44
0.7202881152461
  0
MTEXT
  5
E0
330
1F
100
AcDbEntity
  8
1
 62
     7
100
AcDbMText
 10
134.7500000000001
 20
12.50000000000001
 30
0.0
 40
2.5
 41
0.0
 71
     5
 72
     1
  1
04
  7
CONVERTER_12
 73
     1
 44
0.7202881152461
  0
MTEXT
  5
E1
330
1F
100
AcDbEntity
  8
1
 62
     7
100
AcDbMText
 10
123.5000000000001
 20
12.50000000000001
 30
0.0
 40
2.5
 41
0.0
 71
     5
 72
     1
  1
2
  7
CONVERTER_12
 73
     1
 44
0.7202881152461
  0
MTEXT
  5
E2
330
1F
100
AcDbEntity
  8
1
 62
     7
100
AcDbMText
 10
117.7500000000001
 20
12.50000000000001
 30
0.0
 40
2.5
 41
0.0
 71
     5
 72
     1
  1
04
  7
CONVERTER_12
 73
     1
 44
0.7202881152461
  0
MTEXT
  5
E3
330
1F
100
AcDbEntity
  8
1
 62
     7
100
AcDbMText
 10
100.7500000000001
 20
12.50000000000001
 30
0.0
 40
2.5
 41
0.0
 71
     5
 72
     1
  1
04
  7
CONVERTER_12
 73
     1
 44
0.7202881152461
  0
MTEXT
  5
E4
330
1F
100
AcDbEntity
  8
1
 62
     7
100
AcDbMText
 10
106.5000000000001
 20
12.50000000000001
 30
0.0
 40
2.5
 41
0.0
 71
     5
 72
     1
  1
2
  7
CONVERTER_12
 73
     1
 44
0.7202881152461
  0
MTEXT
  5
E5
330
1F
100
AcDbEntity
  8
1
 62
     7
100
AcDbMText
 10
34.0
 20
34.00000000000003
 30
0.0
 40
3.5
 41
0.0
 71
     4
 72
     1
  1
3個入
  7
CONVERTER_11
 73
     1
 44
0.54545454545455
  0
MTEXT
  5
E6
330
1F
100
AcDbEntity
  8
1
 62
     7
100
AcDbMText
 10
85.25000000000006
 20
17.00000000000003
 30
0.0
 40
3.5
 41
0.0
 71
     5
 72
     1
  1
1
  7
CONVERTER_12
 73
     1
 44
0.7202881152461
  0
MTEXT
  5
E7
330
1F
100
AcDbEntity
  8
1
 62
     7
100
AcDbMText
 10
57.00000000000006
 20
22.75000000000003
 30
0.0
 40
3.5
 41
0.0
 71
     5
 72
     1
  1
オーリング
  7
CONVERTER_11
 73
     1
 44
0.54545454545455
  0
MTEXT
  5
E8
330
1F
100
AcDbEntity
  8
1
 62
     7
100
AcDbMText
 10
57.00000000000006
 20
14.25000000000001
 30
0.0
 40
3.5
 41
0.0
 71
     5
 72
     1
  1
P50-71S
  7
CONVERTER_12
 73
     1
 44
0.7202881152461
  0
MTEXT
  5
E9
330
1F
100
AcDbEntity
  8
1
 62
     7
100
AcDbMText
 10
93.75000000000006
 20
17.00000000000003
 30
0.0
 40
3.5
 41
0.0
 71
     5
 72
     1
  1
1
  7
CONVERTER_12
 73
     1
 44
0.7202881152461
  0
DIMENSION
  5
F6
330
1F
100
AcDbEntity
  8
1
100
AcDbDimension
  2
*D4
 10
129.7140464667129
 20
176.300881621616
 30
0.0
 11
138.4924301700799
 21
179.225881621616
 31
0.0
 70
    33
  1
<>
 71
     5
 42
-1.0
 53
0.00013888888889
  3
ME10_DIM_10
100
AcDbAlignedDimension
 13
132.114046466713
 23
169.1499037594281
 33
0.0
 14
129.7140464667129
 24
169.1499037594281
 34
0.0
  0
INSERT
  5
FE
330
1F
100
AcDbEntity
  8
1
100
AcDbBlockReference
  2
*D5
 10
0.0
 20
0.0
 30
0.0
  0
ENDSEC
  0
SECTION
  2
OBJECTS
  0
DICTIONARY
  5
C
330
0
100
AcDbDictionary
281
     1
  3
ACAD_GROUP
350
D
  3
ACAD_LAYOUT
350
1A
  3
ACAD_MATERIAL
350
3B
  3
ACAD_MLEADERSTYLE
350
101
  3
ACAD_MLINESTYLE
350
17
  3
ACAD_PLOTSETTINGS
350
19
  3
ACAD_PLOTSTYLENAME
350
E
  3
ACAD_VISUALSTYLE
350
2A
  3
AcDbVariableDictionary
350
FF
  0
DICTIONARY
  5
D
102
{ACAD_REACTORS
330
C
102
}
330
C
100
AcDbDictionary
281
     1
  0
DICTIONARY
  5
1A
102
{ACAD_REACTORS
330
C
102
}
330
C
100
AcDbDictionary
281
     1
  3
Layout1
350
1E
  3
Layout2
350
26
  3
Model
350
22
  0
DICTIONARY
  5
3B
102
{ACAD_REACTORS
330
C
102
}
330
C
100
AcDbDictionary
281
     1
  3
ByBlock
350
3D
  3
ByLayer
350
3C
  3
Global
350
3E
  0
DICTIONARY
  5
101
102
{ACAD_REACTORS
330
C
102
}
330
C
100
AcDbDictionary
281
     1
  0
DICTIONARY
  5
17
102
{ACAD_REACTORS
330
C
102
}
330
C
100
AcDbDictionary
281
     1
  3
Standard
350
18
  0
DICTIONARY
  5
19
102
{ACAD_REACTORS
330
C
102
}
330
C
100
AcDbDictionary
281
     1
  0
ACDBDICTIONARYWDFLT
  5
E
102
{ACAD_REACTORS
330
C
102
}
330
C
100
AcDbDictionary
281
     1
  3
Normal
350
F
100
AcDbDictionaryWithDefault
340
F
  0
DICTIONARY
  5
2A
102
{ACAD_REACTORS
330
C
102
}
330
C
100
AcDbDictionary
281
     1
  3
2dWireframe
350
2F
  3
3D Hidden
350
31
  3
3dWireframe
350
30
  3
Basic
350
32
  3
Brighten
350
36
  3
ColorChange
350
3A
  3
Conceptual
350
34
  3
Dim
350
35
  3
Facepattern
350
39
  3
Flat
350
2B
  3
FlatWithEdges
350
2C
  3
Gouraud
350
2D
  3
GouraudWithEdges
350
2E
  3
Linepattern
350
38
  3
Realistic
350
33
  3
Thicken
350
37
  0
DICTIONARY
  5
FF
102
{ACAD_REACTORS
330
C
102
}
330
C
100
AcDbDictionary
281
     1
  3
DIMASSOC
350
102
  3
HIDETEXT
350
103
  0
LAYOUT
  5
1E
102
{ACAD_REACTORS
330
1A
102
}
330
1A
100
AcDbPlotSettings
  1

  2
none_device
  4

  6

 40
0.0
 41
0.0
 42
0.0
 43
0.0
 44
0.0
 45
0.0
 46
0.0
 47
0.0
 48
0.0
 49
0.0
140
0.0
141
0.0
142
1.0
143
1.0
 70
   688
 72
     0
 73
     0
 74
     5
  7

 75
    16
147
1.0
148
0.0
149
0.0
100
AcDbLayout
  1
Layout1
 70
     1
 71
     1
 10
0.0
 20
0.0
 11
12.0
 21
9.0
 12
0.0
 22
0.0
 32
0.0
 14
1.00000000000000E+20
 24
1.00000000000000E+20
 34
1.00000000000000E+20
 15
-1.00000000000000E+20
 25
-1.00000000000000E+20
 35
-1.00000000000000E+20
146
0.0
 13
0.0
 23
0.0
 33
0.0
 16
1.0
 26
0.0
 36
0.0
 17
0.0
 27
1.0
 37
0.0
 76
     0
330
1B
  0
LAYOUT
  5
26
102
{ACAD_REACTORS
330
1A
102
}
330
1A
100
AcDbPlotSettings
  1

  2
none_device
  4

  6

 40
0.0
 41
0.0
 42
0.0
 43
0.0
 44
0.0
 45
0.0
 46
0.0
 47
0.0
 48
0.0
 49
0.0
140
0.0
141
0.0
142
1.0
143
1.0
 70
   688
 72
     0
 73
     0
 74
     5
  7

 75
    16
147
1.0
148
0.0
149
0.0
100
AcDbLayout
  1
Layout2
 70
     1
 71
     2
 10
0.0
 20
0.0
 11
0.0
 21
0.0
 12
0.0
 22
0.0
 32
0.0
 14
0.0
 24
0.0
 34
0.0
 15
0.0
 25
0.0
 35
0.0
146
0.0
 13
0.0
 23
0.0
 33
0.0
 16
1.0
 26
0.0
 36
0.0
 17
0.0
 27
1.0
 37
0.0
 76
     0
330
23
  0
LAYOUT
  5
22
102
{ACAD_REACTORS
330
1A
102
}
330
1A
100
AcDbPlotSettings
  1

  2
none_device
  4

  6

 40
0.0
 41
0.0
 42
0.0
 43
0.0
 44
0.0
 45
0.0
 46
0.0
 47
0.0
 48
0.0
 49
0.0
140
0.0
141
0.0
142
1.0
143
1.0
 70
  1712
 72
     0
 73
     0
 74
     0
  7

 75
     0
147
1.0
148
0.0
149
0.0
100
AcDbLayout
  1
Model
 70
     1
 71
     0
 10
0.0
 20
0.0
 11
12.0
 21
9.0
 12
0.0
 22
0.0
 32
0.0
 14
0.0
 24
0.00000000000001
 34
0.0
 15
210.0000000000001
 25
297.0
 35
0.0
146
0.0
 13
0.0
 23
0.0
 33
0.0
 16
1.0
 26
0.0
 36
0.0
 17
0.0
 27
1.0
 37
0.0
 76
     0
330
1F
331
29
  0
MATERIAL
  5
3D
102
{ACAD_REACTORS
330
3B
102
}
102
{ACAD_XDICTIONARY
360
126
102
}
330
3B
100
AcDbMaterial
  1
ByBlock
  0
MATERIAL
  5
3C
102
{ACAD_REACTORS
330
3B
102
}
102
{ACAD_XDICTIONARY
360
124
102
}
330
3B
100
AcDbMaterial
  1
ByLayer
  0
MATERIAL
  5
3E
102
{ACAD_REACTORS
330
3B
102
}
102
{ACAD_XDICTIONARY
360
128
102
}
330
3B
100
AcDbMaterial
  1
Global
  0
MLINESTYLE
  5
18
102
{ACAD_REACTORS
330
17
102
}
330
17
100
AcDbMlineStyle
  2
Standard
 70
     0
  3

 62
   256
 51
90.0
 52
90.0
 71
     2
 49
0.5
 62
   256
  6
BYLAYER
 49
-0.5
 62
   256
  6
BYLAYER
  0
ACDBPLACEHOLDER
  5
F
102
{ACAD_REACTORS
330
E
102
}
330
E
  0
VISUALSTYLE
  5
2F
102
{ACAD_REACTORS
330
2A
102
}
102
{ACAD_XDICTIONARY
360
10C
102
}
330
2A
100
AcDbVisualStyle
  2
2dWireframe
 70
     4
 71
     0
 72
     2
 73
     0
 90
        0
 40
-0.6
 41
-30.0
 62
     5
 63
     7
 74
     1
 91
        4
 64
     7
 65
   257
 75
     1
175
     1
 42
1.0
 92
        0
 66
   257
 43
1.0
 76
     1
 77
     6
 78
     2
 67
     7
 79
     5
170
     0
171
     0
290
     0
174
     0
 93
        1
 44
0.0
173
     0
291
     0
 45
0.0
1001
ACAD
1000
AcDbSavedByObjectVersion
1070
     0
  0
VISUALSTYLE
  5
31
102
{ACAD_REACTORS
330
2A
102
}
102
{ACAD_XDICTIONARY
360
110
102
}
330
2A
100
AcDbVisualStyle
  2
3D Hidden
 70
     6
 71
     1
 72
     2
 73
     2
 90
        0
 40
-0.6
 41
-30.0
 62
     5
 63
     7
 74
     2
 91
        2
 64
     7
 65
   257
 75
     2
175
     1
 42
40.0
 92
        0
 66
   257
 43
1.0
 76
     1
 77
     6
 78
     2
 67
     7
 79
     3
170
     0
171
     0
290
     0
174
     0
 93
        1
 44
0.0
173
     0
291
     0
 45
0.0
1001
ACAD
1000
AcDbSavedByObjectVersion
1070
     0
  0
VISUALSTYLE
  5
30
102
{ACAD_REACTORS
330
2A
102
}
102
{ACAD_XDICTIONARY
360
10E
102
}
330
2A
100
AcDbVisualStyle
  2
3dWireframe
 70
     5
 71
     0
 72
     2
 73
     0
 90
        0
 40
-0.6
 41
-30.0
 62
     5
 63
     7
 74
     1
 91
        4
 64
     7
 65
   257
 75
     1
175
     1
 42
1.0
 92
        0
 66
   257
 43
1.0
 76
     1
 77
     6
 78
     2
 67
     7
 79
     5
170
     0
171
     0
290
     0
174
     0
 93
        1
 44
0.0
173
     0
291
     0
 45
0.0
1001
ACAD
1000
AcDbSavedByObjectVersion
1070
     0
  0
VISUALSTYLE
  5
32
102
{ACAD_REACTORS
330
2A
102
}
102
{ACAD_XDICTIONARY
360
112
102
}
330
2A
100
AcDbVisualStyle
  2
Basic
 70
     7
 71
     1
 72
     0
 73
     1
 90
        0
 40
-0.6
 41
-30.0
 62
     5
 63
     7
 74
     0
 91
        4
 64
     7
 65
   257
 75
     1
175
     1
 42
1.0
 92
        8
 66
     7
 43
1.0
 76
     1
 77
     6
 78
     2
 67
     7
 79
     5
170
     0
171
     0
290
     0
174
     0
 93
        1
 44
0.0
173
     0
291
     1
 45
0.0
1001
ACAD
1000
AcDbSavedByObjectVersion
1070
     0
  0
VISUALSTYLE
  5
36
102
{ACAD_REACTORS
330
2A
102
}
102
{ACAD_XDICTIONARY
360
11A
102
}
330
2A
100
AcDbVisualStyle
  2
Brighten
 70
    12
 71
     2
 72
     2
 73
     0
 90
        0
 40
-0.6
 41
-30.0
 62
     5
 63
     7
 74
     1
 91
        4
 64
     7
 65
   257
 75
     1
175
     1
 42
1.0
 92
        8
 66
     7
 43
1.0
 76
     1
 77
     6
 78
     2
 67
     7
 79
     5
170
     0
171
     0
290
     0
174
     0
 93
        1
 44
50.0
173
     0
291
     1
 45
0.0
1001
ACAD
1000
AcDbSavedByObjectVersion
1070
     0
  0
VISUALSTYLE
  5
3A
102
{ACAD_REACTORS
330
2A
102
}
102
{ACAD_XDICTIONARY
360
122
102
}
330
2A
100
AcDbVisualStyle
  2
ColorChange
 70
    16
 71
     2
 72
     2
 73
     3
 90
        0
 40
-0.6
 41
-30.0
 62
     5
 63
     8
 74
     1
 91
        4
 64
     7
 65
   257
 75
     1
175
     1
 42
1.0
 92
        8
 66
     8
 43
1.0
 76
     1
 77
     6
 78
     2
 67
     7
 79
     5
170
     0
171
     0
290
     0
174
     0
 93
        1
 44
0.0
173
     0
291
     1
 45
0.0
1001
ACAD
1000
AcDbSavedByObjectVersion
1070
     0
  0
VISUALSTYLE
  5
34
102
{ACAD_REACTORS
330
2A
102
}
102
{ACAD_XDICTIONARY
360
116
102
}
330
2A
100
AcDbVisualStyle
  2
Conceptual
 70
     9
 71
     3
 72
     2
 73
     0
 90
        0
 40
-0.6
 41
-30.0
 62
     5
 63
     7
 74
     2
 91
        2
 64
     7
 65
   257
 75
     1
175
     1
 42
40.0
 92
        8
 66
     7
 43
1.0
 76
     1
 77
     6
 78
     2
 67
     7
 79
     3
170
     0
171
     0
290
     0
174
     0
 93
        1
 44
0.0
173
     0
291
     0
 45
0.0
1001
ACAD
1000
AcDbSavedByObjectVersion
1070
     0
  0
VISUALSTYLE
  5
35
102
{ACAD_REACTORS
330
2A
102
}
102
{ACAD_XDICTIONARY
360
118
102
}
330
2A
100
AcDbVisualStyle
  2
Dim
 70
    11
 71
     2
 72
     2
 73
     0
 90
        0
 40
-0.6
 41
-30.0
 62
     5
 63
     7
 74
     1
 91
        4
 64
     7
 65
   257
 75
     1
175
     1
 42
1.0
 92
        8
 66
     7
 43
1.0
 76
     1
 77
     6
 78
     2
 67
     7
 79
     5
170
     0
171
     0
290
     0
174
     0
 93
        1
 44
-50.0
173
     0
291
     1
 45
0.0
1001
ACAD
1000
AcDbSavedByObjectVersion
1070
     0
  0
VISUALSTYLE
  5
39
102
{ACAD_REACTORS
330
2A
102
}
102
{ACAD_XDICTIONARY
360
120
102
}
330
2A
100
AcDbVisualStyle
  2
Facepattern
 70
    15
 71
     2
 72
     2
 73
     0
 90
        0
 40
-0.6
 41
-30.0
 62
     5
 63
     7
 74
     1
 91
        4
 64
     7
 65
   257
 75
     1
175
     1
 42
1.0
 92
        8
 66
     7
 43
1.0
 76
     1
 77
     6
 78
     2
 67
     7
 79
     5
170
     0
171
     0
290
     0
174
     0
 93
        1
 44
0.0
173
     0
291
     1
 45
0.0
1001
ACAD
1000
AcDbSavedByObjectVersion
1070
     0
  0
VISUALSTYLE
  5
2B
102
{ACAD_REACTORS
330
2A
102
}
102
{ACAD_XDICTIONARY
360
104
102
}
330
2A
100
AcDbVisualStyle
  2
Flat
 70
     0
 71
     2
 72
     1
 73
     1
 90
        2
 40
-0.6
 41
30.0
 62
     5
 63
     7
 74
     0
 91
        4
 64
     7
 65
   257
 75
     1
175
     1
 42
1.0
 92
        8
 66
     7
 43
1.0
 76
     1
 77
     6
 78
     2
 67
     7
 79
     5
170
     0
171
     0
290
     0
174
     0
 93
       13
 44
0.0
173
     0
291
     1
 45
0.0
1001
ACAD
1000
AcDbSavedByObjectVersion
1070
     0
  0
VISUALSTYLE
  5
2C
102
{ACAD_REACTORS
330
2A
102
}
102
{ACAD_XDICTIONARY
360
106
102
}
330
2A
100
AcDbVisualStyle
  2
FlatWithEdges
 70
     1
 71
     2
 72
     1
 73
     1
 90
        2
 40
-0.6
 41
30.0
 62
     5
 63
     7
 74
     1
 91
        4
 64
     7
 65
   257
 75
     1
175
     1
 42
1.0
 92
        0
 66
   257
 43
1.0
 76
     1
 77
     6
 78
     2
 67
     7
 79
     5
170
     0
171
     0
290
     0
174
     0
 93
       13
 44
0.0
173
     0
291
     1
 45
0.0
1001
ACAD
1000
AcDbSavedByObjectVersion
1070
     0
  0
VISUALSTYLE
  5
2D
102
{ACAD_REACTORS
330
2A
102
}
102
{ACAD_XDICTIONARY
360
108
102
}
330
2A
100
AcDbVisualStyle
  2
Gouraud
 70
     2
 71
     2
 72
     2
 73
     1
 90
        2
 40
-0.6
 41
30.0
 62
     5
 63
     7
 74
     0
 91
        4
 64
     7
 65
   257
 75
     1
175
     1
 42
1.0
 92
        0
 66
     7
 43
1.0
 76
     1
 77
     6
 78
     2
 67
     7
 79
     5
170
     0
171
     0
290
     0
174
     0
 93
       13
 44
0.0
173
     0
291
     1
 45
0.0
1001
ACAD
1000
AcDbSavedByObjectVersion
1070
     0
  0
VISUALSTYLE
  5
2E
102
{ACAD_REACTORS
330
2A
102
}
102
{ACAD_XDICTIONARY
360
10A
102
}
330
2A
100
AcDbVisualStyle
  2
GouraudWithEdges
 70
     3
 71
     2
 72
     2
 73
     1
 90
        2
 40
-0.6
 41
30.0
 62
     5
 63
     7
 74
     1
 91
        4
 64
     7
 65
   257
 75
     1
175
     1
 42
1.0
 92
        0
 66
   257
 43
1.0
 76
     1
 77
     6
 78
     2
 67
     7
 79
     5
170
     0
171
     0
290
     0
174
     0
 93
       13
 44
0.0
173
     0
291
     1
 45
0.0
1001
ACAD
1000
AcDbSavedByObjectVersion
1070
     0
  0
VISUALSTYLE
  5
38
102
{ACAD_REACTORS
330
2A
102
}
102
{ACAD_XDICTIONARY
360
11E
102
}
330
2A
100
AcDbVisualStyle
  2
Linepattern
 70
    14
 71
     2
 72
     2
 73
     0
 90
        0
 40
-0.6
 41
-30.0
 62
     5
 63
     7
 74
     1
 91
        4
 64
     7
 65
   257
 75
     7
175
     7
 42
1.0
 92
        8
 66
     7
 43
1.0
 76
     1
 77
     6
 78
     2
 67
     7
 79
     5
170
     0
171
     0
290
     0
174
     0
 93
        1
 44
0.0
173
     0
291
     1
 45
0.0
1001
ACAD
1000
AcDbSavedByObjectVersion
1070
     0
  0
VISUALSTYLE
  5
33
102
{ACAD_REACTORS
330
2A
102
}
102
{ACAD_XDICTIONARY
360
114
102
}
330
2A
100
AcDbVisualStyle
  2
Realistic
 70
     8
 71
     2
 72
     2
 73
     0
 90
        0
 40
-0.6
 41
-30.0
 62
     5
 63
     7
 74
     1
 91
        0
 64
     7
 65
   257
 75
     1
175
     1
 42
1.0
 92
        8
 66
     8
 43
1.0
 76
     1
 77
     6
 78
     2
 67
     7
 79
     5
170
     0
171
     0
290
     0
174
     0
 93
       13
 44
0.0
173
     0
291
     0
 45
0.0
1001
ACAD
1000
AcDbSavedByObjectVersion
1070
     0
  0
VISUALSTYLE
  5
37
102
{ACAD_REACTORS
330
2A
102
}
102
{ACAD_XDICTIONARY
360
11C
102
}
330
2A
100
AcDbVisualStyle
  2
Thicken
 70
    13
 71
     2
 72
     2
 73
     0
 90
        0
 40
-0.6
 41
-30.0
 62
     5
 63
     7
 74
     1
 91
        4
 64
     7
 65
   257
 75
     1
175
     1
 42
1.0
 92
       12
 66
     7
 43
1.0
 76
     1
 77
     6
 78
     2
 67
     7
 79
     5
170
     0
171
     0
290
     0
174
     0
 93
        1
 44
0.0
173
     0
291
     1
 45
0.0
1001
ACAD
1000
AcDbSavedByObjectVersion
1070
     0
  0
DICTIONARYVAR
  5
102
102
{ACAD_REACTORS
330
FF
102
}
330
FF
100
DictionaryVariables
280
     0
  1
2
  0
DICTIONARYVAR
  5
103
102
{ACAD_REACTORS
330
FF
102
}
330
FF
100
DictionaryVariables
280
     0
  1
1
  0
DICTIONARY
  5
126
330
3D
100
AcDbDictionary
280
     1
281
     1
  3
ACAD_XREC_ROUNDTRIP
360
127
  0
DICTIONARY
  5
124
330
3C
100
AcDbDictionary
280
     1
281
     1
  3
ACAD_XREC_ROUNDTRIP
360
125
  0
DICTIONARY
  5
128
330
3E
100
AcDbDictionary
280
     1
281
     1
  3
ACAD_XREC_ROUNDTRIP
360
129
  0
DICTIONARY
  5
10C
330
2F
100
AcDbDictionary
280
     1
281
     1
  3
ACAD_XREC_ROUNDTRIP
360
10D
  0
DICTIONARY
  5
110
330
31
100
AcDbDictionary
280
     1
281
     1
  3
ACAD_XREC_ROUNDTRIP
360
111
  0
DICTIONARY
  5
10E
330
30
100
AcDbDictionary
280
     1
281
     1
  3
ACAD_XREC_ROUNDTRIP
360
10F
  0
DICTIONARY
  5
112
330
32
100
AcDbDictionary
280
     1
281
     1
  3
ACAD_XREC_ROUNDTRIP
360
113
  0
DICTIONARY
  5
11A
330
36
100
AcDbDictionary
280
     1
281
     1
  3
ACAD_XREC_ROUNDTRIP
360
11B
  0
DICTIONARY
  5
122
330
3A
100
AcDbDictionary
280
     1
281
     1
  3
ACAD_XREC_ROUNDTRIP
360
123
  0
DICTIONARY
  5
116
330
34
100
AcDbDictionary
280
     1
281
     1
  3
ACAD_XREC_ROUNDTRIP
360
117
  0
DICTIONARY
  5
118
330
35
100
AcDbDictionary
280
     1
281
     1
  3
ACAD_XREC_ROUNDTRIP
360
119
  0
DICTIONARY
  5
120
330
39
100
AcDbDictionary
280
     1
281
     1
  3
ACAD_XREC_ROUNDTRIP
360
121
  0
DICTIONARY
  5
104
330
2B
100
AcDbDictionary
280
     1
281
     1
  3
ACAD_XREC_ROUNDTRIP
360
105
  0
DICTIONARY
  5
106
330
2C
100
AcDbDictionary
280
     1
281
     1
  3
ACAD_XREC_ROUNDTRIP
360
107
  0
DICTIONARY
  5
108
330
2D
100
AcDbDictionary
280
     1
281
     1
  3
ACAD_XREC_ROUNDTRIP
360
109
  0
DICTIONARY
  5
10A
330
2E
100
AcDbDictionary
280
     1
281
     1
  3
ACAD_XREC_ROUNDTRIP
360
10B
  0
DICTIONARY
  5
11E
330
38
100
AcDbDictionary
280
     1
281
     1
  3
ACAD_XREC_ROUNDTRIP
360
11F
  0
DICTIONARY
  5
114
330
33
100
AcDbDictionary
280
     1
281
     1
  3
ACAD_XREC_ROUNDTRIP
360
115
  0
DICTIONARY
  5
11C
330
37
100
AcDbDictionary
280
     1
281
     1
  3
ACAD_XREC_ROUNDTRIP
360
11D
  0
XRECORD
  5
127
102
{ACAD_REACTORS
330
126
102
}
330
126
100
AcDbXrecord
280
     1
102
MATERIAL
148
0.0
149
0.0
149
0.0
 93
        0
 94
      127
282
     0
 72
     1
 77
     1
171
     1
175
     1
179
     1
273
     0
  0
XRECORD
  5
125
102
{ACAD_REACTORS
330
124
102
}
330
124
100
AcDbXrecord
280
     1
102
MATERIAL
148
0.0
149
0.0
149
0.0
 93
        0
 94
      127
282
     0
 72
     1
 77
     1
171
     1
175
     1
179
     1
273
     0
  0
XRECORD
  5
129
102
{ACAD_REACTORS
330
128
102
}
330
128
100
AcDbXrecord
280
     1
102
MATERIAL
148
0.0
149
0.0
149
0.0
 93
        0
 94
      127
282
     0
 72
     1
 77
     1
171
     1
175
     1
179
     1
273
     0
  0
XRECORD
  5
10D
102
{ACAD_REACTORS
330
10C
102
}
330
10C
100
AcDbXrecord
280
     1
102
RTVSPropertyOp0
 70
     1
102
RTVSPropertyOp1
 70
     1
102
RTVSPropertyOp2
 70
     1
102
RTVSPropertyOp3
 70
     1
102
RTVSPropertyOp4
 70
     1
102
RTVSPropertyOp5
 70
     1
102
RTVSPropertyOp6
 70
     1
102
RTVSPropertyOp7
 70
     1
102
RTVSPropertyOp8
 70
     1
102
RTVSPropertyOp9
 70
     1
102
RTVSPropertyOp10
 70
     1
102
RTVSPropertyOp11
 70
     1
102
RTVSPropertyOp12
 70
     1
102
RTVSPropertyOp13
 70
     1
102
RTVSPropertyOp14
 70
     1
102
RTVSPropertyOp15
 70
     1
102
RTVSPropertyOp16
 70
     1
102
RTVSPropertyOp17
 70
     1
102
RTVSPropertyOp18
 70
     1
102
RTVSPropertyOp19
 70
     1
102
RTVSPropertyOp20
 70
     1
102
RTVSPropertyOp21
 70
     1
102
RTVSPropertyOp22
 70
     1
102
RTVSPropertyOp23
 70
     1
102
RTVSPropertyOp24
 70
     1
102
RTVSPropertyOp25
 70
     1
102
RTVSPropertyOp26
 70
     1
102
RTVSPropertyOp27
 70
     1
102
RTVSPropertyOp28
 70
     1
102
RTVSPropertyOp29
 70
     1
102
RTVSPropertyOp30
 70
     1
102
RTVSPropertyOp31
 70
     1
102
RTVSPropertyOp32
 70
     1
  0
XRECORD
  5
111
102
{ACAD_REACTORS
330
110
102
}
330
110
100
AcDbXrecord
280
     1
102
RTVSPropertyOp0
 70
     1
102
RTVSPropertyOp1
 70
     1
102
RTVSPropertyOp2
 70
     1
102
RTVSPropertyOp3
 70
     1
102
RTVSPropertyOp4
 70
     1
102
RTVSPropertyOp5
 70
     1
102
RTVSPropertyOp6
 70
     1
102
RTVSPropertyOp7
 70
     1
102
RTVSPropertyOp8
 70
     1
102
RTVSPropertyOp9
 70
     1
102
RTVSPropertyOp10
 70
     1
102
RTVSPropertyOp11
 70
     1
102
RTVSPropertyOp12
 70
     1
102
RTVSPropertyOp13
 70
     1
102
RTVSPropertyOp14
 70
     1
102
RTVSPropertyOp15
 70
     1
102
RTVSPropertyOp16
 70
     1
102
RTVSPropertyOp17
 70
     1
102
RTVSPropertyOp18
 70
     1
102
RTVSPropertyOp19
 70
     1
102
RTVSPropertyOp20
 70
     1
102
RTVSPropertyOp21
 70
     1
102
RTVSPropertyOp22
 70
     1
102
RTVSPropertyOp23
 70
     1
102
RTVSPropertyOp24
 70
     1
102
RTVSPropertyOp25
 70
     1
102
RTVSPropertyOp26
 70
     1
102
RTVSPropertyOp27
 70
     1
102
RTVSPropertyOp28
 70
     1
102
RTVSPropertyOp29
 70
     1
102
RTVSPropertyOp30
 70
     1
102
RTVSPropertyOp31
 70
     1
102
RTVSPropertyOp32
 70
     1
  0
XRECORD
  5
10F
102
{ACAD_REACTORS
330
10E
102
}
330
10E
100
AcDbXrecord
280
     1
102
RTVSPropertyOp0
 70
     1
102
RTVSPropertyOp1
 70
     1
102
RTVSPropertyOp2
 70
     1
102
RTVSPropertyOp3
 70
     1
102
RTVSPropertyOp4
 70
     1
102
RTVSPropertyOp5
 70
     1
102
RTVSPropertyOp6
 70
     1
102
RTVSPropertyOp7
 70
     1
102
RTVSPropertyOp8
 70
     1
102
RTVSPropertyOp9
 70
     1
102
RTVSPropertyOp10
 70
     1
102
RTVSPropertyOp11
 70
     1
102
RTVSPropertyOp12
 70
     1
102
RTVSPropertyOp13
 70
     1
102
RTVSPropertyOp14
 70
     1
102
RTVSPropertyOp15
 70
     1
102
RTVSPropertyOp16
 70
     1
102
RTVSPropertyOp17
 70
     1
102
RTVSPropertyOp18
 70
     1
102
RTVSPropertyOp19
 70
     1
102
RTVSPropertyOp20
 70
     1
102
RTVSPropertyOp21
 70
     1
102
RTVSPropertyOp22
 70
     1
102
RTVSPropertyOp23
 70
     1
102
RTVSPropertyOp24
 70
     1
102
RTVSPropertyOp25
 70
     1
102
RTVSPropertyOp26
 70
     1
102
RTVSPropertyOp27
 70
     1
102
RTVSPropertyOp28
 70
     1
102
RTVSPropertyOp29
 70
     1
102
RTVSPropertyOp30
 70
     1
102
RTVSPropertyOp31
 70
     1
102
RTVSPropertyOp32
 70
     1
  0
XRECORD
  5
113
102
{ACAD_REACTORS
330
112
102
}
330
112
100
AcDbXrecord
280
     1
102
RTVSPropertyOp0
 70
     1
102
RTVSPropertyOp1
 70
     1
102
RTVSPropertyOp2
 70
     1
102
RTVSPropertyOp3
 70
     1
102
RTVSPropertyOp4
 70
     1
102
RTVSPropertyOp5
 70
     1
102
RTVSPropertyOp6
 70
     1
102
RTVSPropertyOp7
 70
     1
102
RTVSPropertyOp8
 70
     1
102
RTVSPropertyOp9
 70
     1
102
RTVSPropertyOp10
 70
     1
102
RTVSPropertyOp11
 70
     1
102
RTVSPropertyOp12
 70
     1
102
RTVSPropertyOp13
 70
     1
102
RTVSPropertyOp14
 70
     1
102
RTVSPropertyOp15
 70
     1
102
RTVSPropertyOp16
 70
     1
102
RTVSPropertyOp17
 70
     1
102
RTVSPropertyOp18
 70
     1
102
RTVSPropertyOp19
 70
     1
102
RTVSPropertyOp20
 70
     1
102
RTVSPropertyOp21
 70
     1
102
RTVSPropertyOp22
 70
     1
102
RTVSPropertyOp23
 70
     1
102
RTVSPropertyOp24
 70
     1
102
RTVSPropertyOp25
 70
     1
102
RTVSPropertyOp26
 70
     1
102
RTVSPropertyOp27
 70
     1
102
RTVSPropertyOp28
 70
     1
102
RTVSPropertyOp29
 70
     1
102
RTVSPropertyOp30
 70
     1
102
RTVSPropertyOp31
 70
     1
102
RTVSPropertyOp32
 70
     1
  0
XRECORD
  5
11B
102
{ACAD_REACTORS
330
11A
102
}
330
11A
100
AcDbXrecord
280
     1
102
RTVSPropertyOp0
 70
     1
102
RTVSPropertyOp1
 70
     1
102
RTVSPropertyOp2
 70
     1
102
RTVSPropertyOp3
 70
     1
102
RTVSPropertyOp4
 70
     1
102
RTVSPropertyOp5
 70
     1
102
RTVSPropertyOp6
 70
     1
102
RTVSPropertyOp7
 70
     1
102
RTVSPropertyOp8
 70
     1
102
RTVSPropertyOp9
 70
     1
102
RTVSPropertyOp10
 70
     1
102
RTVSPropertyOp11
 70
     1
102
RTVSPropertyOp12
 70
     1
102
RTVSPropertyOp13
 70
     1
102
RTVSPropertyOp14
 70
     1
102
RTVSPropertyOp15
 70
     1
102
RTVSPropertyOp16
 70
     1
102
RTVSPropertyOp17
 70
     1
102
RTVSPropertyOp18
 70
     1
102
RTVSPropertyOp19
 70
     1
102
RTVSPropertyOp20
 70
     1
102
RTVSPropertyOp21
 70
     1
102
RTVSPropertyOp22
 70
     1
102
RTVSPropertyOp23
 70
     1
102
RTVSPropertyOp24
 70
     1
102
RTVSPropertyOp25
 70
     1
102
RTVSPropertyOp26
 70
     1
102
RTVSPropertyOp27
 70
     1
102
RTVSPropertyOp28
 70
     1
102
RTVSPropertyOp29
 70
     1
102
RTVSPropertyOp30
 70
     1
102
RTVSPropertyOp31
 70
     1
102
RTVSPropertyOp32
 70
     1
  0
XRECORD
  5
123
102
{ACAD_REACTORS
330
122
102
}
330
122
100
AcDbXrecord
280
     1
102
RTVSPropertyOp0
 70
     1
102
RTVSPropertyOp1
 70
     1
102
RTVSPropertyOp2
 70
     1
102
RTVSPropertyOp3
 70
     1
102
RTVSPropertyOp4
 70
     1
102
RTVSPropertyOp5
 70
     1
102
RTVSPropertyOp6
 70
     1
102
RTVSPropertyOp7
 70
     1
102
RTVSPropertyOp8
 70
     1
102
RTVSPropertyOp9
 70
     1
102
RTVSPropertyOp10
 70
     1
102
RTVSPropertyOp11
 70
     1
102
RTVSPropertyOp12
 70
     1
102
RTVSPropertyOp13
 70
     1
102
RTVSPropertyOp14
 70
     1
102
RTVSPropertyOp15
 70
     1
102
RTVSPropertyOp16
 70
     1
102
RTVSPropertyOp17
 70
     1
102
RTVSPropertyOp18
 70
     1
102
RTVSPropertyOp19
 70
     1
102
RTVSPropertyOp20
 70
     1
102
RTVSPropertyOp21
 70
     1
102
RTVSPropertyOp22
 70
     1
102
RTVSPropertyOp23
 70
     1
102
RTVSPropertyOp24
 70
     1
102
RTVSPropertyOp25
 70
     1
102
RTVSPropertyOp26
 70
     1
102
RTVSPropertyOp27
 70
     1
102
RTVSPropertyOp28
 70
     1
102
RTVSPropertyOp29
 70
     1
102
RTVSPropertyOp30
 70
     1
102
RTVSPropertyOp31
 70
     1
102
RTVSPropertyOp32
 70
     1
  0
XRECORD
  5
117
102
{ACAD_REACTORS
330
116
102
}
330
116
100
AcDbXrecord
280
     1
102
RTVSPropertyOp0
 70
     1
102
RTVSPropertyOp1
 70
     1
102
RTVSPropertyOp2
 70
     1
102
RTVSPropertyOp3
 70
     1
102
RTVSPropertyOp4
 70
     1
102
RTVSPropertyOp5
 70
     1
102
RTVSPropertyOp6
 70
     1
102
RTVSPropertyOp7
 70
     1
102
RTVSPropertyOp8
 70
     1
102
RTVSPropertyOp9
 70
     1
102
RTVSPropertyOp10
 70
     1
102
RTVSPropertyOp11
 70
     1
102
RTVSPropertyOp12
 70
     1
102
RTVSPropertyOp13
 70
     1
102
RTVSPropertyOp14
 70
     1
102
RTVSPropertyOp15
 70
     1
102
RTVSPropertyOp16
 70
     1
102
RTVSPropertyOp17
 70
     1
102
RTVSPropertyOp18
 70
     1
102
RTVSPropertyOp19
 70
     1
102
RTVSPropertyOp20
 70
     1
102
RTVSPropertyOp21
 70
     1
102
RTVSPropertyOp22
 70
     1
102
RTVSPropertyOp23
 70
     1
102
RTVSPropertyOp24
 70
     1
102
RTVSPropertyOp25
 70
     1
102
RTVSPropertyOp26
 70
     1
102
RTVSPropertyOp27
 70
     1
102
RTVSPropertyOp28
 70
     1
102
RTVSPropertyOp29
 70
     1
102
RTVSPropertyOp30
 70
     1
102
RTVSPropertyOp31
 70
     1
102
RTVSPropertyOp32
 70
     1
  0
XRECORD
  5
119
102
{ACAD_REACTORS
330
118
102
}
330
118
100
AcDbXrecord
280
     1
102
RTVSPropertyOp0
 70
     1
102
RTVSPropertyOp1
 70
     1
102
RTVSPropertyOp2
 70
     1
102
RTVSPropertyOp3
 70
     1
102
RTVSPropertyOp4
 70
     1
102
RTVSPropertyOp5
 70
     1
102
RTVSPropertyOp6
 70
     1
102
RTVSPropertyOp7
 70
     1
102
RTVSPropertyOp8
 70
     1
102
RTVSPropertyOp9
 70
     1
102
RTVSPropertyOp10
 70
     1
102
RTVSPropertyOp11
 70
     1
102
RTVSPropertyOp12
 70
     1
102
RTVSPropertyOp13
 70
     1
102
RTVSPropertyOp14
 70
     1
102
RTVSPropertyOp15
 70
     1
102
RTVSPropertyOp16
 70
     1
102
RTVSPropertyOp17
 70
     1
102
RTVSPropertyOp18
 70
     1
102
RTVSPropertyOp19
 70
     1
102
RTVSPropertyOp20
 70
     1
102
RTVSPropertyOp21
 70
     1
102
RTVSPropertyOp22
 70
     1
102
RTVSPropertyOp23
 70
     1
102
RTVSPropertyOp24
 70
     1
102
RTVSPropertyOp25
 70
     1
102
RTVSPropertyOp26
 70
     1
102
RTVSPropertyOp27
 70
     1
102
RTVSPropertyOp28
 70
     1
102
RTVSPropertyOp29
 70
     1
102
RTVSPropertyOp30
 70
     1
102
RTVSPropertyOp31
 70
     1
102
RTVSPropertyOp32
 70
     1
  0
XRECORD
  5
121
102
{ACAD_REACTORS
330
120
102
}
330
120
100
AcDbXrecord
280
     1
102
RTVSPropertyOp0
 70
     1
102
RTVSPropertyOp1
 70
     1
102
RTVSPropertyOp2
 70
     1
102
RTVSPropertyOp3
 70
     1
102
RTVSPropertyOp4
 70
     1
102
RTVSPropertyOp5
 70
     1
102
RTVSPropertyOp6
 70
     1
102
RTVSPropertyOp7
 70
     1
102
RTVSPropertyOp8
 70
     1
102
RTVSPropertyOp9
 70
     1
102
RTVSPropertyOp10
 70
     1
102
RTVSPropertyOp11
 70
     1
102
RTVSPropertyOp12
 70
     1
102
RTVSPropertyOp13
 70
     1
102
RTVSPropertyOp14
 70
     1
102
RTVSPropertyOp15
 70
     1
102
RTVSPropertyOp16
 70
     1
102
RTVSPropertyOp17
 70
     1
102
RTVSPropertyOp18
 70
     1
102
RTVSPropertyOp19
 70
     1
102
RTVSPropertyOp20
 70
     1
102
RTVSPropertyOp21
 70
     1
102
RTVSPropertyOp22
 70
     1
102
RTVSPropertyOp23
 70
     1
102
RTVSPropertyOp24
 70
     1
102
RTVSPropertyOp25
 70
     1
102
RTVSPropertyOp26
 70
     1
102
RTVSPropertyOp27
 70
     1
102
RTVSPropertyOp28
 70
     1
102
RTVSPropertyOp29
 70
     1
102
RTVSPropertyOp30
 70
     1
102
RTVSPropertyOp31
 70
     1
102
RTVSPropertyOp32
 70
     1
  0
XRECORD
  5
105
102
{ACAD_REACTORS
330
104
102
}
330
104
100
AcDbXrecord
280
     1
102
RTVSPropertyOp0
 70
     1
102
RTVSPropertyOp1
 70
     1
102
RTVSPropertyOp2
 70
     1
102
RTVSPropertyOp3
 70
     1
102
RTVSPropertyOp4
 70
     1
102
RTVSPropertyOp5
 70
     1
102
RTVSPropertyOp6
 70
     1
102
RTVSPropertyOp7
 70
     1
102
RTVSPropertyOp8
 70
     1
102
RTVSPropertyOp9
 70
     1
102
RTVSPropertyOp10
 70
     1
102
RTVSPropertyOp11
 70
     1
102
RTVSPropertyOp12
 70
     1
102
RTVSPropertyOp13
 70
     1
102
RTVSPropertyOp14
 70
     1
102
RTVSPropertyOp15
 70
     1
102
RTVSPropertyOp16
 70
     1
102
RTVSPropertyOp17
 70
     1
102
RTVSPropertyOp18
 70
     1
102
RTVSPropertyOp19
 70
     1
102
RTVSPropertyOp20
 70
     1
102
RTVSPropertyOp21
 70
     1
102
RTVSPropertyOp22
 70
     1
102
RTVSPropertyOp23
 70
     1
102
RTVSPropertyOp24
 70
     1
102
RTVSPropertyOp25
 70
     1
102
RTVSPropertyOp26
 70
     1
102
RTVSPropertyOp27
 70
     1
102
RTVSPropertyOp28
 70
     1
102
RTVSPropertyOp29
 70
     1
102
RTVSPropertyOp30
 70
     1
102
RTVSPropertyOp31
 70
     1
102
RTVSPropertyOp32
 70
     1
  0
XRECORD
  5
107
102
{ACAD_REACTORS
330
106
102
}
330
106
100
AcDbXrecord
280
     1
102
RTVSPropertyOp0
 70
     1
102
RTVSPropertyOp1
 70
     1
102
RTVSPropertyOp2
 70
     1
102
RTVSPropertyOp3
 70
     1
102
RTVSPropertyOp4
 70
     1
102
RTVSPropertyOp5
 70
     1
102
RTVSPropertyOp6
 70
     1
102
RTVSPropertyOp7
 70
     1
102
RTVSPropertyOp8
 70
     1
102
RTVSPropertyOp9
 70
     1
102
RTVSPropertyOp10
 70
     1
102
RTVSPropertyOp11
 70
     1
102
RTVSPropertyOp12
 70
     1
102
RTVSPropertyOp13
 70
     1
102
RTVSPropertyOp14
 70
     1
102
RTVSPropertyOp15
 70
     1
102
RTVSPropertyOp16
 70
     1
102
RTVSPropertyOp17
 70
     1
102
RTVSPropertyOp18
 70
     1
102
RTVSPropertyOp19
 70
     1
102
RTVSPropertyOp20
 70
     1
102
RTVSPropertyOp21
 70
     1
102
RTVSPropertyOp22
 70
     1
102
RTVSPropertyOp23
 70
     1
102
RTVSPropertyOp24
 70
     1
102
RTVSPropertyOp25
 70
     1
102
RTVSPropertyOp26
 70
     1
102
RTVSPropertyOp27
 70
     1
102
RTVSPropertyOp28
 70
     1
102
RTVSPropertyOp29
 70
     1
102
RTVSPropertyOp30
 70
     1
102
RTVSPropertyOp31
 70
     1
102
RTVSPropertyOp32
 70
     1
  0
XRECORD
  5
109
102
{ACAD_REACTORS
330
108
102
}
330
108
100
AcDbXrecord
280
     1
102
RTVSPropertyOp0
 70
     1
102
RTVSPropertyOp1
 70
     1
102
RTVSPropertyOp2
 70
     1
102
RTVSPropertyOp3
 70
     1
102
RTVSPropertyOp4
 70
     1
102
RTVSPropertyOp5
 70
     1
102
RTVSPropertyOp6
 70
     1
102
RTVSPropertyOp7
 70
     1
102
RTVSPropertyOp8
 70
     1
102
RTVSPropertyOp9
 70
     1
102
RTVSPropertyOp10
 70
     1
102
RTVSPropertyOp11
 70
     1
102
RTVSPropertyOp12
 70
     1
102
RTVSPropertyOp13
 70
     1
102
RTVSPropertyOp14
 70
     1
102
RTVSPropertyOp15
 70
     1
102
RTVSPropertyOp16
 70
     1
102
RTVSPropertyOp17
 70
     1
102
RTVSPropertyOp18
 70
     1
102
RTVSPropertyOp19
 70
     1
102
RTVSPropertyOp20
 70
     1
102
RTVSPropertyOp21
 70
     1
102
RTVSPropertyOp22
 70
     1
102
RTVSPropertyOp23
 70
     1
102
RTVSPropertyOp24
 70
     1
102
RTVSPropertyOp25
 70
     1
102
RTVSPropertyOp26
 70
     1
102
RTVSPropertyOp27
 70
     1
102
RTVSPropertyOp28
 70
     1
102
RTVSPropertyOp29
 70
     1
102
RTVSPropertyOp30
 70
     1
102
RTVSPropertyOp31
 70
     1
102
RTVSPropertyOp32
 70
     1
  0
XRECORD
  5
10B
102
{ACAD_REACTORS
330
10A
102
}
330
10A
100
AcDbXrecord
280
     1
102
RTVSPropertyOp0
 70
     1
102
RTVSPropertyOp1
 70
     1
102
RTVSPropertyOp2
 70
     1
102
RTVSPropertyOp3
 70
     1
102
RTVSPropertyOp4
 70
     1
102
RTVSPropertyOp5
 70
     1
102
RTVSPropertyOp6
 70
     1
102
RTVSPropertyOp7
 70
     1
102
RTVSPropertyOp8
 70
     1
102
RTVSPropertyOp9
 70
     1
102
RTVSPropertyOp10
 70
     1
102
RTVSPropertyOp11
 70
     1
102
RTVSPropertyOp12
 70
     1
102
RTVSPropertyOp13
 70
     1
102
RTVSPropertyOp14
 70
     1
102
RTVSPropertyOp15
 70
     1
102
RTVSPropertyOp16
 70
     1
102
RTVSPropertyOp17
 70
     1
102
RTVSPropertyOp18
 70
     1
102
RTVSPropertyOp19
 70
     1
102
RTVSPropertyOp20
 70
     1
102
RTVSPropertyOp21
 70
     1
102
RTVSPropertyOp22
 70
     1
102
RTVSPropertyOp23
 70
     1
102
RTVSPropertyOp24
 70
     1
102
RTVSPropertyOp25
 70
     1
102
RTVSPropertyOp26
 70
     1
102
RTVSPropertyOp27
 70
     1
102
RTVSPropertyOp28
 70
     1
102
RTVSPropertyOp29
 70
     1
102
RTVSPropertyOp30
 70
     1
102
RTVSPropertyOp31
 70
     1
102
RTVSPropertyOp32
 70
     1
  0
XRECORD
  5
11F
102
{ACAD_REACTORS
330
11E
102
}
330
11E
100
AcDbXrecord
280
     1
102
RTVSPropertyOp0
 70
     1
102
RTVSPropertyOp1
 70
     1
102
RTVSPropertyOp2
 70
     1
102
RTVSPropertyOp3
 70
     1
102
RTVSPropertyOp4
 70
     1
102
RTVSPropertyOp5
 70
     1
102
RTVSPropertyOp6
 70
     1
102
RTVSPropertyOp7
 70
     1
102
RTVSPropertyOp8
 70
     1
102
RTVSPropertyOp9
 70
     1
102
RTVSPropertyOp10
 70
     1
102
RTVSPropertyOp11
 70
     1
102
RTVSPropertyOp12
 70
     1
102
RTVSPropertyOp13
 70
     1
102
RTVSPropertyOp14
 70
     1
102
RTVSPropertyOp15
 70
     1
102
RTVSPropertyOp16
 70
     1
102
RTVSPropertyOp17
 70
     1
102
RTVSPropertyOp18
 70
     1
102
RTVSPropertyOp19
 70
     1
102
RTVSPropertyOp20
 70
     1
102
RTVSPropertyOp21
 70
     1
102
RTVSPropertyOp22
 70
     1
102
RTVSPropertyOp23
 70
     1
102
RTVSPropertyOp24
 70
     1
102
RTVSPropertyOp25
 70
     1
102
RTVSPropertyOp26
 70
     1
102
RTVSPropertyOp27
 70
     1
102
RTVSPropertyOp28
 70
     1
102
RTVSPropertyOp29
 70
     1
102
RTVSPropertyOp30
 70
     1
102
RTVSPropertyOp31
 70
     1
102
RTVSPropertyOp32
 70
     1
  0
XRECORD
  5
115
102
{ACAD_REACTORS
330
114
102
}
330
114
100
AcDbXrecord
280
     1
102
RTVSPropertyOp0
 70
     1
102
RTVSPropertyOp1
 70
     1
102
RTVSPropertyOp2
 70
     1
102
RTVSPropertyOp3
 70
     1
102
RTVSPropertyOp4
 70
     1
102
RTVSPropertyOp5
 70
     1
102
RTVSPropertyOp6
 70
     1
102
RTVSPropertyOp7
 70
     1
102
RTVSPropertyOp8
 70
     1
102
RTVSPropertyOp9
 70
     1
102
RTVSPropertyOp10
 70
     1
102
RTVSPropertyOp11
 70
     1
102
RTVSPropertyOp12
 70
     1
102
RTVSPropertyOp13
 70
     1
102
RTVSPropertyOp14
 70
     1
102
RTVSPropertyOp15
 70
     1
102
RTVSPropertyOp16
 70
     1
102
RTVSPropertyOp17
 70
     1
102
RTVSPropertyOp18
 70
     1
102
RTVSPropertyOp19
 70
     1
102
RTVSPropertyOp20
 70
     1
102
RTVSPropertyOp21
 70
     1
102
RTVSPropertyOp22
 70
     1
102
RTVSPropertyOp23
 70
     1
102
RTVSPropertyOp24
 70
     1
102
RTVSPropertyOp25
 70
     1
102
RTVSPropertyOp26
 70
     1
102
RTVSPropertyOp27
 70
     1
102
RTVSPropertyOp28
 70
     1
102
RTVSPropertyOp29
 70
     1
102
RTVSPropertyOp30
 70
     1
102
RTVSPropertyOp31
 70
     1
102
RTVSPropertyOp32
 70
     1
  0
XRECORD
  5
11D
102
{ACAD_REACTORS
330
11C
102
}
330
11C
100
AcDbXrecord
280
     1
102
RTVSPropertyOp0
 70
     1
102
RTVSPropertyOp1
 70
     1
102
RTVSPropertyOp2
 70
     1
102
RTVSPropertyOp3
 70
     1
102
RTVSPropertyOp4
 70
     1
102
RTVSPropertyOp5
 70
     1
102
RTVSPropertyOp6
 70
     1
102
RTVSPropertyOp7
 70
     1
102
RTVSPropertyOp8
 70
     1
102
RTVSPropertyOp9
 70
     1
102
RTVSPropertyOp10
 70
     1
102
RTVSPropertyOp11
 70
     1
102
RTVSPropertyOp12
 70
     1
102
RTVSPropertyOp13
 70
     1
102
RTVSPropertyOp14
 70
     1
102
RTVSPropertyOp15
 70
     1
102
RTVSPropertyOp16
 70
     1
102
RTVSPropertyOp17
 70
     1
102
RTVSPropertyOp18
 70
     1
102
RTVSPropertyOp19
 70
     1
102
RTVSPropertyOp20
 70
     1
102
RTVSPropertyOp21
 70
     1
102
RTVSPropertyOp22
 70
     1
102
RTVSPropertyOp23
 70
     1
102
RTVSPropertyOp24
 70
     1
102
RTVSPropertyOp25
 70
     1
102
RTVSPropertyOp26
 70
     1
102
RTVSPropertyOp27
 70
     1
102
RTVSPropertyOp28
 70
     1
102
RTVSPropertyOp29
 70
     1
102
RTVSPropertyOp30
 70
     1
102
RTVSPropertyOp31
 70
     1
102
RTVSPropertyOp32
 70
     1
  0
ENDSEC
  0
EOF
