  0
SECTION
  2
HEADER
  9
$ACADVER
  1
AC1015
  9
$ACADMAINTVER
 70
     6
  9
$DWGCODEPAGE
  3
ANSI_932
  9
$INSBASE
 10
0.0
 20
0.0
 30
0.0
  9
$EXTMIN
 10
0.0
 20
0.0
 30
0.0
  9
$EXTMAX
 10
209.9999999999999
 20
297.0
 30
0.0
  9
$LIMMIN
 10
0.0
 20
0.0
  9
$LIMMAX
 10
12.0
 20
9.0
  9
$ORTHOMODE
 70
     0
  9
$REGENMODE
 70
     1
  9
$FILLMODE
 70
     1
  9
$QTEXTMODE
 70
     0
  9
$MIRRTEXT
 70
     1
  9
$LTSCALE
 40
1.0
  9
$ATTMODE
 70
     1
  9
$TEXTSIZE
 40
0.2
  9
$TRACEWID
 40
0.05
  9
$TEXTSTYLE
  7
Standard
  9
$CLAYER
  8
0
  9
$CELTYPE
  6
ByLayer
  9
$CECOLOR
 62
   256
  9
$CELTSCALE
 40
1.0
  9
$DISPSILH
 70
     0
  9
$DIMSCALE
 40
1.0
  9
$DIMASZ
 40
0.18
  9
$DIMEXO
 40
0.0625
  9
$DIMDLI
 40
0.38
  9
$DIMRND
 40
0.0
  9
$DIMDLE
 40
0.0
  9
$DIMEXE
 40
0.18
  9
$DIMTP
 40
0.0
  9
$DIMTM
 40
0.0
  9
$DIMTXT
 40
0.18
  9
$DIMCEN
 40
0.09
  9
$DIMTSZ
 40
0.0
  9
$DIMTOL
 70
     0
  9
$DIMLIM
 70
     0
  9
$DIMTIH
 70
     1
  9
$DIMTOH
 70
     1
  9
$DIMSE1
 70
     0
  9
$DIMSE2
 70
     0
  9
$DIMTAD
 70
     0
  9
$DIMZIN
 70
     0
  9
$DIMBLK
  1

  9
$DIMASO
 70
     1
  9
$DIMSHO
 70
     1
  9
$DIMPOST
  1

  9
$DIMAPOST
  1

  9
$DIMALT
 70
     0
  9
$DIMALTD
 70
     2
  9
$DIMALTF
 40
25.4
  9
$DIMLFAC
 40
1.0
  9
$DIMTOFL
 70
     0
  9
$DIMTVP
 40
0.0
  9
$DIMTIX
 70
     0
  9
$DIMSOXD
 70
     0
  9
$DIMSAH
 70
     0
  9
$DIMBLK1
  1

  9
$DIMBLK2
  1

  9
$DIMSTYLE
  2
Standard
  9
$DIMCLRD
 70
     0
  9
$DIMCLRE
 70
     0
  9
$DIMCLRT
 70
     0
  9
$DIMTFAC
 40
1.0
  9
$DIMGAP
 40
0.09
  9
$DIMJUST
 70
     0
  9
$DIMSD1
 70
     0
  9
$DIMSD2
 70
     0
  9
$DIMTOLJ
 70
     1
  9
$DIMTZIN
 70
     0
  9
$DIMALTZ
 70
     0
  9
$DIMALTTZ
 70
     0
  9
$DIMUPT
 70
     0
  9
$DIMDEC
 70
     4
  9
$DIMTDEC
 70
     4
  9
$DIMALTU
 70
     2
  9
$DIMALTTD
 70
     2
  9
$DIMTXSTY
  7
Standard
  9
$DIMAUNIT
 70
     0
  9
$DIMADEC
 70
     0
  9
$DIMALTRND
 40
0.0
  9
$DIMAZIN
 70
     0
  9
$DIMDSEP
 70
    46
  9
$DIMATFIT
 70
     3
  9
$DIMFRAC
 70
     0
  9
$DIMLDRBLK
  1

  9
$DIMLUNIT
 70
     2
  9
$DIMLWD
 70
    -2
  9
$DIMLWE
 70
    -2
  9
$DIMTMOVE
 70
     0
  9
$LUNITS
 70
     2
  9
$LUPREC
 70
     4
  9
$SKETCHINC
 40
0.1
  9
$FILLETRAD
 40
0.5
  9
$AUNITS
 70
     0
  9
$AUPREC
 70
     0
  9
$MENU
  1
.
  9
$ELEVATION
 40
0.0
  9
$PELEVATION
 40
0.0
  9
$THICKNESS
 40
0.0
  9
$LIMCHECK
 70
     0
  9
$CHAMFERA
 40
0.5
  9
$CHAMFERB
 40
0.5
  9
$CHAMFERC
 40
1.0
  9
$CHAMFERD
 40
0.0
  9
$SKPOLY
 70
     0
  9
$TDCREATE
 40
2459789.60891353
  9
$TDUCREATE
 40
2459789.23391353
  9
$TDUPDATE
 40
2459789.608915521
  9
$TDUUPDATE
 40
2459789.233915521
  9
$TDINDWG
 40
0.0000000116
  9
$TDUSRTIMER
 40
0.0000000116
  9
$USRTIMER
 70
     1
  9
$ANGBASE
 50
0.0
  9
$ANGDIR
 70
     0
  9
$PDMODE
 70
     0
  9
$PDSIZE
 40
0.0
  9
$PLINEWID
 40
0.0
  9
$SPLFRAME
 70
     0
  9
$SPLINETYPE
 70
     6
  9
$SPLINESEGS
 70
     8
  9
$HANDSEED
  5
17F
  9
$SURFTAB1
 70
     6
  9
$SURFTAB2
 70
     6
  9
$SURFTYPE
 70
     6
  9
$SURFU
 70
     6
  9
$SURFV
 70
     6
  9
$UCSBASE
  2

  9
$UCSNAME
  2

  9
$UCSORG
 10
0.0
 20
0.0
 30
0.0
  9
$UCSXDIR
 10
1.0
 20
0.0
 30
0.0
  9
$UCSYDIR
 10
0.0
 20
1.0
 30
0.0
  9
$UCSORTHOREF
  2

  9
$UCSORTHOVIEW
 70
     0
  9
$UCSORGTOP
 10
0.0
 20
0.0
 30
0.0
  9
$UCSORGBOTTOM
 10
0.0
 20
0.0
 30
0.0
  9
$UCSORGLEFT
 10
0.0
 20
0.0
 30
0.0
  9
$UCSORGRIGHT
 10
0.0
 20
0.0
 30
0.0
  9
$UCSORGFRONT
 10
0.0
 20
0.0
 30
0.0
  9
$UCSORGBACK
 10
0.0
 20
0.0
 30
0.0
  9
$PUCSBASE
  2

  9
$PUCSNAME
  2

  9
$PUCSORG
 10
0.0
 20
0.0
 30
0.0
  9
$PUCSXDIR
 10
1.0
 20
0.0
 30
0.0
  9
$PUCSYDIR
 10
0.0
 20
1.0
 30
0.0
  9
$PUCSORTHOREF
  2

  9
$PUCSORTHOVIEW
 70
     0
  9
$PUCSORGTOP
 10
0.0
 20
0.0
 30
0.0
  9
$PUCSORGBOTTOM
 10
0.0
 20
0.0
 30
0.0
  9
$PUCSORGLEFT
 10
0.0
 20
0.0
 30
0.0
  9
$PUCSORGRIGHT
 10
0.0
 20
0.0
 30
0.0
  9
$PUCSORGFRONT
 10
0.0
 20
0.0
 30
0.0
  9
$PUCSORGBACK
 10
0.0
 20
0.0
 30
0.0
  9
$USERI1
 70
     0
  9
$USERI2
 70
     0
  9
$USERI3
 70
     0
  9
$USERI4
 70
     0
  9
$USERI5
 70
     0
  9
$USERR1
 40
18.1
  9
$USERR2
 40
0.0
  9
$USERR3
 40
0.0
  9
$USERR4
 40
0.0
  9
$USERR5
 40
0.0
  9
$WORLDVIEW
 70
     1
  9
$SHADEDGE
 70
     3
  9
$SHADEDIF
 70
    70
  9
$TILEMODE
 70
     1
  9
$MAXACTVP
 70
    64
  9
$PINSBASE
 10
0.0
 20
0.0
 30
0.0
  9
$PLIMCHECK
 70
     0
  9
$PEXTMIN
 10
1.00000000000000E+20
 20
1.00000000000000E+20
 30
1.00000000000000E+20
  9
$PEXTMAX
 10
-1.00000000000000E+20
 20
-1.00000000000000E+20
 30
-1.00000000000000E+20
  9
$PLIMMIN
 10
0.0
 20
0.0
  9
$PLIMMAX
 10
12.0
 20
9.0
  9
$UNITMODE
 70
     0
  9
$VISRETAIN
 70
     1
  9
$PLINEGEN
 70
     0
  9
$PSLTSCALE
 70
     1
  9
$TREEDEPTH
 70
  3020
  9
$CMLSTYLE
  2
Standard
  9
$CMLJUST
 70
     0
  9
$CMLSCALE
 40
1.0
  9
$PROXYGRAPHICS
 70
     1
  9
$MEASUREMENT
 70
     1
  9
$CELWEIGHT
370
    -1
  9
$ENDCAPS
280
     0
  9
$JOINSTYLE
280
     0
  9
$LWDISPLAY
290
     0
  9
$INSUNITS
 70
     4
  9
$HYPERLINKBASE
  1

  9
$STYLESHEET
  1

  9
$XEDIT
290
     1
  9
$CEPSNTYPE
380
     0
  9
$PSTYLEMODE
290
     1
  9
$FINGERPRINTGUID
  2
{FEE9BA81-164C-458C-9027-EB264C910E65}
  9
$VERSIONGUID
  2
{FAEB1C32-E019-11D5-929B-00C0DF256EC4}
  9
$EXTNAMES
290
     1
  9
$PSVPSCALE
 40
0.0
  9
$OLESTARTUP
290
     0
  0
ENDSEC
  0
SECTION
  2
CLASSES
  0
CLASS
  1
ACDBDICTIONARYWDFLT
  2
AcDbDictionaryWithDefault
  3
ObjectDBX Classes
 90
        0
280
     0
281
     0
  0
CLASS
  1
VISUALSTYLE
  2
AcDbVisualStyle
  3
ObjectDBX Classes
 90
     4095
280
     0
281
     0
  0
CLASS
  1
MATERIAL
  2
AcDbMaterial
  3
ObjectDBX Classes
 90
     1153
280
     0
281
     0
  0
CLASS
  1
DICTIONARYVAR
  2
AcDbDictionaryVar
  3
ObjectDBX Classes
 90
        0
280
     0
281
     0
  0
CLASS
  1
ACDBPLACEHOLDER
  2
AcDbPlaceHolder
  3
ObjectDBX Classes
 90
        0
280
     0
281
     0
  0
CLASS
  1
LAYOUT
  2
AcDbLayout
  3
ObjectDBX Classes
 90
        0
280
     0
281
     0
  0
ENDSEC
  0
SECTION
  2
TABLES
  0
TABLE
  2
VPORT
  5
8
330
0
100
AcDbSymbolTable
 70
     1
  0
VPORT
  5
29
330
8
100
AcDbSymbolTableRecord
100
AcDbViewportTableRecord
  2
*Active
 70
     0
 10
0.0
 20
0.0
 11
1.0
 21
1.0
 12
104.9999999999999
 22
148.5
 13
0.0
 23
0.0
 14
0.5
 24
0.5
 15
0.5
 25
0.5
 16
0.0
 26
0.0
 36
1.0
 17
0.0
 27
0.0
 37
0.0
 40
326.7
 41
1.60267857142857
 42
50.0
 43
0.0
 44
0.0
 50
0.0
 51
0.0
 71
     0
 72
   100
 73
     1
 74
     3
 75
     0
 76
     0
 77
     0
 78
     0
281
     0
 65
     1
110
0.0
120
0.0
130
0.0
111
1.0
121
0.0
131
0.0
112
0.0
122
1.0
132
0.0
 79
     0
146
0.0
  0
ENDTAB
  0
TABLE
  2
LTYPE
  5
5
330
0
100
AcDbSymbolTable
 70
     8
  0
LTYPE
  5
14
330
5
100
AcDbSymbolTableRecord
100
AcDbLinetypeTableRecord
  2
ByBlock
 70
     0
  3

 72
    65
 73
     0
 40
0.0
  0
LTYPE
  5
15
330
5
100
AcDbSymbolTableRecord
100
AcDbLinetypeTableRecord
  2
ByLayer
 70
     0
  3

 72
    65
 73
     0
 40
0.0
  0
LTYPE
  5
16
330
5
100
AcDbSymbolTableRecord
100
AcDbLinetypeTableRecord
  2
Continuous
 70
     0
  3
Solid line
 72
    65
 73
     0
 40
0.0
  0
LTYPE
  5
3F
330
5
100
AcDbSymbolTableRecord
100
AcDbLinetypeTableRecord
  2
DASHED
 70
     0
  3
Dashed
 72
    65
 73
     2
 40
15.0
 49
7.0
 74
     0
 49
-8.0
 74
     0
  0
LTYPE
  5
40
330
5
100
AcDbSymbolTableRecord
100
AcDbLinetypeTableRecord
  2
DOTTED
 70
     0
  3
Dotted
 72
    65
 73
     2
 40
1.0
 49
0.0
 74
     0
 49
-1.0
 74
     0
  0
LTYPE
  5
41
330
5
100
AcDbSymbolTableRecord
100
AcDbLinetypeTableRecord
  2
DOT_CENTER
 70
     0
  3
Dot_Center
 72
    65
 73
     4
 40
14.0
 49
12.0
 74
     0
 49
-1.0
 74
     0
 49
0.0
 74
     0
 49
-1.0
 74
     0
  0
LTYPE
  5
42
330
5
100
AcDbSymbolTableRecord
100
AcDbLinetypeTableRecord
  2
LONG_DASHED
 70
     0
  3
Long_Dashed
 72
    65
 73
     2
 40
15.0
 49
10.0
 74
     0
 49
-5.0
 74
     0
  0
LTYPE
  5
43
330
5
100
AcDbSymbolTableRecord
100
AcDbLinetypeTableRecord
  2
DASH_CENTER
 70
     0
  3
Dash_Center
 72
    65
 73
     4
 40
14.0
 49
11.0
 74
     0
 49
-1.0
 74
     0
 49
1.0
 74
     0
 49
-1.0
 74
     0
  0
LTYPE
  5
44
330
5
100
AcDbSymbolTableRecord
100
AcDbLinetypeTableRecord
  2
PHANTOM
 70
     0
  3
Phantom
 72
    65
 73
     6
 40
13.0
 49
10.0
 74
     0
 49
-1.0
 74
     0
 49
0.0
 74
     0
 49
-1.0
 74
     0
 49
0.0
 74
     0
 49
-1.0
 74
     0
  0
LTYPE
  5
45
330
5
100
AcDbSymbolTableRecord
100
AcDbLinetypeTableRecord
  2
CENTER_DASH_DASH
 70
     0
  3
Center_Dash_Dash
 72
    65
 73
     6
 40
14.0
 49
9.0
 74
     0
 49
-1.0
 74
     0
 49
1.0
 74
     0
 49
-1.0
 74
     0
 49
1.0
 74
     0
 49
-1.0
 74
     0
  0
ENDTAB
  0
TABLE
  2
LAYER
  5
2
330
0
100
AcDbSymbolTable
 70
     3
  0
LAYER
  5
10
330
2
100
AcDbSymbolTableRecord
100
AcDbLayerTableRecord
  2
0
 70
     0
 62
     7
  6
Continuous
370
    -3
390
F
  0
LAYER
  5
46
330
2
100
AcDbSymbolTableRecord
100
AcDbLayerTableRecord
  2
1
 70
     0
 62
     7
  6
Continuous
370
    -3
390
F
  0
LAYER
  5
47
330
2
100
AcDbSymbolTableRecord
100
AcDbLayerTableRecord
  2
_U_30EC_U_30A4_U_30E4_U_30FC_1
 70
     0
 62
     7
  6
Continuous
370
    -3
390
F
  0
ENDTAB
  0
TABLE
  2
STYLE
  5
3
330
0
100
AcDbSymbolTable
 70
     3
  0
STYLE
  5
11
330
3
100
AcDbSymbolTableRecord
100
AcDbTextStyleTableRecord
  2
Standard
 70
     0
 40
0.0
 41
1.0
 50
0.0
 71
     0
 42
0.2
  3
txt
  4

  0
STYLE
  5
C2
330
3
100
AcDbSymbolTableRecord
100
AcDbTextStyleTableRecord
  2
CONVERTER_11
 70
     0
 40
0.0
 41
0.89
 50
0.0
 71
     0
 42
0.2
  3
MS Mincho.ttf
  4

1001
ACAD
1000
MS Mincho
1071
    32785
  0
STYLE
  5
11F
330
3
100
AcDbSymbolTableRecord
100
AcDbTextStyleTableRecord
  2
CONVERTER_12
 70
     0
 40
0.0
 41
0.9
 50
0.0
 71
     0
 42
0.2
  3
txt.shx
  4

  0
ENDTAB
  0
TABLE
  2
VIEW
  5
6
330
0
100
AcDbSymbolTable
 70
     0
  0
ENDTAB
  0
TABLE
  2
UCS
  5
7
330
0
100
AcDbSymbolTable
 70
     0
  0
ENDTAB
  0
TABLE
  2
APPID
  5
9
330
0
100
AcDbSymbolTable
 70
     1
  0
APPID
  5
12
330
9
100
AcDbSymbolTableRecord
100
AcDbRegAppTableRecord
  2
ACAD
 70
     0
  0
ENDTAB
  0
TABLE
  2
DIMSTYLE
  5
A
330
0
100
AcDbSymbolTable
 70
     3
100
AcDbDimStyleTable
  0
DIMSTYLE
105
27
330
A
100
AcDbSymbolTableRecord
100
AcDbDimStyleTableRecord
  2
Standard
 70
     0
178
     0
340
11
  0
DIMSTYLE
105
135
102
{ACAD_REACTORS
330
136
102
}
330
A
100
AcDbSymbolTableRecord
100
AcDbDimStyleTableRecord
  2
ME10_DIM_10
 70
     0
 41
3.5
 42
0.0
 44
1.0
 73
     0
 74
     0
 77
     1
 78
     8
140
3.5
147
1.0
172
     1
173
     1
174
     1
175
     1
176
     2
177
     2
271
     2
178
     7
271
     2
340
11F
  0
DIMSTYLE
105
140
102
{ACAD_REACTORS
330
141
102
}
330
A
100
AcDbSymbolTableRecord
100
AcDbDimStyleTableRecord
  2
ME10_DIM_11
 70
     0
 41
3.5
 42
0.0
 44
1.0
 73
     0
 74
     0
 77
     1
 78
     8
140
3.5
147
1.0
172
     1
173
     1
174
     1
175
     1
176
     2
177
     2
271
     2
178
     7
271
     2
340
11F
  0
ENDTAB
  0
TABLE
  2
BLOCK_RECORD
  5
1
330
0
100
AcDbSymbolTable
 70
    11
  0
BLOCK_RECORD
  5
1F
330
1
100
AcDbSymbolTableRecord
100
AcDbBlockTableRecord
  2
*Model_Space
340
22
  0
BLOCK_RECORD
  5
1B
330
1
100
AcDbSymbolTableRecord
100
AcDbBlockTableRecord
  2
*Paper_Space
340
1E
  0
BLOCK_RECORD
  5
23
330
1
100
AcDbSymbolTableRecord
100
AcDbBlockTableRecord
  2
*Paper_Space0
340
26
  0
BLOCK_RECORD
  5
48
330
1
100
AcDbSymbolTableRecord
100
AcDbBlockTableRecord
  2
開示A4
340
0
102
{BLKREFS
331
4C
102
}
  0
BLOCK_RECORD
  5
4B
330
1
100
AcDbSymbolTableRecord
100
AcDbBlockTableRecord
  2
開示A4枠
340
0
102
{BLKREFS
331
5D
102
}
  0
BLOCK_RECORD
  5
4F
330
1
100
AcDbSymbolTableRecord
100
AcDbBlockTableRecord
  2
41-1-15
340
0
102
{BLKREFS
331
56
102
}
  0
BLOCK_RECORD
  5
52
330
1
100
AcDbSymbolTableRecord
100
AcDbBlockTableRecord
  2
32-88
340
0
102
{BLKREFS
331
57
102
}
  0
BLOCK_RECORD
  5
55
330
1
100
AcDbSymbolTableRecord
100
AcDbBlockTableRecord
  2
P82A-15
340
0
102
{BLKREFS
331
5E
102
}
  0
BLOCK_RECORD
  5
5A
330
1
100
AcDbSymbolTableRecord
100
AcDbBlockTableRecord
  2
91-62
340
0
102
{BLKREFS
331
5F
102
}
  0
BLOCK_RECORD
  5
12C
330
1
100
AcDbSymbolTableRecord
100
AcDbBlockTableRecord
  2
*D7
340
0
  0
BLOCK_RECORD
  5
137
330
1
100
AcDbSymbolTableRecord
100
AcDbBlockTableRecord
  2
*D8
340
0
  0
BLOCK_RECORD
  5
142
330
1
100
AcDbSymbolTableRecord
100
AcDbBlockTableRecord
  2
*D9
340
0
102
{BLKREFS
331
149
102
}
  0
BLOCK_RECORD
  5
14A
330
1
100
AcDbSymbolTableRecord
100
AcDbBlockTableRecord
  2
*D10
340
0
102
{BLKREFS
331
153
102
}
  0
ENDTAB
  0
ENDSEC
  0
SECTION
  2
BLOCKS
  0
BLOCK
  5
20
330
1F
100
AcDbEntity
  8
0
100
AcDbBlockBegin
  2
*Model_Space
 70
     0
 10
0.0
 20
0.0
 30
0.0
  3
*Model_Space
  1

  0
ENDBLK
  5
21
330
1F
100
AcDbEntity
  8
0
100
AcDbBlockEnd
  0
BLOCK
  5
1C
330
1B
100
AcDbEntity
 67
     1
  8
0
100
AcDbBlockBegin
  2
*Paper_Space
 70
     0
 10
0.0
 20
0.0
 30
0.0
  3
*Paper_Space
  1

  0
ENDBLK
  5
1D
330
1B
100
AcDbEntity
 67
     1
  8
0
100
AcDbBlockEnd
  0
BLOCK
  5
24
330
23
100
AcDbEntity
  8
0
100
AcDbBlockBegin
  2
*Paper_Space0
 70
     0
 10
0.0
 20
0.0
 30
0.0
  3
*Paper_Space0
  1

  0
ENDBLK
  5
25
330
23
100
AcDbEntity
  8
0
100
AcDbBlockEnd
  0
BLOCK
  5
49
330
48
100
AcDbEntity
  8
0
100
AcDbBlockBegin
  2
開示A4
 70
     0
 10
0.0
 20
0.0
 30
0.0
  3
開示A4
  1

  0
POINT
  5
60
330
48
100
AcDbEntity
  8
1
 62
     4
100
AcDbPoint
 10
182.9999999999999
 20
15.0
 30
0.0
  0
POINT
  5
61
330
48
100
AcDbEntity
  8
1
 62
     4
100
AcDbPoint
 10
93.75
 20
17.0
 30
0.0
  0
POINT
  5
62
330
48
100
AcDbEntity
  8
1
 62
     4
100
AcDbPoint
 10
85.25
 20
17.0
 30
0.0
  0
POINT
  5
63
330
48
100
AcDbEntity
  8
1
 62
     4
100
AcDbPoint
 10
106.5
 20
19.0
 30
0.0
  0
POINT
  5
64
330
48
100
AcDbEntity
  8
1
 62
     4
100
AcDbPoint
 10
106.5
 20
12.5
 30
0.0
  0
POINT
  5
65
330
48
100
AcDbEntity
  8
1
 62
     4
100
AcDbPoint
 10
112.25
 20
12.5
 30
0.0
  0
POINT
  5
66
330
48
100
AcDbEntity
  8
1
 62
     4
100
AcDbPoint
 10
100.75
 20
12.5
 30
0.0
  0
POINT
  5
67
330
48
100
AcDbEntity
  8
1
 62
     4
100
AcDbPoint
 10
123.5
 20
19.0
 30
0.0
  0
POINT
  5
68
330
48
100
AcDbEntity
  8
1
 62
     4
100
AcDbPoint
 10
123.5
 20
12.5
 30
0.0
  0
POINT
  5
69
330
48
100
AcDbEntity
  8
1
 62
     4
100
AcDbPoint
 10
129.25
 20
12.5
 30
0.0
  0
POINT
  5
6A
330
48
100
AcDbEntity
  8
1
 62
     4
100
AcDbPoint
 10
117.75
 20
12.5
 30
0.0
  0
POINT
  5
6B
330
48
100
AcDbEntity
  8
1
 62
     4
100
AcDbPoint
 10
140.5
 20
19.0
 30
0.0
  0
POINT
  5
6C
330
48
100
AcDbEntity
  8
1
 62
     4
100
AcDbPoint
 10
140.5
 20
12.5
 30
0.0
  0
POINT
  5
6D
330
48
100
AcDbEntity
  8
1
 62
     4
100
AcDbPoint
 10
146.25
 20
12.5
 30
0.0
  0
POINT
  5
6E
330
48
100
AcDbEntity
  8
1
 62
     4
100
AcDbPoint
 10
134.75
 20
12.5
 30
0.0
  0
POINT
  5
6F
330
48
100
AcDbEntity
  8
1
 62
     4
100
AcDbPoint
 10
151.75
 20
12.5
 30
0.0
  0
POINT
  5
70
330
48
100
AcDbEntity
  8
1
 62
     4
100
AcDbPoint
 10
163.25
 20
12.5
 30
0.0
  0
POINT
  5
71
330
48
100
AcDbEntity
  8
1
 62
     4
100
AcDbPoint
 10
157.5
 20
12.5
 30
0.0
  0
POINT
  5
72
330
48
100
AcDbEntity
  8
1
 62
     4
100
AcDbPoint
 10
57.0
 20
14.25
 30
0.0
  0
POINT
  5
73
330
48
100
AcDbEntity
  8
1
 62
     4
100
AcDbPoint
 10
57.0
 20
22.75
 30
0.0
  0
POINT
  5
74
330
48
100
AcDbEntity
  8
1
 62
     4
100
AcDbPoint
 10
47.5
 20
282.0000000000003
 30
0.0
  0
POINT
  5
75
330
48
100
AcDbEntity
  8
1
 62
     4
100
AcDbPoint
 10
157.5
 20
19.0
 30
0.0
  0
POINT
  5
76
330
48
100
AcDbEntity
  8
1
 62
     4
100
AcDbPoint
 10
57.0
 20
16.25
 30
0.0
  0
POINT
  5
77
330
48
100
AcDbEntity
  8
1
 62
     4
100
AcDbPoint
 10
57.0
 20
24.75000000000001
 30
0.0
  0
POINT
  5
78
330
48
100
AcDbEntity
  8
1
 62
     4
100
AcDbPoint
 10
57.0
 20
20.75
 30
0.0
  0
POINT
  5
79
330
48
100
AcDbEntity
  8
1
 62
     4
100
AcDbPoint
 10
57.0
 20
12.25
 30
0.0
  0
POINT
  5
7A
330
48
100
AcDbEntity
  8
1
 62
     4
100
AcDbPoint
 10
34.0
 20
34.0
 30
0.0
  0
LINE
  5
7F
330
48
100
AcDbEntity
  8
1
  6
Continuous
 62
     7
100
AcDbLine
 10
105.0
 20
10.0
 30
0.0
 11
199.9999999999999
 21
10.0
 31
0.0
  0
LINE
  5
80
330
48
100
AcDbEntity
  8
1
  6
Continuous
 62
     2
100
AcDbLine
 10
105.0
 20
10.0
 30
0.0
 11
105.0
 21
4.99999999999999
 31
0.0
  0
LINE
  5
81
330
48
100
AcDbEntity
  8
1
  6
Continuous
 62
     7
100
AcDbLine
 10
199.9999999999999
 20
148.5
 30
0.0
 11
199.9999999999999
 21
287.0000000000003
 31
0.0
  0
LINE
  5
82
330
48
100
AcDbEntity
  8
1
  6
Continuous
 62
     2
100
AcDbLine
 10
199.9999999999999
 20
148.5
 30
0.0
 11
204.9999999999999
 21
148.5
 31
0.0
  0
LINE
  5
83
330
48
100
AcDbEntity
  8
1
  6
Continuous
 62
     7
100
AcDbLine
 10
25.0
 20
148.5
 30
0.0
 11
25.0
 21
287.0000000000003
 31
0.0
  0
LINE
  5
84
330
48
100
AcDbEntity
  8
1
  6
Continuous
 62
     2
100
AcDbLine
 10
25.0
 20
148.5
 30
0.0
 11
20.0
 21
148.5
 31
0.0
  0
LINE
  5
85
330
48
100
AcDbEntity
  8
1
  6
Continuous
 62
     7
100
AcDbLine
 10
105.0
 20
287.0000000000003
 30
0.0
 11
25.0
 21
287.0000000000003
 31
0.0
  0
LINE
  5
86
330
48
100
AcDbEntity
  8
1
  6
Continuous
 62
     2
100
AcDbLine
 10
105.0
 20
287.0000000000003
 30
0.0
 11
105.0
 21
292.0000000000003
 31
0.0
  0
LINE
  5
87
330
48
100
AcDbEntity
  8
1
  6
Continuous
 62
     2
100
AcDbLine
 10
166.0
 20
20.0
 30
0.0
 11
199.9999999999999
 21
20.0
 31
0.0
  0
LINE
  5
88
330
48
100
AcDbEntity
  8
1
  6
Continuous
 62
     2
100
AcDbLine
 10
98.0
 20
27.00000000000001
 30
0.0
 11
98.0
 21
9.99999999999999
 31
0.0
  0
LINE
  5
89
330
48
100
AcDbEntity
  8
1
  6
Continuous
 62
     2
100
AcDbLine
 10
115.0
 20
27.00000000000001
 30
0.0
 11
115.0
 21
9.99999999999999
 31
0.0
  0
LINE
  5
8A
330
48
100
AcDbEntity
  8
1
  6
Continuous
 62
     2
100
AcDbLine
 10
149.0
 20
27.00000000000001
 30
0.0
 11
149.0
 21
10.0
 31
0.0
  0
LINE
  5
8B
330
48
100
AcDbEntity
  8
1
  6
Continuous
 62
     2
100
AcDbLine
 10
132.0
 20
27.00000000000001
 30
0.0
 11
132.0
 21
9.99999999999999
 31
0.0
  0
LINE
  5
8C
330
48
100
AcDbEntity
  8
1
  6
Continuous
 62
     2
100
AcDbLine
 10
166.0
 20
27.00000000000001
 30
0.0
 11
166.0
 21
10.0
 31
0.0
  0
LINE
  5
8D
330
48
100
AcDbEntity
  8
1
  6
Continuous
 62
     2
100
AcDbLine
 10
55.0
 20
277.0000000000003
 30
0.0
 11
25.0
 21
277.0000000000003
 31
0.0
  0
LINE
  5
8E
330
48
100
AcDbEntity
  8
1
  6
Continuous
 62
     7
100
AcDbLine
 10
25.0
 20
10.0
 30
0.0
 11
25.0
 21
148.5
 31
0.0
  0
LINE
  5
8F
330
48
100
AcDbEntity
  8
1
  6
Continuous
 62
     2
100
AcDbLine
 10
40.0
 20
287.0000000000003
 30
0.0
 11
40.0
 21
277.0000000000003
 31
0.0
  0
LINE
  5
90
330
48
100
AcDbEntity
  8
1
  6
Continuous
 62
     2
100
AcDbLine
 10
55.0
 20
287.0000000000003
 30
0.0
 11
55.0
 21
277.0000000000003
 31
0.0
  0
LINE
  5
91
330
48
100
AcDbEntity
  8
1
  6
Continuous
 62
     2
100
AcDbLine
 10
33.0
 20
41.0
 30
0.0
 11
33.0
 21
27.0
 31
0.0
  0
LINE
  5
92
330
48
100
AcDbEntity
  8
1
  6
Continuous
 62
     7
100
AcDbLine
 10
199.9999999999999
 20
27.00000000000001
 30
0.0
 11
25.0
 21
27.00000000000001
 31
0.0
  0
LINE
  5
93
330
48
100
AcDbEntity
  8
1
  6
Continuous
 62
     7
100
AcDbLine
 10
25.0
 20
41.0
 30
0.0
 11
199.9999999999999
 21
41.0
 31
0.0
  0
LINE
  5
94
330
48
100
AcDbEntity
  8
1
  6
PHANTOM
 62
     4
100
AcDbLine
 10
0.0
 20
0.0
 30
0.0
 11
209.9999999999999
 21
0.0
 31
0.0
  0
LINE
  5
95
330
48
100
AcDbEntity
  8
1
  6
PHANTOM
 62
     4
100
AcDbLine
 10
209.9999999999999
 20
0.0
 30
0.0
 11
209.9999999999999
 21
297.0
 31
0.0
  0
LINE
  5
96
330
48
100
AcDbEntity
  8
1
  6
PHANTOM
 62
     4
100
AcDbLine
 10
209.9999999999999
 20
297.0
 30
0.0
 11
0.0
 21
297.0
 31
0.0
  0
LINE
  5
97
330
48
100
AcDbEntity
  8
1
  6
PHANTOM
 62
     4
100
AcDbLine
 10
0.0
 20
297.0
 30
0.0
 11
0.0
 21
0.0
 31
0.0
  0
LINE
  5
98
330
48
100
AcDbEntity
  8
1
  6
Continuous
 62
     7
100
AcDbLine
 10
25.0
 20
10.0
 30
0.0
 11
105.0
 21
10.0
 31
0.0
  0
LINE
  5
99
330
48
100
AcDbEntity
  8
1
  6
Continuous
 62
     7
100
AcDbLine
 10
199.9999999999999
 20
10.0
 30
0.0
 11
199.9999999999999
 21
148.5
 31
0.0
  0
LINE
  5
9A
330
48
100
AcDbEntity
  8
1
  6
Continuous
 62
     7
100
AcDbLine
 10
199.9999999999999
 20
287.0000000000003
 30
0.0
 11
105.0
 21
287.0000000000003
 31
0.0
  0
LINE
  5
9B
330
48
100
AcDbEntity
  8
1
  6
Continuous
 62
     2
100
AcDbLine
 10
25.0
 20
18.5
 30
0.0
 11
81.0
 21
18.5
 31
0.0
  0
LINE
  5
9C
330
48
100
AcDbEntity
  8
1
  6
Continuous
 62
     2
100
AcDbLine
 10
33.0
 20
27.0
 30
0.0
 11
33.0
 21
10.0
 31
0.0
  0
LINE
  5
9D
330
48
100
AcDbEntity
  8
1
  6
Continuous
 62
     7
100
AcDbLine
 10
190.9999999999999
 20
24.70000000000001
 30
0.0
 11
190.9999999999999
 21
22.30000000000001
 31
0.0
  0
LINE
  5
9E
330
48
100
AcDbEntity
  8
1
  6
Continuous
 62
     7
100
AcDbLine
 10
190.9999999999999
 20
24.70000000000001
 30
0.0
 11
195.9999999999999
 21
25.50000000000001
 31
0.0
  0
LINE
  5
9F
330
48
100
AcDbEntity
  8
1
  6
Continuous
 62
     7
100
AcDbLine
 10
195.9999999999999
 20
25.50000000000001
 30
0.0
 11
195.9999999999999
 21
21.5
 31
0.0
  0
LINE
  5
A0
330
48
100
AcDbEntity
  8
1
  6
Continuous
 62
     7
100
AcDbLine
 10
195.9999999999999
 20
21.5
 30
0.0
 11
190.9999999999999
 21
22.30000000000001
 31
0.0
  0
LINE
  5
A1
330
48
100
AcDbEntity
  8
1
  6
DOT_CENTER
 62
     2
100
AcDbLine
 10
183.9999999999999
 20
23.5
 30
0.0
 11
196.9999999999999
 21
23.5
 31
0.0
  0
LINE
  5
A2
330
48
100
AcDbEntity
  8
1
  6
DOT_CENTER
 62
     2
100
AcDbLine
 10
186.9999999999999
 20
26.50000000000001
 30
0.0
 11
186.9999999999999
 21
20.5
 31
0.0
  0
LINE
  5
A3
330
48
100
AcDbEntity
  8
1
  6
Continuous
 62
     2
100
AcDbLine
 10
81.0
 20
27.00000000000001
 30
0.0
 11
81.0
 21
10.0
 31
0.0
  0
CIRCLE
  5
A4
330
48
100
AcDbEntity
  8
1
  6
Continuous
 62
     7
100
AcDbCircle
 10
103.5
 20
12.5
 30
0.0
 40
0.2999999999998977
  0
CIRCLE
  5
A5
330
48
100
AcDbEntity
  8
1
  6
Continuous
 62
     7
100
AcDbCircle
 10
109.5
 20
12.5
 30
0.0
 40
0.2999999999998977
  0
CIRCLE
  5
A6
330
48
100
AcDbEntity
  8
1
  6
Continuous
 62
     7
100
AcDbCircle
 10
120.5
 20
12.5
 30
0.0
 40
0.2999999999998977
  0
CIRCLE
  5
A7
330
48
100
AcDbEntity
  8
1
  6
Continuous
 62
     7
100
AcDbCircle
 10
126.5
 20
12.5
 30
0.0
 40
0.2999999999998977
  0
CIRCLE
  5
A8
330
48
100
AcDbEntity
  8
1
  6
Continuous
 62
     7
100
AcDbCircle
 10
137.5
 20
12.5
 30
0.0
 40
0.2999999999998977
  0
CIRCLE
  5
A9
330
48
100
AcDbEntity
  8
1
  6
Continuous
 62
     7
100
AcDbCircle
 10
143.5
 20
12.5
 30
0.0
 40
0.2999999999998977
  0
CIRCLE
  5
AA
330
48
100
AcDbEntity
  8
1
  6
Continuous
 62
     7
100
AcDbCircle
 10
160.5
 20
12.5
 30
0.0
 40
0.2999999999998977
  0
CIRCLE
  5
AB
330
48
100
AcDbEntity
  8
1
  6
Continuous
 62
     7
100
AcDbCircle
 10
154.5
 20
12.5
 30
0.0
 40
0.2999999999998977
  0
CIRCLE
  5
AC
330
48
100
AcDbEntity
  8
1
  6
Continuous
 62
     7
100
AcDbCircle
 10
186.9999999999999
 20
23.5
 30
0.0
 40
1.200000000000102
  0
CIRCLE
  5
AD
330
48
100
AcDbEntity
  8
1
  6
Continuous
 62
     7
100
AcDbCircle
 10
186.9999999999999
 20
23.5
 30
0.0
 40
2.0
  0
CIRCLE
  5
AE
330
48
100
AcDbEntity
  8
1
  6
DOT_CENTER
 62
     7
100
AcDbCircle
 10
89.5
 20
16.0
 30
0.0
 40
0.0999999999999659
  0
CIRCLE
  5
AF
330
48
100
AcDbEntity
  8
1
  6
DOT_CENTER
 62
     7
100
AcDbCircle
 10
89.5
 20
18.0
 30
0.0
 40
0.0999999999999659
  0
SPLINE
  5
B0
102
{ACAD_REACTORS
330
CF
102
}
330
48
100
AcDbEntity
  8
_U_30EC_U_30A4_U_30E4_U_30FC_1
  6
Continuous
 62
     2
100
AcDbSpline
210
0.0
220
0.0
230
1.0
 70
     8
 71
     3
 72
    24
 73
    20
 74
    18
 42
0.000000001
 43
0.0000000001
 44
0.00000001
 40
0.0
 40
0.0
 40
0.0
 40
0.0
 40
0.2211075008753836
 40
0.4273218586245269
 40
0.5080174679238988
 40
0.5914835907870425
 40
0.8143265690193108
 40
1.054651302686602
 40
1.295452694023199
 40
1.518109231328847
 40
1.540864321905462
 40
1.595126460622751
 40
1.65989094789612
 40
1.714153085187506
 40
1.736908174961806
 40
1.764951100735535
 40
1.801562291221181
 40
1.953914424543845
 40
2.126104167379911
 40
2.126104167379911
 40
2.126104167379911
 40
2.126104167379911
 10
185.9375369556888
 20
15.58989295113016
 30
0.0
 10
185.911257908181
 20
15.53097628234374
 30
0.0
 10
185.8604698894425
 20
15.41711139679258
 30
0.0
 10
185.813178483911
 20
15.14441958233116
 30
0.0
 10
185.7043482802617
 20
15.24445482575456
 30
0.0
 10
185.5514800279635
 20
15.27118593367328
 30
0.0
 10
185.7686155181199
 20
15.4851813501763
 30
0.0
 10
185.7838483674379
 20
15.70332117782488
 30
0.0
 10
185.8906889492
 20
15.88451579066424
 30
0.0
 10
185.8305380947077
 20
16.16913226311402
 30
0.0
 10
185.9334317395401
 20
16.1411408922245
 30
0.0
 10
185.9779933468149
 20
16.13243251602299
 30
0.0
 10
186.0380842395397
 20
16.12139654183355
 30
0.0
 10
186.0756619587438
 20
16.1076752305556
 30
0.0
 10
186.1252466928607
 20
16.10756076160222
 30
0.0
 10
186.0930158919324
 20
16.07306592398622
 30
0.0
 10
186.0171802221881
 20
16.08404104537965
 30
0.0
 10
186.0429447159692
 20
15.89858969582448
 30
0.0
 10
186.0055896763849
 20
15.80702313549588
 30
0.0
 10
185.9857704961609
 20
15.75844135397704
 30
0.0
 11
185.9375369556888
 21
15.58989295113016
 31
0.0
 11
185.8616471328551
 21
15.3822170831856
 31
0.0
 11
185.7717402238432
 21
15.19663392356193
 31
0.0
 11
185.7011493923109
 21
15.23573272563551
 31
0.0
 11
185.624552519265
 21
15.2688916318772
 31
0.0
 11
185.7214026947455
 21
15.46958801203538
 31
0.0
 11
185.799464146747
 21
15.69688163177024
 31
0.0
 11
185.8589716929719
 21
15.93021436608691
 31
0.0
 11
185.9001601511225
 21
16.14902808999054
 31
0.0
 11
185.9224183822213
 21
16.14429889221395
 31
0.0
 11
185.9754957025339
 21
16.13302157443899
 31
0.0
 11
186.0388460525844
 21
16.11956154999792
 31
0.0
 11
186.091923372897
 21
16.10828423222296
 31
0.0
 11
186.1141816039958
 21
16.10355503444637
 31
0.0
 11
186.096409715746
 21
16.08186250841009
 31
0.0
 11
186.060612299807
 21
16.07418628445366
 31
0.0
 11
186.0281953301479
 21
15.92532288171312
 31
0.0
 11
185.9857704961609
 21
15.75844135397704
 31
0.0
  0
SPLINE
  5
B1
102
{ACAD_REACTORS
330
CF
102
}
330
48
100
AcDbEntity
  8
_U_30EC_U_30A4_U_30E4_U_30FC_1
  6
Continuous
 62
     2
100
AcDbSpline
210
0.0
220
0.0
230
1.0
 70
     8
 71
     3
 72
    70
 73
    66
 74
    64
 42
0.000000001
 43
0.0000000001
 44
0.00000001
 40
0.0
 40
0.0
 40
0.0
 40
0.0
 40
0.0241731073021188
 40
0.0846058988987013
 40
0.1631685280352715
 40
0.2417311571788903
 40
0.3021639488291614
 40
0.3263370654894688
 40
0.3533118254248028
 40
0.4228783438921294
 40
0.5179999095312621
 40
0.6216398239465285
 40
0.716761389149896
 40
0.7863279069649117
 40
0.813302679176109
 40
0.8372943998771211
 40
0.8945054261372406
 40
0.9627895541962459
 40
1.020000580349056
 40
1.043992300975182
 40
1.071934345522955
 40
1.113121768772888
 40
1.145225199332213
 40
1.225483775412751
 40
1.329819923771463
 40
1.434156071994357
 40
1.514414647795778
 40
1.546518078208386
 40
1.578974764260131
 40
1.662678849314126
 40
1.777131373668347
 40
1.901833377474709
 40
2.016285900500499
 40
2.099989982527809
 40
2.132446666570168
 40
2.158782354485892
 40
2.21672086790768
 40
2.274659381334102
 40
2.300995069256038
 40
2.33345175406601
 40
2.417155836543662
 40
2.531608358985073
 40
2.65631036228354
 40
2.770762886388672
 40
2.854466971339809
 40
2.886923657363615
 40
2.913597976833048
 40
2.982389642874853
 40
3.076451716946718
 40
3.17893726045833
 40
3.272999334739735
 40
3.341791001058956
 40
3.368465320663269
 40
3.39697608073849
 40
3.472140811845726
 40
3.578408190308416
 40
3.700226892455852
 40
3.822045594634069
 40
3.928312973256176
 40
4.003477705314573
 40
4.031988456866639
 40
4.058324144797437
 40
4.116262658236595
 40
4.174201171400389
 40
4.200536849608321
 40
4.200536849608321
 40
4.200536849608321
 40
4.200536849608321
 10
185.9857704961609
 20
15.75844135397704
 30
0.0
 10
185.9938259544679
 20
15.75844359811686
 30
0.0
 10
186.0220200663241
 20
15.75845146032796
 30
0.0
 10
186.0765534803672
 20
15.7583075482837
 30
0.0
 10
186.1482891808603
 20
15.75909120499897
 30
0.0
 10
186.2236240137062
 20
15.75627570463809
 30
0.0
 10
186.2713052366438
 20
15.76298403400956
 30
0.0
 10
186.3195071245615
 20
15.7519756369243
 30
0.0
 10
186.3062571799873
 20
15.80546402997032
 30
0.0
 10
186.3151093964537
 20
15.8604958354309
 30
0.0
 10
186.3108698036285
 20
15.95419908726108
 30
0.0
 10
186.3133483481278
 20
16.04959482218532
 30
0.0
 10
186.309093870606
 20
16.14356821983387
 30
0.0
 10
186.3179818665846
 20
16.19795062438013
 30
0.0
 10
186.3046977409944
 20
16.25233997691461
 30
0.0
 10
186.3514119277107
 20
16.23842216335358
 30
0.0
 10
186.3943254545736
 20
16.24103877374043
 30
0.0
 10
186.4605443456684
 20
16.23648422450755
 30
0.0
 10
186.5013342271798
 20
16.22778162134162
 30
0.0
 10
186.5525145690819
 20
16.23531799890194
 30
0.0
 10
186.5253720487199
 20
16.19349970223292
 30
0.0
 10
186.4803096055707
 20
16.20284992072592
 30
0.0
 10
186.4942065045051
 20
16.13841207371838
 30
0.0
 10
186.4858414431654
 20
16.07378219627398
 30
0.0
 10
186.4903632178398
 20
15.97529141193887
 30
0.0
 10
186.4854741311167
 20
15.87595932842569
 30
0.0
 10
186.4950258992081
 20
15.81293115552968
 30
0.0
 10
186.47997614552
 20
15.74964011499789
 30
0.0
 10
186.5449159457208
 20
15.76515072944267
 30
0.0
 10
186.6116246399496
 20
15.75499387697811
 30
0.0
 10
186.7241435470827
 20
15.75988800099366
 30
0.0
 10
186.8390235448953
 20
15.75691204732782
 30
0.0
 10
186.9519871999746
 20
15.7622166418499
 30
0.0
 10
187.0176267597676
 20
15.75107306472088
 30
0.0
 10
187.0816276691052
 20
15.76744532319856
 30
0.0
 10
187.0703142889188
 20
15.71761689905273
 30
0.0
 10
187.0775339871508
 20
15.67416715212121
 30
0.0
 10
187.0703142611268
 20
15.63071745587443
 30
0.0
 10
187.0816277175992
 20
15.58088895196875
 30
0.0
 10
187.0176263598971
 20
15.59726166091361
 30
0.0
 10
186.9519921240458
 20
15.58611271661587
 30
0.0
 10
186.838997431733
 20
15.59144857206853
 30
0.0
 10
186.7242456548642
 20
15.5883434566382
 30
0.0
 10
186.6113183686861
 20
15.59364894682588
 30
0.0
 10
186.5455220903584
 20
15.58257300019593
 30
0.0
 10
186.4816097975358
 20
15.59887597847617
 30
0.0
 10
186.4936015165125
 20
15.5442352439574
 30
0.0
 10
186.4862104613005
 20
15.48854295047841
 30
0.0
 10
186.4892684841983
 20
15.39649689140569
 30
0.0
 10
186.4893422785682
 20
15.301791098731
 30
0.0
 10
186.486031357836
 20
15.20952782902264
 30
0.0
 10
186.4939505989904
 20
15.15435768736139
 30
0.0
 10
186.4815076611617
 20
15.10058169100135
 30
0.0
 10
186.5389116551632
 20
15.1145376886278
 30
0.0
 10
186.5994708140382
 20
15.10511457884225
 30
0.0
 10
186.7048680855081
 20
15.10942885928704
 30
0.0
 10
186.8204294070622
 20
15.1083550461203
 30
0.0
 10
186.9359688877797
 20
15.10725965900994
 30
0.0
 10
187.0414181130841
 20
15.11162525770632
 30
0.0
 10
187.1018680471804
 20
15.10209426030669
 30
0.0
 10
187.159283773911
 20
15.11617289606379
 30
0.0
 10
187.1477773876708
 20
15.06707153265681
 30
0.0
 10
187.1537566781749
 20
15.02564658018649
 30
0.0
 10
187.1520311050801
 20
14.97651677966695
 30
0.0
 10
187.1521500122971
 20
14.94854428447608
 30
0.0
 10
187.1521871691833
 20
14.9398028819595
 30
0.0
 11
185.9857704961609
 21
15.75844135397704
 31
0.0
 11
186.0099436128281
 21
15.75844135397704
 31
0.0
 11
186.0703764044962
 21
15.75844135397704
 31
0.0
 11
186.1489390336648
 21
15.75844135397704
 31
0.0
 11
186.2275016628333
 21
15.75844135397704
 31
0.0
 11
186.2879344545013
 21
15.75844135397704
 31
0.0
 11
186.3121075711686
 21
15.75844135397704
 31
0.0
 11
186.3121075711686
 21
15.78541612620062
 31
0.0
 11
186.3121075711686
 21
15.85498264404038
 31
0.0
 11
186.3121075711686
 21
15.95010420924985
 31
0.0
 11
186.3121075711686
 21
16.05374412358255
 31
0.0
 11
186.3121075711686
 21
16.14886568879202
 31
0.0
 11
186.3121075711686
 21
16.21843220663178
 31
0.0
 11
186.3121075711686
 21
16.24540697885536
 31
0.0
 11
186.3360407604891
 21
16.243732131078
 31
0.0
 11
186.3931122119457
 21
16.23973826330121
 31
0.0
 11
186.461229750781
 21
16.23497138885795
 31
0.0
 11
186.5183012022376
 21
16.23097752108117
 31
0.0
 11
186.5422343915581
 21
16.22930267330381
 31
0.0
 11
186.5274972731229
 21
16.20556293372641
 31
0.0
 11
186.4886640249976
 21
16.19183767331312
 31
0.0
 11
186.4886640249976
 21
16.15973424225119
 31
0.0
 11
186.4886640249976
 21
16.07947566459636
 31
0.0
 11
186.4886640249976
 21
15.97513951364508
 31
0.0
 11
186.4886640249976
 21
15.8708033626938
 31
0.0
 11
186.4886640249976
 21
15.79054478503897
 31
0.0
 11
186.4886640249976
 21
15.75844135397704
 31
0.0
 11
186.5211207110824
 21
15.75844135397704
 31
0.0
 11
186.6048247962485
 21
15.75844135397704
 31
0.0
 11
186.7192773208634
 21
15.75844135397704
 31
0.0
 11
186.8439793252945
 21
15.75844135397704
 31
0.0
 11
186.9584318499094
 21
15.75844135397704
 31
0.0
 11
187.0421359350755
 21
15.75844135397704
 31
0.0
 11
187.0745926211603
 21
15.75844135397704
 31
0.0
 11
187.0745926211603
 21
15.7321056660496
 31
0.0
 11
187.0745926211603
 21
15.67416715260923
 31
0.0
 11
187.0745926211603
 21
15.61622863916887
 31
0.0
 11
187.0745926211603
 21
15.58989295124143
 31
0.0
 11
187.0421359350755
 21
15.58989295124143
 31
0.0
 11
186.9584318499094
 21
15.58989295124143
 31
0.0
 11
186.8439793252945
 21
15.58989295124143
 31
0.0
 11
186.7192773208634
 21
15.58989295124143
 31
0.0
 11
186.6048247962485
 21
15.58989295124143
 31
0.0
 11
186.5211207110824
 21
15.58989295124143
 31
0.0
 11
186.4886640249976
 21
15.58989295124143
 31
0.0
 11
186.4886640249976
 21
15.56321863152021
 31
0.0
 11
186.4886640249976
 21
15.49442696487074
 31
0.0
 11
186.4886640249976
 21
15.40036489006433
 31
0.0
 11
186.4886640249976
 21
15.29787934587226
 31
0.0
 11
186.4886640249976
 21
15.20381727106585
 31
0.0
 11
186.4886640249976
 21
15.13502560441638
 31
0.0
 11
186.4886640249976
 21
15.10835128469516
 31
0.0
 11
186.5171747850993
 21
15.10835128469516
 31
0.0
 11
186.5923395162766
 21
15.10835128469516
 31
0.0
 11
186.6986068948376
 21
15.10835128469516
 31
0.0
 11
186.8204255970904
 21
15.10835128469516
 31
0.0
 11
186.9422442993433
 21
15.10835128469516
 31
0.0
 11
187.0485116779043
 21
15.10835128469516
 31
0.0
 11
187.1236764090816
 21
15.10835128469516
 31
0.0
 11
187.1521871691833
 21
15.10835128469516
 31
0.0
 11
187.1521871691833
 21
15.08201559676771
 31
0.0
 11
187.1521871691833
 21
15.02407708332733
 31
0.0
 11
187.1521871691833
 21
14.96613856988695
 31
0.0
 11
187.1521871691833
 21
14.9398028819595
 31
0.0
  0
SPLINE
  5
B2
102
{ACAD_REACTORS
330
CF
102
}
330
48
100
AcDbEntity
  8
_U_30EC_U_30A4_U_30E4_U_30FC_1
  6
Continuous
 62
     2
100
AcDbSpline
210
0.0
220
0.0
230
1.0
 70
     8
 71
     3
 72
    62
 73
    58
 74
    56
 42
0.000000001
 43
0.0000000001
 44
0.00000001
 40
0.0
 40
0.0
 40
0.0
 40
0.0
 40
0.0598250028308769
 40
0.2024846486897616
 40
0.3727558389221315
 40
0.5154154847936923
 40
0.5752404975786192
 40
0.9332326775488159
 40
1.290451762839584
 40
1.602077253145938
 40
1.69993163411213
 40
1.799359756425084
 40
2.270120149657107
 40
2.804661928461542
 40
2.882342287383254
 40
3.076543185719105
 40
3.329004354835572
 40
3.581465524568399
 40
3.775666424543687
 40
3.853346784558306
 40
3.899120679595081
 40
3.984129341792107
 40
4.029903236817484
 40
4.105797496059639
 40
4.295533144152598
 40
4.542189486611834
 40
4.788845828875782
 40
4.978581476410163
 40
5.054475735244406
 40
5.6217346643394
 40
6.130867242037457
 40
6.225249780948672
 40
6.318913039727394
 40
6.663579954559031
 40
7.047498900224898
 40
7.435230791575848
 40
7.49894390666826
 40
7.650875181210282
 40
7.83221250900185
 40
7.984143783697236
 40
8.04785689890339
 40
8.091554632732894
 40
8.172707566964545
 40
8.216405300768267
 40
8.289021782161152
 40
8.462184160757497
 40
8.668861838005663
 40
8.842024215264226
 40
8.914640695475422
 40
8.989881580861626
 40
9.155411528827534
 40
9.32094147774432
 40
9.39618235248757
 40
9.454709011144088
 40
9.58346766017108
 40
9.712226309013301
 40
9.770752957989783
 40
9.770752957989783
 40
9.770752957989783
 40
9.770752957989783
 10
187.1521871691833
 20
14.9398028819595
 30
0.0
 10
187.1322348171623
 20
14.93980875568671
 30
0.0
 10
187.0647037716465
 20
14.93982863806157
 30
0.0
 10
186.9410612161788
 20
14.93949362520326
 30
0.0
 10
186.7863180150056
 20
14.94107673750512
 30
0.0
 10
186.6697349482479
 20
14.93686078860494
 30
0.0
 10
186.4550942634239
 20
14.95215205331627
 30
0.0
 10
186.8518948407228
 20
14.5919872128619
 30
0.0
 10
186.8945656069267
 20
14.37510503397166
 30
0.0
 10
187.3189162146609
 20
14.19325062511453
 30
0.0
 10
187.1439821496074
 20
14.08985196568067
 30
0.0
 10
187.0194523925082
 20
13.8783152321273
 30
0.0
 10
186.7666277235942
 20
14.34806081001557
 30
0.0
 10
186.4797602893628
 20
14.99511516984523
 30
0.0
 10
186.4906335926659
 20
14.68782672154694
 30
0.0
 10
186.488289277796
 20
14.5228861697178
 30
0.0
 10
186.4861096126411
 20
14.28879670711694
 30
0.0
 10
186.4980774396346
 20
14.04498072421784
 30
0.0
 10
186.4687984740631
 20
13.89855796860985
 30
0.0
 10
186.511452262547
 20
13.75113490174537
 30
0.0
 10
186.4239814005639
 20
13.76685797306221
 30
0.0
 10
186.3768527606744
 20
13.76694303543455
 30
0.0
 10
186.2898973207712
 20
13.75109425482909
 30
0.0
 10
186.3313474021722
 20
13.89527771422762
 30
0.0
 10
186.3029875004284
 20
14.03855052698455
 30
0.0
 10
186.3145973775298
 20
14.27674947365264
 30
0.0
 10
186.3124175648271
 20
14.50517235240346
 30
0.0
 10
186.3103111127992
 20
14.66705729375993
 30
0.0
 10
186.3208035438323
 20
14.98153709333751
 30
0.0
 10
186.0128963252893
 20
14.29229470872433
 30
0.0
 10
185.7055258267455
 20
13.81476750243045
 30
0.0
 10
185.5851367066273
 20
14.03741112637429
 30
0.0
 10
185.407460791072
 20
14.15011034955565
 30
0.0
 10
185.8853326362894
 20
14.32548143465461
 30
0.0
 10
185.9353959057207
 20
14.5609192925203
 30
0.0
 10
186.3583799621717
 20
14.95322989344606
 30
0.0
 10
186.127675427354
 20
14.93655307029066
 30
0.0
 10
186.004968585934
 20
14.94269518948771
 30
0.0
 10
185.8325483095661
 20
14.93312822699574
 30
0.0
 10
185.7213224694448
 20
14.95448818489666
 30
0.0
 10
185.6025779627447
 20
14.92136265357419
 30
0.0
 10
185.6183169706685
 20
15.00203900606883
 30
0.0
 10
185.6178550933761
 20
15.04645414290853
 30
0.0
 10
185.602788188993
 20
15.12967081778532
 30
0.0
 10
185.7372380935442
 20
15.09062651983882
 30
0.0
 10
185.8619755545745
 20
15.11739729328421
 30
0.0
 10
186.0628755237279
 20
15.10063949044051
 30
0.0
 10
186.1921540949352
 20
15.12204225913002
 30
0.0
 10
186.3328419928294
 20
15.0886877885342
 30
0.0
 10
186.2980927452614
 20
15.22651875785067
 30
0.0
 10
186.3222185666712
 20
15.3496325734948
 30
0.0
 10
186.2967086182392
 20
15.47024055670334
 30
0.0
 10
186.3333251146684
 20
15.60539865141493
 30
0.0
 10
186.2211417027768
 20
15.58094545781889
 30
0.0
 10
186.1280356457135
 20
15.59307749842021
 30
0.0
 10
186.0191547579819
 20
15.58957630069994
 30
0.0
 10
185.9569697640963
 20
15.58981755951601
 30
0.0
 10
185.9375369557245
 20
15.58989295124143
 30
0.0
 11
187.1521871691833
 21
14.9398028819595
 31
0.0
 11
187.0923621563982
 21
14.9398028819595
 31
0.0
 11
186.9497025105259
 21
14.9398028819595
 31
0.0
 11
186.7794313202913
 21
14.9398028819595
 31
0.0
 11
186.636771674419
 21
14.9398028819595
 31
0.0
 11
186.5769466616339
 21
14.9398028819595
 31
0.0
 11
186.7679960754841
 21
14.6370512796689
 31
0.0
 11
186.9941272785629
 21
14.36051890576684
 31
0.0
 11
187.224452617337
 21
14.15061253493457
 31
0.0
 11
187.1521596330703
 21
14.08466403668716
 31
0.0
 11
187.0879364402642
 21
14.0087605905256
 31
0.0
 11
186.7732818215557
 21
14.35891458349363
 31
0.0
 11
186.4886640249976
 21
14.81138295143602
 31
0.0
 11
186.4886640249976
 21
14.73370259137314
 31
0.0
 11
186.4886640249976
 21
14.53950169121594
 31
0.0
 11
186.4886640249976
 21
14.28704052101157
 31
0.0
 11
186.4886640249976
 21
14.03457935080721
 31
0.0
 11
186.4886640249976
 21
13.84037845065
 31
0.0
 11
186.4886640249976
 21
13.76269809058712
 31
0.0
 11
186.4428901295605
 21
13.76269809058712
 31
0.0
 11
186.3578814666058
 21
13.76269809058712
 31
0.0
 11
186.3121075711686
 21
13.76269809058712
 31
0.0
 11
186.3121075711686
 21
13.8385923498274
 31
0.0
 11
186.3121075711686
 21
14.02832799792811
 31
0.0
 11
186.3121075711686
 21
14.27498434045903
 31
0.0
 11
186.3121075711686
 21
14.52164068298995
 31
0.0
 11
186.3121075711686
 21
14.71137633109065
 31
0.0
 11
186.3121075711686
 21
14.78727059033094
 31
0.0
 11
185.9987626399266
 21
14.31440946197693
 31
0.0
 11
185.6352328662147
 21
13.95795177109381
 31
0.0
 11
185.5773927461627
 21
14.03253450545022
 31
0.0
 11
185.509485230534
 21
14.09704322939243
 31
0.0
 11
185.7750721898319
 21
14.31672219795889
 31
0.0
 11
186.0233764972061
 21
14.60953395971697
 31
0.0
 11
186.226498280526
 21
14.9398028819595
 31
0.0
 11
186.1627851652721
 21
14.9398028819595
 31
0.0
 11
186.0108538904358
 21
14.9398028819595
 31
0.0
 11
185.8295165624054
 21
14.9398028819595
 31
0.0
 11
185.6775852875692
 21
14.9398028819595
 31
0.0
 11
185.6138721723153
 21
14.9398028819595
 31
0.0
 11
185.6138721723153
 21
14.98350061600208
 31
0.0
 11
185.6138721723153
 21
15.06465355065258
 31
0.0
 11
185.6138721723153
 21
15.10835128469516
 31
0.0
 11
185.686488653796
 21
15.10835128469516
 31
0.0
 11
185.8596510327117
 21
15.10835128469516
 31
0.0
 11
186.0663287107723
 21
15.10835128469516
 31
0.0
 11
186.2394910896879
 21
15.10835128469516
 31
0.0
 11
186.3121075711686
 21
15.10835128469516
 31
0.0
 11
186.3121075711686
 21
15.18359217009301
 31
0.0
 11
186.3121075711686
 21
15.34912211796829
 31
0.0
 11
186.3121075711686
 21
15.51465206584358
 31
0.0
 11
186.3121075711686
 21
15.58989295124143
 31
0.0
 11
186.2535809125055
 21
15.58989295124143
 31
0.0
 11
186.1248222634466
 21
15.58989295124143
 31
0.0
 11
185.9960636143877
 21
15.58989295124143
 31
0.0
 11
185.9375369557245
 21
15.58989295124143
 31
0.0
  0
SPLINE
  5
B3
102
{ACAD_REACTORS
330
D0
102
}
330
48
100
AcDbEntity
  8
_U_30EC_U_30A4_U_30E4_U_30FC_1
  6
Continuous
 62
     2
100
AcDbSpline
210
0.0
220
0.0
230
1.0
 70
    11
 71
     3
 72
   124
 73
   120
 74
   118
 42
0.000000001
 43
0.0000000001
 44
0.00000001
 40
0.0
 40
0.0
 40
0.0
 40
0.0
 40
0.027818722962451
 40
0.1011590162384554
 40
0.2048470170590523
 40
0.3237088716559814
 40
0.4425707262522852
 40
0.5462587270700684
 40
0.6195990203312934
 40
0.6474177522579797
 40
0.6750060736116361
 40
0.7357003855243895
 40
0.7963946998055629
 40
0.8239830245572921
 40
0.8540933811104015
 40
0.9373396629410695
 40
1.06309468734335
 40
1.220731268638217
 40
1.399622220914891
 40
1.589140358637933
 40
1.778658496424071
 40
1.957549448940738
 40
2.115186030873359
 40
2.240941056914663
 40
2.324187341760761
 40
2.354297700109611
 40
2.381886024672117
 40
2.442580338710706
 40
2.50327465275073
 40
2.530862977314837
 40
2.56098394927879
 40
2.640393784453164
 40
2.752662861759359
 40
2.881361560118347
 40
3.010060258455394
 40
3.12232933570557
 40
3.201739170818183
 40
3.231860142753544
 40
3.264298024030601
 40
3.352343701778472
 40
3.482095226868997
 40
3.639650650173258
 40
3.811108022565713
 40
3.982565394928222
 40
4.140120818152803
 40
4.269872343141514
 40
4.357918020802576
 40
4.390355902044205
 40
4.423256253992803
 40
4.508104530073267
 40
4.624121560637064
 40
4.750528176031763
 40
4.866545206602239
 40
4.951393482692224
 40
4.984293834645597
 40
5.011450833242511
 40
5.071196230152293
 40
5.130941627057367
 40
5.158098625649031
 40
5.190998977601665
 40
5.275847253689547
 40
5.391864284256981
 40
5.518270899648498
 40
5.634287930209537
 40
5.719136206288211
 40
5.752036558236099
 40
5.782130946283124
 40
5.862783906229299
 40
5.979550131775166
 40
6.117984316640572
 40
6.263641154588117
 40
6.402075339414323
 40
6.518841564908118
 40
6.599494524815699
 40
6.629588912848937
 40
6.654403028226541
 40
6.713575149488308
 40
6.784199939329683
 40
6.843372060493814
 40
6.86818617580306
 40
6.896246243202149
 40
6.939586233758625
 40
6.967846564565253
 40
7.043584251090191
 40
7.153234334452049
 40
7.283231855734799
 40
7.420011856035833
 40
7.550009376580185
 40
7.659659458835584
 40
7.735397144417577
 40
7.763657474851749
 40
7.796409728011378
 40
7.880876065096681
 40
7.996370852466066
 40
8.122208446418961
 40
8.237703224799555
 40
8.322169562011249
 40
8.354921815206263
 40
8.382078813308043
 40
8.441824209207345
 40
8.501569605240492
 40
8.528726603486069
 40
8.56147885669609
 40
8.64594519387814
 40
8.76143998086568
 40
8.88727758076485
 40
9.002772362001343
 40
9.087238696661563
 40
9.119990949236017
 40
9.152428830613717
 40
9.240474508638933
 40
9.370226034149884
 40
9.52778145798477
 40
9.699238830981757
 40
9.87069620397895
 40
10.02825162781437
 40
10.15800315332599
 40
10.24604883135154
 40
10.27848670378557
 40
10.27848670378557
 40
10.27848670378557
 40
10.27848670378557
 10
195.3821827564382
 20
14.01410517385757
 30
0.0
 10
195.3914554737522
 20
14.01410498511274
 30
0.0
 10
195.4251744536859
 20
14.01410430876714
 30
0.0
 10
195.4934706812464
 20
14.01411807243304
 30
0.0
 10
195.592014171158
 20
14.01403224219546
 30
0.0
 10
195.7062066464811
 20
14.0144175561225
 30
0.0
 10
195.8185894417071
 20
14.01300835897545
 30
0.0
 10
195.9214376600117
 20
14.01719117422243
 30
0.0
 10
195.9806839874849
 20
14.00823089251983
 30
0.0
 10
196.0371265937032
 20
14.02164434526061
 30
0.0
 10
196.0246255586955
 20
13.97087198613361
 30
0.0
 10
196.0329549635704
 20
13.92589320939067
 30
0.0
 10
196.0248170841119
 20
13.88056752990488
 30
0.0
 10
196.0370529214457
 20
13.82931932408466
 30
0.0
 10
195.9747773490333
 20
13.84447955365276
 30
0.0
 10
195.9060513026868
 20
13.83359750710743
 30
0.0
 10
195.7782756749591
 20
13.83911304747972
 30
0.0
 10
195.6262984511644
 20
13.83700851253698
 30
0.0
 10
195.4502695972521
 20
13.83771002588473
 30
0.0
 10
195.2644431934287
 20
13.83745237531291
 30
0.0
 10
195.0786167437174
 20
13.83771005144603
 30
0.0
 10
194.9025880142167
 20
13.83700841847731
 30
0.0
 10
194.7506104154193
 20
13.83911332229988
 30
0.0
 10
194.6228357664554
 20
13.8335968076764
 30
0.0
 10
194.5541077836579
 20
13.84448077125942
 30
0.0
 10
194.4918349042882
 20
13.82931786684209
 30
0.0
 10
194.5040616290017
 20
13.88057510805171
 30
0.0
 10
194.4960004462596
 20
13.92582473272425
 30
0.0
 10
194.5040675809891
 20
13.97106357955323
 30
0.0
 10
194.4918238487082
 20
14.02234176909958
 30
0.0
 10
194.5525017120697
 20
14.00749577363135
 30
0.0
 10
194.6162810745735
 20
14.01756448170735
 30
0.0
 10
194.7277314353502
 20
14.01294644211999
 30
0.0
 10
194.8497533443822
 20
14.01413328905469
 30
0.0
 10
194.9719538137822
 20
14.01515863900635
 30
0.0
 10
195.082979428739
 20
14.01092475623402
 30
0.0
 10
195.1476517413957
 20
14.02018584521739
 30
0.0
 10
195.20911628105
 20
14.00604423049682
 30
0.0
 10
195.1930065601336
 20
14.07235527884517
 30
0.0
 10
195.2042980327357
 20
14.14447790121976
 30
0.0
 10
195.1987400822559
 20
14.27513760888286
 30
0.0
 10
195.2008035061689
 20
14.42607323708242
 30
0.0
 10
195.2000167127293
 20
14.59335873107886
 30
0.0
 10
195.2007845215626
 20
14.76061110332303
 30
0.0
 10
195.1988038785627
 20
14.91163289269914
 30
0.0
 10
195.2041306156619
 20
15.04206069552996
 30
0.0
 10
195.1933101388423
 20
15.114654426059
 30
0.0
 10
195.2090326429874
 20
15.181504694368
 30
0.0
 10
195.1432708132489
 20
15.16580512490825
 30
0.0
 10
195.0756367830763
 20
15.17609243083997
 30
0.0
 10
194.9615885293809
 20
15.17113786847122
 30
0.0
 10
194.8451242674901
 20
15.17414128030476
 30
0.0
 10
194.7306554121477
 20
15.16880303143389
 30
0.0
 10
194.6640324657811
 20
15.18001268074826
 30
0.0
 10
194.5990769715185
 20
15.16349132665013
 30
0.0
 10
194.6107989758707
 20
15.2147372047706
 30
0.0
 10
194.603283018912
 20
15.25950333784091
 30
0.0
 10
194.6107989878835
 20
15.30426944897961
 30
0.0
 10
194.5990769505346
 20
15.35551536129739
 30
0.0
 10
194.6640326339199
 20
15.33899381766815
 30
0.0
 10
194.730653333982
 20
15.35020571373943
 30
0.0
 10
194.8451352858062
 20
15.34485436710664
 30
0.0
 10
194.9615454436962
 20
15.34791188771117
 30
0.0
 10
195.0757660174639
 20
15.34278499010708
 30
0.0
 10
195.1430150439225
 20
15.35345733355599
 30
0.0
 10
195.2083325941437
 20
15.33742082669077
 30
0.0
 10
195.1941391448551
 20
15.39949685750054
 30
0.0
 10
195.2036059462994
 20
15.46586761628762
 30
0.0
 10
195.1990269004084
 20
15.58239972741966
 30
0.0
 10
195.2007696555947
 20
15.71426685022376
 30
0.0
 10
195.199755149539
 20
15.85615960150273
 30
0.0
 10
195.201719134437
 20
15.9876905070258
 30
0.0
 10
195.1964668553849
 20
16.10524577283002
 30
0.0
 10
195.2073408763473
 20
16.16947789001584
 30
0.0
 10
195.1919536641852
 20
16.23108802545048
 30
0.0
 10
195.2407591537799
 20
16.21702407382111
 30
0.0
 10
195.2853995564725
 20
16.21954742075313
 30
0.0
 10
195.3538643946741
 20
16.21512797401709
 30
0.0
 10
195.3959106169103
 20
16.20613025544034
 30
0.0
 10
195.4487544758775
 20
16.21411714866509
 30
0.0
 10
195.4207035002013
 20
16.17113917611671
 30
0.0
 10
195.3749142248593
 20
16.1825955204384
 30
0.0
 10
195.3869539073263
 20
16.12173520005137
 30
0.0
 10
195.3796086070641
 20
16.05769299468773
 30
0.0
 10
195.383119582616
 20
15.94909368863911
 30
0.0
 10
195.3819806760173
 20
15.82494319144753
 30
0.0
 10
195.3819174780261
 20
15.69189719829878
 30
0.0
 10
195.3832872966866
 20
15.56797381249555
 30
0.0
 10
195.3791638801314
 20
15.45868337849339
 30
0.0
 10
195.3877763103562
 20
15.3960858009417
 30
0.0
 10
195.3746757454401
 20
15.33740133296367
 30
0.0
 10
195.4393884328196
 20
15.35362113810901
 30
0.0
 10
195.5060405953155
 20
15.34270260383312
 30
0.0
 10
195.6198779541102
 20
15.34793740173756
 30
0.0
 10
195.7357259122095
 20
15.34485547516913
 30
0.0
 10
195.8496924263279
 20
15.35018259812512
 30
0.0
 10
195.9160341018098
 20
15.33904208166543
 30
0.0
 10
195.9807188525479
 20
15.35546979593178
 30
0.0
 10
195.9689820772721
 20
15.30425925210051
 30
0.0
 10
195.9765168063041
 20
15.25950334121001
 30
0.0
 10
195.9689820992256
 20
15.21474739010027
 30
0.0
 10
195.9807188140736
 20
15.16353690871042
 30
0.0
 10
195.9160344075251
 20
15.1799642779422
 30
0.0
 10
195.8496886430824
 20
15.16882784447271
 30
0.0
 10
195.735745948701
 20
15.1741311589312
 30
0.0
 10
195.6197995623054
 20
15.17114764593545
 30
0.0
 10
195.5062756882121
 20
15.17606892268394
 30
0.0
 10
195.4389231318802
 20
15.1658508751352
 30
0.0
 10
195.3734285122494
 20
15.18145996138816
 30
0.0
 10
195.3891713619217
 20
15.11463851827412
 30
0.0
 10
195.3783275998211
 20
15.04207057815879
 30
0.0
 10
195.3836581629791
 20
14.91162247614418
 30
0.0
 10
195.3817136151854
 20
14.76064558185226
 30
0.0
 10
195.3823133683212
 20
14.59322243934158
 30
0.0
 10
195.3821506559604
 20
14.42656176118372
 30
0.0
 10
195.3821895488134
 20
14.27360142921636
 30
0.0
 10
195.3821816413098
 20
14.14849178985705
 30
0.0
 10
195.3821828382743
 20
14.0650789099142
 30
0.0
 10
195.3821827716207
 20
14.02491778281976
 30
0.0
 10
195.3821827564382
 20
14.01410517385757
 30
0.0
 11
195.3821827564382
 21
14.01410517385757
 31
0.0
 11
195.4100014883674
 21
14.01410517385757
 31
0.0
 11
195.4833417816352
 21
14.01410517385757
 31
0.0
 11
195.5870297824621
 21
14.01410517385757
 31
0.0
 11
195.7058916370686
 21
14.01410517385757
 31
0.0
 11
195.8247534916751
 21
14.01410517385757
 31
0.0
 11
195.928441492502
 21
14.01410517385757
 31
0.0
 11
196.0017817857698
 21
14.01410517385757
 31
0.0
 11
196.029600517699
 21
14.01410517385757
 31
0.0
 11
196.029600517699
 21
13.9865168492117
 31
0.0
 11
196.029600517699
 21
13.92582253499077
 31
0.0
 11
196.029600517699
 21
13.86512822076984
 31
0.0
 11
196.029600517699
 21
13.83753989612397
 31
0.0
 11
195.9994901593494
 21
13.83753989612397
 31
0.0
 11
195.9162438745004
 21
13.83753989612397
 31
0.0
 11
195.7904888484521
 21
13.83753989612397
 31
0.0
 11
195.6328522665041
 21
13.83753989612397
 31
0.0
 11
195.4539613139564
 21
13.83753989612397
 31
0.0
 11
195.2644431761088
 21
13.83753989612397
 31
0.0
 11
195.0749250382612
 21
13.83753989612397
 31
0.0
 11
194.8960340857135
 21
13.83753989612397
 31
0.0
 11
194.7383975037655
 21
13.83753989612397
 31
0.0
 11
194.6126424777171
 21
13.83753989612397
 31
0.0
 11
194.5293961928682
 21
13.83753989612397
 31
0.0
 11
194.4992858345186
 21
13.83753989612397
 31
0.0
 11
194.4992858345186
 21
13.86512822076984
 31
0.0
 11
194.4992858345186
 21
13.92582253499077
 31
0.0
 11
194.4992858345186
 21
13.9865168492117
 31
0.0
 11
194.4992858345186
 21
14.01410517385757
 31
0.0
 11
194.5294068064946
 21
14.01410517385757
 31
0.0
 11
194.6088166417039
 21
14.01410517385757
 31
0.0
 11
194.7210857190689
 21
14.01410517385757
 31
0.0
 11
194.8497844175116
 21
14.01410517385757
 31
0.0
 11
194.9784831159544
 21
14.01410517385757
 31
0.0
 11
195.0907521933194
 21
14.01410517385757
 31
0.0
 11
195.1701620285288
 21
14.01410517385757
 31
0.0
 11
195.2002830005047
 21
14.01410517385757
 31
0.0
 11
195.2002830005047
 21
14.04654305523835
 31
0.0
 11
195.2002830005047
 21
14.1345887332719
 31
0.0
 11
195.2002830005047
 21
14.26434025879503
 31
0.0
 11
195.2002830005047
 21
14.42189568264454
 31
0.0
 11
195.2002830005047
 21
14.59335305565724
 31
0.0
 11
195.2002830005047
 21
14.76481042866994
 31
0.0
 11
195.2002830005047
 21
14.92236585251945
 31
0.0
 11
195.2002830005047
 21
15.05211737804258
 31
0.0
 11
195.2002830005047
 21
15.14016305607613
 31
0.0
 11
195.2002830005047
 21
15.17260093745691
 31
0.0
 11
195.1673826485527
 21
15.17260093745691
 31
0.0
 11
195.0825343724661
 21
15.17260093745691
 31
0.0
 11
194.9665173418987
 21
15.17260093745691
 31
0.0
 11
194.8401107265043
 21
15.17260093745691
 31
0.0
 11
194.7240936959369
 21
15.17260093745691
 31
0.0
 11
194.6392454198502
 21
15.17260093745691
 31
0.0
 11
194.6063450678983
 21
15.17260093745691
 31
0.0
 11
194.6063450678983
 21
15.19975793614803
 31
0.0
 11
194.6063450678983
 21
15.2595033332685
 31
0.0
 11
194.6063450678983
 21
15.31924873038898
 31
0.0
 11
194.6063450678983
 21
15.3464057290801
 31
0.0
 11
194.6392454198502
 21
15.3464057290801
 31
0.0
 11
194.7240936959369
 21
15.3464057290801
 31
0.0
 11
194.8401107265043
 21
15.3464057290801
 31
0.0
 11
194.9665173418987
 21
15.3464057290801
 31
0.0
 11
195.0825343724661
 21
15.3464057290801
 31
0.0
 11
195.1673826485527
 21
15.3464057290801
 31
0.0
 11
195.2002830005047
 21
15.3464057290801
 31
0.0
 11
195.2002830005047
 21
15.3765001173137
 31
0.0
 11
195.2002830005047
 21
15.45715307777974
 31
0.0
 11
195.2002830005047
 21
15.57391930412609
 31
0.0
 11
195.2002830005047
 21
15.71235349000063
 31
0.0
 11
195.2002830005047
 21
15.85801032905124
 31
0.0
 11
195.2002830005047
 21
15.99644451492578
 31
0.0
 11
195.2002830005047
 21
16.11321074127214
 31
0.0
 11
195.2002830005047
 21
16.19386370173817
 31
0.0
 11
195.2002830005047
 21
16.22395808997177
 31
0.0
 11
195.2250405288617
 21
16.22228324219441
 31
0.0
 11
195.2840777118668
 21
16.21828937441765
 31
0.0
 11
195.3545414464214
 21
16.21352249997441
 31
0.0
 11
195.4135786294265
 21
16.20952863219764
 31
0.0
 11
195.4383361577835
 21
16.20785378442028
 31
0.0
 11
195.423306722403
 21
16.18415814206509
 31
0.0
 11
195.3821827564382
 21
16.17047697887404
 31
0.0
 11
195.3821827564382
 21
16.14221664794832
 31
0.0
 11
195.3821827564382
 21
16.0664789610674
 31
0.0
 11
195.3821827564382
 21
15.95682887707561
 31
0.0
 11
195.3821827564382
 21
15.82683135481731
 31
0.0
 11
195.3821827564382
 21
15.69005135313683
 31
0.0
 11
195.3821827564382
 21
15.56005383087853
 31
0.0
 11
195.3821827564382
 21
15.45040374688674
 31
0.0
 11
195.3821827564382
 21
15.37466606000582
 31
0.0
 11
195.3821827564382
 21
15.3464057290801
 31
0.0
 11
195.4149350096113
 21
15.3464057290801
 31
0.0
 11
195.4994013467421
 21
15.3464057290801
 31
0.0
 11
195.6148961342475
 21
15.3464057290801
 31
0.0
 11
195.7407337385444
 21
15.3464057290801
 31
0.0
 11
195.8562285260497
 21
15.3464057290801
 31
0.0
 11
195.9406948631805
 21
15.3464057290801
 31
0.0
 11
195.9734471163537
 21
15.3464057290801
 31
0.0
 11
195.9734471163537
 21
15.31924873038898
 31
0.0
 11
195.9734471163537
 21
15.2595033332685
 31
0.0
 11
195.9734471163537
 21
15.19975793614803
 31
0.0
 11
195.9734471163537
 21
15.17260093745691
 31
0.0
 11
195.9406948631805
 21
15.17260093745691
 31
0.0
 11
195.8562285260498
 21
15.17260093745691
 31
0.0
 11
195.7407337385444
 21
15.17260093745691
 31
0.0
 11
195.6148961342475
 21
15.17260093745691
 31
0.0
 11
195.4994013467421
 21
15.17260093745691
 31
0.0
 11
195.4149350096113
 21
15.17260093745691
 31
0.0
 11
195.3821827564382
 21
15.17260093745691
 31
0.0
 11
195.3821827564382
 21
15.14016305607613
 31
0.0
 11
195.3821827564382
 21
15.05211737804258
 31
0.0
 11
195.3821827564382
 21
14.92236585251945
 31
0.0
 11
195.3821827564382
 21
14.76481042866994
 31
0.0
 11
195.3821827564382
 21
14.59335305565724
 31
0.0
 11
195.3821827564382
 21
14.42189568264454
 31
0.0
 11
195.3821827564382
 21
14.26434025879503
 31
0.0
 11
195.3821827564382
 21
14.1345887332719
 31
0.0
 11
195.3821827564382
 21
14.04654305523835
 31
0.0
 11
195.3821827564382
 21
14.01410517385757
 31
0.0
  0
SPLINE
  5
B4
102
{ACAD_REACTORS
330
D1
102
}
330
48
100
AcDbEntity
  8
_U_30EC_U_30A4_U_30E4_U_30FC_1
  6
Continuous
 62
     2
100
AcDbSpline
210
0.0
220
0.0
230
1.0
 70
    11
 71
     3
 72
   131
 73
   127
 74
   125
 42
0.000000001
 43
0.0000000001
 44
0.00000001
 40
0.0
 40
0.0
 40
0.0
 40
0.0
 40
0.019557702982626
 40
0.0426490537461317
 40
0.2863607575856317
 40
0.5344948436188997
 40
0.7842238845573063
 40
0.8737315789467504
 40
0.980383281031302
 40
1.092842274517024
 40
1.199761146656782
 40
1.289788768186483
 40
1.351573580786173
 40
1.370727117561417
 40
1.416400936017816
 40
1.470914848355944
 40
1.516588666791751
 40
1.535742203552833
 40
1.634216592293138
 40
1.760283341174952
 40
1.897966686682016
 40
2.031216387368842
 40
2.049689751137835
 40
2.101115601646772
 40
2.179502577739889
 40
2.278859318314007
 40
2.393194462258665
 40
2.516516648383778
 40
2.642834515405907
 40
2.766156701983412
 40
2.880491846754527
 40
2.979848588358569
 40
3.058235565443747
 40
3.109661416668903
 40
3.128134780704078
 40
3.146783742386395
 40
3.191254343315256
 40
3.244332157315915
 40
3.288802758225819
 40
3.307451719895061
 40
3.327717853844673
 40
3.383747753580034
 40
3.468388665924426
 40
3.574487837698733
 40
3.694892515728835
 40
3.822449946851973
 40
3.950007377920363
 40
4.070412055800455
 40
4.17651122736801
 40
4.261152139501457
 40
4.317182039076648
 40
4.337448172964569
 40
4.620011002696196
 40
4.885096638397509
 40
4.945373043518311
 40
5.014107710488633
 40
5.070481727652026
 40
5.319246955636574
 40
5.584812164506092
 40
5.859000912056945
 40
6.133746937542125
 40
6.401732212968923
 40
6.420736683995514
 40
6.472845717451165
 40
6.550702743894092
 40
6.646951193874301
 40
6.754234497930625
 40
6.865196086587403
 40
6.972479390357861
 40
7.068727839772023
 40
7.146584865451032
 40
7.198693898189262
 40
7.217698368905403
 40
7.234950401630881
 40
7.276089864269927
 40
7.325191803516041
 40
7.36633126609043
 40
7.383583298769782
 40
7.402779163492159
 40
7.45338644325459
 40
7.524934666445592
 40
7.606953361405932
 40
7.688972056429083
 40
7.760520279784334
 40
7.811127559734576
 40
7.830323424546197
 40
7.847844055299827
 40
7.894799345666868
 40
7.962779392744556
 40
8.043374293560603
 40
8.12817414514951
 40
8.208769044817315
 40
8.276749090377015
 40
8.323704379669573
 40
8.341225010056307
 40
8.358497614800456
 40
8.401679126686632
 40
8.457815092185662
 40
8.513951057728066
 40
8.557132569707965
 40
8.574405174505037
 40
8.60234066861635
 40
8.643455660539892
 40
8.66322527196656
 40
8.715345156564208
 40
8.789031889628543
 40
8.873502045520272
 40
8.957972194323895
 40
9.031658925567786
 40
9.083778811234478
 40
9.10354842300294
 40
9.119550083123476
 40
9.160817522379778
 40
9.217244429110144
 40
9.27872449164463
 40
9.335151398295414
 40
9.37641883735771
 40
9.392420497300497
 40
9.401196302734716
 40
9.41749422938411
 40
9.426270027749382
 40
9.440875075477392
 40
9.475702496998597
 40
9.51727070986576
 40
9.552098131993956
 40
9.566703169884141
 40
9.566703169884141
 40
9.566703169884141
 40
9.566703169884141
 10
194.6170254148478
 20
15.67015871511026
 30
0.0
 10
194.613434509337
 20
15.66453690702158
 30
0.0
 10
194.6056039123623
 20
15.65227754419113
 30
0.0
 10
194.5129968974549
 20
15.61601916040966
 30
0.0
 10
194.4887622233245
 20
15.40148444212716
 30
0.0
 10
194.3858709845938
 20
15.22197284509706
 30
0.0
 10
194.1220492364304
 20
15.03615573798144
 30
0.0
 10
194.2845471569179
 20
14.95959336566081
 30
0.0
 10
194.3607225760837
 20
14.89856693195442
 30
0.0
 10
194.4492171072757
 20
14.83515804544758
 30
0.0
 10
194.538993023311
 20
14.7752563421956
 30
0.0
 10
194.5883817636046
 20
14.72102154849209
 30
0.0
 10
194.674570815738
 20
14.69286240541833
 30
0.0
 10
194.6411260674229
 20
14.65713309652815
 30
0.0
 10
194.6214671166309
 20
14.62550387991906
 30
0.0
 10
194.5919888217882
 20
14.58475872796068
 30
0.0
 10
194.568898944603
 20
14.55504663489645
 30
0.0
 10
194.5380205968356
 20
14.50211422668495
 30
0.0
 10
194.472919336574
 20
14.62740334938903
 30
0.0
 10
194.3796000122415
 20
14.68213900233934
 30
0.0
 10
194.2950636285139
 20
14.73916423939343
 30
0.0
 10
194.1722498125743
 20
14.89675287427523
 30
0.0
 10
194.1764450847301
 20
14.82035806766836
 30
0.0
 10
194.1751478652677
 20
14.77361280161296
 30
0.0
 10
194.1758126448076
 20
14.69584785812601
 30
0.0
 10
194.1755549986956
 20
14.59902068324423
 30
0.0
 10
194.1756431239921
 20
14.48650279078809
 30
0.0
 10
194.1756077302282
 20
14.36524085945699
 30
0.0
 10
194.1756511758278
 20
14.24086897858961
 30
0.0
 10
194.1755199942405
 20
14.11967683631335
 30
0.0
 10
194.1759477562047
 20
14.00691148919743
 30
0.0
 10
194.1746678202311
 20
13.91082913768744
 30
0.0
 10
194.1779759851044
 20
13.83113826468699
 30
0.0
 10
194.1715197740085
 20
13.78815175788783
 30
0.0
 10
194.1806208705556
 20
13.74955432372042
 30
0.0
 10
194.1447910339934
 20
13.75810887724069
 30
0.0
 10
194.1115223815252
 20
13.75342519985446
 30
0.0
 10
194.0604562576041
 20
13.75351298759783
 30
0.0
 10
194.0269723972812
 20
13.7579443028382
 30
0.0
 10
193.9907585408754
 20
13.74960793842509
 30
0.0
 10
194.0009782568666
 20
13.79145277179284
 30
0.0
 10
193.9936487887774
 20
13.83778560820173
 30
0.0
 10
193.9973633136103
 20
13.92374831106014
 30
0.0
 10
193.9959480554895
 20
14.02605142704848
 30
0.0
 10
193.9964105554639
 20
14.14453223931511
 30
0.0
 10
193.996277368623
 20
14.26957683153355
 30
0.0
 10
193.9963015910045
 20
14.39475828107048
 30
0.0
 10
193.9963354925551
 20
14.51286645379057
 30
0.0
 10
193.9962060293132
 20
14.61628748709515
 30
0.0
 10
193.9965507549081
 20
14.69932036153665
 30
0.0
 10
193.995869827869
 20
14.75143368521242
 30
0.0
 10
193.9994586600622
 20
14.8791290782136
 30
0.0
 10
193.7826171386437
 20
14.58048716819619
 30
0.0
 10
193.6021354921949
 20
14.35263981511512
 30
0.0
 10
193.5490322295611
 20
14.49373443289815
 30
0.0
 10
193.5200429133148
 20
14.54325767560942
 30
0.0
 10
193.4196648062818
 20
14.64641779790105
 30
0.0
 10
193.7405127723261
 20
14.72695035023779
 30
0.0
 10
193.8689897005429
 20
14.91066283036432
 30
0.0
 10
194.0906454325359
 20
15.11931995771762
 30
0.0
 10
194.1770224894068
 20
15.29339211228343
 30
0.0
 10
194.4549394229076
 20
15.56967051342512
 30
0.0
 10
194.3346247839283
 20
15.56534559551113
 30
0.0
 10
194.2863197351349
 20
15.56614856202552
 30
0.0
 10
194.2102377454905
 20
15.56574582146583
 30
0.0
 10
194.116701000975
 20
15.56590275611608
 30
0.0
 10
194.0117594788557
 20
15.56582502576223
 30
0.0
 10
193.9033887738717
 20
15.56595464378553
 30
0.0
 10
193.7981454235897
 20
15.56554393490691
 30
0.0
 10
193.7056237819412
 20
15.5668207367159
 30
0.0
 10
193.6268130800707
 20
15.56340766534849
 30
0.0
 10
193.5839674565379
 20
15.57023350036319
 30
0.0
 10
193.5449499586515
 20
15.56065064201123
 30
0.0
 10
193.5526365271864
 20
15.59420779565542
 30
0.0
 10
193.5485464404312
 20
15.62523550322232
 30
0.0
 10
193.5485531368814
 20
15.672365292709
 30
0.0
 10
193.5526239724912
 20
15.70340941646779
 30
0.0
 10
193.5449495574582
 20
15.73701861635901
 30
0.0
 10
193.5834819405494
 20
15.72748410420872
 30
0.0
 10
193.624122801448
 20
15.73397435498071
 30
0.0
 10
193.6951471850463
 20
15.73100150650254
 30
0.0
 10
193.7729318149633
 20
15.73174761399158
 30
0.0
 10
193.8507292246474
 20
15.73247814044525
 30
0.0
 10
193.9217232089907
 20
15.7295423551416
 30
0.0
 10
193.962427979182
 20
15.73595468772952
 30
0.0
 10
194.000985348991
 20
15.72650524176004
 30
0.0
 10
193.9927342754927
 20
15.76264692158784
 30
0.0
 10
193.9982346669359
 20
15.80129837613227
 30
0.0
 10
193.9955754206163
 20
15.86913528561839
 30
0.0
 10
193.9965815471533
 20
15.9459164153874
 30
0.0
 10
193.9960178018319
 20
16.02849393582757
 30
0.0
 10
193.9970714526592
 20
16.10517329229878
 30
0.0
 10
193.994267586313
 20
16.173319907767
 30
0.0
 10
194.0000702721304
 20
16.21132399809346
 30
0.0
 10
193.9915654551158
 20
16.24758448077646
 30
0.0
 10
194.0255610233125
 20
16.23755723771853
 30
0.0
 10
194.0594575683099
 20
16.24073266813706
 30
0.0
 10
194.1126669060345
 20
16.23508965640609
 30
0.0
 10
194.1660768574482
 20
16.23434774436425
 30
0.0
 10
194.199591464949
 20
16.2281922348298
 30
0.0
 10
194.2388086183038
 20
16.23346029773594
 30
0.0
 10
194.2120263698492
 20
16.19253380793488
 30
0.0
 10
194.1708111001724
 20
16.20371204538111
 30
0.0
 10
194.1782641540874
 20
16.15867056192124
 30
0.0
 10
194.1742227952184
 20
16.11412278028144
 30
0.0
 10
194.1761714049641
 20
16.04223572621703
 30
0.0
 10
194.1752364849758
 20
15.96168630588771
 30
0.0
 10
194.176510719003
 20
15.88173995404994
 30
0.0
 10
194.1732043793863
 20
15.80841837083183
 30
0.0
 10
194.1802106179961
 20
15.76688643002568
 30
0.0
 10
194.1701440380126
 20
15.72752418568113
 30
0.0
 10
194.2029814803921
 20
15.73468063430981
 30
0.0
 10
194.236457729648
 20
15.73027243137945
 30
0.0
 10
194.2915053476019
 20
15.73217943347897
 30
0.0
 10
194.3489502595314
 20
15.73185366407288
 30
0.0
 10
194.4023026248309
 20
15.73106308733081
 30
0.0
 10
194.4398540896639
 20
15.73313959118074
 30
0.0
 10
194.4623172523237
 20
15.73022338167109
 30
0.0
 10
194.4751678073731
 20
15.73572552644054
 30
0.0
 10
194.4858255685888
 20
15.73801118197791
 30
0.0
 10
194.4986635650143
 20
15.74494972588053
 30
0.0
 10
194.5145991033069
 20
15.72853046313669
 30
0.0
 10
194.5410623920891
 20
15.7170912231945
 30
0.0
 10
194.5726805253757
 20
15.69644687835188
 30
0.0
 10
194.598725589215
 20
15.68116869628295
 30
0.0
 10
194.6128517723972
 20
15.67266976323182
 30
0.0
 10
194.6170254148478
 20
15.67015871511026
 30
0.0
 11
194.6170254148478
 21
15.67015871511026
 31
0.0
 11
194.6049990002242
 21
15.65473571164187
 31
0.0
 11
194.5848961795564
 21
15.64337406233917
 31
0.0
 11
194.4778986355813
 21
15.42440620231159
 31
0.0
 11
194.3477039934324
 21
15.21317201512161
 31
0.0
 11
194.199654036607
 21
15.01206059027479
 31
0.0
 11
194.2734958253734
 21
14.96147384935379
 31
0.0
 11
194.3605664311799
 21
14.89988411653738
 31
0.0
 11
194.4518003750404
 21
14.83413160594425
 31
0.0
 11
194.5381321779687
 21
14.77105653169304
 31
0.0
 11
194.6104963609786
 21
14.71749910790242
 31
0.0
 11
194.6598274450842
 21
14.68029954869105
 31
0.0
 11
194.6486940702212
 21
14.66471410869495
 31
0.0
 11
194.6221452532402
 21
14.62754882870424
 31
0.0
 11
194.5904579555532
 21
14.58319026871533
 31
0.0
 11
194.5639091385722
 21
14.54602498872462
 31
0.0
 11
194.5527757637092
 21
14.53043954872852
 31
0.0
 11
194.4807013362947
 21
14.59754008690617
 31
0.0
 11
194.385285698538
 21
14.67993354174668
 31
0.0
 11
194.279326415217
 21
14.76785017366916
 31
0.0
 11
194.175621051109
 21
14.85152024309267
 31
0.0
 11
194.175621051109
 21
14.83304687900863
 31
0.0
 11
194.175621051109
 21
14.78162102763955
 31
0.0
 11
194.175621051109
 21
14.70323405030999
 31
0.0
 11
194.175621051109
 21
14.60387730834448
 31
0.0
 11
194.175621051109
 21
14.4895421630676
 31
0.0
 11
194.175621051109
 21
14.36621997580389
 31
0.0
 11
194.175621051109
 21
14.2399021078779
 31
0.0
 11
194.175621051109
 21
14.11657992061418
 31
0.0
 11
194.175621051109
 21
14.0022447753373
 31
0.0
 11
194.175621051109
 21
13.9028880333718
 31
0.0
 11
194.175621051109
 21
13.82450105604223
 31
0.0
 11
194.175621051109
 21
13.77307520467315
 31
0.0
 11
194.175621051109
 21
13.75460184058911
 31
0.0
 11
194.1569720893626
 21
13.75460184058911
 31
0.0
 11
194.1125014882749
 21
13.75460184058911
 31
0.0
 11
194.0594236740736
 21
13.75460184058911
 31
0.0
 11
194.0149530729859
 21
13.75460184058911
 31
0.0
 11
193.9963041112395
 21
13.75460184058911
 31
0.0
 11
193.9963041112395
 21
13.77486797460218
 31
0.0
 11
193.9963041112395
 21
13.83089787452066
 31
0.0
 11
193.9963041112395
 21
13.91553878716346
 31
0.0
 11
193.9963041112395
 21
14.02163795934952
 31
0.0
 11
193.9963041112395
 21
14.14204263789774
 31
0.0
 11
193.9963041112395
 21
14.26960006962704
 31
0.0
 11
193.9963041112395
 21
14.39715750135635
 31
0.0
 11
193.9963041112395
 21
14.51756217990457
 31
0.0
 11
193.9963041112395
 21
14.62366135209063
 31
0.0
 11
193.9963041112395
 21
14.70830226473343
 31
0.0
 11
193.9963041112395
 21
14.76433216465191
 31
0.0
 11
193.9963041112395
 21
14.78459829866498
 31
0.0
 11
193.7883272849481
 21
14.59331998274056
 31
0.0
 11
193.5763486358424
 21
14.43414885430811
 31
0.0
 11
193.5495629014482
 21
14.48814671952095
 31
0.0
 11
193.5138765415023
 21
14.54689140572025
 31
0.0
 11
193.4799697494123
 21
14.59192871537975
 31
0.0
 11
193.6830287742318
 21
14.73563387201053
 31
0.0
 11
193.881853195826
 21
14.91168423529988
 31
0.0
 11
194.0677041444178
 21
15.11327514524949
 31
0.0
 11
194.2318427502303
 21
15.33360194186108
 31
0.0
 11
194.3655301434864
 21
15.56585996513634
 31
0.0
 11
194.3465256724482
 21
15.56585996513634
 31
0.0
 11
194.2944166389562
 21
15.56585996513634
 31
0.0
 11
194.2165596124447
 21
15.56585996513634
 31
0.0
 11
194.1203111623478
 21
15.56585996513634
 31
0.0
 11
194.0130278580997
 21
15.56585996513634
 31
0.0
 11
193.9020662691345
 21
15.56585996513634
 31
0.0
 11
193.7947829648864
 21
15.56585996513634
 31
0.0
 11
193.6985345147895
 21
15.56585996513634
 31
0.0
 11
193.620677488278
 21
15.56585996513634
 31
0.0
 11
193.568568454786
 21
15.56585996513634
 31
0.0
 11
193.5495639837478
 21
15.56585996513634
 31
0.0
 11
193.5495639837478
 21
15.58311199790981
 31
0.0
 11
193.5495639837478
 21
15.62425146067731
 31
0.0
 11
193.5495639837478
 21
15.67335340010949
 31
0.0
 11
193.5495639837478
 21
15.71449286287698
 31
0.0
 11
193.5495639837478
 21
15.73174489565045
 31
0.0
 11
193.5687598486009
 21
15.73174489565045
 31
0.0
 11
193.6193671286684
 21
15.73174489565045
 31
0.0
 11
193.690915352212
 21
15.73174489565045
 31
0.0
 11
193.7729340474937
 21
15.73174489565045
 31
0.0
 11
193.8549527427753
 21
15.73174489565045
 31
0.0
 11
193.9265009663189
 21
15.73174489565045
 31
0.0
 11
193.9771082463864
 21
15.73174489565045
 31
0.0
 11
193.9963041112395
 21
15.73174489565045
 31
0.0
 11
193.9963041112395
 21
15.74926552655218
 31
0.0
 11
193.9963041112395
 21
15.79622081736882
 31
0.0
 11
193.9963041112395
 21
15.86420086526753
 31
0.0
 11
193.9963041112395
 21
15.94479576741549
 31
0.0
 11
193.9963041112395
 21
16.02959562097986
 31
0.0
 11
193.9963041112395
 21
16.11019052312782
 31
0.0
 11
193.9963041112395
 21
16.17817057102653
 31
0.0
 11
193.9963041112395
 21
16.22512586184317
 31
0.0
 11
193.9963041112395
 21
16.2426464927449
 31
0.0
 11
194.0135484112111
 21
16.24165806167519
 31
0.0
 11
194.05665916114
 21
16.23918698400091
 31
0.0
 11
194.1127031360477
 21
16.23597458302435
 31
0.0
 11
194.1687471109553
 21
16.2327621820478
 31
0.0
 11
194.2118578608842
 21
16.23029110437352
 31
0.0
 11
194.2291021608558
 21
16.22930267330381
 31
0.0
 11
194.2143774674851
 21
16.20556293372641
 31
0.0
 11
194.175621051109
 21
16.19183767331312
 31
0.0
 11
194.175621051109
 21
16.17206806177293
 31
0.0
 11
194.175621051109
 21
16.11994817680333
 31
0.0
 11
194.175621051109
 21
16.04626144288079
 31
0.0
 11
194.175621051109
 21
15.96179128448179
 31
0.0
 11
194.175621051109
 21
15.87732112608278
 31
0.0
 11
194.175621051109
 21
15.80363439216024
 31
0.0
 11
194.175621051109
 21
15.75151450719064
 31
0.0
 11
194.175621051109
 21
15.73174489565045
 31
0.0
 11
194.1916227112935
 21
15.73174489565045
 31
0.0
 11
194.232890150717
 21
15.73174489565045
 31
0.0
 11
194.2893170576837
 21
15.73174489565045
 31
0.0
 11
194.3507971204981
 21
15.73174489565045
 31
0.0
 11
194.4072240274648
 21
15.73174489565045
 31
0.0
 11
194.4484914668882
 21
15.73174489565045
 31
0.0
 11
194.4644931270728
 21
15.73174489565045
 31
0.0
 11
194.4728206422924
 21
15.73451387455921
 31
0.0
 11
194.4882860277003
 21
15.73965626396118
 31
0.0
 11
194.4966135429199
 21
15.74242524286994
 31
0.0
 11
194.5091363776004
 21
15.73490952398293
 31
0.0
 11
194.5389985218385
 21
15.71698742509853
 31
0.0
 11
194.5746404359292
 21
15.69559653288167
 31
0.0
 11
194.6045025801673
 21
15.67767443399727
 31
0.0
 11
194.6170254148478
 21
15.67015871511026
 31
0.0
  0
SPLINE
  5
B5
102
{ACAD_REACTORS
330
D2
102
}
330
48
100
AcDbEntity
  8
_U_30EC_U_30A4_U_30E4_U_30FC_1
  6
Continuous
 62
     2
100
AcDbSpline
210
0.0
220
0.0
230
1.0
 70
    11
 71
     3
 72
    91
 73
    87
 74
    85
 42
0.000000001
 43
0.0000000001
 44
0.00000001
 40
0.0
 40
0.0
 40
0.0
 40
0.0
 40
0.0267532254356684
 40
0.0856103386464066
 40
0.144467452199655
 40
0.1712206856618426
 40
0.2039416005642447
 40
0.2955601971652395
 40
0.4362601844617113
 40
0.6162252844507445
 40
0.8256392189704893
 40
1.054685709844487
 40
1.293548478893551
 40
1.532411247938351
 40
1.761457738799616
 40
1.970871673298584
 40
2.15083677325678
 40
2.291536760495641
 40
2.383155356836776
 40
2.415876284101397
 40
2.442629517488039
 40
2.501486630949166
 40
2.560343744424311
 40
2.587096977826582
 40
2.61706819444101
 40
2.699247336756151
 40
2.822032643466492
 40
2.973822353258021
 40
3.143014704823464
 40
3.318007936880043
 40
3.487200288186904
 40
3.638989997548385
 40
3.76177530379494
 40
3.843954445753247
 40
3.873925662229943
 40
3.89081277350065
 40
3.907699884771802
 40
3.937960767857346
 40
3.98098361814235
 40
4.199085915228531
 40
4.439444339237309
 40
4.677588241260926
 40
5.050698317837812
 40
5.448212454763198
 40
5.855291218044723
 40
6.138575438885413
 40
6.417434507584233
 40
6.444551104393891
 40
6.50420761736319
 40
6.563864130314489
 40
6.590980727104056
 40
6.84860946038146
 40
7.109611990668457
 40
7.352910904446122
 40
7.557830220705493
 40
7.58751892591341
 40
7.652834077375852
 40
7.718149228845859
 40
7.747837934062137
 40
7.854880190301042
 40
7.976511257403583
 40
8.369487896592386
 40
8.757514959223707
 40
9.12607241933117
 40
9.46063938039226
 40
9.746695593036058
 40
9.777569943118824
 40
9.80705032093192
 40
9.830377336129041
 40
9.886003295436117
 40
9.952395569430012
 40
10.00802152870637
 40
10.03134854388229
 40
10.21356951009597
 40
10.42203479292882
 40
10.66154556731074
 40
10.91693789564314
 40
11.15832906556571
 40
11.18982674596629
 40
11.27286608520413
 40
11.39026653033358
 40
11.52484752840892
 40
11.65942852648451
 40
11.7768289716149
 40
11.85986831085686
 40
11.89136598230431
 40
11.89136598230431
 40
11.89136598230431
 40
11.89136598230431
 10
190.7027885008195
 20
14.70699600701772
 30
0.0
 10
190.7028237765287
 20
14.71587847311985
 30
0.0
 10
190.7029366710795
 20
14.74430237047346
 30
0.0
 10
190.7012984568487
 20
14.79409639169802
 30
0.0
 10
190.706975029291
 20
14.83657564478154
 30
0.0
 10
190.6956928731705
 20
14.88730154856846
 30
0.0
 10
190.7632296979031
 20
14.87012900740108
 30
0.0
 10
190.83880292107
 20
14.88290227165996
 30
0.0
 10
190.9828357056
 20
14.87629729457381
 30
0.0
 10
191.1569419185426
 20
14.87888462206465
 30
0.0
 10
191.3639599611002
 20
14.87800591955552
 30
0.0
 10
191.5894688172376
 20
14.87828207920026
 30
0.0
 10
191.8251162293406
 20
14.87818339658662
 30
0.0
 10
192.0607640531347
 20
14.87828184412766
 30
0.0
 10
192.2862717580626
 20
14.87800678190788
 30
0.0
 10
192.4932934632805
 20
14.87888186270734
 30
0.0
 10
192.6673888915288
 20
14.87630522678445
 30
0.0
 10
192.8114492071985
 20
14.88288290449212
 30
0.0
 10
192.8869691915293
 20
14.87016243405603
 30
0.0
 10
192.9545776037029
 20
14.88726400191685
 30
0.0
 10
192.9430840140676
 20
14.8367478580294
 30
0.0
 10
192.9505104581733
 20
14.79253252226501
 30
0.0
 10
192.9428838927986
 20
14.74867966503609
 30
0.0
 10
192.9546489459425
 20
14.69878374479327
 30
0.0
 10
192.8930788491983
 20
14.71393227712512
 30
0.0
 10
192.8256791738671
 20
14.70310665350673
 30
0.0
 10
192.7013004056221
 20
14.70852031626236
 30
0.0
 10
192.555442823657
 20
14.70649205390784
 30
0.0
 10
192.3893576440086
 20
14.70715777578387
 30
0.0
 10
192.2188412621724
 20
14.70689643521241
 30
0.0
 10
192.0519790855388
 20
14.70721553391094
 30
0.0
 10
191.9087346827105
 20
14.70635302590762
 30
0.0
 10
191.7773313869832
 20
14.70863300482987
 30
0.0
 10
191.7239859134655
 20
14.70407704374202
 30
0.0
 10
191.6485188456912
 20
14.70999914992877
 30
0.0
 10
191.6769075779231
 20
14.70094169343353
 30
0.0
 10
191.7033652409541
 20
14.69725912268929
 30
0.0
 10
191.6633522907701
 20
14.66654271968273
 30
0.0
 10
191.5713663691868
 20
14.67667591174637
 30
0.0
 10
191.5439396207069
 20
14.43032502247786
 30
0.0
 10
191.4478793967234
 20
14.27499558764376
 30
0.0
 10
191.1917277964474
 20
13.94525417931567
 30
0.0
 10
191.7627537732762
 20
14.08430022210452
 30
0.0
 10
192.0173656320516
 20
14.08291779973361
 30
0.0
 10
192.6279647048617
 20
13.99790569242086
 30
0.0
 10
192.3340698578082
 20
14.29685417558203
 30
0.0
 10
192.0133304286519
 20
14.44330856901777
 30
0.0
 10
192.1313543360433
 20
14.50025540818288
 30
0.0
 10
192.1724716466261
 20
14.52420099873347
 30
0.0
 10
192.215681239441
 20
14.5459975881123
 30
0.0
 10
192.317457409445
 20
14.60928721253906
 30
0.0
 10
192.4328867625246
 20
14.35147151408776
 30
0.0
 10
192.6329591642278
 20
14.21616041113685
 30
0.0
 10
192.7269077387228
 20
14.03792795138882
 30
0.0
 10
192.9558829746392
 20
13.87997821027048
 30
0.0
 10
192.8596031846708
 20
13.829159725763
 30
0.0
 10
192.8167959763779
 20
13.79881292523053
 30
0.0
 10
192.7718243528778
 20
13.77466130281462
 30
0.0
 10
192.7121720925213
 20
13.72552146747568
 30
0.0
 10
192.6789731061325
 20
13.85997475673613
 30
0.0
 10
192.5582013350796
 20
14.01594265286578
 30
0.0
 10
192.1970976005978
 20
13.88569928059557
 30
0.0
 10
191.838506195554
 20
13.90224694409482
 30
0.0
 10
191.457092045008
 20
13.89331229351866
 30
0.0
 10
191.170345528289
 20
13.82882671672405
 30
0.0
 10
190.8592055599714
 20
13.94230668192832
 30
0.0
 10
190.8268737818786
 20
13.83122259927767
 30
0.0
 10
190.7896178253317
 20
13.81196313850014
 30
0.0
 10
190.7865737632752
 20
13.85874784087298
 30
0.0
 10
190.7679892860606
 20
13.89806853919134
 30
0.0
 10
190.7512436616778
 20
13.95765983478235
 30
0.0
 10
190.7383730915753
 20
14.00201969871282
 30
0.0
 10
190.704232780643
 20
14.09106331120203
 30
0.0
 10
190.9482714457753
 20
14.02181042943767
 30
0.0
 10
191.1441394486671
 20
14.00030369057744
 30
0.0
 10
191.2395426381276
 20
14.28226484478462
 30
0.0
 10
191.2945135769597
 20
14.44363045421122
 30
0.0
 10
191.5159619357154
 20
14.71391177589738
 30
0.0
 10
191.3849239381215
 20
14.70548446853735
 30
0.0
 10
191.3110026555853
 20
14.70779008496969
 30
0.0
 10
191.1977459876242
 20
14.70671378321657
 30
0.0
 10
191.0694251807484
 20
14.7070763907651
 30
0.0
 10
190.9404252030413
 20
14.70697724466085
 30
0.0
 10
190.828784094629
 20
14.70699932712572
 30
0.0
 10
190.7514663970025
 20
14.70699579189671
 30
0.0
 10
190.7132876532009
 20
14.70699595845081
 30
0.0
 10
190.7027885008195
 20
14.70699600701772
 30
0.0
 11
190.7027885008195
 21
14.70699600701772
 31
0.0
 11
190.7027885008195
 21
14.73374924051797
 31
0.0
 11
190.7027885008195
 21
14.79260635421853
 31
0.0
 11
190.7027885008195
 21
14.85146346791909
 31
0.0
 11
190.7027885008195
 21
14.87821670141934
 31
0.0
 11
190.7355094280988
 21
14.87821670141934
 31
0.0
 11
190.8271280244808
 21
14.87821670141934
 31
0.0
 11
190.9678280117818
 21
14.87821670141934
 31
0.0
 11
191.1477931118179
 21
14.87821670141934
 31
0.0
 11
191.3572070464053
 21
14.87821670141934
 31
0.0
 11
191.5862535373604
 21
14.87821670141934
 31
0.0
 11
191.8251163064992
 21
14.87821670141934
 31
0.0
 11
192.0639790756381
 21
14.87821670141934
 31
0.0
 11
192.2930255665931
 21
14.87821670141934
 31
0.0
 11
192.5024395011805
 21
14.87821670141934
 31
0.0
 11
192.6824046012167
 21
14.87821670141934
 31
0.0
 11
192.8231045885176
 21
14.87821670141934
 31
0.0
 11
192.9147231848996
 21
14.87821670141934
 31
0.0
 11
192.9474441121789
 21
14.87821670141934
 31
0.0
 11
192.9474441121789
 21
14.85146346791909
 31
0.0
 11
192.9474441121789
 21
14.79260635421853
 31
0.0
 11
192.9474441121789
 21
14.73374924051797
 31
0.0
 11
192.9474441121789
 21
14.70699600701772
 31
0.0
 11
192.9174728954758
 21
14.70699600701772
 31
0.0
 11
192.8352937529027
 21
14.70699600701772
 31
0.0
 11
192.7125084457639
 21
14.70699600701772
 31
0.0
 11
192.5607187353642
 21
14.70699600701772
 31
0.0
 11
192.3915263830077
 21
14.70699600701772
 31
0.0
 11
192.216533149999
 21
14.70699600701772
 31
0.0
 11
192.0473407976426
 21
14.70699600701772
 31
0.0
 11
191.8955510872428
 21
14.70699600701772
 31
0.0
 11
191.7727657801041
 21
14.70699600701772
 31
0.0
 11
191.6905866375309
 21
14.70699600701772
 31
0.0
 11
191.6606154208278
 21
14.70699600701772
 31
0.0
 11
191.6766359412524
 21
14.70165583340794
 31
0.0
 11
191.692656461677
 21
14.69631565979815
 31
0.0
 11
191.670615568142
 21
14.67558114591443
 31
0.0
 11
191.6284861855363
 21
14.6668587153611
 31
0.0
 11
191.5365235541377
 21
14.46909247312657
 31
0.0
 11
191.4279078521763
 21
14.25467511978509
 31
0.0
 11
191.3127500824807
 21
14.0462255905162
 31
0.0
 11
191.685736667502
 21
14.05582441253029
 31
0.0
 11
192.083070003615
 21
14.06781232404994
 31
0.0
 11
192.4899342191145
 21
14.08102711828532
 31
0.0
 11
192.2983119496978
 21
14.28966761302481
 31
0.0
 11
192.0966752013698
 21
14.48229420151832
 31
0.0
 11
192.1204947794749
 21
14.49525327269565
 31
0.0
 11
192.1728978513061
 21
14.52376322928576
 31
0.0
 11
192.2253009231373
 21
14.55227318587588
 31
0.0
 11
192.2491205012424
 21
14.5652322570532
 31
0.0
 11
192.4387101558626
 21
14.39079508370268
 31
0.0
 11
192.6200310940435
 21
14.20305846374091
 31
0.0
 11
192.7777729231147
 21
14.01782380992436
 31
0.0
 11
192.8966252504058
 21
13.85089253500949
 31
0.0
 11
192.8715408217923
 21
13.83501202286069
 31
0.0
 11
192.8163550788425
 21
13.80007489613332
 31
0.0
 11
192.7611693358927
 21
13.76513776940596
 31
0.0
 11
192.7360849072792
 21
13.74925725725716
 31
0.0
 11
192.6775518151612
 21
13.83887824681809
 31
0.0
 11
192.6050015078457
 21
13.93650288221032
 31
0.0
 11
192.2125412924095
 21
13.91636286943759
 31
0.0
 11
191.824947406956
 21
13.89803302999773
 31
0.0
 11
191.4567378976213
 21
13.88202178722396
 31
0.0
 11
191.1224308105412
 21
13.86883756444947
 31
0.0
 11
190.8365441918517
 21
13.8589887850075
 31
0.0
 11
190.8211862321739
 21
13.83220523466695
 31
0.0
 11
190.7937434290545
 21
13.82143559057246
 31
0.0
 11
190.7867927192319
 21
13.84370299445578
 31
0.0
 11
190.7702179496548
 21
13.89680218833139
 31
0.0
 11
190.7504351601596
 21
13.96017864553777
 31
0.0
 11
190.7338603905825
 21
14.01327783941338
 31
0.0
 11
190.7269096807598
 21
14.0355452432967
 31
0.0
 11
190.9091199859153
 21
14.03751638912952
 31
0.0
 11
191.1174975848588
 21
14.04356211829472
 31
0.0
 11
191.2303203127216
 21
14.25483550301554
 31
0.0
 11
191.3407936722035
 21
14.48509813155879
 31
0.0
 11
191.4358254265626
 21
14.70699600701772
 31
0.0
 11
191.4043277461595
 21
14.70699600701772
 31
0.0
 11
191.3212884069152
 21
14.70699600701772
 31
0.0
 11
191.2038879617767
 21
14.70699600701772
 31
0.0
 11
191.069306963691
 21
14.70699600701772
 31
0.0
 11
190.9347259656054
 21
14.70699600701772
 31
0.0
 11
190.8173255204669
 21
14.70699600701772
 31
0.0
 11
190.7342861812225
 21
14.70699600701772
 31
0.0
 11
190.7027885008195
 21
14.70699600701772
 31
0.0
  0
SPLINE
  5
B6
102
{ACAD_REACTORS
330
D3
102
}
330
48
100
AcDbEntity
  8
_U_30EC_U_30A4_U_30E4_U_30FC_1
  6
Continuous
 62
     2
100
AcDbSpline
210
0.0
220
0.0
230
1.0
 70
    11
 71
     3
 72
    35
 73
    31
 74
    29
 42
0.000000001
 43
0.0000000001
 44
0.00000001
 40
0.0
 40
0.0
 40
0.0
 40
0.0
 40
0.0335231036620315
 40
0.0713218571712236
 40
0.4278866681487467
 40
0.8116865841964703
 40
1.198190238000151
 40
1.561379546812779
 40
1.659983174622181
 40
1.759315573807289
 40
2.132719617231198
 40
2.525233363588927
 40
2.910815397779837
 40
3.265244364303444
 40
3.592606723582183
 40
3.964386154604109
 40
4.359942131737976
 40
4.758154118639483
 40
4.843846538700057
 40
4.936650065543348
 40
5.256616602537426
 40
5.58170740441616
 40
5.899719158308255
 40
6.198363494280822
 40
6.466301046615835
 40
6.493895311537129
 40
6.55969702019695
 40
6.638234543442525
 40
6.704036252154306
 40
6.731630508423083
 40
6.731630508423083
 40
6.731630508423083
 40
6.731630508423083
 10
191.9736010568668
 20
16.23463843719134
 30
0.0
 10
191.9676006097788
 20
16.22480690542323
 30
0.0
 10
191.9548344099156
 20
16.20388988579795
 30
0.0
 10
191.7949362006553
 20
16.17127126532702
 30
0.0
 10
192.2322025842336
 20
15.88206680336696
 30
0.0
 10
192.4345394828261
 20
15.68041138358439
 30
0.0
 10
192.6819564267972
 20
15.43749387603278
 30
0.0
 10
193.1831513624608
 20
15.36047662757771
 30
0.0
 10
193.0125562198969
 20
15.2187693917466
 30
0.0
 10
192.9383299463203
 20
15.01710366209103
 30
0.0
 10
192.6131432248187
 20
15.36956287174725
 30
0.0
 10
192.3277741670664
 20
15.53175212559563
 30
0.0
 10
192.0337604077657
 20
15.73687130053047
 30
0.0
 10
191.8084452691133
 20
16.21827488595455
 30
0.0
 10
191.5993085055521
 20
15.75343046609225
 30
0.0
 10
191.3207873674833
 20
15.54350952252908
 30
0.0
 10
191.0371383177208
 20
15.37424456359989
 30
0.0
 10
190.7078639527829
 20
15.00142360907934
 30
0.0
 10
190.6277012318224
 20
15.19708014459001
 30
0.0
 10
190.4759724909744
 20
15.324911041906
 30
0.0
 10
190.9083395826795
 20
15.40454031765935
 30
0.0
 10
191.0962565329765
 20
15.60026634915474
 30
0.0
 10
191.3468477420503
 20
15.81632996916754
 30
0.0
 10
191.571435047016
 20
15.98190992300059
 30
0.0
 10
191.6259775409713
 20
16.26133964636828
 30
0.0
 10
191.749466102901
 20
16.24737950408078
 30
0.0
 10
191.8060273344519
 20
16.24521268867647
 30
0.0
 10
191.8761870984944
 20
16.2404685988136
 30
0.0
 10
191.9333414022105
 20
16.23709429350541
 30
0.0
 10
191.9644190320838
 20
16.23519854711119
 30
0.0
 10
191.9736010568668
 20
16.23463843719134
 30
0.0
 11
191.9736010568668
 21
16.23463843719134
 31
0.0
 11
191.9525319069884
 21
16.20856374969785
 31
0.0
 11
191.9174464559424
 21
16.19450114553469
 31
0.0
 11
192.1512374769094
 21
15.92527961131381
 31
0.0
 11
192.4414585957566
 21
15.67413407969259
 31
0.0
 11
192.7612797483684
 21
15.45710987618784
 31
0.0
 11
193.0838708706289
 21
15.29025232631637
 31
0.0
 11
193.0213299868076
 21
15.21402035584928
 31
0.0
 11
192.9688035818975
 21
15.12971197913424
 31
0.0
 11
192.6436279095813
 21
15.3132640483158
 31
0.0
 11
192.3237227768436
 21
15.54070139743428
 31
0.0
 11
192.0354200158607
 21
15.7967385512331
 31
0.0
 11
191.8050514588094
 21
16.06609003445566
 31
0.0
 11
191.5995531719515
 21
15.81126348721036
 31
0.0
 11
191.3288301341535
 21
15.55645182277756
 31
0.0
 11
191.0119538423245
 21
15.31969466354856
 31
0.0
 11
190.667995793374
 21
15.11903163191467
 31
0.0
 11
190.6218855341337
 21
15.19126067703553
 31
0.0
 11
190.5636970460348
 21
15.26355586798967
 31
0.0
 11
190.8433040489015
 21
15.41911456961745
 31
0.0
 11
191.1093004621154
 21
15.60601009790405
 31
0.0
 11
191.3499997459746
 21
15.81384496285209
 31
0.0
 11
191.5537153607773
 21
16.03222167446416
 31
0.0
 11
191.7087607668217
 21
16.25074274274287
 31
0.0
 11
191.7363041569864
 21
16.24906789496551
 31
0.0
 11
191.8019845489176
 21
16.24507402718873
 31
0.0
 11
191.880377274771
 21
16.24030715274548
 31
0.0
 11
191.9460576667021
 21
16.2363132849687
 31
0.0
 11
191.9736010568668
 21
16.23463843719134
 31
0.0
  0
SPLINE
  5
B7
102
{ACAD_REACTORS
330
D4
102
}
330
48
100
AcDbEntity
  8
_U_30EC_U_30A4_U_30E4_U_30FC_1
  6
Continuous
 62
     2
100
AcDbSpline
210
0.0
220
0.0
230
1.0
 70
    11
 71
     3
 72
    15
 73
    11
 74
     9
 42
0.000000001
 43
0.0000000001
 44
0.00000001
 40
0.0
 40
0.0
 40
0.0
 40
0.0
 40
0.2785535985096574
 40
0.5215624748198874
 40
0.6076917376040509
 40
0.6938210001741243
 40
0.9405019146455447
 40
1.221691403489125
 40
1.300471877081048
 40
1.379252341684818
 40
1.379252341684818
 40
1.379252341684818
 40
1.379252341684818
 10
189.5681493630999
 20
16.22930267330381
 30
0.0
 10
189.6296017794178
 20
16.17691646592715
 30
0.0
 10
189.7446649974113
 20
16.07882876798222
 30
0.0
 10
190.0397348497243
 20
15.92889785897221
 30
0.0
 10
189.9025147631856
 20
15.84343227515014
 30
0.0
 10
189.8041227843778
 20
15.71085785201554
 30
0.0
 10
189.713003359065
 20
16.01616985781416
 30
0.0
 10
189.3636839480654
 20
16.07967869465373
 30
0.0
 10
189.5119258376571
 20
16.17896509880878
 30
0.0
 10
189.5494081874236
 20
16.21252348402382
 30
0.0
 10
189.5681493630999
 20
16.22930267330381
 30
0.0
 11
189.5681493630999
 21
16.22930267330381
 31
0.0
 11
189.7919222440596
 21
16.06341774278972
 31
0.0
 11
189.9695046306383
 21
15.89753281227564
 31
0.0
 11
189.9066308127979
 21
15.83866743034592
 31
0.0
 11
189.8437569949575
 21
15.7798020484162
 31
0.0
 11
189.6688535117724
 21
15.95375677059491
 31
0.0
 11
189.447825685614
 21
16.12757920110701
 31
0.0
 11
189.507987524357
 21
16.17844093720541
 31
0.0
 11
189.5681493630999
 21
16.22930267330381
 31
0.0
  0
SPLINE
  5
B8
102
{ACAD_REACTORS
330
D5
102
}
330
48
100
AcDbEntity
  8
_U_30EC_U_30A4_U_30E4_U_30FC_1
  6
Continuous
 62
     2
100
AcDbSpline
210
0.0
220
0.0
230
1.0
 70
    11
 71
     3
 72
    75
 73
    71
 74
    69
 42
0.000000001
 43
0.0000000001
 44
0.00000001
 40
0.0
 40
0.0
 40
0.0
 40
0.0
 40
0.0342546099129691
 40
0.1245622414432346
 40
0.2522385480897483
 40
0.3985991922940627
 40
0.5449598364980786
 40
0.6726361431438745
 40
0.7629437746736871
 40
0.7971983935297884
 40
1.101723623449737
 40
1.408591244036685
 40
1.433332471690395
 40
1.48776317245019
 40
1.542193873082025
 40
1.566935100592577
 40
1.92352393182186
 40
2.27175570495366
 40
2.590579755100845
 40
2.858943305581101
 40
2.889120339309126
 40
2.918305855191075
 40
2.941366645531197
 40
2.996357760973091
 40
3.06199231814064
 40
3.11698343362684
 40
3.14004422399752
 40
3.411273122936382
 40
3.732441619741019
 40
3.761068217532717
 40
3.837787499630279
 40
3.948858699125916
 40
4.080541049104291
 40
4.219093782625674
 40
4.350776132722222
 40
4.461847332405556
 40
4.538566614678286
 40
4.567193212544533
 40
4.594907573998791
 40
4.66638145355733
 40
4.764111044010912
 40
4.870592538125715
 40
4.968322128642138
 40
5.039796008286794
 40
5.067510369784253
 40
5.094263603185468
 40
5.153120716668109
 40
5.211977830150559
 40
5.238731063551565
 40
5.272290535138804
 40
5.363380529444665
 40
5.497618415781343
 40
5.660621563453585
 40
5.838007341749286
 40
6.015393119910637
 40
6.178396267038263
 40
6.312634151842214
 40
6.403724143059204
 40
6.437283612672299
 40
6.464036846260917
 40
6.522893960004538
 40
6.581751071483806
 40
6.608504301590754
 40
6.63725394128093
 40
6.711397748902781
 40
6.812778057283394
 40
6.92323719924917
 40
7.024617507623871
 40
7.098761315207552
 40
7.127510946007503
 40
7.127510946007503
 40
7.127510946007503
 40
7.127510946007503
 10
188.4418622390563
 20
14.95849128473263
 30
0.0
 10
188.4418622819705
 20
14.94707313408719
 30
0.0
 10
188.4418624481127
 20
14.90555257842628
 30
0.0
 10
188.4418593081786
 20
14.82146922003771
 30
0.0
 10
188.4418788279799
 20
14.70004497322327
 30
0.0
 10
188.4417912187736
 20
14.55980494047447
 30
0.0
 10
188.4421116235229
 20
14.42006556794576
 30
0.0
 10
188.4411605909738
 20
14.29745038894928
 30
0.0
 10
188.4431978595966
 20
14.21587074438042
 30
0.0
 10
188.4349433178744
 20
14.06271267077695
 30
0.0
 10
188.7430797940901
 20
14.22560236054718
 30
0.0
 10
189.0350645173733
 20
14.39482938687999
 30
0.0
 10
189.0408354448707
 20
14.25973235781911
 30
0.0
 10
189.0455471719889
 20
14.21617221160443
 30
0.0
 10
189.0482535411917
 20
14.17211249350544
 30
0.0
 10
189.0672545672959
 20
14.02272590363134
 30
0.0
 10
188.6583942247301
 20
14.0868117224126
 30
0.0
 10
188.3793710348831
 20
13.97296341411016
 30
0.0
 10
188.1018081587166
 20
13.87364095811141
 30
0.0
 10
187.80998371844
 20
13.91630687596357
 30
0.0
 10
187.7869144678658
 20
13.81321679744541
 30
0.0
 10
187.7537474383332
 20
13.78691091244469
 30
0.0
 10
187.7480653962739
 20
13.83455309036304
 30
0.0
 10
187.7284214559044
 20
13.8718033611507
 30
0.0
 10
187.7095089485623
 20
13.93007387847565
 30
0.0
 10
187.6942849867707
 20
13.97385201007805
 30
0.0
 10
187.6477246372936
 20
14.08759421046311
 30
0.0
 10
187.989089731245
 20
14.05576301120047
 30
0.0
 10
188.2679649367385
 20
14.0216143510648
 30
0.0
 10
188.2617753034906
 20
14.16913976479652
 30
0.0
 10
188.2630935452772
 20
14.24013150908832
 30
0.0
 10
188.2624831689947
 20
14.34719767958661
 30
0.0
 10
188.2625871570723
 20
14.47398529785997
 30
0.0
 10
188.2629987964055
 20
14.6084924349605
 30
0.0
 10
188.2613907841967
 20
14.73395549951183
 30
0.0
 10
188.2659902567926
 20
14.84505246719117
 30
0.0
 10
188.2564186502208
 20
14.90761886800687
 30
0.0
 10
188.2704001783691
 20
14.96595388295
 30
0.0
 10
188.2147384386703
 20
14.95289710582237
 30
0.0
 10
188.1575655197821
 20
14.96136307749498
 30
0.0
 10
188.0616048925646
 20
14.95729976080635
 30
0.0
 10
187.9633767522821
 20
14.95970889852474
 30
0.0
 10
187.8672582457559
 20
14.95551600613387
 30
0.0
 10
187.8104648525811
 20
14.96429346441162
 30
0.0
 10
187.7550356873384
 20
14.9509493685012
 30
0.0
 10
187.7670679427917
 20
15.00036910959256
 30
0.0
 10
187.7592003173937
 20
15.04393988030395
 30
0.0
 10
187.7666295563829
 20
15.08830469118525
 30
0.0
 10
187.7551930564143
 20
15.13902297763991
 30
0.0
 10
187.8232102370133
 20
15.12162460757743
 30
0.0
 10
187.8968496879747
 20
15.13417450237189
 30
0.0
 10
188.0325064058211
 20
15.12799677011097
 30
0.0
 10
188.1884909024525
 20
15.13029203093084
 30
0.0
 10
188.3615926358143
 20
15.1294096826253
 30
0.0
 10
188.5346942964181
 20
15.13029207142408
 30
0.0
 10
188.6906789811216
 20
15.1279966295555
 30
0.0
 10
188.8263351889797
 20
15.13417486262432
 30
0.0
 10
188.8999756705652
 20
15.12162394218334
 30
0.0
 10
188.9679914174724
 20
15.13902373012143
 30
0.0
 10
188.9565590885922
 20
15.08830130414555
 30
0.0
 10
188.9639539458296
 20
15.04397060811107
 30
0.0
 10
188.956203991227
 20
15.00028307550195
 30
0.0
 10
188.9681203741877
 20
14.95063590098475
 30
0.0
 10
188.9108170223617
 20
14.96461411338425
 30
0.0
 10
188.8520145789772
 20
14.95539755673252
 30
0.0
 10
188.75252936332
 20
14.95952268164929
 30
0.0
 10
188.6494280098348
 20
14.95822760025886
 30
0.0
 10
188.5537846354573
 20
14.9585407707764
 30
0.0
 10
188.4857467971616
 20
14.95848776697144
 30
0.0
 10
188.4514462213442
 20
14.95849051871655
 30
0.0
 10
188.4418622390563
 20
14.95849128473263
 30
0.0
 11
188.4418622390563
 21
14.95849128473263
 31
0.0
 11
188.4418622390563
 21
14.92423666587184
 31
0.0
 11
188.4418622390563
 21
14.83392903432974
 31
0.0
 11
188.4418622390563
 21
14.70625272766678
 31
0.0
 11
188.4418622390563
 21
14.55989208344339
 31
0.0
 11
188.4418622390563
 21
14.41353143922
 31
0.0
 11
188.4418622390563
 21
14.28585513255704
 31
0.0
 11
188.4418622390563
 21
14.19554750101494
 31
0.0
 11
188.4418622390563
 21
14.16129288215415
 31
0.0
 11
188.7391932644567
 21
14.22709475713769
 31
0.0
 11
189.0384623627244
 21
14.29496038212072
 31
0.0
 11
189.0405487124976
 21
14.27030727882827
 31
0.0
 11
189.0451386819985
 21
14.21607045158489
 31
0.0
 11
189.0497286514995
 21
14.16183362434151
 31
0.0
 11
189.0518150012727
 21
14.13718052104906
 31
0.0
 11
188.7056396889239
 21
14.05163370140897
 31
0.0
 11
188.3669653138837
 21
13.970608776299
 31
0.0
 11
188.0563731516688
 21
13.89862764024929
 31
0.0
 11
187.7944444777955
 21
13.84021218778992
 31
0.0
 11
187.7817515029292
 21
13.81283442738013
 31
0.0
 11
187.7569794787513
 21
13.79740260446735
 31
0.0
 11
187.7491867589501
 21
13.81910683390636
 31
0.0
 11
187.7306041194242
 21
13.87086307333786
 31
0.0
 11
187.70842483999
 21
13.93263664943352
 31
0.0
 11
187.689842200464
 21
13.98439288886502
 31
0.0
 11
187.6820494806628
 21
14.00609711830403
 31
0.0
 11
187.9482776335931
 21
14.05794001759666
 31
0.0
 11
188.2626334936288
 21
14.1237396877191
 31
0.0
 11
188.2626334936288
 21
14.15236628569624
 31
0.0
 11
188.2626334936288
 21
14.22908556827499
 31
0.0
 11
188.2626334936288
 21
14.34015676842631
 31
0.0
 11
188.2626334936288
 21
14.47183911912117
 31
0.0
 11
188.2626334936288
 21
14.61039185333055
 31
0.0
 11
188.2626334936288
 21
14.74207420402542
 31
0.0
 11
188.2626334936288
 21
14.85314540417674
 31
0.0
 11
188.2626334936288
 21
14.92986468675549
 31
0.0
 11
188.2626334936288
 21
14.95849128473263
 31
0.0
 11
188.2349191321107
 21
14.95849128473263
 31
0.0
 11
188.1634452524063
 21
14.95849128473263
 31
0.0
 11
188.06571566179
 21
14.95849128473263
 31
0.0
 11
187.9592341675364
 21
14.95849128473263
 31
0.0
 11
187.86150457692
 21
14.95849128473263
 31
0.0
 11
187.7900306972156
 21
14.95849128473263
 31
0.0
 11
187.7623163356975
 21
14.95849128473263
 31
0.0
 11
187.7623163356975
 21
14.98524451823288
 31
0.0
 11
187.7623163356975
 21
15.04410163193344
 31
0.0
 11
187.7623163356975
 21
15.10295874563399
 31
0.0
 11
187.7623163356975
 21
15.12971197913424
 31
0.0
 11
187.7958758072874
 21
15.12971197913424
 31
0.0
 11
187.8869658016031
 21
15.12971197913424
 31
0.0
 11
188.0212036879629
 21
15.12971197913424
 31
0.0
 11
188.1842068356856
 21
15.12971197913424
 31
0.0
 11
188.3615926140897
 21
15.12971197913424
 31
0.0
 11
188.5389783924938
 21
15.12971197913424
 31
0.0
 11
188.7019815402164
 21
15.12971197913424
 31
0.0
 11
188.8362194265763
 21
15.12971197913424
 31
0.0
 11
188.9273094208918
 21
15.12971197913424
 31
0.0
 11
188.9608688924818
 21
15.12971197913424
 31
0.0
 11
188.9608688924818
 21
15.10295874563399
 31
0.0
 11
188.9608688924818
 21
15.04410163193343
 31
0.0
 11
188.9608688924818
 21
14.98524451823288
 31
0.0
 11
188.9608688924818
 21
14.95849128473263
 31
0.0
 11
188.9321192527877
 21
14.95849128473263
 31
0.0
 11
188.8579754451555
 21
14.95849128473263
 31
0.0
 11
188.7565951367604
 21
14.95849128473263
 31
0.0
 11
188.6461359947777
 21
14.95849128473263
 31
0.0
 11
188.5447556863826
 21
14.95849128473263
 31
0.0
 11
188.4706118787504
 21
14.95849128473263
 31
0.0
 11
188.4418622390563
 21
14.95849128473263
 31
0.0
  0
SPLINE
  5
B9
102
{ACAD_REACTORS
330
D6
102
}
330
48
100
AcDbEntity
  8
_U_30EC_U_30A4_U_30E4_U_30FC_1
  6
Continuous
 62
     2
100
AcDbSpline
210
0.0
220
0.0
230
1.0
 70
    11
 71
     3
 72
    91
 73
    87
 74
    85
 42
0.000000001
 43
0.0000000001
 44
0.00000001
 40
0.0
 40
0.0
 40
0.0
 40
0.0
 40
0.0345987051695434
 40
0.1258134969461085
 40
0.2547723404888418
 40
0.4026032099153556
 40
0.5504340793415852
 40
0.6793929228835227
 40
0.7706077146570183
 40
0.8052064287779788
 40
1.124852390615161
 40
1.427402236308752
 40
1.706356627453394
 40
1.955541417875079
 40
2.169485938566224
 40
2.344350786664694
 40
2.480568411561844
 40
2.590440557428866
 40
2.649189927150971
 40
2.749320643306175
 40
2.912632739879875
 40
3.147745656000078
 40
3.244827496384861
 40
3.338490056946504
 40
3.583815413206919
 40
3.761423943238271
 40
3.886956104362421
 40
3.985855451886651
 40
4.091766255337535
 40
4.250186473811728
 40
4.422734315084373
 40
4.628285684838452
 40
4.872093227758282
 40
5.152549652145385
 40
5.464967135837365
 40
5.803201477852282
 40
6.160362988813754
 40
6.193449448275809
 40
6.284170385501463
 40
6.419718138764333
 40
6.587285046385583
 40
6.774063446723497
 40
6.96724567811348
 40
7.154024078817466
 40
7.321590987025852
 40
7.45713874089021
 40
7.547859678555946
 40
7.580946138182506
 40
7.608533084714557
 40
7.669224367077527
 40
7.72991564942974
 40
7.757502595949791
 40
7.790278062553245
 40
7.880146277430743
 40
8.014419963180178
 40
8.180411842397678
 40
8.365434637679119
 40
8.556801071622392
 40
8.741823866830476
 40
8.907815745915986
 40
9.04208943150714
 40
9.131957646249266
 40
9.164733112796842
 40
9.415425063139772
 40
9.667986180958245
 40
9.694169807462384
 40
9.75660768604737
 40
9.831130315322262
 40
9.893568193899727
 40
9.919751820398544
 40
9.950967964690381
 40
9.99642163121049
 40
10.22087981037438
 40
10.44341866197527
 40
10.4784797078884
 40
10.57091337438737
 40
10.70159545461215
 40
10.85140174170343
 40
11.00120802880463
 40
11.13189010907368
 40
11.22432377582993
 40
11.25938480938939
 40
11.28697175596127
 40
11.34766303835901
 40
11.40835432042051
 40
11.43594125892085
 40
11.43594125892085
 40
11.43594125892085
 40
11.43594125892085
 10
190.0818114333288
 20
15.55242795125077
 30
0.0
 10
190.070278584494
 20
15.55242790287916
 30
0.0
 10
190.0283409444997
 20
15.55242773704163
 30
0.0
 10
189.9434129719025
 20
15.55243125800909
 30
0.0
 10
189.8207688553128
 20
15.55240926435879
 30
0.0
 10
189.6791206916992
 20
15.55250801177053
 30
0.0
 10
189.537975369849
 20
15.55214686232422
 30
0.0
 10
189.4141351317903
 20
15.55321883609088
 30
0.0
 10
189.3317217825382
 20
15.55092249091269
 30
0.0
 10
189.172779122969
 20
15.56048569373417
 30
0.0
 10
189.3503402353376
 20
15.19785394311371
 30
0.0
 10
189.3379739205453
 20
14.95243127723115
 30
0.0
 10
189.4064519473863
 20
14.66862501324835
 30
0.0
 10
189.469302432097
 20
14.43250999939036
 30
0.0
 10
189.5452253431728
 20
14.23326740396129
 30
0.0
 10
189.6303189577016
 20
14.07745347451374
 30
0.0
 10
189.7244607592935
 20
13.97657857781394
 30
0.0
 10
189.8282648207727
 20
13.92465852638963
 30
0.0
 10
189.9125872030773
 20
13.9760648437962
 30
0.0
 10
189.9351322179451
 20
14.09144544037517
 30
0.0
 10
189.974573097537
 20
14.21885149702378
 30
0.0
 10
189.9202919734942
 20
14.53622328086759
 30
0.0
 10
190.0451218072472
 20
14.389821801409
 30
0.0
 10
190.2019291513602
 20
14.35795300331176
 30
0.0
 10
190.0947720007056
 20
14.12421357767627
 30
0.0
 10
190.0808711209867
 20
13.95972776583658
 30
0.0
 10
190.0234709467225
 20
13.83130869122479
 30
0.0
 10
189.9335020145008
 20
13.76018802352829
 30
0.0
 10
189.8095274657877
 20
13.74432324142253
 30
0.0
 10
189.6634273196859
 20
13.77993797554172
 30
0.0
 10
189.5243894320283
 20
13.90000570500276
 30
0.0
 10
189.4102003962143
 20
14.07435682550321
 30
0.0
 10
189.3146141301485
 20
14.2994660311124
 30
0.0
 10
189.2318652572626
 20
14.56388246006443
 30
0.0
 10
189.1807179256411
 20
14.88187933098543
 30
0.0
 10
189.0770189207338
 20
15.15543728488913
 30
0.0
 10
189.204284120852
 20
15.56005818612866
 30
0.0
 10
189.0357890623018
 20
15.55112367849678
 30
0.0
 10
188.9511995787077
 20
15.55315961418363
 30
0.0
 10
188.8189876387627
 20
15.55213937388406
 30
0.0
 10
188.6560505094104
 20
15.55253230318429
 30
0.0
 10
188.4733759170532
 20
15.55235696313368
 30
0.0
 10
188.2847057373383
 20
15.55260105307468
 30
0.0
 10
188.1014469020189
 20
15.55185657906236
 30
0.0
 10
187.9404746832718
 20
15.55416360522425
 30
0.0
 10
187.8029808335276
 20
15.54799804883662
 30
0.0
 10
187.728959037231
 20
15.56032838458211
 30
0.0
 10
187.6613215186856
 20
15.54329323723556
 30
0.0
 10
187.673237371927
 20
15.59524438447528
 30
0.0
 10
187.6655677285694
 20
15.64071424966528
 30
0.0
 10
187.6732592225115
 20
15.68614453703704
 30
0.0
 10
187.6613141797762
 20
15.73802395984569
 30
0.0
 10
187.7283588305866
 20
15.72119143490262
 30
0.0
 10
187.8017375665676
 20
15.73335409092669
 30
0.0
 10
187.9379128305272
 20
15.72727231074957
 30
0.0
 10
188.0973811801512
 20
15.72954834315056
 30
0.0
 10
188.2789173085835
 20
15.7288123399896
 30
0.0
 10
188.4658034862178
 20
15.72905954196131
 30
0.0
 10
188.6468012316834
 20
15.72886400799251
 30
0.0
 10
188.8080802578877
 20
15.72932234714837
 30
0.0
 10
188.9393882124885
 20
15.72812673751204
 30
0.0
 10
189.0225051322595
 20
15.73051347319741
 30
0.0
 10
189.1556236547811
 20
15.72230605725461
 30
0.0
 10
189.0645893502659
 20
15.97752868952654
 30
0.0
 10
188.9789633074417
 20
16.24164358328247
 30
0.0
 10
189.0990589003454
 20
16.22904442969165
 30
0.0
 10
189.1514264948542
 20
16.22694235763075
 30
0.0
 10
189.2214497569716
 20
16.22535399889657
 30
0.0
 10
189.2671922337817
 20
16.21602567538113
 30
0.0
 10
189.3220812646933
 20
16.22545966915426
 30
0.0
 10
189.2963574785681
 20
16.17733028655172
 30
0.0
 10
189.1825397571453
 20
16.18266829744167
 30
0.0
 10
189.3159346621134
 20
15.95449174576775
 30
0.0
 10
189.1943658735472
 20
15.72156856595921
 30
0.0
 10
189.3223188769411
 20
15.73087258884437
 30
0.0
 10
189.4049048406459
 20
15.72801001754678
 30
0.0
 10
189.5307214850823
 20
15.729234374123
 30
0.0
 10
189.6741469838057
 20
15.72932431888962
 30
0.0
 10
189.8157420951727
 20
15.72746163183852
 30
0.0
 10
189.9459127249967
 20
15.73333075937161
 30
0.0
 10
190.0193452286189
 20
15.72070340823202
 30
0.0
 10
190.0891112922095
 20
15.7387756311041
 30
0.0
 10
190.0775772605394
 20
15.68612850546325
 30
0.0
 10
190.0833184346681
 20
15.64221317686546
 30
0.0
 10
190.0816615770909
 20
15.59089982676548
 30
0.0
 10
190.0817757561668
 20
15.56158792021634
 30
0.0
 10
190.0818114333288
 20
15.55242795125077
 30
0.0
 11
190.0818114333288
 21
15.55242795125077
 31
0.0
 11
190.047212719205
 21
15.55242795125077
 31
0.0
 11
189.955997927424
 21
15.55242795125077
 31
0.0
 11
189.8270390838716
 21
15.55242795125077
 31
0.0
 11
189.6792082144335
 21
15.55242795125077
 31
0.0
 11
189.5313773449954
 21
15.55242795125077
 31
0.0
 11
189.402418501443
 21
15.55242795125077
 31
0.0
 11
189.311203709662
 21
15.55242795125077
 31
0.0
 11
189.2766049955382
 21
15.55242795125077
 31
0.0
 11
189.3083140497693
 21
15.23435864930121
 31
0.0
 11
189.3527866656865
 21
14.93509522788081
 31
0.0
 11
189.4092389118319
 21
14.66191269512576
 31
0.0
 11
189.4768868567478
 21
14.42208605917227
 31
0.0
 11
189.5549465689761
 21
14.22289032815655
 31
0.0
 11
189.6426341170591
 21
14.07160051021478
 31
0.0
 11
189.7391655695388
 21
13.97549161348317
 31
0.0
 11
189.8437569949575
 21
13.94183864609792
 31
0.0
 11
189.8943077302785
 21
13.97177376978835
 31
0.0
 11
189.9310588991551
 21
14.06491619815047
 31
0.0
 11
189.9562640977527
 21
14.22627151712055
 31
0.0
 11
189.9721769222368
 21
14.46084531263482
 31
0.0
 11
190.0494082682582
 21
14.40202182306617
 31
0.0
 11
190.1327184184384
 21
14.35921885432689
 31
0.0
 11
190.1066365811216
 21
14.1152838866101
 31
0.0
 11
190.0673317805105
 21
13.94207902887562
 31
0.0
 11
190.0105702596765
 21
13.83011272445918
 31
0.0
 11
189.9321182616909
 21
13.76989341669645
 31
0.0
 11
189.8277420296255
 21
13.75192954892317
 31
0.0
 11
189.6738595065096
 21
13.78957440012361
 31
0.0
 11
189.5388902376746
 21
13.89707348877403
 31
0.0
 11
189.4221739916162
 21
14.06627361744809
 31
0.0
 11
189.3230505368299
 21
14.28902158871943
 31
0.0
 11
189.2408596418113
 21
14.55716420516172
 31
0.0
 11
189.1749410750559
 21
14.8625482693486
 31
0.0
 11
189.1246346050593
 21
15.19702058385374
 31
0.0
 11
189.0892800003171
 21
15.55242795125077
 31
0.0
 11
189.0561935405844
 21
15.55242795125077
 31
0.0
 11
188.9654726026075
 21
15.55242795125077
 31
0.0
 11
188.8299248482185
 21
15.55242795125077
 31
0.0
 11
188.6623579392495
 21
15.55242795125077
 31
0.0
 11
188.4755795375324
 21
15.55242795125077
 31
0.0
 11
188.2823973048992
 21
15.55242795125077
 31
0.0
 11
188.0956189031822
 21
15.55242795125077
 31
0.0
 11
187.9280519942131
 21
15.55242795125077
 31
0.0
 11
187.7925042398241
 21
15.55242795125077
 31
0.0
 11
187.7017833018473
 21
15.55242795125077
 31
0.0
 11
187.6686968421145
 21
15.55242795125077
 31
0.0
 11
187.6686968421145
 21
15.58001489785846
 31
0.0
 11
187.6686968421145
 21
15.64070618039536
 31
0.0
 11
187.6686968421145
 21
15.70139746293227
 31
0.0
 11
187.6686968421145
 21
15.72898440953996
 31
0.0
 11
187.7014723087631
 21
15.72898440953996
 31
0.0
 11
187.7913405237673
 21
15.72898440953996
 31
0.0
 11
187.9256142097148
 21
15.72898440953996
 31
0.0
 11
188.0916060891932
 21
15.72898440953996
 31
0.0
 11
188.2766288847901
 21
15.72898440953996
 31
0.0
 11
188.4679953190931
 21
15.72898440953996
 31
0.0
 11
188.65301811469
 21
15.72898440953996
 31
0.0
 11
188.8190099941684
 21
15.72898440953996
 31
0.0
 11
188.9532836801159
 21
15.72898440953996
 31
0.0
 11
189.0431518951201
 21
15.72898440953996
 31
0.0
 11
189.0759273617687
 21
15.72898440953996
 31
0.0
 11
189.0659183950102
 21
15.97947647544957
 31
0.0
 11
189.0599112510662
 21
16.23196614552531
 31
0.0
 11
189.0860575870658
 21
16.23056921608122
 31
0.0
 11
189.1484065421418
 21
16.22723807663761
 31
0.0
 11
189.2228230369099
 21
16.22326220052749
 31
0.0
 11
189.2851719919859
 21
16.21993106108388
 31
0.0
 11
189.3113183279855
 21
16.21853413163979
 31
0.0
 11
189.298293111304
 21
16.19016528616079
 31
0.0
 11
189.2551649266405
 21
16.17581274276164
 31
0.0
 11
189.2574991961821
 21
15.95136670115108
 31
0.0
 11
189.2658452735902
 21
15.72898440953996
 31
0.0
 11
189.3009063195165
 21
15.72898440953996
 31
0.0
 11
189.3933399860493
 21
15.72898440953996
 31
0.0
 11
189.52402206632
 21
15.72898440953996
 31
0.0
 11
189.6738283534595
 21
15.72898440953996
 31
0.0
 11
189.823634640599
 21
15.72898440953996
 31
0.0
 11
189.9543167208697
 21
15.72898440953996
 31
0.0
 11
190.0467503874025
 21
15.72898440953996
 31
0.0
 11
190.0818114333288
 21
15.72898440953996
 31
0.0
 11
190.0818114333288
 21
15.70139746293227
 31
0.0
 11
190.0818114333288
 21
15.64070618039537
 31
0.0
 11
190.0818114333288
 21
15.58001489785845
 31
0.0
 11
190.0818114333288
 21
15.55242795125077
 31
0.0
  0
SPLINE
  5
BA
102
{ACAD_REACTORS
330
D7
102
}
330
48
100
AcDbEntity
  8
_U_30EC_U_30A4_U_30E4_U_30FC_1
  6
Continuous
 62
     2
100
AcDbSpline
210
0.0
220
0.0
230
1.0
 70
    11
 71
     3
 72
   118
 73
   114
 74
   112
 42
0.000000001
 43
0.0000000001
 44
0.00000001
 40
0.0
 40
0.0
 40
0.0
 40
0.0
 40
0.1054708162973307
 40
0.2466098270051669
 40
0.3965912874590992
 40
0.5285525069753557
 40
0.6156245055641609
 40
0.6431434105796754
 40
0.7036850037985458
 40
0.7642265984503688
 40
0.791745505235416
 40
0.9287404319989201
 40
1.106572819087929
 40
1.287544879680917
 40
1.317578308030434
 40
1.399928030857073
 40
1.522968204799847
 40
1.675072986590468
 40
1.844616533180546
 40
2.019973001638609
 40
2.189516548879922
 40
2.341621331585261
 40
2.464661506320397
 40
2.54701122964696
 40
2.577044658167924
 40
2.603797890892995
 40
2.662655002908767
 40
2.721512114949608
 40
2.748265347702787
 40
2.774215307344864
 40
2.845959313407194
 40
2.954338556588391
 40
3.090194227585568
 40
3.244367517100532
 40
3.40769961584429
 40
3.571031714539437
 40
3.725205003920113
 40
3.861060674729611
 40
3.969439917716304
 40
4.041183923628978
 40
4.06713388321297
 40
4.311886746012132
 40
4.547897258335497
 40
4.764747083043937
 40
4.952749679951769
 40
5.045772974195867
 40
5.13786201964492
 40
5.330543169792969
 40
5.55344826524396
 40
5.795083855888115
 40
6.043293412177179
 40
6.28576169554113
 40
6.313902908752613
 40
6.38425594179326
 40
6.475714884766877
 40
6.567173827758939
 40
6.637526860839746
 40
6.665668074074109
 40
6.692018920328081
 40
6.749990782071151
 40
6.807962643790519
 40
6.834313490017994
 40
6.856393084245244
 40
6.913335195649896
 40
6.991194817302588
 40
7.076026942283821
 40
7.153886563725312
 40
7.210828674844894
 40
7.232908268931229
 40
7.25819933492375
 40
7.3248757815924
 40
7.419142481925057
 40
7.527204308841997
 40
7.635266135230575
 40
7.729532834168561
 40
7.796209279292883
 40
7.821500344594829
 40
7.844652988850928
 40
7.899863140541707
 40
7.965759128053817
 40
8.02096927977113
 40
8.044121924046596
 40
8.069356610160659
 40
8.109134395441375
 40
8.132238100191087
 40
8.193147867786452
 40
8.279261678876624
 40
8.377977512673839
 40
8.476693347146622
 40
8.562807160411676
 40
8.623716930826463
 40
8.646820636853414
 40
8.671988793774227
 40
8.734909185828139
 40
8.816705695188853
 40
8.898502204815424
 40
8.961422597377885
 40
8.986590754550997
 40
9.012941600733152
 40
9.070913462380236
 40
9.128885324081732
 40
9.155236170325052
 40
9.180404327929095
 40
9.243324721948168
 40
9.325121234211961
 40
9.406917746637616
 40
9.469838141978071
 40
9.495006288270845
 40
9.517811184378987
 40
9.572192090486984
 40
9.637098333281212
 40
9.691479239515408
 40
9.714284125643447
 40
9.714284125643447
 40
9.714284125643447
 40
9.714284125643447
 10
185.2874469028653
 20
15.2688916318772
 30
0.0
 10
185.3090990569038
 20
15.24111869242812
 30
0.0
 10
185.3597257109473
 20
15.17618054561235
 30
0.0
 10
185.4349383202591
 20
15.06891060312897
 30
0.0
 10
185.5248482274345
 20
14.95377438266626
 30
0.0
 10
185.5709169676674
 20
14.85357045748319
 30
0.0
 10
185.6655825294653
 20
14.78434006814943
 30
0.0
 10
185.6204439320412
 20
14.73771639678273
 30
0.0
 10
185.5947047785789
 20
14.6966030886604
 30
0.0
 10
185.5645196708011
 20
14.66065971727937
 30
0.0
 10
185.5193684730561
 20
14.58579782596095
 30
0.0
 10
185.4710504458561
 20
14.80782524253599
 30
0.0
 10
185.3968539713072
 20
14.84510677337713
 30
0.0
 10
185.2836047324607
 20
15.116102021306
 30
0.0
 10
185.2885133578169
 20
15.00095328446228
 30
0.0
 10
185.2868486556306
 20
14.92836675781628
 30
0.0
 10
185.2876830076714
 20
14.80625588483986
 30
0.0
 10
185.2873609540264
 20
14.6591380081046
 30
0.0
 10
185.2875076912455
 20
14.49307063956557
 30
0.0
 10
185.2872950092722
 20
14.32187554608602
 30
0.0
 10
185.2879497252035
 20
14.15552828635498
 30
0.0
 10
185.2859192461139
 20
14.00935173055694
 30
0.0
 10
185.291346039993
 20
13.8847104747461
 30
0.0
 10
185.2804930868708
 20
13.81718656540626
 30
0.0
 10
185.2956739155555
 20
13.75549061417022
 30
0.0
 10
185.2457895108133
 20
13.76727503897003
 30
0.0
 10
185.2017150342521
 20
13.75943822779969
 30
0.0
 10
185.1582371630199
 20
13.76760441372703
 30
0.0
 10
185.1092346786487
 20
13.75538056738468
 30
0.0
 10
185.1218731234823
 20
13.80960667249313
 30
0.0
 10
185.1130182968448
 20
13.86936918907557
 30
0.0
 10
185.1175058770312
 20
13.9792202904437
 30
0.0
 10
185.115796013599
 20
14.11029975405678
 30
0.0
 10
185.1163550915986
 20
14.26198011444328
 30
0.0
 10
185.1161928768693
 20
14.42211074929953
 30
0.0
 10
185.1162269924673
 20
14.58236865674565
 30
0.0
 10
185.1162514960126
 20
14.73370247520439
 30
0.0
 10
185.1161453543224
 20
14.865821563386
 30
0.0
 10
185.116429914193
 20
14.97294802533192
 30
0.0
 10
185.1158675547567
 20
15.03808619579473
 30
0.0
 10
185.1180765083687
 20
15.16618957858672
 30
0.0
 10
185.0319435998603
 20
14.79097610391574
 30
0.0
 10
184.9555140818499
 20
14.63918193123396
 30
0.0
 10
184.8660040767833
 20
14.47766206446304
 30
0.0
 10
184.7640413217325
 20
14.20471848820171
 30
0.0
 10
184.7187976491037
 20
14.36717346596509
 30
0.0
 10
184.6102355941671
 20
14.45605432058123
 30
0.0
 10
184.7995791751752
 20
14.60549794961408
 30
0.0
 10
184.85653405457
 20
14.79749136974925
 30
0.0
 10
184.9717520993353
 20
15.02899622906757
 30
0.0
 10
184.9940151630133
 20
15.21797259759063
 30
0.0
 10
185.1771905152138
 20
15.49454089325929
 30
0.0
 10
185.0538033597552
 20
15.48698978832094
 30
0.0
 10
184.9925684166833
 20
15.48856772366118
 30
0.0
 10
184.9081999617063
 20
15.48882592573672
 30
0.0
 10
184.8204235085965
 20
15.48544845751206
 30
0.0
 10
184.7656768696121
 20
15.4939481498202
 30
0.0
 10
184.7104703026023
 20
15.48048561049788
 30
0.0
 10
184.7222823035534
 20
15.52931442126763
 30
0.0
 10
184.7142496151793
 20
15.57269004896709
 30
0.0
 10
184.7228186104677
 20
15.61509438309572
 30
0.0
 10
184.7102943409155
 20
15.66267796552117
 30
0.0
 10
184.7555101538734
 20
15.65267212995109
 30
0.0
 10
184.8014815562723
 20
15.65894105174062
 30
0.0
 10
184.877722204771
 20
15.65593561405872
 30
0.0
 10
184.9561296131992
 20
15.65770448278541
 30
0.0
 10
185.0323992648932
 20
15.65464793981659
 30
0.0
 10
185.0783009459473
 20
15.66103971376177
 30
0.0
 10
185.1231733965399
 20
15.65093822978896
 30
0.0
 10
185.1105552275633
 20
15.70157201581898
 30
0.0
 10
185.1191936582705
 20
15.7550126188207
 30
0.0
 10
185.1152361595441
 20
15.8486325513168
 30
0.0
 10
185.1162325068334
 20
15.95112606688924
 30
0.0
 10
185.1171927413072
 20
16.05353270248163
 30
0.0
 10
185.1133211458005
 20
16.14735929609321
 30
0.0
 10
185.1217789814363
 20
16.20036542840353
 30
0.0
 10
185.1093075932834
 20
16.25211435651189
 30
0.0
 10
185.1542106389849
 20
16.23850747226757
 30
0.0
 10
185.1955083836771
 20
16.24100480320585
 30
0.0
 10
185.2595344281049
 20
16.23648060574487
 30
0.0
 10
185.2986111148785
 20
16.22781003043308
 30
0.0
 10
185.347654349874
 20
16.23515102070687
 30
0.0
 10
185.322508003059
 20
16.19602896051758
 30
0.0
 10
185.2815901333723
 20
16.20563842455806
 30
0.0
 10
185.2910109616604
 20
16.15540148169778
 30
0.0
 10
185.2855647318746
 20
16.10385945639491
 30
0.0
 10
185.2881699601803
 20
16.0195970758452
 30
0.0
 10
185.2870102202154
 20
15.92559135583408
 30
0.0
 10
185.2883591064231
 20
15.83196865395525
 30
0.0
 10
185.2849970101508
 20
15.74679517552223
 30
0.0
 10
185.2920959917769
 20
15.69716856072044
 30
0.0
 10
185.2812569154545
 20
15.64993694969989
 30
0.0
 10
185.3304010225245
 20
15.66201674936851
 30
0.0
 10
185.3794877630147
 20
15.65447393363011
 30
0.0
 10
185.4573714280641
 20
15.65686070361432
 30
0.0
 10
185.5350365172897
 20
15.65899381905415
 30
0.0
 10
185.5845393931354
 20
15.65193391922455
 30
0.0
 10
185.6344594750639
 20
15.66360151936214
 30
0.0
 10
185.622319851688
 20
15.61540235371393
 30
0.0
 10
185.6305838229143
 20
15.57249219801236
 30
0.0
 10
185.6223198650783
 20
15.52958201851384
 30
0.0
 10
185.6344594549855
 20
15.48138288754865
 30
0.0
 10
185.5845395158746
 20
15.4930503447151
 30
0.0
 10
185.5350350651203
 20
15.48599202435046
 30
0.0
 10
185.4573784382972
 20
15.48811665228603
 30
0.0
 10
185.379464386576
 20
15.4905338936576
 30
0.0
 10
185.3304500352716
 20
15.48291848194485
 30
0.0
 10
185.2813246108943
 20
15.49507952557592
 30
0.0
 10
185.2915559988571
 20
15.45073013424158
 30
0.0
 10
185.2856677678054
 20
15.40925436202912
 30
0.0
 10
185.2878788305568
 20
15.34915394315303
 30
0.0
 10
185.2874109346147
 20
15.3022578276289
 30
0.0
 10
185.2874386992913
 20
15.27650146418197
 30
0.0
 10
185.2874469028653
 20
15.2688916318772
 30
0.0
 11
185.2874469028653
 21
15.2688916318772
 31
0.0
 11
185.3516977534484
 21
15.18524999634256
 31
0.0
 11
185.4348258835498
 21
15.0711888974822
 31
0.0
 11
185.5216831568895
 21
14.94891767195723
 31
0.0
 11
185.5971214371871
 21
14.84064565642876
 31
0.0
 11
185.6459925881625
 21
14.7685821875579
 31
0.0
 11
185.6296821285092
 21
14.74641782124399
 31
0.0
 11
185.5937991172719
 21
14.69765621535339
 31
0.0
 11
185.5579161060346
 21
14.6488946094628
 31
0.0
 11
185.5416056463812
 21
14.62673024314889
 31
0.0
 11
185.4763067109445
 21
14.74716139023812
 31
0.0
 11
185.3848434243234
 21
14.89966983670206
 31
0.0
 11
185.2874469028653
 21
15.05219788193142
 31
0.0
 11
185.2874469028653
 21
15.02216445328253
 31
0.0
 11
185.2874469028653
 21
14.93981472956783
 31
0.0
 11
185.2874469028653
 21
14.81677455413528
 31
0.0
 11
185.2874469028653
 21
14.66466977033283
 31
0.0
 11
185.2874469028653
 21
14.49512622150845
 31
0.0
 11
185.2874469028653
 21
14.31976975101009
 31
0.0
 11
185.2874469028653
 21
14.15022620218571
 31
0.0
 11
185.2874469028653
 21
13.99812141838326
 31
0.0
 11
185.2874469028653
 21
13.87508124295071
 31
0.0
 11
185.2874469028653
 21
13.79273151923601
 31
0.0
 11
185.2874469028653
 21
13.76269809058712
 31
0.0
 11
185.2606936700409
 21
13.76269809058712
 31
0.0
 11
185.2018365578271
 21
13.76269809058712
 31
0.0
 11
185.1429794456133
 21
13.76269809058712
 31
0.0
 11
185.1162262127889
 21
13.76269809058712
 31
0.0
 11
185.1162262127889
 21
13.7886480503125
 31
0.0
 11
185.1162262127889
 21
13.86039205661208
 31
0.0
 11
185.1162262127889
 21
13.96877130017101
 31
0.0
 11
185.1162262127889
 21
14.10462697167447
 31
0.0
 11
185.1162262127889
 21
14.25880026180761
 31
0.0
 11
185.1162262127889
 21
14.42213236125558
 31
0.0
 11
185.1162262127889
 21
14.58546446070356
 31
0.0
 11
185.1162262127889
 21
14.73963775083669
 31
0.0
 11
185.1162262127889
 21
14.87549342234015
 31
0.0
 11
185.1162262127889
 21
14.98387266589908
 31
0.0
 11
185.1162262127889
 21
15.05561667219866
 31
0.0
 11
185.1162262127889
 21
15.08156663192404
 31
0.0
 11
185.0379865861721
 21
14.84965603302372
 31
0.0
 11
184.9497110789303
 21
14.63077616328678
 31
0.0
 11
184.8544106930045
 21
14.43598991333547
 31
0.0
 11
184.7550964303355
 21
14.27636017379202
 31
0.0
 11
184.7109198342405
 21
14.35822446196599
 31
0.0
 11
184.658805738348
 21
14.43414885430811
 31
0.0
 11
184.7627302590299
 21
14.59640087926757
 31
0.0
 11
184.8629319864735
 21
14.7955146542178
 31
0.0
 11
184.9550446607901
 21
15.01890447916196
 31
0.0
 11
185.0347020220912
 21
15.25398465410319
 31
0.0
 11
185.097537810488
 21
15.48816947904465
 31
0.0
 11
185.0693965972142
 21
15.48816947904465
 31
0.0
 11
184.9990435640296
 21
15.48816947904465
 31
0.0
 11
184.9075846208897
 21
15.48816947904465
 31
0.0
 11
184.8161256777499
 21
15.48816947904465
 31
0.0
 11
184.7457726445653
 21
15.48816947904465
 31
0.0
 11
184.7176314312915
 21
15.48816947904465
 31
0.0
 11
184.7176314312915
 21
15.51452032539222
 31
0.0
 11
184.7176314312915
 21
15.57249218735688
 31
0.0
 11
184.7176314312915
 21
15.63046404932155
 31
0.0
 11
184.7176314312915
 21
15.65681489566912
 31
0.0
 11
184.7397110256018
 21
15.65681489566912
 31
0.0
 11
184.7966531372443
 21
15.65681489566912
 31
0.0
 11
184.8745127592861
 21
15.65681489566912
 31
0.0
 11
184.9593448847943
 21
15.65681489566912
 31
0.0
 11
185.037204506836
 21
15.65681489566912
 31
0.0
 11
185.0941466184785
 21
15.65681489566912
 31
0.0
 11
185.1162262127889
 21
15.65681489566912
 31
0.0
 11
185.1162262127889
 21
15.68210596174353
 31
0.0
 11
185.1162262127889
 21
15.74878240866697
 31
0.0
 11
185.1162262127889
 21
15.84304910948977
 31
0.0
 11
185.1162262127889
 21
15.95111093726224
 31
0.0
 11
185.1162262127889
 21
16.05917276503471
 31
0.0
 11
185.1162262127889
 21
16.15343946585751
 31
0.0
 11
185.1162262127889
 21
16.22011591278095
 31
0.0
 11
185.1162262127889
 21
16.24540697885536
 31
0.0
 11
185.1393181988664
 21
16.243732131078
 31
0.0
 11
185.1943837041283
 21
16.23973826330122
 31
0.0
 11
185.2601070491183
 21
16.23497138885796
 31
0.0
 11
185.3151725543801
 21
16.23097752108117
 31
0.0
 11
185.3382645404577
 21
16.22930267330381
 31
0.0
 11
185.3249012644361
 21
16.20789677921191
 31
0.0
 11
185.2874469028653
 21
16.19450114553469
 31
0.0
 11
185.2874469028653
 21
16.17139743948578
 31
0.0
 11
185.2874469028653
 21
16.11048766899319
 31
0.0
 11
185.2874469028653
 21
16.02437385553816
 31
0.0
 11
185.2874469028653
 21
15.9256580206019
 31
0.0
 11
185.2874469028653
 21
15.82694218566565
 31
0.0
 11
185.2874469028653
 21
15.74082837221061
 31
0.0
 11
185.2874469028653
 21
15.67991860171803
 31
0.0
 11
185.2874469028653
 21
15.65681489566912
 31
0.0
 11
185.3126150604809
 21
15.65681489566912
 31
0.0
 11
185.3755354545199
 21
15.65681489566912
 31
0.0
 11
185.4573319667706
 21
15.65681489566912
 31
0.0
 11
185.5391284790212
 21
15.65681489566912
 31
0.0
 11
185.6020488730602
 21
15.65681489566912
 31
0.0
 11
185.6272170306758
 21
15.65681489566912
 31
0.0
 11
185.6272170306758
 21
15.63046404932155
 31
0.0
 11
185.6272170306758
 21
15.57249218735689
 31
0.0
 11
185.6272170306758
 21
15.51452032539222
 31
0.0
 11
185.6272170306758
 21
15.48816947904465
 31
0.0
 11
185.6020488730602
 21
15.48816947904465
 31
0.0
 11
185.5391284790212
 21
15.48816947904465
 31
0.0
 11
185.4573319667705
 21
15.48816947904465
 31
0.0
 11
185.3755354545199
 21
15.48816947904465
 31
0.0
 11
185.3126150604809
 21
15.48816947904465
 31
0.0
 11
185.2874469028653
 21
15.48816947904465
 31
0.0
 11
185.2874469028653
 21
15.46536458293924
 31
0.0
 11
185.2874469028653
 21
15.41098367684171
 31
0.0
 11
185.2874469028653
 21
15.34607743408014
 31
0.0
 11
185.2874469028653
 21
15.29169652798262
 31
0.0
 11
185.2874469028653
 21
15.2688916318772
 31
0.0
  0
SPLINE
  5
BB
102
{ACAD_REACTORS
330
D8
102
}
330
48
100
AcDbEntity
  8
_U_30EC_U_30A4_U_30E4_U_30FC_1
  6
Continuous
 62
     2
100
AcDbSpline
210
0.0
220
0.0
230
1.0
 70
    11
 71
     3
 72
    47
 73
    43
 74
    41
 42
0.000000001
 43
0.0000000001
 44
0.00000001
 40
0.0
 40
0.0
 40
0.0
 40
0.0
 40
0.2207912809957272
 40
0.4459404186303132
 40
0.4902387190459352
 40
0.5327473892722038
 40
0.5742260451225353
 40
0.6155432630561781
 40
0.6568164066316131
 40
0.6982511618780476
 40
0.7407663929317276
 40
0.7851366743175348
 40
1.010288833836331
 40
1.231080507002193
 40
1.45176524365241
 40
1.676638205891697
 40
1.720461045359666
 40
1.830018144043532
 40
1.972442372353163
 40
2.114866600677532
 40
2.224423699395157
 40
2.268246538883398
 40
2.493628801207235
 40
2.715602830286639
 40
2.934211330706385
 40
3.149502369855375
 40
3.231387784850936
 40
3.318231873853971
 40
3.405143198197959
 40
3.48697030172048
 40
3.702258172493921
 40
3.920866283534143
 40
4.14283932593194
 40
4.368221903865407
 40
4.412044743359886
 40
4.521601842095902
 40
4.664026070452382
 40
4.80645029880909
 40
4.916007397546783
 40
4.959830237043106
 40
5.18470351584714
 40
5.405387250767506
 40
5.405387250767506
 40
5.405387250767506
 40
5.405387250767506
 10
182.6507427258644
 20
15.73406440953871
 30
0.0
 10
182.6568139420002
 20
15.79758482501209
 30
0.0
 10
182.6690762107243
 20
15.92587938689627
 30
0.0
 10
182.5604706879411
 20
16.20166220174077
 30
0.0
 10
182.6761985896603
 20
16.17188133432053
 30
0.0
 10
182.7171842509014
 20
16.16765556262818
 30
0.0
 10
182.7591205797518
 20
16.16310446389607
 30
0.0
 10
182.8004196625709
 20
16.16201982929484
 30
0.0
 10
182.8417032115555
 20
16.16310338195228
 30
0.0
 10
182.8836148270647
 20
16.16766112711342
 30
0.0
 10
182.9245983549018
 20
16.17187430209727
 30
0.0
 10
183.0404922843487
 20
16.20177611317535
 30
0.0
 10
182.9295652727457
 20
15.92339806609888
 30
0.0
 10
182.9574856365265
 20
15.74283140824953
 30
0.0
 10
182.9404267346968
 20
15.50961042346471
 30
0.0
 10
182.9414637282102
 20
15.34906622543146
 30
0.0
 10
182.9414099399403
 20
15.22284817558722
 30
0.0
 10
182.941427737248
 20
15.12428963336241
 30
0.0
 10
182.9414188581079
 20
14.99280702442963
 30
0.0
 10
182.9414263928033
 20
14.86132844968649
 30
0.0
 10
182.9414129405128
 20
14.7627622269409
 30
0.0
 10
182.9414531717491
 20
14.63639735624152
 30
0.0
 10
182.9406746403816
 20
14.47482068822869
 30
0.0
 10
182.9565958319266
 20
14.24361821892913
 30
0.0
 10
182.9333468885407
 20
14.05874351972003
 30
0.0
 10
183.0360183444365
 20
13.78935602770057
 30
0.0
 10
182.8820238362836
 20
13.82660112685817
 30
0.0
 10
182.8004129802832
 20
13.82137994680533
 30
0.0
 10
182.7188192292582
 20
13.82660620378351
 30
0.0
 10
182.5648513666842
 20
13.78937069885384
 30
0.0
 10
182.6674183421916
 20
14.05875129862878
 30
0.0
 10
182.6442045316087
 20
14.24361585325414
 30
0.0
 10
182.6600444655138
 20
14.47482218565638
 30
0.0
 10
182.6593296313427
 20
14.63639712308502
 30
0.0
 10
182.6593664569907
 20
14.76276231210521
 30
0.0
 10
182.659354900027
 20
14.86132756635981
 30
0.0
 10
182.6593575019214
 20
14.9928112741722
 30
0.0
 10
182.6593648531779
 20
15.124275480312
 30
0.0
 10
182.659344254135
 20
15.22287786275325
 30
0.0
 10
182.6594082192029
 20
15.34896149354428
 30
0.0
 10
182.6581733947589
 20
15.5121009138377
 30
0.0
 10
182.6532040396744
 20
15.66054183777549
 30
0.0
 10
182.6507427258644
 20
15.73406440953871
 30
0.0
 11
182.6507427258644
 21
15.73406440953871
 31
0.0
 11
182.6417328200378
 21
15.95467178795577
 31
0.0
 11
182.6318769706145
 21
16.17960510387179
 31
0.0
 11
182.67569858408
 21
16.17312391463728
 31
0.0
 11
182.7178400934214
 21
16.16754892331923
 31
0.0
 11
182.7591371409789
 21
16.1636716750563
 31
0.0
 11
182.8004341885365
 21
16.16238072887607
 31
0.0
 11
182.841687138873
 21
16.16367167505631
 31
0.0
 11
182.8829400892096
 21
16.16754892331923
 31
0.0
 11
182.9250882131342
 21
16.17312391463728
 31
0.0
 11
182.9689825870144
 21
16.17960510387179
 31
0.0
 11
182.9590577693891
 21
15.95467178795577
 31
0.0
 11
182.9500384208309
 21
15.73406440953871
 31
0.0
 11
182.9435638463434
 21
15.51347467001054
 31
0.0
 11
182.9414218238285
 21
15.28861190965007
 31
0.0
 11
182.9414218238285
 21
15.24478907015486
 31
0.0
 11
182.9414218238285
 21
15.13523197141682
 31
0.0
 11
182.9414218238285
 21
14.99280774305737
 31
0.0
 11
182.9414218238285
 21
14.85038351469792
 31
0.0
 11
182.9414218238285
 21
14.74082641595989
 31
0.0
 11
182.9414218238285
 21
14.69700357646467
 31
0.0
 11
182.9435638463434
 21
14.47163149318766
 31
0.0
 11
182.9500384208309
 21
14.24975190990979
 31
0.0
 11
182.9590577693891
 21
14.03132954885329
 31
0.0
 11
182.9689825870144
 21
13.81626739612927
 31
0.0
 11
182.887261616877
 21
13.82145433189185
 31
0.0
 11
182.8004341885365
 21
13.82315538223861
 31
0.0
 11
182.7135395119339
 21
13.82145433189185
 31
0.0
 11
182.6318769706145
 21
13.81626739612927
 31
0.0
 11
182.6417328200378
 21
14.03132954885329
 31
0.0
 11
182.6507427258644
 21
14.24975190990979
 31
0.0
 11
182.6571833838797
 21
14.47163149318766
 31
0.0
 11
182.6593583588023
 21
14.69700357646467
 31
0.0
 11
182.6593583588023
 21
14.74082641595988
 31
0.0
 11
182.6593583588023
 21
14.85038351469792
 31
0.0
 11
182.6593583588023
 21
14.99280774305737
 31
0.0
 11
182.6593583588023
 21
15.13523197141682
 31
0.0
 11
182.6593583588023
 21
15.24478907015486
 31
0.0
 11
182.6593583588023
 21
15.28861190965007
 31
0.0
 11
182.6571833838797
 21
15.51347467001054
 31
0.0
 11
182.6507427258644
 21
15.73406440953871
 31
0.0
  0
SPLINE
  5
BC
102
{ACAD_REACTORS
330
D9
102
}
330
48
100
AcDbEntity
  8
_U_30EC_U_30A4_U_30E4_U_30FC_1
  6
Continuous
 62
     2
100
AcDbSpline
210
0.0
220
0.0
230
1.0
 70
    11
 71
     3
 72
   110
 73
   106
 74
   104
 42
0.000000001
 43
0.0000000001
 44
0.00000001
 40
0.0
 40
0.0
 40
0.0
 40
0.0
 40
0.2203406257277873
 40
0.4407808782838196
 40
0.5952494494615176
 40
0.7488431659393184
 40
0.9023581831308882
 40
1.056801968670415
 40
1.210736449099859
 40
1.363041386539793
 40
1.51531572968308
 40
1.669377239148088
 40
1.721611652756575
 40
1.773199502942958
 40
1.824933793210004
 40
1.87711042648798
 40
1.982682281206743
 40
2.078781667087552
 40
2.172809640822329
 40
2.271937807378927
 40
2.378349933379348
 40
2.494131557736593
 40
2.626681683943699
 40
2.783145050796069
 40
2.890701232940942
 40
2.993130312454835
 40
3.099869730691808
 40
3.220237816691301
 40
3.352695482737595
 40
3.481732806389841
 40
3.593499473690375
 40
3.674323013331898
 40
3.817951711952762
 40
3.946167120793759
 40
4.061405053453417
 40
4.166480796003086
 40
4.262478775059208
 40
4.350736673551078
 40
4.433071991253993
 40
4.511216293814566
 40
4.564262454117879
 40
4.618474415571505
 40
4.670128488754092
 40
4.722296879126298
 40
4.819540945314224
 40
4.931194984128024
 40
5.049996040257637
 40
5.168643755415126
 40
5.283970811762394
 40
5.392260784910248
 40
5.486512254876295
 40
5.559178233949637
 40
5.591425852853304
 40
5.626215969637691
 40
5.667155838674236
 40
5.717449290214035
 40
5.73840236094465
 40
5.784499116553619
 40
5.830595872164593
 40
5.851548942897451
 40
5.873019280661565
 40
5.924217778408107
 40
5.985325662817487
 40
6.036524160567503
 40
6.057994498334032
 40
6.236847789607288
 40
6.381409928945466
 40
6.493190424178489
 40
6.574067534230299
 40
6.691018086205364
 40
6.814881554220197
 40
6.944307823240234
 40
7.071266716065801
 40
7.193488604461646
 40
7.309042773127845
 40
7.414007203170526
 40
7.505140441886339
 40
7.531150360599502
 40
7.559221645322095
 40
7.58720221892075
 40
7.612569159498966
 40
7.662550809480839
 40
7.702878875763989
 40
7.857328205230832
 40
8.010799568088535
 40
8.165256399657457
 40
8.322232698713739
 40
8.479564855016426
 40
8.635216230290629
 40
8.790882550925547
 40
8.948305154947112
 40
9.168271839032801
 40
9.387358980987086
 40
9.60804796103332
 40
9.83291423479251
 40
9.858338694962846
 40
9.925366817229854
 40
10.02013071422743
 40
10.12876249858982
 40
10.23739428295233
 40
10.33215817995174
 40
10.39918630222378
 40
10.42461076239767
 40
10.64992019336927
 40
10.87188524531171
 40
10.87188524531171
 40
10.87188524531171
 40
10.87188524531171
 10
179.9057788376618
 20
15.73923260398189
 30
0.0
 10
179.9092864933541
 20
15.80616462073803
 30
0.0
 10
179.9163033987662
 20
15.94005891915858
 30
0.0
 10
179.8198027599073
 20
16.22548554971469
 30
0.0
 10
180.0510134726108
 20
16.16284386190284
 30
0.0
 10
180.1919290057156
 20
16.17001554055989
 30
0.0
 10
180.3490417757588
 20
16.16235883078244
 30
0.0
 10
180.5025913427287
 20
16.1625275228304
 30
0.0
 10
180.654510493508
 20
16.16182040535433
 30
0.0
 10
180.8142214813231
 20
16.17210158351637
 30
0.0
 10
180.9408972601117
 20
16.15496511080751
 30
0.0
 10
181.1370821122081
 20
16.22727260107148
 30
0.0
 10
181.1034395279078
 20
16.12640699080117
 30
0.0
 10
181.1052011317184
 20
16.0761925394767
 30
0.0
 10
181.1027342073458
 20
16.02712335586466
 30
0.0
 10
181.1347076966011
 20
15.94063490846999
 30
0.0
 10
181.0010399903256
 20
15.98997438608336
 30
0.0
 10
180.9172208688056
 20
15.98430634314168
 30
0.0
 10
180.8173861139323
 20
15.99465516706297
 30
0.0
 10
180.7186576720145
 20
16.00086450411087
 30
0.0
 10
180.612153277111
 20
16.00697763816777
 30
0.0
 10
180.4910511698059
 20
16.01588883484585
 30
0.0
 10
180.3703381502453
 20
16.00521605912385
 30
0.0
 10
180.1812553843438
 20
16.06468503080365
 30
0.0
 10
180.212902850531
 20
15.90558320077539
 30
0.0
 10
180.1995563316834
 20
15.80839128339903
 30
0.0
 10
180.1974958426449
 20
15.69634065110102
 30
0.0
 10
180.1958188044669
 20
15.5769968562935
 30
0.0
 10
180.1973336794232
 20
15.4503259215511
 30
0.0
 10
180.1956582478668
 20
15.32301588016117
 30
0.0
 10
180.2058844271657
 20
15.22451566404463
 30
0.0
 10
180.1779006596582
 20
15.08388702625632
 30
0.0
 10
180.3508029999304
 20
15.13989551134094
 30
0.0
 10
180.4645020202771
 20
15.12719951478498
 30
0.0
 10
180.5840151672238
 20
15.13448377051255
 30
0.0
 10
180.6888491425071
 20
15.13878017056755
 30
0.0
 10
180.7843084898611
 20
15.14330568258976
 30
0.0
 10
180.8763823507032
 20
15.15149201146198
 30
0.0
 10
180.9476551782438
 20
15.14643850638111
 30
0.0
 10
181.0544931705684
 20
15.18536425031672
 30
0.0
 10
181.0226603598035
 20
15.10517122005878
 30
0.0
 10
181.0266164503928
 20
15.05562936846032
 30
0.0
 10
181.0234502392012
 20
15.00557478039818
 30
0.0
 10
181.0550791490583
 20
14.92128847612019
 30
0.0
 10
180.921013367769
 20
14.97425365495156
 30
0.0
 10
180.8292322793199
 20
14.96540080890442
 30
0.0
 10
180.7079729189602
 20
14.97570049965154
 30
0.0
 10
180.5914113119771
 20
14.97748911767503
 30
0.0
 10
180.4783375745879
 20
14.97787017109694
 30
0.0
 10
180.367924630847
 20
14.9841544947218
 30
0.0
 10
180.2898124067839
 20
14.97189133255364
 30
0.0
 10
180.1913625833644
 20
15.00453887616124
 30
0.0
 10
180.2012355173561
 20
14.94769748054206
 30
0.0
 10
180.1973923244401
 20
14.91392130557984
 30
0.0
 10
180.1966789884268
 20
14.87119604709411
 30
0.0
 10
180.1963369642975
 20
14.83401607262153
 30
0.0
 10
180.1963834255343
 20
14.79487237370771
 30
0.0
 10
180.1963649429927
 20
14.75716849497686
 30
0.0
 10
180.1963703431804
 20
14.71944955232402
 30
0.0
 10
180.19636972142
 20
14.6899432474515
 30
0.0
 10
180.1963698151544
 20
14.65873577699301
 30
0.0
 10
180.196370428792
 20
14.61414424908085
 30
0.0
 10
180.1963671499335
 20
14.5596395650885
 30
0.0
 10
180.196375962348
 20
14.51505540201448
 30
0.0
 10
180.1963359653415
 20
14.43117808585739
 30
0.0
 10
180.1976024270255
 20
14.31737520677678
 30
0.0
 10
180.1950274117841
 20
14.16830395933709
 30
0.0
 10
180.2065009381719
 20
14.06597203813905
 30
0.0
 10
180.1823506222264
 20
13.93338903885834
 30
0.0
 10
180.3332993946475
 20
13.9789573227202
 30
0.0
 10
180.4428436671556
 20
13.96427012162349
 30
0.0
 10
180.5733970473919
 20
13.96920435125063
 30
0.0
 10
180.6990312209513
 20
13.9725770532336
 30
0.0
 10
180.81887306256
 20
13.97711497498772
 30
0.0
 10
180.9391362611426
 20
13.99048536182006
 30
0.0
 10
181.0222761663514
 20
13.98068712782594
 30
0.0
 10
181.1456080421075
 20
14.04126214623321
 30
0.0
 10
181.1244269203956
 20
13.98532460134021
 30
0.0
 10
181.1235950270115
 20
13.95939249372346
 30
0.0
 10
181.1218963707558
 20
13.93197256190939
 30
0.0
 10
181.1217974888828
 20
13.89738195206385
 30
0.0
 10
181.1203659301329
 20
13.86050408220767
 30
0.0
 10
181.1532804192191
 20
13.76846841021807
 30
0.0
 10
180.9551306988106
 20
13.84132015974832
 30
0.0
 10
180.830054829489
 20
13.81825726508605
 30
0.0
 10
180.6673071295156
 20
13.82454021985785
 30
0.0
 10
180.5129366450001
 20
13.82260943909925
 30
0.0
 10
180.3566670436944
 20
13.82393762599267
 30
0.0
 10
180.1970544465282
 20
13.8205987248786
 30
0.0
 10
180.0540326342237
 20
13.8326579572824
 30
0.0
 10
179.8197144881628
 20
13.76952001976918
 30
0.0
 10
179.9173810751196
 20
14.05620527466318
 30
0.0
 10
179.9006868780059
 20
14.2498830814266
 30
0.0
 10
179.9146296709684
 20
14.47848242880296
 30
0.0
 10
179.9142987846631
 20
14.63384593955046
 30
0.0
 10
179.9143078119264
 20
14.73966336444125
 30
0.0
 10
179.9143055876316
 20
14.80205784124213
 30
0.0
 10
179.9143065551888
 20
14.89220425248325
 30
0.0
 10
179.9143065473262
 20
14.99621167157437
 30
0.0
 10
179.9143053861102
 20
15.10022131375295
 30
0.0
 10
179.9143090971502
 20
15.19036243688766
 30
0.0
 10
179.9143011051051
 20
15.25276803097214
 30
0.0
 10
179.9143334275019
 20
15.35868835961118
 30
0.0
 10
179.913144078832
 20
15.5162671654474
 30
0.0
 10
179.9082216489255
 20
15.66528219822064
 30
0.0
 10
179.9057788376618
 20
15.73923260398189
 30
0.0
 11
179.9057788376618
 21
15.73923260398189
 31
0.0
 11
179.896691822374
 21
15.95938578101018
 31
0.0
 11
179.8868249573133
 21
16.17960510387179
 31
0.0
 11
180.04115751414
 21
16.17312391463728
 31
0.0
 11
180.1946500189046
 21
16.16754892331923
 31
0.0
 11
180.3481160653366
 21
16.1636716750563
 31
0.0
 11
180.5025544554939
 21
16.16238072887607
 31
0.0
 11
180.6564835227472
 21
16.16367167505631
 31
0.0
 11
180.80873910046
 21
16.16754892331923
 31
0.0
 11
180.9609113551073
 21
16.17312391463728
 31
0.0
 11
181.1148364762483
 21
16.17960510387179
 31
0.0
 11
181.1070811703123
 21
16.12794961777358
 31
0.0
 11
181.1044991623591
 21
16.07642642334204
 31
0.0
 11
181.1070811703123
 21
16.0247566056466
 31
0.0
 11
181.1148364762483
 21
15.97315954836785
 31
0.0
 11
181.0094874054411
 21
15.98001446156058
 31
0.0
 11
180.913637570006
 21
15.98693552058657
 31
0.0
 11
180.8198593171903
 21
15.99378381919598
 31
0.0
 11
180.7209679915881
 21
16.0006321178054
 31
0.0
 11
180.6147532199923
 21
16.00710999974823
 31
0.0
 11
180.4991060528037
 21
16.01268829835794
 31
0.0
 11
180.3666126447257
 21
16.01656554662088
 31
0.0
 11
180.2101546018423
 21
16.01785649280112
 31
0.0
 11
180.206266329372
 21
15.91037061609185
 31
0.0
 11
180.20153800484
 21
15.80805072896463
 31
0.0
 11
180.1976607566748
 21
15.70138175329687
 31
0.0
 11
180.1963698105271
 21
15.5810205901325
 31
0.0
 11
180.1967799146835
 21
15.44856355891564
 31
0.0
 11
180.1980896021501
 21
15.31953288186455
 31
0.0
 11
180.1994074577049
 21
15.20777398432308
 31
0.0
 11
180.199819115366
 21
15.12695149302383
 31
0.0
 11
180.3434452935873
 21
15.12780256941249
 31
0.0
 11
180.4716343930757
 21
15.13039989580077
 31
0.0
 11
180.5868078221794
 21
15.13425509545254
 31
0.0
 11
180.6917756312219
 21
15.13901649302076
 31
0.0
 11
180.7876346289421
 21
15.14418027774175
 31
0.0
 11
180.8757413374192
 21
15.14934406246266
 31
0.0
 11
180.9578881438495
 21
15.15491243919739
 31
0.0
 11
181.035769233557
 21
15.16132086801523
 31
0.0
 11
181.0280180445185
 21
15.10884407115336
 31
0.0
 11
181.0254328449316
 21
15.05469378470856
 31
0.0
 11
181.0280180445185
 21
15.00310444444366
 31
0.0
 11
181.035769233557
 21
14.95151510417881
 31
0.0
 11
180.9389813454013
 21
14.96092324653756
 31
0.0
 11
180.8275950722014
 21
14.96865128473012
 31
0.0
 11
180.7089261429372
 21
14.97425273438145
 31
0.0
 11
180.5903167449213
 21
14.97726788195011
 31
0.0
 11
180.4750025117521
 21
14.97898767361638
 31
0.0
 11
180.3667261950699
 21
14.98070746528257
 31
0.0
 11
180.2724839317708
 21
14.98202486979617
 31
0.0
 11
180.199819115366
 21
14.98243607639329
 31
0.0
 11
180.1994074577049
 21
14.95019108508191
 31
0.0
 11
180.1980896021501
 21
14.91542593752117
 31
0.0
 11
180.1967799146835
 21
14.87450702260084
 31
0.0
 11
180.1963698105271
 21
14.82421524309952
 31
0.0
 11
180.1963698105271
 21
14.80326217235822
 31
0.0
 11
180.1963698105271
 21
14.75716541672736
 31
0.0
 11
180.1963698105271
 21
14.71106866109651
 31
0.0
 11
180.1963698105271
 21
14.69011559035521
 31
0.0
 11
180.1963698105271
 21
14.6686452525828
 31
0.0
 11
180.1963698105271
 21
14.61744675481784
 31
0.0
 11
180.1963698105271
 21
14.55633887038868
 31
0.0
 11
180.1963698105271
 21
14.50514037262371
 31
0.0
 11
180.1963698105271
 21
14.4836700348513
 31
0.0
 11
180.1967799146835
 21
14.30481721371547
 31
0.0
 11
180.1980896021501
 21
14.16026100715441
 31
0.0
 11
180.2002868589709
 21
14.04850210961289
 31
0.0
 11
180.2032586986985
 21
13.96767961831365
 31
0.0
 11
180.3202092517447
 21
13.96767961831365
 31
0.0
 11
180.4440727208745
 21
13.96767961831365
 31
0.0
 11
180.5734925526422
 21
13.9689705644939
 31
0.0
 11
180.7003922282243
 21
13.97284781275681
 31
0.0
 11
180.8224658067973
 21
13.97886708358865
 31
0.0
 11
180.9377587499462
 21
13.98663260442002
 31
0.0
 11
181.0421754573518
 21
13.99734161483402
 31
0.0
 11
181.1320599255448
 21
14.01237656274692
 31
0.0
 11
181.126425403119
 21
13.98698427976715
 31
0.0
 11
181.1234433285422
 21
13.95907184053802
 31
0.0
 11
181.1221339881199
 21
13.93112191867002
 31
0.0
 11
181.1217235369194
 21
13.90575829888472
 31
0.0
 11
181.1243087365063
 21
13.85584355063326
 31
0.0
 11
181.1320599255448
 21
13.81626739612927
 31
0.0
 11
180.9776977178344
 21
13.82145433189185
 31
0.0
 11
180.8242357818764
 21
13.82315538223861
 31
0.0
 11
180.6697789496482
 21
13.82315538223861
 31
0.0
 11
180.5128026496768
 21
13.82315538223861
 31
0.0
 11
180.3554704921536
 21
13.82315538223861
 31
0.0
 11
180.199819115366
 21
13.82315538223861
 31
0.0
 11
180.0441620874241
 21
13.82145433189185
 31
0.0
 11
179.8868249573133
 21
13.81626739612927
 31
0.0
 11
179.896691822374
 21
14.0360126738521
 31
0.0
 11
179.9057788376618
 21
14.25491128490852
 31
0.0
 11
179.91217215184
 21
14.47550763902003
 31
0.0
 11
179.9143063455009
 21
14.70036378479714
 31
0.0
 11
179.9143063455009
 21
14.72578824496874
 31
0.0
 11
179.9143063455009
 21
14.79281636723931
 31
0.0
 11
179.9143063455009
 21
14.88758026424252
 31
0.0
 11
179.9143063455009
 21
14.99621204861207
 31
0.0
 11
179.9143063455009
 21
15.10484383298161
 31
0.0
 11
179.9143063455009
 21
15.19960772998483
 31
0.0
 11
179.9143063455009
 21
15.26663585225539
 31
0.0
 11
179.9143063455009
 21
15.29206031242699
 31
0.0
 11
179.91217215184
 21
15.51735963528734
 31
0.0
 11
179.9057788376618
 21
15.73923260398189
 31
0.0
  0
SPLINE
  5
BD
102
{ACAD_REACTORS
330
DA
102
}
330
48
100
AcDbEntity
  8
_U_30EC_U_30A4_U_30E4_U_30FC_1
  6
Continuous
 62
     2
100
AcDbSpline
210
0.0
220
0.0
230
1.0
 70
    11
 71
     3
 72
    95
 73
    91
 74
    89
 42
0.000000001
 43
0.0000000001
 44
0.00000001
 40
0.0
 40
0.0
 40
0.0
 40
0.0
 40
0.6550406656911159
 40
1.308087289031888
 40
1.420803739835764
 40
1.566130759770761
 40
1.757067341888431
 40
2.006513545026423
 40
2.087328263121523
 40
2.185328872295583
 40
2.294612454748342
 40
2.408936380534777
 40
2.526802767798532
 40
2.646360524615574
 40
2.762535723971559
 40
2.870057342870134
 40
2.966883448431622
 40
3.05080324351825
 40
3.115818222436566
 40
3.156030057150216
 40
3.213914225080202
 40
3.276689026450631
 40
3.342960320981295
 40
3.404230667150544
 40
3.453822809493347
 40
3.532499827188404
 40
3.634775188507132
 40
3.754909333008139
 40
3.889736761660629
 40
4.035769602175196
 40
4.18725668119758
 40
4.338733685675932
 40
4.488478734676093
 40
4.63470831783155
 40
4.77149318992125
 40
4.892686571561186
 40
5.199775528944428
 40
5.460353566929621
 40
5.667603142345488
 40
5.814722905404464
 40
5.828990806219819
 40
5.855488336304459
 40
5.869756237118791
 40
6.189796507762829
 40
6.531890469873055
 40
6.88305363701701
 40
7.230512024911461
 40
7.566966656764591
 40
7.885203559707395
 40
8.172887439719215
 40
8.41801159406273
 40
8.443926721190651
 40
8.510760470613139
 40
8.602145393795649
 40
8.70171404164709
 40
8.79309896507532
 40
8.859932715057893
 40
8.885847842603543
 40
9.242301256612754
 40
9.589275455016711
 40
9.921808543164113
 40
10.23479624298462
 40
10.29968150889167
 40
10.35323493887753
 40
10.40154625355137
 40
10.46482922477821
 40
10.55973900668402
 40
10.69239545985616
 40
10.84920353475669
 40
11.01626328594778
 40
11.18672024367441
 40
11.35372582577209
 40
11.50257442292425
 40
11.61866495023288
 40
11.71329869152872
 40
11.82511050573905
 40
11.94464880845713
 40
12.06929242642505
 40
12.19707290435174
 40
12.32562632860526
 40
12.45034565331277
 40
12.56646595170326
 40
12.67099007414632
 40
12.76077625936779
 40
12.82703233506691
 40
12.87429132785989
 40
12.89831990323329
 40
12.92234847860017
 40
13.53984767410321
 40
14.18294284359366
 40
14.18294284359366
 40
14.18294284359366
 40
14.18294284359366
 10
177.306793564802
 20
14.70898038201723
 30
0.0
 10
177.1752019758549
 20
14.82265058603231
 30
0.0
 10
176.9124193802728
 20
15.04964496316158
 30
0.0
 10
176.3997393441022
 20
15.89214462956286
 30
0.0
 10
176.4106654595361
 20
15.5342337757702
 30
0.0
 10
176.404122652799
 20
15.39267392272133
 30
0.0
 10
176.4028026631771
 20
15.19421305299281
 30
0.0
 10
176.4018117602537
 20
15.02150296045982
 30
0.0
 10
176.4024101751974
 20
14.8786537325758
 30
0.0
 10
176.4038994301881
 20
14.78265005413357
 30
0.0
 10
176.4055683588471
 20
14.67545503263141
 30
0.0
 10
176.4071934954617
 20
14.56164211517581
 30
0.0
 10
176.4092429501684
 20
14.44441572604588
 30
0.0
 10
176.4123165501927
 20
14.32656411232969
 30
0.0
 10
176.4156339697042
 20
14.21228087320619
 30
0.0
 10
176.419360534028
 20
14.10521401867276
 30
0.0
 10
176.4217338161423
 20
14.01007408766921
 30
0.0
 10
176.4278718888356
 20
13.92558557205695
 30
0.0
 10
176.4239784495946
 20
13.86923087298141
 30
0.0
 10
176.4455230443078
 20
13.79825022472353
 30
0.0
 10
176.3680940058617
 20
13.82902677604483
 30
0.0
 10
176.3116353240191
 20
13.82011242517613
 30
0.0
 10
176.2540495896806
 20
13.82896218398274
 30
0.0
 10
176.1690163478472
 20
13.79738225225944
 30
0.0
 10
176.2009714146382
 20
13.88095155992192
 30
0.0
 10
176.1990705282537
 20
13.9488260896831
 30
0.0
 10
176.2107960047299
 20
14.05233256764419
 30
0.0
 10
176.2164241052998
 20
14.17002125616695
 30
0.0
 10
176.223790217894
 20
14.30388609164423
 30
0.0
 10
176.2320759701609
 20
14.44764152872632
 30
0.0
 10
176.2398851897427
 20
14.59714022843444
 30
0.0
 10
176.2457571222657
 20
14.74792549402077
 30
0.0
 10
176.2503667817968
 20
14.89699943878437
 30
0.0
 10
176.2542632117541
 20
15.04122913163022
 30
0.0
 10
176.2570715126564
 20
15.17583905213017
 30
0.0
 10
176.2576698755022
 20
15.36469614347354
 30
0.0
 10
176.261602386715
 20
15.58975494313154
 30
0.0
 10
176.2442175378498
 20
15.86367091125707
 30
0.0
 10
176.2850417342583
 20
16.02787112098598
 30
0.0
 10
176.1995153256
 20
16.22749661465096
 30
0.0
 10
176.2660558907687
 20
16.22385458403978
 30
0.0
 10
176.2838724273229
 20
16.22413447160853
 30
0.0
 10
176.4056801797504
 20
16.22632927398613
 30
0.0
 10
176.508077033546
 20
15.94675118721514
 30
0.0
 10
176.7580021509356
 20
15.74563008536006
 30
0.0
 10
176.987003533111
 20
15.47792614987915
 30
0.0
 10
177.2245151213107
 20
15.22646413862374
 30
0.0
 10
177.4486090740771
 20
14.9896997406136
 30
0.0
 10
177.6750716283009
 20
14.73218692583077
 30
0.0
 10
177.8325687886513
 20
14.61649335056925
 30
0.0
 10
178.0472129612673
 20
14.27997152538794
 30
0.0
 10
178.0422645974617
 20
14.40464754091604
 30
0.0
 10
178.0433931602545
 20
14.46327691935736
 30
0.0
 10
178.0428877841515
 20
14.55043662371977
 30
0.0
 10
178.0430475158112
 20
14.64416143182872
 30
0.0
 10
178.0430054891317
 20
14.73018971297035
 30
0.0
 10
178.0430202040371
 20
14.79153891945496
 30
0.0
 10
178.0429706255983
 20
14.94135231520991
 30
0.0
 10
178.0458811522809
 20
15.17989612510104
 30
0.0
 10
178.0259521041162
 20
15.54486509868701
 30
0.0
 10
178.0750433936246
 20
15.80799631993409
 30
0.0
 10
177.917795150918
 20
16.21928904947753
 30
0.0
 10
178.076211287242
 20
16.16398282551747
 30
0.0
 10
178.1311680478627
 20
16.16199686500175
 30
0.0
 10
178.1827887766739
 20
16.16264778248252
 30
0.0
 10
178.2713198965366
 20
16.20369527738247
 30
0.0
 10
178.2204898303168
 20
16.05696326622988
 30
0.0
 10
178.2313389930282
 20
15.95019971954432
 30
0.0
 10
178.2166036994847
 20
15.79085705414111
 30
0.0
 10
178.2099976446203
 20
15.62853061652873
 30
0.0
 10
178.2014961399914
 20
15.45992521892394
 30
0.0
 10
178.1943227202198
 20
15.29814814703541
 30
0.0
 10
178.1889063215388
 20
15.15422331457931
 30
0.0
 10
178.1871713967647
 20
15.03437493466925
 30
0.0
 10
178.1875440672317
 20
14.92686101590515
 30
0.0
 10
178.1873656126262
 20
14.81820024645586
 30
0.0
 10
178.1877010863138
 20
14.6995357016553
 30
0.0
 10
178.1890040622184
 20
14.5755516351274
 30
0.0
 10
178.1908887351574
 20
14.44858294171104
 30
0.0
 10
178.1925004454849
 20
14.32153861551031
 30
0.0
 10
178.1941403137428
 20
14.19854884492176
 30
0.0
 10
178.1962570745752
 20
14.08300931383759
 30
0.0
 10
178.1963848422364
 20
13.98090903955837
 30
0.0
 10
178.2006514396554
 20
13.89009848838157
 30
0.0
 10
178.1908440085288
 20
13.83213621208787
 30
0.0
 10
178.211847477169
 20
13.7651713013203
 30
0.0
 10
178.1725639739896
 20
13.77291153966689
 30
0.0
 10
177.9595307117748
 20
13.75755254145195
 30
0.0
 10
177.7636297943184
 20
14.31403058094466
 30
0.0
 10
177.4611197631543
 20
14.57556035348508
 30
0.0
 10
177.306793564802
 20
14.70898038201723
 30
0.0
 11
177.306793564802
 21
14.70898038201723
 31
0.0
 11
176.859552933851
 21
15.18757635411976
 31
0.0
 11
176.4124049070643
 21
15.6635264928897
 31
0.0
 11
176.4089664262493
 21
15.55086249986232
 31
0.0
 11
176.4055610183499
 21
15.4055753818431
 31
0.0
 11
176.4029636920273
 21
15.21465645827967
 31
0.0
 11
176.4021126156602
 21
14.96521170139757
 31
0.0
 11
176.4025239230288
 21
14.88439802954279
 31
0.0
 11
176.4038420329816
 21
14.78640628477562
 31
0.0
 11
176.4055192267717
 21
14.67713557299738
 31
0.0
 11
176.4072367127517
 21
14.56282454872039
 31
0.0
 11
176.4094007838771
 21
14.44497802965265
 31
0.0
 11
176.4124049070643
 21
14.32545802100199
 31
0.0
 11
176.4158359733138
 21
14.20933349846155
 31
0.0
 11
176.4192928929998
 21
14.10186746550228
 31
0.0
 11
176.4227085253087
 21
14.00510162351263
 31
0.0
 11
176.4261896983792
 21
13.92125406276973
 31
0.0
 11
176.4296006184312
 21
13.8563286200776
 31
0.0
 11
176.4330776843148
 21
13.81626739612927
 31
0.0
 11
176.3754263821571
 21
13.82145433189185
 31
0.0
 11
176.3126746318308
 21
13.82315538223861
 31
0.0
 11
176.2464251717157
 21
13.82145433189185
 31
0.0
 11
176.1853747739675
 21
13.81626739612927
 31
0.0
 11
176.1926772737812
 21
13.8653189412559
 31
0.0
 11
176.2008793569053
 21
13.94356725720856
 31
0.0
 11
176.2090098822347
 21
14.04551893253029
 31
0.0
 11
176.2163406441396
 21
14.16542920159753
 31
0.0
 11
176.2236358280421
 21
14.30005912343889
 31
0.0
 11
176.2318444255595
 21
14.44586107652745
 31
0.0
 11
176.2395504149465
 21
14.59715203135072
 31
0.0
 11
176.2455763002093
 21
14.74850913200734
 31
0.0
 11
176.2503046247415
 21
14.89817951391435
 31
0.0
 11
176.2541928972119
 21
15.04435739582221
 31
0.0
 11
176.2567527408965
 21
15.18111831592696
 31
0.0
 11
176.2576324804574
 21
15.3023085068689
 31
0.0
 11
176.257192610677
 21
15.60939715262544
 31
0.0
 11
176.2559126888347
 21
15.86997204839366
 31
0.0
 11
176.2528658717892
 21
16.07719922716125
 31
0.0
 11
176.2473049112762
 21
16.22421385386061
 31
0.0
 11
176.2615728121468
 21
16.22421385386061
 31
0.0
 11
176.2880703423351
 21
16.22421385386061
 31
0.0
 11
176.3023382432057
 21
16.22421385386061
 31
0.0
 11
176.5194743650276
 21
15.98910179662773
 31
0.0
 11
176.7512744123079
 21
15.73751281231562
 31
0.0
 11
176.9894816018839
 21
15.4794955554357
 31
0.0
 11
177.226007455752
 21
15.22497079855489
 31
0.0
 11
177.4555698717705
 21
14.97899759549137
 31
0.0
 11
177.6731797360102
 21
14.74678934034107
 31
0.0
 11
177.8713724913706
 21
14.538266805671
 31
0.0
 11
178.0430143099085
 21
14.36326697932589
 31
0.0
 11
178.0430143099085
 21
14.38918210687043
 31
0.0
 11
178.0430143099085
 21
14.45601585685371
 31
0.0
 11
178.0430143099085
 21
14.54740078030025
 31
0.0
 11
178.0430143099085
 21
14.64696942823453
 31
0.0
 11
178.0430143099085
 21
14.73835435168106
 31
0.0
 11
178.0430143099085
 21
14.80518810166435
 31
0.0
 11
178.0430143099085
 21
14.83110322920889
 31
0.0
 11
178.0417233637608
 21
15.18755430550867
 31
0.0
 11
178.0378461155958
 21
15.53450684014415
 31
0.0
 11
178.0296197790001
 21
15.86693815950551
 31
0.0
 11
178.0154535467228
 21
16.17960510387179
 31
0.0
 11
178.0790351249618
 21
16.16666367158334
 31
0.0
 11
178.132417015961
 21
16.16238072887607
 31
0.0
 11
178.1805381084832
 21
16.16666367158334
 31
0.0
 11
178.2424836798197
 21
16.17960510387179
 31
0.0
 11
178.2351216487574
 21
16.084981284451
 31
0.0
 11
178.2269790968817
 21
15.95257496503963
 31
0.0
 11
178.2183705364004
 21
15.79600336785656
 31
0.0
 11
178.2097547223214
 21
15.62916593734269
 31
0.0
 11
178.2016187850288
 21
15.4589032550936
 31
0.0
 11
178.1942501393834
 21
15.29206031242699
 31
0.0
 11
178.1891406931521
 21
15.14329943572809
 31
0.0
 11
178.1874503478903
 21
15.02722121527101
 31
0.0
 11
178.1874503478903
 21
14.93258747397519
 31
0.0
 11
178.1874503478903
 21
14.82077565976707
 31
0.0
 11
178.1878461204496
 21
14.70123801222749
 31
0.0
 11
178.1890819450708
 21
14.57660052093918
 31
0.0
 11
178.1908392193317
 21
14.44883212687391
 31
0.0
 11
178.1925303477607
 21
14.32028982655879
 31
0.0
 11
178.1942876220214
 21
14.19558288214554
 31
0.0
 11
178.1959787504505
 21
14.07947489606348
 31
0.0
 11
178.1972884379172
 21
13.97495896727018
 31
0.0
 11
178.1976985420735
 21
13.88517371555653
 31
0.0
 11
178.1976985420735
 21
13.81891763918416
 31
0.0
 11
178.1976985420735
 21
13.77165864614042
 31
0.0
 11
178.1736699662976
 21
13.77165864614042
 31
0.0
 11
178.1496413905217
 21
13.77165864614042
 31
0.0
 11
177.7410729200422
 21
14.2346673526219
 31
0.0
 11
177.306793564802
 21
14.70898038201723
 31
0.0
  0
SPLINE
  5
BE
102
{ACAD_REACTORS
330
DB
102
}
330
48
100
AcDbEntity
  8
_U_30EC_U_30A4_U_30E4_U_30FC_1
  6
Continuous
 62
     2
100
AcDbSpline
210
0.0
220
0.0
230
1.0
 70
    11
 71
     3
 72
    25
 73
    21
 74
    19
 42
0.000000001
 43
0.0000000001
 44
0.00000001
 40
0.0
 40
0.0
 40
0.0
 40
0.0
 40
0.0911479969064253
 40
0.1858117896203814
 40
0.2804128399733923
 40
0.3715889190713658
 40
0.4679080494218424
 40
0.5642683809229232
 40
0.6605683222644139
 40
0.7569653015809119
 40
0.8561348172521489
 40
1.092615965104156
 40
1.374867658141739
 40
1.611348812011442
 40
1.71051832842509
 40
1.809403163726408
 40
2.045205463293911
 40
2.326646917621971
 40
2.562449217190433
 40
2.661334043833752
 40
2.661334043833752
 40
2.661334043833752
 40
2.661334043833752
 10
173.2683700567199
 20
14.88614538197292
 30
0.0
 10
173.2987525917922
 20
14.88598079714555
 30
0.0
 10
173.3606895889111
 20
14.88564528689921
 30
0.0
 10
173.4541356960329
 20
14.88269055452
 30
0.0
 10
173.5475095236356
 20
14.8797775287715
 30
0.0
 10
173.6417760753475
 20
14.87894201643416
 30
0.0
 10
173.7354964790967
 20
14.87996644658047
 30
0.0
 10
173.8352040303204
 20
14.87916977470973
 30
0.0
 10
173.9188949546311
 20
14.88921410235218
 30
0.0
 10
174.0637996315045
 20
14.86234617674166
 30
0.0
 10
173.9396132444799
 20
15.03665530280049
 30
0.0
 10
173.8965867286282
 20
15.19651711006092
 30
0.0
 10
173.7808922142208
 20
15.45518458550214
 30
0.0
 10
173.7017565431257
 20
15.59231052861859
 30
0.0
 10
173.6431576621816
 20
15.80937033134077
 30
0.0
 10
173.5864803939438
 20
15.59266134213428
 30
0.0
 10
173.5052809900478
 20
15.45327012438236
 30
0.0
 10
173.4063701281488
 20
15.20406969370195
 30
0.0
 10
173.325362509426
 20
15.01925830226073
 30
0.0
 10
173.2813683325838
 20
14.91650446856116
 30
0.0
 10
173.2683700567199
 20
14.88614538197292
 30
0.0
 11
173.2683700567199
 21
14.88614538197292
 31
0.0
 11
173.3595137737819
 21
14.8852612326676
 31
0.0
 11
173.454142829758
 21
14.88269697919599
 31
0.0
 11
173.5487082179705
 21
14.88009965280777
 31
0.0
 11
173.6398803250195
 21
14.8792485764191
 31
0.0
 11
173.7361985777706
 21
14.87965978301621
 31
0.0
 11
173.8325499034376
 21
14.88097718752972
 31
0.0
 11
173.9288262638285
 21
14.88310818579312
 31
0.0
 11
174.0251753846342
 21
14.88614538197292
 31
0.0
 11
173.9854633323141
 21
14.9770164219502
 31
0.0
 11
173.8907653613967
 21
15.19370890189602
 31
0.0
 11
173.777738750947
 21
15.45234186183135
 31
0.0
 11
173.6830407800297
 21
15.66903434177717
 31
0.0
 11
173.6433287277095
 21
15.75990538175445
 31
0.0
 11
173.6043330259266
 21
15.66903434177717
 31
0.0
 11
173.5113432755212
 21
15.45234186183135
 31
0.0
 11
173.4003555089082
 21
15.19370890189602
 31
0.0
 11
173.3073657585028
 21
14.9770164219502
 31
0.0
 11
173.2683700567199
 21
14.88614538197292
 31
0.0
  0
SPLINE
  5
BF
102
{ACAD_REACTORS
330
DB
102
}
330
48
100
AcDbEntity
  8
_U_30EC_U_30A4_U_30E4_U_30FC_1
  6
Continuous
 62
     2
100
AcDbSpline
210
0.0
220
0.0
230
1.0
 70
    11
 71
     3
 72
    57
 73
    53
 74
    51
 42
0.000000001
 43
0.0000000001
 44
0.00000001
 40
0.0
 40
0.0
 40
0.0
 40
0.0
 40
0.0471632082808385
 40
0.0914861054631868
 40
0.135776251970182
 40
0.1826527001609546
 40
0.2295203288571739
 40
0.2737751972219625
 40
0.3181310461542499
 40
0.3652607198398504
 40
0.4571007286314317
 40
0.5671851029165023
 40
0.6894623283868109
 40
0.8181758272545989
 40
0.9510087229273888
 40
1.085852229674049
 40
1.2181261644753
 40
1.343545131142386
 40
1.454537202956745
 40
1.567187607530698
 40
1.680710966642345
 40
1.794226869736681
 40
1.900009184247508
 40
2.00408586044776
 40
2.108162674451676
 40
2.214000150155305
 40
2.49603857735211
 40
2.762350745479239
 40
2.997275353279407
 40
3.185110082137723
 40
3.246407890063865
 40
3.312607550212681
 40
3.378877742711554
 40
3.440140399651437
 40
4.100501696006495
 40
4.754913085563549
 40
5.41133169342392
 40
6.077890432568695
 40
6.110575292670974
 40
6.143260152775754
 40
6.367989363395143
 40
6.610525374951526
 40
6.863389136467295
 40
7.119380025547572
 40
7.376036605091088
 40
7.631164770966277
 40
7.876722425456415
 40
8.10495373585599
 40
8.312916685924316
 40
8.497730294941277
 40
8.651018984313875
 40
8.764738853624559
 40
8.764738853624559
 40
8.764738853624559
 40
8.764738853624559
 10
174.7922649500512
 20
13.81626739612927
 30
0.0
 10
174.776661672693
 20
13.81826231079078
 30
0.0
 10
174.7463947960301
 20
13.82213201360299
 30
0.0
 10
174.7010994202253
 20
13.82341984967267
 30
0.0
 10
174.6559553129348
 20
13.8230868355405
 30
0.0
 10
174.6099017123399
 20
13.82314658674223
 30
0.0
 10
174.5640496172096
 20
13.82325813649999
 30
0.0
 10
174.5183711648165
 20
13.82277833456589
 30
0.0
 10
174.4750811541608
 20
13.82461109618722
 30
0.0
 10
174.4039947951512
 20
13.80049556814655
 30
0.0
 10
174.4057477261441
 20
13.92184693977252
 30
0.0
 10
174.3586196370568
 20
14.00726239751231
 30
0.0
 10
174.3191478251762
 20
14.12486929345137
 30
0.0
 10
174.2706635532643
 20
14.24232752540436
 30
0.0
 10
174.2201017402522
 20
14.36405935761511
 30
0.0
 10
174.1718634610475
 20
14.49075967862463
 30
0.0
 10
174.1135232947594
 20
14.59933687784953
 30
0.0
 10
174.098089266726
 20
14.75620657134407
 30
0.0
 10
173.9566586330635
 20
14.72373446548322
 30
0.0
 10
173.8508397414903
 20
14.7351288868218
 30
0.0
 10
173.7358569725221
 20
14.73392591514615
 30
0.0
 10
173.6253142252141
 20
14.73506945347409
 30
0.0
 10
173.5176583522783
 20
14.73418350037526
 30
0.0
 10
173.4121322529242
 20
14.73416602390519
 30
0.0
 10
173.3109192682012
 20
14.72714032472414
 30
0.0
 10
173.1266804827752
 20
14.75135859859871
 30
0.0
 10
173.115739368541
 20
14.44741691121884
 30
0.0
 10
173.0087691634751
 20
14.22353177253393
 30
0.0
 10
172.9098148604344
 20
14.03895314292501
 30
0.0
 10
172.9225090524006
 20
13.79530204804207
 30
0.0
 10
172.8050091716397
 20
13.82508046753198
 30
0.0
 10
172.7422055868309
 20
13.82258089509601
 30
0.0
 10
172.6785872093399
 20
13.82344075102805
 30
0.0
 10
172.3946014194074
 20
13.78098039941944
 30
0.0
 10
173.0251638499381
 20
14.50081952444784
 30
0.0
 10
173.1087645289072
 20
15.01276539435727
 30
0.0
 10
173.4929252789337
 20
15.53353743550045
 30
0.0
 10
173.4777208288565
 20
16.23519626253214
 30
0.0
 10
173.7239265722696
 20
16.22345633081256
 30
0.0
 10
173.825634615756
 20
16.23225004452772
 30
0.0
 10
173.8249752035817
 20
15.98059650730347
 30
0.0
 10
173.9428317155827
 20
15.79818020733956
 30
0.0
 10
174.0315515260484
 20
15.55563740662868
 30
0.0
 10
174.1322292485258
 20
15.32340030530125
 30
0.0
 10
174.2311142712242
 20
15.08674644566915
 30
0.0
 10
174.3299676990668
 20
14.85461739170092
 30
0.0
 10
174.4256166390925
 20
14.63122222788787
 30
0.0
 10
174.5159904573271
 20
14.42272549049317
 30
0.0
 10
174.5989944568189
 20
14.23308448529321
 30
0.0
 10
174.6726088582797
 20
14.06663106068093
 30
0.0
 10
174.7342815895545
 20
13.92917699626103
 30
0.0
 10
174.7749458885603
 20
13.84999239430034
 30
0.0
 10
174.7922649500512
 20
13.81626739612927
 30
0.0
 11
174.7922649500512
 21
13.81626739612927
 31
0.0
 11
174.7453878317447
 21
13.82145433189185
 31
0.0
 11
174.7010975896124
 21
13.82315538223861
 31
0.0
 11
174.6568074431729
 21
13.82315538223861
 31
0.0
 11
174.6099309947159
 21
13.82315538223861
 31
0.0
 11
174.5630633657033
 21
13.82315538223861
 31
0.0
 11
174.5188084970408
 21
13.82315538223861
 31
0.0
 11
174.4744852776853
 21
13.82145433189185
 31
0.0
 11
174.4276419021442
 21
13.81626739612927
 31
0.0
 11
174.3992532136324
 21
13.90360966173244
 31
0.0
 11
174.3622721815897
 21
14.00729656274818
 31
0.0
 11
174.31883862367
 21
14.12159987001126
 31
0.0
 11
174.2711055866935
 21
14.24113531268969
 31
0.0
 11
174.2208160133236
 21
14.36408057307565
 31
0.0
 11
174.1696467003931
 21
14.48883822929445
 31
0.0
 11
174.1197531801325
 21
14.61134141502771
 31
0.0
 11
174.073311911184
 21
14.72784517367917
 31
0.0
 11
173.9623611907588
 21
14.73087465284505
 31
0.0
 11
173.8497309225089
 21
14.7330045486779
 31
0.0
 11
173.7362152069449
 21
14.73432195319141
 31
0.0
 11
173.62270004768
 21
14.73473315978853
 31
0.0
 11
173.5169185312815
 21
14.73432195319141
 31
0.0
 11
173.4128501919225
 21
14.7330045486779
 31
0.0
 11
173.3087951724045
 21
14.73087465284505
 31
0.0
 11
173.2030010615595
 21
14.72784517367917
 31
0.0
 11
173.0980914750138
 21
14.4660443751335
 31
0.0
 11
173.0034868690331
 21
14.2171023265846
 31
0.0
 11
172.9252231210297
 21
13.99559756969557
 31
0.0
 11
172.8693431224554
 21
13.81626739612927
 31
0.0
 11
172.8082651639442
 21
13.82145433189185
 31
0.0
 11
172.7420873618129
 21
13.82315538223861
 31
0.0
 11
172.6758390041282
 21
13.82145433189185
 31
0.0
 11
172.6147963233937
 21
13.81626739612927
 31
0.0
 11
172.889968495193
 21
14.41656508695142
 31
0.0
 11
173.158294573417
 21
15.01343642360775
 31
0.0
 11
173.4240277350404
 21
15.61366245644381
 31
0.0
 11
173.6914740737032
 21
16.22421385386061
 31
0.0
 11
173.7241589339805
 21
16.22421385386061
 31
0.0
 11
173.7568437942578
 21
16.22421385386061
 31
0.0
 11
173.8428300681056
 21
16.01658539037083
 31
0.0
 11
173.9357285813608
 21
15.79254614563517
 31
0.0
 11
174.0328714521463
 21
15.55908663180469
 31
0.0
 11
174.131793645803
 21
15.32298128464145
 31
0.0
 11
174.2315341249926
 21
15.08649780379784
 31
0.0
 11
174.3313071129352
 21
14.8516878125371
 31
0.0
 11
174.4280608257448
 21
14.6259949219685
 31
0.0
 11
174.5188084970408
 21
14.41658052097918
 31
0.0
 11
174.6022150834546
 21
14.22607611130459
 31
0.0
 11
174.6770293263376
 21
14.05708232662467
 31
0.0
 11
174.7410729186603
 21
13.91781337700667
 31
0.0
 11
174.7922649500512
 21
13.81626739612927
 31
0.0
  0
SPLINE
  5
C0
102
{ACAD_REACTORS
330
DC
102
}
330
48
100
AcDbEntity
  8
_U_30EC_U_30A4_U_30E4_U_30FC_1
  6
Continuous
 62
     2
100
AcDbSpline
210
0.0
220
0.0
230
1.0
 70
    11
 71
     3
 72
    99
 73
    95
 74
    93
 42
0.000000001
 43
0.0000000001
 44
0.00000001
 40
0.0
 40
0.0
 40
0.0
 40
0.0
 40
0.0796417172272494
 40
0.1621768542356667
 40
0.2486489160957863
 40
0.3404969668525325
 40
0.4381912511165357
 40
0.5434463660245655
 40
0.6518115192846843
 40
0.753019093788639
 40
0.8492196919724686
 40
0.9419290312997762
 40
1.034249663570003
 40
1.129078600620192
 40
1.226697027573242
 40
1.32722042542171
 40
1.470572134938033
 40
1.595489863371246
 40
1.719934125348383
 40
1.850576620127372
 40
1.989059629987316
 40
2.134139054226958
 40
2.280698007207222
 40
2.424529739039444
 40
2.565929576985858
 40
2.708239260773513
 40
2.861717887443662
 40
3.04516854034738
 40
3.183798301138623
 40
3.314813961455477
 40
3.442083470447324
 40
3.569912708373042
 40
3.702177512509419
 40
3.842307559659612
 40
3.992872223245987
 40
4.156750662218318
 40
4.310981861107567
 40
4.445859909322667
 40
4.572393936131633
 40
4.701656719782056
 40
4.768279086008559
 40
4.835960697898499
 40
4.912788918729442
 40
5.006285208481655
 40
5.026909478751703
 40
5.047533749021211
 40
5.101808031471289
 40
5.16232516553861
 40
5.226919745995919
 40
5.294231806596813
 40
5.364544852554919
 40
5.438319055468037
 40
5.517877651324292
 40
5.60764771486166
 40
5.700449642544478
 40
5.788251142364154
 40
5.872714706039786
 40
5.955167292575375
 40
6.037192395190448
 40
6.120669181469141
 40
6.206848616686402
 40
6.296680855416813
 40
6.442558392872638
 40
6.568190371608334
 40
6.692904567360355
 40
6.824220446557113
 40
6.963121850329374
 40
7.107843738851156
 40
7.253431663907325
 40
7.395187468036771
 40
7.533140753237781
 40
7.670550457175231
 40
7.81623651176926
 40
7.987691657359224
 40
8.142277421969261
 40
8.293662615415021
 40
8.442962460879283
 40
8.591598316185266
 40
8.743678992361755
 40
8.903725323699215
 40
9.076307008890508
 40
9.265578604680618
 40
9.459203795360736
 40
9.617619810273549
 40
9.753609671361858
 40
9.874873300004007
 40
9.954520184977685
 40
10.02416413719235
 40
10.09769764405434
 40
10.18909955924962
 40
10.20974586420132
 40
10.23039218263377
 40
10.30057101881261
 40
10.37632012987539
 40
10.37632012987539
 40
10.37632012987539
 40
10.37632012987539
 10
170.146595483585
 20
14.13795663215994
 30
0.0
 10
170.1632217851218
 20
14.11720608845312
 30
0.0
 10
170.1970784206576
 20
14.07495111711898
 30
0.0
 10
170.2599822541036
 20
14.02029811392077
 30
0.0
 10
170.3332500940392
 20
13.97299025121046
 30
0.0
 10
170.4175969238636
 20
13.93527231437936
 30
0.0
 10
170.513224061546
 20
13.9104061973195
 30
0.0
 10
170.6171853775346
 20
13.90309559345937
 30
0.0
 10
170.7224020220404
 20
13.91142322794055
 30
0.0
 10
170.8206626371332
 20
13.94149179651527
 30
0.0
 10
170.9058986427547
 20
13.98848822971875
 30
0.0
 10
170.9779220206102
 20
14.04952991250857
 30
0.0
 10
171.0350917709095
 20
14.12412969578586
 30
0.0
 10
171.0767868747439
 20
14.2100246466017
 30
0.0
 10
171.1026952846292
 20
14.30485850432211
 30
0.0
 10
171.1118037332653
 20
14.41854979038367
 30
0.0
 10
171.0986864796486
 20
14.54332587770779
 30
0.0
 10
171.0325330334413
 20
14.6601471917189
 30
0.0
 10
170.9369370919568
 20
14.74512539577373
 30
0.0
 10
170.8249681022368
 20
14.81416684459161
 30
0.0
 10
170.6993659583269
 20
14.87204142045889
 30
0.0
 10
170.5656691620856
 20
14.92373723284338
 30
0.0
 10
170.431312281883
 20
14.97899092397179
 30
0.0
 10
170.3051983986877
 20
15.04939770641653
 30
0.0
 10
170.1926579987534
 20
15.13785540731246
 30
0.0
 10
170.0969963064458
 20
15.24981067868477
 30
0.0
 10
170.0334157151824
 20
15.3994991010138
 30
0.0
 10
170.0200706505015
 20
15.55932794385142
 30
0.0
 10
170.0320510987447
 20
15.71048405306846
 30
0.0
 10
170.071229892884
 20
15.83809244591538
 30
0.0
 10
170.1354987750909
 20
15.95080874030848
 30
0.0
 10
170.223820499974
 20
16.04648609268682
 30
0.0
 10
170.3338091207627
 20
16.12354214985756
 30
0.0
 10
170.4632284401265
 20
16.18151396936277
 30
0.0
 10
170.6111838967793
 20
16.21739177588822
 30
0.0
 10
170.7682069455485
 20
16.22746719050562
 30
0.0
 10
170.917494046643
 20
16.2186363776259
 30
0.0
 10
171.059625361417
 20
16.19074899340354
 30
0.0
 10
171.1595922609625
 20
16.13413314701136
 30
0.0
 10
171.3125074736185
 20
16.08674602105506
 30
0.0
 10
171.2455131717168
 20
16.00197553001185
 30
0.0
 10
171.2296479120269
 20
15.93438901873481
 30
0.0
 10
171.1978750531295
 20
15.86926092793191
 30
0.0
 10
171.215020220957
 20
15.76723453256953
 30
0.0
 10
171.1666427208231
 20
15.774932116819
 30
0.0
 10
171.1315789440766
 20
15.76806771724808
 30
0.0
 10
171.1296697985718
 20
15.83263831158197
 30
0.0
 10
171.0985692931988
 20
15.87825639621391
 30
0.0
 10
171.0664551628455
 20
15.93561036628457
 30
0.0
 10
171.0208038475166
 20
15.98540462692555
 30
0.0
 10
170.9658508218387
 20
16.02994813719
 30
0.0
 10
170.9010841173007
 20
16.06763988836545
 30
0.0
 10
170.8232377310596
 20
16.09283375791355
 30
0.0
 10
170.7355160553352
 20
16.0993123099811
 30
0.0
 10
170.6452903277806
 20
16.09235709285608
 30
0.0
 10
170.5594594694064
 20
16.0690919046092
 30
0.0
 10
170.4828343638596
 20
16.03131644107543
 30
0.0
 10
170.41652656362
 20
15.98051641089576
 30
0.0
 10
170.3622560536963
 20
15.91731143407209
 30
0.0
 10
170.3224925345459
 20
15.84276455710364
 30
0.0
 10
170.2976775510587
 20
15.75917313997765
 30
0.0
 10
170.289212426287
 20
15.65192948382284
 30
0.0
 10
170.3019697987102
 20
15.52965457267557
 30
0.0
 10
170.3681548409274
 20
15.41149724291216
 30
0.0
 10
170.4640977399831
 20
15.32606325709525
 30
0.0
 10
170.5757914963181
 20
15.2558336230672
 30
0.0
 10
170.7010863668701
 20
15.19659162305304
 30
0.0
 10
170.8349823941446
 20
15.14616708086132
 30
0.0
 10
170.9689930333149
 20
15.09322516984382
 30
0.0
 10
171.0950885316914
 20
15.02750170625178
 30
0.0
 10
171.2076216638417
 20
14.94480352537321
 30
0.0
 10
171.3031370284232
 20
14.83996006310071
 30
0.0
 10
171.3672706486961
 20
14.6993711725157
 30
0.0
 10
171.3811103725279
 20
14.54065409451592
 30
0.0
 10
171.3673954712228
 20
14.38153155217876
 30
0.0
 10
171.3244739153984
 20
14.23483828819209
 30
0.0
 10
171.2545906329065
 20
14.10119796587146
 30
0.0
 10
171.1574592213829
 20
13.98532387699286
 30
0.0
 10
171.0347806023657
 20
13.89089981770086
 30
0.0
 10
170.8874408413167
 20
13.82179270651984
 30
0.0
 10
170.7177132497123
 20
13.77953210858851
 30
0.0
 10
170.5317404979596
 20
13.76781736230409
 30
0.0
 10
170.3528955926182
 20
13.77809486683437
 30
0.0
 10
170.1881733753743
 20
13.81966573769152
 30
0.0
 10
170.0834410841056
 20
13.88797642883942
 30
0.0
 10
169.9350960790366
 20
13.93675219032105
 30
0.0
 10
169.9980378194728
 20
14.02976591290843
 30
0.0
 10
170.0072274430058
 20
14.10296536248281
 30
0.0
 10
170.0303711301231
 20
14.16936294501347
 30
0.0
 10
170.0034588335316
 20
14.26974809527584
 30
0.0
 10
170.0521338956339
 20
14.26234033517377
 30
0.0
 10
170.0916530580697
 20
14.26894063620895
 30
0.0
 10
170.0996204944702
 20
14.19078703218933
 30
0.0
 10
170.1305436967923
 20
14.15600927375857
 30
0.0
 10
170.146595483585
 20
14.13795663215994
 30
0.0
 11
170.146595483585
 21
14.13795663215994
 31
0.0
 11
170.1982038075863
 21
14.07729869814736
 31
0.0
 11
170.2601105501335
 21
14.0227129516332
 31
0.0
 11
170.3327764009802
 21
13.97583980928382
 31
0.0
 11
170.4166468655843
 21
13.93839906276537
 31
0.0
 11
170.511221073241
 21
13.91390636311877
 31
0.0
 11
170.6161603327165
 21
13.90575829888472
 31
0.0
 11
170.7240739497551
 21
13.91564048638223
 31
0.0
 11
170.8208419941615
 21
13.94528704887481
 31
0.0
 11
170.9050776083317
 21
13.99175118948818
 31
0.0
 11
170.9756144207685
 21
14.0519141321815
 31
0.0
 11
171.0319442109979
 21
14.1250581946632
 31
0.0
 11
171.0736690016003
 21
14.21021434047521
 31
0.0
 11
171.0994680808032
 21
14.30436190989612
 31
0.0
 11
171.1080824729446
 21
14.4045155209822
 31
0.0
 11
171.0878517703356
 21
14.54643250879397
 31
0.0
 11
171.027252266673
 21
14.65566684036387
 31
0.0
 11
170.9364971286285
 21
14.74081306430094
 31
0.0
 11
170.826010188474
 21
14.81052746532515
 31
0.0
 11
170.7008523531254
 21
14.86979854169922
 31
0.0
 11
170.5662951950997
 21
14.92404253474119
 31
0.0
 11
170.4316884277006
 21
14.98201274306003
 31
0.0
 11
170.3065802017258
 21
15.05297399304232
 31
0.0
 11
170.1960276098279
 21
15.14113315968695
 31
0.0
 11
170.1053381235265
 21
15.25080295132617
 31
0.0
 11
170.0447055469483
 21
15.39179720476315
 31
0.0
 11
170.0245079172552
 21
15.57413260402314
 31
0.0
 11
170.0374030471346
 21
15.71216131926642
 31
0.0
 11
170.076101665939
 21
15.83733128451289
 31
0.0
 11
170.1393141731506
 21
15.94779262129083
 31
0.0
 11
170.2257499954545
 21
16.04196885390621
 31
0.0
 11
170.3336492808962
 21
16.11846540770651
 31
0.0
 11
170.4613526283328
 21
16.17615670109488
 31
0.0
 11
170.6075393259922
 21
16.21220066809973
 31
0.0
 11
170.7709768565449
 21
16.22421385386061
 31
0.0
 11
170.9248918431289
 21
16.21434269066864
 31
0.0
 11
171.0564887242607
 21
16.18477329831497
 31
0.0
 11
171.1725636344939
 21
16.13439993895252
 31
0.0
 11
171.2800792741122
 21
16.06264163167877
 31
0.0
 11
171.2516994050444
 21
16.00236624106886
 31
0.0
 11
171.2284855254283
 21
15.93879017337646
 31
0.0
 11
171.20783810408
 21
15.86478841992269
 31
0.0
 11
171.1871840681486
 21
15.77360197897326
 31
0.0
 11
171.1665597978414
 21
15.77360197897326
 31
0.0
 11
171.1459355275343
 21
15.77360197897326
 31
0.0
 11
171.1256706495791
 21
15.82395108486346
 31
0.0
 11
171.099465875942
 21
15.87850045116928
 31
0.0
 11
171.065046892445
 21
15.93316116296114
 31
0.0
 11
171.0203554612936
 21
15.98349593725411
 31
0.0
 11
170.965733335951
 21
16.02777175321529
 31
0.0
 11
170.9016722004325
 21
16.06436142334501
 31
0.0
 11
170.825968296114
 21
16.08882545979727
 31
0.0
 11
170.7365722046448
 21
16.09701100667022
 31
0.0
 11
170.6440937174207
 21
16.08926973931101
 31
0.0
 11
170.5594072091645
 21
16.06609003445566
 31
0.0
 11
170.483702448884
 21
16.02863495634008
 31
0.0
 11
170.4183754766515
 21
15.97832774281101
 31
0.0
 11
170.3650487887664
 21
15.91600293379878
 31
0.0
 11
170.3254809233901
 21
15.84249947895607
 31
0.0
 11
170.300952375471
 21
15.75988443557391
 31
0.0
 11
170.2927954104108
 21
15.67042329844352
 31
0.0
 11
170.3130095765617
 21
15.52595308146573
 31
0.0
 11
170.373625616682
 21
15.41591177072937
 31
0.0
 11
170.4643479320757
 21
15.33033670130631
 31
0.0
 11
170.5748676948812
 21
15.25941954854624
 31
0.0
 11
170.7000089937718
 21
15.19914305550578
 31
0.0
 11
170.8345826882552
 21
15.14590447913022
 31
0.0
 11
170.9691729191967
 21
15.09039489581073
 31
0.0
 11
171.0942976816297
 21
15.0237728124941
 31
0.0
 11
171.204800907977
 21
14.94118863716749
 31
0.0
 11
171.2955397598287
 21
14.83800003476272
 31
0.0
 11
171.3561557999488
 21
14.70552315979584
 31
0.0
 11
171.3763699660997
 21
14.53526378483839
 31
0.0
 11
171.3621839747997
 21
14.38133030397412
 31
0.0
 11
171.3196087009192
 21
14.23605531269097
 31
0.0
 11
171.2499752884264
 21
14.10398854189068
 31
0.0
 11
171.1544992078713
 21
13.99007218775246
 31
0.0
 11
171.0341060772624
 21
13.89715272597017
 31
0.0
 11
170.8896160201845
 21
13.8283235766818
 31
0.0
 11
170.7223519532713
 21
13.78581275203967
 31
0.0
 11
170.5336103348225
 21
13.77165864614042
 31
0.0
 11
170.3405031726387
 21
13.78581275203967
 31
0.0
 11
170.187897590091
 21
13.8283235766818
 31
0.0
 11
170.0661897942203
 21
13.88899033013889
 31
0.0
 11
169.9660261826363
 21
13.95734322942737
 31
0.0
 11
169.9922320587038
 21
14.03255545163077
 31
0.0
 11
170.0090121537617
 21
14.10014767383613
 31
0.0
 11
170.0206196447851
 21
14.17275926235961
 31
0.0
 11
170.0313606254138
 21
14.26352788212859
 31
0.0
 11
170.0520069443315
 21
14.26352788212859
 31
0.0
 11
170.0726532632492
 21
14.26352788212859
 31
0.0
 11
170.1048916391629
 21
14.20119204881084
 31
0.0
 11
170.146595483585
 21
14.13795663215994
 31
0.0
  0
LWPOLYLINE
  5
C1
102
{ACAD_REACTORS
330
CE
102
}
330
48
100
AcDbEntity
  8
_U_30EC_U_30A4_U_30E4_U_30FC_1
  6
Continuous
 62
     2
100
AcDbPolyline
 90
        5
 70
     1
 43
0.0
 10
192.4578138032671
 20
15.39722336795625
 10
192.4578138032671
 20
15.22875434022056
 10
191.160297169703
 20
15.22875434022056
 10
191.160297169703
 20
15.39722336795625
 10
192.4578138032671
 20
15.39722336795625
  0
MTEXT
  5
C3
330
48
100
AcDbEntity
  8
1
 62
     2
100
AcDbMText
 10
32.5
 20
282.0000000000003
 30
0.0
 40
5.0
 41
0.0
 71
     5
 72
     1
  1
図番
  7
CONVERTER_11
 73
     1
 44
0.45454545454545
  0
MTEXT
  5
C4
330
48
100
AcDbEntity
  8
1
 62
     2
100
AcDbMText
 10
29.0
 20
34.0
 30
0.0
 40
3.5
 41
0.0
 71
     5
 72
     1
  1
備考
  7
CONVERTER_11
 73
     1
 44
0.45454545454545
  0
MTEXT
  5
C5
330
48
100
AcDbEntity
  8
1
 62
     2
100
AcDbMText
 10
29.0
 20
22.75
 30
0.0
 40
3.5
 41
0.0
 71
     5
 72
     1
  1
品名
  7
CONVERTER_11
 73
     1
 44
0.72727272727273
  0
MTEXT
  5
C6
330
48
100
AcDbEntity
  8
1
 62
     2
100
AcDbMText
 10
29.0
 20
14.25
 30
0.0
 40
3.5
 41
0.0
 71
     5
 72
     1
  1
品番
  7
CONVERTER_11
 73
     1
 44
0.72727272727273
  0
MTEXT
  5
C7
330
48
100
AcDbEntity
  8
1
 62
     2
100
AcDbMText
 10
101.5
 20
25.00000000000001
 30
0.0
 40
3.0
 41
0.0
 71
     5
 72
     1
  1
承認
  7
CONVERTER_11
 73
     1
 44
0.59090909090909
  0
MTEXT
  5
C8
330
48
100
AcDbEntity
  8
1
 62
     2
100
AcDbMText
 10
174.9999999999999
 20
23.5
 30
0.0
 40
3.5
 41
0.0
 71
     5
 72
     1
  1
第三角法
  7
CONVERTER_11
 73
     1
 44
0.54545454545455
  0
MTEXT
  5
C9
330
48
100
AcDbEntity
  8
1
 62
     2
100
AcDbMText
 10
118.5
 20
25.00000000000001
 30
0.0
 40
3.0
 41
0.0
 71
     5
 72
     1
  1
検図
  7
CONVERTER_11
 73
     1
 44
0.59090909090909
  0
MTEXT
  5
CA
330
48
100
AcDbEntity
  8
1
 62
     2
100
AcDbMText
 10
152.5
 20
25.00000000000001
 30
0.0
 40
3.0
 41
0.0
 71
     5
 72
     1
  1
設計
  7
CONVERTER_11
 73
     1
 44
0.59090909090909
  0
MTEXT
  5
CB
330
48
100
AcDbEntity
  8
1
 62
     2
100
AcDbMText
 10
135.5
 20
25.00000000000001
 30
0.0
 40
3.0
 41
0.0
 71
     5
 72
     1
  1
製図
  7
CONVERTER_11
 73
     1
 44
0.59090909090909
  0
MTEXT
  5
CC
330
48
100
AcDbEntity
  8
1
 62
     2
100
AcDbMText
 10
89.5
 20
24.00000000000001
 30
0.0
 40
3.5
 41
0.0
 71
     5
 72
     1
  1
尺度
  7
CONVERTER_11
 73
     1
 44
0.54545454545455
  0
MTEXT
  5
CD
330
48
100
AcDbEntity
  8
1
 62
   250
100
AcDbMText
 10
25.0
 20
5.0
 30
0.0
 40
3.5
 41
0.0
 71
     4
 72
     1
  1
備考欄の文字列 原点位置=4
  7
CONVERTER_11
 73
     1
 44
0.54545454545455
  0
HATCH
  5
CE
330
48
100
AcDbEntity
  8
1
  6
Continuous
 62
     2
100
AcDbHatch
 10
0.0
 20
0.0
 30
0.0
210
0.0
220
0.0
230
1.0
  2
CUSTOM0
 70
     0
 71
     1
 91
        1
 92
        1
 93
        4
 72
     1
 10
192.4578138032671
 20
15.39722336795625
 11
192.4578138032671
 21
15.22875434022056
 72
     1
 10
192.4578138032671
 20
15.22875434022056
 11
191.160297169703
 21
15.22875434022056
 72
     1
 10
191.160297169703
 20
15.22875434022056
 11
191.160297169703
 21
15.39722336795625
 72
     1
 10
191.160297169703
 20
15.39722336795625
 11
192.4578138032671
 21
15.39722336795625
 97
        1
330
C1
 75
     1
 76
     2
 52
45.0
 41
0.1
 77
     0
 78
     1
 53
45.0
 43
0.0
 44
0.0
 45
-0.282842712474619
 46
0.0
 79
     0
 98
        1
 10
0.0
 20
0.0
  0
HATCH
  5
CF
330
48
100
AcDbEntity
  8
1
  6
Continuous
 62
     2
100
AcDbHatch
 10
0.0
 20
0.0
 30
0.0
210
0.0
220
0.0
230
1.0
  2
CUSTOM1
 70
     0
 71
     1
 91
        1
 92
        1
 93
        3
 72
     4
 94
        3
 73
     0
 74
     0
 95
       24
 96
       20
 40
0.0
 40
0.0
 40
0.0
 40
0.0
 40
0.2211075008753836
 40
0.4273218586245269
 40
0.5080174679238988
 40
0.5914835907870425
 40
0.8143265690193108
 40
1.054651302686602
 40
1.295452694023199
 40
1.518109231328847
 40
1.540864321905462
 40
1.595126460622751
 40
1.65989094789612
 40
1.714153085187506
 40
1.736908174961806
 40
1.764951100735535
 40
1.801562291221181
 40
1.953914424543845
 40
2.126104167379911
 40
2.126104167379911
 40
2.126104167379911
 40
2.126104167379911
 10
185.9375369556888
 20
15.58989295113016
 10
185.911257908181
 20
15.53097628234374
 10
185.8604698894425
 20
15.41711139679258
 10
185.813178483911
 20
15.14441958233116
 10
185.7043482802617
 20
15.24445482575456
 10
185.5514800279635
 20
15.27118593367328
 10
185.7686155181199
 20
15.4851813501763
 10
185.7838483674379
 20
15.70332117782488
 10
185.8906889492
 20
15.88451579066424
 10
185.8305380947077
 20
16.16913226311402
 10
185.9334317395401
 20
16.1411408922245
 10
185.9779933468149
 20
16.13243251602299
 10
186.0380842395397
 20
16.12139654183355
 10
186.0756619587438
 20
16.1076752305556
 10
186.1252466928607
 20
16.10756076160222
 10
186.0930158919324
 20
16.07306592398622
 10
186.0171802221881
 20
16.08404104537965
 10
186.0429447159692
 20
15.89858969582448
 10
186.0055896763849
 20
15.80702313549588
 10
185.9857704961609
 20
15.75844135397704
 72
     4
 94
        3
 73
     0
 74
     0
 95
       70
 96
       66
 40
0.0
 40
0.0
 40
0.0
 40
0.0
 40
0.0241731073021188
 40
0.0846058988987013
 40
0.1631685280352715
 40
0.2417311571788903
 40
0.3021639488291614
 40
0.3263370654894688
 40
0.3533118254248028
 40
0.4228783438921294
 40
0.5179999095312621
 40
0.6216398239465285
 40
0.716761389149896
 40
0.7863279069649117
 40
0.813302679176109
 40
0.8372943998771211
 40
0.8945054261372406
 40
0.9627895541962459
 40
1.020000580349056
 40
1.043992300975182
 40
1.071934345522955
 40
1.113121768772888
 40
1.145225199332213
 40
1.225483775412751
 40
1.329819923771463
 40
1.434156071994357
 40
1.514414647795778
 40
1.546518078208386
 40
1.578974764260131
 40
1.662678849314126
 40
1.777131373668347
 40
1.901833377474709
 40
2.016285900500499
 40
2.099989982527809
 40
2.132446666570168
 40
2.158782354485892
 40
2.21672086790768
 40
2.274659381334102
 40
2.300995069256038
 40
2.33345175406601
 40
2.417155836543662
 40
2.531608358985073
 40
2.65631036228354
 40
2.770762886388672
 40
2.854466971339809
 40
2.886923657363615
 40
2.913597976833048
 40
2.982389642874853
 40
3.076451716946718
 40
3.17893726045833
 40
3.272999334739735
 40
3.341791001058956
 40
3.368465320663269
 40
3.39697608073849
 40
3.472140811845726
 40
3.578408190308416
 40
3.700226892455852
 40
3.822045594634069
 40
3.928312973256176
 40
4.003477705314573
 40
4.031988456866639
 40
4.058324144797437
 40
4.116262658236595
 40
4.174201171400389
 40
4.200536849608321
 40
4.200536849608321
 40
4.200536849608321
 40
4.200536849608321
 10
185.9857704961609
 20
15.75844135397704
 10
185.9938259544679
 20
15.75844359811686
 10
186.0220200663241
 20
15.75845146032796
 10
186.0765534803672
 20
15.7583075482837
 10
186.1482891808603
 20
15.75909120499897
 10
186.2236240137062
 20
15.75627570463809
 10
186.2713052366438
 20
15.76298403400956
 10
186.3195071245615
 20
15.7519756369243
 10
186.3062571799873
 20
15.80546402997032
 10
186.3151093964537
 20
15.8604958354309
 10
186.3108698036285
 20
15.95419908726108
 10
186.3133483481278
 20
16.04959482218532
 10
186.309093870606
 20
16.14356821983387
 10
186.3179818665846
 20
16.19795062438013
 10
186.3046977409944
 20
16.25233997691461
 10
186.3514119277107
 20
16.23842216335358
 10
186.3943254545736
 20
16.24103877374043
 10
186.4605443456684
 20
16.23648422450755
 10
186.5013342271798
 20
16.22778162134162
 10
186.5525145690819
 20
16.23531799890194
 10
186.5253720487199
 20
16.19349970223292
 10
186.4803096055707
 20
16.20284992072592
 10
186.4942065045051
 20
16.13841207371838
 10
186.4858414431654
 20
16.07378219627398
 10
186.4903632178398
 20
15.97529141193887
 10
186.4854741311167
 20
15.87595932842569
 10
186.4950258992081
 20
15.81293115552968
 10
186.47997614552
 20
15.74964011499789
 10
186.5449159457208
 20
15.76515072944267
 10
186.6116246399496
 20
15.75499387697811
 10
186.7241435470827
 20
15.75988800099366
 10
186.8390235448953
 20
15.75691204732782
 10
186.9519871999746
 20
15.7622166418499
 10
187.0176267597676
 20
15.75107306472088
 10
187.0816276691052
 20
15.76744532319856
 10
187.0703142889188
 20
15.71761689905273
 10
187.0775339871508
 20
15.67416715212121
 10
187.0703142611268
 20
15.63071745587443
 10
187.0816277175992
 20
15.58088895196875
 10
187.0176263598971
 20
15.59726166091361
 10
186.9519921240458
 20
15.58611271661587
 10
186.838997431733
 20
15.59144857206853
 10
186.7242456548642
 20
15.5883434566382
 10
186.6113183686861
 20
15.59364894682588
 10
186.5455220903584
 20
15.58257300019593
 10
186.4816097975358
 20
15.59887597847617
 10
186.4936015165125
 20
15.5442352439574
 10
186.4862104613005
 20
15.48854295047841
 10
186.4892684841983
 20
15.39649689140569
 10
186.4893422785682
 20
15.301791098731
 10
186.486031357836
 20
15.20952782902264
 10
186.4939505989904
 20
15.15435768736139
 10
186.4815076611617
 20
15.10058169100135
 10
186.5389116551632
 20
15.1145376886278
 10
186.5994708140382
 20
15.10511457884225
 10
186.7048680855081
 20
15.10942885928704
 10
186.8204294070622
 20
15.1083550461203
 10
186.9359688877797
 20
15.10725965900994
 10
187.0414181130841
 20
15.11162525770632
 10
187.1018680471804
 20
15.10209426030669
 10
187.159283773911
 20
15.11617289606379
 10
187.1477773876708
 20
15.06707153265681
 10
187.1537566781749
 20
15.02564658018649
 10
187.1520311050801
 20
14.97651677966695
 10
187.1521500122971
 20
14.94854428447608
 10
187.1521871691833
 20
14.9398028819595
 72
     4
 94
        3
 73
     0
 74
     0
 95
       62
 96
       58
 40
0.0
 40
0.0
 40
0.0
 40
0.0
 40
0.0598250028308769
 40
0.2024846486897616
 40
0.3727558389221315
 40
0.5154154847936923
 40
0.5752404975786192
 40
0.9332326775488159
 40
1.290451762839584
 40
1.602077253145938
 40
1.69993163411213
 40
1.799359756425084
 40
2.270120149657107
 40
2.804661928461542
 40
2.882342287383254
 40
3.076543185719105
 40
3.329004354835572
 40
3.581465524568399
 40
3.775666424543687
 40
3.853346784558306
 40
3.899120679595081
 40
3.984129341792107
 40
4.029903236817484
 40
4.105797496059639
 40
4.295533144152598
 40
4.542189486611834
 40
4.788845828875782
 40
4.978581476410163
 40
5.054475735244406
 40
5.6217346643394
 40
6.130867242037457
 40
6.225249780948672
 40
6.318913039727394
 40
6.663579954559031
 40
7.047498900224898
 40
7.435230791575848
 40
7.49894390666826
 40
7.650875181210282
 40
7.83221250900185
 40
7.984143783697236
 40
8.04785689890339
 40
8.091554632732894
 40
8.172707566964545
 40
8.216405300768267
 40
8.289021782161152
 40
8.462184160757497
 40
8.668861838005663
 40
8.842024215264226
 40
8.914640695475422
 40
8.989881580861626
 40
9.155411528827534
 40
9.32094147774432
 40
9.39618235248757
 40
9.454709011144088
 40
9.58346766017108
 40
9.712226309013301
 40
9.770752957989783
 40
9.770752957989783
 40
9.770752957989783
 40
9.770752957989783
 10
187.1521871691833
 20
14.9398028819595
 10
187.1322348171623
 20
14.93980875568671
 10
187.0647037716465
 20
14.93982863806157
 10
186.9410612161788
 20
14.93949362520326
 10
186.7863180150056
 20
14.94107673750512
 10
186.6697349482479
 20
14.93686078860494
 10
186.4550942634239
 20
14.95215205331627
 10
186.8518948407228
 20
14.5919872128619
 10
186.8945656069267
 20
14.37510503397166
 10
187.3189162146609
 20
14.19325062511453
 10
187.1439821496074
 20
14.08985196568067
 10
187.0194523925082
 20
13.8783152321273
 10
186.7666277235942
 20
14.34806081001557
 10
186.4797602893628
 20
14.99511516984523
 10
186.4906335926659
 20
14.68782672154694
 10
186.488289277796
 20
14.5228861697178
 10
186.4861096126411
 20
14.28879670711694
 10
186.4980774396346
 20
14.04498072421784
 10
186.4687984740631
 20
13.89855796860985
 10
186.511452262547
 20
13.75113490174537
 10
186.4239814005639
 20
13.76685797306221
 10
186.3768527606744
 20
13.76694303543455
 10
186.2898973207712
 20
13.75109425482909
 10
186.3313474021722
 20
13.89527771422762
 10
186.3029875004284
 20
14.03855052698455
 10
186.3145973775298
 20
14.27674947365264
 10
186.3124175648271
 20
14.50517235240346
 10
186.3103111127992
 20
14.66705729375993
 10
186.3208035438323
 20
14.98153709333751
 10
186.0128963252893
 20
14.29229470872433
 10
185.7055258267455
 20
13.81476750243045
 10
185.5851367066273
 20
14.03741112637429
 10
185.407460791072
 20
14.15011034955565
 10
185.8853326362894
 20
14.32548143465461
 10
185.9353959057207
 20
14.5609192925203
 10
186.3583799621717
 20
14.95322989344606
 10
186.127675427354
 20
14.93655307029066
 10
186.004968585934
 20
14.94269518948771
 10
185.8325483095661
 20
14.93312822699574
 10
185.7213224694448
 20
14.95448818489666
 10
185.6025779627447
 20
14.92136265357419
 10
185.6183169706685
 20
15.00203900606883
 10
185.6178550933761
 20
15.04645414290853
 10
185.602788188993
 20
15.12967081778532
 10
185.7372380935442
 20
15.09062651983882
 10
185.8619755545745
 20
15.11739729328421
 10
186.0628755237279
 20
15.10063949044051
 10
186.1921540949352
 20
15.12204225913002
 10
186.3328419928294
 20
15.0886877885342
 10
186.2980927452614
 20
15.22651875785067
 10
186.3222185666712
 20
15.3496325734948
 10
186.2967086182392
 20
15.47024055670334
 10
186.3333251146684
 20
15.60539865141493
 10
186.2211417027768
 20
15.58094545781889
 10
186.1280356457135
 20
15.59307749842021
 10
186.0191547579819
 20
15.58957630069994
 10
185.9569697640963
 20
15.58981755951601
 10
185.9375369557245
 20
15.58989295124143
 97
        3
330
B2
330
B0
330
B1
 75
     1
 76
     2
 52
45.0
 41
0.1
 77
     0
 78
     1
 53
45.0
 43
0.0
 44
0.0
 45
-0.282842712474619
 46
0.0
 79
     0
 98
        1
 10
0.0
 20
0.0
  0
HATCH
  5
D0
330
48
100
AcDbEntity
  8
1
  6
Continuous
 62
     2
100
AcDbHatch
 10
0.0
 20
0.0
 30
0.0
210
0.0
220
0.0
230
1.0
  2
CUSTOM2
 70
     0
 71
     1
 91
        1
 92
        1
 93
        1
 72
     4
 94
        3
 73
     0
 74
     0
 95
      124
 96
      120
 40
0.0
 40
0.0
 40
0.0
 40
0.0
 40
0.027818722962451
 40
0.1011590162384554
 40
0.2048470170590523
 40
0.3237088716559814
 40
0.4425707262522852
 40
0.5462587270700684
 40
0.6195990203312934
 40
0.6474177522579797
 40
0.6750060736116361
 40
0.7357003855243895
 40
0.7963946998055629
 40
0.8239830245572921
 40
0.8540933811104015
 40
0.9373396629410695
 40
1.06309468734335
 40
1.220731268638217
 40
1.399622220914891
 40
1.589140358637933
 40
1.778658496424071
 40
1.957549448940738
 40
2.115186030873359
 40
2.240941056914663
 40
2.324187341760761
 40
2.354297700109611
 40
2.381886024672117
 40
2.442580338710706
 40
2.50327465275073
 40
2.530862977314837
 40
2.56098394927879
 40
2.640393784453164
 40
2.752662861759359
 40
2.881361560118347
 40
3.010060258455394
 40
3.12232933570557
 40
3.201739170818183
 40
3.231860142753544
 40
3.264298024030601
 40
3.352343701778472
 40
3.482095226868997
 40
3.639650650173258
 40
3.811108022565713
 40
3.982565394928222
 40
4.140120818152803
 40
4.269872343141514
 40
4.357918020802576
 40
4.390355902044205
 40
4.423256253992803
 40
4.508104530073267
 40
4.624121560637064
 40
4.750528176031763
 40
4.866545206602239
 40
4.951393482692224
 40
4.984293834645597
 40
5.011450833242511
 40
5.071196230152293
 40
5.130941627057367
 40
5.158098625649031
 40
5.190998977601665
 40
5.275847253689547
 40
5.391864284256981
 40
5.518270899648498
 40
5.634287930209537
 40
5.719136206288211
 40
5.752036558236099
 40
5.782130946283124
 40
5.862783906229299
 40
5.979550131775166
 40
6.117984316640572
 40
6.263641154588117
 40
6.402075339414323
 40
6.518841564908118
 40
6.599494524815699
 40
6.629588912848937
 40
6.654403028226541
 40
6.713575149488308
 40
6.784199939329683
 40
6.843372060493814
 40
6.86818617580306
 40
6.896246243202149
 40
6.939586233758625
 40
6.967846564565253
 40
7.043584251090191
 40
7.153234334452049
 40
7.283231855734799
 40
7.420011856035833
 40
7.550009376580185
 40
7.659659458835584
 40
7.735397144417577
 40
7.763657474851749
 40
7.796409728011378
 40
7.880876065096681
 40
7.996370852466066
 40
8.122208446418961
 40
8.237703224799555
 40
8.322169562011249
 40
8.354921815206263
 40
8.382078813308043
 40
8.441824209207345
 40
8.501569605240492
 40
8.528726603486069
 40
8.56147885669609
 40
8.64594519387814
 40
8.76143998086568
 40
8.88727758076485
 40
9.002772362001343
 40
9.087238696661563
 40
9.119990949236017
 40
9.152428830613717
 40
9.240474508638933
 40
9.370226034149884
 40
9.52778145798477
 40
9.699238830981757
 40
9.87069620397895
 40
10.02825162781437
 40
10.15800315332599
 40
10.24604883135154
 40
10.27848670378557
 40
10.27848670378557
 40
10.27848670378557
 40
10.27848670378557
 10
195.3821827564382
 20
14.01410517385757
 10
195.3914554737522
 20
14.01410498511274
 10
195.4251744536859
 20
14.01410430876714
 10
195.4934706812464
 20
14.01411807243304
 10
195.592014171158
 20
14.01403224219546
 10
195.7062066464811
 20
14.0144175561225
 10
195.8185894417071
 20
14.01300835897545
 10
195.9214376600117
 20
14.01719117422243
 10
195.9806839874849
 20
14.00823089251983
 10
196.0371265937032
 20
14.02164434526061
 10
196.0246255586955
 20
13.97087198613361
 10
196.0329549635704
 20
13.92589320939067
 10
196.0248170841119
 20
13.88056752990488
 10
196.0370529214457
 20
13.82931932408466
 10
195.9747773490333
 20
13.84447955365276
 10
195.9060513026868
 20
13.83359750710743
 10
195.7782756749591
 20
13.83911304747972
 10
195.6262984511644
 20
13.83700851253698
 10
195.4502695972521
 20
13.83771002588473
 10
195.2644431934287
 20
13.83745237531291
 10
195.0786167437174
 20
13.83771005144603
 10
194.9025880142167
 20
13.83700841847731
 10
194.7506104154193
 20
13.83911332229988
 10
194.6228357664554
 20
13.8335968076764
 10
194.5541077836579
 20
13.84448077125942
 10
194.4918349042882
 20
13.82931786684209
 10
194.5040616290017
 20
13.88057510805171
 10
194.4960004462596
 20
13.92582473272425
 10
194.5040675809891
 20
13.97106357955323
 10
194.4918238487082
 20
14.02234176909958
 10
194.5525017120697
 20
14.00749577363135
 10
194.6162810745735
 20
14.01756448170735
 10
194.7277314353502
 20
14.01294644211999
 10
194.8497533443822
 20
14.01413328905469
 10
194.9719538137822
 20
14.01515863900635
 10
195.082979428739
 20
14.01092475623402
 10
195.1476517413957
 20
14.02018584521739
 10
195.20911628105
 20
14.00604423049682
 10
195.1930065601336
 20
14.07235527884517
 10
195.2042980327357
 20
14.14447790121976
 10
195.1987400822559
 20
14.27513760888286
 10
195.2008035061689
 20
14.42607323708242
 10
195.2000167127293
 20
14.59335873107886
 10
195.2007845215626
 20
14.76061110332303
 10
195.1988038785627
 20
14.91163289269914
 10
195.2041306156619
 20
15.04206069552996
 10
195.1933101388423
 20
15.114654426059
 10
195.2090326429874
 20
15.181504694368
 10
195.1432708132489
 20
15.16580512490825
 10
195.0756367830763
 20
15.17609243083997
 10
194.9615885293809
 20
15.17113786847122
 10
194.8451242674901
 20
15.17414128030476
 10
194.7306554121477
 20
15.16880303143389
 10
194.6640324657811
 20
15.18001268074826
 10
194.5990769715185
 20
15.16349132665013
 10
194.6107989758707
 20
15.2147372047706
 10
194.603283018912
 20
15.25950333784091
 10
194.6107989878835
 20
15.30426944897961
 10
194.5990769505346
 20
15.35551536129739
 10
194.6640326339199
 20
15.33899381766815
 10
194.730653333982
 20
15.35020571373943
 10
194.8451352858062
 20
15.34485436710664
 10
194.9615454436962
 20
15.34791188771117
 10
195.0757660174639
 20
15.34278499010708
 10
195.1430150439225
 20
15.35345733355599
 10
195.2083325941437
 20
15.33742082669077
 10
195.1941391448551
 20
15.39949685750054
 10
195.2036059462994
 20
15.46586761628762
 10
195.1990269004084
 20
15.58239972741966
 10
195.2007696555947
 20
15.71426685022376
 10
195.199755149539
 20
15.85615960150273
 10
195.201719134437
 20
15.9876905070258
 10
195.1964668553849
 20
16.10524577283002
 10
195.2073408763473
 20
16.16947789001584
 10
195.1919536641852
 20
16.23108802545048
 10
195.2407591537799
 20
16.21702407382111
 10
195.2853995564725
 20
16.21954742075313
 10
195.3538643946741
 20
16.21512797401709
 10
195.3959106169103
 20
16.20613025544034
 10
195.4487544758775
 20
16.21411714866509
 10
195.4207035002013
 20
16.17113917611671
 10
195.3749142248593
 20
16.1825955204384
 10
195.3869539073263
 20
16.12173520005137
 10
195.3796086070641
 20
16.05769299468773
 10
195.383119582616
 20
15.94909368863911
 10
195.3819806760173
 20
15.82494319144753
 10
195.3819174780261
 20
15.69189719829878
 10
195.3832872966866
 20
15.56797381249555
 10
195.3791638801314
 20
15.45868337849339
 10
195.3877763103562
 20
15.3960858009417
 10
195.3746757454401
 20
15.33740133296367
 10
195.4393884328196
 20
15.35362113810901
 10
195.5060405953155
 20
15.34270260383312
 10
195.6198779541102
 20
15.34793740173756
 10
195.7357259122095
 20
15.34485547516913
 10
195.8496924263279
 20
15.35018259812512
 10
195.9160341018098
 20
15.33904208166543
 10
195.9807188525479
 20
15.35546979593178
 10
195.9689820772721
 20
15.30425925210051
 10
195.9765168063041
 20
15.25950334121001
 10
195.9689820992256
 20
15.21474739010027
 10
195.9807188140736
 20
15.16353690871042
 10
195.9160344075251
 20
15.1799642779422
 10
195.8496886430824
 20
15.16882784447271
 10
195.735745948701
 20
15.1741311589312
 10
195.6197995623054
 20
15.17114764593545
 10
195.5062756882121
 20
15.17606892268394
 10
195.4389231318802
 20
15.1658508751352
 10
195.3734285122494
 20
15.18145996138816
 10
195.3891713619217
 20
15.11463851827412
 10
195.3783275998211
 20
15.04207057815879
 10
195.3836581629791
 20
14.91162247614418
 10
195.3817136151854
 20
14.76064558185226
 10
195.3823133683212
 20
14.59322243934158
 10
195.3821506559604
 20
14.42656176118372
 10
195.3821895488134
 20
14.27360142921636
 10
195.3821816413098
 20
14.14849178985705
 10
195.3821828382743
 20
14.0650789099142
 10
195.3821827716207
 20
14.02491778281976
 10
195.3821827564382
 20
14.01410517385757
 97
        1
330
B3
 75
     1
 76
     2
 52
45.0
 41
0.1
 77
     0
 78
     1
 53
45.0
 43
0.0
 44
0.0
 45
-0.282842712474619
 46
0.0
 79
     0
 98
        1
 10
0.0
 20
0.0
  0
HATCH
  5
D1
330
48
100
AcDbEntity
  8
1
  6
Continuous
 62
     2
100
AcDbHatch
 10
0.0
 20
0.0
 30
0.0
210
0.0
220
0.0
230
1.0
  2
CUSTOM3
 70
     0
 71
     1
 91
        1
 92
        1
 93
        1
 72
     4
 94
        3
 73
     0
 74
     0
 95
      131
 96
      127
 40
0.0
 40
0.0
 40
0.0
 40
0.0
 40
0.019557702982626
 40
0.0426490537461317
 40
0.2863607575856317
 40
0.5344948436188997
 40
0.7842238845573063
 40
0.8737315789467504
 40
0.980383281031302
 40
1.092842274517024
 40
1.199761146656782
 40
1.289788768186483
 40
1.351573580786173
 40
1.370727117561417
 40
1.416400936017816
 40
1.470914848355944
 40
1.516588666791751
 40
1.535742203552833
 40
1.634216592293138
 40
1.760283341174952
 40
1.897966686682016
 40
2.031216387368842
 40
2.049689751137835
 40
2.101115601646772
 40
2.179502577739889
 40
2.278859318314007
 40
2.393194462258665
 40
2.516516648383778
 40
2.642834515405907
 40
2.766156701983412
 40
2.880491846754527
 40
2.979848588358569
 40
3.058235565443747
 40
3.109661416668903
 40
3.128134780704078
 40
3.146783742386395
 40
3.191254343315256
 40
3.244332157315915
 40
3.288802758225819
 40
3.307451719895061
 40
3.327717853844673
 40
3.383747753580034
 40
3.468388665924426
 40
3.574487837698733
 40
3.694892515728835
 40
3.822449946851973
 40
3.950007377920363
 40
4.070412055800455
 40
4.17651122736801
 40
4.261152139501457
 40
4.317182039076648
 40
4.337448172964569
 40
4.620011002696196
 40
4.885096638397509
 40
4.945373043518311
 40
5.014107710488633
 40
5.070481727652026
 40
5.319246955636574
 40
5.584812164506092
 40
5.859000912056945
 40
6.133746937542125
 40
6.401732212968923
 40
6.420736683995514
 40
6.472845717451165
 40
6.550702743894092
 40
6.646951193874301
 40
6.754234497930625
 40
6.865196086587403
 40
6.972479390357861
 40
7.068727839772023
 40
7.146584865451032
 40
7.198693898189262
 40
7.217698368905403
 40
7.234950401630881
 40
7.276089864269927
 40
7.325191803516041
 40
7.36633126609043
 40
7.383583298769782
 40
7.402779163492159
 40
7.45338644325459
 40
7.524934666445592
 40
7.606953361405932
 40
7.688972056429083
 40
7.760520279784334
 40
7.811127559734576
 40
7.830323424546197
 40
7.847844055299827
 40
7.894799345666868
 40
7.962779392744556
 40
8.043374293560603
 40
8.12817414514951
 40
8.208769044817315
 40
8.276749090377015
 40
8.323704379669573
 40
8.341225010056307
 40
8.358497614800456
 40
8.401679126686632
 40
8.457815092185662
 40
8.513951057728066
 40
8.557132569707965
 40
8.574405174505037
 40
8.60234066861635
 40
8.643455660539892
 40
8.66322527196656
 40
8.715345156564208
 40
8.789031889628543
 40
8.873502045520272
 40
8.957972194323895
 40
9.031658925567786
 40
9.083778811234478
 40
9.10354842300294
 40
9.119550083123476
 40
9.160817522379778
 40
9.217244429110144
 40
9.27872449164463
 40
9.335151398295414
 40
9.37641883735771
 40
9.392420497300497
 40
9.401196302734716
 40
9.41749422938411
 40
9.426270027749382
 40
9.440875075477392
 40
9.475702496998597
 40
9.51727070986576
 40
9.552098131993956
 40
9.566703169884141
 40
9.566703169884141
 40
9.566703169884141
 40
9.566703169884141
 10
194.6170254148478
 20
15.67015871511026
 10
194.613434509337
 20
15.66453690702158
 10
194.6056039123623
 20
15.65227754419113
 10
194.5129968974549
 20
15.61601916040966
 10
194.4887622233245
 20
15.40148444212716
 10
194.3858709845938
 20
15.22197284509706
 10
194.1220492364304
 20
15.03615573798144
 10
194.2845471569179
 20
14.95959336566081
 10
194.3607225760837
 20
14.89856693195442
 10
194.4492171072757
 20
14.83515804544758
 10
194.538993023311
 20
14.7752563421956
 10
194.5883817636046
 20
14.72102154849209
 10
194.674570815738
 20
14.69286240541833
 10
194.6411260674229
 20
14.65713309652815
 10
194.6214671166309
 20
14.62550387991906
 10
194.5919888217882
 20
14.58475872796068
 10
194.568898944603
 20
14.55504663489645
 10
194.5380205968356
 20
14.50211422668495
 10
194.472919336574
 20
14.62740334938903
 10
194.3796000122415
 20
14.68213900233934
 10
194.2950636285139
 20
14.73916423939343
 10
194.1722498125743
 20
14.89675287427523
 10
194.1764450847301
 20
14.82035806766836
 10
194.1751478652677
 20
14.77361280161296
 10
194.1758126448076
 20
14.69584785812601
 10
194.1755549986956
 20
14.59902068324423
 10
194.1756431239921
 20
14.48650279078809
 10
194.1756077302282
 20
14.36524085945699
 10
194.1756511758278
 20
14.24086897858961
 10
194.1755199942405
 20
14.11967683631335
 10
194.1759477562047
 20
14.00691148919743
 10
194.1746678202311
 20
13.91082913768744
 10
194.1779759851044
 20
13.83113826468699
 10
194.1715197740085
 20
13.78815175788783
 10
194.1806208705556
 20
13.74955432372042
 10
194.1447910339934
 20
13.75810887724069
 10
194.1115223815252
 20
13.75342519985446
 10
194.0604562576041
 20
13.75351298759783
 10
194.0269723972812
 20
13.7579443028382
 10
193.9907585408754
 20
13.74960793842509
 10
194.0009782568666
 20
13.79145277179284
 10
193.9936487887774
 20
13.83778560820173
 10
193.9973633136103
 20
13.92374831106014
 10
193.9959480554895
 20
14.02605142704848
 10
193.9964105554639
 20
14.14453223931511
 10
193.996277368623
 20
14.26957683153355
 10
193.9963015910045
 20
14.39475828107048
 10
193.9963354925551
 20
14.51286645379057
 10
193.9962060293132
 20
14.61628748709515
 10
193.9965507549081
 20
14.69932036153665
 10
193.995869827869
 20
14.75143368521242
 10
193.9994586600622
 20
14.8791290782136
 10
193.7826171386437
 20
14.58048716819619
 10
193.6021354921949
 20
14.35263981511512
 10
193.5490322295611
 20
14.49373443289815
 10
193.5200429133148
 20
14.54325767560942
 10
193.4196648062818
 20
14.64641779790105
 10
193.7405127723261
 20
14.72695035023779
 10
193.8689897005429
 20
14.91066283036432
 10
194.0906454325359
 20
15.11931995771762
 10
194.1770224894068
 20
15.29339211228343
 10
194.4549394229076
 20
15.56967051342512
 10
194.3346247839283
 20
15.56534559551113
 10
194.2863197351349
 20
15.56614856202552
 10
194.2102377454905
 20
15.56574582146583
 10
194.116701000975
 20
15.56590275611608
 10
194.0117594788557
 20
15.56582502576223
 10
193.9033887738717
 20
15.56595464378553
 10
193.7981454235897
 20
15.56554393490691
 10
193.7056237819412
 20
15.5668207367159
 10
193.6268130800707
 20
15.56340766534849
 10
193.5839674565379
 20
15.57023350036319
 10
193.5449499586515
 20
15.56065064201123
 10
193.5526365271864
 20
15.59420779565542
 10
193.5485464404312
 20
15.62523550322232
 10
193.5485531368814
 20
15.672365292709
 10
193.5526239724912
 20
15.70340941646779
 10
193.5449495574582
 20
15.73701861635901
 10
193.5834819405494
 20
15.72748410420872
 10
193.624122801448
 20
15.73397435498071
 10
193.6951471850463
 20
15.73100150650254
 10
193.7729318149633
 20
15.73174761399158
 10
193.8507292246474
 20
15.73247814044525
 10
193.9217232089907
 20
15.7295423551416
 10
193.962427979182
 20
15.73595468772952
 10
194.000985348991
 20
15.72650524176004
 10
193.9927342754927
 20
15.76264692158784
 10
193.9982346669359
 20
15.80129837613227
 10
193.9955754206163
 20
15.86913528561839
 10
193.9965815471533
 20
15.9459164153874
 10
193.9960178018319
 20
16.02849393582757
 10
193.9970714526592
 20
16.10517329229878
 10
193.994267586313
 20
16.173319907767
 10
194.0000702721304
 20
16.21132399809346
 10
193.9915654551158
 20
16.24758448077646
 10
194.0255610233125
 20
16.23755723771853
 10
194.0594575683099
 20
16.24073266813706
 10
194.1126669060345
 20
16.23508965640609
 10
194.1660768574482
 20
16.23434774436425
 10
194.199591464949
 20
16.2281922348298
 10
194.2388086183038
 20
16.23346029773594
 10
194.2120263698492
 20
16.19253380793488
 10
194.1708111001724
 20
16.20371204538111
 10
194.1782641540874
 20
16.15867056192124
 10
194.1742227952184
 20
16.11412278028144
 10
194.1761714049641
 20
16.04223572621703
 10
194.1752364849758
 20
15.96168630588771
 10
194.176510719003
 20
15.88173995404994
 10
194.1732043793863
 20
15.80841837083183
 10
194.1802106179961
 20
15.76688643002568
 10
194.1701440380126
 20
15.72752418568113
 10
194.2029814803921
 20
15.73468063430981
 10
194.236457729648
 20
15.73027243137945
 10
194.2915053476019
 20
15.73217943347897
 10
194.3489502595314
 20
15.73185366407288
 10
194.4023026248309
 20
15.73106308733081
 10
194.4398540896639
 20
15.73313959118074
 10
194.4623172523237
 20
15.73022338167109
 10
194.4751678073731
 20
15.73572552644054
 10
194.4858255685888
 20
15.73801118197791
 10
194.4986635650143
 20
15.74494972588053
 10
194.5145991033069
 20
15.72853046313669
 10
194.5410623920891
 20
15.7170912231945
 10
194.5726805253757
 20
15.69644687835188
 10
194.598725589215
 20
15.68116869628295
 10
194.6128517723972
 20
15.67266976323182
 10
194.6170254148478
 20
15.67015871511026
 97
        1
330
B4
 75
     1
 76
     2
 52
45.0
 41
0.1
 77
     0
 78
     1
 53
45.0
 43
0.0
 44
0.0
 45
-0.282842712474619
 46
0.0
 79
     0
 98
        1
 10
0.0
 20
0.0
  0
HATCH
  5
D2
330
48
100
AcDbEntity
  8
1
  6
Continuous
 62
     2
100
AcDbHatch
 10
0.0
 20
0.0
 30
0.0
210
0.0
220
0.0
230
1.0
  2
CUSTOM4
 70
     0
 71
     1
 91
        1
 92
        1
 93
        1
 72
     4
 94
        3
 73
     0
 74
     0
 95
       91
 96
       87
 40
0.0
 40
0.0
 40
0.0
 40
0.0
 40
0.0267532254356684
 40
0.0856103386464066
 40
0.144467452199655
 40
0.1712206856618426
 40
0.2039416005642447
 40
0.2955601971652395
 40
0.4362601844617113
 40
0.6162252844507445
 40
0.8256392189704893
 40
1.054685709844487
 40
1.293548478893551
 40
1.532411247938351
 40
1.761457738799616
 40
1.970871673298584
 40
2.15083677325678
 40
2.291536760495641
 40
2.383155356836776
 40
2.415876284101397
 40
2.442629517488039
 40
2.501486630949166
 40
2.560343744424311
 40
2.587096977826582
 40
2.61706819444101
 40
2.699247336756151
 40
2.822032643466492
 40
2.973822353258021
 40
3.143014704823464
 40
3.318007936880043
 40
3.487200288186904
 40
3.638989997548385
 40
3.76177530379494
 40
3.843954445753247
 40
3.873925662229943
 40
3.89081277350065
 40
3.907699884771802
 40
3.937960767857346
 40
3.98098361814235
 40
4.199085915228531
 40
4.439444339237309
 40
4.677588241260926
 40
5.050698317837812
 40
5.448212454763198
 40
5.855291218044723
 40
6.138575438885413
 40
6.417434507584233
 40
6.444551104393891
 40
6.50420761736319
 40
6.563864130314489
 40
6.590980727104056
 40
6.84860946038146
 40
7.109611990668457
 40
7.352910904446122
 40
7.557830220705493
 40
7.58751892591341
 40
7.652834077375852
 40
7.718149228845859
 40
7.747837934062137
 40
7.854880190301042
 40
7.976511257403583
 40
8.369487896592386
 40
8.757514959223707
 40
9.12607241933117
 40
9.46063938039226
 40
9.746695593036058
 40
9.777569943118824
 40
9.80705032093192
 40
9.830377336129041
 40
9.886003295436117
 40
9.952395569430012
 40
10.00802152870637
 40
10.03134854388229
 40
10.21356951009597
 40
10.42203479292882
 40
10.66154556731074
 40
10.91693789564314
 40
11.15832906556571
 40
11.18982674596629
 40
11.27286608520413
 40
11.39026653033358
 40
11.52484752840892
 40
11.65942852648451
 40
11.7768289716149
 40
11.85986831085686
 40
11.89136598230431
 40
11.89136598230431
 40
11.89136598230431
 40
11.89136598230431
 10
190.7027885008195
 20
14.70699600701772
 10
190.7028237765287
 20
14.71587847311985
 10
190.7029366710795
 20
14.74430237047346
 10
190.7012984568487
 20
14.79409639169802
 10
190.706975029291
 20
14.83657564478154
 10
190.6956928731705
 20
14.88730154856846
 10
190.7632296979031
 20
14.87012900740108
 10
190.83880292107
 20
14.88290227165996
 10
190.9828357056
 20
14.87629729457381
 10
191.1569419185426
 20
14.87888462206465
 10
191.3639599611002
 20
14.87800591955552
 10
191.5894688172376
 20
14.87828207920026
 10
191.8251162293406
 20
14.87818339658662
 10
192.0607640531347
 20
14.87828184412766
 10
192.2862717580626
 20
14.87800678190788
 10
192.4932934632805
 20
14.87888186270734
 10
192.6673888915288
 20
14.87630522678445
 10
192.8114492071985
 20
14.88288290449212
 10
192.8869691915293
 20
14.87016243405603
 10
192.9545776037029
 20
14.88726400191685
 10
192.9430840140676
 20
14.8367478580294
 10
192.9505104581733
 20
14.79253252226501
 10
192.9428838927986
 20
14.74867966503609
 10
192.9546489459425
 20
14.69878374479327
 10
192.8930788491983
 20
14.71393227712512
 10
192.8256791738671
 20
14.70310665350673
 10
192.7013004056221
 20
14.70852031626236
 10
192.555442823657
 20
14.70649205390784
 10
192.3893576440086
 20
14.70715777578387
 10
192.2188412621724
 20
14.70689643521241
 10
192.0519790855388
 20
14.70721553391094
 10
191.9087346827105
 20
14.70635302590762
 10
191.7773313869832
 20
14.70863300482987
 10
191.7239859134655
 20
14.70407704374202
 10
191.6485188456912
 20
14.70999914992877
 10
191.6769075779231
 20
14.70094169343353
 10
191.7033652409541
 20
14.69725912268929
 10
191.6633522907701
 20
14.66654271968273
 10
191.5713663691868
 20
14.67667591174637
 10
191.5439396207069
 20
14.43032502247786
 10
191.4478793967234
 20
14.27499558764376
 10
191.1917277964474
 20
13.94525417931567
 10
191.7627537732762
 20
14.08430022210452
 10
192.0173656320516
 20
14.08291779973361
 10
192.6279647048617
 20
13.99790569242086
 10
192.3340698578082
 20
14.29685417558203
 10
192.0133304286519
 20
14.44330856901777
 10
192.1313543360433
 20
14.50025540818288
 10
192.1724716466261
 20
14.52420099873347
 10
192.215681239441
 20
14.5459975881123
 10
192.317457409445
 20
14.60928721253906
 10
192.4328867625246
 20
14.35147151408776
 10
192.6329591642278
 20
14.21616041113685
 10
192.7269077387228
 20
14.03792795138882
 10
192.9558829746392
 20
13.87997821027048
 10
192.8596031846708
 20
13.829159725763
 10
192.8167959763779
 20
13.79881292523053
 10
192.7718243528778
 20
13.77466130281462
 10
192.7121720925213
 20
13.72552146747568
 10
192.6789731061325
 20
13.85997475673613
 10
192.5582013350796
 20
14.01594265286578
 10
192.1970976005978
 20
13.88569928059557
 10
191.838506195554
 20
13.90224694409482
 10
191.457092045008
 20
13.89331229351866
 10
191.170345528289
 20
13.82882671672405
 10
190.8592055599714
 20
13.94230668192832
 10
190.8268737818786
 20
13.83122259927767
 10
190.7896178253317
 20
13.81196313850014
 10
190.7865737632752
 20
13.85874784087298
 10
190.7679892860606
 20
13.89806853919134
 10
190.7512436616778
 20
13.95765983478235
 10
190.7383730915753
 20
14.00201969871282
 10
190.704232780643
 20
14.09106331120203
 10
190.9482714457753
 20
14.02181042943767
 10
191.1441394486671
 20
14.00030369057744
 10
191.2395426381276
 20
14.28226484478462
 10
191.2945135769597
 20
14.44363045421122
 10
191.5159619357154
 20
14.71391177589738
 10
191.3849239381215
 20
14.70548446853735
 10
191.3110026555853
 20
14.70779008496969
 10
191.1977459876242
 20
14.70671378321657
 10
191.0694251807484
 20
14.7070763907651
 10
190.9404252030413
 20
14.70697724466085
 10
190.828784094629
 20
14.70699932712572
 10
190.7514663970025
 20
14.70699579189671
 10
190.7132876532009
 20
14.70699595845081
 10
190.7027885008195
 20
14.70699600701772
 97
        1
330
B5
 75
     1
 76
     2
 52
45.0
 41
0.1
 77
     0
 78
     1
 53
45.0
 43
0.0
 44
0.0
 45
-0.282842712474619
 46
0.0
 79
     0
 98
        1
 10
0.0
 20
0.0
  0
HATCH
  5
D3
330
48
100
AcDbEntity
  8
1
  6
Continuous
 62
     2
100
AcDbHatch
 10
0.0
 20
0.0
 30
0.0
210
0.0
220
0.0
230
1.0
  2
CUSTOM5
 70
     0
 71
     1
 91
        1
 92
        1
 93
        1
 72
     4
 94
        3
 73
     0
 74
     0
 95
       35
 96
       31
 40
0.0
 40
0.0
 40
0.0
 40
0.0
 40
0.0335231036620315
 40
0.0713218571712236
 40
0.4278866681487467
 40
0.8116865841964703
 40
1.198190238000151
 40
1.561379546812779
 40
1.659983174622181
 40
1.759315573807289
 40
2.132719617231198
 40
2.525233363588927
 40
2.910815397779837
 40
3.265244364303444
 40
3.592606723582183
 40
3.964386154604109
 40
4.359942131737976
 40
4.758154118639483
 40
4.843846538700057
 40
4.936650065543348
 40
5.256616602537426
 40
5.58170740441616
 40
5.899719158308255
 40
6.198363494280822
 40
6.466301046615835
 40
6.493895311537129
 40
6.55969702019695
 40
6.638234543442525
 40
6.704036252154306
 40
6.731630508423083
 40
6.731630508423083
 40
6.731630508423083
 40
6.731630508423083
 10
191.9736010568668
 20
16.23463843719134
 10
191.9676006097788
 20
16.22480690542323
 10
191.9548344099156
 20
16.20388988579795
 10
191.7949362006553
 20
16.17127126532702
 10
192.2322025842336
 20
15.88206680336696
 10
192.4345394828261
 20
15.68041138358439
 10
192.6819564267972
 20
15.43749387603278
 10
193.1831513624608
 20
15.36047662757771
 10
193.0125562198969
 20
15.2187693917466
 10
192.9383299463203
 20
15.01710366209103
 10
192.6131432248187
 20
15.36956287174725
 10
192.3277741670664
 20
15.53175212559563
 10
192.0337604077657
 20
15.73687130053047
 10
191.8084452691133
 20
16.21827488595455
 10
191.5993085055521
 20
15.75343046609225
 10
191.3207873674833
 20
15.54350952252908
 10
191.0371383177208
 20
15.37424456359989
 10
190.7078639527829
 20
15.00142360907934
 10
190.6277012318224
 20
15.19708014459001
 10
190.4759724909744
 20
15.324911041906
 10
190.9083395826795
 20
15.40454031765935
 10
191.0962565329765
 20
15.60026634915474
 10
191.3468477420503
 20
15.81632996916754
 10
191.571435047016
 20
15.98190992300059
 10
191.6259775409713
 20
16.26133964636828
 10
191.749466102901
 20
16.24737950408078
 10
191.8060273344519
 20
16.24521268867647
 10
191.8761870984944
 20
16.2404685988136
 10
191.9333414022105
 20
16.23709429350541
 10
191.9644190320838
 20
16.23519854711119
 10
191.9736010568668
 20
16.23463843719134
 97
        1
330
B6
 75
     1
 76
     2
 52
45.0
 41
0.1
 77
     0
 78
     1
 53
45.0
 43
0.0
 44
0.0
 45
-0.282842712474619
 46
0.0
 79
     0
 98
        1
 10
0.0
 20
0.0
  0
HATCH
  5
D4
330
48
100
AcDbEntity
  8
1
  6
Continuous
 62
     2
100
AcDbHatch
 10
0.0
 20
0.0
 30
0.0
210
0.0
220
0.0
230
1.0
  2
CUSTOM6
 70
     0
 71
     1
 91
        1
 92
        1
 93
        1
 72
     4
 94
        3
 73
     0
 74
     0
 95
       15
 96
       11
 40
0.0
 40
0.0
 40
0.0
 40
0.0
 40
0.2785535985096574
 40
0.5215624748198874
 40
0.6076917376040509
 40
0.6938210001741243
 40
0.9405019146455447
 40
1.221691403489125
 40
1.300471877081048
 40
1.379252341684818
 40
1.379252341684818
 40
1.379252341684818
 40
1.379252341684818
 10
189.5681493630999
 20
16.22930267330381
 10
189.6296017794178
 20
16.17691646592715
 10
189.7446649974113
 20
16.07882876798222
 10
190.0397348497243
 20
15.92889785897221
 10
189.9025147631856
 20
15.84343227515014
 10
189.8041227843778
 20
15.71085785201554
 10
189.713003359065
 20
16.01616985781416
 10
189.3636839480654
 20
16.07967869465373
 10
189.5119258376571
 20
16.17896509880878
 10
189.5494081874236
 20
16.21252348402382
 10
189.5681493630999
 20
16.22930267330381
 97
        1
330
B7
 75
     1
 76
     2
 52
45.0
 41
0.1
 77
     0
 78
     1
 53
45.0
 43
0.0
 44
0.0
 45
-0.282842712474619
 46
0.0
 79
     0
 98
        1
 10
0.0
 20
0.0
  0
HATCH
  5
D5
330
48
100
AcDbEntity
  8
1
  6
Continuous
 62
     2
100
AcDbHatch
 10
0.0
 20
0.0
 30
0.0
210
0.0
220
0.0
230
1.0
  2
CUSTOM7
 70
     0
 71
     1
 91
        1
 92
        1
 93
        1
 72
     4
 94
        3
 73
     0
 74
     0
 95
       75
 96
       71
 40
0.0
 40
0.0
 40
0.0
 40
0.0
 40
0.0342546099129691
 40
0.1245622414432346
 40
0.2522385480897483
 40
0.3985991922940627
 40
0.5449598364980786
 40
0.6726361431438745
 40
0.7629437746736871
 40
0.7971983935297884
 40
1.101723623449737
 40
1.408591244036685
 40
1.433332471690395
 40
1.48776317245019
 40
1.542193873082025
 40
1.566935100592577
 40
1.92352393182186
 40
2.27175570495366
 40
2.590579755100845
 40
2.858943305581101
 40
2.889120339309126
 40
2.918305855191075
 40
2.941366645531197
 40
2.996357760973091
 40
3.06199231814064
 40
3.11698343362684
 40
3.14004422399752
 40
3.411273122936382
 40
3.732441619741019
 40
3.761068217532717
 40
3.837787499630279
 40
3.948858699125916
 40
4.080541049104291
 40
4.219093782625674
 40
4.350776132722222
 40
4.461847332405556
 40
4.538566614678286
 40
4.567193212544533
 40
4.594907573998791
 40
4.66638145355733
 40
4.764111044010912
 40
4.870592538125715
 40
4.968322128642138
 40
5.039796008286794
 40
5.067510369784253
 40
5.094263603185468
 40
5.153120716668109
 40
5.211977830150559
 40
5.238731063551565
 40
5.272290535138804
 40
5.363380529444665
 40
5.497618415781343
 40
5.660621563453585
 40
5.838007341749286
 40
6.015393119910637
 40
6.178396267038263
 40
6.312634151842214
 40
6.403724143059204
 40
6.437283612672299
 40
6.464036846260917
 40
6.522893960004538
 40
6.581751071483806
 40
6.608504301590754
 40
6.63725394128093
 40
6.711397748902781
 40
6.812778057283394
 40
6.92323719924917
 40
7.024617507623871
 40
7.098761315207552
 40
7.127510946007503
 40
7.127510946007503
 40
7.127510946007503
 40
7.127510946007503
 10
188.4418622390563
 20
14.95849128473263
 10
188.4418622819705
 20
14.94707313408719
 10
188.4418624481127
 20
14.90555257842628
 10
188.4418593081786
 20
14.82146922003771
 10
188.4418788279799
 20
14.70004497322327
 10
188.4417912187736
 20
14.55980494047447
 10
188.4421116235229
 20
14.42006556794576
 10
188.4411605909738
 20
14.29745038894928
 10
188.4431978595966
 20
14.21587074438042
 10
188.4349433178744
 20
14.06271267077695
 10
188.7430797940901
 20
14.22560236054718
 10
189.0350645173733
 20
14.39482938687999
 10
189.0408354448707
 20
14.25973235781911
 10
189.0455471719889
 20
14.21617221160443
 10
189.0482535411917
 20
14.17211249350544
 10
189.0672545672959
 20
14.02272590363134
 10
188.6583942247301
 20
14.0868117224126
 10
188.3793710348831
 20
13.97296341411016
 10
188.1018081587166
 20
13.87364095811141
 10
187.80998371844
 20
13.91630687596357
 10
187.7869144678658
 20
13.81321679744541
 10
187.7537474383332
 20
13.78691091244469
 10
187.7480653962739
 20
13.83455309036304
 10
187.7284214559044
 20
13.8718033611507
 10
187.7095089485623
 20
13.93007387847565
 10
187.6942849867707
 20
13.97385201007805
 10
187.6477246372936
 20
14.08759421046311
 10
187.989089731245
 20
14.05576301120047
 10
188.2679649367385
 20
14.0216143510648
 10
188.2617753034906
 20
14.16913976479652
 10
188.2630935452772
 20
14.24013150908832
 10
188.2624831689947
 20
14.34719767958661
 10
188.2625871570723
 20
14.47398529785997
 10
188.2629987964055
 20
14.6084924349605
 10
188.2613907841967
 20
14.73395549951183
 10
188.2659902567926
 20
14.84505246719117
 10
188.2564186502208
 20
14.90761886800687
 10
188.2704001783691
 20
14.96595388295
 10
188.2147384386703
 20
14.95289710582237
 10
188.1575655197821
 20
14.96136307749498
 10
188.0616048925646
 20
14.95729976080635
 10
187.9633767522821
 20
14.95970889852474
 10
187.8672582457559
 20
14.95551600613387
 10
187.8104648525811
 20
14.96429346441162
 10
187.7550356873384
 20
14.9509493685012
 10
187.7670679427917
 20
15.00036910959256
 10
187.7592003173937
 20
15.04393988030395
 10
187.7666295563829
 20
15.08830469118525
 10
187.7551930564143
 20
15.13902297763991
 10
187.8232102370133
 20
15.12162460757743
 10
187.8968496879747
 20
15.13417450237189
 10
188.0325064058211
 20
15.12799677011097
 10
188.1884909024525
 20
15.13029203093084
 10
188.3615926358143
 20
15.1294096826253
 10
188.5346942964181
 20
15.13029207142408
 10
188.6906789811216
 20
15.1279966295555
 10
188.8263351889797
 20
15.13417486262432
 10
188.8999756705652
 20
15.12162394218334
 10
188.9679914174724
 20
15.13902373012143
 10
188.9565590885922
 20
15.08830130414555
 10
188.9639539458296
 20
15.04397060811107
 10
188.956203991227
 20
15.00028307550195
 10
188.9681203741877
 20
14.95063590098475
 10
188.9108170223617
 20
14.96461411338425
 10
188.8520145789772
 20
14.95539755673252
 10
188.75252936332
 20
14.95952268164929
 10
188.6494280098348
 20
14.95822760025886
 10
188.5537846354573
 20
14.9585407707764
 10
188.4857467971616
 20
14.95848776697144
 10
188.4514462213442
 20
14.95849051871655
 10
188.4418622390563
 20
14.95849128473263
 97
        1
330
B8
 75
     1
 76
     2
 52
45.0
 41
0.1
 77
     0
 78
     1
 53
45.0
 43
0.0
 44
0.0
 45
-0.282842712474619
 46
0.0
 79
     0
 98
        1
 10
0.0
 20
0.0
  0
HATCH
  5
D6
330
48
100
AcDbEntity
  8
1
  6
Continuous
 62
     2
100
AcDbHatch
 10
0.0
 20
0.0
 30
0.0
210
0.0
220
0.0
230
1.0
  2
CUSTOM8
 70
     0
 71
     1
 91
        1
 92
        1
 93
        1
 72
     4
 94
        3
 73
     0
 74
     0
 95
       91
 96
       87
 40
0.0
 40
0.0
 40
0.0
 40
0.0
 40
0.0345987051695434
 40
0.1258134969461085
 40
0.2547723404888418
 40
0.4026032099153556
 40
0.5504340793415852
 40
0.6793929228835227
 40
0.7706077146570183
 40
0.8052064287779788
 40
1.124852390615161
 40
1.427402236308752
 40
1.706356627453394
 40
1.955541417875079
 40
2.169485938566224
 40
2.344350786664694
 40
2.480568411561844
 40
2.590440557428866
 40
2.649189927150971
 40
2.749320643306175
 40
2.912632739879875
 40
3.147745656000078
 40
3.244827496384861
 40
3.338490056946504
 40
3.583815413206919
 40
3.761423943238271
 40
3.886956104362421
 40
3.985855451886651
 40
4.091766255337535
 40
4.250186473811728
 40
4.422734315084373
 40
4.628285684838452
 40
4.872093227758282
 40
5.152549652145385
 40
5.464967135837365
 40
5.803201477852282
 40
6.160362988813754
 40
6.193449448275809
 40
6.284170385501463
 40
6.419718138764333
 40
6.587285046385583
 40
6.774063446723497
 40
6.96724567811348
 40
7.154024078817466
 40
7.321590987025852
 40
7.45713874089021
 40
7.547859678555946
 40
7.580946138182506
 40
7.608533084714557
 40
7.669224367077527
 40
7.72991564942974
 40
7.757502595949791
 40
7.790278062553245
 40
7.880146277430743
 40
8.014419963180178
 40
8.180411842397678
 40
8.365434637679119
 40
8.556801071622392
 40
8.741823866830476
 40
8.907815745915986
 40
9.04208943150714
 40
9.131957646249266
 40
9.164733112796842
 40
9.415425063139772
 40
9.667986180958245
 40
9.694169807462384
 40
9.75660768604737
 40
9.831130315322262
 40
9.893568193899727
 40
9.919751820398544
 40
9.950967964690381
 40
9.99642163121049
 40
10.22087981037438
 40
10.44341866197527
 40
10.4784797078884
 40
10.57091337438737
 40
10.70159545461215
 40
10.85140174170343
 40
11.00120802880463
 40
11.13189010907368
 40
11.22432377582993
 40
11.25938480938939
 40
11.28697175596127
 40
11.34766303835901
 40
11.40835432042051
 40
11.43594125892085
 40
11.43594125892085
 40
11.43594125892085
 40
11.43594125892085
 10
190.0818114333288
 20
15.55242795125077
 10
190.070278584494
 20
15.55242790287916
 10
190.0283409444997
 20
15.55242773704163
 10
189.9434129719025
 20
15.55243125800909
 10
189.8207688553128
 20
15.55240926435879
 10
189.6791206916992
 20
15.55250801177053
 10
189.537975369849
 20
15.55214686232422
 10
189.4141351317903
 20
15.55321883609088
 10
189.3317217825382
 20
15.55092249091269
 10
189.172779122969
 20
15.56048569373417
 10
189.3503402353376
 20
15.19785394311371
 10
189.3379739205453
 20
14.95243127723115
 10
189.4064519473863
 20
14.66862501324835
 10
189.469302432097
 20
14.43250999939036
 10
189.5452253431728
 20
14.23326740396129
 10
189.6303189577016
 20
14.07745347451374
 10
189.7244607592935
 20
13.97657857781394
 10
189.8282648207727
 20
13.92465852638963
 10
189.9125872030773
 20
13.9760648437962
 10
189.9351322179451
 20
14.09144544037517
 10
189.974573097537
 20
14.21885149702378
 10
189.9202919734942
 20
14.53622328086759
 10
190.0451218072472
 20
14.389821801409
 10
190.2019291513602
 20
14.35795300331176
 10
190.0947720007056
 20
14.12421357767627
 10
190.0808711209867
 20
13.95972776583658
 10
190.0234709467225
 20
13.83130869122479
 10
189.9335020145008
 20
13.76018802352829
 10
189.8095274657877
 20
13.74432324142253
 10
189.6634273196859
 20
13.77993797554172
 10
189.5243894320283
 20
13.90000570500276
 10
189.4102003962143
 20
14.07435682550321
 10
189.3146141301485
 20
14.2994660311124
 10
189.2318652572626
 20
14.56388246006443
 10
189.1807179256411
 20
14.88187933098543
 10
189.0770189207338
 20
15.15543728488913
 10
189.204284120852
 20
15.56005818612866
 10
189.0357890623018
 20
15.55112367849678
 10
188.9511995787077
 20
15.55315961418363
 10
188.8189876387627
 20
15.55213937388406
 10
188.6560505094104
 20
15.55253230318429
 10
188.4733759170532
 20
15.55235696313368
 10
188.2847057373383
 20
15.55260105307468
 10
188.1014469020189
 20
15.55185657906236
 10
187.9404746832718
 20
15.55416360522425
 10
187.8029808335276
 20
15.54799804883662
 10
187.728959037231
 20
15.56032838458211
 10
187.6613215186856
 20
15.54329323723556
 10
187.673237371927
 20
15.59524438447528
 10
187.6655677285694
 20
15.64071424966528
 10
187.6732592225115
 20
15.68614453703704
 10
187.6613141797762
 20
15.73802395984569
 10
187.7283588305866
 20
15.72119143490262
 10
187.8017375665676
 20
15.73335409092669
 10
187.9379128305272
 20
15.72727231074957
 10
188.0973811801512
 20
15.72954834315056
 10
188.2789173085835
 20
15.7288123399896
 10
188.4658034862178
 20
15.72905954196131
 10
188.6468012316834
 20
15.72886400799251
 10
188.8080802578877
 20
15.72932234714837
 10
188.9393882124885
 20
15.72812673751204
 10
189.0225051322595
 20
15.73051347319741
 10
189.1556236547811
 20
15.72230605725461
 10
189.0645893502659
 20
15.97752868952654
 10
188.9789633074417
 20
16.24164358328247
 10
189.0990589003454
 20
16.22904442969165
 10
189.1514264948542
 20
16.22694235763075
 10
189.2214497569716
 20
16.22535399889657
 10
189.2671922337817
 20
16.21602567538113
 10
189.3220812646933
 20
16.22545966915426
 10
189.2963574785681
 20
16.17733028655172
 10
189.1825397571453
 20
16.18266829744167
 10
189.3159346621134
 20
15.95449174576775
 10
189.1943658735472
 20
15.72156856595921
 10
189.3223188769411
 20
15.73087258884437
 10
189.4049048406459
 20
15.72801001754678
 10
189.5307214850823
 20
15.729234374123
 10
189.6741469838057
 20
15.72932431888962
 10
189.8157420951727
 20
15.72746163183852
 10
189.9459127249967
 20
15.73333075937161
 10
190.0193452286189
 20
15.72070340823202
 10
190.0891112922095
 20
15.7387756311041
 10
190.0775772605394
 20
15.68612850546325
 10
190.0833184346681
 20
15.64221317686546
 10
190.0816615770909
 20
15.59089982676548
 10
190.0817757561668
 20
15.56158792021634
 10
190.0818114333288
 20
15.55242795125077
 97
        1
330
B9
 75
     1
 76
     2
 52
45.0
 41
0.1
 77
     0
 78
     1
 53
45.0
 43
0.0
 44
0.0
 45
-0.282842712474619
 46
0.0
 79
     0
 98
        1
 10
0.0
 20
0.0
  0
HATCH
  5
D7
330
48
100
AcDbEntity
  8
1
  6
Continuous
 62
     2
100
AcDbHatch
 10
0.0
 20
0.0
 30
0.0
210
0.0
220
0.0
230
1.0
  2
CUSTOM9
 70
     0
 71
     1
 91
        1
 92
        1
 93
        1
 72
     4
 94
        3
 73
     0
 74
     0
 95
      118
 96
      114
 40
0.0
 40
0.0
 40
0.0
 40
0.0
 40
0.1054708162973307
 40
0.2466098270051669
 40
0.3965912874590992
 40
0.5285525069753557
 40
0.6156245055641609
 40
0.6431434105796754
 40
0.7036850037985458
 40
0.7642265984503688
 40
0.791745505235416
 40
0.9287404319989201
 40
1.106572819087929
 40
1.287544879680917
 40
1.317578308030434
 40
1.399928030857073
 40
1.522968204799847
 40
1.675072986590468
 40
1.844616533180546
 40
2.019973001638609
 40
2.189516548879922
 40
2.341621331585261
 40
2.464661506320397
 40
2.54701122964696
 40
2.577044658167924
 40
2.603797890892995
 40
2.662655002908767
 40
2.721512114949608
 40
2.748265347702787
 40
2.774215307344864
 40
2.845959313407194
 40
2.954338556588391
 40
3.090194227585568
 40
3.244367517100532
 40
3.40769961584429
 40
3.571031714539437
 40
3.725205003920113
 40
3.861060674729611
 40
3.969439917716304
 40
4.041183923628978
 40
4.06713388321297
 40
4.311886746012132
 40
4.547897258335497
 40
4.764747083043937
 40
4.952749679951769
 40
5.045772974195867
 40
5.13786201964492
 40
5.330543169792969
 40
5.55344826524396
 40
5.795083855888115
 40
6.043293412177179
 40
6.28576169554113
 40
6.313902908752613
 40
6.38425594179326
 40
6.475714884766877
 40
6.567173827758939
 40
6.637526860839746
 40
6.665668074074109
 40
6.692018920328081
 40
6.749990782071151
 40
6.807962643790519
 40
6.834313490017994
 40
6.856393084245244
 40
6.913335195649896
 40
6.991194817302588
 40
7.076026942283821
 40
7.153886563725312
 40
7.210828674844894
 40
7.232908268931229
 40
7.25819933492375
 40
7.3248757815924
 40
7.419142481925057
 40
7.527204308841997
 40
7.635266135230575
 40
7.729532834168561
 40
7.796209279292883
 40
7.821500344594829
 40
7.844652988850928
 40
7.899863140541707
 40
7.965759128053817
 40
8.02096927977113
 40
8.044121924046596
 40
8.069356610160659
 40
8.109134395441375
 40
8.132238100191087
 40
8.193147867786452
 40
8.279261678876624
 40
8.377977512673839
 40
8.476693347146622
 40
8.562807160411676
 40
8.623716930826463
 40
8.646820636853414
 40
8.671988793774227
 40
8.734909185828139
 40
8.816705695188853
 40
8.898502204815424
 40
8.961422597377885
 40
8.986590754550997
 40
9.012941600733152
 40
9.070913462380236
 40
9.128885324081732
 40
9.155236170325052
 40
9.180404327929095
 40
9.243324721948168
 40
9.325121234211961
 40
9.406917746637616
 40
9.469838141978071
 40
9.495006288270845
 40
9.517811184378987
 40
9.572192090486984
 40
9.637098333281212
 40
9.691479239515408
 40
9.714284125643447
 40
9.714284125643447
 40
9.714284125643447
 40
9.714284125643447
 10
185.2874469028653
 20
15.2688916318772
 10
185.3090990569038
 20
15.24111869242812
 10
185.3597257109473
 20
15.17618054561235
 10
185.4349383202591
 20
15.06891060312897
 10
185.5248482274345
 20
14.95377438266626
 10
185.5709169676674
 20
14.85357045748319
 10
185.6655825294653
 20
14.78434006814943
 10
185.6204439320412
 20
14.73771639678273
 10
185.5947047785789
 20
14.6966030886604
 10
185.5645196708011
 20
14.66065971727937
 10
185.5193684730561
 20
14.58579782596095
 10
185.4710504458561
 20
14.80782524253599
 10
185.3968539713072
 20
14.84510677337713
 10
185.2836047324607
 20
15.116102021306
 10
185.2885133578169
 20
15.00095328446228
 10
185.2868486556306
 20
14.92836675781628
 10
185.2876830076714
 20
14.80625588483986
 10
185.2873609540264
 20
14.6591380081046
 10
185.2875076912455
 20
14.49307063956557
 10
185.2872950092722
 20
14.32187554608602
 10
185.2879497252035
 20
14.15552828635498
 10
185.2859192461139
 20
14.00935173055694
 10
185.291346039993
 20
13.8847104747461
 10
185.2804930868708
 20
13.81718656540626
 10
185.2956739155555
 20
13.75549061417022
 10
185.2457895108133
 20
13.76727503897003
 10
185.2017150342521
 20
13.75943822779969
 10
185.1582371630199
 20
13.76760441372703
 10
185.1092346786487
 20
13.75538056738468
 10
185.1218731234823
 20
13.80960667249313
 10
185.1130182968448
 20
13.86936918907557
 10
185.1175058770312
 20
13.9792202904437
 10
185.115796013599
 20
14.11029975405678
 10
185.1163550915986
 20
14.26198011444328
 10
185.1161928768693
 20
14.42211074929953
 10
185.1162269924673
 20
14.58236865674565
 10
185.1162514960126
 20
14.73370247520439
 10
185.1161453543224
 20
14.865821563386
 10
185.116429914193
 20
14.97294802533192
 10
185.1158675547567
 20
15.03808619579473
 10
185.1180765083687
 20
15.16618957858672
 10
185.0319435998603
 20
14.79097610391574
 10
184.9555140818499
 20
14.63918193123396
 10
184.8660040767833
 20
14.47766206446304
 10
184.7640413217325
 20
14.20471848820171
 10
184.7187976491037
 20
14.36717346596509
 10
184.6102355941671
 20
14.45605432058123
 10
184.7995791751752
 20
14.60549794961408
 10
184.85653405457
 20
14.79749136974925
 10
184.9717520993353
 20
15.02899622906757
 10
184.9940151630133
 20
15.21797259759063
 10
185.1771905152138
 20
15.49454089325929
 10
185.0538033597552
 20
15.48698978832094
 10
184.9925684166833
 20
15.48856772366118
 10
184.9081999617063
 20
15.48882592573672
 10
184.8204235085965
 20
15.48544845751206
 10
184.7656768696121
 20
15.4939481498202
 10
184.7104703026023
 20
15.48048561049788
 10
184.7222823035534
 20
15.52931442126763
 10
184.7142496151793
 20
15.57269004896709
 10
184.7228186104677
 20
15.61509438309572
 10
184.7102943409155
 20
15.66267796552117
 10
184.7555101538734
 20
15.65267212995109
 10
184.8014815562723
 20
15.65894105174062
 10
184.877722204771
 20
15.65593561405872
 10
184.9561296131992
 20
15.65770448278541
 10
185.0323992648932
 20
15.65464793981659
 10
185.0783009459473
 20
15.66103971376177
 10
185.1231733965399
 20
15.65093822978896
 10
185.1105552275633
 20
15.70157201581898
 10
185.1191936582705
 20
15.7550126188207
 10
185.1152361595441
 20
15.8486325513168
 10
185.1162325068334
 20
15.95112606688924
 10
185.1171927413072
 20
16.05353270248163
 10
185.1133211458005
 20
16.14735929609321
 10
185.1217789814363
 20
16.20036542840353
 10
185.1093075932834
 20
16.25211435651189
 10
185.1542106389849
 20
16.23850747226757
 10
185.1955083836771
 20
16.24100480320585
 10
185.2595344281049
 20
16.23648060574487
 10
185.2986111148785
 20
16.22781003043308
 10
185.347654349874
 20
16.23515102070687
 10
185.322508003059
 20
16.19602896051758
 10
185.2815901333723
 20
16.20563842455806
 10
185.2910109616604
 20
16.15540148169778
 10
185.2855647318746
 20
16.10385945639491
 10
185.2881699601803
 20
16.0195970758452
 10
185.2870102202154
 20
15.92559135583408
 10
185.2883591064231
 20
15.83196865395525
 10
185.2849970101508
 20
15.74679517552223
 10
185.2920959917769
 20
15.69716856072044
 10
185.2812569154545
 20
15.64993694969989
 10
185.3304010225245
 20
15.66201674936851
 10
185.3794877630147
 20
15.65447393363011
 10
185.4573714280641
 20
15.65686070361432
 10
185.5350365172897
 20
15.65899381905415
 10
185.5845393931354
 20
15.65193391922455
 10
185.6344594750639
 20
15.66360151936214
 10
185.622319851688
 20
15.61540235371393
 10
185.6305838229143
 20
15.57249219801236
 10
185.6223198650783
 20
15.52958201851384
 10
185.6344594549855
 20
15.48138288754865
 10
185.5845395158746
 20
15.4930503447151
 10
185.5350350651203
 20
15.48599202435046
 10
185.4573784382972
 20
15.48811665228603
 10
185.379464386576
 20
15.4905338936576
 10
185.3304500352716
 20
15.48291848194485
 10
185.2813246108943
 20
15.49507952557592
 10
185.2915559988571
 20
15.45073013424158
 10
185.2856677678054
 20
15.40925436202912
 10
185.2878788305568
 20
15.34915394315303
 10
185.2874109346147
 20
15.3022578276289
 10
185.2874386992913
 20
15.27650146418197
 10
185.2874469028653
 20
15.2688916318772
 97
        1
330
BA
 75
     1
 76
     2
 52
45.0
 41
0.1
 77
     0
 78
     1
 53
45.0
 43
0.0
 44
0.0
 45
-0.282842712474619
 46
0.0
 79
     0
 98
        1
 10
0.0
 20
0.0
  0
HATCH
  5
D8
330
48
100
AcDbEntity
  8
1
  6
Continuous
 62
     2
100
AcDbHatch
 10
0.0
 20
0.0
 30
0.0
210
0.0
220
0.0
230
1.0
  2
CUSTOM10
 70
     0
 71
     1
 91
        1
 92
        1
 93
        1
 72
     4
 94
        3
 73
     0
 74
     0
 95
       47
 96
       43
 40
0.0
 40
0.0
 40
0.0
 40
0.0
 40
0.2207912809957272
 40
0.4459404186303132
 40
0.4902387190459352
 40
0.5327473892722038
 40
0.5742260451225353
 40
0.6155432630561781
 40
0.6568164066316131
 40
0.6982511618780476
 40
0.7407663929317276
 40
0.7851366743175348
 40
1.010288833836331
 40
1.231080507002193
 40
1.45176524365241
 40
1.676638205891697
 40
1.720461045359666
 40
1.830018144043532
 40
1.972442372353163
 40
2.114866600677532
 40
2.224423699395157
 40
2.268246538883398
 40
2.493628801207235
 40
2.715602830286639
 40
2.934211330706385
 40
3.149502369855375
 40
3.231387784850936
 40
3.318231873853971
 40
3.405143198197959
 40
3.48697030172048
 40
3.702258172493921
 40
3.920866283534143
 40
4.14283932593194
 40
4.368221903865407
 40
4.412044743359886
 40
4.521601842095902
 40
4.664026070452382
 40
4.80645029880909
 40
4.916007397546783
 40
4.959830237043106
 40
5.18470351584714
 40
5.405387250767506
 40
5.405387250767506
 40
5.405387250767506
 40
5.405387250767506
 10
182.6507427258644
 20
15.73406440953871
 10
182.6568139420002
 20
15.79758482501209
 10
182.6690762107243
 20
15.92587938689627
 10
182.5604706879411
 20
16.20166220174077
 10
182.6761985896603
 20
16.17188133432053
 10
182.7171842509014
 20
16.16765556262818
 10
182.7591205797518
 20
16.16310446389607
 10
182.8004196625709
 20
16.16201982929484
 10
182.8417032115555
 20
16.16310338195228
 10
182.8836148270647
 20
16.16766112711342
 10
182.9245983549018
 20
16.17187430209727
 10
183.0404922843487
 20
16.20177611317535
 10
182.9295652727457
 20
15.92339806609888
 10
182.9574856365265
 20
15.74283140824953
 10
182.9404267346968
 20
15.50961042346471
 10
182.9414637282102
 20
15.34906622543146
 10
182.9414099399403
 20
15.22284817558722
 10
182.941427737248
 20
15.12428963336241
 10
182.9414188581079
 20
14.99280702442963
 10
182.9414263928033
 20
14.86132844968649
 10
182.9414129405128
 20
14.7627622269409
 10
182.9414531717491
 20
14.63639735624152
 10
182.9406746403816
 20
14.47482068822869
 10
182.9565958319266
 20
14.24361821892913
 10
182.9333468885407
 20
14.05874351972003
 10
183.0360183444365
 20
13.78935602770057
 10
182.8820238362836
 20
13.82660112685817
 10
182.8004129802832
 20
13.82137994680533
 10
182.7188192292582
 20
13.82660620378351
 10
182.5648513666842
 20
13.78937069885384
 10
182.6674183421916
 20
14.05875129862878
 10
182.6442045316087
 20
14.24361585325414
 10
182.6600444655138
 20
14.47482218565638
 10
182.6593296313427
 20
14.63639712308502
 10
182.6593664569907
 20
14.76276231210521
 10
182.659354900027
 20
14.86132756635981
 10
182.6593575019214
 20
14.9928112741722
 10
182.6593648531779
 20
15.124275480312
 10
182.659344254135
 20
15.22287786275325
 10
182.6594082192029
 20
15.34896149354428
 10
182.6581733947589
 20
15.5121009138377
 10
182.6532040396744
 20
15.66054183777549
 10
182.6507427258644
 20
15.73406440953871
 97
        1
330
BB
 75
     1
 76
     2
 52
45.0
 41
0.1
 77
     0
 78
     1
 53
45.0
 43
0.0
 44
0.0
 45
-0.282842712474619
 46
0.0
 79
     0
 98
        1
 10
0.0
 20
0.0
  0
HATCH
  5
D9
330
48
100
AcDbEntity
  8
1
  6
Continuous
 62
     2
100
AcDbHatch
 10
0.0
 20
0.0
 30
0.0
210
0.0
220
0.0
230
1.0
  2
CUSTOM11
 70
     0
 71
     1
 91
        1
 92
        1
 93
        1
 72
     4
 94
        3
 73
     0
 74
     0
 95
      110
 96
      106
 40
0.0
 40
0.0
 40
0.0
 40
0.0
 40
0.2203406257277873
 40
0.4407808782838196
 40
0.5952494494615176
 40
0.7488431659393184
 40
0.9023581831308882
 40
1.056801968670415
 40
1.210736449099859
 40
1.363041386539793
 40
1.51531572968308
 40
1.669377239148088
 40
1.721611652756575
 40
1.773199502942958
 40
1.824933793210004
 40
1.87711042648798
 40
1.982682281206743
 40
2.078781667087552
 40
2.172809640822329
 40
2.271937807378927
 40
2.378349933379348
 40
2.494131557736593
 40
2.626681683943699
 40
2.783145050796069
 40
2.890701232940942
 40
2.993130312454835
 40
3.099869730691808
 40
3.220237816691301
 40
3.352695482737595
 40
3.481732806389841
 40
3.593499473690375
 40
3.674323013331898
 40
3.817951711952762
 40
3.946167120793759
 40
4.061405053453417
 40
4.166480796003086
 40
4.262478775059208
 40
4.350736673551078
 40
4.433071991253993
 40
4.511216293814566
 40
4.564262454117879
 40
4.618474415571505
 40
4.670128488754092
 40
4.722296879126298
 40
4.819540945314224
 40
4.931194984128024
 40
5.049996040257637
 40
5.168643755415126
 40
5.283970811762394
 40
5.392260784910248
 40
5.486512254876295
 40
5.559178233949637
 40
5.591425852853304
 40
5.626215969637691
 40
5.667155838674236
 40
5.717449290214035
 40
5.73840236094465
 40
5.784499116553619
 40
5.830595872164593
 40
5.851548942897451
 40
5.873019280661565
 40
5.924217778408107
 40
5.985325662817487
 40
6.036524160567503
 40
6.057994498334032
 40
6.236847789607288
 40
6.381409928945466
 40
6.493190424178489
 40
6.574067534230299
 40
6.691018086205364
 40
6.814881554220197
 40
6.944307823240234
 40
7.071266716065801
 40
7.193488604461646
 40
7.309042773127845
 40
7.414007203170526
 40
7.505140441886339
 40
7.531150360599502
 40
7.559221645322095
 40
7.58720221892075
 40
7.612569159498966
 40
7.662550809480839
 40
7.702878875763989
 40
7.857328205230832
 40
8.010799568088535
 40
8.165256399657457
 40
8.322232698713739
 40
8.479564855016426
 40
8.635216230290629
 40
8.790882550925547
 40
8.948305154947112
 40
9.168271839032801
 40
9.387358980987086
 40
9.60804796103332
 40
9.83291423479251
 40
9.858338694962846
 40
9.925366817229854
 40
10.02013071422743
 40
10.12876249858982
 40
10.23739428295233
 40
10.33215817995174
 40
10.39918630222378
 40
10.42461076239767
 40
10.64992019336927
 40
10.87188524531171
 40
10.87188524531171
 40
10.87188524531171
 40
10.87188524531171
 10
179.9057788376618
 20
15.73923260398189
 10
179.9092864933541
 20
15.80616462073803
 10
179.9163033987662
 20
15.94005891915858
 10
179.8198027599073
 20
16.22548554971469
 10
180.0510134726108
 20
16.16284386190284
 10
180.1919290057156
 20
16.17001554055989
 10
180.3490417757588
 20
16.16235883078244
 10
180.5025913427287
 20
16.1625275228304
 10
180.654510493508
 20
16.16182040535433
 10
180.8142214813231
 20
16.17210158351637
 10
180.9408972601117
 20
16.15496511080751
 10
181.1370821122081
 20
16.22727260107148
 10
181.1034395279078
 20
16.12640699080117
 10
181.1052011317184
 20
16.0761925394767
 10
181.1027342073458
 20
16.02712335586466
 10
181.1347076966011
 20
15.94063490846999
 10
181.0010399903256
 20
15.98997438608336
 10
180.9172208688056
 20
15.98430634314168
 10
180.8173861139323
 20
15.99465516706297
 10
180.7186576720145
 20
16.00086450411087
 10
180.612153277111
 20
16.00697763816777
 10
180.4910511698059
 20
16.01588883484585
 10
180.3703381502453
 20
16.00521605912385
 10
180.1812553843438
 20
16.06468503080365
 10
180.212902850531
 20
15.90558320077539
 10
180.1995563316834
 20
15.80839128339903
 10
180.1974958426449
 20
15.69634065110102
 10
180.1958188044669
 20
15.5769968562935
 10
180.1973336794232
 20
15.4503259215511
 10
180.1956582478668
 20
15.32301588016117
 10
180.2058844271657
 20
15.22451566404463
 10
180.1779006596582
 20
15.08388702625632
 10
180.3508029999304
 20
15.13989551134094
 10
180.4645020202771
 20
15.12719951478498
 10
180.5840151672238
 20
15.13448377051255
 10
180.6888491425071
 20
15.13878017056755
 10
180.7843084898611
 20
15.14330568258976
 10
180.8763823507032
 20
15.15149201146198
 10
180.9476551782438
 20
15.14643850638111
 10
181.0544931705684
 20
15.18536425031672
 10
181.0226603598035
 20
15.10517122005878
 10
181.0266164503928
 20
15.05562936846032
 10
181.0234502392012
 20
15.00557478039818
 10
181.0550791490583
 20
14.92128847612019
 10
180.921013367769
 20
14.97425365495156
 10
180.8292322793199
 20
14.96540080890442
 10
180.7079729189602
 20
14.97570049965154
 10
180.5914113119771
 20
14.97748911767503
 10
180.4783375745879
 20
14.97787017109694
 10
180.367924630847
 20
14.9841544947218
 10
180.2898124067839
 20
14.97189133255364
 10
180.1913625833644
 20
15.00453887616124
 10
180.2012355173561
 20
14.94769748054206
 10
180.1973923244401
 20
14.91392130557984
 10
180.1966789884268
 20
14.87119604709411
 10
180.1963369642975
 20
14.83401607262153
 10
180.1963834255343
 20
14.79487237370771
 10
180.1963649429927
 20
14.75716849497686
 10
180.1963703431804
 20
14.71944955232402
 10
180.19636972142
 20
14.6899432474515
 10
180.1963698151544
 20
14.65873577699301
 10
180.196370428792
 20
14.61414424908085
 10
180.1963671499335
 20
14.5596395650885
 10
180.196375962348
 20
14.51505540201448
 10
180.1963359653415
 20
14.43117808585739
 10
180.1976024270255
 20
14.31737520677678
 10
180.1950274117841
 20
14.16830395933709
 10
180.2065009381719
 20
14.06597203813905
 10
180.1823506222264
 20
13.93338903885834
 10
180.3332993946475
 20
13.9789573227202
 10
180.4428436671556
 20
13.96427012162349
 10
180.5733970473919
 20
13.96920435125063
 10
180.6990312209513
 20
13.9725770532336
 10
180.81887306256
 20
13.97711497498772
 10
180.9391362611426
 20
13.99048536182006
 10
181.0222761663514
 20
13.98068712782594
 10
181.1456080421075
 20
14.04126214623321
 10
181.1244269203956
 20
13.98532460134021
 10
181.1235950270115
 20
13.95939249372346
 10
181.1218963707558
 20
13.93197256190939
 10
181.1217974888828
 20
13.89738195206385
 10
181.1203659301329
 20
13.86050408220767
 10
181.1532804192191
 20
13.76846841021807
 10
180.9551306988106
 20
13.84132015974832
 10
180.830054829489
 20
13.81825726508605
 10
180.6673071295156
 20
13.82454021985785
 10
180.5129366450001
 20
13.82260943909925
 10
180.3566670436944
 20
13.82393762599267
 10
180.1970544465282
 20
13.8205987248786
 10
180.0540326342237
 20
13.8326579572824
 10
179.8197144881628
 20
13.76952001976918
 10
179.9173810751196
 20
14.05620527466318
 10
179.9006868780059
 20
14.2498830814266
 10
179.9146296709684
 20
14.47848242880296
 10
179.9142987846631
 20
14.63384593955046
 10
179.9143078119264
 20
14.73966336444125
 10
179.9143055876316
 20
14.80205784124213
 10
179.9143065551888
 20
14.89220425248325
 10
179.9143065473262
 20
14.99621167157437
 10
179.9143053861102
 20
15.10022131375295
 10
179.9143090971502
 20
15.19036243688766
 10
179.9143011051051
 20
15.25276803097214
 10
179.9143334275019
 20
15.35868835961118
 10
179.913144078832
 20
15.5162671654474
 10
179.9082216489255
 20
15.66528219822064
 10
179.9057788376618
 20
15.73923260398189
 97
        1
330
BC
 75
     1
 76
     2
 52
45.0
 41
0.1
 77
     0
 78
     1
 53
45.0
 43
0.0
 44
0.0
 45
-0.282842712474619
 46
0.0
 79
     0
 98
        1
 10
0.0
 20
0.0
  0
HATCH
  5
DA
330
48
100
AcDbEntity
  8
1
  6
Continuous
 62
     2
100
AcDbHatch
 10
0.0
 20
0.0
 30
0.0
210
0.0
220
0.0
230
1.0
  2
CUSTOM12
 70
     0
 71
     1
 91
        1
 92
        1
 93
        1
 72
     4
 94
        3
 73
     0
 74
     0
 95
       95
 96
       91
 40
0.0
 40
0.0
 40
0.0
 40
0.0
 40
0.6550406656911159
 40
1.308087289031888
 40
1.420803739835764
 40
1.566130759770761
 40
1.757067341888431
 40
2.006513545026423
 40
2.087328263121523
 40
2.185328872295583
 40
2.294612454748342
 40
2.408936380534777
 40
2.526802767798532
 40
2.646360524615574
 40
2.762535723971559
 40
2.870057342870134
 40
2.966883448431622
 40
3.05080324351825
 40
3.115818222436566
 40
3.156030057150216
 40
3.213914225080202
 40
3.276689026450631
 40
3.342960320981295
 40
3.404230667150544
 40
3.453822809493347
 40
3.532499827188404
 40
3.634775188507132
 40
3.754909333008139
 40
3.889736761660629
 40
4.035769602175196
 40
4.18725668119758
 40
4.338733685675932
 40
4.488478734676093
 40
4.63470831783155
 40
4.77149318992125
 40
4.892686571561186
 40
5.199775528944428
 40
5.460353566929621
 40
5.667603142345488
 40
5.814722905404464
 40
5.828990806219819
 40
5.855488336304459
 40
5.869756237118791
 40
6.189796507762829
 40
6.531890469873055
 40
6.88305363701701
 40
7.230512024911461
 40
7.566966656764591
 40
7.885203559707395
 40
8.172887439719215
 40
8.41801159406273
 40
8.443926721190651
 40
8.510760470613139
 40
8.602145393795649
 40
8.70171404164709
 40
8.79309896507532
 40
8.859932715057893
 40
8.885847842603543
 40
9.242301256612754
 40
9.589275455016711
 40
9.921808543164113
 40
10.23479624298462
 40
10.29968150889167
 40
10.35323493887753
 40
10.40154625355137
 40
10.46482922477821
 40
10.55973900668402
 40
10.69239545985616
 40
10.84920353475669
 40
11.01626328594778
 40
11.18672024367441
 40
11.35372582577209
 40
11.50257442292425
 40
11.61866495023288
 40
11.71329869152872
 40
11.82511050573905
 40
11.94464880845713
 40
12.06929242642505
 40
12.19707290435174
 40
12.32562632860526
 40
12.45034565331277
 40
12.56646595170326
 40
12.67099007414632
 40
12.76077625936779
 40
12.82703233506691
 40
12.87429132785989
 40
12.89831990323329
 40
12.92234847860017
 40
13.53984767410321
 40
14.18294284359366
 40
14.18294284359366
 40
14.18294284359366
 40
14.18294284359366
 10
177.306793564802
 20
14.70898038201723
 10
177.1752019758549
 20
14.82265058603231
 10
176.9124193802728
 20
15.04964496316158
 10
176.3997393441022
 20
15.89214462956286
 10
176.4106654595361
 20
15.5342337757702
 10
176.404122652799
 20
15.39267392272133
 10
176.4028026631771
 20
15.19421305299281
 10
176.4018117602537
 20
15.02150296045982
 10
176.4024101751974
 20
14.8786537325758
 10
176.4038994301881
 20
14.78265005413357
 10
176.4055683588471
 20
14.67545503263141
 10
176.4071934954617
 20
14.56164211517581
 10
176.4092429501684
 20
14.44441572604588
 10
176.4123165501927
 20
14.32656411232969
 10
176.4156339697042
 20
14.21228087320619
 10
176.419360534028
 20
14.10521401867276
 10
176.4217338161423
 20
14.01007408766921
 10
176.4278718888356
 20
13.92558557205695
 10
176.4239784495946
 20
13.86923087298141
 10
176.4455230443078
 20
13.79825022472353
 10
176.3680940058617
 20
13.82902677604483
 10
176.3116353240191
 20
13.82011242517613
 10
176.2540495896806
 20
13.82896218398274
 10
176.1690163478472
 20
13.79738225225944
 10
176.2009714146382
 20
13.88095155992192
 10
176.1990705282537
 20
13.9488260896831
 10
176.2107960047299
 20
14.05233256764419
 10
176.2164241052998
 20
14.17002125616695
 10
176.223790217894
 20
14.30388609164423
 10
176.2320759701609
 20
14.44764152872632
 10
176.2398851897427
 20
14.59714022843444
 10
176.2457571222657
 20
14.74792549402077
 10
176.2503667817968
 20
14.89699943878437
 10
176.2542632117541
 20
15.04122913163022
 10
176.2570715126564
 20
15.17583905213017
 10
176.2576698755022
 20
15.36469614347354
 10
176.261602386715
 20
15.58975494313154
 10
176.2442175378498
 20
15.86367091125707
 10
176.2850417342583
 20
16.02787112098598
 10
176.1995153256
 20
16.22749661465096
 10
176.2660558907687
 20
16.22385458403978
 10
176.2838724273229
 20
16.22413447160853
 10
176.4056801797504
 20
16.22632927398613
 10
176.508077033546
 20
15.94675118721514
 10
176.7580021509356
 20
15.74563008536006
 10
176.987003533111
 20
15.47792614987915
 10
177.2245151213107
 20
15.22646413862374
 10
177.4486090740771
 20
14.9896997406136
 10
177.6750716283009
 20
14.73218692583077
 10
177.8325687886513
 20
14.61649335056925
 10
178.0472129612673
 20
14.27997152538794
 10
178.0422645974617
 20
14.40464754091604
 10
178.0433931602545
 20
14.46327691935736
 10
178.0428877841515
 20
14.55043662371977
 10
178.0430475158112
 20
14.64416143182872
 10
178.0430054891317
 20
14.73018971297035
 10
178.0430202040371
 20
14.79153891945496
 10
178.0429706255983
 20
14.94135231520991
 10
178.0458811522809
 20
15.17989612510104
 10
178.0259521041162
 20
15.54486509868701
 10
178.0750433936246
 20
15.80799631993409
 10
177.917795150918
 20
16.21928904947753
 10
178.076211287242
 20
16.16398282551747
 10
178.1311680478627
 20
16.16199686500175
 10
178.1827887766739
 20
16.16264778248252
 10
178.2713198965366
 20
16.20369527738247
 10
178.2204898303168
 20
16.05696326622988
 10
178.2313389930282
 20
15.95019971954432
 10
178.2166036994847
 20
15.79085705414111
 10
178.2099976446203
 20
15.62853061652873
 10
178.2014961399914
 20
15.45992521892394
 10
178.1943227202198
 20
15.29814814703541
 10
178.1889063215388
 20
15.15422331457931
 10
178.1871713967647
 20
15.03437493466925
 10
178.1875440672317
 20
14.92686101590515
 10
178.1873656126262
 20
14.81820024645586
 10
178.1877010863138
 20
14.6995357016553
 10
178.1890040622184
 20
14.5755516351274
 10
178.1908887351574
 20
14.44858294171104
 10
178.1925004454849
 20
14.32153861551031
 10
178.1941403137428
 20
14.19854884492176
 10
178.1962570745752
 20
14.08300931383759
 10
178.1963848422364
 20
13.98090903955837
 10
178.2006514396554
 20
13.89009848838157
 10
178.1908440085288
 20
13.83213621208787
 10
178.211847477169
 20
13.7651713013203
 10
178.1725639739896
 20
13.77291153966689
 10
177.9595307117748
 20
13.75755254145195
 10
177.7636297943184
 20
14.31403058094466
 10
177.4611197631543
 20
14.57556035348508
 10
177.306793564802
 20
14.70898038201723
 97
        1
330
BD
 75
     1
 76
     2
 52
45.0
 41
0.1
 77
     0
 78
     1
 53
45.0
 43
0.0
 44
0.0
 45
-0.282842712474619
 46
0.0
 79
     0
 98
        1
 10
0.0
 20
0.0
  0
HATCH
  5
DB
330
48
100
AcDbEntity
  8
1
  6
Continuous
 62
     2
100
AcDbHatch
 10
0.0
 20
0.0
 30
0.0
210
0.0
220
0.0
230
1.0
  2
CUSTOM13
 70
     0
 71
     1
 91
        2
 92
        1
 93
        1
 72
     4
 94
        3
 73
     0
 74
     0
 95
       57
 96
       53
 40
0.0
 40
0.0
 40
0.0
 40
0.0
 40
0.0471632082808385
 40
0.0914861054631868
 40
0.135776251970182
 40
0.1826527001609546
 40
0.2295203288571739
 40
0.2737751972219625
 40
0.3181310461542499
 40
0.3652607198398504
 40
0.4571007286314317
 40
0.5671851029165023
 40
0.6894623283868109
 40
0.8181758272545989
 40
0.9510087229273888
 40
1.085852229674049
 40
1.2181261644753
 40
1.343545131142386
 40
1.454537202956745
 40
1.567187607530698
 40
1.680710966642345
 40
1.794226869736681
 40
1.900009184247508
 40
2.00408586044776
 40
2.108162674451676
 40
2.214000150155305
 40
2.49603857735211
 40
2.762350745479239
 40
2.997275353279407
 40
3.185110082137723
 40
3.246407890063865
 40
3.312607550212681
 40
3.378877742711554
 40
3.440140399651437
 40
4.100501696006495
 40
4.754913085563549
 40
5.41133169342392
 40
6.077890432568695
 40
6.110575292670974
 40
6.143260152775754
 40
6.367989363395143
 40
6.610525374951526
 40
6.863389136467295
 40
7.119380025547572
 40
7.376036605091088
 40
7.631164770966277
 40
7.876722425456415
 40
8.10495373585599
 40
8.312916685924316
 40
8.497730294941277
 40
8.651018984313875
 40
8.764738853624559
 40
8.764738853624559
 40
8.764738853624559
 40
8.764738853624559
 10
174.7922649500512
 20
13.81626739612927
 10
174.776661672693
 20
13.81826231079078
 10
174.7463947960301
 20
13.82213201360299
 10
174.7010994202253
 20
13.82341984967267
 10
174.6559553129348
 20
13.8230868355405
 10
174.6099017123399
 20
13.82314658674223
 10
174.5640496172096
 20
13.82325813649999
 10
174.5183711648165
 20
13.82277833456589
 10
174.4750811541608
 20
13.82461109618722
 10
174.4039947951512
 20
13.80049556814655
 10
174.4057477261441
 20
13.92184693977252
 10
174.3586196370568
 20
14.00726239751231
 10
174.3191478251762
 20
14.12486929345137
 10
174.2706635532643
 20
14.24232752540436
 10
174.2201017402522
 20
14.36405935761511
 10
174.1718634610475
 20
14.49075967862463
 10
174.1135232947594
 20
14.59933687784953
 10
174.098089266726
 20
14.75620657134407
 10
173.9566586330635
 20
14.72373446548322
 10
173.8508397414903
 20
14.7351288868218
 10
173.7358569725221
 20
14.73392591514615
 10
173.6253142252141
 20
14.73506945347409
 10
173.5176583522783
 20
14.73418350037526
 10
173.4121322529242
 20
14.73416602390519
 10
173.3109192682012
 20
14.72714032472414
 10
173.1266804827752
 20
14.75135859859871
 10
173.115739368541
 20
14.44741691121884
 10
173.0087691634751
 20
14.22353177253393
 10
172.9098148604344
 20
14.03895314292501
 10
172.9225090524006
 20
13.79530204804207
 10
172.8050091716397
 20
13.82508046753198
 10
172.7422055868309
 20
13.82258089509601
 10
172.6785872093399
 20
13.82344075102805
 10
172.3946014194074
 20
13.78098039941944
 10
173.0251638499381
 20
14.50081952444784
 10
173.1087645289072
 20
15.01276539435727
 10
173.4929252789337
 20
15.53353743550045
 10
173.4777208288565
 20
16.23519626253214
 10
173.7239265722696
 20
16.22345633081256
 10
173.825634615756
 20
16.23225004452772
 10
173.8249752035817
 20
15.98059650730347
 10
173.9428317155827
 20
15.79818020733956
 10
174.0315515260484
 20
15.55563740662868
 10
174.1322292485258
 20
15.32340030530125
 10
174.2311142712242
 20
15.08674644566915
 10
174.3299676990668
 20
14.85461739170092
 10
174.4256166390925
 20
14.63122222788787
 10
174.5159904573271
 20
14.42272549049317
 10
174.5989944568189
 20
14.23308448529321
 10
174.6726088582797
 20
14.06663106068093
 10
174.7342815895545
 20
13.92917699626103
 10
174.7749458885603
 20
13.84999239430034
 10
174.7922649500512
 20
13.81626739612927
 97
        1
330
BF
 92
       16
 93
        1
 72
     4
 94
        3
 73
     0
 74
     0
 95
       25
 96
       21
 40
0.0
 40
0.0
 40
0.0
 40
0.0
 40
0.0911479969064253
 40
0.1858117896203814
 40
0.2804128399733923
 40
0.3715889190713658
 40
0.4679080494218424
 40
0.5642683809229232
 40
0.6605683222644139
 40
0.7569653015809119
 40
0.8561348172521489
 40
1.092615965104156
 40
1.374867658141739
 40
1.611348812011442
 40
1.71051832842509
 40
1.809403163726408
 40
2.045205463293911
 40
2.326646917621971
 40
2.562449217190433
 40
2.661334043833752
 40
2.661334043833752
 40
2.661334043833752
 40
2.661334043833752
 10
173.2683700567199
 20
14.88614538197292
 10
173.2987525917922
 20
14.88598079714555
 10
173.3606895889111
 20
14.88564528689921
 10
173.4541356960329
 20
14.88269055452
 10
173.5475095236356
 20
14.8797775287715
 10
173.6417760753475
 20
14.87894201643416
 10
173.7354964790967
 20
14.87996644658047
 10
173.8352040303204
 20
14.87916977470973
 10
173.9188949546311
 20
14.88921410235218
 10
174.0637996315045
 20
14.86234617674166
 10
173.9396132444799
 20
15.03665530280049
 10
173.8965867286282
 20
15.19651711006092
 10
173.7808922142208
 20
15.45518458550214
 10
173.7017565431257
 20
15.59231052861859
 10
173.6431576621816
 20
15.80937033134077
 10
173.5864803939438
 20
15.59266134213428
 10
173.5052809900478
 20
15.45327012438236
 10
173.4063701281488
 20
15.20406969370195
 10
173.325362509426
 20
15.01925830226073
 10
173.2813683325838
 20
14.91650446856116
 10
173.2683700567199
 20
14.88614538197292
 97
        1
330
BE
 75
     1
 76
     2
 52
45.0
 41
0.1
 77
     0
 78
     1
 53
45.0
 43
0.0
 44
0.0
 45
-0.282842712474619
 46
0.0
 79
     0
 98
        1
 10
0.0
 20
0.0
  0
HATCH
  5
DC
330
48
100
AcDbEntity
  8
1
  6
Continuous
 62
     2
100
AcDbHatch
 10
0.0
 20
0.0
 30
0.0
210
0.0
220
0.0
230
1.0
  2
CUSTOM14
 70
     0
 71
     1
 91
        1
 92
        1
 93
        1
 72
     4
 94
        3
 73
     0
 74
     0
 95
       99
 96
       95
 40
0.0
 40
0.0
 40
0.0
 40
0.0
 40
0.0796417172272494
 40
0.1621768542356667
 40
0.2486489160957863
 40
0.3404969668525325
 40
0.4381912511165357
 40
0.5434463660245655
 40
0.6518115192846843
 40
0.753019093788639
 40
0.8492196919724686
 40
0.9419290312997762
 40
1.034249663570003
 40
1.129078600620192
 40
1.226697027573242
 40
1.32722042542171
 40
1.470572134938033
 40
1.595489863371246
 40
1.719934125348383
 40
1.850576620127372
 40
1.989059629987316
 40
2.134139054226958
 40
2.280698007207222
 40
2.424529739039444
 40
2.565929576985858
 40
2.708239260773513
 40
2.861717887443662
 40
3.04516854034738
 40
3.183798301138623
 40
3.314813961455477
 40
3.442083470447324
 40
3.569912708373042
 40
3.702177512509419
 40
3.842307559659612
 40
3.992872223245987
 40
4.156750662218318
 40
4.310981861107567
 40
4.445859909322667
 40
4.572393936131633
 40
4.701656719782056
 40
4.768279086008559
 40
4.835960697898499
 40
4.912788918729442
 40
5.006285208481655
 40
5.026909478751703
 40
5.047533749021211
 40
5.101808031471289
 40
5.16232516553861
 40
5.226919745995919
 40
5.294231806596813
 40
5.364544852554919
 40
5.438319055468037
 40
5.517877651324292
 40
5.60764771486166
 40
5.700449642544478
 40
5.788251142364154
 40
5.872714706039786
 40
5.955167292575375
 40
6.037192395190448
 40
6.120669181469141
 40
6.206848616686402
 40
6.296680855416813
 40
6.442558392872638
 40
6.568190371608334
 40
6.692904567360355
 40
6.824220446557113
 40
6.963121850329374
 40
7.107843738851156
 40
7.253431663907325
 40
7.395187468036771
 40
7.533140753237781
 40
7.670550457175231
 40
7.81623651176926
 40
7.987691657359224
 40
8.142277421969261
 40
8.293662615415021
 40
8.442962460879283
 40
8.591598316185266
 40
8.743678992361755
 40
8.903725323699215
 40
9.076307008890508
 40
9.265578604680618
 40
9.459203795360736
 40
9.617619810273549
 40
9.753609671361858
 40
9.874873300004007
 40
9.954520184977685
 40
10.02416413719235
 40
10.09769764405434
 40
10.18909955924962
 40
10.20974586420132
 40
10.23039218263377
 40
10.30057101881261
 40
10.37632012987539
 40
10.37632012987539
 40
10.37632012987539
 40
10.37632012987539
 10
170.146595483585
 20
14.13795663215994
 10
170.1632217851218
 20
14.11720608845312
 10
170.1970784206576
 20
14.07495111711898
 10
170.2599822541036
 20
14.02029811392077
 10
170.3332500940392
 20
13.97299025121046
 10
170.4175969238636
 20
13.93527231437936
 10
170.513224061546
 20
13.9104061973195
 10
170.6171853775346
 20
13.90309559345937
 10
170.7224020220404
 20
13.91142322794055
 10
170.8206626371332
 20
13.94149179651527
 10
170.9058986427547
 20
13.98848822971875
 10
170.9779220206102
 20
14.04952991250857
 10
171.0350917709095
 20
14.12412969578586
 10
171.0767868747439
 20
14.2100246466017
 10
171.1026952846292
 20
14.30485850432211
 10
171.1118037332653
 20
14.41854979038367
 10
171.0986864796486
 20
14.54332587770779
 10
171.0325330334413
 20
14.6601471917189
 10
170.9369370919568
 20
14.74512539577373
 10
170.8249681022368
 20
14.81416684459161
 10
170.6993659583269
 20
14.87204142045889
 10
170.5656691620856
 20
14.92373723284338
 10
170.431312281883
 20
14.97899092397179
 10
170.3051983986877
 20
15.04939770641653
 10
170.1926579987534
 20
15.13785540731246
 10
170.0969963064458
 20
15.24981067868477
 10
170.0334157151824
 20
15.3994991010138
 10
170.0200706505015
 20
15.55932794385142
 10
170.0320510987447
 20
15.71048405306846
 10
170.071229892884
 20
15.83809244591538
 10
170.1354987750909
 20
15.95080874030848
 10
170.223820499974
 20
16.04648609268682
 10
170.3338091207627
 20
16.12354214985756
 10
170.4632284401265
 20
16.18151396936277
 10
170.6111838967793
 20
16.21739177588822
 10
170.7682069455485
 20
16.22746719050562
 10
170.917494046643
 20
16.2186363776259
 10
171.059625361417
 20
16.19074899340354
 10
171.1595922609625
 20
16.13413314701136
 10
171.3125074736185
 20
16.08674602105506
 10
171.2455131717168
 20
16.00197553001185
 10
171.2296479120269
 20
15.93438901873481
 10
171.1978750531295
 20
15.86926092793191
 10
171.215020220957
 20
15.76723453256953
 10
171.1666427208231
 20
15.774932116819
 10
171.1315789440766
 20
15.76806771724808
 10
171.1296697985718
 20
15.83263831158197
 10
171.0985692931988
 20
15.87825639621391
 10
171.0664551628455
 20
15.93561036628457
 10
171.0208038475166
 20
15.98540462692555
 10
170.9658508218387
 20
16.02994813719
 10
170.9010841173007
 20
16.06763988836545
 10
170.8232377310596
 20
16.09283375791355
 10
170.7355160553352
 20
16.0993123099811
 10
170.6452903277806
 20
16.09235709285608
 10
170.5594594694064
 20
16.0690919046092
 10
170.4828343638596
 20
16.03131644107543
 10
170.41652656362
 20
15.98051641089576
 10
170.3622560536963
 20
15.91731143407209
 10
170.3224925345459
 20
15.84276455710364
 10
170.2976775510587
 20
15.75917313997765
 10
170.289212426287
 20
15.65192948382284
 10
170.3019697987102
 20
15.52965457267557
 10
170.3681548409274
 20
15.41149724291216
 10
170.4640977399831
 20
15.32606325709525
 10
170.5757914963181
 20
15.2558336230672
 10
170.7010863668701
 20
15.19659162305304
 10
170.8349823941446
 20
15.14616708086132
 10
170.9689930333149
 20
15.09322516984382
 10
171.0950885316914
 20
15.02750170625178
 10
171.2076216638417
 20
14.94480352537321
 10
171.3031370284232
 20
14.83996006310071
 10
171.3672706486961
 20
14.6993711725157
 10
171.3811103725279
 20
14.54065409451592
 10
171.3673954712228
 20
14.38153155217876
 10
171.3244739153984
 20
14.23483828819209
 10
171.2545906329065
 20
14.10119796587146
 10
171.1574592213829
 20
13.98532387699286
 10
171.0347806023657
 20
13.89089981770086
 10
170.8874408413167
 20
13.82179270651984
 10
170.7177132497123
 20
13.77953210858851
 10
170.5317404979596
 20
13.76781736230409
 10
170.3528955926182
 20
13.77809486683437
 10
170.1881733753743
 20
13.81966573769152
 10
170.0834410841056
 20
13.88797642883942
 10
169.9350960790366
 20
13.93675219032105
 10
169.9980378194728
 20
14.02976591290843
 10
170.0072274430058
 20
14.10296536248281
 10
170.0303711301231
 20
14.16936294501347
 10
170.0034588335316
 20
14.26974809527584
 10
170.0521338956339
 20
14.26234033517377
 10
170.0916530580697
 20
14.26894063620895
 10
170.0996204944702
 20
14.19078703218933
 10
170.1305436967923
 20
14.15600927375857
 10
170.146595483585
 20
14.13795663215994
 97
        1
330
C0
 75
     1
 76
     2
 52
45.0
 41
0.1
 77
     0
 78
     1
 53
45.0
 43
0.0
 44
0.0
 45
-0.282842712474619
 46
0.0
 79
     0
 98
        1
 10
0.0
 20
0.0
  0
ENDBLK
  5
4A
330
48
100
AcDbEntity
  8
0
100
AcDbBlockEnd
  0
BLOCK
  5
4D
330
4B
100
AcDbEntity
  8
0
100
AcDbBlockBegin
  2
開示A4枠
 70
     0
 10
0.0
 20
0.0
 30
0.0
  3
開示A4枠
  1

  0
INSERT
  5
4C
330
4B
100
AcDbEntity
  8
1
100
AcDbBlockReference
  2
開示A4
 10
0.0
 20
0.0
 30
0.0
  0
ENDBLK
  5
4E
330
4B
100
AcDbEntity
  8
0
100
AcDbBlockEnd
  0
BLOCK
  5
50
330
4F
100
AcDbEntity
  8
0
100
AcDbBlockBegin
  2
41-1-15
 70
     0
 10
118.9867583038567
 20
-35.58360444640019
 30
0.0
  3
41-1-15
  1

  0
LINE
  5
DD
330
4F
100
AcDbEntity
  8
1
  6
Continuous
 62
     7
100
AcDbLine
 10
116.1105413199143
 20
126.2040416720862
 30
0.0
 11
116.1105413199143
 21
125.0830416720862
 31
0.0
  0
LINE
  5
DE
330
4F
100
AcDbEntity
  8
1
  6
Continuous
 62
     7
100
AcDbLine
 10
116.6105413199143
 20
148.7040416720862
 30
0.0
 11
116.6105413199143
 21
134.7040416720862
 31
0.0
  0
LINE
  5
DF
330
4F
100
AcDbEntity
  8
1
  6
Continuous
 62
     7
100
AcDbLine
 10
121.6105413199143
 20
131.7040416720862
 30
0.0
 11
121.6105413199143
 21
133.9540416720862
 31
0.0
  0
LINE
  5
E0
330
4F
100
AcDbEntity
  8
1
  6
Continuous
 62
     7
100
AcDbLine
 10
115.7315413199143
 20
124.7040416720863
 30
0.0
 11
114.1105413199143
 21
124.7040416720863
 31
0.0
  0
LINE
  5
E1
330
4F
100
AcDbEntity
  8
1
  6
Continuous
 62
     7
100
AcDbLine
 10
116.1105413199143
 20
125.0830416720862
 30
0.0
 11
115.7315413199143
 21
124.7040416720863
 31
0.0
  0
LINE
  5
E2
330
4F
100
AcDbEntity
  8
1
  6
Continuous
 62
     7
100
AcDbLine
 10
116.1105413199143
 20
125.0830416720862
 30
0.0
 11
114.1105413199143
 21
125.0830416720862
 31
0.0
  0
LINE
  5
E3
330
4F
100
AcDbEntity
  8
1
  6
Continuous
 62
     7
100
AcDbLine
 10
111.6105413199143
 20
148.7040416720862
 30
0.0
 11
116.6105413199143
 21
148.7040416720862
 31
0.0
  0
LINE
  5
E4
330
4F
100
AcDbEntity
  8
1
  6
Continuous
 62
     7
100
AcDbLine
 10
114.1105413199143
 20
125.0830416720862
 30
0.0
 11
112.1105413199143
 21
125.0830416720862
 31
0.0
  0
LINE
  5
E5
330
4F
100
AcDbEntity
  8
1
  6
Continuous
 62
     7
100
AcDbLine
 10
112.4895413199143
 20
124.7040416720863
 30
0.0
 11
112.1105413199143
 21
125.0830416720862
 31
0.0
  0
LINE
  5
E6
330
4F
100
AcDbEntity
  8
1
  6
Continuous
 62
     7
100
AcDbLine
 10
112.1105413199143
 20
125.0830416720862
 30
0.0
 11
112.1105413199143
 21
126.2040416720862
 31
0.0
  0
LINE
  5
E7
330
4F
100
AcDbEntity
  8
1
  6
Continuous
 62
     7
100
AcDbLine
 10
114.1105413199143
 20
124.7040416720863
 30
0.0
 11
112.4895413199143
 21
124.7040416720863
 31
0.0
  0
LINE
  5
E8
330
4F
100
AcDbEntity
  8
1
  6
Continuous
 62
     2
100
AcDbLine
 10
112.4895413199143
 20
124.7040416720863
 30
0.0
 11
112.4895413199143
 21
126.2040416720862
 31
0.0
  0
LINE
  5
E9
330
4F
100
AcDbEntity
  8
1
  6
Continuous
 62
     7
100
AcDbLine
 10
106.6105413199143
 20
131.7040416720862
 30
0.0
 11
106.6105413199143
 21
133.9540416720862
 31
0.0
  0
LINE
  5
EA
330
4F
100
AcDbEntity
  8
1
  6
Continuous
 62
     7
100
AcDbLine
 10
111.6105413199143
 20
134.7040416720862
 30
0.0
 11
111.6105413199143
 21
148.7040416720862
 31
0.0
  0
LINE
  5
EB
330
4F
100
AcDbEntity
  8
1
  6
Continuous
 62
     7
100
AcDbLine
 10
121.6105413199143
 20
133.9540416720862
 30
0.0
 11
120.8605413199143
 21
134.7040416720862
 31
0.0
  0
LINE
  5
EC
330
4F
100
AcDbEntity
  8
1
  6
Continuous
 62
     7
100
AcDbLine
 10
107.3605413199143
 20
134.7040416720862
 30
0.0
 11
106.6105413199143
 21
133.9540416720862
 31
0.0
  0
LINE
  5
ED
330
4F
100
AcDbEntity
  8
1
  6
Continuous
 62
     7
100
AcDbLine
 10
121.6105413199143
 20
133.9540416720862
 30
0.0
 11
106.6105413199143
 21
133.9540416720862
 31
0.0
  0
LINE
  5
EE
330
4F
100
AcDbEntity
  8
1
  6
Continuous
 62
     7
100
AcDbLine
 10
121.6105413199143
 20
131.7040416720862
 30
0.0
 11
121.1105413199143
 21
131.7040416720862
 31
0.0
  0
LINE
  5
EF
330
4F
100
AcDbEntity
  8
1
  6
Continuous
 62
     7
100
AcDbLine
 10
106.6105413199143
 20
131.7040416720862
 30
0.0
 11
107.1105413199143
 21
131.7040416720862
 31
0.0
  0
LINE
  5
F0
330
4F
100
AcDbEntity
  8
1
  6
Continuous
 62
     7
100
AcDbLine
 10
107.3605413199143
 20
134.7040416720862
 30
0.0
 11
120.8605413199143
 21
134.7040416720862
 31
0.0
  0
LINE
  5
F1
330
4F
100
AcDbEntity
  8
1
  6
Continuous
 62
     2
100
AcDbLine
 10
115.7315413199143
 20
126.2040416720862
 30
0.0
 11
115.7315413199143
 21
124.7040416720863
 31
0.0
  0
ARC
  5
F2
330
4F
100
AcDbEntity
  8
1
  6
Continuous
 62
     7
100
AcDbCircle
 10
113.961650133394
 20
145.7068137057855
 30
0.0
 40
3.999999999999995
100
AcDbArc
 50
48.53038297428357
 51
87.86679805301225
  0
ARC
  5
F3
330
4F
100
AcDbEntity
  8
1
  6
Continuous
 62
     7
100
AcDbCircle
 10
114.2594325064346
 20
145.7068137057855
 30
0.0
 40
3.99999999999998
100
AcDbArc
 50
92.13320194698775
 51
131.4696170257164
  0
CIRCLE
  5
F4
330
4F
100
AcDbEntity
  8
0
  6
Continuous
 62
     7
100
AcDbCircle
 10
114.1105413199143
 20
185.2046358641727
 30
0.0
 40
2.5
  0
CIRCLE
  5
F5
330
4F
100
AcDbEntity
  8
0
  6
Continuous
 62
     7
100
AcDbCircle
 10
114.1105413199143
 20
185.2046358641727
 30
0.0
 40
6.75
  0
CIRCLE
  5
F6
330
4F
100
AcDbEntity
  8
0
  6
Continuous
 62
     7
100
AcDbCircle
 10
114.1105413199143
 20
185.2046358641727
 30
0.0
 40
7.5
  0
ENDBLK
  5
51
330
4F
100
AcDbEntity
  8
0
100
AcDbBlockEnd
  0
BLOCK
  5
53
330
52
100
AcDbEntity
  8
0
100
AcDbBlockBegin
  2
32-88
 70
     0
 10
143.2002343596197
 20
24.00856610428619
 30
0.0
  3
32-88
  1

  0
LINE
  5
F7
330
52
100
AcDbEntity
  8
1
  6
Continuous
 62
     7
100
AcDbLine
 10
112.3784905123454
 20
127.7040416720862
 30
0.0
 11
112.3784905123454
 21
126.668143287224
 31
0.0
  0
LINE
  5
F8
330
52
100
AcDbEntity
  8
1
  6
Continuous
 62
     7
100
AcDbLine
 10
110.6464397047765
 20
127.7040416720862
 30
0.0
 11
110.6464397047765
 21
126.668143287224
 31
0.0
  0
LINE
  5
F9
330
52
100
AcDbEntity
  8
1
  6
Continuous
 62
     7
100
AcDbLine
 10
111.4755976841801
 20
126.2040416720862
 30
0.0
 11
111.1105413199143
 21
126.2040416720862
 31
0.0
  0
LINE
  5
FA
330
52
100
AcDbEntity
  8
1
  6
Continuous
 62
     7
100
AcDbLine
 10
110.6464397047765
 20
126.668143287224
 30
0.0
 11
111.1105413199143
 21
126.2040416720862
 31
0.0
  0
LINE
  5
FB
330
52
100
AcDbEntity
  8
1
  6
Continuous
 62
     7
100
AcDbLine
 10
111.5196026336874
 20
126.2040416720862
 30
0.0
 11
114.1105413199143
 21
126.2040416720862
 31
0.0
  0
LINE
  5
FC
330
52
100
AcDbEntity
  8
1
  6
Continuous
 62
     7
100
AcDbLine
 10
115.8425921274833
 20
126.668143287224
 30
0.0
 11
115.8425921274833
 21
127.7040416720862
 31
0.0
  0
LINE
  5
FD
330
52
100
AcDbEntity
  8
1
  6
Continuous
 62
     7
100
AcDbLine
 10
117.5746429350522
 20
126.668143287224
 30
0.0
 11
117.5746429350522
 21
127.7040416720862
 31
0.0
  0
LINE
  5
FE
330
52
100
AcDbEntity
  8
1
  6
Continuous
 62
     7
100
AcDbLine
 10
117.1105413199143
 20
126.2040416720862
 30
0.0
 11
116.7454849556485
 21
126.2040416720862
 31
0.0
  0
LINE
  5
FF
330
52
100
AcDbEntity
  8
1
  6
Continuous
 62
     7
100
AcDbLine
 10
117.1105413199143
 20
126.2040416720862
 30
0.0
 11
117.5746429350522
 21
126.668143287224
 31
0.0
  0
LINE
  5
100
330
52
100
AcDbEntity
  8
1
  6
Continuous
 62
     7
100
AcDbLine
 10
114.1105413199143
 20
126.2040416720862
 30
0.0
 11
116.7014800061413
 21
126.2040416720862
 31
0.0
  0
ARC
  5
101
330
52
100
AcDbEntity
  8
1
  6
Continuous
 62
     7
100
AcDbCircle
 10
111.512465108561
 20
127.2440502967298
 30
0.0
 40
1.040033116587077
100
AcDbArc
 50
236.3760885320334
 51
326.3760885320334
  0
ARC
  5
102
330
52
100
AcDbEntity
  8
1
  6
Continuous
 62
     7
100
AcDbCircle
 10
114.0550159161298
 20
129.4609196591897
 30
0.0
 40
3.257351269566177
100
AcDbArc
 50
239.02327838811
 51
270.9767216118915
  0
ARC
  5
103
330
52
100
AcDbEntity
  8
1
  6
Continuous
 62
     7
100
AcDbCircle
 10
116.7086175312676
 20
127.2440502967298
 30
0.0
 40
1.040033116587006
100
AcDbArc
 50
213.6239114679692
 51
303.6239114679666
  0
ARC
  5
104
330
52
100
AcDbEntity
  8
1
  6
Continuous
 62
     7
100
AcDbCircle
 10
114.1660667236989
 20
129.4609196591897
 30
0.0
 40
3.257351269566233
100
AcDbArc
 50
269.0232783881067
 51
300.9767216118898
  0
ENDBLK
  5
54
330
52
100
AcDbEntity
  8
0
100
AcDbBlockEnd
  0
BLOCK
  5
58
330
55
100
AcDbEntity
  8
0
100
AcDbBlockBegin
  2
P82A-15
 70
     0
 10
159.1105413199143
 20
126.7040416720862
 30
0.0
  3
P82A-15
  1

  0
INSERT
  5
56
330
55
100
AcDbEntity
  8
0
100
AcDbBlockReference
  2
41-1-15
 10
118.9867583038567
 20
-35.58360444640019
 30
0.0
  0
INSERT
  5
57
330
55
100
AcDbEntity
  8
0
100
AcDbBlockReference
  2
32-88
 10
143.2002343596197
 20
24.00856610428619
 30
0.0
  0
ENDBLK
  5
59
330
55
100
AcDbEntity
  8
0
100
AcDbBlockEnd
  0
BLOCK
  5
5B
330
5A
100
AcDbEntity
  8
0
100
AcDbBlockBegin
  2
91-62
 70
     0
 10
3.51054131991441
 20
301.6049238357167
 30
0.0
  3
91-62
  1

  0
LINE
  5
105
330
5A
100
AcDbEntity
  8
1
  6
Continuous
 62
     7
100
AcDbLine
 10
109.7855413199143
 20
127.7040416720862
 30
0.0
 11
114.1105413199143
 21
127.7040416720862
 31
0.0
  0
LINE
  5
106
330
5A
100
AcDbEntity
  8
1
  6
Continuous
 62
     7
100
AcDbLine
 10
109.6011848975803
 20
128.2105567795805
 30
0.0
 11
109.7855413199143
 21
127.7040416720862
 31
0.0
  0
LINE
  5
107
330
5A
100
AcDbEntity
  8
0
  6
Continuous
 62
     7
100
AcDbLine
 10
108.9346924977847
 20
128.7040416720862
 30
0.0
 11
108.9946664085709
 21
128.7040416720862
 31
0.0
  0
LINE
  5
108
330
5A
100
AcDbEntity
  8
0
  6
Continuous
 62
     7
100
AcDbLine
 10
107.1105413199143
 20
131.7040416720862
 30
0.0
 11
107.1105413199143
 21
128.9040416720862
 31
0.0
  0
LINE
  5
109
330
5A
100
AcDbEntity
  8
0
  6
Continuous
 62
     7
100
AcDbLine
 10
114.1105413199143
 20
131.7040416720862
 30
0.0
 11
107.1105413199143
 21
131.7040416720862
 31
0.0
  0
LINE
  5
10A
330
5A
100
AcDbEntity
  8
0
  6
Continuous
 62
     7
100
AcDbLine
 10
107.3105413199144
 20
128.7040416720862
 30
0.0
 11
108.9692094788441
 21
128.7040416720862
 31
0.0
  0
LINE
  5
10B
330
5A
100
AcDbEntity
  8
0
  6
Continuous
 62
     7
100
AcDbLine
 10
108.9346924977847
 20
128.7040416720862
 30
0.0
 11
108.9946664085709
 21
128.7040416720862
 31
0.0
  0
LINE
  5
10C
330
5A
100
AcDbEntity
  8
1
  6
Continuous
 62
     7
100
AcDbLine
 10
114.1105413199143
 20
128.7040416720862
 30
0.0
 11
108.9946664085709
 21
128.7040416720862
 31
0.0
  0
LINE
  5
10D
330
5A
100
AcDbEntity
  8
1
  6
Continuous
 62
     7
100
AcDbLine
 10
114.1105413199143
 20
127.7040416720862
 30
0.0
 11
118.4355413199144
 21
127.7040416720862
 31
0.0
  0
LINE
  5
10E
330
5A
100
AcDbEntity
  8
1
  6
Continuous
 62
     7
100
AcDbLine
 10
118.4355413199144
 20
127.7040416720862
 30
0.0
 11
118.6198977422483
 21
128.2105567795805
 31
0.0
  0
LINE
  5
10F
330
5A
100
AcDbEntity
  8
0
  6
Continuous
 62
     7
100
AcDbLine
 10
119.2264162312578
 20
128.7040416720862
 30
0.0
 11
119.286390142044
 21
128.7040416720862
 31
0.0
  0
LINE
  5
110
330
5A
100
AcDbEntity
  8
0
  6
Continuous
 62
     7
100
AcDbLine
 10
121.1105413199143
 20
128.9040416720862
 30
0.0
 11
121.1105413199143
 21
131.7040416720862
 31
0.0
  0
LINE
  5
111
330
5A
100
AcDbEntity
  8
0
  6
Continuous
 62
     7
100
AcDbLine
 10
121.1105413199143
 20
131.7040416720862
 30
0.0
 11
114.1105413199143
 21
131.7040416720862
 31
0.0
  0
LINE
  5
112
330
5A
100
AcDbEntity
  8
0
  6
Continuous
 62
     7
100
AcDbLine
 10
119.2518731609845
 20
128.7040416720862
 30
0.0
 11
120.9105413199142
 21
128.7040416720862
 31
0.0
  0
LINE
  5
113
330
5A
100
AcDbEntity
  8
0
  6
Continuous
 62
     7
100
AcDbLine
 10
119.2264162312578
 20
128.7040416720862
 30
0.0
 11
119.286390142044
 21
128.7040416720862
 31
0.0
  0
LINE
  5
114
330
5A
100
AcDbEntity
  8
1
  6
Continuous
 62
     7
100
AcDbLine
 10
119.2264162312578
 20
128.7040416720862
 30
0.0
 11
114.1105413199143
 21
128.7040416720862
 31
0.0
  0
ARC
  5
115
330
5A
100
AcDbEntity
  8
1
  6
Continuous
 62
     7
100
AcDbCircle
 10
108.8964154319908
 20
127.9540416720862
 30
0.0
 40
0.7500000000000678
100
AcDbArc
 50
20.00000000000046
 51
90.0
  0
ARC
  5
116
330
5A
100
AcDbEntity
  8
1
  6
Continuous
 62
     7
100
AcDbCircle
 10
119.3246672078378
 20
127.9540416720862
 30
0.0
 40
0.7499999999999858
100
AcDbArc
 50
90.0
 51
159.9999999999999
  0
ARC
  5
117
330
5A
100
AcDbEntity
  8
1
  6
Continuous
 62
     7
100
AcDbCircle
 10
107.3105413199144
 20
128.9040416720862
 30
0.0
 40
0.2000000000001023
100
AcDbArc
 50
180.0
 51
270.0
  0
ARC
  5
118
330
5A
100
AcDbEntity
  8
1
  6
Continuous
 62
     7
100
AcDbCircle
 10
120.9105413199142
 20
128.9040416720862
 30
0.0
 40
0.2000000000000171
100
AcDbArc
 50
270.0
 51
0.0
  0
ENDBLK
  5
5C
330
5A
100
AcDbEntity
  8
0
100
AcDbBlockEnd
  0
BLOCK
  5
133
330
12C
100
AcDbEntity
  8
0
100
AcDbBlockBegin
  2
*D7
 70
     1
 10
0.0
 20
0.0
 30
0.0
  3
*D7
  1

  0
LINE
  5
12D
330
12C
100
AcDbEntity
  8
0
  6
Continuous
 62
     2
100
AcDbLine
 10
95.602781278159
 20
149.7040416720862
 30
0.0
 11
95.602781278159
 21
134.7040416720862
 31
0.0
  0
LINE
  5
12E
330
12C
100
AcDbEntity
  8
0
  6
Continuous
 62
     2
100
AcDbLine
 10
111.6105413199143
 20
134.7040416720862
 30
0.0
 11
94.602781278159
 21
134.7040416720862
 31
0.0
  0
LINE
  5
12F
330
12C
100
AcDbEntity
  8
0
  6
Continuous
 62
     2
100
AcDbLine
 10
114.1105413199143
 20
149.7040416720862
 30
0.0
 11
94.602781278159
 21
149.7040416720862
 31
0.0
  0
SOLID
  5
130
330
12C
100
AcDbEntity
  8
0
 62
     2
100
AcDbTrace
 10
96.06356501971489
 20
146.2040416720862
 30
0.0
 11
95.14199753660311
 21
146.2040416720862
 31
0.0
 12
95.602781278159
 22
149.7040416720862
 32
0.0
 13
95.602781278159
 23
149.7040416720862
 33
0.0
  0
SOLID
  5
131
330
12C
100
AcDbEntity
  8
0
 62
     2
100
AcDbTrace
 10
95.14199753660311
 20
138.2040416720862
 30
0.0
 11
96.06356501971489
 21
138.2040416720862
 31
0.0
 12
95.602781278159
 22
134.7040416720862
 32
0.0
 13
95.602781278159
 23
134.7040416720862
 33
0.0
  0
MTEXT
  5
132
330
12C
100
AcDbEntity
  8
0
 62
     7
100
AcDbMText
 10
94.602781278159
 20
140.0559189388614
 30
0.0
 40
3.5
 41
0.0
 71
     7
 72
     1
  1
15
  7
CONVERTER_12
 11
0.0
 21
1.0
 31
0.0
 73
     1
 44
0.60024009603842
  0
ENDBLK
  5
134
330
12C
100
AcDbEntity
  8
0
100
AcDbBlockEnd
  0
BLOCK
  5
13E
330
137
100
AcDbEntity
  8
0
100
AcDbBlockBegin
  2
*D8
 70
     1
 10
0.0
 20
0.0
 30
0.0
  3
*D8
  1

  0
LINE
  5
138
330
137
100
AcDbEntity
  8
0
  6
Continuous
 62
     2
100
AcDbLine
 10
87.601409917544
 20
149.7040416720862
 30
0.0
 11
87.601409917544
 21
124.7040416720863
 31
0.0
  0
LINE
  5
139
330
137
100
AcDbEntity
  8
0
  6
Continuous
 62
     2
100
AcDbLine
 10
114.1105413199143
 20
124.7040416720863
 30
0.0
 11
86.601409917544
 21
124.7040416720863
 31
0.0
  0
LINE
  5
13A
330
137
100
AcDbEntity
  8
0
  6
Continuous
 62
     2
100
AcDbLine
 10
114.1105413199143
 20
149.7040416720862
 30
0.0
 11
86.601409917544
 21
149.7040416720862
 31
0.0
  0
SOLID
  5
13B
330
137
100
AcDbEntity
  8
0
 62
     2
100
AcDbTrace
 10
88.06219365909989
 20
146.2040416720862
 30
0.0
 11
87.14062617598812
 21
146.2040416720862
 31
0.0
 12
87.601409917544
 22
149.7040416720862
 32
0.0
 13
87.601409917544
 23
149.7040416720862
 33
0.0
  0
SOLID
  5
13C
330
137
100
AcDbEntity
  8
0
 62
     2
100
AcDbTrace
 10
87.14062617598812
 20
128.2040416720863
 30
0.0
 11
88.06219365909989
 21
128.2040416720863
 31
0.0
 12
87.601409917544
 22
124.7040416720863
 32
0.0
 13
87.601409917544
 23
124.7040416720863
 33
0.0
  0
MTEXT
  5
13D
330
137
100
AcDbEntity
  8
0
 62
     7
100
AcDbMText
 10
86.601409917544
 20
135.3037793521214
 30
0.0
 40
3.5
 41
0.0
 71
     7
 72
     1
  1
25
  7
CONVERTER_12
 11
0.0
 21
1.0
 31
0.0
 73
     1
 44
0.60024009603842
  0
ENDBLK
  5
13F
330
137
100
AcDbEntity
  8
0
100
AcDbBlockEnd
  0
BLOCK
  5
147
330
142
100
AcDbEntity
  8
0
100
AcDbBlockBegin
  2
*D9
 70
     1
 10
0.0
 20
0.0
 30
0.0
  3
*D9
  1

  0
LINE
  5
143
330
142
100
AcDbEntity
  8
0
  6
Continuous
 62
     2
100
AcDbLine
 10
119.9074927678494
 20
190.3483557156308
 30
0.0
 11
100.4169211931166
 21
173.0540863353121
 31
0.0
  0
SOLID
  5
144
330
142
100
AcDbEntity
  8
0
 62
     2
100
AcDbTrace
 10
109.9284037445672
 20
180.8777377884894
 30
0.0
 11
109.3167540726524
 21
181.567064492437
 31
0.0
 12
112.2405569818708
 22
183.5453713959604
 32
0.0
 13
112.2405569818708
 23
183.5453713959604
 33
0.0
  0
SOLID
  5
145
330
142
100
AcDbEntity
  8
0
 62
     2
100
AcDbTrace
 10
118.2926788952614
 20
189.531533939856
 30
0.0
 11
118.9043285671763
 21
188.8422072359084
 31
0.0
 12
115.9805256579579
 22
186.863900332385
 32
0.0
 13
115.9805256579579
 23
186.863900332385
 33
0.0
  0
MTEXT
  5
146
330
142
100
AcDbEntity
  8
0
 62
     7
100
AcDbMText
 10
100.7480470736709
 20
174.6848087676184
 30
0.0
 40
3.5
 41
0.0
 71
     7
 72
     1
  1
\C7;{\Fgdt;n}\C7;5
  7
CONVERTER_12
 11
0.7479937352174266
 21
0.66370578728491
 31
0.0
 73
     1
 44
0.60024009603842
  0
ENDBLK
  5
148
330
142
100
AcDbEntity
  8
0
100
AcDbBlockEnd
  0
BLOCK
  5
151
330
14A
100
AcDbEntity
  8
0
100
AcDbBlockBegin
  2
*D10
 70
     1
 10
0.0
 20
0.0
 30
0.0
  3
*D10
  1

  0
LINE
  5
14B
330
14A
100
AcDbEntity
  8
0
  6
Continuous
 62
     2
100
AcDbLine
 10
121.6105413199143
 20
203.5753091998567
 30
0.0
 11
106.6105413199143
 21
203.5753091998567
 31
0.0
  0
LINE
  5
14C
330
14A
100
AcDbEntity
  8
0
  6
Continuous
 62
     2
100
AcDbLine
 10
106.6105413199143
 20
185.2046358641727
 30
0.0
 11
106.6105413199143
 21
204.5753091998567
 31
0.0
  0
LINE
  5
14D
330
14A
100
AcDbEntity
  8
0
  6
Continuous
 62
     2
100
AcDbLine
 10
121.6105413199143
 20
185.2046358641727
 30
0.0
 11
121.6105413199143
 21
204.5753091998567
 31
0.0
  0
SOLID
  5
14E
330
14A
100
AcDbEntity
  8
0
 62
     2
100
AcDbTrace
 10
118.1105413199143
 20
203.1145254583008
 30
0.0
 11
118.1105413199143
 21
204.0360929414126
 31
0.0
 12
121.6105413199143
 22
203.5753091998567
 32
0.0
 13
121.6105413199143
 23
203.5753091998567
 33
0.0
  0
SOLID
  5
14F
330
14A
100
AcDbEntity
  8
0
 62
     2
100
AcDbTrace
 10
110.1105413199143
 20
204.0360929414126
 30
0.0
 11
110.1105413199143
 21
203.1145254583008
 31
0.0
 12
106.6105413199143
 22
203.5753091998567
 32
0.0
 13
106.6105413199143
 23
203.5753091998567
 33
0.0
  0
MTEXT
  5
150
330
14A
100
AcDbEntity
  8
0
 62
     7
100
AcDbMText
 10
111.2028015376764
 20
204.5753022427804
 30
0.0
 40
3.5
 41
0.0
 71
     7
 72
     1
  1
\C7;{\Fgdt;n}\C7;15
  7
CONVERTER_12
 11
0.9999999999970619
 21
2.424068405545306E-6
 31
0.0
 73
     1
 44
0.60024009603842
  0
ENDBLK
  5
152
330
14A
100
AcDbEntity
  8
0
100
AcDbBlockEnd
  0
ENDSEC
  0
SECTION
  2
ENTITIES
  0
INSERT
  5
5D
330
1F
100
AcDbEntity
  8
0
100
AcDbBlockReference
  2
開示A4枠
 10
0.0
 20
0.0
 30
0.0
  0
INSERT
  5
5E
330
1F
100
AcDbEntity
  8
0
100
AcDbBlockReference
  2
P82A-15
 10
159.1105413199143
 20
126.7040416720862
 30
0.0
  0
INSERT
  5
5F
330
1F
100
AcDbEntity
  8
0
100
AcDbBlockReference
  2
91-62
 10
3.51054131991441
 20
301.6049238357167
 30
0.0
  0
LINE
  5
119
330
1F
100
AcDbEntity
  8
1
  6
DASH_CENTER
 62
     2
100
AcDbLine
 10
114.1105413199143
 20
152.7052300562592
 30
0.0
 11
114.1105413199143
 21
121.7040416720863
 31
0.0
  0
LINE
  5
11A
330
1F
100
AcDbEntity
  8
1
  6
DASH_CENTER
 62
     2
100
AcDbLine
 10
114.1105413199143
 20
195.7046358641727
 30
0.0
 11
114.1105413199143
 21
174.7046358641727
 31
0.0
  0
LINE
  5
11B
330
1F
100
AcDbEntity
  8
1
  6
DASH_CENTER
 62
     2
100
AcDbLine
 10
103.6105413199143
 20
185.2046358641727
 30
0.0
 11
124.6105413199143
 21
185.2046358641727
 31
0.0
  0
LINE
  5
11C
330
1F
100
AcDbEntity
  8
0
  6
DASH_CENTER
 62
     2
100
AcDbLine
 10
114.1105413199143
 20
132.6628491690362
 30
0.0
 11
114.1105413199143
 21
128.7040416720862
 31
0.0
  0
LINE
  5
11D
330
1F
100
AcDbEntity
  8
0
  6
DASH_CENTER
 62
     2
100
AcDbLine
 10
114.1105413199143
 20
128.7040416720862
 30
0.0
 11
114.1105413199143
 21
127.7040416720862
 31
0.0
  0
LINE
  5
11E
330
1F
100
AcDbEntity
  8
0
  6
DASH_CENTER
 62
     2
100
AcDbLine
 10
114.1105413199143
 20
127.7040416720862
 30
0.0
 11
114.1105413199143
 21
127.0628491690362
 31
0.0
  0
MTEXT
  5
120
330
1F
100
AcDbEntity
  8
1
 62
     7
100
AcDbMText
 10
157.5
 20
12.5
 30
0.0
 40
2.5
 41
0.0
 71
     5
 72
     1
  1
2
  7
CONVERTER_12
 73
     1
 44
0.7202881152461
  0
MTEXT
  5
121
330
1F
100
AcDbEntity
  8
1
 62
     7
100
AcDbMText
 10
151.75
 20
12.5
 30
0.0
 40
2.5
 41
0.0
 71
     5
 72
     1
  1
04
  7
CONVERTER_12
 73
     1
 44
0.7202881152461
  0
MTEXT
  5
122
330
1F
100
AcDbEntity
  8
1
 62
     7
100
AcDbMText
 10
140.5
 20
12.5
 30
0.0
 40
2.5
 41
0.0
 71
     5
 72
     1
  1
2
  7
CONVERTER_12
 73
     1
 44
0.7202881152461
  0
MTEXT
  5
123
330
1F
100
AcDbEntity
  8
1
 62
     7
100
AcDbMText
 10
134.75
 20
12.5
 30
0.0
 40
2.5
 41
0.0
 71
     5
 72
     1
  1
04
  7
CONVERTER_12
 73
     1
 44
0.7202881152461
  0
MTEXT
  5
124
330
1F
100
AcDbEntity
  8
1
 62
     7
100
AcDbMText
 10
123.5
 20
12.5
 30
0.0
 40
2.5
 41
0.0
 71
     5
 72
     1
  1
2
  7
CONVERTER_12
 73
     1
 44
0.7202881152461
  0
MTEXT
  5
125
330
1F
100
AcDbEntity
  8
1
 62
     7
100
AcDbMText
 10
117.75
 20
12.5
 30
0.0
 40
2.5
 41
0.0
 71
     5
 72
     1
  1
04
  7
CONVERTER_12
 73
     1
 44
0.7202881152461
  0
MTEXT
  5
126
330
1F
100
AcDbEntity
  8
1
 62
     7
100
AcDbMText
 10
100.75
 20
12.5
 30
0.0
 40
2.5
 41
0.0
 71
     5
 72
     1
  1
04
  7
CONVERTER_12
 73
     1
 44
0.7202881152461
  0
MTEXT
  5
127
330
1F
100
AcDbEntity
  8
1
 62
     7
100
AcDbMText
 10
106.5
 20
12.5
 30
0.0
 40
2.5
 41
0.0
 71
     5
 72
     1
  1
2
  7
CONVERTER_12
 73
     1
 44
0.7202881152461
  0
MTEXT
  5
128
330
1F
100
AcDbEntity
  8
1
 62
     7
100
AcDbMText
 10
85.25
 20
17.0
 30
0.0
 40
3.5
 41
0.0
 71
     5
 72
     1
  1
1
  7
CONVERTER_12
 73
     1
 44
0.7202881152461
  0
MTEXT
  5
129
330
1F
100
AcDbEntity
  8
1
 62
     7
100
AcDbMText
 10
57.0
 20
22.75000000000002
 30
0.0
 40
3.5
 41
0.0
 71
     5
 72
     1
  1
エコ水栓用ケレップ
  7
CONVERTER_11
 73
     1
 44
0.54545454545455
  0
MTEXT
  5
12A
330
1F
100
AcDbEntity
  8
1
 62
     7
100
AcDbMText
 10
57.0
 20
14.25
 30
0.0
 40
3.5
 41
0.0
 71
     5
 72
     1
  1
P822-15
  7
CONVERTER_12
 73
     1
 44
0.7202881152461
  0
MTEXT
  5
12B
330
1F
100
AcDbEntity
  8
1
 62
     7
100
AcDbMText
 10
93.75
 20
17.0
 30
0.0
 40
3.5
 41
0.0
 71
     5
 72
     1
  1
1
  7
CONVERTER_12
 73
     1
 44
0.7202881152461
  0
DIMENSION
  5
136
330
1F
100
AcDbEntity
  8
0
100
AcDbDimension
  2
*D7
 10
95.602781278159
 20
149.7040416720862
 30
0.0
 11
92.852781278159
 21
142.1559189388614
 31
0.0
 70
    32
  1
<>
 71
     5
 42
-1.0
 53
90.0
  3
ME10_DIM_10
100
AcDbAlignedDimension
 13
111.6105413199143
 23
134.7040416720862
 33
0.0
 14
114.1105413199143
 24
149.7040416720862
 34
0.0
 50
90.0
100
AcDbRotatedDimension
  0
DIMENSION
  5
141
330
1F
100
AcDbEntity
  8
0
100
AcDbDimension
  2
*D8
 10
87.601409917544
 20
149.7040416720862
 30
0.0
 11
84.851409917544
 21
137.9287793521214
 31
0.0
 70
    32
  1
<>
 71
     5
 42
-1.0
 53
90.0
  3
ME10_DIM_11
100
AcDbAlignedDimension
 13
114.1105413199143
 23
124.7040416720863
 33
0.0
 14
114.1105413199143
 24
149.7040416720862
 34
0.0
 50
90.0
100
AcDbRotatedDimension
  0
INSERT
  5
149
330
1F
100
AcDbEntity
  8
0
100
AcDbBlockReference
  2
*D9
 10
0.0
 20
0.0
 30
0.0
  0
INSERT
  5
153
330
1F
100
AcDbEntity
  8
0
100
AcDbBlockReference
  2
*D10
 10
0.0
 20
0.0
 30
0.0
  0
ENDSEC
  0
SECTION
  2
OBJECTS
  0
DICTIONARY
  5
C
330
0
100
AcDbDictionary
281
     1
  3
ACAD_GROUP
350
D
  3
ACAD_LAYOUT
350
1A
  3
ACAD_MATERIAL
350
3B
  3
ACAD_MLEADERSTYLE
350
156
  3
ACAD_MLINESTYLE
350
17
  3
ACAD_PLOTSETTINGS
350
19
  3
ACAD_PLOTSTYLENAME
350
E
  3
ACAD_VISUALSTYLE
350
2A
  3
AcDbVariableDictionary
350
154
  0
DICTIONARY
  5
D
102
{ACAD_REACTORS
330
C
102
}
330
C
100
AcDbDictionary
281
     1
  0
DICTIONARY
  5
1A
102
{ACAD_REACTORS
330
C
102
}
330
C
100
AcDbDictionary
281
     1
  3
Layout1
350
1E
  3
Layout2
350
26
  3
Model
350
22
  0
DICTIONARY
  5
3B
102
{ACAD_REACTORS
330
C
102
}
330
C
100
AcDbDictionary
281
     1
  3
ByBlock
350
3D
  3
ByLayer
350
3C
  3
Global
350
3E
  0
DICTIONARY
  5
156
102
{ACAD_REACTORS
330
C
102
}
330
C
100
AcDbDictionary
281
     1
  0
DICTIONARY
  5
17
102
{ACAD_REACTORS
330
C
102
}
330
C
100
AcDbDictionary
281
     1
  3
Standard
350
18
  0
DICTIONARY
  5
19
102
{ACAD_REACTORS
330
C
102
}
330
C
100
AcDbDictionary
281
     1
  0
ACDBDICTIONARYWDFLT
  5
E
102
{ACAD_REACTORS
330
C
102
}
330
C
100
AcDbDictionary
281
     1
  3
Normal
350
F
100
AcDbDictionaryWithDefault
340
F
  0
DICTIONARY
  5
2A
102
{ACAD_REACTORS
330
C
102
}
330
C
100
AcDbDictionary
281
     1
  3
2dWireframe
350
2F
  3
3D Hidden
350
31
  3
3dWireframe
350
30
  3
Basic
350
32
  3
Brighten
350
36
  3
ColorChange
350
3A
  3
Conceptual
350
34
  3
Dim
350
35
  3
Facepattern
350
39
  3
Flat
350
2B
  3
FlatWithEdges
350
2C
  3
Gouraud
350
2D
  3
GouraudWithEdges
350
2E
  3
Linepattern
350
38
  3
Realistic
350
33
  3
Thicken
350
37
  0
DICTIONARY
  5
154
102
{ACAD_REACTORS
330
C
102
}
330
C
100
AcDbDictionary
281
     1
  3
DIMASSOC
350
157
  3
HIDETEXT
350
158
  0
LAYOUT
  5
1E
102
{ACAD_REACTORS
330
1A
102
}
330
1A
100
AcDbPlotSettings
  1

  2
none_device
  4

  6

 40
0.0
 41
0.0
 42
0.0
 43
0.0
 44
0.0
 45
0.0
 46
0.0
 47
0.0
 48
0.0
 49
0.0
140
0.0
141
0.0
142
1.0
143
1.0
 70
   688
 72
     0
 73
     0
 74
     5
  7

 75
    16
147
1.0
148
0.0
149
0.0
100
AcDbLayout
  1
Layout1
 70
     1
 71
     1
 10
0.0
 20
0.0
 11
12.0
 21
9.0
 12
0.0
 22
0.0
 32
0.0
 14
1.00000000000000E+20
 24
1.00000000000000E+20
 34
1.00000000000000E+20
 15
-1.00000000000000E+20
 25
-1.00000000000000E+20
 35
-1.00000000000000E+20
146
0.0
 13
0.0
 23
0.0
 33
0.0
 16
1.0
 26
0.0
 36
0.0
 17
0.0
 27
1.0
 37
0.0
 76
     0
330
1B
  0
LAYOUT
  5
26
102
{ACAD_REACTORS
330
1A
102
}
330
1A
100
AcDbPlotSettings
  1

  2
none_device
  4

  6

 40
0.0
 41
0.0
 42
0.0
 43
0.0
 44
0.0
 45
0.0
 46
0.0
 47
0.0
 48
0.0
 49
0.0
140
0.0
141
0.0
142
1.0
143
1.0
 70
   688
 72
     0
 73
     0
 74
     5
  7

 75
    16
147
1.0
148
0.0
149
0.0
100
AcDbLayout
  1
Layout2
 70
     1
 71
     2
 10
0.0
 20
0.0
 11
0.0
 21
0.0
 12
0.0
 22
0.0
 32
0.0
 14
0.0
 24
0.0
 34
0.0
 15
0.0
 25
0.0
 35
0.0
146
0.0
 13
0.0
 23
0.0
 33
0.0
 16
1.0
 26
0.0
 36
0.0
 17
0.0
 27
1.0
 37
0.0
 76
     0
330
23
  0
LAYOUT
  5
22
102
{ACAD_REACTORS
330
1A
102
}
330
1A
100
AcDbPlotSettings
  1

  2
none_device
  4

  6

 40
0.0
 41
0.0
 42
0.0
 43
0.0
 44
0.0
 45
0.0
 46
0.0
 47
0.0
 48
0.0
 49
0.0
140
0.0
141
0.0
142
1.0
143
1.0
 70
  1712
 72
     0
 73
     0
 74
     0
  7

 75
     0
147
1.0
148
0.0
149
0.0
100
AcDbLayout
  1
Model
 70
     1
 71
     0
 10
0.0
 20
0.0
 11
12.0
 21
9.0
 12
0.0
 22
0.0
 32
0.0
 14
0.0
 24
0.0
 34
0.0
 15
209.9999999999999
 25
297.0
 35
0.0
146
0.0
 13
0.0
 23
0.0
 33
0.0
 16
1.0
 26
0.0
 36
0.0
 17
0.0
 27
1.0
 37
0.0
 76
     0
330
1F
331
29
  0
MATERIAL
  5
3D
102
{ACAD_REACTORS
330
3B
102
}
102
{ACAD_XDICTIONARY
360
17B
102
}
330
3B
100
AcDbMaterial
  1
ByBlock
  0
MATERIAL
  5
3C
102
{ACAD_REACTORS
330
3B
102
}
102
{ACAD_XDICTIONARY
360
179
102
}
330
3B
100
AcDbMaterial
  1
ByLayer
  0
MATERIAL
  5
3E
102
{ACAD_REACTORS
330
3B
102
}
102
{ACAD_XDICTIONARY
360
17D
102
}
330
3B
100
AcDbMaterial
  1
Global
  0
MLINESTYLE
  5
18
102
{ACAD_REACTORS
330
17
102
}
330
17
100
AcDbMlineStyle
  2
Standard
 70
     0
  3

 62
   256
 51
90.0
 52
90.0
 71
     2
 49
0.5
 62
   256
  6
BYLAYER
 49
-0.5
 62
   256
  6
BYLAYER
  0
ACDBPLACEHOLDER
  5
F
102
{ACAD_REACTORS
330
E
102
}
330
E
  0
VISUALSTYLE
  5
2F
102
{ACAD_REACTORS
330
2A
102
}
102
{ACAD_XDICTIONARY
360
161
102
}
330
2A
100
AcDbVisualStyle
  2
2dWireframe
 70
     4
 71
     0
 72
     2
 73
     0
 90
        0
 40
-0.6
 41
-30.0
 62
     5
 63
     7
 74
     1
 91
        4
 64
     7
 65
   257
 75
     1
175
     1
 42
1.0
 92
        0
 66
   257
 43
1.0
 76
     1
 77
     6
 78
     2
 67
     7
 79
     5
170
     0
171
     0
290
     0
174
     0
 93
        1
 44
0.0
173
     0
291
     0
 45
0.0
1001
ACAD
1000
AcDbSavedByObjectVersion
1070
     0
  0
VISUALSTYLE
  5
31
102
{ACAD_REACTORS
330
2A
102
}
102
{ACAD_XDICTIONARY
360
165
102
}
330
2A
100
AcDbVisualStyle
  2
3D Hidden
 70
     6
 71
     1
 72
     2
 73
     2
 90
        0
 40
-0.6
 41
-30.0
 62
     5
 63
     7
 74
     2
 91
        2
 64
     7
 65
   257
 75
     2
175
     1
 42
40.0
 92
        0
 66
   257
 43
1.0
 76
     1
 77
     6
 78
     2
 67
     7
 79
     3
170
     0
171
     0
290
     0
174
     0
 93
        1
 44
0.0
173
     0
291
     0
 45
0.0
1001
ACAD
1000
AcDbSavedByObjectVersion
1070
     0
  0
VISUALSTYLE
  5
30
102
{ACAD_REACTORS
330
2A
102
}
102
{ACAD_XDICTIONARY
360
163
102
}
330
2A
100
AcDbVisualStyle
  2
3dWireframe
 70
     5
 71
     0
 72
     2
 73
     0
 90
        0
 40
-0.6
 41
-30.0
 62
     5
 63
     7
 74
     1
 91
        4
 64
     7
 65
   257
 75
     1
175
     1
 42
1.0
 92
        0
 66
   257
 43
1.0
 76
     1
 77
     6
 78
     2
 67
     7
 79
     5
170
     0
171
     0
290
     0
174
     0
 93
        1
 44
0.0
173
     0
291
     0
 45
0.0
1001
ACAD
1000
AcDbSavedByObjectVersion
1070
     0
  0
VISUALSTYLE
  5
32
102
{ACAD_REACTORS
330
2A
102
}
102
{ACAD_XDICTIONARY
360
167
102
}
330
2A
100
AcDbVisualStyle
  2
Basic
 70
     7
 71
     1
 72
     0
 73
     1
 90
        0
 40
-0.6
 41
-30.0
 62
     5
 63
     7
 74
     0
 91
        4
 64
     7
 65
   257
 75
     1
175
     1
 42
1.0
 92
        8
 66
     7
 43
1.0
 76
     1
 77
     6
 78
     2
 67
     7
 79
     5
170
     0
171
     0
290
     0
174
     0
 93
        1
 44
0.0
173
     0
291
     1
 45
0.0
1001
ACAD
1000
AcDbSavedByObjectVersion
1070
     0
  0
VISUALSTYLE
  5
36
102
{ACAD_REACTORS
330
2A
102
}
102
{ACAD_XDICTIONARY
360
16F
102
}
330
2A
100
AcDbVisualStyle
  2
Brighten
 70
    12
 71
     2
 72
     2
 73
     0
 90
        0
 40
-0.6
 41
-30.0
 62
     5
 63
     7
 74
     1
 91
        4
 64
     7
 65
   257
 75
     1
175
     1
 42
1.0
 92
        8
 66
     7
 43
1.0
 76
     1
 77
     6
 78
     2
 67
     7
 79
     5
170
     0
171
     0
290
     0
174
     0
 93
        1
 44
50.0
173
     0
291
     1
 45
0.0
1001
ACAD
1000
AcDbSavedByObjectVersion
1070
     0
  0
VISUALSTYLE
  5
3A
102
{ACAD_REACTORS
330
2A
102
}
102
{ACAD_XDICTIONARY
360
177
102
}
330
2A
100
AcDbVisualStyle
  2
ColorChange
 70
    16
 71
     2
 72
     2
 73
     3
 90
        0
 40
-0.6
 41
-30.0
 62
     5
 63
     8
 74
     1
 91
        4
 64
     7
 65
   257
 75
     1
175
     1
 42
1.0
 92
        8
 66
     8
 43
1.0
 76
     1
 77
     6
 78
     2
 67
     7
 79
     5
170
     0
171
     0
290
     0
174
     0
 93
        1
 44
0.0
173
     0
291
     1
 45
0.0
1001
ACAD
1000
AcDbSavedByObjectVersion
1070
     0
  0
VISUALSTYLE
  5
34
102
{ACAD_REACTORS
330
2A
102
}
102
{ACAD_XDICTIONARY
360
16B
102
}
330
2A
100
AcDbVisualStyle
  2
Conceptual
 70
     9
 71
     3
 72
     2
 73
     0
 90
        0
 40
-0.6
 41
-30.0
 62
     5
 63
     7
 74
     2
 91
        2
 64
     7
 65
   257
 75
     1
175
     1
 42
40.0
 92
        8
 66
     7
 43
1.0
 76
     1
 77
     6
 78
     2
 67
     7
 79
     3
170
     0
171
     0
290
     0
174
     0
 93
        1
 44
0.0
173
     0
291
     0
 45
0.0
1001
ACAD
1000
AcDbSavedByObjectVersion
1070
     0
  0
VISUALSTYLE
  5
35
102
{ACAD_REACTORS
330
2A
102
}
102
{ACAD_XDICTIONARY
360
16D
102
}
330
2A
100
AcDbVisualStyle
  2
Dim
 70
    11
 71
     2
 72
     2
 73
     0
 90
        0
 40
-0.6
 41
-30.0
 62
     5
 63
     7
 74
     1
 91
        4
 64
     7
 65
   257
 75
     1
175
     1
 42
1.0
 92
        8
 66
     7
 43
1.0
 76
     1
 77
     6
 78
     2
 67
     7
 79
     5
170
     0
171
     0
290
     0
174
     0
 93
        1
 44
-50.0
173
     0
291
     1
 45
0.0
1001
ACAD
1000
AcDbSavedByObjectVersion
1070
     0
  0
VISUALSTYLE
  5
39
102
{ACAD_REACTORS
330
2A
102
}
102
{ACAD_XDICTIONARY
360
175
102
}
330
2A
100
AcDbVisualStyle
  2
Facepattern
 70
    15
 71
     2
 72
     2
 73
     0
 90
        0
 40
-0.6
 41
-30.0
 62
     5
 63
     7
 74
     1
 91
        4
 64
     7
 65
   257
 75
     1
175
     1
 42
1.0
 92
        8
 66
     7
 43
1.0
 76
     1
 77
     6
 78
     2
 67
     7
 79
     5
170
     0
171
     0
290
     0
174
     0
 93
        1
 44
0.0
173
     0
291
     1
 45
0.0
1001
ACAD
1000
AcDbSavedByObjectVersion
1070
     0
  0
VISUALSTYLE
  5
2B
102
{ACAD_REACTORS
330
2A
102
}
102
{ACAD_XDICTIONARY
360
159
102
}
330
2A
100
AcDbVisualStyle
  2
Flat
 70
     0
 71
     2
 72
     1
 73
     1
 90
        2
 40
-0.6
 41
30.0
 62
     5
 63
     7
 74
     0
 91
        4
 64
     7
 65
   257
 75
     1
175
     1
 42
1.0
 92
        8
 66
     7
 43
1.0
 76
     1
 77
     6
 78
     2
 67
     7
 79
     5
170
     0
171
     0
290
     0
174
     0
 93
       13
 44
0.0
173
     0
291
     1
 45
0.0
1001
ACAD
1000
AcDbSavedByObjectVersion
1070
     0
  0
VISUALSTYLE
  5
2C
102
{ACAD_REACTORS
330
2A
102
}
102
{ACAD_XDICTIONARY
360
15B
102
}
330
2A
100
AcDbVisualStyle
  2
FlatWithEdges
 70
     1
 71
     2
 72
     1
 73
     1
 90
        2
 40
-0.6
 41
30.0
 62
     5
 63
     7
 74
     1
 91
        4
 64
     7
 65
   257
 75
     1
175
     1
 42
1.0
 92
        0
 66
   257
 43
1.0
 76
     1
 77
     6
 78
     2
 67
     7
 79
     5
170
     0
171
     0
290
     0
174
     0
 93
       13
 44
0.0
173
     0
291
     1
 45
0.0
1001
ACAD
1000
AcDbSavedByObjectVersion
1070
     0
  0
VISUALSTYLE
  5
2D
102
{ACAD_REACTORS
330
2A
102
}
102
{ACAD_XDICTIONARY
360
15D
102
}
330
2A
100
AcDbVisualStyle
  2
Gouraud
 70
     2
 71
     2
 72
     2
 73
     1
 90
        2
 40
-0.6
 41
30.0
 62
     5
 63
     7
 74
     0
 91
        4
 64
     7
 65
   257
 75
     1
175
     1
 42
1.0
 92
        0
 66
     7
 43
1.0
 76
     1
 77
     6
 78
     2
 67
     7
 79
     5
170
     0
171
     0
290
     0
174
     0
 93
       13
 44
0.0
173
     0
291
     1
 45
0.0
1001
ACAD
1000
AcDbSavedByObjectVersion
1070
     0
  0
VISUALSTYLE
  5
2E
102
{ACAD_REACTORS
330
2A
102
}
102
{ACAD_XDICTIONARY
360
15F
102
}
330
2A
100
AcDbVisualStyle
  2
GouraudWithEdges
 70
     3
 71
     2
 72
     2
 73
     1
 90
        2
 40
-0.6
 41
30.0
 62
     5
 63
     7
 74
     1
 91
        4
 64
     7
 65
   257
 75
     1
175
     1
 42
1.0
 92
        0
 66
   257
 43
1.0
 76
     1
 77
     6
 78
     2
 67
     7
 79
     5
170
     0
171
     0
290
     0
174
     0
 93
       13
 44
0.0
173
     0
291
     1
 45
0.0
1001
ACAD
1000
AcDbSavedByObjectVersion
1070
     0
  0
VISUALSTYLE
  5
38
102
{ACAD_REACTORS
330
2A
102
}
102
{ACAD_XDICTIONARY
360
173
102
}
330
2A
100
AcDbVisualStyle
  2
Linepattern
 70
    14
 71
     2
 72
     2
 73
     0
 90
        0
 40
-0.6
 41
-30.0
 62
     5
 63
     7
 74
     1
 91
        4
 64
     7
 65
   257
 75
     7
175
     7
 42
1.0
 92
        8
 66
     7
 43
1.0
 76
     1
 77
     6
 78
     2
 67
     7
 79
     5
170
     0
171
     0
290
     0
174
     0
 93
        1
 44
0.0
173
     0
291
     1
 45
0.0
1001
ACAD
1000
AcDbSavedByObjectVersion
1070
     0
  0
VISUALSTYLE
  5
33
102
{ACAD_REACTORS
330
2A
102
}
102
{ACAD_XDICTIONARY
360
169
102
}
330
2A
100
AcDbVisualStyle
  2
Realistic
 70
     8
 71
     2
 72
     2
 73
     0
 90
        0
 40
-0.6
 41
-30.0
 62
     5
 63
     7
 74
     1
 91
        0
 64
     7
 65
   257
 75
     1
175
     1
 42
1.0
 92
        8
 66
     8
 43
1.0
 76
     1
 77
     6
 78
     2
 67
     7
 79
     5
170
     0
171
     0
290
     0
174
     0
 93
       13
 44
0.0
173
     0
291
     0
 45
0.0
1001
ACAD
1000
AcDbSavedByObjectVersion
1070
     0
  0
VISUALSTYLE
  5
37
102
{ACAD_REACTORS
330
2A
102
}
102
{ACAD_XDICTIONARY
360
171
102
}
330
2A
100
AcDbVisualStyle
  2
Thicken
 70
    13
 71
     2
 72
     2
 73
     0
 90
        0
 40
-0.6
 41
-30.0
 62
     5
 63
     7
 74
     1
 91
        4
 64
     7
 65
   257
 75
     1
175
     1
 42
1.0
 92
       12
 66
     7
 43
1.0
 76
     1
 77
     6
 78
     2
 67
     7
 79
     5
170
     0
171
     0
290
     0
174
     0
 93
        1
 44
0.0
173
     0
291
     1
 45
0.0
1001
ACAD
1000
AcDbSavedByObjectVersion
1070
     0
  0
DICTIONARYVAR
  5
157
102
{ACAD_REACTORS
330
154
102
}
330
154
100
DictionaryVariables
280
     0
  1
2
  0
DICTIONARYVAR
  5
158
102
{ACAD_REACTORS
330
154
102
}
330
154
100
DictionaryVariables
280
     0
  1
1
  0
DICTIONARY
  5
17B
330
3D
100
AcDbDictionary
280
     1
281
     1
  3
ACAD_XREC_ROUNDTRIP
360
17C
  0
DICTIONARY
  5
179
330
3C
100
AcDbDictionary
280
     1
281
     1
  3
ACAD_XREC_ROUNDTRIP
360
17A
  0
DICTIONARY
  5
17D
330
3E
100
AcDbDictionary
280
     1
281
     1
  3
ACAD_XREC_ROUNDTRIP
360
17E
  0
DICTIONARY
  5
161
330
2F
100
AcDbDictionary
280
     1
281
     1
  3
ACAD_XREC_ROUNDTRIP
360
162
  0
DICTIONARY
  5
165
330
31
100
AcDbDictionary
280
     1
281
     1
  3
ACAD_XREC_ROUNDTRIP
360
166
  0
DICTIONARY
  5
163
330
30
100
AcDbDictionary
280
     1
281
     1
  3
ACAD_XREC_ROUNDTRIP
360
164
  0
DICTIONARY
  5
167
330
32
100
AcDbDictionary
280
     1
281
     1
  3
ACAD_XREC_ROUNDTRIP
360
168
  0
DICTIONARY
  5
16F
330
36
100
AcDbDictionary
280
     1
281
     1
  3
ACAD_XREC_ROUNDTRIP
360
170
  0
DICTIONARY
  5
177
330
3A
100
AcDbDictionary
280
     1
281
     1
  3
ACAD_XREC_ROUNDTRIP
360
178
  0
DICTIONARY
  5
16B
330
34
100
AcDbDictionary
280
     1
281
     1
  3
ACAD_XREC_ROUNDTRIP
360
16C
  0
DICTIONARY
  5
16D
330
35
100
AcDbDictionary
280
     1
281
     1
  3
ACAD_XREC_ROUNDTRIP
360
16E
  0
DICTIONARY
  5
175
330
39
100
AcDbDictionary
280
     1
281
     1
  3
ACAD_XREC_ROUNDTRIP
360
176
  0
DICTIONARY
  5
159
330
2B
100
AcDbDictionary
280
     1
281
     1
  3
ACAD_XREC_ROUNDTRIP
360
15A
  0
DICTIONARY
  5
15B
330
2C
100
AcDbDictionary
280
     1
281
     1
  3
ACAD_XREC_ROUNDTRIP
360
15C
  0
DICTIONARY
  5
15D
330
2D
100
AcDbDictionary
280
     1
281
     1
  3
ACAD_XREC_ROUNDTRIP
360
15E
  0
DICTIONARY
  5
15F
330
2E
100
AcDbDictionary
280
     1
281
     1
  3
ACAD_XREC_ROUNDTRIP
360
160
  0
DICTIONARY
  5
173
330
38
100
AcDbDictionary
280
     1
281
     1
  3
ACAD_XREC_ROUNDTRIP
360
174
  0
DICTIONARY
  5
169
330
33
100
AcDbDictionary
280
     1
281
     1
  3
ACAD_XREC_ROUNDTRIP
360
16A
  0
DICTIONARY
  5
171
330
37
100
AcDbDictionary
280
     1
281
     1
  3
ACAD_XREC_ROUNDTRIP
360
172
  0
XRECORD
  5
17C
102
{ACAD_REACTORS
330
17B
102
}
330
17B
100
AcDbXrecord
280
     1
102
MATERIAL
148
0.0
149
0.0
149
0.0
 93
        0
 94
      127
282
     0
 72
     1
 77
     1
171
     1
175
     1
179
     1
273
     0
  0
XRECORD
  5
17A
102
{ACAD_REACTORS
330
179
102
}
330
179
100
AcDbXrecord
280
     1
102
MATERIAL
148
0.0
149
0.0
149
0.0
 93
        0
 94
      127
282
     0
 72
     1
 77
     1
171
     1
175
     1
179
     1
273
     0
  0
XRECORD
  5
17E
102
{ACAD_REACTORS
330
17D
102
}
330
17D
100
AcDbXrecord
280
     1
102
MATERIAL
148
0.0
149
0.0
149
0.0
 93
        0
 94
      127
282
     0
 72
     1
 77
     1
171
     1
175
     1
179
     1
273
     0
  0
XRECORD
  5
162
102
{ACAD_REACTORS
330
161
102
}
330
161
100
AcDbXrecord
280
     1
102
RTVSPropertyOp0
 70
     1
102
RTVSPropertyOp1
 70
     1
102
RTVSPropertyOp2
 70
     1
102
RTVSPropertyOp3
 70
     1
102
RTVSPropertyOp4
 70
     1
102
RTVSPropertyOp5
 70
     1
102
RTVSPropertyOp6
 70
     1
102
RTVSPropertyOp7
 70
     1
102
RTVSPropertyOp8
 70
     1
102
RTVSPropertyOp9
 70
     1
102
RTVSPropertyOp10
 70
     1
102
RTVSPropertyOp11
 70
     1
102
RTVSPropertyOp12
 70
     1
102
RTVSPropertyOp13
 70
     1
102
RTVSPropertyOp14
 70
     1
102
RTVSPropertyOp15
 70
     1
102
RTVSPropertyOp16
 70
     1
102
RTVSPropertyOp17
 70
     1
102
RTVSPropertyOp18
 70
     1
102
RTVSPropertyOp19
 70
     1
102
RTVSPropertyOp20
 70
     1
102
RTVSPropertyOp21
 70
     1
102
RTVSPropertyOp22
 70
     1
102
RTVSPropertyOp23
 70
     1
102
RTVSPropertyOp24
 70
     1
102
RTVSPropertyOp25
 70
     1
102
RTVSPropertyOp26
 70
     1
102
RTVSPropertyOp27
 70
     1
102
RTVSPropertyOp28
 70
     1
102
RTVSPropertyOp29
 70
     1
102
RTVSPropertyOp30
 70
     1
102
RTVSPropertyOp31
 70
     1
102
RTVSPropertyOp32
 70
     1
  0
XRECORD
  5
166
102
{ACAD_REACTORS
330
165
102
}
330
165
100
AcDbXrecord
280
     1
102
RTVSPropertyOp0
 70
     1
102
RTVSPropertyOp1
 70
     1
102
RTVSPropertyOp2
 70
     1
102
RTVSPropertyOp3
 70
     1
102
RTVSPropertyOp4
 70
     1
102
RTVSPropertyOp5
 70
     1
102
RTVSPropertyOp6
 70
     1
102
RTVSPropertyOp7
 70
     1
102
RTVSPropertyOp8
 70
     1
102
RTVSPropertyOp9
 70
     1
102
RTVSPropertyOp10
 70
     1
102
RTVSPropertyOp11
 70
     1
102
RTVSPropertyOp12
 70
     1
102
RTVSPropertyOp13
 70
     1
102
RTVSPropertyOp14
 70
     1
102
RTVSPropertyOp15
 70
     1
102
RTVSPropertyOp16
 70
     1
102
RTVSPropertyOp17
 70
     1
102
RTVSPropertyOp18
 70
     1
102
RTVSPropertyOp19
 70
     1
102
RTVSPropertyOp20
 70
     1
102
RTVSPropertyOp21
 70
     1
102
RTVSPropertyOp22
 70
     1
102
RTVSPropertyOp23
 70
     1
102
RTVSPropertyOp24
 70
     1
102
RTVSPropertyOp25
 70
     1
102
RTVSPropertyOp26
 70
     1
102
RTVSPropertyOp27
 70
     1
102
RTVSPropertyOp28
 70
     1
102
RTVSPropertyOp29
 70
     1
102
RTVSPropertyOp30
 70
     1
102
RTVSPropertyOp31
 70
     1
102
RTVSPropertyOp32
 70
     1
  0
XRECORD
  5
164
102
{ACAD_REACTORS
330
163
102
}
330
163
100
AcDbXrecord
280
     1
102
RTVSPropertyOp0
 70
     1
102
RTVSPropertyOp1
 70
     1
102
RTVSPropertyOp2
 70
     1
102
RTVSPropertyOp3
 70
     1
102
RTVSPropertyOp4
 70
     1
102
RTVSPropertyOp5
 70
     1
102
RTVSPropertyOp6
 70
     1
102
RTVSPropertyOp7
 70
     1
102
RTVSPropertyOp8
 70
     1
102
RTVSPropertyOp9
 70
     1
102
RTVSPropertyOp10
 70
     1
102
RTVSPropertyOp11
 70
     1
102
RTVSPropertyOp12
 70
     1
102
RTVSPropertyOp13
 70
     1
102
RTVSPropertyOp14
 70
     1
102
RTVSPropertyOp15
 70
     1
102
RTVSPropertyOp16
 70
     1
102
RTVSPropertyOp17
 70
     1
102
RTVSPropertyOp18
 70
     1
102
RTVSPropertyOp19
 70
     1
102
RTVSPropertyOp20
 70
     1
102
RTVSPropertyOp21
 70
     1
102
RTVSPropertyOp22
 70
     1
102
RTVSPropertyOp23
 70
     1
102
RTVSPropertyOp24
 70
     1
102
RTVSPropertyOp25
 70
     1
102
RTVSPropertyOp26
 70
     1
102
RTVSPropertyOp27
 70
     1
102
RTVSPropertyOp28
 70
     1
102
RTVSPropertyOp29
 70
     1
102
RTVSPropertyOp30
 70
     1
102
RTVSPropertyOp31
 70
     1
102
RTVSPropertyOp32
 70
     1
  0
XRECORD
  5
168
102
{ACAD_REACTORS
330
167
102
}
330
167
100
AcDbXrecord
280
     1
102
RTVSPropertyOp0
 70
     1
102
RTVSPropertyOp1
 70
     1
102
RTVSPropertyOp2
 70
     1
102
RTVSPropertyOp3
 70
     1
102
RTVSPropertyOp4
 70
     1
102
RTVSPropertyOp5
 70
     1
102
RTVSPropertyOp6
 70
     1
102
RTVSPropertyOp7
 70
     1
102
RTVSPropertyOp8
 70
     1
102
RTVSPropertyOp9
 70
     1
102
RTVSPropertyOp10
 70
     1
102
RTVSPropertyOp11
 70
     1
102
RTVSPropertyOp12
 70
     1
102
RTVSPropertyOp13
 70
     1
102
RTVSPropertyOp14
 70
     1
102
RTVSPropertyOp15
 70
     1
102
RTVSPropertyOp16
 70
     1
102
RTVSPropertyOp17
 70
     1
102
RTVSPropertyOp18
 70
     1
102
RTVSPropertyOp19
 70
     1
102
RTVSPropertyOp20
 70
     1
102
RTVSPropertyOp21
 70
     1
102
RTVSPropertyOp22
 70
     1
102
RTVSPropertyOp23
 70
     1
102
RTVSPropertyOp24
 70
     1
102
RTVSPropertyOp25
 70
     1
102
RTVSPropertyOp26
 70
     1
102
RTVSPropertyOp27
 70
     1
102
RTVSPropertyOp28
 70
     1
102
RTVSPropertyOp29
 70
     1
102
RTVSPropertyOp30
 70
     1
102
RTVSPropertyOp31
 70
     1
102
RTVSPropertyOp32
 70
     1
  0
XRECORD
  5
170
102
{ACAD_REACTORS
330
16F
102
}
330
16F
100
AcDbXrecord
280
     1
102
RTVSPropertyOp0
 70
     1
102
RTVSPropertyOp1
 70
     1
102
RTVSPropertyOp2
 70
     1
102
RTVSPropertyOp3
 70
     1
102
RTVSPropertyOp4
 70
     1
102
RTVSPropertyOp5
 70
     1
102
RTVSPropertyOp6
 70
     1
102
RTVSPropertyOp7
 70
     1
102
RTVSPropertyOp8
 70
     1
102
RTVSPropertyOp9
 70
     1
102
RTVSPropertyOp10
 70
     1
102
RTVSPropertyOp11
 70
     1
102
RTVSPropertyOp12
 70
     1
102
RTVSPropertyOp13
 70
     1
102
RTVSPropertyOp14
 70
     1
102
RTVSPropertyOp15
 70
     1
102
RTVSPropertyOp16
 70
     1
102
RTVSPropertyOp17
 70
     1
102
RTVSPropertyOp18
 70
     1
102
RTVSPropertyOp19
 70
     1
102
RTVSPropertyOp20
 70
     1
102
RTVSPropertyOp21
 70
     1
102
RTVSPropertyOp22
 70
     1
102
RTVSPropertyOp23
 70
     1
102
RTVSPropertyOp24
 70
     1
102
RTVSPropertyOp25
 70
     1
102
RTVSPropertyOp26
 70
     1
102
RTVSPropertyOp27
 70
     1
102
RTVSPropertyOp28
 70
     1
102
RTVSPropertyOp29
 70
     1
102
RTVSPropertyOp30
 70
     1
102
RTVSPropertyOp31
 70
     1
102
RTVSPropertyOp32
 70
     1
  0
XRECORD
  5
178
102
{ACAD_REACTORS
330
177
102
}
330
177
100
AcDbXrecord
280
     1
102
RTVSPropertyOp0
 70
     1
102
RTVSPropertyOp1
 70
     1
102
RTVSPropertyOp2
 70
     1
102
RTVSPropertyOp3
 70
     1
102
RTVSPropertyOp4
 70
     1
102
RTVSPropertyOp5
 70
     1
102
RTVSPropertyOp6
 70
     1
102
RTVSPropertyOp7
 70
     1
102
RTVSPropertyOp8
 70
     1
102
RTVSPropertyOp9
 70
     1
102
RTVSPropertyOp10
 70
     1
102
RTVSPropertyOp11
 70
     1
102
RTVSPropertyOp12
 70
     1
102
RTVSPropertyOp13
 70
     1
102
RTVSPropertyOp14
 70
     1
102
RTVSPropertyOp15
 70
     1
102
RTVSPropertyOp16
 70
     1
102
RTVSPropertyOp17
 70
     1
102
RTVSPropertyOp18
 70
     1
102
RTVSPropertyOp19
 70
     1
102
RTVSPropertyOp20
 70
     1
102
RTVSPropertyOp21
 70
     1
102
RTVSPropertyOp22
 70
     1
102
RTVSPropertyOp23
 70
     1
102
RTVSPropertyOp24
 70
     1
102
RTVSPropertyOp25
 70
     1
102
RTVSPropertyOp26
 70
     1
102
RTVSPropertyOp27
 70
     1
102
RTVSPropertyOp28
 70
     1
102
RTVSPropertyOp29
 70
     1
102
RTVSPropertyOp30
 70
     1
102
RTVSPropertyOp31
 70
     1
102
RTVSPropertyOp32
 70
     1
  0
XRECORD
  5
16C
102
{ACAD_REACTORS
330
16B
102
}
330
16B
100
AcDbXrecord
280
     1
102
RTVSPropertyOp0
 70
     1
102
RTVSPropertyOp1
 70
     1
102
RTVSPropertyOp2
 70
     1
102
RTVSPropertyOp3
 70
     1
102
RTVSPropertyOp4
 70
     1
102
RTVSPropertyOp5
 70
     1
102
RTVSPropertyOp6
 70
     1
102
RTVSPropertyOp7
 70
     1
102
RTVSPropertyOp8
 70
     1
102
RTVSPropertyOp9
 70
     1
102
RTVSPropertyOp10
 70
     1
102
RTVSPropertyOp11
 70
     1
102
RTVSPropertyOp12
 70
     1
102
RTVSPropertyOp13
 70
     1
102
RTVSPropertyOp14
 70
     1
102
RTVSPropertyOp15
 70
     1
102
RTVSPropertyOp16
 70
     1
102
RTVSPropertyOp17
 70
     1
102
RTVSPropertyOp18
 70
     1
102
RTVSPropertyOp19
 70
     1
102
RTVSPropertyOp20
 70
     1
102
RTVSPropertyOp21
 70
     1
102
RTVSPropertyOp22
 70
     1
102
RTVSPropertyOp23
 70
     1
102
RTVSPropertyOp24
 70
     1
102
RTVSPropertyOp25
 70
     1
102
RTVSPropertyOp26
 70
     1
102
RTVSPropertyOp27
 70
     1
102
RTVSPropertyOp28
 70
     1
102
RTVSPropertyOp29
 70
     1
102
RTVSPropertyOp30
 70
     1
102
RTVSPropertyOp31
 70
     1
102
RTVSPropertyOp32
 70
     1
  0
XRECORD
  5
16E
102
{ACAD_REACTORS
330
16D
102
}
330
16D
100
AcDbXrecord
280
     1
102
RTVSPropertyOp0
 70
     1
102
RTVSPropertyOp1
 70
     1
102
RTVSPropertyOp2
 70
     1
102
RTVSPropertyOp3
 70
     1
102
RTVSPropertyOp4
 70
     1
102
RTVSPropertyOp5
 70
     1
102
RTVSPropertyOp6
 70
     1
102
RTVSPropertyOp7
 70
     1
102
RTVSPropertyOp8
 70
     1
102
RTVSPropertyOp9
 70
     1
102
RTVSPropertyOp10
 70
     1
102
RTVSPropertyOp11
 70
     1
102
RTVSPropertyOp12
 70
     1
102
RTVSPropertyOp13
 70
     1
102
RTVSPropertyOp14
 70
     1
102
RTVSPropertyOp15
 70
     1
102
RTVSPropertyOp16
 70
     1
102
RTVSPropertyOp17
 70
     1
102
RTVSPropertyOp18
 70
     1
102
RTVSPropertyOp19
 70
     1
102
RTVSPropertyOp20
 70
     1
102
RTVSPropertyOp21
 70
     1
102
RTVSPropertyOp22
 70
     1
102
RTVSPropertyOp23
 70
     1
102
RTVSPropertyOp24
 70
     1
102
RTVSPropertyOp25
 70
     1
102
RTVSPropertyOp26
 70
     1
102
RTVSPropertyOp27
 70
     1
102
RTVSPropertyOp28
 70
     1
102
RTVSPropertyOp29
 70
     1
102
RTVSPropertyOp30
 70
     1
102
RTVSPropertyOp31
 70
     1
102
RTVSPropertyOp32
 70
     1
  0
XRECORD
  5
176
102
{ACAD_REACTORS
330
175
102
}
330
175
100
AcDbXrecord
280
     1
102
RTVSPropertyOp0
 70
     1
102
RTVSPropertyOp1
 70
     1
102
RTVSPropertyOp2
 70
     1
102
RTVSPropertyOp3
 70
     1
102
RTVSPropertyOp4
 70
     1
102
RTVSPropertyOp5
 70
     1
102
RTVSPropertyOp6
 70
     1
102
RTVSPropertyOp7
 70
     1
102
RTVSPropertyOp8
 70
     1
102
RTVSPropertyOp9
 70
     1
102
RTVSPropertyOp10
 70
     1
102
RTVSPropertyOp11
 70
     1
102
RTVSPropertyOp12
 70
     1
102
RTVSPropertyOp13
 70
     1
102
RTVSPropertyOp14
 70
     1
102
RTVSPropertyOp15
 70
     1
102
RTVSPropertyOp16
 70
     1
102
RTVSPropertyOp17
 70
     1
102
RTVSPropertyOp18
 70
     1
102
RTVSPropertyOp19
 70
     1
102
RTVSPropertyOp20
 70
     1
102
RTVSPropertyOp21
 70
     1
102
RTVSPropertyOp22
 70
     1
102
RTVSPropertyOp23
 70
     1
102
RTVSPropertyOp24
 70
     1
102
RTVSPropertyOp25
 70
     1
102
RTVSPropertyOp26
 70
     1
102
RTVSPropertyOp27
 70
     1
102
RTVSPropertyOp28
 70
     1
102
RTVSPropertyOp29
 70
     1
102
RTVSPropertyOp30
 70
     1
102
RTVSPropertyOp31
 70
     1
102
RTVSPropertyOp32
 70
     1
  0
XRECORD
  5
15A
102
{ACAD_REACTORS
330
159
102
}
330
159
100
AcDbXrecord
280
     1
102
RTVSPropertyOp0
 70
     1
102
RTVSPropertyOp1
 70
     1
102
RTVSPropertyOp2
 70
     1
102
RTVSPropertyOp3
 70
     1
102
RTVSPropertyOp4
 70
     1
102
RTVSPropertyOp5
 70
     1
102
RTVSPropertyOp6
 70
     1
102
RTVSPropertyOp7
 70
     1
102
RTVSPropertyOp8
 70
     1
102
RTVSPropertyOp9
 70
     1
102
RTVSPropertyOp10
 70
     1
102
RTVSPropertyOp11
 70
     1
102
RTVSPropertyOp12
 70
     1
102
RTVSPropertyOp13
 70
     1
102
RTVSPropertyOp14
 70
     1
102
RTVSPropertyOp15
 70
     1
102
RTVSPropertyOp16
 70
     1
102
RTVSPropertyOp17
 70
     1
102
RTVSPropertyOp18
 70
     1
102
RTVSPropertyOp19
 70
     1
102
RTVSPropertyOp20
 70
     1
102
RTVSPropertyOp21
 70
     1
102
RTVSPropertyOp22
 70
     1
102
RTVSPropertyOp23
 70
     1
102
RTVSPropertyOp24
 70
     1
102
RTVSPropertyOp25
 70
     1
102
RTVSPropertyOp26
 70
     1
102
RTVSPropertyOp27
 70
     1
102
RTVSPropertyOp28
 70
     1
102
RTVSPropertyOp29
 70
     1
102
RTVSPropertyOp30
 70
     1
102
RTVSPropertyOp31
 70
     1
102
RTVSPropertyOp32
 70
     1
  0
XRECORD
  5
15C
102
{ACAD_REACTORS
330
15B
102
}
330
15B
100
AcDbXrecord
280
     1
102
RTVSPropertyOp0
 70
     1
102
RTVSPropertyOp1
 70
     1
102
RTVSPropertyOp2
 70
     1
102
RTVSPropertyOp3
 70
     1
102
RTVSPropertyOp4
 70
     1
102
RTVSPropertyOp5
 70
     1
102
RTVSPropertyOp6
 70
     1
102
RTVSPropertyOp7
 70
     1
102
RTVSPropertyOp8
 70
     1
102
RTVSPropertyOp9
 70
     1
102
RTVSPropertyOp10
 70
     1
102
RTVSPropertyOp11
 70
     1
102
RTVSPropertyOp12
 70
     1
102
RTVSPropertyOp13
 70
     1
102
RTVSPropertyOp14
 70
     1
102
RTVSPropertyOp15
 70
     1
102
RTVSPropertyOp16
 70
     1
102
RTVSPropertyOp17
 70
     1
102
RTVSPropertyOp18
 70
     1
102
RTVSPropertyOp19
 70
     1
102
RTVSPropertyOp20
 70
     1
102
RTVSPropertyOp21
 70
     1
102
RTVSPropertyOp22
 70
     1
102
RTVSPropertyOp23
 70
     1
102
RTVSPropertyOp24
 70
     1
102
RTVSPropertyOp25
 70
     1
102
RTVSPropertyOp26
 70
     1
102
RTVSPropertyOp27
 70
     1
102
RTVSPropertyOp28
 70
     1
102
RTVSPropertyOp29
 70
     1
102
RTVSPropertyOp30
 70
     1
102
RTVSPropertyOp31
 70
     1
102
RTVSPropertyOp32
 70
     1
  0
XRECORD
  5
15E
102
{ACAD_REACTORS
330
15D
102
}
330
15D
100
AcDbXrecord
280
     1
102
RTVSPropertyOp0
 70
     1
102
RTVSPropertyOp1
 70
     1
102
RTVSPropertyOp2
 70
     1
102
RTVSPropertyOp3
 70
     1
102
RTVSPropertyOp4
 70
     1
102
RTVSPropertyOp5
 70
     1
102
RTVSPropertyOp6
 70
     1
102
RTVSPropertyOp7
 70
     1
102
RTVSPropertyOp8
 70
     1
102
RTVSPropertyOp9
 70
     1
102
RTVSPropertyOp10
 70
     1
102
RTVSPropertyOp11
 70
     1
102
RTVSPropertyOp12
 70
     1
102
RTVSPropertyOp13
 70
     1
102
RTVSPropertyOp14
 70
     1
102
RTVSPropertyOp15
 70
     1
102
RTVSPropertyOp16
 70
     1
102
RTVSPropertyOp17
 70
     1
102
RTVSPropertyOp18
 70
     1
102
RTVSPropertyOp19
 70
     1
102
RTVSPropertyOp20
 70
     1
102
RTVSPropertyOp21
 70
     1
102
RTVSPropertyOp22
 70
     1
102
RTVSPropertyOp23
 70
     1
102
RTVSPropertyOp24
 70
     1
102
RTVSPropertyOp25
 70
     1
102
RTVSPropertyOp26
 70
     1
102
RTVSPropertyOp27
 70
     1
102
RTVSPropertyOp28
 70
     1
102
RTVSPropertyOp29
 70
     1
102
RTVSPropertyOp30
 70
     1
102
RTVSPropertyOp31
 70
     1
102
RTVSPropertyOp32
 70
     1
  0
XRECORD
  5
160
102
{ACAD_REACTORS
330
15F
102
}
330
15F
100
AcDbXrecord
280
     1
102
RTVSPropertyOp0
 70
     1
102
RTVSPropertyOp1
 70
     1
102
RTVSPropertyOp2
 70
     1
102
RTVSPropertyOp3
 70
     1
102
RTVSPropertyOp4
 70
     1
102
RTVSPropertyOp5
 70
     1
102
RTVSPropertyOp6
 70
     1
102
RTVSPropertyOp7
 70
     1
102
RTVSPropertyOp8
 70
     1
102
RTVSPropertyOp9
 70
     1
102
RTVSPropertyOp10
 70
     1
102
RTVSPropertyOp11
 70
     1
102
RTVSPropertyOp12
 70
     1
102
RTVSPropertyOp13
 70
     1
102
RTVSPropertyOp14
 70
     1
102
RTVSPropertyOp15
 70
     1
102
RTVSPropertyOp16
 70
     1
102
RTVSPropertyOp17
 70
     1
102
RTVSPropertyOp18
 70
     1
102
RTVSPropertyOp19
 70
     1
102
RTVSPropertyOp20
 70
     1
102
RTVSPropertyOp21
 70
     1
102
RTVSPropertyOp22
 70
     1
102
RTVSPropertyOp23
 70
     1
102
RTVSPropertyOp24
 70
     1
102
RTVSPropertyOp25
 70
     1
102
RTVSPropertyOp26
 70
     1
102
RTVSPropertyOp27
 70
     1
102
RTVSPropertyOp28
 70
     1
102
RTVSPropertyOp29
 70
     1
102
RTVSPropertyOp30
 70
     1
102
RTVSPropertyOp31
 70
     1
102
RTVSPropertyOp32
 70
     1
  0
XRECORD
  5
174
102
{ACAD_REACTORS
330
173
102
}
330
173
100
AcDbXrecord
280
     1
102
RTVSPropertyOp0
 70
     1
102
RTVSPropertyOp1
 70
     1
102
RTVSPropertyOp2
 70
     1
102
RTVSPropertyOp3
 70
     1
102
RTVSPropertyOp4
 70
     1
102
RTVSPropertyOp5
 70
     1
102
RTVSPropertyOp6
 70
     1
102
RTVSPropertyOp7
 70
     1
102
RTVSPropertyOp8
 70
     1
102
RTVSPropertyOp9
 70
     1
102
RTVSPropertyOp10
 70
     1
102
RTVSPropertyOp11
 70
     1
102
RTVSPropertyOp12
 70
     1
102
RTVSPropertyOp13
 70
     1
102
RTVSPropertyOp14
 70
     1
102
RTVSPropertyOp15
 70
     1
102
RTVSPropertyOp16
 70
     1
102
RTVSPropertyOp17
 70
     1
102
RTVSPropertyOp18
 70
     1
102
RTVSPropertyOp19
 70
     1
102
RTVSPropertyOp20
 70
     1
102
RTVSPropertyOp21
 70
     1
102
RTVSPropertyOp22
 70
     1
102
RTVSPropertyOp23
 70
     1
102
RTVSPropertyOp24
 70
     1
102
RTVSPropertyOp25
 70
     1
102
RTVSPropertyOp26
 70
     1
102
RTVSPropertyOp27
 70
     1
102
RTVSPropertyOp28
 70
     1
102
RTVSPropertyOp29
 70
     1
102
RTVSPropertyOp30
 70
     1
102
RTVSPropertyOp31
 70
     1
102
RTVSPropertyOp32
 70
     1
  0
XRECORD
  5
16A
102
{ACAD_REACTORS
330
169
102
}
330
169
100
AcDbXrecord
280
     1
102
RTVSPropertyOp0
 70
     1
102
RTVSPropertyOp1
 70
     1
102
RTVSPropertyOp2
 70
     1
102
RTVSPropertyOp3
 70
     1
102
RTVSPropertyOp4
 70
     1
102
RTVSPropertyOp5
 70
     1
102
RTVSPropertyOp6
 70
     1
102
RTVSPropertyOp7
 70
     1
102
RTVSPropertyOp8
 70
     1
102
RTVSPropertyOp9
 70
     1
102
RTVSPropertyOp10
 70
     1
102
RTVSPropertyOp11
 70
     1
102
RTVSPropertyOp12
 70
     1
102
RTVSPropertyOp13
 70
     1
102
RTVSPropertyOp14
 70
     1
102
RTVSPropertyOp15
 70
     1
102
RTVSPropertyOp16
 70
     1
102
RTVSPropertyOp17
 70
     1
102
RTVSPropertyOp18
 70
     1
102
RTVSPropertyOp19
 70
     1
102
RTVSPropertyOp20
 70
     1
102
RTVSPropertyOp21
 70
     1
102
RTVSPropertyOp22
 70
     1
102
RTVSPropertyOp23
 70
     1
102
RTVSPropertyOp24
 70
     1
102
RTVSPropertyOp25
 70
     1
102
RTVSPropertyOp26
 70
     1
102
RTVSPropertyOp27
 70
     1
102
RTVSPropertyOp28
 70
     1
102
RTVSPropertyOp29
 70
     1
102
RTVSPropertyOp30
 70
     1
102
RTVSPropertyOp31
 70
     1
102
RTVSPropertyOp32
 70
     1
  0
XRECORD
  5
172
102
{ACAD_REACTORS
330
171
102
}
330
171
100
AcDbXrecord
280
     1
102
RTVSPropertyOp0
 70
     1
102
RTVSPropertyOp1
 70
     1
102
RTVSPropertyOp2
 70
     1
102
RTVSPropertyOp3
 70
     1
102
RTVSPropertyOp4
 70
     1
102
RTVSPropertyOp5
 70
     1
102
RTVSPropertyOp6
 70
     1
102
RTVSPropertyOp7
 70
     1
102
RTVSPropertyOp8
 70
     1
102
RTVSPropertyOp9
 70
     1
102
RTVSPropertyOp10
 70
     1
102
RTVSPropertyOp11
 70
     1
102
RTVSPropertyOp12
 70
     1
102
RTVSPropertyOp13
 70
     1
102
RTVSPropertyOp14
 70
     1
102
RTVSPropertyOp15
 70
     1
102
RTVSPropertyOp16
 70
     1
102
RTVSPropertyOp17
 70
     1
102
RTVSPropertyOp18
 70
     1
102
RTVSPropertyOp19
 70
     1
102
RTVSPropertyOp20
 70
     1
102
RTVSPropertyOp21
 70
     1
102
RTVSPropertyOp22
 70
     1
102
RTVSPropertyOp23
 70
     1
102
RTVSPropertyOp24
 70
     1
102
RTVSPropertyOp25
 70
     1
102
RTVSPropertyOp26
 70
     1
102
RTVSPropertyOp27
 70
     1
102
RTVSPropertyOp28
 70
     1
102
RTVSPropertyOp29
 70
     1
102
RTVSPropertyOp30
 70
     1
102
RTVSPropertyOp31
 70
     1
102
RTVSPropertyOp32
 70
     1
  0
ENDSEC
  0
EOF
