  0
SECTION
  2
HEADER
  9
$ACADVER
  1
AC1015
  9
$ACADMAINTVER
 70
     6
  9
$DWGCODEPAGE
  3
ANSI_932
  9
$INSBASE
 10
0.0
 20
0.0
 30
0.0
  9
$EXTMIN
 10
0.0
 20
-0.00000000000003
 30
0.0
  9
$EXTMAX
 10
210.0000000000001
 20
297.0
 30
0.0
  9
$LIMMIN
 10
0.0
 20
0.0
  9
$LIMMAX
 10
12.0
 20
9.0
  9
$ORTHOMODE
 70
     0
  9
$REGENMODE
 70
     1
  9
$FILLMODE
 70
     1
  9
$QTEXTMODE
 70
     0
  9
$MIRRTEXT
 70
     1
  9
$LTSCALE
 40
1.0
  9
$ATTMODE
 70
     1
  9
$TEXTSIZE
 40
0.2
  9
$TRACEWID
 40
0.05
  9
$TEXTSTYLE
  7
Standard
  9
$CLAYER
  8
0
  9
$CELTYPE
  6
ByLayer
  9
$CECOLOR
 62
   256
  9
$CELTSCALE
 40
1.0
  9
$DISPSILH
 70
     0
  9
$DIMSCALE
 40
1.0
  9
$DIMASZ
 40
0.18
  9
$DIMEXO
 40
0.0625
  9
$DIMDLI
 40
0.38
  9
$DIMRND
 40
0.0
  9
$DIMDLE
 40
0.0
  9
$DIMEXE
 40
0.18
  9
$DIMTP
 40
0.0
  9
$DIMTM
 40
0.0
  9
$DIMTXT
 40
0.18
  9
$DIMCEN
 40
0.09
  9
$DIMTSZ
 40
0.0
  9
$DIMTOL
 70
     0
  9
$DIMLIM
 70
     0
  9
$DIMTIH
 70
     1
  9
$DIMTOH
 70
     1
  9
$DIMSE1
 70
     0
  9
$DIMSE2
 70
     0
  9
$DIMTAD
 70
     0
  9
$DIMZIN
 70
     0
  9
$DIMBLK
  1

  9
$DIMASO
 70
     1
  9
$DIMSHO
 70
     1
  9
$DIMPOST
  1

  9
$DIMAPOST
  1

  9
$DIMALT
 70
     0
  9
$DIMALTD
 70
     2
  9
$DIMALTF
 40
25.4
  9
$DIMLFAC
 40
1.0
  9
$DIMTOFL
 70
     0
  9
$DIMTVP
 40
0.0
  9
$DIMTIX
 70
     0
  9
$DIMSOXD
 70
     0
  9
$DIMSAH
 70
     0
  9
$DIMBLK1
  1

  9
$DIMBLK2
  1

  9
$DIMSTYLE
  2
Standard
  9
$DIMCLRD
 70
     0
  9
$DIMCLRE
 70
     0
  9
$DIMCLRT
 70
     0
  9
$DIMTFAC
 40
1.0
  9
$DIMGAP
 40
0.09
  9
$DIMJUST
 70
     0
  9
$DIMSD1
 70
     0
  9
$DIMSD2
 70
     0
  9
$DIMTOLJ
 70
     1
  9
$DIMTZIN
 70
     0
  9
$DIMALTZ
 70
     0
  9
$DIMALTTZ
 70
     0
  9
$DIMUPT
 70
     0
  9
$DIMDEC
 70
     4
  9
$DIMTDEC
 70
     4
  9
$DIMALTU
 70
     2
  9
$DIMALTTD
 70
     2
  9
$DIMTXSTY
  7
Standard
  9
$DIMAUNIT
 70
     0
  9
$DIMADEC
 70
     0
  9
$DIMALTRND
 40
0.0
  9
$DIMAZIN
 70
     0
  9
$DIMDSEP
 70
    46
  9
$DIMATFIT
 70
     3
  9
$DIMFRAC
 70
     0
  9
$DIMLDRBLK
  1

  9
$DIMLUNIT
 70
     2
  9
$DIMLWD
 70
    -2
  9
$DIMLWE
 70
    -2
  9
$DIMTMOVE
 70
     0
  9
$LUNITS
 70
     2
  9
$LUPREC
 70
     4
  9
$SKETCHINC
 40
0.1
  9
$FILLETRAD
 40
0.5
  9
$AUNITS
 70
     0
  9
$AUPREC
 70
     0
  9
$MENU
  1
.
  9
$ELEVATION
 40
0.0
  9
$PELEVATION
 40
0.0
  9
$THICKNESS
 40
0.0
  9
$LIMCHECK
 70
     0
  9
$CHAMFERA
 40
0.5
  9
$CHAMFERB
 40
0.5
  9
$CHAMFERC
 40
1.0
  9
$CHAMFERD
 40
0.0
  9
$SKPOLY
 70
     0
  9
$TDCREATE
 40
2459789.616153982
  9
$TDUCREATE
 40
2459789.241153982
  9
$TDUPDATE
 40
2459789.616155602
  9
$TDUUPDATE
 40
2459789.241155602
  9
$TDINDWG
 40
0.0000000116
  9
$TDUSRTIMER
 40
0.0000000116
  9
$USRTIMER
 70
     1
  9
$ANGBASE
 50
0.0
  9
$ANGDIR
 70
     0
  9
$PDMODE
 70
     0
  9
$PDSIZE
 40
0.0
  9
$PLINEWID
 40
0.0
  9
$SPLFRAME
 70
     0
  9
$SPLINETYPE
 70
     6
  9
$SPLINESEGS
 70
     8
  9
$HANDSEED
  5
170
  9
$SURFTAB1
 70
     6
  9
$SURFTAB2
 70
     6
  9
$SURFTYPE
 70
     6
  9
$SURFU
 70
     6
  9
$SURFV
 70
     6
  9
$UCSBASE
  2

  9
$UCSNAME
  2

  9
$UCSORG
 10
0.0
 20
0.0
 30
0.0
  9
$UCSXDIR
 10
1.0
 20
0.0
 30
0.0
  9
$UCSYDIR
 10
0.0
 20
1.0
 30
0.0
  9
$UCSORTHOREF
  2

  9
$UCSORTHOVIEW
 70
     0
  9
$UCSORGTOP
 10
0.0
 20
0.0
 30
0.0
  9
$UCSORGBOTTOM
 10
0.0
 20
0.0
 30
0.0
  9
$UCSORGLEFT
 10
0.0
 20
0.0
 30
0.0
  9
$UCSORGRIGHT
 10
0.0
 20
0.0
 30
0.0
  9
$UCSORGFRONT
 10
0.0
 20
0.0
 30
0.0
  9
$UCSORGBACK
 10
0.0
 20
0.0
 30
0.0
  9
$PUCSBASE
  2

  9
$PUCSNAME
  2

  9
$PUCSORG
 10
0.0
 20
0.0
 30
0.0
  9
$PUCSXDIR
 10
1.0
 20
0.0
 30
0.0
  9
$PUCSYDIR
 10
0.0
 20
1.0
 30
0.0
  9
$PUCSORTHOREF
  2

  9
$PUCSORTHOVIEW
 70
     0
  9
$PUCSORGTOP
 10
0.0
 20
0.0
 30
0.0
  9
$PUCSORGBOTTOM
 10
0.0
 20
0.0
 30
0.0
  9
$PUCSORGLEFT
 10
0.0
 20
0.0
 30
0.0
  9
$PUCSORGRIGHT
 10
0.0
 20
0.0
 30
0.0
  9
$PUCSORGFRONT
 10
0.0
 20
0.0
 30
0.0
  9
$PUCSORGBACK
 10
0.0
 20
0.0
 30
0.0
  9
$USERI1
 70
     0
  9
$USERI2
 70
     0
  9
$USERI3
 70
     0
  9
$USERI4
 70
     0
  9
$USERI5
 70
     0
  9
$USERR1
 40
18.1
  9
$USERR2
 40
0.0
  9
$USERR3
 40
0.0
  9
$USERR4
 40
0.0
  9
$USERR5
 40
0.0
  9
$WORLDVIEW
 70
     1
  9
$SHADEDGE
 70
     3
  9
$SHADEDIF
 70
    70
  9
$TILEMODE
 70
     1
  9
$MAXACTVP
 70
    64
  9
$PINSBASE
 10
0.0
 20
0.0
 30
0.0
  9
$PLIMCHECK
 70
     0
  9
$PEXTMIN
 10
1.00000000000000E+20
 20
1.00000000000000E+20
 30
1.00000000000000E+20
  9
$PEXTMAX
 10
-1.00000000000000E+20
 20
-1.00000000000000E+20
 30
-1.00000000000000E+20
  9
$PLIMMIN
 10
0.0
 20
0.0
  9
$PLIMMAX
 10
12.0
 20
9.0
  9
$UNITMODE
 70
     0
  9
$VISRETAIN
 70
     1
  9
$PLINEGEN
 70
     0
  9
$PSLTSCALE
 70
     1
  9
$TREEDEPTH
 70
  3020
  9
$CMLSTYLE
  2
Standard
  9
$CMLJUST
 70
     0
  9
$CMLSCALE
 40
1.0
  9
$PROXYGRAPHICS
 70
     1
  9
$MEASUREMENT
 70
     1
  9
$CELWEIGHT
370
    -1
  9
$ENDCAPS
280
     0
  9
$JOINSTYLE
280
     0
  9
$LWDISPLAY
290
     0
  9
$INSUNITS
 70
     4
  9
$HYPERLINKBASE
  1

  9
$STYLESHEET
  1

  9
$XEDIT
290
     1
  9
$CEPSNTYPE
380
     0
  9
$PSTYLEMODE
290
     1
  9
$FINGERPRINTGUID
  2
{3BFD7476-AB49-4180-9B93-4E1E2A491829}
  9
$VERSIONGUID
  2
{FAEB1C32-E019-11D5-929B-00C0DF256EC4}
  9
$EXTNAMES
290
     1
  9
$PSVPSCALE
 40
0.0
  9
$OLESTARTUP
290
     0
  0
ENDSEC
  0
SECTION
  2
CLASSES
  0
CLASS
  1
ACDBDICTIONARYWDFLT
  2
AcDbDictionaryWithDefault
  3
ObjectDBX Classes
 90
        0
280
     0
281
     0
  0
CLASS
  1
VISUALSTYLE
  2
AcDbVisualStyle
  3
ObjectDBX Classes
 90
     4095
280
     0
281
     0
  0
CLASS
  1
MATERIAL
  2
AcDbMaterial
  3
ObjectDBX Classes
 90
     1153
280
     0
281
     0
  0
CLASS
  1
DICTIONARYVAR
  2
AcDbDictionaryVar
  3
ObjectDBX Classes
 90
        0
280
     0
281
     0
  0
CLASS
  1
ACDBPLACEHOLDER
  2
AcDbPlaceHolder
  3
ObjectDBX Classes
 90
        0
280
     0
281
     0
  0
CLASS
  1
LAYOUT
  2
AcDbLayout
  3
ObjectDBX Classes
 90
        0
280
     0
281
     0
  0
ENDSEC
  0
SECTION
  2
TABLES
  0
TABLE
  2
VPORT
  5
8
330
0
100
AcDbSymbolTable
 70
     1
  0
VPORT
  5
29
330
8
100
AcDbSymbolTableRecord
100
AcDbViewportTableRecord
  2
*Active
 70
     0
 10
0.0
 20
0.0
 11
1.0
 21
1.0
 12
105.0000000000001
 22
148.5
 13
0.0
 23
0.0
 14
0.5
 24
0.5
 15
0.5
 25
0.5
 16
0.0
 26
0.0
 36
1.0
 17
0.0
 27
0.0
 37
0.0
 40
326.7
 41
1.60267857142857
 42
50.0
 43
0.0
 44
0.0
 50
0.0
 51
0.0
 71
     0
 72
   100
 73
     1
 74
     3
 75
     0
 76
     0
 77
     0
 78
     0
281
     0
 65
     1
110
0.0
120
0.0
130
0.0
111
1.0
121
0.0
131
0.0
112
0.0
122
1.0
132
0.0
 79
     0
146
0.0
  0
ENDTAB
  0
TABLE
  2
LTYPE
  5
5
330
0
100
AcDbSymbolTable
 70
     8
  0
LTYPE
  5
14
330
5
100
AcDbSymbolTableRecord
100
AcDbLinetypeTableRecord
  2
ByBlock
 70
     0
  3

 72
    65
 73
     0
 40
0.0
  0
LTYPE
  5
15
330
5
100
AcDbSymbolTableRecord
100
AcDbLinetypeTableRecord
  2
ByLayer
 70
     0
  3

 72
    65
 73
     0
 40
0.0
  0
LTYPE
  5
16
330
5
100
AcDbSymbolTableRecord
100
AcDbLinetypeTableRecord
  2
Continuous
 70
     0
  3
Solid line
 72
    65
 73
     0
 40
0.0
  0
LTYPE
  5
3F
330
5
100
AcDbSymbolTableRecord
100
AcDbLinetypeTableRecord
  2
DASHED
 70
     0
  3
Dashed
 72
    65
 73
     2
 40
15.0
 49
7.0
 74
     0
 49
-8.0
 74
     0
  0
LTYPE
  5
40
330
5
100
AcDbSymbolTableRecord
100
AcDbLinetypeTableRecord
  2
DOTTED
 70
     0
  3
Dotted
 72
    65
 73
     2
 40
1.0
 49
0.0
 74
     0
 49
-1.0
 74
     0
  0
LTYPE
  5
41
330
5
100
AcDbSymbolTableRecord
100
AcDbLinetypeTableRecord
  2
DOT_CENTER
 70
     0
  3
Dot_Center
 72
    65
 73
     4
 40
14.0
 49
12.0
 74
     0
 49
-1.0
 74
     0
 49
0.0
 74
     0
 49
-1.0
 74
     0
  0
LTYPE
  5
42
330
5
100
AcDbSymbolTableRecord
100
AcDbLinetypeTableRecord
  2
LONG_DASHED
 70
     0
  3
Long_Dashed
 72
    65
 73
     2
 40
15.0
 49
10.0
 74
     0
 49
-5.0
 74
     0
  0
LTYPE
  5
43
330
5
100
AcDbSymbolTableRecord
100
AcDbLinetypeTableRecord
  2
DASH_CENTER
 70
     0
  3
Dash_Center
 72
    65
 73
     4
 40
14.0
 49
11.0
 74
     0
 49
-1.0
 74
     0
 49
1.0
 74
     0
 49
-1.0
 74
     0
  0
LTYPE
  5
44
330
5
100
AcDbSymbolTableRecord
100
AcDbLinetypeTableRecord
  2
PHANTOM
 70
     0
  3
Phantom
 72
    65
 73
     6
 40
13.0
 49
10.0
 74
     0
 49
-1.0
 74
     0
 49
0.0
 74
     0
 49
-1.0
 74
     0
 49
0.0
 74
     0
 49
-1.0
 74
     0
  0
LTYPE
  5
45
330
5
100
AcDbSymbolTableRecord
100
AcDbLinetypeTableRecord
  2
CENTER_DASH_DASH
 70
     0
  3
Center_Dash_Dash
 72
    65
 73
     6
 40
14.0
 49
9.0
 74
     0
 49
-1.0
 74
     0
 49
1.0
 74
     0
 49
-1.0
 74
     0
 49
1.0
 74
     0
 49
-1.0
 74
     0
  0
ENDTAB
  0
TABLE
  2
LAYER
  5
2
330
0
100
AcDbSymbolTable
 70
     3
  0
LAYER
  5
10
330
2
100
AcDbSymbolTableRecord
100
AcDbLayerTableRecord
  2
0
 70
     0
 62
     7
  6
Continuous
370
    -3
390
F
  0
LAYER
  5
46
330
2
100
AcDbSymbolTableRecord
100
AcDbLayerTableRecord
  2
1
 70
     0
 62
     7
  6
Continuous
370
    -3
390
F
  0
LAYER
  5
47
330
2
100
AcDbSymbolTableRecord
100
AcDbLayerTableRecord
  2
_U_30EC_U_30A4_U_30E4_U_30FC_1
 70
     0
 62
     7
  6
Continuous
370
    -3
390
F
  0
ENDTAB
  0
TABLE
  2
STYLE
  5
3
330
0
100
AcDbSymbolTable
 70
     3
  0
STYLE
  5
11
330
3
100
AcDbSymbolTableRecord
100
AcDbTextStyleTableRecord
  2
Standard
 70
     0
 40
0.0
 41
1.0
 50
0.0
 71
     0
 42
0.2
  3
txt
  4

  0
STYLE
  5
BE
330
3
100
AcDbSymbolTableRecord
100
AcDbTextStyleTableRecord
  2
CONVERTER_11
 70
     0
 40
0.0
 41
0.89
 50
0.0
 71
     0
 42
0.2
  3
MS Mincho.ttf
  4

1001
ACAD
1000
MS Mincho
1071
    32785
  0
STYLE
  5
10F
330
3
100
AcDbSymbolTableRecord
100
AcDbTextStyleTableRecord
  2
CONVERTER_12
 70
     0
 40
0.0
 41
0.9
 50
0.0
 71
     0
 42
0.2
  3
txt.shx
  4

  0
ENDTAB
  0
TABLE
  2
VIEW
  5
6
330
0
100
AcDbSymbolTable
 70
     0
  0
ENDTAB
  0
TABLE
  2
UCS
  5
7
330
0
100
AcDbSymbolTable
 70
     0
  0
ENDTAB
  0
TABLE
  2
APPID
  5
9
330
0
100
AcDbSymbolTable
 70
     1
  0
APPID
  5
12
330
9
100
AcDbSymbolTableRecord
100
AcDbRegAppTableRecord
  2
ACAD
 70
     0
  0
ENDTAB
  0
TABLE
  2
DIMSTYLE
  5
A
330
0
100
AcDbSymbolTable
 70
     3
100
AcDbDimStyleTable
  0
DIMSTYLE
105
27
330
A
100
AcDbSymbolTableRecord
100
AcDbDimStyleTableRecord
  2
Standard
 70
     0
178
     0
340
11
  0
DIMSTYLE
105
126
102
{ACAD_REACTORS
330
127
102
}
330
A
100
AcDbSymbolTableRecord
100
AcDbDimStyleTableRecord
  2
ME10_DIM_10
 70
     0
 41
3.5
 42
0.0
 44
1.0
 73
     0
 74
     0
 77
     1
 78
     8
140
3.5
147
1.0
172
     1
173
     1
174
     1
175
     1
176
     2
177
     2
271
     2
178
     7
271
     2
340
10F
  0
DIMSTYLE
105
131
102
{ACAD_REACTORS
330
132
102
}
330
A
100
AcDbSymbolTableRecord
100
AcDbDimStyleTableRecord
  2
ME10_DIM_11
 70
     0
 41
3.5
 42
0.0
 44
1.0
 73
     0
 74
     0
 77
     1
 78
     8
140
3.5
147
1.0
172
     1
173
     1
174
     1
175
     1
176
     2
177
     2
271
     2
178
     7
271
     2
340
10F
  0
ENDTAB
  0
TABLE
  2
BLOCK_RECORD
  5
1
330
0
100
AcDbSymbolTable
 70
    10
  0
BLOCK_RECORD
  5
1F
330
1
100
AcDbSymbolTableRecord
100
AcDbBlockTableRecord
  2
*Model_Space
340
22
  0
BLOCK_RECORD
  5
1B
330
1
100
AcDbSymbolTableRecord
100
AcDbBlockTableRecord
  2
*Paper_Space
340
1E
  0
BLOCK_RECORD
  5
23
330
1
100
AcDbSymbolTableRecord
100
AcDbBlockTableRecord
  2
*Paper_Space0
340
26
  0
BLOCK_RECORD
  5
48
330
1
100
AcDbSymbolTableRecord
100
AcDbBlockTableRecord
  2
開示A4
340
0
102
{BLKREFS
331
4C
102
}
  0
BLOCK_RECORD
  5
4B
330
1
100
AcDbSymbolTableRecord
100
AcDbBlockTableRecord
  2
開示A4枠
340
0
102
{BLKREFS
331
58
102
}
  0
BLOCK_RECORD
  5
4F
330
1
100
AcDbSymbolTableRecord
100
AcDbBlockTableRecord
  2
32-88
340
0
102
{BLKREFS
331
59
102
}
  0
BLOCK_RECORD
  5
52
330
1
100
AcDbSymbolTableRecord
100
AcDbBlockTableRecord
  2
91-1
340
0
102
{BLKREFS
331
5A
102
}
  0
BLOCK_RECORD
  5
55
330
1
100
AcDbSymbolTableRecord
100
AcDbBlockTableRecord
  2
41-1-15
340
0
102
{BLKREFS
331
5B
102
}
  0
BLOCK_RECORD
  5
11D
330
1
100
AcDbSymbolTableRecord
100
AcDbBlockTableRecord
  2
*D6
340
0
  0
BLOCK_RECORD
  5
128
330
1
100
AcDbSymbolTableRecord
100
AcDbBlockTableRecord
  2
*D7
340
0
  0
BLOCK_RECORD
  5
133
330
1
100
AcDbSymbolTableRecord
100
AcDbBlockTableRecord
  2
*D8
340
0
102
{BLKREFS
331
13A
102
}
  0
BLOCK_RECORD
  5
13B
330
1
100
AcDbSymbolTableRecord
100
AcDbBlockTableRecord
  2
*D9
340
0
102
{BLKREFS
331
144
102
}
  0
ENDTAB
  0
ENDSEC
  0
SECTION
  2
BLOCKS
  0
BLOCK
  5
20
330
1F
100
AcDbEntity
  8
0
100
AcDbBlockBegin
  2
*Model_Space
 70
     0
 10
0.0
 20
0.0
 30
0.0
  3
*Model_Space
  1

  0
ENDBLK
  5
21
330
1F
100
AcDbEntity
  8
0
100
AcDbBlockEnd
  0
BLOCK
  5
1C
330
1B
100
AcDbEntity
 67
     1
  8
0
100
AcDbBlockBegin
  2
*Paper_Space
 70
     0
 10
0.0
 20
0.0
 30
0.0
  3
*Paper_Space
  1

  0
ENDBLK
  5
1D
330
1B
100
AcDbEntity
 67
     1
  8
0
100
AcDbBlockEnd
  0
BLOCK
  5
24
330
23
100
AcDbEntity
  8
0
100
AcDbBlockBegin
  2
*Paper_Space0
 70
     0
 10
0.0
 20
0.0
 30
0.0
  3
*Paper_Space0
  1

  0
ENDBLK
  5
25
330
23
100
AcDbEntity
  8
0
100
AcDbBlockEnd
  0
BLOCK
  5
49
330
48
100
AcDbEntity
  8
0
100
AcDbBlockBegin
  2
開示A4
 70
     0
 10
0.0
 20
-0.00000000000003
 30
0.0
  3
開示A4
  1

  0
POINT
  5
5C
330
48
100
AcDbEntity
  8
1
 62
     4
100
AcDbPoint
 10
183.0000000000001
 20
14.99999999999998
 30
0.0
  0
POINT
  5
5D
330
48
100
AcDbEntity
  8
1
 62
     4
100
AcDbPoint
 10
93.75
 20
16.99999999999997
 30
0.0
  0
POINT
  5
5E
330
48
100
AcDbEntity
  8
1
 62
     4
100
AcDbPoint
 10
85.25
 20
16.99999999999997
 30
0.0
  0
POINT
  5
5F
330
48
100
AcDbEntity
  8
1
 62
     4
100
AcDbPoint
 10
106.5
 20
18.99999999999998
 30
0.0
  0
POINT
  5
60
330
48
100
AcDbEntity
  8
1
 62
     4
100
AcDbPoint
 10
106.5
 20
12.49999999999997
 30
0.0
  0
POINT
  5
61
330
48
100
AcDbEntity
  8
1
 62
     4
100
AcDbPoint
 10
112.25
 20
12.49999999999997
 30
0.0
  0
POINT
  5
62
330
48
100
AcDbEntity
  8
1
 62
     4
100
AcDbPoint
 10
100.75
 20
12.49999999999997
 30
0.0
  0
POINT
  5
63
330
48
100
AcDbEntity
  8
1
 62
     4
100
AcDbPoint
 10
123.5
 20
18.99999999999998
 30
0.0
  0
POINT
  5
64
330
48
100
AcDbEntity
  8
1
 62
     4
100
AcDbPoint
 10
123.5
 20
12.49999999999997
 30
0.0
  0
POINT
  5
65
330
48
100
AcDbEntity
  8
1
 62
     4
100
AcDbPoint
 10
129.25
 20
12.49999999999997
 30
0.0
  0
POINT
  5
66
330
48
100
AcDbEntity
  8
1
 62
     4
100
AcDbPoint
 10
117.75
 20
12.49999999999997
 30
0.0
  0
POINT
  5
67
330
48
100
AcDbEntity
  8
1
 62
     4
100
AcDbPoint
 10
140.5
 20
18.99999999999998
 30
0.0
  0
POINT
  5
68
330
48
100
AcDbEntity
  8
1
 62
     4
100
AcDbPoint
 10
140.5
 20
12.49999999999997
 30
0.0
  0
POINT
  5
69
330
48
100
AcDbEntity
  8
1
 62
     4
100
AcDbPoint
 10
146.25
 20
12.49999999999997
 30
0.0
  0
POINT
  5
6A
330
48
100
AcDbEntity
  8
1
 62
     4
100
AcDbPoint
 10
134.75
 20
12.49999999999997
 30
0.0
  0
POINT
  5
6B
330
48
100
AcDbEntity
  8
1
 62
     4
100
AcDbPoint
 10
151.75
 20
12.49999999999997
 30
0.0
  0
POINT
  5
6C
330
48
100
AcDbEntity
  8
1
 62
     4
100
AcDbPoint
 10
163.25
 20
12.49999999999997
 30
0.0
  0
POINT
  5
6D
330
48
100
AcDbEntity
  8
1
 62
     4
100
AcDbPoint
 10
157.5
 20
12.49999999999997
 30
0.0
  0
POINT
  5
6E
330
48
100
AcDbEntity
  8
1
 62
     4
100
AcDbPoint
 10
57.0
 20
14.24999999999997
 30
0.0
  0
POINT
  5
6F
330
48
100
AcDbEntity
  8
1
 62
     4
100
AcDbPoint
 10
57.0
 20
22.74999999999998
 30
0.0
  0
POINT
  5
70
330
48
100
AcDbEntity
  8
1
 62
     4
100
AcDbPoint
 10
47.5
 20
282.0000000000003
 30
0.0
  0
POINT
  5
71
330
48
100
AcDbEntity
  8
1
 62
     4
100
AcDbPoint
 10
157.5
 20
18.99999999999998
 30
0.0
  0
POINT
  5
72
330
48
100
AcDbEntity
  8
1
 62
     4
100
AcDbPoint
 10
57.0
 20
16.24999999999997
 30
0.0
  0
POINT
  5
73
330
48
100
AcDbEntity
  8
1
 62
     4
100
AcDbPoint
 10
57.0
 20
24.74999999999998
 30
0.0
  0
POINT
  5
74
330
48
100
AcDbEntity
  8
1
 62
     4
100
AcDbPoint
 10
57.0
 20
20.74999999999998
 30
0.0
  0
POINT
  5
75
330
48
100
AcDbEntity
  8
1
 62
     4
100
AcDbPoint
 10
57.0
 20
12.24999999999997
 30
0.0
  0
POINT
  5
76
330
48
100
AcDbEntity
  8
1
 62
     4
100
AcDbPoint
 10
33.99999999999999
 20
33.99999999999999
 30
0.0
  0
LINE
  5
7B
330
48
100
AcDbEntity
  8
1
  6
Continuous
 62
     7
100
AcDbLine
 10
105.0
 20
9.99999999999997
 30
0.0
 11
200.0000000000001
 21
9.99999999999997
 31
0.0
  0
LINE
  5
7C
330
48
100
AcDbEntity
  8
1
  6
Continuous
 62
     2
100
AcDbLine
 10
105.0
 20
9.99999999999997
 30
0.0
 11
105.0
 21
4.99999999999997
 31
0.0
  0
LINE
  5
7D
330
48
100
AcDbEntity
  8
1
  6
Continuous
 62
     7
100
AcDbLine
 10
200.0000000000001
 20
148.5
 30
0.0
 11
200.0000000000001
 21
287.0000000000003
 31
0.0
  0
LINE
  5
7E
330
48
100
AcDbEntity
  8
1
  6
Continuous
 62
     2
100
AcDbLine
 10
200.0000000000001
 20
148.5
 30
0.0
 11
205.0000000000001
 21
148.5
 31
0.0
  0
LINE
  5
7F
330
48
100
AcDbEntity
  8
1
  6
Continuous
 62
     7
100
AcDbLine
 10
24.99999999999999
 20
148.5
 30
0.0
 11
24.99999999999999
 21
287.0000000000003
 31
0.0
  0
LINE
  5
80
330
48
100
AcDbEntity
  8
1
  6
Continuous
 62
     2
100
AcDbLine
 10
24.99999999999999
 20
148.5
 30
0.0
 11
19.99999999999999
 21
148.5
 31
0.0
  0
LINE
  5
81
330
48
100
AcDbEntity
  8
1
  6
Continuous
 62
     7
100
AcDbLine
 10
105.0
 20
287.0000000000003
 30
0.0
 11
24.99999999999999
 21
287.0000000000003
 31
0.0
  0
LINE
  5
82
330
48
100
AcDbEntity
  8
1
  6
Continuous
 62
     2
100
AcDbLine
 10
105.0
 20
287.0000000000003
 30
0.0
 11
105.0
 21
292.0000000000003
 31
0.0
  0
LINE
  5
83
330
48
100
AcDbEntity
  8
1
  6
Continuous
 62
     2
100
AcDbLine
 10
166.0
 20
19.99999999999998
 30
0.0
 11
200.0000000000001
 21
19.99999999999998
 31
0.0
  0
LINE
  5
84
330
48
100
AcDbEntity
  8
1
  6
Continuous
 62
     2
100
AcDbLine
 10
98.0
 20
26.99999999999998
 30
0.0
 11
98.0
 21
9.99999999999997
 31
0.0
  0
LINE
  5
85
330
48
100
AcDbEntity
  8
1
  6
Continuous
 62
     2
100
AcDbLine
 10
115.0
 20
26.99999999999998
 30
0.0
 11
115.0
 21
9.99999999999996
 31
0.0
  0
LINE
  5
86
330
48
100
AcDbEntity
  8
1
  6
Continuous
 62
     2
100
AcDbLine
 10
149.0
 20
26.99999999999998
 30
0.0
 11
149.0
 21
9.99999999999997
 31
0.0
  0
LINE
  5
87
330
48
100
AcDbEntity
  8
1
  6
Continuous
 62
     2
100
AcDbLine
 10
132.0
 20
26.99999999999998
 30
0.0
 11
132.0
 21
9.99999999999996
 31
0.0
  0
LINE
  5
88
330
48
100
AcDbEntity
  8
1
  6
Continuous
 62
     2
100
AcDbLine
 10
166.0
 20
26.99999999999998
 30
0.0
 11
166.0
 21
9.99999999999997
 31
0.0
  0
LINE
  5
89
330
48
100
AcDbEntity
  8
1
  6
Continuous
 62
     2
100
AcDbLine
 10
55.0
 20
277.0000000000003
 30
0.0
 11
24.99999999999999
 21
277.0000000000003
 31
0.0
  0
LINE
  5
8A
330
48
100
AcDbEntity
  8
1
  6
Continuous
 62
     7
100
AcDbLine
 10
24.99999999999999
 20
9.99999999999997
 30
0.0
 11
24.99999999999999
 21
148.5
 31
0.0
  0
LINE
  5
8B
330
48
100
AcDbEntity
  8
1
  6
Continuous
 62
     2
100
AcDbLine
 10
39.99999999999999
 20
287.0000000000003
 30
0.0
 11
39.99999999999999
 21
277.0000000000003
 31
0.0
  0
LINE
  5
8C
330
48
100
AcDbEntity
  8
1
  6
Continuous
 62
     2
100
AcDbLine
 10
55.0
 20
287.0000000000003
 30
0.0
 11
55.0
 21
277.0000000000003
 31
0.0
  0
LINE
  5
8D
330
48
100
AcDbEntity
  8
1
  6
Continuous
 62
     2
100
AcDbLine
 10
32.99999999999999
 20
40.99999999999999
 30
0.0
 11
32.99999999999999
 21
26.99999999999997
 31
0.0
  0
LINE
  5
8E
330
48
100
AcDbEntity
  8
1
  6
Continuous
 62
     7
100
AcDbLine
 10
200.0000000000001
 20
26.99999999999998
 30
0.0
 11
24.99999999999999
 21
26.99999999999998
 31
0.0
  0
LINE
  5
8F
330
48
100
AcDbEntity
  8
1
  6
Continuous
 62
     7
100
AcDbLine
 10
24.99999999999999
 20
40.99999999999997
 30
0.0
 11
200.0000000000001
 21
40.99999999999997
 31
0.0
  0
LINE
  5
90
330
48
100
AcDbEntity
  8
1
  6
PHANTOM
 62
     4
100
AcDbLine
 10
0.0
 20
-0.00000000000003
 30
0.0
 11
210.0000000000001
 21
-0.00000000000003
 31
0.0
  0
LINE
  5
91
330
48
100
AcDbEntity
  8
1
  6
PHANTOM
 62
     4
100
AcDbLine
 10
210.0000000000001
 20
-0.00000000000003
 30
0.0
 11
210.0000000000001
 21
297.0
 31
0.0
  0
LINE
  5
92
330
48
100
AcDbEntity
  8
1
  6
PHANTOM
 62
     4
100
AcDbLine
 10
210.0000000000001
 20
297.0
 30
0.0
 11
0.0
 21
297.0
 31
0.0
  0
LINE
  5
93
330
48
100
AcDbEntity
  8
1
  6
PHANTOM
 62
     4
100
AcDbLine
 10
0.0
 20
297.0
 30
0.0
 11
0.0
 21
-0.00000000000003
 31
0.0
  0
LINE
  5
94
330
48
100
AcDbEntity
  8
1
  6
Continuous
 62
     7
100
AcDbLine
 10
24.99999999999999
 20
9.99999999999997
 30
0.0
 11
105.0
 21
9.99999999999997
 31
0.0
  0
LINE
  5
95
330
48
100
AcDbEntity
  8
1
  6
Continuous
 62
     7
100
AcDbLine
 10
200.0000000000001
 20
9.99999999999997
 30
0.0
 11
200.0000000000001
 21
148.5
 31
0.0
  0
LINE
  5
96
330
48
100
AcDbEntity
  8
1
  6
Continuous
 62
     7
100
AcDbLine
 10
200.0000000000001
 20
287.0000000000003
 30
0.0
 11
105.0
 21
287.0000000000003
 31
0.0
  0
LINE
  5
97
330
48
100
AcDbEntity
  8
1
  6
Continuous
 62
     2
100
AcDbLine
 10
24.99999999999999
 20
18.49999999999998
 30
0.0
 11
81.0
 21
18.49999999999998
 31
0.0
  0
LINE
  5
98
330
48
100
AcDbEntity
  8
1
  6
Continuous
 62
     2
100
AcDbLine
 10
32.99999999999999
 20
26.99999999999997
 30
0.0
 11
32.99999999999999
 21
9.99999999999997
 31
0.0
  0
LINE
  5
99
330
48
100
AcDbEntity
  8
1
  6
Continuous
 62
     7
100
AcDbLine
 10
191.0000000000001
 20
24.69999999999999
 30
0.0
 11
191.0000000000001
 21
22.29999999999998
 31
0.0
  0
LINE
  5
9A
330
48
100
AcDbEntity
  8
1
  6
Continuous
 62
     7
100
AcDbLine
 10
191.0000000000001
 20
24.69999999999999
 30
0.0
 11
196.0000000000001
 21
25.49999999999998
 31
0.0
  0
LINE
  5
9B
330
48
100
AcDbEntity
  8
1
  6
Continuous
 62
     7
100
AcDbLine
 10
196.0000000000001
 20
25.49999999999998
 30
0.0
 11
196.0000000000001
 21
21.49999999999998
 31
0.0
  0
LINE
  5
9C
330
48
100
AcDbEntity
  8
1
  6
Continuous
 62
     7
100
AcDbLine
 10
196.0000000000001
 20
21.49999999999998
 30
0.0
 11
191.0000000000001
 21
22.29999999999998
 31
0.0
  0
LINE
  5
9D
330
48
100
AcDbEntity
  8
1
  6
DOT_CENTER
 62
     2
100
AcDbLine
 10
184.0000000000001
 20
23.49999999999998
 30
0.0
 11
197.0000000000001
 21
23.49999999999998
 31
0.0
  0
LINE
  5
9E
330
48
100
AcDbEntity
  8
1
  6
DOT_CENTER
 62
     2
100
AcDbLine
 10
187.0000000000001
 20
26.49999999999998
 30
0.0
 11
187.0000000000001
 21
20.49999999999998
 31
0.0
  0
LINE
  5
9F
330
48
100
AcDbEntity
  8
1
  6
Continuous
 62
     2
100
AcDbLine
 10
81.0
 20
26.99999999999998
 30
0.0
 11
81.0
 21
9.99999999999997
 31
0.0
  0
CIRCLE
  5
A0
330
48
100
AcDbEntity
  8
1
  6
Continuous
 62
     7
100
AcDbCircle
 10
103.5
 20
12.49999999999997
 30
0.0
 40
0.2999999999999972
  0
CIRCLE
  5
A1
330
48
100
AcDbEntity
  8
1
  6
Continuous
 62
     7
100
AcDbCircle
 10
109.5
 20
12.49999999999997
 30
0.0
 40
0.2999999999999972
  0
CIRCLE
  5
A2
330
48
100
AcDbEntity
  8
1
  6
Continuous
 62
     7
100
AcDbCircle
 10
120.5
 20
12.49999999999997
 30
0.0
 40
0.2999999999999972
  0
CIRCLE
  5
A3
330
48
100
AcDbEntity
  8
1
  6
Continuous
 62
     7
100
AcDbCircle
 10
126.5
 20
12.49999999999997
 30
0.0
 40
0.2999999999999972
  0
CIRCLE
  5
A4
330
48
100
AcDbEntity
  8
1
  6
Continuous
 62
     7
100
AcDbCircle
 10
137.5
 20
12.49999999999997
 30
0.0
 40
0.3000000000000114
  0
CIRCLE
  5
A5
330
48
100
AcDbEntity
  8
1
  6
Continuous
 62
     7
100
AcDbCircle
 10
143.5
 20
12.49999999999997
 30
0.0
 40
0.3000000000000114
  0
CIRCLE
  5
A6
330
48
100
AcDbEntity
  8
1
  6
Continuous
 62
     7
100
AcDbCircle
 10
160.5
 20
12.49999999999997
 30
0.0
 40
0.3000000000000114
  0
CIRCLE
  5
A7
330
48
100
AcDbEntity
  8
1
  6
Continuous
 62
     7
100
AcDbCircle
 10
154.5
 20
12.49999999999997
 30
0.0
 40
0.3000000000000114
  0
CIRCLE
  5
A8
330
48
100
AcDbEntity
  8
1
  6
Continuous
 62
     7
100
AcDbCircle
 10
187.0000000000001
 20
23.49999999999998
 30
0.0
 40
1.200000000000074
  0
CIRCLE
  5
A9
330
48
100
AcDbEntity
  8
1
  6
Continuous
 62
     7
100
AcDbCircle
 10
187.0000000000001
 20
23.49999999999998
 30
0.0
 40
2.0
  0
CIRCLE
  5
AA
330
48
100
AcDbEntity
  8
1
  6
DOT_CENTER
 62
     7
100
AcDbCircle
 10
89.5
 20
15.99999999999997
 30
0.0
 40
0.1000000000000227
  0
CIRCLE
  5
AB
330
48
100
AcDbEntity
  8
1
  6
DOT_CENTER
 62
     7
100
AcDbCircle
 10
89.5
 20
17.99999999999997
 30
0.0
 40
0.1000000000000227
  0
SPLINE
  5
AC
102
{ACAD_REACTORS
330
CB
102
}
330
48
100
AcDbEntity
  8
_U_30EC_U_30A4_U_30E4_U_30FC_1
  6
Continuous
 62
     2
100
AcDbSpline
210
0.0
220
0.0
230
1.0
 70
     8
 71
     3
 72
    24
 73
    20
 74
    18
 42
0.000000001
 43
0.0000000001
 44
0.00000001
 40
0.0
 40
0.0
 40
0.0
 40
0.0
 40
0.2211075008753382
 40
0.4273218586245402
 40
0.5080174679238092
 40
0.5914835907869557
 40
0.8143265690191805
 40
1.054651302686471
 40
1.295452694023072
 40
1.518109231328729
 40
1.540864321905371
 40
1.595126460622632
 40
1.659890947895973
 40
1.714153085187359
 40
1.736908174961658
 40
1.764951100735407
 40
1.801562291220997
 40
1.953914424543683
 40
2.12610416737975
 40
2.12610416737975
 40
2.12610416737975
 40
2.12610416737975
 10
185.9375369556888
 20
15.58989295113014
 30
0.0
 10
185.9112579081812
 20
15.53097628234372
 30
0.0
 10
185.8604698894427
 20
15.41711139679251
 30
0.0
 10
185.8131784839109
 20
15.14441958233113
 30
0.0
 10
185.7043482802618
 20
15.24445482575456
 30
0.0
 10
185.5514800279637
 20
15.27118593367326
 30
0.0
 10
185.7686155181198
 20
15.4851813501763
 30
0.0
 10
185.783848367438
 20
15.70332117782486
 30
0.0
 10
185.8906889492001
 20
15.88451579066423
 30
0.0
 10
185.8305380947077
 20
16.16913226311397
 30
0.0
 10
185.9334317395402
 20
16.14114089222448
 30
0.0
 10
185.977993346815
 20
16.13243251602297
 30
0.0
 10
186.0380842395397
 20
16.12139654183352
 30
0.0
 10
186.0756619587439
 20
16.10767523055558
 30
0.0
 10
186.1252466928607
 20
16.1075607616022
 30
0.0
 10
186.0930158919325
 20
16.07306592398622
 30
0.0
 10
186.0171802221882
 20
16.08404104537957
 30
0.0
 10
186.0429447159692
 20
15.89858969582449
 30
0.0
 10
186.0055896763849
 20
15.80702313549587
 30
0.0
 10
185.9857704961609
 20
15.75844135397702
 30
0.0
 11
185.9375369556888
 21
15.58989295113014
 31
0.0
 11
185.8616471328552
 21
15.38221708318557
 31
0.0
 11
185.7717402238432
 21
15.19663392356191
 31
0.0
 11
185.701149392311
 21
15.23573272563548
 31
0.0
 11
185.6245525192651
 21
15.26889163187718
 31
0.0
 11
185.7214026947455
 21
15.46958801203535
 31
0.0
 11
185.799464146747
 21
15.69688163177021
 31
0.0
 11
185.858971692972
 21
15.93021436608688
 31
0.0
 11
185.9001601511226
 21
16.14902808999051
 31
0.0
 11
185.9224183822215
 21
16.14429889221392
 31
0.0
 11
185.975495702534
 21
16.13302157443897
 31
0.0
 11
186.0388460525845
 21
16.11956154999789
 31
0.0
 11
186.0919233728971
 21
16.10828423222294
 31
0.0
 11
186.1141816039959
 21
16.10355503444635
 31
0.0
 11
186.096409715746
 21
16.08186250841007
 31
0.0
 11
186.0606122998071
 21
16.07418628445364
 31
0.0
 11
186.0281953301479
 21
15.9253228817131
 31
0.0
 11
185.9857704961609
 21
15.75844135397702
 31
0.0
  0
SPLINE
  5
AD
102
{ACAD_REACTORS
330
CB
102
}
330
48
100
AcDbEntity
  8
_U_30EC_U_30A4_U_30E4_U_30FC_1
  6
Continuous
 62
     2
100
AcDbSpline
210
0.0
220
0.0
230
1.0
 70
     8
 71
     3
 72
    70
 73
    66
 74
    64
 42
0.000000001
 43
0.0000000001
 44
0.00000001
 40
0.0
 40
0.0
 40
0.0
 40
0.0
 40
0.0241731073021188
 40
0.0846058988987013
 40
0.1631685280352715
 40
0.2417311571788903
 40
0.3021639488291614
 40
0.3263370654894688
 40
0.3533118254248028
 40
0.4228783438921241
 40
0.517999909531255
 40
0.6216398239465232
 40
0.7167613891498835
 40
0.7863279069648993
 40
0.8133026791760966
 40
0.8372943998771086
 40
0.8945054261372277
 40
0.962789554196233
 40
1.020000580349043
 40
1.043992300975169
 40
1.071934345522908
 40
1.113121768772841
 40
1.145225199332165
 40
1.2254837754127
 40
1.329819923771409
 40
1.434156071994299
 40
1.514414647795718
 40
1.546518078208326
 40
1.578974764260128
 40
1.662678849314066
 40
1.777131373668287
 40
1.901833377474678
 40
2.016285900500439
 40
2.099989982527778
 40
2.132446666570136
 40
2.158782354485858
 40
2.216720867907644
 40
2.274659381334061
 40
2.300995069255996
 40
2.333451754065968
 40
2.41715583654362
 40
2.531608358985059
 40
2.656310362283554
 40
2.770762886388658
 40
2.854466971339795
 40
2.886923657363602
 40
2.913597976833036
 40
2.982389642874841
 40
3.076451716946709
 40
3.178937260458327
 40
3.272999334739732
 40
3.341791001058957
 40
3.368465320663268
 40
3.396976080738517
 40
3.472140811845725
 40
3.578408190308414
 40
3.700226892455879
 40
3.822045594634096
 40
3.928312973256203
 40
4.003477705314601
 40
4.031988456866666
 40
4.058324144797465
 40
4.116262658236626
 40
4.174201171400424
 40
4.200536849608357
 40
4.200536849608357
 40
4.200536849608357
 40
4.200536849608357
 10
185.9857704961609
 20
15.75844135397702
 30
0.0
 10
185.9938259544679
 20
15.75844359811684
 30
0.0
 10
186.0220200663241
 20
15.75845146032794
 30
0.0
 10
186.0765534803672
 20
15.75830754828368
 30
0.0
 10
186.1482891808603
 20
15.75909120499895
 30
0.0
 10
186.2236240137062
 20
15.75627570463808
 30
0.0
 10
186.2713052366438
 20
15.76298403400954
 30
0.0
 10
186.3195071245615
 20
15.75197563692429
 30
0.0
 10
186.3062571799873
 20
15.8054640299703
 30
0.0
 10
186.3151093964537
 20
15.86049583543089
 30
0.0
 10
186.3108698036285
 20
15.95419908726106
 30
0.0
 10
186.3133483481279
 20
16.04959482218529
 30
0.0
 10
186.3090938706059
 20
16.14356821983383
 30
0.0
 10
186.3179818665846
 20
16.1979506243801
 30
0.0
 10
186.3046977409944
 20
16.25233997691458
 30
0.0
 10
186.3514119277108
 20
16.23842216335355
 30
0.0
 10
186.3943254545736
 20
16.24103877374042
 30
0.0
 10
186.4605443456684
 20
16.23648422450751
 30
0.0
 10
186.5013342271799
 20
16.2277816213416
 30
0.0
 10
186.5525145690818
 20
16.23531799890193
 30
0.0
 10
186.5253720487201
 20
16.19349970223286
 30
0.0
 10
186.4803096055708
 20
16.2028499207259
 30
0.0
 10
186.4942065045051
 20
16.13841207371834
 30
0.0
 10
186.4858414431655
 20
16.07378219627396
 30
0.0
 10
186.4903632178399
 20
15.97529141193884
 30
0.0
 10
186.4854741311168
 20
15.87595932842567
 30
0.0
 10
186.4950258992082
 20
15.81293115552965
 30
0.0
 10
186.4799761455201
 20
15.74964011499785
 30
0.0
 10
186.5449159457208
 20
15.76515072944265
 30
0.0
 10
186.6116246399498
 20
15.7549938769781
 30
0.0
 10
186.7241435470828
 20
15.75988800099364
 30
0.0
 10
186.8390235448954
 20
15.75691204732781
 30
0.0
 10
186.9519871999747
 20
15.76221664184988
 30
0.0
 10
187.0176267597677
 20
15.75107306472086
 30
0.0
 10
187.0816276691053
 20
15.76744532319854
 30
0.0
 10
187.070314288919
 20
15.71761689905272
 30
0.0
 10
187.0775339871509
 20
15.6741671521212
 30
0.0
 10
187.0703142611269
 20
15.63071745587442
 30
0.0
 10
187.0816277175994
 20
15.58088895196875
 30
0.0
 10
187.0176263598971
 20
15.5972616609136
 30
0.0
 10
186.951992124046
 20
15.58611271661586
 30
0.0
 10
186.838997431733
 20
15.59144857206852
 30
0.0
 10
186.7242456548644
 20
15.58834345663819
 30
0.0
 10
186.6113183686861
 20
15.59364894682587
 30
0.0
 10
186.5455220903586
 20
15.58257300019591
 30
0.0
 10
186.4816097975358
 20
15.59887597847616
 30
0.0
 10
186.4936015165128
 20
15.5442352439574
 30
0.0
 10
186.4862104613005
 20
15.48854295047839
 30
0.0
 10
186.4892684841984
 20
15.39649689140568
 30
0.0
 10
186.4893422785684
 20
15.30179109873098
 30
0.0
 10
186.486031357836
 20
15.20952782902262
 30
0.0
 10
186.4939505989904
 20
15.15435768736136
 30
0.0
 10
186.4815076611618
 20
15.10058169100132
 30
0.0
 10
186.5389116551632
 20
15.11453768862777
 30
0.0
 10
186.5994708140384
 20
15.10511457884224
 30
0.0
 10
186.7048680855082
 20
15.10942885928702
 30
0.0
 10
186.8204294070624
 20
15.10835504612028
 30
0.0
 10
186.9359688877798
 20
15.10725965900992
 30
0.0
 10
187.0414181130842
 20
15.11162525770629
 30
0.0
 10
187.1018680471805
 20
15.10209426030667
 30
0.0
 10
187.1592837739111
 20
15.11617289606376
 30
0.0
 10
187.1477773876711
 20
15.0670715326568
 30
0.0
 10
187.1537566781749
 20
15.02564658018646
 30
0.0
 10
187.1520311050804
 20
14.97651677966692
 30
0.0
 10
187.1521500122972
 20
14.94854428447605
 30
0.0
 10
187.1521871691834
 20
14.93980288195947
 30
0.0
 11
185.9857704961609
 21
15.75844135397702
 31
0.0
 11
186.0099436128281
 21
15.75844135397702
 31
0.0
 11
186.0703764044962
 21
15.75844135397702
 31
0.0
 11
186.1489390336648
 21
15.75844135397702
 31
0.0
 11
186.2275016628333
 21
15.75844135397702
 31
0.0
 11
186.2879344545013
 21
15.75844135397702
 31
0.0
 11
186.3121075711686
 21
15.75844135397702
 31
0.0
 11
186.3121075711686
 21
15.7854161262006
 31
0.0
 11
186.3121075711686
 21
15.85498264404035
 31
0.0
 11
186.3121075711686
 21
15.95010420924982
 31
0.0
 11
186.3121075711686
 21
16.05374412358253
 31
0.0
 11
186.3121075711686
 21
16.14886568879199
 31
0.0
 11
186.3121075711686
 21
16.21843220663175
 31
0.0
 11
186.3121075711686
 21
16.24540697885533
 31
0.0
 11
186.3360407604891
 21
16.24373213107797
 31
0.0
 11
186.3931122119457
 21
16.23973826330119
 31
0.0
 11
186.461229750781
 21
16.23497138885793
 31
0.0
 11
186.5183012022376
 21
16.23097752108115
 31
0.0
 11
186.5422343915581
 21
16.22930267330379
 31
0.0
 11
186.5274972731229
 21
16.20556293372637
 31
0.0
 11
186.4886640249977
 21
16.19183767331309
 31
0.0
 11
186.4886640249977
 21
16.15973424225115
 31
0.0
 11
186.4886640249977
 21
16.07947566459633
 31
0.0
 11
186.4886640249977
 21
15.97513951364505
 31
0.0
 11
186.4886640249977
 21
15.87080336269378
 31
0.0
 11
186.4886640249977
 21
15.79054478503895
 31
0.0
 11
186.4886640249977
 21
15.75844135397702
 31
0.0
 11
186.5211207110825
 21
15.75844135397702
 31
0.0
 11
186.6048247962486
 21
15.75844135397702
 31
0.0
 11
186.7192773208635
 21
15.75844135397702
 31
0.0
 11
186.8439793252946
 21
15.75844135397702
 31
0.0
 11
186.9584318499095
 21
15.75844135397702
 31
0.0
 11
187.0421359350756
 21
15.75844135397702
 31
0.0
 11
187.0745926211604
 21
15.75844135397702
 31
0.0
 11
187.0745926211604
 21
15.73210566604958
 31
0.0
 11
187.0745926211604
 21
15.67416715260922
 31
0.0
 11
187.0745926211604
 21
15.61622863916886
 31
0.0
 11
187.0745926211604
 21
15.58989295124142
 31
0.0
 11
187.0421359350756
 21
15.58989295124142
 31
0.0
 11
186.9584318499095
 21
15.58989295124142
 31
0.0
 11
186.8439793252946
 21
15.58989295124142
 31
0.0
 11
186.7192773208635
 21
15.58989295124142
 31
0.0
 11
186.6048247962486
 21
15.58989295124142
 31
0.0
 11
186.5211207110825
 21
15.58989295124142
 31
0.0
 11
186.4886640249977
 21
15.58989295124142
 31
0.0
 11
186.4886640249977
 21
15.5632186315202
 31
0.0
 11
186.4886640249977
 21
15.49442696487073
 31
0.0
 11
186.4886640249977
 21
15.40036489006431
 31
0.0
 11
186.4886640249977
 21
15.29787934587224
 31
0.0
 11
186.4886640249977
 21
15.20381727106583
 31
0.0
 11
186.4886640249977
 21
15.13502560441636
 31
0.0
 11
186.4886640249977
 21
15.10835128469514
 31
0.0
 11
186.5171747850994
 21
15.10835128469514
 31
0.0
 11
186.5923395162767
 21
15.10835128469514
 31
0.0
 11
186.6986068948377
 21
15.10835128469514
 31
0.0
 11
186.8204255970905
 21
15.10835128469514
 31
0.0
 11
186.9422442993434
 21
15.10835128469514
 31
0.0
 11
187.0485116779044
 21
15.10835128469514
 31
0.0
 11
187.1236764090817
 21
15.10835128469514
 31
0.0
 11
187.1521871691834
 21
15.10835128469514
 31
0.0
 11
187.1521871691834
 21
15.08201559676769
 31
0.0
 11
187.1521871691834
 21
15.0240770833273
 31
0.0
 11
187.1521871691834
 21
14.96613856988692
 31
0.0
 11
187.1521871691834
 21
14.93980288195947
 31
0.0
  0
SPLINE
  5
AE
102
{ACAD_REACTORS
330
CB
102
}
330
48
100
AcDbEntity
  8
_U_30EC_U_30A4_U_30E4_U_30FC_1
  6
Continuous
 62
     2
100
AcDbSpline
210
0.0
220
0.0
230
1.0
 70
     8
 71
     3
 72
    62
 73
    58
 74
    56
 42
0.000000001
 43
0.0000000001
 44
0.00000001
 40
0.0
 40
0.0
 40
0.0
 40
0.0
 40
0.0598250028308769
 40
0.2024846486897616
 40
0.3727558389220746
 40
0.515415484793607
 40
0.5752404975785339
 40
0.9332326775486943
 40
1.290451762839446
 40
1.602077253145804
 40
1.699931634111994
 40
1.799359756425023
 40
2.270120149657025
 40
2.80466192846144
 40
2.882342287383153
 40
3.076543185719009
 40
3.329004354835476
 40
3.581465524568308
 40
3.775666424543594
 40
3.853346784558216
 40
3.899120679595018
 40
3.984129341792102
 40
4.029903236817479
 40
4.105797496059633
 40
4.295533144152593
 40
4.542189486611836
 40
4.788845828875784
 40
4.978581476410168
 40
5.054475735244411
 40
5.621734664339396
 40
6.130867242037388
 40
6.225249780948564
 40
6.31891303972727
 40
6.663579954558795
 40
7.047498900224642
 40
7.435230791575573
 40
7.498943906667985
 40
7.650875181210007
 40
7.832212509001574
 40
7.98414378369696
 40
8.047856898903117
 40
8.091554632732624
 40
8.172707566964279
 40
8.216405300768002
 40
8.289021782160887
 40
8.462184160757232
 40
8.668861838005398
 40
8.842024215263962
 40
8.914640695475157
 40
8.989881580861363
 40
9.155411528827276
 40
9.320941477744066
 40
9.396182352487317
 40
9.454709011143835
 40
9.583467660170827
 40
9.71222630901305
 40
9.770752957989531
 40
9.770752957989531
 40
9.770752957989531
 40
9.770752957989531
 10
187.1521871691834
 20
14.93980288195947
 30
0.0
 10
187.1322348171624
 20
14.93980875568668
 30
0.0
 10
187.0647037716466
 20
14.93982863806155
 30
0.0
 10
186.9410612161789
 20
14.93949362520322
 30
0.0
 10
186.7863180150057
 20
14.94107673750509
 30
0.0
 10
186.6697349482481
 20
14.93686078860492
 30
0.0
 10
186.4550942634242
 20
14.95215205331624
 30
0.0
 10
186.8518948407228
 20
14.59198721286187
 30
0.0
 10
186.8945656069268
 20
14.37510503397162
 30
0.0
 10
187.3189162146611
 20
14.19325062511451
 30
0.0
 10
187.1439821496074
 20
14.08985196568062
 30
0.0
 10
187.0194523925081
 20
13.87831523212737
 30
0.0
 10
186.7666277235944
 20
14.34806081001549
 30
0.0
 10
186.4797602893627
 20
14.99511516984519
 30
0.0
 10
186.4906335926661
 20
14.68782672154693
 30
0.0
 10
186.488289277796
 20
14.52288616971777
 30
0.0
 10
186.4861096126411
 20
14.28879670711691
 30
0.0
 10
186.4980774396348
 20
14.04498072421781
 30
0.0
 10
186.4687984740632
 20
13.8985579686098
 30
0.0
 10
186.5114522625471
 20
13.75113490174534
 30
0.0
 10
186.4239814005639
 20
13.76685797306217
 30
0.0
 10
186.3768527606744
 20
13.76694303543452
 30
0.0
 10
186.2898973207712
 20
13.75109425482905
 30
0.0
 10
186.3313474021722
 20
13.89527771422759
 30
0.0
 10
186.3029875004283
 20
14.03855052698453
 30
0.0
 10
186.3145973775298
 20
14.27674947365261
 30
0.0
 10
186.312417564827
 20
14.50517235240343
 30
0.0
 10
186.3103111127993
 20
14.66705729375991
 30
0.0
 10
186.3208035438321
 20
14.98153709333748
 30
0.0
 10
186.0128963252894
 20
14.29229470872438
 30
0.0
 10
185.7055258267455
 20
13.8147675024304
 30
0.0
 10
185.5851367066275
 20
14.03741112637427
 30
0.0
 10
185.4074607910723
 20
14.15011034955562
 30
0.0
 10
185.8853326362894
 20
14.32548143465462
 30
0.0
 10
185.9353959057208
 20
14.56091929252027
 30
0.0
 10
186.3583799621717
 20
14.95322989344604
 30
0.0
 10
186.127675427354
 20
14.93655307029063
 30
0.0
 10
186.0049685859341
 20
14.94269518948768
 30
0.0
 10
185.8325483095661
 20
14.93312822699571
 30
0.0
 10
185.7213224694448
 20
14.95448818489663
 30
0.0
 10
185.6025779627446
 20
14.92136265357416
 30
0.0
 10
185.6183169706685
 20
15.0020390060688
 30
0.0
 10
185.6178550933761
 20
15.04645414290851
 30
0.0
 10
185.602788188993
 20
15.1296708177853
 30
0.0
 10
185.7372380935442
 20
15.0906265198388
 30
0.0
 10
185.8619755545745
 20
15.11739729328419
 30
0.0
 10
186.0628755237279
 20
15.10063949044049
 30
0.0
 10
186.1921540949352
 20
15.12204225913
 30
0.0
 10
186.3328419928294
 20
15.08868778853417
 30
0.0
 10
186.2980927452614
 20
15.22651875785065
 30
0.0
 10
186.3222185666712
 20
15.34963257349478
 30
0.0
 10
186.2967086182392
 20
15.47024055670333
 30
0.0
 10
186.3333251146684
 20
15.60539865141492
 30
0.0
 10
186.2211417027769
 20
15.58094545781889
 30
0.0
 10
186.1280356457135
 20
15.5930774984202
 30
0.0
 10
186.0191547579819
 20
15.58957630069992
 30
0.0
 10
185.9569697640963
 20
15.589817559516
 30
0.0
 10
185.9375369557245
 20
15.58989295124142
 30
0.0
 11
187.1521871691834
 21
14.93980288195947
 31
0.0
 11
187.0923621563983
 21
14.93980288195947
 31
0.0
 11
186.949702510526
 21
14.93980288195947
 31
0.0
 11
186.7794313202915
 21
14.93980288195947
 31
0.0
 11
186.6367716744192
 21
14.93980288195947
 31
0.0
 11
186.5769466616341
 21
14.93980288195947
 31
0.0
 11
186.7679960754843
 21
14.63705127966888
 31
0.0
 11
186.994127278563
 21
14.36051890576681
 31
0.0
 11
187.2244526173371
 21
14.15061253493454
 31
0.0
 11
187.1521596330705
 21
14.08466403668714
 31
0.0
 11
187.0879364402642
 21
14.00876059052557
 31
0.0
 11
186.7732818215558
 21
14.3589145834936
 31
0.0
 11
186.4886640249977
 21
14.811382951436
 31
0.0
 11
186.4886640249977
 21
14.73370259137312
 31
0.0
 11
186.4886640249977
 21
14.53950169121591
 31
0.0
 11
186.4886640249977
 21
14.28704052101154
 31
0.0
 11
186.4886640249977
 21
14.03457935080718
 31
0.0
 11
186.4886640249977
 21
13.84037845064997
 31
0.0
 11
186.4886640249977
 21
13.76269809058709
 31
0.0
 11
186.4428901295605
 21
13.76269809058709
 31
0.0
 11
186.3578814666058
 21
13.76269809058709
 31
0.0
 11
186.3121075711686
 21
13.76269809058709
 31
0.0
 11
186.3121075711686
 21
13.83859234982737
 31
0.0
 11
186.3121075711686
 21
14.02832799792808
 31
0.0
 11
186.3121075711686
 21
14.274984340459
 31
0.0
 11
186.3121075711686
 21
14.52164068298993
 31
0.0
 11
186.3121075711686
 21
14.71137633109064
 31
0.0
 11
186.3121075711686
 21
14.78727059033092
 31
0.0
 11
185.9987626399266
 21
14.3144094619769
 31
0.0
 11
185.6352328662148
 21
13.95795177109379
 31
0.0
 11
185.5773927461628
 21
14.03253450545019
 31
0.0
 11
185.5094852305342
 21
14.09704322939241
 31
0.0
 11
185.7750721898319
 21
14.31672219795887
 31
0.0
 11
186.0233764972061
 21
14.60953395971694
 31
0.0
 11
186.226498280526
 21
14.93980288195947
 31
0.0
 11
186.1627851652721
 21
14.93980288195947
 31
0.0
 11
186.0108538904358
 21
14.93980288195947
 31
0.0
 11
185.8295165624054
 21
14.93980288195947
 31
0.0
 11
185.6775852875692
 21
14.93980288195947
 31
0.0
 11
185.6138721723153
 21
14.93980288195947
 31
0.0
 11
185.6138721723153
 21
14.98350061600205
 31
0.0
 11
185.6138721723153
 21
15.06465355065256
 31
0.0
 11
185.6138721723153
 21
15.10835128469514
 31
0.0
 11
185.686488653796
 21
15.10835128469514
 31
0.0
 11
185.8596510327117
 21
15.10835128469514
 31
0.0
 11
186.0663287107723
 21
15.10835128469514
 31
0.0
 11
186.2394910896879
 21
15.10835128469514
 31
0.0
 11
186.3121075711686
 21
15.10835128469514
 31
0.0
 11
186.3121075711686
 21
15.18359217009299
 31
0.0
 11
186.3121075711686
 21
15.34912211796828
 31
0.0
 11
186.3121075711686
 21
15.51465206584357
 31
0.0
 11
186.3121075711686
 21
15.58989295124142
 31
0.0
 11
186.2535809125055
 21
15.58989295124142
 31
0.0
 11
186.1248222634466
 21
15.58989295124142
 31
0.0
 11
185.9960636143877
 21
15.58989295124142
 31
0.0
 11
185.9375369557245
 21
15.58989295124142
 31
0.0
  0
SPLINE
  5
AF
102
{ACAD_REACTORS
330
CC
102
}
330
48
100
AcDbEntity
  8
_U_30EC_U_30A4_U_30E4_U_30FC_1
  6
Continuous
 62
     2
100
AcDbSpline
210
0.0
220
0.0
230
1.0
 70
    11
 71
     3
 72
   124
 73
   120
 74
   118
 42
0.000000001
 43
0.0000000001
 44
0.00000001
 40
0.0
 40
0.0
 40
0.0
 40
0.0
 40
0.027818722962451
 40
0.1011590162384838
 40
0.2048470170590523
 40
0.3237088716559814
 40
0.4425707262523421
 40
0.5462587270701252
 40
0.6195990203313787
 40
0.647417752258065
 40
0.6750060736117214
 40
0.735700385524473
 40
0.7963946998056464
 40
0.8239830245573756
 40
0.8540933811105134
 40
0.9373396629411246
 40
1.063094687343462
 40
1.220731268638329
 40
1.399622220915003
 40
1.589140358638045
 40
1.778658496424183
 40
1.95754944894085
 40
2.1151860308735
 40
2.240941056914832
 40
2.32418734176093
 40
2.35429770010978
 40
2.381886024672286
 40
2.442580338710875
 40
2.503274652750895
 40
2.530862977315004
 40
2.560983949278957
 40
2.640393784453331
 40
2.752662861759526
 40
2.881361560118514
 40
3.010060258455561
 40
3.122329335705737
 40
3.20173917081835
 40
3.231860142753711
 40
3.264298024030766
 40
3.352343701778639
 40
3.482095226869164
 40
3.639650650173428
 40
3.811108022565887
 40
3.982565394928396
 40
4.140120818152979
 40
4.26987234314169
 40
4.357918020802754
 40
4.390355902044383
 40
4.423256253992952
 40
4.508104530073417
 40
4.624121560637213
 40
4.750528176031941
 40
4.86654520660236
 40
4.951393482692288
 40
4.98429383464569
 40
5.011450833242603
 40
5.071196230152382
 40
5.130941627057449
 40
5.158098625649113
 40
5.190998977601775
 40
5.275847253689601
 40
5.391864284257035
 40
5.518270899648551
 40
5.634287930209534
 40
5.719136206288208
 40
5.752036558236095
 40
5.782130946283123
 40
5.862783906229294
 40
5.979550131775162
 40
6.117984316640569
 40
6.263641154588115
 40
6.40207533941432
 40
6.518841564908112
 40
6.599494524815698
 40
6.629588912848935
 40
6.65440302822654
 40
6.713575149488307
 40
6.784199939329681
 40
6.843372060493811
 40
6.868186175803057
 40
6.896246243202119
 40
6.93958623375865
 40
6.967846564565281
 40
7.043584251090216
 40
7.153234334452074
 40
7.283231855734824
 40
7.42001185603586
 40
7.550009376580212
 40
7.659659458835609
 40
7.735397144417602
 40
7.763657474851776
 40
7.796409728011405
 40
7.880876065096707
 40
7.996370852466093
 40
8.122208446418988
 40
8.237703224799581
 40
8.322169562011275
 40
8.35492181520629
 40
8.382078813308068
 40
8.441824209207367
 40
8.501569605240508
 40
8.528726603486085
 40
8.561478856696105
 40
8.645945193878156
 40
8.761439980865696
 40
8.887277580764867
 40
9.002772362001359
 40
9.08723869666158
 40
9.119990949236033
 40
9.152428830613733
 40
9.24047450863895
 40
9.370226034149903
 40
9.527781457984789
 40
9.699238830981779
 40
9.870696203978971
 40
10.0282516278144
 40
10.15800315332602
 40
10.24604883135157
 40
10.27848670378559
 40
10.27848670378559
 40
10.27848670378559
 40
10.27848670378559
 10
195.3821827564382
 20
14.01410517385754
 30
0.0
 10
195.3914554737522
 20
14.01410498511271
 30
0.0
 10
195.4251744536859
 20
14.01410430876711
 30
0.0
 10
195.4934706812465
 20
14.01411807243301
 30
0.0
 10
195.5920141711579
 20
14.01403224219542
 30
0.0
 10
195.7062066464811
 20
14.01441755612247
 30
0.0
 10
195.8185894417071
 20
14.01300835897542
 30
0.0
 10
195.9214376600119
 20
14.0171911742224
 30
0.0
 10
195.980683987485
 20
14.0082308925198
 30
0.0
 10
196.0371265937034
 20
14.02164434526058
 30
0.0
 10
196.0246255586956
 20
13.97087198613359
 30
0.0
 10
196.0329549635704
 20
13.92589320939064
 30
0.0
 10
196.024817084112
 20
13.88056752990485
 30
0.0
 10
196.0370529214458
 20
13.82931932408462
 30
0.0
 10
195.9747773490334
 20
13.84447955365273
 30
0.0
 10
195.9060513026868
 20
13.83359750710739
 30
0.0
 10
195.7782756749592
 20
13.83911304747969
 30
0.0
 10
195.6262984511644
 20
13.83700851253696
 30
0.0
 10
195.4502695972522
 20
13.8377100258847
 30
0.0
 10
195.2644431934287
 20
13.83745237531289
 30
0.0
 10
195.0786167437175
 20
13.837710051446
 30
0.0
 10
194.9025880142167
 20
13.83700841847728
 30
0.0
 10
194.7506104154193
 20
13.83911332229986
 30
0.0
 10
194.6228357664553
 20
13.83359680767637
 30
0.0
 10
194.5541077836579
 20
13.84448077125939
 30
0.0
 10
194.4918349042882
 20
13.82931786684207
 30
0.0
 10
194.5040616290016
 20
13.88057510805168
 30
0.0
 10
194.4960004462595
 20
13.92582473272422
 30
0.0
 10
194.5040675809892
 20
13.9710635795532
 30
0.0
 10
194.4918238487082
 20
14.02234176909955
 30
0.0
 10
194.5525017120697
 20
14.00749577363132
 30
0.0
 10
194.6162810745735
 20
14.01756448170732
 30
0.0
 10
194.7277314353502
 20
14.01294644211997
 30
0.0
 10
194.8497533443822
 20
14.01413328905466
 30
0.0
 10
194.9719538137822
 20
14.01515863900632
 30
0.0
 10
195.082979428739
 20
14.01092475623398
 30
0.0
 10
195.1476517413957
 20
14.02018584521736
 30
0.0
 10
195.20911628105
 20
14.00604423049679
 30
0.0
 10
195.1930065601335
 20
14.07235527884514
 30
0.0
 10
195.2042980327358
 20
14.14447790121973
 30
0.0
 10
195.1987400822558
 20
14.27513760888283
 30
0.0
 10
195.2008035061689
 20
14.42607323708239
 30
0.0
 10
195.2000167127293
 20
14.59335873107883
 30
0.0
 10
195.2007845215626
 20
14.76061110332301
 30
0.0
 10
195.1988038785627
 20
14.91163289269912
 30
0.0
 10
195.2041306156619
 20
15.04206069552993
 30
0.0
 10
195.1933101388423
 20
15.11465442605898
 30
0.0
 10
195.2090326429874
 20
15.18150469436797
 30
0.0
 10
195.143270813249
 20
15.16580512490823
 30
0.0
 10
195.0756367830763
 20
15.17609243083995
 30
0.0
 10
194.9615885293808
 20
15.1711378684712
 30
0.0
 10
194.8451242674902
 20
15.17414128030474
 30
0.0
 10
194.7306554121477
 20
15.16880303143388
 30
0.0
 10
194.6640324657812
 20
15.18001268074823
 30
0.0
 10
194.5990769715185
 20
15.1634913266501
 30
0.0
 10
194.6107989758708
 20
15.21473720477058
 30
0.0
 10
194.6032830189121
 20
15.25950333784089
 30
0.0
 10
194.6107989878835
 20
15.30426944897958
 30
0.0
 10
194.5990769505347
 20
15.35551536129737
 30
0.0
 10
194.66403263392
 20
15.33899381766812
 30
0.0
 10
194.730653333982
 20
15.3502057137394
 30
0.0
 10
194.8451352858063
 20
15.34485436710662
 30
0.0
 10
194.9615454436961
 20
15.34791188771114
 30
0.0
 10
195.0757660174641
 20
15.34278499010706
 30
0.0
 10
195.1430150439225
 20
15.35345733355595
 30
0.0
 10
195.2083325941437
 20
15.33742082669074
 30
0.0
 10
195.1941391448551
 20
15.39949685750051
 30
0.0
 10
195.2036059462993
 20
15.4658676162876
 30
0.0
 10
195.1990269004083
 20
15.58239972741963
 30
0.0
 10
195.2007696555947
 20
15.71426685022373
 30
0.0
 10
195.199755149539
 20
15.8561596015027
 30
0.0
 10
195.201719134437
 20
15.98769050702577
 30
0.0
 10
195.196466855385
 20
16.10524577282999
 30
0.0
 10
195.2073408763472
 20
16.16947789001581
 30
0.0
 10
195.1919536641853
 20
16.23108802545045
 30
0.0
 10
195.2407591537799
 20
16.21702407382108
 30
0.0
 10
195.2853995564725
 20
16.2195474207531
 30
0.0
 10
195.3538643946742
 20
16.21512797401707
 30
0.0
 10
195.3959106169103
 20
16.20613025544031
 30
0.0
 10
195.4487544758775
 20
16.21411714866507
 30
0.0
 10
195.4207035002013
 20
16.17113917611663
 30
0.0
 10
195.3749142248592
 20
16.18259552043839
 30
0.0
 10
195.3869539073264
 20
16.12173520005134
 30
0.0
 10
195.3796086070639
 20
16.0576929946877
 30
0.0
 10
195.383119582616
 20
15.94909368863908
 30
0.0
 10
195.3819806760172
 20
15.8249431914475
 30
0.0
 10
195.3819174780261
 20
15.69189719829875
 30
0.0
 10
195.3832872966866
 20
15.56797381249553
 30
0.0
 10
195.3791638801313
 20
15.45868337849335
 30
0.0
 10
195.3877763103563
 20
15.39608580094167
 30
0.0
 10
195.37467574544
 20
15.33740133296363
 30
0.0
 10
195.4393884328197
 20
15.35362113810899
 30
0.0
 10
195.5060405953154
 20
15.34270260383308
 30
0.0
 10
195.6198779541102
 20
15.34793740173753
 30
0.0
 10
195.7357259122095
 20
15.3448554751691
 30
0.0
 10
195.8496924263279
 20
15.35018259812509
 30
0.0
 10
195.9160341018098
 20
15.3390420816654
 30
0.0
 10
195.9807188525479
 20
15.35546979593175
 30
0.0
 10
195.9689820772721
 20
15.30425925210048
 30
0.0
 10
195.976516806304
 20
15.25950334120999
 30
0.0
 10
195.9689820992256
 20
15.21474739010026
 30
0.0
 10
195.9807188140735
 20
15.16353690871039
 30
0.0
 10
195.9160344075251
 20
15.17996427794219
 30
0.0
 10
195.8496886430824
 20
15.16882784447269
 30
0.0
 10
195.735745948701
 20
15.17413115893118
 30
0.0
 10
195.6197995623054
 20
15.17114764593543
 30
0.0
 10
195.5062756882121
 20
15.17606892268392
 30
0.0
 10
195.4389231318802
 20
15.16585087513518
 30
0.0
 10
195.3734285122494
 20
15.18145996138814
 30
0.0
 10
195.3891713619217
 20
15.1146385182741
 30
0.0
 10
195.3783275998212
 20
15.04207057815877
 30
0.0
 10
195.3836581629791
 20
14.91162247614414
 30
0.0
 10
195.3817136151854
 20
14.76064558185224
 30
0.0
 10
195.3823133683213
 20
14.59322243934156
 30
0.0
 10
195.3821506559604
 20
14.42656176118369
 30
0.0
 10
195.3821895488135
 20
14.27360142921633
 30
0.0
 10
195.3821816413097
 20
14.14849178985702
 30
0.0
 10
195.3821828382745
 20
14.06507890991417
 30
0.0
 10
195.3821827716206
 20
14.02491778281973
 30
0.0
 10
195.3821827564382
 20
14.01410517385754
 30
0.0
 11
195.3821827564382
 21
14.01410517385754
 31
0.0
 11
195.4100014883674
 21
14.01410517385754
 31
0.0
 11
195.4833417816352
 21
14.01410517385754
 31
0.0
 11
195.5870297824621
 21
14.01410517385754
 31
0.0
 11
195.7058916370686
 21
14.01410517385754
 31
0.0
 11
195.8247534916752
 21
14.01410517385754
 31
0.0
 11
195.9284414925021
 21
14.01410517385754
 31
0.0
 11
196.0017817857699
 21
14.01410517385754
 31
0.0
 11
196.0296005176991
 21
14.01410517385754
 31
0.0
 11
196.0296005176991
 21
13.98651684921167
 31
0.0
 11
196.0296005176991
 21
13.92582253499074
 31
0.0
 11
196.0296005176991
 21
13.86512822076982
 31
0.0
 11
196.0296005176991
 21
13.83753989612394
 31
0.0
 11
195.9994901593494
 21
13.83753989612394
 31
0.0
 11
195.9162438745005
 21
13.83753989612394
 31
0.0
 11
195.7904888484522
 21
13.83753989612394
 31
0.0
 11
195.6328522665042
 21
13.83753989612394
 31
0.0
 11
195.4539613139565
 21
13.83753989612394
 31
0.0
 11
195.2644431761088
 21
13.83753989612394
 31
0.0
 11
195.0749250382613
 21
13.83753989612394
 31
0.0
 11
194.8960340857136
 21
13.83753989612394
 31
0.0
 11
194.7383975037656
 21
13.83753989612394
 31
0.0
 11
194.6126424777171
 21
13.83753989612394
 31
0.0
 11
194.5293961928682
 21
13.83753989612394
 31
0.0
 11
194.4992858345186
 21
13.83753989612394
 31
0.0
 11
194.4992858345186
 21
13.86512822076982
 31
0.0
 11
194.4992858345186
 21
13.92582253499074
 31
0.0
 11
194.4992858345186
 21
13.98651684921166
 31
0.0
 11
194.4992858345186
 21
14.01410517385754
 31
0.0
 11
194.5294068064946
 21
14.01410517385754
 31
0.0
 11
194.6088166417039
 21
14.01410517385754
 31
0.0
 11
194.7210857190689
 21
14.01410517385754
 31
0.0
 11
194.8497844175116
 21
14.01410517385754
 31
0.0
 11
194.9784831159544
 21
14.01410517385754
 31
0.0
 11
195.0907521933194
 21
14.01410517385754
 31
0.0
 11
195.1701620285288
 21
14.01410517385754
 31
0.0
 11
195.2002830005047
 21
14.01410517385754
 31
0.0
 11
195.2002830005047
 21
14.04654305523832
 31
0.0
 11
195.2002830005047
 21
14.13458873327187
 31
0.0
 11
195.2002830005047
 21
14.264340258795
 31
0.0
 11
195.2002830005047
 21
14.42189568264451
 31
0.0
 11
195.2002830005047
 21
14.59335305565722
 31
0.0
 11
195.2002830005047
 21
14.76481042866992
 31
0.0
 11
195.2002830005047
 21
14.92236585251943
 31
0.0
 11
195.2002830005047
 21
15.05211737804256
 31
0.0
 11
195.2002830005047
 21
15.14016305607611
 31
0.0
 11
195.2002830005047
 21
15.17260093745689
 31
0.0
 11
195.1673826485527
 21
15.17260093745689
 31
0.0
 11
195.0825343724662
 21
15.17260093745689
 31
0.0
 11
194.9665173418987
 21
15.17260093745689
 31
0.0
 11
194.8401107265043
 21
15.17260093745689
 31
0.0
 11
194.724093695937
 21
15.17260093745689
 31
0.0
 11
194.6392454198503
 21
15.17260093745689
 31
0.0
 11
194.6063450678984
 21
15.17260093745689
 31
0.0
 11
194.6063450678984
 21
15.19975793614801
 31
0.0
 11
194.6063450678984
 21
15.25950333326848
 31
0.0
 11
194.6063450678984
 21
15.31924873038895
 31
0.0
 11
194.6063450678984
 21
15.34640572908007
 31
0.0
 11
194.6392454198503
 21
15.34640572908007
 31
0.0
 11
194.724093695937
 21
15.34640572908007
 31
0.0
 11
194.8401107265044
 21
15.34640572908007
 31
0.0
 11
194.9665173418987
 21
15.34640572908007
 31
0.0
 11
195.0825343724661
 21
15.34640572908007
 31
0.0
 11
195.1673826485527
 21
15.34640572908007
 31
0.0
 11
195.2002830005047
 21
15.34640572908007
 31
0.0
 11
195.2002830005047
 21
15.37650011731367
 31
0.0
 11
195.2002830005047
 21
15.4571530777797
 31
0.0
 11
195.2002830005047
 21
15.57391930412606
 31
0.0
 11
195.2002830005047
 21
15.7123534900006
 31
0.0
 11
195.2002830005047
 21
15.85801032905121
 31
0.0
 11
195.2002830005047
 21
15.99644451492575
 31
0.0
 11
195.2002830005047
 21
16.11321074127211
 31
0.0
 11
195.2002830005047
 21
16.19386370173815
 31
0.0
 11
195.2002830005047
 21
16.22395808997174
 31
0.0
 11
195.2250405288617
 21
16.22228324219439
 31
0.0
 11
195.2840777118668
 21
16.21828937441762
 31
0.0
 11
195.3545414464214
 21
16.21352249997438
 31
0.0
 11
195.4135786294265
 21
16.20952863219761
 31
0.0
 11
195.4383361577835
 21
16.20785378442026
 31
0.0
 11
195.4233067224031
 21
16.18415814206507
 31
0.0
 11
195.3821827564382
 21
16.17047697887401
 31
0.0
 11
195.3821827564382
 21
16.14221664794829
 31
0.0
 11
195.3821827564382
 21
16.06647896106737
 31
0.0
 11
195.3821827564382
 21
15.95682887707558
 31
0.0
 11
195.3821827564382
 21
15.82683135481728
 31
0.0
 11
195.3821827564382
 21
15.6900513531368
 31
0.0
 11
195.3821827564382
 21
15.5600538308785
 31
0.0
 11
195.3821827564382
 21
15.45040374688671
 31
0.0
 11
195.3821827564382
 21
15.37466606000579
 31
0.0
 11
195.3821827564382
 21
15.34640572908007
 31
0.0
 11
195.4149350096113
 21
15.34640572908007
 31
0.0
 11
195.4994013467421
 21
15.34640572908007
 31
0.0
 11
195.6148961342475
 21
15.34640572908007
 31
0.0
 11
195.7407337385444
 21
15.34640572908007
 31
0.0
 11
195.8562285260497
 21
15.34640572908007
 31
0.0
 11
195.9406948631805
 21
15.34640572908007
 31
0.0
 11
195.9734471163537
 21
15.34640572908007
 31
0.0
 11
195.9734471163537
 21
15.31924873038895
 31
0.0
 11
195.9734471163537
 21
15.25950333326848
 31
0.0
 11
195.9734471163537
 21
15.19975793614801
 31
0.0
 11
195.9734471163537
 21
15.17260093745689
 31
0.0
 11
195.9406948631805
 21
15.17260093745689
 31
0.0
 11
195.8562285260498
 21
15.17260093745689
 31
0.0
 11
195.7407337385444
 21
15.17260093745689
 31
0.0
 11
195.6148961342475
 21
15.17260093745689
 31
0.0
 11
195.4994013467421
 21
15.17260093745689
 31
0.0
 11
195.4149350096113
 21
15.17260093745689
 31
0.0
 11
195.3821827564382
 21
15.17260093745689
 31
0.0
 11
195.3821827564382
 21
15.14016305607611
 31
0.0
 11
195.3821827564382
 21
15.05211737804256
 31
0.0
 11
195.3821827564382
 21
14.92236585251943
 31
0.0
 11
195.3821827564382
 21
14.76481042866992
 31
0.0
 11
195.3821827564382
 21
14.59335305565722
 31
0.0
 11
195.3821827564382
 21
14.42189568264451
 31
0.0
 11
195.3821827564382
 21
14.264340258795
 31
0.0
 11
195.3821827564382
 21
14.13458873327187
 31
0.0
 11
195.3821827564382
 21
14.04654305523832
 31
0.0
 11
195.3821827564382
 21
14.01410517385754
 31
0.0
  0
SPLINE
  5
B0
102
{ACAD_REACTORS
330
CD
102
}
330
48
100
AcDbEntity
  8
_U_30EC_U_30A4_U_30E4_U_30FC_1
  6
Continuous
 62
     2
100
AcDbSpline
210
0.0
220
0.0
230
1.0
 70
    11
 71
     3
 72
   131
 73
   127
 74
   125
 42
0.000000001
 43
0.0000000001
 44
0.00000001
 40
0.0
 40
0.0
 40
0.0
 40
0.0
 40
0.019557702982582
 40
0.0426490537459887
 40
0.2863607575855309
 40
0.5344948436188317
 40
0.7842238845572229
 40
0.8737315789466629
 40
0.9803832810312336
 40
1.092842274517004
 40
1.199761146656736
 40
1.28978876818644
 40
1.351573580786084
 40
1.370727117561312
 40
1.416400936017713
 40
1.470914848355827
 40
1.516588666791606
 40
1.535742203552687
 40
1.63421659229304
 40
1.760283341174875
 40
1.897966686682002
 40
2.031216387368847
 40
2.049689751137841
 40
2.101115601646777
 40
2.179502577739894
 40
2.278859318314009
 40
2.393194462258665
 40
2.516516648383782
 40
2.642834515405907
 40
2.766156701983411
 40
2.880491846754524
 40
2.979848588358566
 40
3.058235565443743
 40
3.109661416668896
 40
3.128134780704073
 40
3.14678374238639
 40
3.191254343315251
 40
3.24433215731591
 40
3.288802758225813
 40
3.307451719895056
 40
3.327717853844668
 40
3.38374775358003
 40
3.468388665924422
 40
3.574487837698728
 40
3.694892515728833
 40
3.822449946851975
 40
3.950007377920365
 40
4.070412055800459
 40
4.176511227368014
 40
4.26115213950146
 40
4.317182039076654
 40
4.337448172964574
 40
4.620011002696189
 40
4.885096638397461
 40
4.945373043518269
 40
5.014107710488569
 40
5.070481727651999
 40
5.319246955636522
 40
5.584812164506037
 40
5.859000912056928
 40
6.133746937542056
 40
6.40173221296884
 40
6.420736683995431
 40
6.472845717451081
 40
6.550702743894009
 40
6.646951193874218
 40
6.754234497930542
 40
6.86519608658732
 40
6.972479390357778
 40
7.06872783977194
 40
7.146584865450949
 40
7.198693898189179
 40
7.217698368905319
 40
7.234950401630796
 40
7.276089864269842
 40
7.325191803515951
 40
7.366331266090338
 40
7.383583298769688
 40
7.402779163492065
 40
7.453386443254496
 40
7.524934666445498
 40
7.606953361405838
 40
7.688972056428989
 40
7.76052027978424
 40
7.811127559734482
 40
7.830323424546103
 40
7.847844055299731
 40
7.894799345666774
 40
7.962779392744464
 40
8.043374293560513
 40
8.128174145149421
 40
8.208769044817226
 40
8.27674909037693
 40
8.323704379669488
 40
8.341225010056222
 40
8.35849761480037
 40
8.401679126686576
 40
8.457815092185633
 40
8.513951057728038
 40
8.557132569707994
 40
8.574405174505037
 40
8.602340668616376
 40
8.643455660539972
 40
8.663225271966644
 40
8.715345156564288
 40
8.78903188962862
 40
8.87350204552035
 40
8.957972194323974
 40
9.031658925567866
 40
9.083778811234554
 40
9.103548423003017
 40
9.119550083123555
 40
9.160817522379856
 40
9.217244429110222
 40
9.278724491644708
 40
9.335151398295492
 40
9.376418837357788
 40
9.392420497300575
 40
9.401196302734794
 40
9.417494229384188
 40
9.42627002774946
 40
9.440875075477468
 40
9.475702496998672
 40
9.517270709865832
 40
9.552098131994025
 40
9.566703169884208
 40
9.566703169884208
 40
9.566703169884208
 40
9.566703169884208
 10
194.6170254148478
 20
15.67015871511025
 30
0.0
 10
194.613434509337
 20
15.66453690702157
 30
0.0
 10
194.6056039123624
 20
15.65227754419113
 30
0.0
 10
194.5129968974549
 20
15.61601916040941
 30
0.0
 10
194.4887622233247
 20
15.40148444212722
 30
0.0
 10
194.3858709845938
 20
15.22197284509704
 30
0.0
 10
194.1220492364305
 20
15.0361557379814
 30
0.0
 10
194.284547156918
 20
14.95959336566079
 30
0.0
 10
194.3607225760839
 20
14.8985669319544
 30
0.0
 10
194.4492171072758
 20
14.83515804544759
 30
0.0
 10
194.5389930233111
 20
14.77525634219557
 30
0.0
 10
194.5883817636047
 20
14.72102154849209
 30
0.0
 10
194.6745708157381
 20
14.69286240541831
 30
0.0
 10
194.641126067423
 20
14.65713309652811
 30
0.0
 10
194.6214671166311
 20
14.62550387991905
 30
0.0
 10
194.5919888217882
 20
14.58475872796066
 30
0.0
 10
194.5688989446032
 20
14.5550466348964
 30
0.0
 10
194.5380205968358
 20
14.50211422668491
 30
0.0
 10
194.4729193365741
 20
14.62740334938899
 30
0.0
 10
194.3796000122416
 20
14.68213900233934
 30
0.0
 10
194.2950636285139
 20
14.73916423939337
 30
0.0
 10
194.1722498125743
 20
14.8967528742752
 30
0.0
 10
194.1764450847301
 20
14.82035806766833
 30
0.0
 10
194.1751478652677
 20
14.77361280161293
 30
0.0
 10
194.1758126448076
 20
14.69584785812598
 30
0.0
 10
194.1755549986957
 20
14.5990206832442
 30
0.0
 10
194.1756431239922
 20
14.48650279078806
 30
0.0
 10
194.1756077302282
 20
14.36524085945697
 30
0.0
 10
194.1756511758278
 20
14.24086897858958
 30
0.0
 10
194.1755199942406
 20
14.11967683631334
 30
0.0
 10
194.1759477562046
 20
14.0069114891974
 30
0.0
 10
194.174667820231
 20
13.91082913768741
 30
0.0
 10
194.1779759851044
 20
13.83113826468697
 30
0.0
 10
194.1715197740085
 20
13.78815175788781
 30
0.0
 10
194.1806208705556
 20
13.7495543237204
 30
0.0
 10
194.1447910339935
 20
13.75810887724067
 30
0.0
 10
194.1115223815252
 20
13.75342519985444
 30
0.0
 10
194.0604562576041
 20
13.75351298759782
 30
0.0
 10
194.0269723972812
 20
13.75794430283818
 30
0.0
 10
193.9907585408754
 20
13.74960793842507
 30
0.0
 10
194.0009782568665
 20
13.79145277179281
 30
0.0
 10
193.9936487887774
 20
13.83778560820171
 30
0.0
 10
193.9973633136102
 20
13.92374831106011
 30
0.0
 10
193.9959480554896
 20
14.02605142704847
 30
0.0
 10
193.9964105554637
 20
14.14453223931509
 30
0.0
 10
193.996277368623
 20
14.26957683153353
 30
0.0
 10
193.9963015910045
 20
14.39475828107048
 30
0.0
 10
193.9963354925551
 20
14.51286645379055
 30
0.0
 10
193.9962060293131
 20
14.61628748709514
 30
0.0
 10
193.9965507549082
 20
14.69932036153664
 30
0.0
 10
193.995869827869
 20
14.75143368521241
 30
0.0
 10
193.9994586600623
 20
14.8791290782136
 30
0.0
 10
193.7826171386436
 20
14.58048716819617
 30
0.0
 10
193.602135492195
 20
14.35263981511511
 30
0.0
 10
193.5490322295612
 20
14.49373443289811
 30
0.0
 10
193.5200429133149
 20
14.54325767560944
 30
0.0
 10
193.419664806282
 20
14.64641779790099
 30
0.0
 10
193.7405127723262
 20
14.7269503502378
 30
0.0
 10
193.868989700543
 20
14.91066283036432
 30
0.0
 10
194.090645432536
 20
15.11931995771756
 30
0.0
 10
194.1770224894066
 20
15.29339211228343
 30
0.0
 10
194.4549394229078
 20
15.56967051342509
 30
0.0
 10
194.3346247839283
 20
15.56534559551111
 30
0.0
 10
194.2863197351349
 20
15.56614856202549
 30
0.0
 10
194.2102377454905
 20
15.56574582146582
 30
0.0
 10
194.116701000975
 20
15.56590275611606
 30
0.0
 10
194.0117594788557
 20
15.56582502576221
 30
0.0
 10
193.9033887738717
 20
15.56595464378551
 30
0.0
 10
193.7981454235897
 20
15.56554393490688
 30
0.0
 10
193.7056237819412
 20
15.56682073671588
 30
0.0
 10
193.6268130800707
 20
15.56340766534847
 30
0.0
 10
193.5839674565379
 20
15.57023350036317
 30
0.0
 10
193.5449499586516
 20
15.5606506420112
 30
0.0
 10
193.5526365271863
 20
15.5942077956554
 30
0.0
 10
193.5485464404312
 20
15.6252355032223
 30
0.0
 10
193.5485531368813
 20
15.67236529270897
 30
0.0
 10
193.5526239724911
 20
15.70340941646776
 30
0.0
 10
193.5449495574583
 20
15.73701861635898
 30
0.0
 10
193.5834819405494
 20
15.72748410420869
 30
0.0
 10
193.624122801448
 20
15.73397435498067
 30
0.0
 10
193.6951471850463
 20
15.73100150650251
 30
0.0
 10
193.7729318149633
 20
15.73174761399154
 30
0.0
 10
193.8507292246474
 20
15.73247814044523
 30
0.0
 10
193.9217232089908
 20
15.72954235514157
 30
0.0
 10
193.9624279791819
 20
15.73595468772948
 30
0.0
 10
194.0009853489909
 20
15.72650524176001
 30
0.0
 10
193.9927342754928
 20
15.76264692158782
 30
0.0
 10
193.9982346669358
 20
15.80129837613224
 30
0.0
 10
193.9955754206163
 20
15.86913528561836
 30
0.0
 10
193.9965815471533
 20
15.94591641538737
 30
0.0
 10
193.9960178018319
 20
16.02849393582755
 30
0.0
 10
193.9970714526593
 20
16.10517329229875
 30
0.0
 10
193.9942675863129
 20
16.17331990776697
 30
0.0
 10
194.0000702721304
 20
16.21132399809344
 30
0.0
 10
193.9915654551158
 20
16.24758448077644
 30
0.0
 10
194.0255610233125
 20
16.2375572377185
 30
0.0
 10
194.05945756831
 20
16.24073266813705
 30
0.0
 10
194.1126669060346
 20
16.23508965640607
 30
0.0
 10
194.1660768574482
 20
16.23434774436423
 30
0.0
 10
194.1995914649491
 20
16.22819223482978
 30
0.0
 10
194.2388086183038
 20
16.23346029773591
 30
0.0
 10
194.2120263698494
 20
16.19253380793483
 30
0.0
 10
194.1708111001723
 20
16.2037120453811
 30
0.0
 10
194.1782641540874
 20
16.1586705619212
 30
0.0
 10
194.1742227952184
 20
16.11412278028141
 30
0.0
 10
194.1761714049641
 20
16.042235726217
 30
0.0
 10
194.1752364849758
 20
15.96168630588768
 30
0.0
 10
194.176510719003
 20
15.88173995404992
 30
0.0
 10
194.1732043793863
 20
15.80841837083179
 30
0.0
 10
194.1802106179962
 20
15.76688643002565
 30
0.0
 10
194.1701440380125
 20
15.7275241856811
 30
0.0
 10
194.2029814803921
 20
15.73468063430978
 30
0.0
 10
194.236457729648
 20
15.73027243137941
 30
0.0
 10
194.2915053476019
 20
15.73217943347894
 30
0.0
 10
194.3489502595314
 20
15.73185366407285
 30
0.0
 10
194.4023026248309
 20
15.73106308733079
 30
0.0
 10
194.4398540896639
 20
15.73313959118071
 30
0.0
 10
194.4623172523237
 20
15.73022338167106
 30
0.0
 10
194.4751678073731
 20
15.73572552644051
 30
0.0
 10
194.4858255685888
 20
15.73801118197788
 30
0.0
 10
194.4986635650142
 20
15.74494972588049
 30
0.0
 10
194.5145991033069
 20
15.72853046313667
 30
0.0
 10
194.5410623920891
 20
15.71709122319448
 30
0.0
 10
194.5726805253756
 20
15.69644687835186
 30
0.0
 10
194.598725589215
 20
15.68116869628294
 30
0.0
 10
194.6128517723972
 20
15.67266976323181
 30
0.0
 10
194.6170254148478
 20
15.67015871511025
 30
0.0
 11
194.6170254148478
 21
15.67015871511025
 31
0.0
 11
194.6049990002243
 21
15.65473571164185
 31
0.0
 11
194.5848961795566
 21
15.64337406233915
 31
0.0
 11
194.4778986355814
 21
15.42440620231156
 31
0.0
 11
194.3477039934324
 21
15.21317201512158
 31
0.0
 11
194.1996540366071
 21
15.01206059027476
 31
0.0
 11
194.2734958253735
 21
14.96147384935376
 31
0.0
 11
194.36056643118
 21
14.89988411653737
 31
0.0
 11
194.4518003750405
 21
14.83413160594423
 31
0.0
 11
194.5381321779688
 21
14.77105653169303
 31
0.0
 11
194.6104963609788
 21
14.7174991079024
 31
0.0
 11
194.6598274450843
 21
14.68029954869103
 31
0.0
 11
194.6486940702213
 21
14.66471410869493
 31
0.0
 11
194.6221452532403
 21
14.62754882870422
 31
0.0
 11
194.5904579555534
 21
14.5831902687153
 31
0.0
 11
194.5639091385724
 21
14.54602498872459
 31
0.0
 11
194.5527757637094
 21
14.53043954872849
 31
0.0
 11
194.4807013362948
 21
14.59754008690615
 31
0.0
 11
194.3852856985382
 21
14.67993354174666
 31
0.0
 11
194.279326415217
 21
14.76785017366913
 31
0.0
 11
194.175621051109
 21
14.85152024309264
 31
0.0
 11
194.175621051109
 21
14.8330468790086
 31
0.0
 11
194.175621051109
 21
14.78162102763952
 31
0.0
 11
194.175621051109
 21
14.70323405030996
 31
0.0
 11
194.175621051109
 21
14.60387730834446
 31
0.0
 11
194.175621051109
 21
14.48954216306757
 31
0.0
 11
194.175621051109
 21
14.36621997580386
 31
0.0
 11
194.175621051109
 21
14.23990210787787
 31
0.0
 11
194.175621051109
 21
14.11657992061416
 31
0.0
 11
194.175621051109
 21
14.00224477533727
 31
0.0
 11
194.175621051109
 21
13.90288803337177
 31
0.0
 11
194.175621051109
 21
13.82450105604221
 31
0.0
 11
194.175621051109
 21
13.77307520467313
 31
0.0
 11
194.175621051109
 21
13.75460184058909
 31
0.0
 11
194.1569720893626
 21
13.75460184058909
 31
0.0
 11
194.1125014882749
 21
13.75460184058909
 31
0.0
 11
194.0594236740736
 21
13.75460184058909
 31
0.0
 11
194.0149530729859
 21
13.75460184058909
 31
0.0
 11
193.9963041112395
 21
13.75460184058909
 31
0.0
 11
193.9963041112395
 21
13.77486797460216
 31
0.0
 11
193.9963041112395
 21
13.83089787452064
 31
0.0
 11
193.9963041112395
 21
13.91553878716345
 31
0.0
 11
193.9963041112395
 21
14.0216379593495
 31
0.0
 11
193.9963041112395
 21
14.14204263789773
 31
0.0
 11
193.9963041112395
 21
14.26960006962703
 31
0.0
 11
193.9963041112395
 21
14.39715750135633
 31
0.0
 11
193.9963041112395
 21
14.51756217990456
 31
0.0
 11
193.9963041112395
 21
14.62366135209061
 31
0.0
 11
193.9963041112395
 21
14.70830226473342
 31
0.0
 11
193.9963041112395
 21
14.7643321646519
 31
0.0
 11
193.9963041112395
 21
14.78459829866497
 31
0.0
 11
193.7883272849481
 21
14.59331998274054
 31
0.0
 11
193.5763486358425
 21
14.43414885430808
 31
0.0
 11
193.5495629014483
 21
14.48814671952093
 31
0.0
 11
193.5138765415025
 21
14.54689140572024
 31
0.0
 11
193.4799697494124
 21
14.59192871537974
 31
0.0
 11
193.6830287742319
 21
14.73563387201051
 31
0.0
 11
193.881853195826
 21
14.91168423529986
 31
0.0
 11
194.0677041444179
 21
15.11327514524948
 31
0.0
 11
194.2318427502303
 21
15.33360194186106
 31
0.0
 11
194.3655301434864
 21
15.56585996513632
 31
0.0
 11
194.3465256724482
 21
15.56585996513632
 31
0.0
 11
194.2944166389562
 21
15.56585996513632
 31
0.0
 11
194.2165596124447
 21
15.56585996513632
 31
0.0
 11
194.1203111623478
 21
15.56585996513632
 31
0.0
 11
194.0130278580997
 21
15.56585996513632
 31
0.0
 11
193.9020662691345
 21
15.56585996513632
 31
0.0
 11
193.7947829648864
 21
15.56585996513632
 31
0.0
 11
193.6985345147895
 21
15.56585996513632
 31
0.0
 11
193.620677488278
 21
15.56585996513632
 31
0.0
 11
193.568568454786
 21
15.56585996513632
 31
0.0
 11
193.5495639837478
 21
15.56585996513632
 31
0.0
 11
193.5495639837478
 21
15.58311199790979
 31
0.0
 11
193.5495639837478
 21
15.62425146067729
 31
0.0
 11
193.5495639837478
 21
15.67335340010946
 31
0.0
 11
193.5495639837478
 21
15.71449286287696
 31
0.0
 11
193.5495639837478
 21
15.73174489565042
 31
0.0
 11
193.5687598486009
 21
15.73174489565042
 31
0.0
 11
193.6193671286684
 21
15.73174489565042
 31
0.0
 11
193.690915352212
 21
15.73174489565042
 31
0.0
 11
193.7729340474937
 21
15.73174489565042
 31
0.0
 11
193.8549527427753
 21
15.73174489565042
 31
0.0
 11
193.9265009663189
 21
15.73174489565042
 31
0.0
 11
193.9771082463864
 21
15.73174489565042
 31
0.0
 11
193.9963041112395
 21
15.73174489565042
 31
0.0
 11
193.9963041112395
 21
15.74926552655215
 31
0.0
 11
193.9963041112395
 21
15.79622081736879
 31
0.0
 11
193.9963041112395
 21
15.8642008652675
 31
0.0
 11
193.9963041112395
 21
15.94479576741546
 31
0.0
 11
193.9963041112395
 21
16.02959562097984
 31
0.0
 11
193.9963041112395
 21
16.1101905231278
 31
0.0
 11
193.9963041112395
 21
16.17817057102651
 31
0.0
 11
193.9963041112395
 21
16.22512586184315
 31
0.0
 11
193.9963041112395
 21
16.24264649274488
 31
0.0
 11
194.0135484112111
 21
16.24165806167517
 31
0.0
 11
194.0566591611401
 21
16.23918698400089
 31
0.0
 11
194.1127031360477
 21
16.23597458302433
 31
0.0
 11
194.1687471109553
 21
16.23276218204778
 31
0.0
 11
194.2118578608843
 21
16.2302911043735
 31
0.0
 11
194.2291021608559
 21
16.22930267330379
 31
0.0
 11
194.2143774674852
 21
16.20556293372637
 31
0.0
 11
194.175621051109
 21
16.19183767331309
 31
0.0
 11
194.175621051109
 21
16.17206806177289
 31
0.0
 11
194.175621051109
 21
16.11994817680329
 31
0.0
 11
194.175621051109
 21
16.04626144288076
 31
0.0
 11
194.175621051109
 21
15.96179128448176
 31
0.0
 11
194.175621051109
 21
15.87732112608275
 31
0.0
 11
194.175621051109
 21
15.80363439216021
 31
0.0
 11
194.175621051109
 21
15.75151450719061
 31
0.0
 11
194.175621051109
 21
15.73174489565042
 31
0.0
 11
194.1916227112935
 21
15.73174489565042
 31
0.0
 11
194.232890150717
 21
15.73174489565042
 31
0.0
 11
194.2893170576837
 21
15.73174489565042
 31
0.0
 11
194.3507971204981
 21
15.73174489565042
 31
0.0
 11
194.4072240274648
 21
15.73174489565042
 31
0.0
 11
194.4484914668882
 21
15.73174489565042
 31
0.0
 11
194.4644931270728
 21
15.73174489565042
 31
0.0
 11
194.4728206422924
 21
15.73451387455918
 31
0.0
 11
194.4882860277003
 21
15.73965626396115
 31
0.0
 11
194.4966135429199
 21
15.74242524286991
 31
0.0
 11
194.5091363776004
 21
15.73490952398291
 31
0.0
 11
194.5389985218385
 21
15.71698742509851
 31
0.0
 11
194.5746404359292
 21
15.69559653288165
 31
0.0
 11
194.6045025801673
 21
15.67767443399726
 31
0.0
 11
194.6170254148478
 21
15.67015871511025
 31
0.0
  0
SPLINE
  5
B1
102
{ACAD_REACTORS
330
CE
102
}
330
48
100
AcDbEntity
  8
_U_30EC_U_30A4_U_30E4_U_30FC_1
  6
Continuous
 62
     2
100
AcDbSpline
210
0.0
220
0.0
230
1.0
 70
    11
 71
     3
 72
    91
 73
    87
 74
    85
 42
0.000000001
 43
0.0000000001
 44
0.00000001
 40
0.0
 40
0.0
 40
0.0
 40
0.0
 40
0.0267532254356701
 40
0.0856103386464102
 40
0.1444674521996621
 40
0.1712206856618514
 40
0.2039416005642536
 40
0.2955601971652484
 40
0.4362601844616918
 40
0.616225284450725
 40
0.8256392189704698
 40
1.054685709844411
 40
1.293548478893531
 40
1.532411247938303
 40
1.761457738799568
 40
1.970871673298537
 40
2.150836773256732
 40
2.291536760495593
 40
2.3831553568367
 40
2.41587628410132
 40
2.442629517487963
 40
2.501486630949095
 40
2.560343744424242
 40
2.587096977826515
 40
2.617068194440942
 40
2.699247336756083
 40
2.822032643466424
 40
2.973822353257954
 40
3.143014704823396
 40
3.318007936879975
 40
3.487200288186837
 40
3.638989997548317
 40
3.761775303794873
 40
3.843954445753179
 40
3.873925662229875
 40
3.890812773500637
 40
3.907699884771842
 40
3.937960767857429
 40
3.980983618142405
 40
4.199085915228599
 40
4.439444339237391
 40
4.677588241260977
 40
5.050698317837862
 40
5.44821245476322
 40
5.855291218044774
 40
6.138575438885489
 40
6.417434507584282
 40
6.444551104393915
 40
6.504207617363215
 40
6.563864130314487
 40
6.59098072710403
 40
6.848609460381434
 40
7.109611990668433
 40
7.352910904446132
 40
7.55783022070552
 40
7.587518925913413
 40
7.652834077375829
 40
7.718149228845784
 40
7.747837934062063
 40
7.854880190301071
 40
7.976511257403609
 40
8.369487896592354
 40
8.757514959223704
 40
9.126072419331194
 40
9.460639380392285
 40
9.746695593036083
 40
9.77756994311883
 40
9.80705032093195
 40
9.830377336129073
 40
9.886003295436145
 40
9.952395569430037
 40
10.0080215287064
 40
10.03134854388231
 40
10.21356951009605
 40
10.42203479292884
 40
10.66154556731076
 40
10.9169378956432
 40
11.15832906556581
 40
11.18982674596639
 40
11.27286608520423
 40
11.3902665303337
 40
11.52484752840907
 40
11.65942852648466
 40
11.77682897161507
 40
11.85986831085707
 40
11.89136598230452
 40
11.89136598230452
 40
11.89136598230452
 40
11.89136598230452
 10
190.7027885008196
 20
14.70699600701769
 30
0.0
 10
190.7028237765288
 20
14.71587847311982
 30
0.0
 10
190.7029366710796
 20
14.74430237047343
 30
0.0
 10
190.7012984568489
 20
14.794096391698
 30
0.0
 10
190.7069750292911
 20
14.83657564478151
 30
0.0
 10
190.6956928731706
 20
14.88730154856844
 30
0.0
 10
190.7632296979031
 20
14.87012900740105
 30
0.0
 10
190.83880292107
 20
14.88290227165993
 30
0.0
 10
190.9828357056
 20
14.87629729457378
 30
0.0
 10
191.1569419185427
 20
14.87888462206463
 30
0.0
 10
191.3639599611003
 20
14.8780059195555
 30
0.0
 10
191.5894688172378
 20
14.87828207920024
 30
0.0
 10
191.8251162293406
 20
14.87818339658659
 30
0.0
 10
192.0607640531348
 20
14.87828184412765
 30
0.0
 10
192.2862717580626
 20
14.87800678190785
 30
0.0
 10
192.4932934632805
 20
14.87888186270732
 30
0.0
 10
192.6673888915288
 20
14.87630522678443
 30
0.0
 10
192.8114492071986
 20
14.8828829044921
 30
0.0
 10
192.8869691915292
 20
14.87016243405601
 30
0.0
 10
192.954577603703
 20
14.88726400191684
 30
0.0
 10
192.9430840140676
 20
14.83674785802937
 30
0.0
 10
192.9505104581733
 20
14.79253252226498
 30
0.0
 10
192.9428838927986
 20
14.74867966503606
 30
0.0
 10
192.9546489459425
 20
14.69878374479325
 30
0.0
 10
192.8930788491983
 20
14.71393227712509
 30
0.0
 10
192.8256791738671
 20
14.70310665350671
 30
0.0
 10
192.7013004056221
 20
14.70852031626233
 30
0.0
 10
192.555442823657
 20
14.70649205390782
 30
0.0
 10
192.3893576440086
 20
14.70715777578384
 30
0.0
 10
192.2188412621724
 20
14.70689643521239
 30
0.0
 10
192.0519790855388
 20
14.70721553391091
 30
0.0
 10
191.9087346827105
 20
14.70635302590759
 30
0.0
 10
191.7773313869833
 20
14.70863300482985
 30
0.0
 10
191.7239859134654
 20
14.70407704374199
 30
0.0
 10
191.6485188456912
 20
14.70999914992874
 30
0.0
 10
191.6769075779231
 20
14.7009416934335
 30
0.0
 10
191.7033652409542
 20
14.69725912268928
 30
0.0
 10
191.6633522907702
 20
14.66654271968272
 30
0.0
 10
191.5713663691867
 20
14.67667591174628
 30
0.0
 10
191.543939620707
 20
14.43032502247785
 30
0.0
 10
191.4478793967234
 20
14.27499558764375
 30
0.0
 10
191.1917277964475
 20
13.94525417931563
 30
0.0
 10
191.7627537732764
 20
14.0843002221045
 30
0.0
 10
192.0173656320516
 20
14.08291779973359
 30
0.0
 10
192.6279647048618
 20
13.99790569242082
 30
0.0
 10
192.3340698578083
 20
14.296854175582
 30
0.0
 10
192.0133304286521
 20
14.44330856901769
 30
0.0
 10
192.1313543360434
 20
14.50025540818286
 30
0.0
 10
192.1724716466261
 20
14.52420099873344
 30
0.0
 10
192.2156812394411
 20
14.54599758811226
 30
0.0
 10
192.317457409445
 20
14.60928721253909
 30
0.0
 10
192.4328867625247
 20
14.35147151408771
 30
0.0
 10
192.6329591642276
 20
14.21616041113681
 30
0.0
 10
192.7269077387228
 20
14.03792795138879
 30
0.0
 10
192.9558829746393
 20
13.87997821027048
 30
0.0
 10
192.8596031846709
 20
13.82915972576296
 30
0.0
 10
192.816795976378
 20
13.79881292523051
 30
0.0
 10
192.771824352878
 20
13.77466130281459
 30
0.0
 10
192.7121720925215
 20
13.72552146747565
 30
0.0
 10
192.6789731061324
 20
13.85997475673603
 30
0.0
 10
192.5582013350796
 20
14.01594265286578
 30
0.0
 10
192.1970976005978
 20
13.88569928059552
 30
0.0
 10
191.838506195554
 20
13.9022469440948
 30
0.0
 10
191.457092045008
 20
13.89331229351864
 30
0.0
 10
191.170345528289
 20
13.828826716724
 30
0.0
 10
190.8592055599713
 20
13.94230668192835
 30
0.0
 10
190.8268737818787
 20
13.83122259927762
 30
0.0
 10
190.7896178253316
 20
13.81196313850011
 30
0.0
 10
190.7865737632753
 20
13.85874784087296
 30
0.0
 10
190.7679892860606
 20
13.89806853919132
 30
0.0
 10
190.7512436616778
 20
13.95765983478232
 30
0.0
 10
190.7383730915753
 20
14.0020196987128
 30
0.0
 10
190.7042327806428
 20
14.091063311202
 30
0.0
 10
190.9482714457754
 20
14.02181042943766
 30
0.0
 10
191.1441394486671
 20
14.00030369057744
 30
0.0
 10
191.2395426381276
 20
14.28226484478463
 30
0.0
 10
191.2945135769599
 20
14.44363045421117
 30
0.0
 10
191.5159619357155
 20
14.71391177589735
 30
0.0
 10
191.3849239381217
 20
14.70548446853731
 30
0.0
 10
191.3110026555854
 20
14.70779008496967
 30
0.0
 10
191.1977459876244
 20
14.70671378321655
 30
0.0
 10
191.0694251807485
 20
14.70707639076507
 30
0.0
 10
190.9404252030415
 20
14.70697724466082
 30
0.0
 10
190.8287840946292
 20
14.7069993271257
 30
0.0
 10
190.7514663970025
 20
14.70699579189666
 30
0.0
 10
190.713287653201
 20
14.70699595845078
 30
0.0
 10
190.7027885008196
 20
14.70699600701769
 30
0.0
 11
190.7027885008196
 21
14.70699600701769
 31
0.0
 11
190.7027885008196
 21
14.73374924051794
 31
0.0
 11
190.7027885008196
 21
14.7926063542185
 31
0.0
 11
190.7027885008196
 21
14.85146346791906
 31
0.0
 11
190.7027885008196
 21
14.87821670141932
 31
0.0
 11
190.7355094280989
 21
14.87821670141932
 31
0.0
 11
190.8271280244809
 21
14.87821670141932
 31
0.0
 11
190.9678280117818
 21
14.87821670141932
 31
0.0
 11
191.1477931118179
 21
14.87821670141932
 31
0.0
 11
191.3572070464054
 21
14.87821670141932
 31
0.0
 11
191.5862535373604
 21
14.87821670141932
 31
0.0
 11
191.8251163064992
 21
14.87821670141932
 31
0.0
 11
192.0639790756381
 21
14.87821670141932
 31
0.0
 11
192.2930255665931
 21
14.87821670141932
 31
0.0
 11
192.5024395011806
 21
14.87821670141932
 31
0.0
 11
192.6824046012167
 21
14.87821670141932
 31
0.0
 11
192.8231045885176
 21
14.87821670141932
 31
0.0
 11
192.9147231848996
 21
14.87821670141932
 31
0.0
 11
192.9474441121789
 21
14.87821670141932
 31
0.0
 11
192.9474441121789
 21
14.85146346791906
 31
0.0
 11
192.9474441121789
 21
14.7926063542185
 31
0.0
 11
192.9474441121789
 21
14.73374924051794
 31
0.0
 11
192.9474441121789
 21
14.70699600701769
 31
0.0
 11
192.9174728954758
 21
14.70699600701769
 31
0.0
 11
192.8352937529027
 21
14.70699600701769
 31
0.0
 11
192.7125084457639
 21
14.70699600701769
 31
0.0
 11
192.5607187353642
 21
14.70699600701769
 31
0.0
 11
192.3915263830077
 21
14.70699600701769
 31
0.0
 11
192.216533149999
 21
14.70699600701769
 31
0.0
 11
192.0473407976426
 21
14.70699600701769
 31
0.0
 11
191.8955510872428
 21
14.70699600701769
 31
0.0
 11
191.7727657801041
 21
14.70699600701769
 31
0.0
 11
191.6905866375309
 21
14.70699600701769
 31
0.0
 11
191.6606154208278
 21
14.70699600701769
 31
0.0
 11
191.6766359412525
 21
14.70165583340791
 31
0.0
 11
191.6926564616771
 21
14.69631565979812
 31
0.0
 11
191.6706155681421
 21
14.67558114591439
 31
0.0
 11
191.6284861855364
 21
14.66685871536107
 31
0.0
 11
191.5365235541377
 21
14.46909247312654
 31
0.0
 11
191.4279078521763
 21
14.25467511978506
 31
0.0
 11
191.3127500824808
 21
14.04622559051617
 31
0.0
 11
191.6857366675021
 21
14.05582441253026
 31
0.0
 11
192.0830700036151
 21
14.06781232404991
 31
0.0
 11
192.4899342191146
 21
14.08102711828529
 31
0.0
 11
192.2983119496979
 21
14.28966761302478
 31
0.0
 11
192.0966752013699
 21
14.48229420151829
 31
0.0
 11
192.120494779475
 21
14.49525327269561
 31
0.0
 11
192.1728978513062
 21
14.52376322928573
 31
0.0
 11
192.2253009231373
 21
14.55227318587584
 31
0.0
 11
192.2491205012424
 21
14.56523225705317
 31
0.0
 11
192.4387101558626
 21
14.39079508370265
 31
0.0
 11
192.6200310940435
 21
14.20305846374088
 31
0.0
 11
192.7777729231148
 21
14.01782380992433
 31
0.0
 11
192.8966252504059
 21
13.85089253500946
 31
0.0
 11
192.8715408217924
 21
13.83501202286066
 31
0.0
 11
192.8163550788427
 21
13.8000748961333
 31
0.0
 11
192.7611693358929
 21
13.76513776940594
 31
0.0
 11
192.7360849072794
 21
13.74925725725714
 31
0.0
 11
192.6775518151612
 21
13.83887824681807
 31
0.0
 11
192.6050015078457
 21
13.93650288221029
 31
0.0
 11
192.2125412924095
 21
13.91636286943756
 31
0.0
 11
191.824947406956
 21
13.89803302999771
 31
0.0
 11
191.4567378976213
 21
13.88202178722393
 31
0.0
 11
191.1224308105412
 21
13.86883756444945
 31
0.0
 11
190.8365441918517
 21
13.85898878500747
 31
0.0
 11
190.8211862321739
 21
13.83220523466692
 31
0.0
 11
190.7937434290545
 21
13.82143559057244
 31
0.0
 11
190.7867927192319
 21
13.84370299445576
 31
0.0
 11
190.7702179496548
 21
13.89680218833137
 31
0.0
 11
190.7504351601596
 21
13.96017864553774
 31
0.0
 11
190.7338603905825
 21
14.01327783941335
 31
0.0
 11
190.7269096807598
 21
14.03554524329667
 31
0.0
 11
190.9091199859153
 21
14.03751638912949
 31
0.0
 11
191.1174975848588
 21
14.0435621182947
 31
0.0
 11
191.2303203127216
 21
14.25483550301552
 31
0.0
 11
191.3407936722036
 21
14.48509813155876
 31
0.0
 11
191.4358254265628
 21
14.70699600701769
 31
0.0
 11
191.4043277461597
 21
14.70699600701769
 31
0.0
 11
191.3212884069154
 21
14.70699600701769
 31
0.0
 11
191.2038879617768
 21
14.70699600701769
 31
0.0
 11
191.0693069636912
 21
14.70699600701769
 31
0.0
 11
190.9347259656055
 21
14.70699600701769
 31
0.0
 11
190.817325520467
 21
14.70699600701769
 31
0.0
 11
190.7342861812226
 21
14.70699600701769
 31
0.0
 11
190.7027885008196
 21
14.70699600701769
 31
0.0
  0
SPLINE
  5
B2
102
{ACAD_REACTORS
330
CF
102
}
330
48
100
AcDbEntity
  8
_U_30EC_U_30A4_U_30E4_U_30FC_1
  6
Continuous
 62
     2
100
AcDbSpline
210
0.0
220
0.0
230
1.0
 70
    11
 71
     3
 72
    35
 73
    31
 74
    29
 42
0.000000001
 43
0.0000000001
 44
0.00000001
 40
0.0
 40
0.0
 40
0.0
 40
0.0
 40
0.0335231036620371
 40
0.0713218571712317
 40
0.4278866681487509
 40
0.8116865841964722
 40
1.198190238000153
 40
1.561379546812779
 40
1.659983174622152
 40
1.759315573807291
 40
2.132719617231179
 40
2.525233363588884
 40
2.910815397779836
 40
3.26524436430344
 40
3.592606723582109
 40
3.964386154604034
 40
4.359942131737853
 40
4.758154118639408
 40
4.843846538699979
 40
4.93665006554329
 40
5.256616602537366
 40
5.581707404416075
 40
5.899719158308212
 40
6.198363494280777
 40
6.466301046615842
 40
6.493895311537107
 40
6.5596970201969
 40
6.63823454344239
 40
6.704036252154114
 40
6.731630508422891
 40
6.731630508422891
 40
6.731630508422891
 40
6.731630508422891
 10
191.9736010568668
 20
16.23463843719132
 30
0.0
 10
191.9676006097788
 20
16.2248069054232
 30
0.0
 10
191.9548344099156
 20
16.20388988579792
 30
0.0
 10
191.7949362006554
 20
16.17127126532699
 30
0.0
 10
192.2322025842336
 20
15.88206680336693
 30
0.0
 10
192.4345394828262
 20
15.68041138358437
 30
0.0
 10
192.6819564267974
 20
15.43749387603275
 30
0.0
 10
193.1831513624605
 20
15.36047662757774
 30
0.0
 10
193.012556219897
 20
15.21876939174654
 30
0.0
 10
192.9383299463201
 20
15.01710366209105
 30
0.0
 10
192.6131432248188
 20
15.3695628717472
 30
0.0
 10
192.3277741670665
 20
15.53175212559565
 30
0.0
 10
192.0337604077657
 20
15.7368713005304
 30
0.0
 10
191.8084452691133
 20
16.21827488595452
 30
0.0
 10
191.5993085055522
 20
15.75343046609218
 30
0.0
 10
191.3207873674834
 20
15.54350952252909
 30
0.0
 10
191.0371383177209
 20
15.37424456359983
 30
0.0
 10
190.707863952783
 20
15.00142360907931
 30
0.0
 10
190.6277012318224
 20
15.19708014459
 30
0.0
 10
190.4759724909746
 20
15.32491104190596
 30
0.0
 10
190.9083395826795
 20
15.40454031765931
 30
0.0
 10
191.0962565329766
 20
15.60026634915474
 30
0.0
 10
191.3468477420504
 20
15.81632996916749
 30
0.0
 10
191.5714350470161
 20
15.98190992300059
 30
0.0
 10
191.6259775409713
 20
16.26133964636823
 30
0.0
 10
191.7494661029012
 20
16.24737950408075
 30
0.0
 10
191.806027334452
 20
16.24521268867646
 30
0.0
 10
191.8761870984944
 20
16.24046859881357
 30
0.0
 10
191.9333414022104
 20
16.23709429350539
 30
0.0
 10
191.9644190320838
 20
16.23519854711117
 30
0.0
 10
191.9736010568668
 20
16.23463843719132
 30
0.0
 11
191.9736010568668
 21
16.23463843719132
 31
0.0
 11
191.9525319069884
 21
16.20856374969782
 31
0.0
 11
191.9174464559424
 21
16.19450114553466
 31
0.0
 11
192.1512374769094
 21
15.92527961131379
 31
0.0
 11
192.4414585957566
 21
15.67413407969257
 31
0.0
 11
192.7612797483684
 21
15.45710987618781
 31
0.0
 11
193.0838708706289
 21
15.29025232631635
 31
0.0
 11
193.0213299868076
 21
15.21402035584925
 31
0.0
 11
192.9688035818975
 21
15.12971197913421
 31
0.0
 11
192.6436279095814
 21
15.31326404831577
 31
0.0
 11
192.3237227768436
 21
15.54070139743426
 31
0.0
 11
192.0354200158607
 21
15.79673855123307
 31
0.0
 11
191.8050514588094
 21
16.06609003445563
 31
0.0
 11
191.5995531719516
 21
15.81126348721033
 31
0.0
 11
191.3288301341536
 21
15.55645182277753
 31
0.0
 11
191.0119538423247
 21
15.31969466354854
 31
0.0
 11
190.6679957933741
 21
15.11903163191465
 31
0.0
 11
190.6218855341338
 21
15.19126067703551
 31
0.0
 11
190.5636970460349
 21
15.26355586798965
 31
0.0
 11
190.8433040489016
 21
15.41911456961742
 31
0.0
 11
191.1093004621155
 21
15.60601009790402
 31
0.0
 11
191.3499997459747
 21
15.81384496285206
 31
0.0
 11
191.5537153607775
 21
16.03222167446413
 31
0.0
 11
191.7087607668219
 21
16.25074274274284
 31
0.0
 11
191.7363041569866
 21
16.24906789496548
 31
0.0
 11
191.8019845489177
 21
16.24507402718871
 31
0.0
 11
191.880377274771
 21
16.24030715274546
 31
0.0
 11
191.9460576667021
 21
16.23631328496868
 31
0.0
 11
191.9736010568668
 21
16.23463843719132
 31
0.0
  0
SPLINE
  5
B3
102
{ACAD_REACTORS
330
D0
102
}
330
48
100
AcDbEntity
  8
_U_30EC_U_30A4_U_30E4_U_30FC_1
  6
Continuous
 62
     2
100
AcDbSpline
210
0.0
220
0.0
230
1.0
 70
    11
 71
     3
 72
    15
 73
    11
 74
     9
 42
0.000000001
 43
0.0000000001
 44
0.00000001
 40
0.0
 40
0.0
 40
0.0
 40
0.0
 40
0.2785535985096388
 40
0.5215624748198284
 40
0.607691737603992
 40
0.6938210001740642
 40
0.9405019146454632
 40
1.221691403488982
 40
1.300471877080881
 40
1.379252341684653
 40
1.379252341684653
 40
1.379252341684653
 40
1.379252341684653
 10
189.5681493631
 20
16.22930267330379
 30
0.0
 10
189.6296017794178
 20
16.17691646592714
 30
0.0
 10
189.7446649974114
 20
16.07882876798221
 30
0.0
 10
190.0397348497243
 20
15.92889785897218
 30
0.0
 10
189.9025147631857
 20
15.84343227515011
 30
0.0
 10
189.8041227843777
 20
15.71085785201551
 30
0.0
 10
189.713003359065
 20
16.0161698578141
 30
0.0
 10
189.3636839480656
 20
16.07967869465371
 30
0.0
 10
189.5119258376571
 20
16.17896509880876
 30
0.0
 10
189.5494081874238
 20
16.2125234840238
 30
0.0
 10
189.5681493631
 20
16.22930267330379
 30
0.0
 11
189.5681493631
 21
16.22930267330379
 31
0.0
 11
189.7919222440597
 21
16.0634177427897
 31
0.0
 11
189.9695046306383
 21
15.89753281227561
 31
0.0
 11
189.9066308127979
 21
15.83866743034589
 31
0.0
 11
189.8437569949575
 21
15.77980204841617
 31
0.0
 11
189.6688535117725
 21
15.95375677059488
 31
0.0
 11
189.4478256856141
 21
16.12757920110699
 31
0.0
 11
189.507987524357
 21
16.17844093720539
 31
0.0
 11
189.5681493631
 21
16.22930267330379
 31
0.0
  0
SPLINE
  5
B4
102
{ACAD_REACTORS
330
D1
102
}
330
48
100
AcDbEntity
  8
_U_30EC_U_30A4_U_30E4_U_30FC_1
  6
Continuous
 62
     2
100
AcDbSpline
210
0.0
220
0.0
230
1.0
 70
    11
 71
     3
 72
    75
 73
    71
 74
    69
 42
0.000000001
 43
0.0000000001
 44
0.00000001
 40
0.0
 40
0.0
 40
0.0
 40
0.0
 40
0.0342546099129691
 40
0.1245622414432329
 40
0.25223854808975
 40
0.3985991922940627
 40
0.5449598364980768
 40
0.6726361431438745
 40
0.7629437746736836
 40
0.7971983935297866
 40
1.101723623449649
 40
1.408591244036569
 40
1.433332471690278
 40
1.487763172450077
 40
1.542193873081912
 40
1.56693510059246
 40
1.923523931821714
 40
2.271755704953542
 40
2.590579755100783
 40
2.858943305581066
 40
2.889120339309074
 40
2.918305855191
 40
2.941366645531125
 40
2.996357760973029
 40
3.061992318140595
 40
3.116983433626793
 40
3.140044223997474
 40
3.411273122936449
 40
3.732441619740974
 40
3.761068217532674
 40
3.837787499630234
 40
3.948858699125873
 40
4.080541049104248
 40
4.219093782625635
 40
4.350776132722185
 40
4.461847332405517
 40
4.538566614678251
 40
4.567193212544497
 40
4.594907573998755
 40
4.666381453557294
 40
4.764111044010848
 40
4.870592538125594
 40
4.968322128642017
 40
5.039796008286702
 40
5.067510369784133
 40
5.094263603185347
 40
5.153120716667983
 40
5.211977830150431
 40
5.238731063551436
 40
5.272290535138703
 40
5.363380529444507
 40
5.497618415781185
 40
5.660621563453427
 40
5.838007341749128
 40
6.015393119910451
 40
6.178396267038048
 40
6.312634151841999
 40
6.403724143058989
 40
6.437283612672084
 40
6.464036846260701
 40
6.522893960004316
 40
6.581751071483582
 40
6.60850430159053
 40
6.637253941280678
 40
6.711397748902529
 40
6.812778057283142
 40
6.923237199248918
 40
7.024617507623562
 40
7.098761315207215
 40
7.127510946007165
 40
7.127510946007165
 40
7.127510946007165
 40
7.127510946007165
 10
188.4418622390564
 20
14.95849128473261
 30
0.0
 10
188.4418622819707
 20
14.94707313408717
 30
0.0
 10
188.4418624481128
 20
14.90555257842626
 30
0.0
 10
188.4418593081787
 20
14.82146922003769
 30
0.0
 10
188.4418788279801
 20
14.70004497322325
 30
0.0
 10
188.4417912187737
 20
14.55980494047445
 30
0.0
 10
188.442111623523
 20
14.42006556794573
 30
0.0
 10
188.4411605909741
 20
14.29745038894927
 30
0.0
 10
188.4431978595967
 20
14.2158707443804
 30
0.0
 10
188.4349433178746
 20
14.06271267077696
 30
0.0
 10
188.74307979409
 20
14.22560236054715
 30
0.0
 10
189.0350645173738
 20
14.39482938687999
 30
0.0
 10
189.0408354448706
 20
14.25973235781908
 30
0.0
 10
189.0455471719891
 20
14.21617221160441
 30
0.0
 10
189.0482535411918
 20
14.17211249350542
 30
0.0
 10
189.0672545672957
 20
14.02272590363131
 30
0.0
 10
188.6583942247303
 20
14.08681172241258
 30
0.0
 10
188.3793710348831
 20
13.97296341411016
 30
0.0
 10
188.1018081587167
 20
13.87364095811135
 30
0.0
 10
187.80998371844
 20
13.91630687596363
 30
0.0
 10
187.7869144678658
 20
13.81321679744539
 30
0.0
 10
187.7537474383334
 20
13.78691091244466
 30
0.0
 10
187.748065396274
 20
13.83455309036303
 30
0.0
 10
187.7284214559045
 20
13.87180336115066
 30
0.0
 10
187.7095089485623
 20
13.93007387847561
 30
0.0
 10
187.6942849867707
 20
13.97385201007802
 30
0.0
 10
187.6477246372936
 20
14.08759421046311
 30
0.0
 10
187.9890897312449
 20
14.05576301120043
 30
0.0
 10
188.2679649367386
 20
14.02161435106481
 30
0.0
 10
188.2617753034906
 20
14.16913976479649
 30
0.0
 10
188.2630935452772
 20
14.24013150908829
 30
0.0
 10
188.2624831689948
 20
14.34719767958659
 30
0.0
 10
188.2625871570724
 20
14.47398529785994
 30
0.0
 10
188.2629987964054
 20
14.60849243496047
 30
0.0
 10
188.2613907841967
 20
14.73395549951181
 30
0.0
 10
188.2659902567925
 20
14.84505246719114
 30
0.0
 10
188.2564186502208
 20
14.90761886800685
 30
0.0
 10
188.2704001783691
 20
14.96595388294998
 30
0.0
 10
188.2147384386703
 20
14.95289710582235
 30
0.0
 10
188.1575655197821
 20
14.96136307749495
 30
0.0
 10
188.0616048925647
 20
14.95729976080633
 30
0.0
 10
187.9633767522821
 20
14.95970889852471
 30
0.0
 10
187.8672582457561
 20
14.95551600613384
 30
0.0
 10
187.8104648525812
 20
14.9642934644116
 30
0.0
 10
187.7550356873384
 20
14.95094936850118
 30
0.0
 10
187.7670679427919
 20
15.00036910959254
 30
0.0
 10
187.7592003173937
 20
15.04393988030392
 30
0.0
 10
187.7666295563831
 20
15.08830469118522
 30
0.0
 10
187.7551930564144
 20
15.13902297763989
 30
0.0
 10
187.8232102370134
 20
15.1216246075774
 30
0.0
 10
187.8968496879747
 20
15.13417450237186
 30
0.0
 10
188.0325064058211
 20
15.12799677011094
 30
0.0
 10
188.1884909024526
 20
15.13029203093081
 30
0.0
 10
188.3615926358144
 20
15.12940968262527
 30
0.0
 10
188.5346942964181
 20
15.13029207142405
 30
0.0
 10
188.6906789811217
 20
15.12799662955547
 30
0.0
 10
188.8263351889797
 20
15.13417486262428
 30
0.0
 10
188.8999756705652
 20
15.12162394218332
 30
0.0
 10
188.9679914174724
 20
15.1390237301214
 30
0.0
 10
188.9565590885921
 20
15.08830130414551
 30
0.0
 10
188.9639539458297
 20
15.04397060811105
 30
0.0
 10
188.956203991227
 20
15.00028307550193
 30
0.0
 10
188.9681203741877
 20
14.95063590098474
 30
0.0
 10
188.9108170223616
 20
14.96461411338422
 30
0.0
 10
188.8520145789772
 20
14.95539755673251
 30
0.0
 10
188.7525293633199
 20
14.95952268164926
 30
0.0
 10
188.649428009835
 20
14.95822760025885
 30
0.0
 10
188.5537846354573
 20
14.95854077077637
 30
0.0
 10
188.4857467971617
 20
14.95848776697142
 30
0.0
 10
188.4514462213443
 20
14.95849051871653
 30
0.0
 10
188.4418622390564
 20
14.95849128473261
 30
0.0
 11
188.4418622390564
 21
14.95849128473261
 31
0.0
 11
188.4418622390564
 21
14.92423666587182
 31
0.0
 11
188.4418622390564
 21
14.83392903432972
 31
0.0
 11
188.4418622390564
 21
14.70625272766676
 31
0.0
 11
188.4418622390564
 21
14.55989208344337
 31
0.0
 11
188.4418622390564
 21
14.41353143921998
 31
0.0
 11
188.4418622390564
 21
14.28585513255702
 31
0.0
 11
188.4418622390564
 21
14.19554750101493
 31
0.0
 11
188.4418622390564
 21
14.16129288215413
 31
0.0
 11
188.7391932644567
 21
14.22709475713766
 31
0.0
 11
189.0384623627244
 21
14.29496038212069
 31
0.0
 11
189.0405487124976
 21
14.27030727882824
 31
0.0
 11
189.0451386819986
 21
14.21607045158487
 31
0.0
 11
189.0497286514996
 21
14.16183362434148
 31
0.0
 11
189.0518150012728
 21
14.13718052104904
 31
0.0
 11
188.705639688924
 21
14.05163370140895
 31
0.0
 11
188.3669653138838
 21
13.97060877629899
 31
0.0
 11
188.0563731516688
 21
13.89862764024927
 31
0.0
 11
187.7944444777955
 21
13.8402121877899
 31
0.0
 11
187.7817515029292
 21
13.81283442738011
 31
0.0
 11
187.7569794787514
 21
13.79740260446732
 31
0.0
 11
187.7491867589502
 21
13.81910683390634
 31
0.0
 11
187.7306041194242
 21
13.87086307333783
 31
0.0
 11
187.70842483999
 21
13.93263664943349
 31
0.0
 11
187.689842200464
 21
13.98439288886498
 31
0.0
 11
187.6820494806628
 21
14.006097118304
 31
0.0
 11
187.9482776335932
 21
14.05794001759663
 31
0.0
 11
188.2626334936288
 21
14.12373968771907
 31
0.0
 11
188.2626334936288
 21
14.15236628569622
 31
0.0
 11
188.2626334936288
 21
14.22908556827496
 31
0.0
 11
188.2626334936288
 21
14.34015676842628
 31
0.0
 11
188.2626334936288
 21
14.47183911912115
 31
0.0
 11
188.2626334936288
 21
14.61039185333053
 31
0.0
 11
188.2626334936288
 21
14.7420742040254
 31
0.0
 11
188.2626334936288
 21
14.85314540417671
 31
0.0
 11
188.2626334936288
 21
14.92986468675547
 31
0.0
 11
188.2626334936288
 21
14.95849128473261
 31
0.0
 11
188.2349191321107
 21
14.95849128473261
 31
0.0
 11
188.1634452524063
 21
14.95849128473261
 31
0.0
 11
188.06571566179
 21
14.95849128473261
 31
0.0
 11
187.9592341675364
 21
14.95849128473261
 31
0.0
 11
187.8615045769201
 21
14.95849128473261
 31
0.0
 11
187.7900306972156
 21
14.95849128473261
 31
0.0
 11
187.7623163356976
 21
14.95849128473261
 31
0.0
 11
187.7623163356976
 21
14.98524451823286
 31
0.0
 11
187.7623163356976
 21
15.04410163193341
 31
0.0
 11
187.7623163356976
 21
15.10295874563396
 31
0.0
 11
187.7623163356976
 21
15.12971197913421
 31
0.0
 11
187.7958758072876
 21
15.12971197913421
 31
0.0
 11
187.8869658016031
 21
15.12971197913421
 31
0.0
 11
188.021203687963
 21
15.12971197913421
 31
0.0
 11
188.1842068356856
 21
15.12971197913421
 31
0.0
 11
188.3615926140897
 21
15.12971197913421
 31
0.0
 11
188.5389783924938
 21
15.12971197913421
 31
0.0
 11
188.7019815402164
 21
15.12971197913421
 31
0.0
 11
188.8362194265763
 21
15.12971197913421
 31
0.0
 11
188.9273094208918
 21
15.12971197913421
 31
0.0
 11
188.9608688924818
 21
15.12971197913421
 31
0.0
 11
188.9608688924818
 21
15.10295874563396
 31
0.0
 11
188.9608688924818
 21
15.04410163193341
 31
0.0
 11
188.9608688924818
 21
14.98524451823286
 31
0.0
 11
188.9608688924818
 21
14.95849128473261
 31
0.0
 11
188.9321192527877
 21
14.95849128473261
 31
0.0
 11
188.8579754451555
 21
14.95849128473261
 31
0.0
 11
188.7565951367604
 21
14.95849128473261
 31
0.0
 11
188.6461359947778
 21
14.95849128473261
 31
0.0
 11
188.5447556863827
 21
14.95849128473261
 31
0.0
 11
188.4706118787505
 21
14.95849128473261
 31
0.0
 11
188.4418622390564
 21
14.95849128473261
 31
0.0
  0
SPLINE
  5
B5
102
{ACAD_REACTORS
330
D2
102
}
330
48
100
AcDbEntity
  8
_U_30EC_U_30A4_U_30E4_U_30FC_1
  6
Continuous
 62
     2
100
AcDbSpline
210
0.0
220
0.0
230
1.0
 70
    11
 71
     3
 72
    91
 73
    87
 74
    85
 42
0.000000001
 43
0.0000000001
 44
0.00000001
 40
0.0
 40
0.0
 40
0.0
 40
0.0
 40
0.0345987051695718
 40
0.1258134969461085
 40
0.2547723404888703
 40
0.4026032099153556
 40
0.550434079341642
 40
0.6793929228835227
 40
0.7706077146570467
 40
0.8052064287780072
 40
1.124852390615192
 40
1.427402236308793
 40
1.706356627453431
 40
1.955541417875104
 40
2.169485938566249
 40
2.344350786664708
 40
2.480568411561839
 40
2.590440557428834
 40
2.649189927150964
 40
2.74932064330618
 40
2.912632739879887
 40
3.147745656000078
 40
3.244827496384924
 40
3.338490056946565
 40
3.583815413206993
 40
3.761423943238348
 40
3.886956104362509
 40
3.985855451886649
 40
4.091766255337477
 40
4.250186473811698
 40
4.422734315084365
 40
4.628285684838476
 40
4.872093227758319
 40
5.152549652145431
 40
5.464967135837409
 40
5.803201477852323
 40
6.160362988813798
 40
6.193449448275882
 40
6.284170385501536
 40
6.419718138764406
 40
6.587285046385684
 40
6.77406344672357
 40
6.967245678113553
 40
7.154024078817596
 40
7.321590987025953
 40
7.457138740890311
 40
7.547859678556076
 40
7.580946138182636
 40
7.608533084714688
 40
7.669224367077662
 40
7.729915649429877
 40
7.75750259594993
 40
7.790278062553384
 40
7.880146277430882
 40
8.014419963180345
 40
8.180411842397845
 40
8.365434637679314
 40
8.556801071622615
 40
8.741823866830728
 40
8.907815745916238
 40
9.042089431507392
 40
9.131957646249518
 40
9.164733112797094
 40
9.415425063140011
 40
9.667986180958478
 40
9.694169807462616
 40
9.756607686047548
 40
9.831130315322355
 40
9.893568193899762
 40
9.919751820398579
 40
9.95096796469041
 40
9.996421631210518
 40
10.22087981037441
 40
10.44341866197529
 40
10.47847970788842
 40
10.57091337438742
 40
10.7015954546122
 40
10.85140174170353
 40
11.0012080288047
 40
11.13189010907376
 40
11.22432377583007
 40
11.25938480938953
 40
11.28697175596141
 40
11.34766303835915
 40
11.40835432042065
 40
11.435941258921
 40
11.435941258921
 40
11.435941258921
 40
11.435941258921
 10
190.0818114333289
 20
15.55242795125075
 30
0.0
 10
190.070278584494
 20
15.55242790287913
 30
0.0
 10
190.0283409444999
 20
15.55242773704162
 30
0.0
 10
189.9434129719025
 20
15.55243125800907
 30
0.0
 10
189.8207688553129
 20
15.55240926435877
 30
0.0
 10
189.6791206916993
 20
15.55250801177052
 30
0.0
 10
189.537975369849
 20
15.55214686232418
 30
0.0
 10
189.4141351317905
 20
15.55321883609087
 30
0.0
 10
189.3317217825382
 20
15.55092249091266
 30
0.0
 10
189.1727791229694
 20
15.56048569373419
 30
0.0
 10
189.3503402353376
 20
15.19785394311367
 30
0.0
 10
189.3379739205454
 20
14.95243127723112
 30
0.0
 10
189.4064519473865
 20
14.66862501324834
 30
0.0
 10
189.4693024320971
 20
14.43250999939032
 30
0.0
 10
189.5452253431729
 20
14.23326740396127
 30
0.0
 10
189.6303189577016
 20
14.07745347451371
 30
0.0
 10
189.7244607592935
 20
13.9765785778139
 30
0.0
 10
189.8282648207728
 20
13.92465852638961
 30
0.0
 10
189.9125872030773
 20
13.97606484379616
 30
0.0
 10
189.9351322179452
 20
14.09144544037514
 30
0.0
 10
189.9745730975371
 20
14.21885149702377
 30
0.0
 10
189.9202919734943
 20
14.53622328086754
 30
0.0
 10
190.0451218072472
 20
14.38982180140899
 30
0.0
 10
190.2019291513603
 20
14.35795300331173
 30
0.0
 10
190.0947720007056
 20
14.12421357767625
 30
0.0
 10
190.0808711209868
 20
13.95972776583653
 30
0.0
 10
190.0234709467225
 20
13.83130869122482
 30
0.0
 10
189.9335020145009
 20
13.76018802352824
 30
0.0
 10
189.8095274657879
 20
13.74432324142251
 30
0.0
 10
189.6634273196861
 20
13.77993797554169
 30
0.0
 10
189.5243894320284
 20
13.90000570500274
 30
0.0
 10
189.4102003962145
 20
14.07435682550317
 30
0.0
 10
189.3146141301486
 20
14.29946603111237
 30
0.0
 10
189.2318652572626
 20
14.56388246006439
 30
0.0
 10
189.1807179256412
 20
14.88187933098541
 30
0.0
 10
189.0770189207338
 20
15.15543728488911
 30
0.0
 10
189.2042841208523
 20
15.56005818612865
 30
0.0
 10
189.0357890623019
 20
15.55112367849677
 30
0.0
 10
188.9511995787078
 20
15.5531596141836
 30
0.0
 10
188.8189876387628
 20
15.55213937388404
 30
0.0
 10
188.6560505094103
 20
15.55253230318427
 30
0.0
 10
188.4733759170534
 20
15.55235696313367
 30
0.0
 10
188.2847057373382
 20
15.55260105307466
 30
0.0
 10
188.1014469020189
 20
15.55185657906235
 30
0.0
 10
187.9404746832718
 20
15.55416360522423
 30
0.0
 10
187.8029808335275
 20
15.5479980488366
 30
0.0
 10
187.7289590372311
 20
15.5603283845821
 30
0.0
 10
187.6613215186856
 20
15.54329323723554
 30
0.0
 10
187.673237371927
 20
15.59524438447526
 30
0.0
 10
187.6655677285693
 20
15.64071424966526
 30
0.0
 10
187.6732592225115
 20
15.68614453703703
 30
0.0
 10
187.6613141797761
 20
15.73802395984567
 30
0.0
 10
187.7283588305867
 20
15.72119143490261
 30
0.0
 10
187.8017375665676
 20
15.73335409092668
 30
0.0
 10
187.9379128305272
 20
15.72727231074956
 30
0.0
 10
188.0973811801512
 20
15.72954834315055
 30
0.0
 10
188.2789173085836
 20
15.72881233998959
 30
0.0
 10
188.4658034862179
 20
15.7290595419613
 30
0.0
 10
188.6468012316836
 20
15.72886400799251
 30
0.0
 10
188.8080802578878
 20
15.72932234714836
 30
0.0
 10
188.9393882124887
 20
15.72812673751203
 30
0.0
 10
189.0225051322596
 20
15.7305134731974
 30
0.0
 10
189.1556236547815
 20
15.7223060572546
 30
0.0
 10
189.0645893502659
 20
15.97752868952652
 30
0.0
 10
188.9789633074419
 20
16.24164358328244
 30
0.0
 10
189.0990589003456
 20
16.22904442969162
 30
0.0
 10
189.1514264948543
 20
16.22694235763072
 30
0.0
 10
189.2214497569716
 20
16.22535399889654
 30
0.0
 10
189.2671922337817
 20
16.2160256753811
 30
0.0
 10
189.3220812646933
 20
16.22545966915424
 30
0.0
 10
189.2963574785681
 20
16.17733028655169
 30
0.0
 10
189.1825397571453
 20
16.18266829744167
 30
0.0
 10
189.3159346621136
 20
15.95449174576773
 30
0.0
 10
189.1943658735469
 20
15.7215685659592
 30
0.0
 10
189.3223188769412
 20
15.73087258884436
 30
0.0
 10
189.4049048406459
 20
15.72801001754677
 30
0.0
 10
189.5307214850824
 20
15.72923437412299
 30
0.0
 10
189.6741469838057
 20
15.72932431888961
 30
0.0
 10
189.8157420951728
 20
15.7274616318385
 30
0.0
 10
189.9459127249967
 20
15.73333075937159
 30
0.0
 10
190.0193452286191
 20
15.72070340823199
 30
0.0
 10
190.0891112922096
 20
15.73877563110409
 30
0.0
 10
190.0775772605396
 20
15.68612850546323
 30
0.0
 10
190.0833184346682
 20
15.64221317686545
 30
0.0
 10
190.081661577091
 20
15.59089982676547
 30
0.0
 10
190.081775756167
 20
15.56158792021633
 30
0.0
 10
190.0818114333289
 20
15.55242795125075
 30
0.0
 11
190.0818114333289
 21
15.55242795125075
 31
0.0
 11
190.0472127192051
 21
15.55242795125075
 31
0.0
 11
189.9559979274241
 21
15.55242795125075
 31
0.0
 11
189.8270390838717
 21
15.55242795125075
 31
0.0
 11
189.6792082144336
 21
15.55242795125075
 31
0.0
 11
189.5313773449955
 21
15.55242795125075
 31
0.0
 11
189.4024185014431
 21
15.55242795125075
 31
0.0
 11
189.3112037096621
 21
15.55242795125075
 31
0.0
 11
189.2766049955383
 21
15.55242795125075
 31
0.0
 11
189.3083140497694
 21
15.23435864930119
 31
0.0
 11
189.3527866656866
 21
14.93509522788078
 31
0.0
 11
189.4092389118321
 21
14.66191269512574
 31
0.0
 11
189.4768868567479
 21
14.42208605917225
 31
0.0
 11
189.5549465689762
 21
14.22289032815652
 31
0.0
 11
189.6426341170592
 21
14.07160051021475
 31
0.0
 11
189.7391655695389
 21
13.97549161348314
 31
0.0
 11
189.8437569949575
 21
13.94183864609789
 31
0.0
 11
189.8943077302785
 21
13.97177376978832
 31
0.0
 11
189.9310588991551
 21
14.06491619815045
 31
0.0
 11
189.9562640977528
 21
14.22627151712052
 31
0.0
 11
189.9721769222368
 21
14.46084531263479
 31
0.0
 11
190.0494082682582
 21
14.40202182306615
 31
0.0
 11
190.1327184184385
 21
14.35921885432687
 31
0.0
 11
190.1066365811217
 21
14.11528388661007
 31
0.0
 11
190.0673317805105
 21
13.94207902887559
 31
0.0
 11
190.0105702596765
 21
13.83011272445914
 31
0.0
 11
189.9321182616911
 21
13.76989341669642
 31
0.0
 11
189.8277420296257
 21
13.75192954892314
 31
0.0
 11
189.6738595065098
 21
13.78957440012358
 31
0.0
 11
189.5388902376748
 21
13.897073488774
 31
0.0
 11
189.4221739916163
 21
14.06627361744806
 31
0.0
 11
189.32305053683
 21
14.2890215887194
 31
0.0
 11
189.2408596418113
 21
14.55716420516169
 31
0.0
 11
189.1749410750559
 21
14.86254826934858
 31
0.0
 11
189.1246346050594
 21
15.19702058385371
 31
0.0
 11
189.0892800003172
 21
15.55242795125075
 31
0.0
 11
189.0561935405844
 21
15.55242795125075
 31
0.0
 11
188.9654726026075
 21
15.55242795125075
 31
0.0
 11
188.8299248482186
 21
15.55242795125075
 31
0.0
 11
188.6623579392495
 21
15.55242795125075
 31
0.0
 11
188.4755795375324
 21
15.55242795125075
 31
0.0
 11
188.2823973048993
 21
15.55242795125075
 31
0.0
 11
188.0956189031822
 21
15.55242795125075
 31
0.0
 11
187.9280519942131
 21
15.55242795125075
 31
0.0
 11
187.7925042398242
 21
15.55242795125075
 31
0.0
 11
187.7017833018473
 21
15.55242795125075
 31
0.0
 11
187.6686968421145
 21
15.55242795125075
 31
0.0
 11
187.6686968421145
 21
15.58001489785844
 31
0.0
 11
187.6686968421145
 21
15.64070618039535
 31
0.0
 11
187.6686968421145
 21
15.70139746293226
 31
0.0
 11
187.6686968421145
 21
15.72898440953995
 31
0.0
 11
187.7014723087631
 21
15.72898440953995
 31
0.0
 11
187.7913405237673
 21
15.72898440953995
 31
0.0
 11
187.9256142097148
 21
15.72898440953995
 31
0.0
 11
188.0916060891932
 21
15.72898440953995
 31
0.0
 11
188.2766288847901
 21
15.72898440953995
 31
0.0
 11
188.4679953190932
 21
15.72898440953995
 31
0.0
 11
188.6530181146902
 21
15.72898440953995
 31
0.0
 11
188.8190099941685
 21
15.72898440953995
 31
0.0
 11
188.953283680116
 21
15.72898440953995
 31
0.0
 11
189.0431518951202
 21
15.72898440953995
 31
0.0
 11
189.0759273617688
 21
15.72898440953995
 31
0.0
 11
189.0659183950103
 21
15.97947647544955
 31
0.0
 11
189.0599112510664
 21
16.23196614552528
 31
0.0
 11
189.086057587066
 21
16.23056921608119
 31
0.0
 11
189.148406542142
 21
16.22723807663758
 31
0.0
 11
189.22282303691
 21
16.22326220052746
 31
0.0
 11
189.2851719919859
 21
16.21993106108386
 31
0.0
 11
189.3113183279855
 21
16.21853413163976
 31
0.0
 11
189.298293111304
 21
16.19016528616077
 31
0.0
 11
189.2551649266405
 21
16.17581274276162
 31
0.0
 11
189.2574991961821
 21
15.95136670115105
 31
0.0
 11
189.2658452735902
 21
15.72898440953995
 31
0.0
 11
189.3009063195165
 21
15.72898440953995
 31
0.0
 11
189.3933399860494
 21
15.72898440953995
 31
0.0
 11
189.52402206632
 21
15.72898440953995
 31
0.0
 11
189.6738283534596
 21
15.72898440953995
 31
0.0
 11
189.8236346405991
 21
15.72898440953995
 31
0.0
 11
189.9543167208697
 21
15.72898440953995
 31
0.0
 11
190.0467503874027
 21
15.72898440953995
 31
0.0
 11
190.0818114333289
 21
15.72898440953995
 31
0.0
 11
190.0818114333289
 21
15.70139746293226
 31
0.0
 11
190.0818114333289
 21
15.64070618039535
 31
0.0
 11
190.0818114333289
 21
15.58001489785844
 31
0.0
 11
190.0818114333289
 21
15.55242795125075
 31
0.0
  0
SPLINE
  5
B6
102
{ACAD_REACTORS
330
D3
102
}
330
48
100
AcDbEntity
  8
_U_30EC_U_30A4_U_30E4_U_30FC_1
  6
Continuous
 62
     2
100
AcDbSpline
210
0.0
220
0.0
230
1.0
 70
    11
 71
     3
 72
   118
 73
   114
 74
   112
 42
0.000000001
 43
0.0000000001
 44
0.00000001
 40
0.0
 40
0.0
 40
0.0
 40
0.0
 40
0.1054708162973307
 40
0.2466098270051879
 40
0.3965912874591382
 40
0.5285525069753961
 40
0.6156245055641708
 40
0.6431434105796684
 40
0.7036850037985052
 40
0.7642265984502944
 40
0.791745505235308
 40
0.9287404319988709
 40
1.106572819087906
 40
1.287544879680908
 40
1.317578308030425
 40
1.399928030857062
 40
1.522968204799838
 40
1.675072986590459
 40
1.844616533180538
 40
2.019973001638601
 40
2.189516548879913
 40
2.341621331585252
 40
2.464661506320386
 40
2.547011229646952
 40
2.577044658167916
 40
2.603797890892958
 40
2.662655002908645
 40
2.721512114949428
 40
2.74826534770258
 40
2.774215307344656
 40
2.845959313406986
 40
2.954338556588185
 40
3.090194227585362
 40
3.244367517100329
 40
3.407699615844086
 40
3.571031714539235
 40
3.72520500391991
 40
3.861060674729412
 40
3.969439917716103
 40
4.041183923628777
 40
4.067133883212771
 40
4.311886746011984
 40
4.547897258335361
 40
4.764747083043813
 40
4.952749679951647
 40
5.045772974195692
 40
5.137862019644762
 40
5.330543169792795
 40
5.553448265243786
 40
5.795083855887947
 40
6.043293412177013
 40
6.285761695540972
 40
6.313902908752484
 40
6.384255941793074
 40
6.475714884766663
 40
6.567173827758753
 40
6.63752686083956
 40
6.665668074073923
 40
6.692018920327896
 40
6.74999078207096
 40
6.807962643790325
 40
6.834313490017798
 40
6.856393084245076
 40
6.9133351956497
 40
6.991194817302392
 40
7.076026942283682
 40
7.153886563725201
 40
7.210828674844755
 40
7.232908268931118
 40
7.258199334923639
 40
7.324875781592286
 40
7.419142481924946
 40
7.527204308841886
 40
7.635266135230466
 40
7.729532834168448
 40
7.79620927929277
 40
7.821500344594717
 40
7.844652988850787
 40
7.899863140541509
 40
7.96575912805359
 40
8.020969279770846
 40
8.044121924046284
 40
8.069356610160337
 40
8.109134395441082
 40
8.132238100190794
 40
8.193147867786156
 40
8.279261678876331
 40
8.377977512673544
 40
8.476693347146327
 40
8.562807160411381
 40
8.623716930826166
 40
8.64682063685312
 40
8.671988793773933
 40
8.734909185827872
 40
8.816705695188586
 40
8.898502204815186
 40
8.961422597377675
 40
8.986590754550788
 40
9.012941600732944
 40
9.070913462380023
 40
9.128885324081514
 40
9.155236170324832
 40
9.180404327928875
 40
9.243324721947976
 40
9.32512123421177
 40
9.406917746637452
 40
9.469838141977936
 40
9.49500628827071
 40
9.517811184378852
 40
9.57219209048685
 40
9.637098333281076
 40
9.691479239515274
 40
9.714284125643312
 40
9.714284125643312
 40
9.714284125643312
 40
9.714284125643312
 10
185.2874469028653
 20
15.26889163187718
 30
0.0
 10
185.3090990569037
 20
15.2411186924281
 30
0.0
 10
185.3597257109473
 20
15.17618054561232
 30
0.0
 10
185.4349383202591
 20
15.06891060312894
 30
0.0
 10
185.5248482274346
 20
14.95377438266623
 30
0.0
 10
185.5709169676674
 20
14.85357045748318
 30
0.0
 10
185.6655825294653
 20
14.78434006814942
 30
0.0
 10
185.6204439320412
 20
14.73771639678269
 30
0.0
 10
185.5947047785789
 20
14.69660308866037
 30
0.0
 10
185.5645196708013
 20
14.66065971727935
 30
0.0
 10
185.5193684730562
 20
14.58579782596086
 30
0.0
 10
185.4710504458562
 20
14.80782524253598
 30
0.0
 10
185.3968539713073
 20
14.84510677337708
 30
0.0
 10
185.2836047324606
 20
15.11610202130597
 30
0.0
 10
185.2885133578169
 20
15.00095328446226
 30
0.0
 10
185.2868486556306
 20
14.92836675781624
 30
0.0
 10
185.2876830076713
 20
14.80625588483983
 30
0.0
 10
185.2873609540264
 20
14.65913800810457
 30
0.0
 10
185.2875076912456
 20
14.49307063956554
 30
0.0
 10
185.2872950092722
 20
14.32187554608599
 30
0.0
 10
185.2879497252034
 20
14.15552828635495
 30
0.0
 10
185.2859192461139
 20
14.00935173055691
 30
0.0
 10
185.291346039993
 20
13.88471047474607
 30
0.0
 10
185.2804930868708
 20
13.81718656540624
 30
0.0
 10
185.2956739155555
 20
13.7554906141702
 30
0.0
 10
185.2457895108134
 20
13.76727503896998
 30
0.0
 10
185.2017150342523
 20
13.75943822779967
 30
0.0
 10
185.1582371630201
 20
13.76760441372699
 30
0.0
 10
185.1092346786489
 20
13.75538056738466
 30
0.0
 10
185.1218731234825
 20
13.8096066724931
 30
0.0
 10
185.113018296845
 20
13.86936918907555
 30
0.0
 10
185.1175058770315
 20
13.97922029044368
 30
0.0
 10
185.1157960135992
 20
14.11029975405675
 30
0.0
 10
185.1163550915987
 20
14.26198011444325
 30
0.0
 10
185.1161928768695
 20
14.42211074929951
 30
0.0
 10
185.1162269924675
 20
14.58236865674563
 30
0.0
 10
185.1162514960127
 20
14.73370247520436
 30
0.0
 10
185.1161453543227
 20
14.86582156338598
 30
0.0
 10
185.1164299141931
 20
14.9729480253319
 30
0.0
 10
185.1158675547569
 20
15.0380861957947
 30
0.0
 10
185.1180765083689
 20
15.16618957858674
 30
0.0
 10
185.0319435998603
 20
14.79097610391574
 30
0.0
 10
184.9555140818499
 20
14.63918193123391
 30
0.0
 10
184.8660040767833
 20
14.47766206446305
 30
0.0
 10
184.7640413217325
 20
14.20471848820164
 30
0.0
 10
184.7187976491039
 20
14.36717346596511
 30
0.0
 10
184.6102355941671
 20
14.45605432058117
 30
0.0
 10
184.7995791751753
 20
14.60549794961407
 30
0.0
 10
184.8565340545701
 20
14.79749136974922
 30
0.0
 10
184.9717520993352
 20
15.02899622906754
 30
0.0
 10
184.9940151630133
 20
15.21797259759062
 30
0.0
 10
185.177190515214
 20
15.49454089325928
 30
0.0
 10
185.0538033597553
 20
15.48698978832092
 30
0.0
 10
184.9925684166834
 20
15.48856772366116
 30
0.0
 10
184.9081999617065
 20
15.48882592573671
 30
0.0
 10
184.8204235085965
 20
15.48544845751203
 30
0.0
 10
184.7656768696123
 20
15.49394814982019
 30
0.0
 10
184.7104703026024
 20
15.48048561049785
 30
0.0
 10
184.7222823035536
 20
15.52931442126761
 30
0.0
 10
184.7142496151794
 20
15.57269004896706
 30
0.0
 10
184.7228186104679
 20
15.6150943830957
 30
0.0
 10
184.7102943409156
 20
15.66267796552115
 30
0.0
 10
184.7555101538735
 20
15.65267212995106
 30
0.0
 10
184.8014815562723
 20
15.65894105174058
 30
0.0
 10
184.877722204771
 20
15.65593561405869
 30
0.0
 10
184.9561296131994
 20
15.65770448278538
 30
0.0
 10
185.0323992648933
 20
15.65464793981657
 30
0.0
 10
185.0783009459475
 20
15.66103971376174
 30
0.0
 10
185.1231733965401
 20
15.65093822978892
 30
0.0
 10
185.1105552275635
 20
15.70157201581895
 30
0.0
 10
185.1191936582707
 20
15.75501261882067
 30
0.0
 10
185.1152361595443
 20
15.84863255131676
 30
0.0
 10
185.1162325068335
 20
15.95112606688921
 30
0.0
 10
185.1171927413073
 20
16.0535327024816
 30
0.0
 10
185.1133211458007
 20
16.14735929609318
 30
0.0
 10
185.1217789814364
 20
16.20036542840349
 30
0.0
 10
185.1093075932836
 20
16.25211435651185
 30
0.0
 10
185.154210638985
 20
16.23850747226755
 30
0.0
 10
185.1955083836772
 20
16.24100480320582
 30
0.0
 10
185.259534428105
 20
16.23648060574484
 30
0.0
 10
185.2986111148785
 20
16.22781003043306
 30
0.0
 10
185.3476543498741
 20
16.23515102070685
 30
0.0
 10
185.322508003059
 20
16.19602896051753
 30
0.0
 10
185.2815901333723
 20
16.20563842455804
 30
0.0
 10
185.2910109616604
 20
16.15540148169775
 30
0.0
 10
185.2855647318746
 20
16.10385945639487
 30
0.0
 10
185.2881699601803
 20
16.01959707584517
 30
0.0
 10
185.2870102202154
 20
15.92559135583405
 30
0.0
 10
185.2883591064231
 20
15.83196865395523
 30
0.0
 10
185.2849970101508
 20
15.74679517552219
 30
0.0
 10
185.2920959917769
 20
15.69716856072042
 30
0.0
 10
185.2812569154545
 20
15.64993694969985
 30
0.0
 10
185.3304010225246
 20
15.6620167493685
 30
0.0
 10
185.3794877630146
 20
15.65447393363008
 30
0.0
 10
185.4573714280642
 20
15.6568607036143
 30
0.0
 10
185.5350365172896
 20
15.65899381905411
 30
0.0
 10
185.5845393931356
 20
15.65193391922452
 30
0.0
 10
185.6344594750639
 20
15.66360151936211
 30
0.0
 10
185.6223198516882
 20
15.6154023537139
 30
0.0
 10
185.6305838229143
 20
15.57249219801233
 30
0.0
 10
185.6223198650785
 20
15.52958201851382
 30
0.0
 10
185.6344594549855
 20
15.48138288754862
 30
0.0
 10
185.5845395158748
 20
15.4930503447151
 30
0.0
 10
185.5350350651203
 20
15.48599202435043
 30
0.0
 10
185.4573784382973
 20
15.48811665228601
 30
0.0
 10
185.379464386576
 20
15.49053389365758
 30
0.0
 10
185.3304500352717
 20
15.48291848194483
 30
0.0
 10
185.2813246108943
 20
15.4950795255759
 30
0.0
 10
185.2915559988571
 20
15.45073013424156
 30
0.0
 10
185.2856677678054
 20
15.4092543620291
 30
0.0
 10
185.2878788305569
 20
15.34915394315301
 30
0.0
 10
185.2874109346146
 20
15.30225782762888
 30
0.0
 10
185.2874386992913
 20
15.27650146418195
 30
0.0
 10
185.2874469028653
 20
15.26889163187718
 30
0.0
 11
185.2874469028653
 21
15.26889163187718
 31
0.0
 11
185.3516977534484
 21
15.18524999634254
 31
0.0
 11
185.4348258835499
 21
15.07118889748218
 31
0.0
 11
185.5216831568896
 21
14.9489176719572
 31
0.0
 11
185.5971214371872
 21
14.84064565642873
 31
0.0
 11
185.6459925881625
 21
14.76858218755787
 31
0.0
 11
185.6296821285092
 21
14.74641782124396
 31
0.0
 11
185.5937991172719
 21
14.69765621535336
 31
0.0
 11
185.5579161060347
 21
14.64889460946277
 31
0.0
 11
185.5416056463814
 21
14.62673024314886
 31
0.0
 11
185.4763067109446
 21
14.7471613902381
 31
0.0
 11
185.3848434243234
 21
14.89966983670204
 31
0.0
 11
185.2874469028653
 21
15.05219788193139
 31
0.0
 11
185.2874469028653
 21
15.0221644532825
 31
0.0
 11
185.2874469028653
 21
14.9398147295678
 31
0.0
 11
185.2874469028653
 21
14.81677455413525
 31
0.0
 11
185.2874469028653
 21
14.6646697703328
 31
0.0
 11
185.2874469028653
 21
14.49512622150842
 31
0.0
 11
185.2874469028653
 21
14.31976975101006
 31
0.0
 11
185.2874469028653
 21
14.15022620218568
 31
0.0
 11
185.2874469028653
 21
13.99812141838323
 31
0.0
 11
185.2874469028653
 21
13.87508124295068
 31
0.0
 11
185.2874469028653
 21
13.79273151923598
 31
0.0
 11
185.2874469028653
 21
13.76269809058709
 31
0.0
 11
185.2606936700409
 21
13.76269809058709
 31
0.0
 11
185.2018365578272
 21
13.76269809058709
 31
0.0
 11
185.1429794456135
 21
13.76269809058709
 31
0.0
 11
185.1162262127891
 21
13.76269809058709
 31
0.0
 11
185.1162262127891
 21
13.78864805031247
 31
0.0
 11
185.1162262127891
 21
13.86039205661205
 31
0.0
 11
185.1162262127891
 21
13.96877130017099
 31
0.0
 11
185.1162262127891
 21
14.10462697167444
 31
0.0
 11
185.1162262127891
 21
14.25880026180758
 31
0.0
 11
185.1162262127891
 21
14.42213236125555
 31
0.0
 11
185.1162262127891
 21
14.58546446070353
 31
0.0
 11
185.1162262127891
 21
14.73963775083667
 31
0.0
 11
185.1162262127891
 21
14.87549342234012
 31
0.0
 11
185.1162262127891
 21
14.98387266589906
 31
0.0
 11
185.1162262127891
 21
15.05561667219864
 31
0.0
 11
185.1162262127891
 21
15.08156663192402
 31
0.0
 11
185.0379865861721
 21
14.84965603302369
 31
0.0
 11
184.9497110789303
 21
14.63077616328675
 31
0.0
 11
184.8544106930045
 21
14.43598991333544
 31
0.0
 11
184.7550964303355
 21
14.27636017379199
 31
0.0
 11
184.7109198342406
 21
14.35822446196596
 31
0.0
 11
184.6588057383481
 21
14.43414885430808
 31
0.0
 11
184.76273025903
 21
14.59640087926754
 31
0.0
 11
184.8629319864735
 21
14.79551465421778
 31
0.0
 11
184.9550446607902
 21
15.01890447916193
 31
0.0
 11
185.0347020220912
 21
15.25398465410317
 31
0.0
 11
185.0975378104881
 21
15.48816947904463
 31
0.0
 11
185.0693965972143
 21
15.48816947904463
 31
0.0
 11
184.9990435640298
 21
15.48816947904463
 31
0.0
 11
184.9075846208899
 21
15.48816947904463
 31
0.0
 11
184.81612567775
 21
15.48816947904463
 31
0.0
 11
184.7457726445654
 21
15.48816947904463
 31
0.0
 11
184.7176314312916
 21
15.48816947904463
 31
0.0
 11
184.7176314312916
 21
15.5145203253922
 31
0.0
 11
184.7176314312916
 21
15.57249218735686
 31
0.0
 11
184.7176314312916
 21
15.63046404932152
 31
0.0
 11
184.7176314312916
 21
15.65681489566909
 31
0.0
 11
184.739711025602
 21
15.65681489566909
 31
0.0
 11
184.7966531372444
 21
15.65681489566909
 31
0.0
 11
184.8745127592862
 21
15.65681489566909
 31
0.0
 11
184.9593448847945
 21
15.65681489566909
 31
0.0
 11
185.0372045068362
 21
15.65681489566909
 31
0.0
 11
185.0941466184787
 21
15.65681489566909
 31
0.0
 11
185.1162262127891
 21
15.65681489566909
 31
0.0
 11
185.1162262127891
 21
15.6821059617435
 31
0.0
 11
185.1162262127891
 21
15.74878240866694
 31
0.0
 11
185.1162262127891
 21
15.84304910948974
 31
0.0
 11
185.1162262127891
 21
15.95111093726221
 31
0.0
 11
185.1162262127891
 21
16.05917276503468
 31
0.0
 11
185.1162262127891
 21
16.15343946585748
 31
0.0
 11
185.1162262127891
 21
16.22011591278092
 31
0.0
 11
185.1162262127891
 21
16.24540697885533
 31
0.0
 11
185.1393181988666
 21
16.24373213107797
 31
0.0
 11
185.1943837041285
 21
16.23973826330118
 31
0.0
 11
185.2601070491183
 21
16.23497138885793
 31
0.0
 11
185.3151725543802
 21
16.23097752108115
 31
0.0
 11
185.3382645404577
 21
16.22930267330379
 31
0.0
 11
185.3249012644361
 21
16.20789677921188
 31
0.0
 11
185.2874469028653
 21
16.19450114553466
 31
0.0
 11
185.2874469028653
 21
16.17139743948575
 31
0.0
 11
185.2874469028653
 21
16.11048766899317
 31
0.0
 11
185.2874469028653
 21
16.02437385553813
 31
0.0
 11
185.2874469028653
 21
15.92565802060187
 31
0.0
 11
185.2874469028653
 21
15.82694218566562
 31
0.0
 11
185.2874469028653
 21
15.74082837221058
 31
0.0
 11
185.2874469028653
 21
15.679918601718
 31
0.0
 11
185.2874469028653
 21
15.65681489566909
 31
0.0
 11
185.3126150604809
 21
15.65681489566909
 31
0.0
 11
185.3755354545199
 21
15.65681489566909
 31
0.0
 11
185.4573319667706
 21
15.65681489566909
 31
0.0
 11
185.5391284790213
 21
15.65681489566909
 31
0.0
 11
185.6020488730603
 21
15.65681489566909
 31
0.0
 11
185.6272170306759
 21
15.65681489566909
 31
0.0
 11
185.6272170306759
 21
15.63046404932152
 31
0.0
 11
185.6272170306759
 21
15.57249218735686
 31
0.0
 11
185.6272170306759
 21
15.5145203253922
 31
0.0
 11
185.6272170306759
 21
15.48816947904463
 31
0.0
 11
185.6020488730603
 21
15.48816947904463
 31
0.0
 11
185.5391284790213
 21
15.48816947904463
 31
0.0
 11
185.4573319667706
 21
15.48816947904463
 31
0.0
 11
185.3755354545199
 21
15.48816947904463
 31
0.0
 11
185.3126150604809
 21
15.48816947904463
 31
0.0
 11
185.2874469028653
 21
15.48816947904463
 31
0.0
 11
185.2874469028653
 21
15.46536458293922
 31
0.0
 11
185.2874469028653
 21
15.41098367684169
 31
0.0
 11
185.2874469028653
 21
15.34607743408012
 31
0.0
 11
185.2874469028653
 21
15.29169652798259
 31
0.0
 11
185.2874469028653
 21
15.26889163187718
 31
0.0
  0
SPLINE
  5
B7
102
{ACAD_REACTORS
330
D4
102
}
330
48
100
AcDbEntity
  8
_U_30EC_U_30A4_U_30E4_U_30FC_1
  6
Continuous
 62
     2
100
AcDbSpline
210
0.0
220
0.0
230
1.0
 70
    11
 71
     3
 72
    47
 73
    43
 74
    41
 42
0.000000001
 43
0.0000000001
 44
0.00000001
 40
0.0
 40
0.0
 40
0.0
 40
0.0
 40
0.2207912809957201
 40
0.4459404186303011
 40
0.4902387190458663
 40
0.5327473892721908
 40
0.5742260451223808
 40
0.6155432630559667
 40
0.6568164066314868
 40
0.6982511618778366
 40
0.7407663929315443
 40
0.7851366743174072
 40
1.010288833836205
 40
1.231080507002053
 40
1.451765243652279
 40
1.676638205891568
 40
1.720461045359539
 40
1.830018144043404
 40
1.972442372353035
 40
2.114866600677403
 40
2.224423699395028
 40
2.268246538883269
 40
2.4936288012071
 40
2.715602830286501
 40
2.934211330706243
 40
3.149502369855233
 40
3.231387784850821
 40
3.318231873853914
 40
3.405143198197816
 40
3.486970301720224
 40
3.702258172493662
 40
3.920866283533881
 40
4.142839325931672
 40
4.368221903865134
 40
4.412044743359617
 40
4.521601842095627
 40
4.664026070452108
 40
4.806450298808818
 40
4.916007397546512
 40
4.959830237042834
 40
5.184703515846869
 40
5.405387250767243
 40
5.405387250767243
 40
5.405387250767243
 40
5.405387250767243
 10
182.6507427258645
 20
15.73406440953869
 30
0.0
 10
182.6568139420002
 20
15.79758482501206
 30
0.0
 10
182.6690762107243
 20
15.92587938689623
 30
0.0
 10
182.5604706879414
 20
16.20166220174074
 30
0.0
 10
182.6761985896604
 20
16.1718813343205
 30
0.0
 10
182.7171842509016
 20
16.16765556262818
 30
0.0
 10
182.7591205797518
 20
16.16310446389603
 30
0.0
 10
182.800419662571
 20
16.16201982929484
 30
0.0
 10
182.8417032115555
 20
16.16310338195224
 30
0.0
 10
182.8836148270647
 20
16.16766112711341
 30
0.0
 10
182.9245983549019
 20
16.17187430209725
 30
0.0
 10
183.0404922843487
 20
16.2017761131753
 30
0.0
 10
182.9295652727457
 20
15.92339806609889
 30
0.0
 10
182.9574856365268
 20
15.74283140824949
 30
0.0
 10
182.9404267346969
 20
15.50961042346469
 30
0.0
 10
182.9414637282105
 20
15.34906622543143
 30
0.0
 10
182.9414099399405
 20
15.22284817558718
 30
0.0
 10
182.9414277372482
 20
15.12428963336238
 30
0.0
 10
182.9414188581081
 20
14.99280702442959
 30
0.0
 10
182.9414263928035
 20
14.86132844968646
 30
0.0
 10
182.941412940513
 20
14.76276222694088
 30
0.0
 10
182.9414531717493
 20
14.63639735624149
 30
0.0
 10
182.9406746403818
 20
14.47482068822867
 30
0.0
 10
182.9565958319268
 20
14.24361821892911
 30
0.0
 10
182.9333468885408
 20
14.05874351972
 30
0.0
 10
183.0360183444366
 20
13.78935602770054
 30
0.0
 10
182.8820238362836
 20
13.82660112685815
 30
0.0
 10
182.8004129802833
 20
13.82137994680531
 30
0.0
 10
182.7188192292583
 20
13.82660620378348
 30
0.0
 10
182.5648513666844
 20
13.78937069885385
 30
0.0
 10
182.6674183421917
 20
14.05875129862878
 30
0.0
 10
182.6442045316088
 20
14.24361585325412
 30
0.0
 10
182.6600444655138
 20
14.47482218565635
 30
0.0
 10
182.6593296313429
 20
14.636397123085
 30
0.0
 10
182.6593664569907
 20
14.76276231210517
 30
0.0
 10
182.6593549000271
 20
14.86132756635978
 30
0.0
 10
182.6593575019214
 20
14.99281127417217
 30
0.0
 10
182.659364853178
 20
15.12427548031196
 30
0.0
 10
182.6593442541352
 20
15.22287786275322
 30
0.0
 10
182.6594082192029
 20
15.34896149354424
 30
0.0
 10
182.658173394759
 20
15.51210091383768
 30
0.0
 10
182.6532040396745
 20
15.66054183777547
 30
0.0
 10
182.6507427258645
 20
15.73406440953869
 30
0.0
 11
182.6507427258645
 21
15.73406440953869
 31
0.0
 11
182.6417328200379
 21
15.95467178795574
 31
0.0
 11
182.6318769706147
 21
16.17960510387176
 31
0.0
 11
182.6756985840802
 21
16.17312391463726
 31
0.0
 11
182.7178400934216
 21
16.16754892331921
 31
0.0
 11
182.759137140979
 21
16.16367167505628
 31
0.0
 11
182.8004341885365
 21
16.16238072887605
 31
0.0
 11
182.8416871388731
 21
16.16367167505628
 31
0.0
 11
182.8829400892096
 21
16.16754892331921
 31
0.0
 11
182.9250882131342
 21
16.17312391463725
 31
0.0
 11
182.9689825870145
 21
16.17960510387176
 31
0.0
 11
182.9590577693891
 21
15.95467178795574
 31
0.0
 11
182.9500384208311
 21
15.73406440953869
 31
0.0
 11
182.9435638463436
 21
15.51347467001052
 31
0.0
 11
182.9414218238287
 21
15.28861190965004
 31
0.0
 11
182.9414218238287
 21
15.24478907015482
 31
0.0
 11
182.9414218238287
 21
15.13523197141679
 31
0.0
 11
182.9414218238287
 21
14.99280774305734
 31
0.0
 11
182.9414218238287
 21
14.85038351469789
 31
0.0
 11
182.9414218238287
 21
14.74082641595986
 31
0.0
 11
182.9414218238287
 21
14.69700357646464
 31
0.0
 11
182.9435638463436
 21
14.47163149318763
 31
0.0
 11
182.9500384208311
 21
14.24975190990977
 31
0.0
 11
182.9590577693892
 21
14.03132954885327
 31
0.0
 11
182.9689825870145
 21
13.81626739612925
 31
0.0
 11
182.8872616168771
 21
13.82145433189183
 31
0.0
 11
182.8004341885365
 21
13.82315538223859
 31
0.0
 11
182.713539511934
 21
13.82145433189183
 31
0.0
 11
182.6318769706147
 21
13.81626739612925
 31
0.0
 11
182.6417328200379
 21
14.03132954885327
 31
0.0
 11
182.6507427258645
 21
14.24975190990977
 31
0.0
 11
182.6571833838798
 21
14.47163149318763
 31
0.0
 11
182.6593583588024
 21
14.69700357646464
 31
0.0
 11
182.6593583588024
 21
14.74082641595986
 31
0.0
 11
182.6593583588024
 21
14.85038351469789
 31
0.0
 11
182.6593583588024
 21
14.99280774305734
 31
0.0
 11
182.6593583588024
 21
15.13523197141679
 31
0.0
 11
182.6593583588024
 21
15.24478907015483
 31
0.0
 11
182.6593583588024
 21
15.28861190965004
 31
0.0
 11
182.6571833838798
 21
15.51347467001051
 31
0.0
 11
182.6507427258645
 21
15.73406440953869
 31
0.0
  0
SPLINE
  5
B8
102
{ACAD_REACTORS
330
D5
102
}
330
48
100
AcDbEntity
  8
_U_30EC_U_30A4_U_30E4_U_30FC_1
  6
Continuous
 62
     2
100
AcDbSpline
210
0.0
220
0.0
230
1.0
 70
    11
 71
     3
 72
   110
 73
   106
 74
   104
 42
0.000000001
 43
0.0000000001
 44
0.00000001
 40
0.0
 40
0.0
 40
0.0
 40
0.0
 40
0.2203406257277737
 40
0.4407808782838071
 40
0.5952494494614481
 40
0.7488431659392204
 40
0.9023581831307901
 40
1.056801968670402
 40
1.210736449099846
 40
1.363041386539781
 40
1.515315729683067
 40
1.669377239147989
 40
1.721611652756468
 40
1.77319950294285
 40
1.824933793209898
 40
1.877110426487853
 40
1.982682281206559
 40
2.07878166708731
 40
2.172809640822145
 40
2.271937807378799
 40
2.378349933379163
 40
2.494131557736466
 40
2.626681683943486
 40
2.783145050795857
 40
2.890701232940715
 40
2.993130312454614
 40
3.099869730691597
 40
3.220237816691092
 40
3.352695482737377
 40
3.481732806389632
 40
3.59349947369016
 40
3.674323013331668
 40
3.817951711952561
 40
3.946167120793615
 40
4.0614050534533
 40
4.166480796002941
 40
4.262478775059092
 40
4.350736673551048
 40
4.433071991253877
 40
4.511216293814423
 40
4.564262454117748
 40
4.61847441557137
 40
4.670128488753976
 40
4.722296879126176
 40
4.819540945314102
 40
4.931194984127902
 40
5.049996040257544
 40
5.168643755415089
 40
5.283970811762357
 40
5.392260784910211
 40
5.486512254876172
 40
5.559178233949599
 40
5.591425852853265
 40
5.626215969637643
 40
5.667155838674185
 40
5.717449290213986
 40
5.738402360944603
 40
5.784499116553574
 40
5.830595872164553
 40
5.851548942897413
 40
5.873019280661525
 40
5.924217778408069
 40
5.985325662817448
 40
6.036524160567463
 40
6.057994498333994
 40
6.236847789607246
 40
6.381409928945418
 40
6.493190424178447
 40
6.57406753423025
 40
6.691018086205315
 40
6.814881554220261
 40
6.944307823240186
 40
7.071266716065752
 40
7.193488604461568
 40
7.30904277312771
 40
7.414007203170392
 40
7.505140441886287
 40
7.531150360599439
 40
7.559221645322019
 40
7.587202218920688
 40
7.612569159498907
 40
7.66255080948078
 40
7.702878875763928
 40
7.857328205230742
 40
8.010799568088359
 40
8.165256399657338
 40
8.322232698713762
 40
8.479564855016449
 40
8.635216230290652
 40
8.79088255092557
 40
8.94830515494705
 40
9.16827183903273
 40
9.387358980987019
 40
9.608047961033249
 40
9.832914234792442
 40
9.858338694962777
 40
9.925366817229786
 40
10.02013071422737
 40
10.12876249858975
 40
10.23739428295226
 40
10.33215817995168
 40
10.39918630222371
 40
10.4246107623976
 40
10.6499201933692
 40
10.87188524531165
 40
10.87188524531165
 40
10.87188524531165
 40
10.87188524531165
 10
179.9057788376618
 20
15.73923260398187
 30
0.0
 10
179.909286493354
 20
15.80616462073801
 30
0.0
 10
179.9163033987662
 20
15.94005891915855
 30
0.0
 10
179.8198027599074
 20
16.22548554971466
 30
0.0
 10
180.0510134726109
 20
16.16284386190281
 30
0.0
 10
180.1919290057156
 20
16.17001554055987
 30
0.0
 10
180.3490417757588
 20
16.16235883078242
 30
0.0
 10
180.5025913427288
 20
16.16252752283039
 30
0.0
 10
180.6545104935082
 20
16.1618204053543
 30
0.0
 10
180.8142214813232
 20
16.17210158351635
 30
0.0
 10
180.9408972601118
 20
16.15496511080747
 30
0.0
 10
181.137082112208
 20
16.22727260107143
 30
0.0
 10
181.1034395279079
 20
16.12640699080114
 30
0.0
 10
181.1052011317184
 20
16.07619253947667
 30
0.0
 10
181.1027342073459
 20
16.02712335586464
 30
0.0
 10
181.1347076966011
 20
15.94063490846999
 30
0.0
 10
181.0010399903256
 20
15.98997438608333
 30
0.0
 10
180.9172208688057
 20
15.98430634314165
 30
0.0
 10
180.8173861139325
 20
15.99465516706294
 30
0.0
 10
180.7186576720145
 20
16.00086450411084
 30
0.0
 10
180.612153277111
 20
16.00697763816774
 30
0.0
 10
180.4910511698059
 20
16.01588883484582
 30
0.0
 10
180.3703381502453
 20
16.00521605912382
 30
0.0
 10
180.1812553843439
 20
16.06468503080362
 30
0.0
 10
180.2129028505309
 20
15.90558320077538
 30
0.0
 10
180.1995563316836
 20
15.808391283399
 30
0.0
 10
180.1974958426449
 20
15.696340651101
 30
0.0
 10
180.1958188044669
 20
15.57699685629348
 30
0.0
 10
180.1973336794233
 20
15.45032592155107
 30
0.0
 10
180.195658247867
 20
15.32301588016114
 30
0.0
 10
180.2058844271658
 20
15.22451566404461
 30
0.0
 10
180.1779006596582
 20
15.0838870262563
 30
0.0
 10
180.3508029999305
 20
15.13989551134092
 30
0.0
 10
180.4645020202772
 20
15.12719951478495
 30
0.0
 10
180.5840151672239
 20
15.13448377051252
 30
0.0
 10
180.6888491425071
 20
15.13878017056752
 30
0.0
 10
180.7843084898612
 20
15.14330568258975
 30
0.0
 10
180.8763823507032
 20
15.15149201146196
 30
0.0
 10
180.947655178244
 20
15.1464385063811
 30
0.0
 10
181.0544931705685
 20
15.1853642503167
 30
0.0
 10
181.0226603598036
 20
15.10517122005876
 30
0.0
 10
181.0266164503928
 20
15.0556293684603
 30
0.0
 10
181.0234502392013
 20
15.00557478039816
 30
0.0
 10
181.0550791490584
 20
14.92128847612017
 30
0.0
 10
180.9210133677691
 20
14.97425365495154
 30
0.0
 10
180.82923227932
 20
14.96540080890438
 30
0.0
 10
180.7079729189602
 20
14.97570049965152
 30
0.0
 10
180.5914113119771
 20
14.97748911767499
 30
0.0
 10
180.4783375745878
 20
14.97787017109691
 30
0.0
 10
180.367924630847
 20
14.98415449472177
 30
0.0
 10
180.2898124067841
 20
14.97189133255363
 30
0.0
 10
180.1913625833643
 20
15.00453887616124
 30
0.0
 10
180.2012355173562
 20
14.94769748054203
 30
0.0
 10
180.1973923244402
 20
14.91392130557982
 30
0.0
 10
180.1966789884269
 20
14.87119604709409
 30
0.0
 10
180.1963369642974
 20
14.83401607262151
 30
0.0
 10
180.1963834255344
 20
14.79487237370769
 30
0.0
 10
180.1963649429927
 20
14.75716849497684
 30
0.0
 10
180.1963703431804
 20
14.71944955232399
 30
0.0
 10
180.19636972142
 20
14.68994324745147
 30
0.0
 10
180.1963698151544
 20
14.65873577699297
 30
0.0
 10
180.196370428792
 20
14.61414424908082
 30
0.0
 10
180.1963671499336
 20
14.55963956508848
 30
0.0
 10
180.1963759623479
 20
14.51505540201445
 30
0.0
 10
180.1963359653417
 20
14.43117808585737
 30
0.0
 10
180.1976024270255
 20
14.31737520677675
 30
0.0
 10
180.1950274117841
 20
14.16830395933706
 30
0.0
 10
180.206500938172
 20
14.06597203813902
 30
0.0
 10
180.1823506222264
 20
13.93338903885833
 30
0.0
 10
180.3332993946477
 20
13.97895732272019
 30
0.0
 10
180.4428436671556
 20
13.96427012162347
 30
0.0
 10
180.5733970473921
 20
13.96920435125061
 30
0.0
 10
180.6990312209514
 20
13.97257705323358
 30
0.0
 10
180.8188730625601
 20
13.9771149749877
 30
0.0
 10
180.9391362611426
 20
13.99048536182001
 30
0.0
 10
181.0222761663515
 20
13.98068712782594
 30
0.0
 10
181.1456080421075
 20
14.0412621462332
 30
0.0
 10
181.1244269203957
 20
13.98532460134019
 30
0.0
 10
181.1235950270118
 20
13.95939249372343
 30
0.0
 10
181.1218963707558
 20
13.93197256190937
 30
0.0
 10
181.1217974888828
 20
13.89738195206382
 30
0.0
 10
181.1203659301329
 20
13.86050408220764
 30
0.0
 10
181.1532804192192
 20
13.76846841021807
 30
0.0
 10
180.9551306988108
 20
13.84132015974828
 30
0.0
 10
180.8300548294892
 20
13.81825726508602
 30
0.0
 10
180.6673071295156
 20
13.82454021985783
 30
0.0
 10
180.5129366450002
 20
13.82260943909923
 30
0.0
 10
180.3566670436943
 20
13.82393762599265
 30
0.0
 10
180.1970544465282
 20
13.82059872487859
 30
0.0
 10
180.0540326342237
 20
13.83265795728238
 30
0.0
 10
179.8197144881629
 20
13.76952001976919
 30
0.0
 10
179.9173810751197
 20
14.05620527466316
 30
0.0
 10
179.9006868780058
 20
14.24988308142658
 30
0.0
 10
179.9146296709686
 20
14.47848242880293
 30
0.0
 10
179.9142987846633
 20
14.63384593955045
 30
0.0
 10
179.9143078119264
 20
14.73966336444123
 30
0.0
 10
179.9143055876316
 20
14.80205784124211
 30
0.0
 10
179.914306555189
 20
14.89220425248323
 30
0.0
 10
179.9143065473262
 20
14.99621167157435
 30
0.0
 10
179.9143053861104
 20
15.10022131375293
 30
0.0
 10
179.9143090971502
 20
15.19036243688764
 30
0.0
 10
179.9143011051052
 20
15.25276803097212
 30
0.0
 10
179.9143334275019
 20
15.35868835961115
 30
0.0
 10
179.913144078832
 20
15.51626716544737
 30
0.0
 10
179.9082216489256
 20
15.66528219822063
 30
0.0
 10
179.9057788376618
 20
15.73923260398187
 30
0.0
 11
179.9057788376618
 21
15.73923260398187
 31
0.0
 11
179.896691822374
 21
15.95938578101015
 31
0.0
 11
179.8868249573134
 21
16.17960510387176
 31
0.0
 11
180.04115751414
 21
16.17312391463726
 31
0.0
 11
180.1946500189046
 21
16.16754892331921
 31
0.0
 11
180.3481160653366
 21
16.16367167505628
 31
0.0
 11
180.502554455494
 21
16.16238072887605
 31
0.0
 11
180.6564835227473
 21
16.16367167505628
 31
0.0
 11
180.8087391004601
 21
16.16754892331921
 31
0.0
 11
180.9609113551074
 21
16.17312391463725
 31
0.0
 11
181.1148364762483
 21
16.17960510387176
 31
0.0
 11
181.1070811703124
 21
16.12794961777355
 31
0.0
 11
181.1044991623592
 21
16.07642642334201
 31
0.0
 11
181.1070811703124
 21
16.02475660564657
 31
0.0
 11
181.1148364762483
 21
15.97315954836783
 31
0.0
 11
181.0094874054411
 21
15.98001446156055
 31
0.0
 11
180.9136375700061
 21
15.98693552058654
 31
0.0
 11
180.8198593171903
 21
15.99378381919595
 31
0.0
 11
180.7209679915881
 21
16.00063211780537
 31
0.0
 11
180.6147532199924
 21
16.00710999974821
 31
0.0
 11
180.4991060528037
 21
16.01268829835791
 31
0.0
 11
180.3666126447258
 21
16.01656554662085
 31
0.0
 11
180.2101546018424
 21
16.01785649280109
 31
0.0
 11
180.2062663293721
 21
15.91037061609184
 31
0.0
 11
180.2015380048401
 21
15.80805072896461
 31
0.0
 11
180.1976607566749
 21
15.70138175329684
 31
0.0
 11
180.1963698105271
 21
15.58102059013247
 31
0.0
 11
180.1967799146836
 21
15.44856355891562
 31
0.0
 11
180.1980896021502
 21
15.31953288186452
 31
0.0
 11
180.199407457705
 21
15.20777398432306
 31
0.0
 11
180.199819115366
 21
15.12695149302382
 31
0.0
 11
180.3434452935874
 21
15.12780256941247
 31
0.0
 11
180.4716343930758
 21
15.13039989580074
 31
0.0
 11
180.5868078221795
 21
15.13425509545251
 31
0.0
 11
180.691775631222
 21
15.13901649302073
 31
0.0
 11
180.7876346289422
 21
15.14418027774173
 31
0.0
 11
180.8757413374194
 21
15.14934406246264
 31
0.0
 11
180.9578881438497
 21
15.15491243919737
 31
0.0
 11
181.0357692335571
 21
15.16132086801522
 31
0.0
 11
181.0280180445186
 21
15.10884407115334
 31
0.0
 11
181.0254328449316
 21
15.05469378470855
 31
0.0
 11
181.0280180445186
 21
15.00310444444364
 31
0.0
 11
181.0357692335571
 21
14.95151510417879
 31
0.0
 11
180.9389813454013
 21
14.96092324653754
 31
0.0
 11
180.8275950722015
 21
14.96865128473009
 31
0.0
 11
180.7089261429373
 21
14.97425273438143
 31
0.0
 11
180.5903167449213
 21
14.97726788195008
 31
0.0
 11
180.4750025117521
 21
14.97898767361635
 31
0.0
 11
180.3667261950699
 21
14.98070746528255
 31
0.0
 11
180.2724839317708
 21
14.98202486979614
 31
0.0
 11
180.199819115366
 21
14.98243607639326
 31
0.0
 11
180.199407457705
 21
14.95019108508188
 31
0.0
 11
180.1980896021502
 21
14.91542593752115
 31
0.0
 11
180.1967799146836
 21
14.87450702260082
 31
0.0
 11
180.1963698105271
 21
14.8242152430995
 31
0.0
 11
180.1963698105271
 21
14.8032621723582
 31
0.0
 11
180.1963698105271
 21
14.75716541672734
 31
0.0
 11
180.1963698105271
 21
14.71106866109648
 31
0.0
 11
180.1963698105271
 21
14.69011559035518
 31
0.0
 11
180.1963698105271
 21
14.66864525258278
 31
0.0
 11
180.1963698105271
 21
14.61744675481781
 31
0.0
 11
180.1963698105271
 21
14.55633887038865
 31
0.0
 11
180.1963698105271
 21
14.50514037262368
 31
0.0
 11
180.1963698105271
 21
14.48367003485127
 31
0.0
 11
180.1967799146836
 21
14.30481721371544
 31
0.0
 11
180.1980896021502
 21
14.16026100715439
 31
0.0
 11
180.2002868589709
 21
14.04850210961286
 31
0.0
 11
180.2032586986986
 21
13.96767961831363
 31
0.0
 11
180.3202092517448
 21
13.96767961831363
 31
0.0
 11
180.4440727208747
 21
13.96767961831363
 31
0.0
 11
180.5734925526423
 21
13.96897056449387
 31
0.0
 11
180.7003922282244
 21
13.97284781275679
 31
0.0
 11
180.8224658067973
 21
13.97886708358862
 31
0.0
 11
180.9377587499462
 21
13.98663260441999
 31
0.0
 11
181.0421754573518
 21
13.99734161483399
 31
0.0
 11
181.1320599255449
 21
14.01237656274689
 31
0.0
 11
181.1264254031192
 21
13.98698427976713
 31
0.0
 11
181.1234433285424
 21
13.959071840538
 31
0.0
 11
181.12213398812
 21
13.93112191867
 31
0.0
 11
181.1217235369194
 21
13.90575829888469
 31
0.0
 11
181.1243087365064
 21
13.85584355063323
 31
0.0
 11
181.1320599255449
 21
13.81626739612925
 31
0.0
 11
180.9776977178345
 21
13.82145433189183
 31
0.0
 11
180.8242357818766
 21
13.82315538223859
 31
0.0
 11
180.6697789496484
 21
13.82315538223859
 31
0.0
 11
180.5128026496768
 21
13.82315538223859
 31
0.0
 11
180.3554704921536
 21
13.82315538223859
 31
0.0
 11
180.199819115366
 21
13.82315538223859
 31
0.0
 11
180.0441620874241
 21
13.82145433189183
 31
0.0
 11
179.8868249573134
 21
13.81626739612925
 31
0.0
 11
179.896691822374
 21
14.03601267385207
 31
0.0
 11
179.9057788376618
 21
14.2549112849085
 31
0.0
 11
179.9121721518401
 21
14.47550763902
 31
0.0
 11
179.914306345501
 21
14.70036378479712
 31
0.0
 11
179.914306345501
 21
14.72578824496871
 31
0.0
 11
179.914306345501
 21
14.79281636723928
 31
0.0
 11
179.914306345501
 21
14.8875802642425
 31
0.0
 11
179.914306345501
 21
14.99621204861204
 31
0.0
 11
179.914306345501
 21
15.10484383298159
 31
0.0
 11
179.914306345501
 21
15.19960772998481
 31
0.0
 11
179.914306345501
 21
15.26663585225538
 31
0.0
 11
179.914306345501
 21
15.29206031242697
 31
0.0
 11
179.9121721518401
 21
15.51735963528732
 31
0.0
 11
179.9057788376618
 21
15.73923260398187
 31
0.0
  0
SPLINE
  5
B9
102
{ACAD_REACTORS
330
D6
102
}
330
48
100
AcDbEntity
  8
_U_30EC_U_30A4_U_30E4_U_30FC_1
  6
Continuous
 62
     2
100
AcDbSpline
210
0.0
220
0.0
230
1.0
 70
    11
 71
     3
 72
    95
 73
    91
 74
    89
 42
0.000000001
 43
0.0000000001
 44
0.00000001
 40
0.0
 40
0.0
 40
0.0
 40
0.0
 40
0.6550406656912168
 40
1.308087289032017
 40
1.42080373983589
 40
1.566130759770875
 40
1.75706734188855
 40
2.006513545026548
 40
2.087328263121638
 40
2.185328872295697
 40
2.294612454748447
 40
2.408936380534903
 40
2.526802767798648
 40
2.646360524615697
 40
2.762535723971679
 40
2.87005734287025
 40
2.966883448431739
 40
3.050803243518382
 40
3.115818222436684
 40
3.156030057150326
 40
3.213914225080256
 40
3.276689026450742
 40
3.342960320981348
 40
3.404230667150654
 40
3.453822809493455
 40
3.532499827188517
 40
3.634775188507249
 40
3.754909333008263
 40
3.889736761660749
 40
4.035769602175303
 40
4.187256681197694
 40
4.338733685676039
 40
4.488478734676206
 40
4.63470831783167
 40
4.771493189921357
 40
4.892686571561295
 40
5.199775528944537
 40
5.460353566929741
 40
5.667603142345602
 40
5.814722905404579
 40
5.828990806219877
 40
5.855488336304489
 40
5.869756237118792
 40
6.189796507762856
 40
6.53189046987312
 40
6.883053637017053
 40
7.230512024911603
 40
7.566966656764629
 40
7.885203559707538
 40
8.172887439719338
 40
8.418011594062733
 40
8.443926721190657
 40
8.510760470613143
 40
8.602145393795652
 40
8.70171404164709
 40
8.793098965075323
 40
8.859932715057896
 40
8.885847842603544
 40
9.242301256612759
 40
9.589275455016713
 40
9.921808543164119
 40
10.23479624298462
 40
10.29968150889181
 40
10.35323493887772
 40
10.40154625355148
 40
10.46482922477821
 40
10.55973900668402
 40
10.69239545985614
 40
10.84920353475668
 40
11.01626328594777
 40
11.18672024367439
 40
11.35372582577208
 40
11.50257442292424
 40
11.61866495023288
 40
11.71329869152871
 40
11.82511050573904
 40
11.94464880845713
 40
12.06929242642504
 40
12.19707290435173
 40
12.32562632860525
 40
12.45034565331276
 40
12.56646595170324
 40
12.67099007414632
 40
12.76077625936777
 40
12.8270323350669
 40
12.8742913278599
 40
12.89831990323326
 40
12.92234847860009
 40
13.53984767410316
 40
14.18294284359351
 40
14.18294284359351
 40
14.18294284359351
 40
14.18294284359351
 10
177.3067935648022
 20
14.70898038201721
 30
0.0
 10
177.1752019758551
 20
14.82265058603228
 30
0.0
 10
176.9124193802728
 20
15.04964496316152
 30
0.0
 10
176.3997393441022
 20
15.89214462956284
 30
0.0
 10
176.4106654595361
 20
15.53423377577017
 30
0.0
 10
176.4041226527993
 20
15.39267392272129
 30
0.0
 10
176.4028026631773
 20
15.19421305299278
 30
0.0
 10
176.4018117602538
 20
15.0215029604598
 30
0.0
 10
176.4024101751974
 20
14.87865373257577
 30
0.0
 10
176.4038994301881
 20
14.78265005413356
 30
0.0
 10
176.4055683588471
 20
14.67545503263139
 30
0.0
 10
176.407193495462
 20
14.5616421151758
 30
0.0
 10
176.4092429501685
 20
14.44441572604586
 30
0.0
 10
176.4123165501927
 20
14.32656411232967
 30
0.0
 10
176.4156339697044
 20
14.21228087320617
 30
0.0
 10
176.4193605340281
 20
14.10521401867274
 30
0.0
 10
176.4217338161424
 20
14.01007408766918
 30
0.0
 10
176.4278718888357
 20
13.92558557205692
 30
0.0
 10
176.4239784495945
 20
13.86923087298138
 30
0.0
 10
176.4455230443078
 20
13.79825022472353
 30
0.0
 10
176.3680940058617
 20
13.82902677604482
 30
0.0
 10
176.3116353240191
 20
13.8201124251761
 30
0.0
 10
176.2540495896807
 20
13.82896218398271
 30
0.0
 10
176.1690163478472
 20
13.79738225225941
 30
0.0
 10
176.2009714146382
 20
13.88095155992188
 30
0.0
 10
176.1990705282539
 20
13.94882608968306
 30
0.0
 10
176.21079600473
 20
14.05233256764417
 30
0.0
 10
176.2164241052999
 20
14.17002125616692
 30
0.0
 10
176.2237902178942
 20
14.30388609164421
 30
0.0
 10
176.2320759701608
 20
14.44764152872629
 30
0.0
 10
176.2398851897428
 20
14.59714022843441
 30
0.0
 10
176.2457571222657
 20
14.74792549402075
 30
0.0
 10
176.2503667817969
 20
14.89699943878434
 30
0.0
 10
176.2542632117542
 20
15.0412291316302
 30
0.0
 10
176.2570715126564
 20
15.17583905213014
 30
0.0
 10
176.2576698755023
 20
15.36469614347351
 30
0.0
 10
176.2616023867151
 20
15.58975494313151
 30
0.0
 10
176.2442175378497
 20
15.86367091125705
 30
0.0
 10
176.2850417342584
 20
16.02787112098595
 30
0.0
 10
176.1995153256003
 20
16.22749661465093
 30
0.0
 10
176.2660558907687
 20
16.22385458403976
 30
0.0
 10
176.283872427323
 20
16.22413447160851
 30
0.0
 10
176.4056801797502
 20
16.22632927398611
 30
0.0
 10
176.5080770335462
 20
15.94675118721509
 30
0.0
 10
176.7580021509357
 20
15.74563008536006
 30
0.0
 10
176.987003533111
 20
15.47792614987906
 30
0.0
 10
177.2245151213109
 20
15.22646413862381
 30
0.0
 10
177.4486090740772
 20
14.98969974061348
 30
0.0
 10
177.675071628301
 20
14.73218692583078
 30
0.0
 10
177.8325687886515
 20
14.61649335056927
 30
0.0
 10
178.0472129612673
 20
14.27997152538796
 30
0.0
 10
178.0422645974617
 20
14.40464754091601
 30
0.0
 10
178.0433931602545
 20
14.46327691935734
 30
0.0
 10
178.0428877841516
 20
14.55043662371974
 30
0.0
 10
178.0430475158112
 20
14.64416143182869
 30
0.0
 10
178.0430054891316
 20
14.73018971297031
 30
0.0
 10
178.0430202040371
 20
14.79153891945492
 30
0.0
 10
178.0429706255982
 20
14.94135231520989
 30
0.0
 10
178.045881152281
 20
15.17989612510102
 30
0.0
 10
178.0259521041162
 20
15.54486509868697
 30
0.0
 10
178.0750433936247
 20
15.80799631993413
 30
0.0
 10
177.9177951509179
 20
16.21928904947746
 30
0.0
 10
178.0762112872422
 20
16.16398282551746
 30
0.0
 10
178.1311680478629
 20
16.16199686500173
 30
0.0
 10
178.182788776674
 20
16.16264778248251
 30
0.0
 10
178.2713198965366
 20
16.20369527738242
 30
0.0
 10
178.2204898303168
 20
16.05696326622984
 30
0.0
 10
178.2313389930285
 20
15.95019971954429
 30
0.0
 10
178.2166036994847
 20
15.79085705414109
 30
0.0
 10
178.2099976446204
 20
15.62853061652871
 30
0.0
 10
178.2014961399916
 20
15.45992521892391
 30
0.0
 10
178.1943227202196
 20
15.29814814703538
 30
0.0
 10
178.188906321539
 20
15.15422331457929
 30
0.0
 10
178.1871713967648
 20
15.03437493466922
 30
0.0
 10
178.1875440672319
 20
14.92686101590512
 30
0.0
 10
178.1873656126262
 20
14.81820024645583
 30
0.0
 10
178.1877010863141
 20
14.69953570165528
 30
0.0
 10
178.1890040622183
 20
14.57555163512737
 30
0.0
 10
178.1908887351574
 20
14.44858294171101
 30
0.0
 10
178.1925004454853
 20
14.32153861551029
 30
0.0
 10
178.1941403137428
 20
14.19854884492174
 30
0.0
 10
178.1962570745751
 20
14.08300931383756
 30
0.0
 10
178.1963848422365
 20
13.98090903955835
 30
0.0
 10
178.2006514396554
 20
13.89009848838154
 30
0.0
 10
178.190844008529
 20
13.83213621208785
 30
0.0
 10
178.2118474771689
 20
13.76517130132027
 30
0.0
 10
178.1725639739897
 20
13.77291153966684
 30
0.0
 10
177.9595307117744
 20
13.75755254145191
 30
0.0
 10
177.7636297943188
 20
14.31403058094457
 30
0.0
 10
177.4611197631544
 20
14.57556035348505
 30
0.0
 10
177.3067935648022
 20
14.70898038201721
 30
0.0
 11
177.3067935648022
 21
14.70898038201721
 31
0.0
 11
176.8595529338511
 21
15.18757635411975
 31
0.0
 11
176.4124049070643
 21
15.66352649288967
 31
0.0
 11
176.4089664262493
 21
15.55086249986229
 31
0.0
 11
176.4055610183501
 21
15.40557538184308
 31
0.0
 11
176.4029636920275
 21
15.21465645827965
 31
0.0
 11
176.4021126156603
 21
14.96521170139754
 31
0.0
 11
176.4025239230289
 21
14.88439802954277
 31
0.0
 11
176.4038420329816
 21
14.7864062847756
 31
0.0
 11
176.4055192267718
 21
14.67713557299737
 31
0.0
 11
176.4072367127519
 21
14.56282454872036
 31
0.0
 11
176.4094007838772
 21
14.44497802965263
 31
0.0
 11
176.4124049070643
 21
14.32545802100196
 31
0.0
 11
176.4158359733139
 21
14.20933349846153
 31
0.0
 11
176.4192928929999
 21
14.10186746550226
 31
0.0
 11
176.4227085253088
 21
14.00510162351261
 31
0.0
 11
176.4261896983792
 21
13.92125406276969
 31
0.0
 11
176.4296006184312
 21
13.85632862007757
 31
0.0
 11
176.4330776843148
 21
13.81626739612925
 31
0.0
 11
176.3754263821571
 21
13.82145433189183
 31
0.0
 11
176.3126746318308
 21
13.82315538223859
 31
0.0
 11
176.2464251717157
 21
13.82145433189183
 31
0.0
 11
176.1853747739675
 21
13.81626739612925
 31
0.0
 11
176.1926772737812
 21
13.86531894125587
 31
0.0
 11
176.2008793569054
 21
13.94356725720853
 31
0.0
 11
176.2090098822348
 21
14.04551893253026
 31
0.0
 11
176.2163406441397
 21
14.16542920159751
 31
0.0
 11
176.2236358280422
 21
14.30005912343887
 31
0.0
 11
176.2318444255595
 21
14.44586107652742
 31
0.0
 11
176.2395504149466
 21
14.5971520313507
 31
0.0
 11
176.2455763002093
 21
14.74850913200731
 31
0.0
 11
176.2503046247416
 21
14.89817951391433
 31
0.0
 11
176.254192897212
 21
15.04435739582219
 31
0.0
 11
176.2567527408965
 21
15.18111831592693
 31
0.0
 11
176.2576324804575
 21
15.30230850686887
 31
0.0
 11
176.257192610677
 21
15.60939715262541
 31
0.0
 11
176.2559126888347
 21
15.86997204839364
 31
0.0
 11
176.2528658717893
 21
16.07719922716123
 31
0.0
 11
176.2473049112763
 21
16.22421385386059
 31
0.0
 11
176.2615728121469
 21
16.22421385386059
 31
0.0
 11
176.2880703423351
 21
16.22421385386059
 31
0.0
 11
176.3023382432057
 21
16.22421385386059
 31
0.0
 11
176.5194743650277
 21
15.9891017966277
 31
0.0
 11
176.751274412308
 21
15.73751281231559
 31
0.0
 11
176.9894816018839
 21
15.47949555543567
 31
0.0
 11
177.2260074557522
 21
15.22497079855486
 31
0.0
 11
177.4555698717705
 21
14.97899759549135
 31
0.0
 11
177.6731797360104
 21
14.74678934034104
 31
0.0
 11
177.8713724913708
 21
14.53826680567097
 31
0.0
 11
178.0430143099085
 21
14.36326697932586
 31
0.0
 11
178.0430143099085
 21
14.3891821068704
 31
0.0
 11
178.0430143099085
 21
14.45601585685368
 31
0.0
 11
178.0430143099085
 21
14.54740078030022
 31
0.0
 11
178.0430143099085
 21
14.6469694282345
 31
0.0
 11
178.0430143099085
 21
14.73835435168104
 31
0.0
 11
178.0430143099085
 21
14.80518810166432
 31
0.0
 11
178.0430143099085
 21
14.83110322920886
 31
0.0
 11
178.0417233637608
 21
15.18755430550864
 31
0.0
 11
178.0378461155958
 21
15.53450684014412
 31
0.0
 11
178.0296197790002
 21
15.86693815950549
 31
0.0
 11
178.0154535467228
 21
16.17960510387176
 31
0.0
 11
178.0790351249619
 21
16.16666367158332
 31
0.0
 11
178.1324170159612
 21
16.16238072887605
 31
0.0
 11
178.1805381084833
 21
16.16666367158332
 31
0.0
 11
178.2424836798197
 21
16.17960510387176
 31
0.0
 11
178.2351216487574
 21
16.08498128445097
 31
0.0
 11
178.2269790968819
 21
15.95257496503961
 31
0.0
 11
178.2183705364004
 21
15.79600336785653
 31
0.0
 11
178.2097547223215
 21
15.62916593734267
 31
0.0
 11
178.2016187850289
 21
15.45890325509358
 31
0.0
 11
178.1942501393834
 21
15.29206031242697
 31
0.0
 11
178.1891406931522
 21
15.14329943572806
 31
0.0
 11
178.1874503478904
 21
15.02722121527098
 31
0.0
 11
178.1874503478904
 21
14.93258747397516
 31
0.0
 11
178.1874503478904
 21
14.82077565976704
 31
0.0
 11
178.1878461204497
 21
14.70123801222746
 31
0.0
 11
178.1890819450708
 21
14.57660052093916
 31
0.0
 11
178.1908392193317
 21
14.44883212687388
 31
0.0
 11
178.1925303477609
 21
14.32028982655876
 31
0.0
 11
178.1942876220214
 21
14.19558288214552
 31
0.0
 11
178.1959787504505
 21
14.07947489606346
 31
0.0
 11
178.1972884379172
 21
13.97495896727014
 31
0.0
 11
178.1976985420735
 21
13.88517371555651
 31
0.0
 11
178.1976985420735
 21
13.81891763918414
 31
0.0
 11
178.1976985420735
 21
13.77165864614038
 31
0.0
 11
178.1736699662976
 21
13.77165864614038
 31
0.0
 11
178.1496413905218
 21
13.77165864614038
 31
0.0
 11
177.7410729200423
 21
14.23466735262187
 31
0.0
 11
177.3067935648022
 21
14.70898038201721
 31
0.0
  0
SPLINE
  5
BA
102
{ACAD_REACTORS
330
D7
102
}
330
48
100
AcDbEntity
  8
_U_30EC_U_30A4_U_30E4_U_30FC_1
  6
Continuous
 62
     2
100
AcDbSpline
210
0.0
220
0.0
230
1.0
 70
    11
 71
     3
 72
    25
 73
    21
 74
    19
 42
0.000000001
 43
0.0000000001
 44
0.00000001
 40
0.0
 40
0.0
 40
0.0
 40
0.0
 40
0.0911479969064821
 40
0.1858117896204667
 40
0.2804128399734492
 40
0.3715889190714511
 40
0.4679080494218709
 40
0.5642683809229234
 40
0.6605683222644707
 40
0.7569653015809119
 40
0.8561348172521489
 40
1.092615965104156
 40
1.374867658141742
 40
1.611348812011442
 40
1.71051832842509
 40
1.809403163726409
 40
2.045205463293911
 40
2.326646917621971
 40
2.562449217190435
 40
2.661334043833752
 40
2.661334043833752
 40
2.661334043833752
 40
2.661334043833752
 10
173.2683700567199
 20
14.88614538197289
 30
0.0
 10
173.2987525917923
 20
14.88598079714552
 30
0.0
 10
173.3606895889111
 20
14.88564528689919
 30
0.0
 10
173.454135696033
 20
14.88269055451997
 30
0.0
 10
173.5475095236357
 20
14.87977752877147
 30
0.0
 10
173.6417760753476
 20
14.87894201643413
 30
0.0
 10
173.7354964790966
 20
14.87996644658044
 30
0.0
 10
173.8352040303205
 20
14.87916977470972
 30
0.0
 10
173.9188949546312
 20
14.88921410235216
 30
0.0
 10
174.0637996315043
 20
14.86234617674164
 30
0.0
 10
173.93961324448
 20
15.03665530280047
 30
0.0
 10
173.8965867286282
 20
15.19651711006089
 30
0.0
 10
173.7808922142209
 20
15.45518458550211
 30
0.0
 10
173.7017565431256
 20
15.59231052861856
 30
0.0
 10
173.6431576621816
 20
15.80937033134074
 30
0.0
 10
173.5864803939438
 20
15.59266134213425
 30
0.0
 10
173.5052809900477
 20
15.45327012438233
 30
0.0
 10
173.4063701281487
 20
15.20406969370191
 30
0.0
 10
173.3253625094259
 20
15.0192583022607
 30
0.0
 10
173.2813683325838
 20
14.91650446856113
 30
0.0
 10
173.2683700567199
 20
14.88614538197289
 30
0.0
 11
173.2683700567199
 21
14.88614538197289
 31
0.0
 11
173.359513773782
 21
14.88526123266757
 31
0.0
 11
173.4541428297581
 21
14.88269697919596
 31
0.0
 11
173.5487082179706
 21
14.88009965280774
 31
0.0
 11
173.6398803250196
 21
14.87924857641907
 31
0.0
 11
173.7361985777706
 21
14.87965978301619
 31
0.0
 11
173.8325499034376
 21
14.8809771875297
 31
0.0
 11
173.9288262638286
 21
14.8831081857931
 31
0.0
 11
174.0251753846342
 21
14.88614538197289
 31
0.0
 11
173.9854633323141
 21
14.97701642195017
 31
0.0
 11
173.8907653613967
 21
15.19370890189599
 31
0.0
 11
173.777738750947
 21
15.45234186183132
 31
0.0
 11
173.6830407800297
 21
15.66903434177714
 31
0.0
 11
173.6433287277095
 21
15.75990538175442
 31
0.0
 11
173.6043330259266
 21
15.66903434177714
 31
0.0
 11
173.5113432755212
 21
15.45234186183132
 31
0.0
 11
173.4003555089082
 21
15.19370890189599
 31
0.0
 11
173.3073657585028
 21
14.97701642195017
 31
0.0
 11
173.2683700567199
 21
14.88614538197289
 31
0.0
  0
SPLINE
  5
BB
102
{ACAD_REACTORS
330
D7
102
}
330
48
100
AcDbEntity
  8
_U_30EC_U_30A4_U_30E4_U_30FC_1
  6
Continuous
 62
     2
100
AcDbSpline
210
0.0
220
0.0
230
1.0
 70
    11
 71
     3
 72
    57
 73
    53
 74
    51
 42
0.000000001
 43
0.0000000001
 44
0.00000001
 40
0.0
 40
0.0
 40
0.0
 40
0.0
 40
0.0471632082809233
 40
0.0914861054632148
 40
0.1357762519702383
 40
0.1826527001610678
 40
0.229520328857145
 40
0.273775197221962
 40
0.3181310461542211
 40
0.3652607198398497
 40
0.4571007286314506
 40
0.5671851029165358
 40
0.6894623283868091
 40
0.8181758272545849
 40
0.951008722927378
 40
1.085852229674096
 40
1.218126164475327
 40
1.343545131142373
 40
1.454537202956789
 40
1.567187607530798
 40
1.680710966642416
 40
1.794226869736781
 40
1.90000918424758
 40
2.00408586044786
 40
2.108162674451748
 40
2.214000150155292
 40
2.49603857735213
 40
2.762350745479269
 40
2.997275353279393
 40
3.185110082137714
 40
3.246407890063941
 40
3.312607550212672
 40
3.378877742711574
 40
3.440140399651428
 40
4.100501696006445
 40
4.754913085563504
 40
5.411331693423901
 40
6.077890432568683
 40
6.110575292670962
 40
6.143260152775742
 40
6.367989363395131
 40
6.610525374951533
 40
6.8633891364673
 40
7.119380025547613
 40
7.376036605091071
 40
7.631164770966308
 40
7.876722425456419
 40
8.104953735855975
 40
8.312916685924295
 40
8.497730294941281
 40
8.651018984313838
 40
8.764738853624557
 40
8.764738853624557
 40
8.764738853624557
 40
8.764738853624557
 10
174.7922649500513
 20
13.81626739612925
 30
0.0
 10
174.7766616726931
 20
13.81826231079076
 30
0.0
 10
174.7463947960302
 20
13.82213201360297
 30
0.0
 10
174.7010994202252
 20
13.82341984967264
 30
0.0
 10
174.6559553129349
 20
13.82308683554048
 30
0.0
 10
174.60990171234
 20
13.82314658674221
 30
0.0
 10
174.5640496172097
 20
13.82325813649998
 30
0.0
 10
174.5183711648166
 20
13.82277833456587
 30
0.0
 10
174.4750811541608
 20
13.8246110961872
 30
0.0
 10
174.4039947951514
 20
13.80049556814653
 30
0.0
 10
174.4057477261441
 20
13.92184693977249
 30
0.0
 10
174.3586196370568
 20
14.00726239751227
 30
0.0
 10
174.3191478251763
 20
14.12486929345136
 30
0.0
 10
174.2706635532644
 20
14.24232752540432
 30
0.0
 10
174.2201017402523
 20
14.36405935761512
 30
0.0
 10
174.1718634610475
 20
14.49075967862458
 30
0.0
 10
174.1135232947594
 20
14.5993368778495
 30
0.0
 10
174.0980892667261
 20
14.75620657134407
 30
0.0
 10
173.9566586330636
 20
14.72373446548319
 30
0.0
 10
173.8508397414904
 20
14.73512888682177
 30
0.0
 10
173.7358569725222
 20
14.73392591514613
 30
0.0
 10
173.6253142252141
 20
14.73506945347407
 30
0.0
 10
173.5176583522783
 20
14.73418350037524
 30
0.0
 10
173.4121322529243
 20
14.73416602390516
 30
0.0
 10
173.3109192682012
 20
14.72714032472411
 30
0.0
 10
173.1266804827754
 20
14.75135859859865
 30
0.0
 10
173.1157393685411
 20
14.44741691121882
 30
0.0
 10
173.008769163475
 20
14.22353177253394
 30
0.0
 10
172.9098148604346
 20
14.03895314292495
 30
0.0
 10
172.9225090524008
 20
13.79530204804204
 30
0.0
 10
172.8050091716396
 20
13.82508046753195
 30
0.0
 10
172.742205586831
 20
13.822580895096
 30
0.0
 10
172.67858720934
 20
13.82344075102803
 30
0.0
 10
172.3946014194074
 20
13.78098039941942
 30
0.0
 10
173.0251638499382
 20
14.50081952444785
 30
0.0
 10
173.108764528907
 20
15.01276539435727
 30
0.0
 10
173.4929252789339
 20
15.5335374355004
 30
0.0
 10
173.4777208288565
 20
16.23519626253211
 30
0.0
 10
173.7239265722697
 20
16.22345633081254
 30
0.0
 10
173.8256346157561
 20
16.2322500445277
 30
0.0
 10
173.8249752035817
 20
15.98059650730343
 30
0.0
 10
173.9428317155829
 20
15.79818020733955
 30
0.0
 10
174.0315515260484
 20
15.55563740662861
 30
0.0
 10
174.1322292485261
 20
15.32340030530131
 30
0.0
 10
174.2311142712242
 20
15.08674644566904
 30
0.0
 10
174.3299676990671
 20
14.85461739170097
 30
0.0
 10
174.4256166390926
 20
14.63122222788781
 30
0.0
 10
174.5159904573272
 20
14.42272549049317
 30
0.0
 10
174.598994456819
 20
14.23308448529317
 30
0.0
 10
174.6726088582799
 20
14.06663106068094
 30
0.0
 10
174.7342815895545
 20
13.92917699626096
 30
0.0
 10
174.7749458885604
 20
13.84999239430032
 30
0.0
 10
174.7922649500513
 20
13.81626739612925
 30
0.0
 11
174.7922649500513
 21
13.81626739612925
 31
0.0
 11
174.7453878317448
 21
13.82145433189183
 31
0.0
 11
174.7010975896125
 21
13.82315538223859
 31
0.0
 11
174.6568074431729
 21
13.82315538223859
 31
0.0
 11
174.6099309947159
 21
13.82315538223859
 31
0.0
 11
174.5630633657034
 21
13.82315538223859
 31
0.0
 11
174.5188084970409
 21
13.82315538223859
 31
0.0
 11
174.4744852776855
 21
13.82145433189183
 31
0.0
 11
174.4276419021443
 21
13.81626739612925
 31
0.0
 11
174.3992532136325
 21
13.90360966173242
 31
0.0
 11
174.3622721815897
 21
14.00729656274816
 31
0.0
 11
174.3188386236701
 21
14.12159987001124
 31
0.0
 11
174.2711055866936
 21
14.24113531268966
 31
0.0
 11
174.2208160133237
 21
14.36408057307562
 31
0.0
 11
174.1696467003931
 21
14.48883822929444
 31
0.0
 11
174.1197531801325
 21
14.61134141502769
 31
0.0
 11
174.0733119111841
 21
14.72784517367914
 31
0.0
 11
173.9623611907589
 21
14.73087465284503
 31
0.0
 11
173.8497309225089
 21
14.73300454867787
 31
0.0
 11
173.7362152069449
 21
14.73432195319138
 31
0.0
 11
173.62270004768
 21
14.73473315978851
 31
0.0
 11
173.5169185312816
 21
14.73432195319138
 31
0.0
 11
173.4128501919225
 21
14.73300454867787
 31
0.0
 11
173.3087951724045
 21
14.73087465284503
 31
0.0
 11
173.2030010615596
 21
14.72784517367914
 31
0.0
 11
173.0980914750139
 21
14.46604437513347
 31
0.0
 11
173.0034868690331
 21
14.21710232658457
 31
0.0
 11
172.9252231210298
 21
13.99559756969554
 31
0.0
 11
172.8693431224555
 21
13.81626739612925
 31
0.0
 11
172.8082651639442
 21
13.82145433189183
 31
0.0
 11
172.742087361813
 21
13.82315538223859
 31
0.0
 11
172.6758390041282
 21
13.82145433189183
 31
0.0
 11
172.6147963233938
 21
13.81626739612925
 31
0.0
 11
172.889968495193
 21
14.4165650869514
 31
0.0
 11
173.158294573417
 21
15.01343642360773
 31
0.0
 11
173.4240277350405
 21
15.61366245644378
 31
0.0
 11
173.6914740737033
 21
16.22421385386059
 31
0.0
 11
173.7241589339806
 21
16.22421385386059
 31
0.0
 11
173.7568437942579
 21
16.22421385386059
 31
0.0
 11
173.8428300681057
 21
16.01658539037081
 31
0.0
 11
173.9357285813609
 21
15.79254614563514
 31
0.0
 11
174.0328714521464
 21
15.55908663180466
 31
0.0
 11
174.1317936458032
 21
15.32298128464143
 31
0.0
 11
174.2315341249927
 21
15.08649780379781
 31
0.0
 11
174.3313071129354
 21
14.85168781253708
 31
0.0
 11
174.4280608257449
 21
14.62599492196847
 31
0.0
 11
174.5188084970409
 21
14.41658052097917
 31
0.0
 11
174.6022150834546
 21
14.22607611130458
 31
0.0
 11
174.6770293263377
 21
14.05708232662464
 31
0.0
 11
174.7410729186603
 21
13.91781337700665
 31
0.0
 11
174.7922649500513
 21
13.81626739612925
 31
0.0
  0
SPLINE
  5
BC
102
{ACAD_REACTORS
330
D8
102
}
330
48
100
AcDbEntity
  8
_U_30EC_U_30A4_U_30E4_U_30FC_1
  6
Continuous
 62
     2
100
AcDbSpline
210
0.0
220
0.0
230
1.0
 70
    11
 71
     3
 72
    99
 73
    95
 74
    93
 42
0.000000001
 43
0.0000000001
 44
0.00000001
 40
0.0
 40
0.0
 40
0.0
 40
0.0
 40
0.0796417172272494
 40
0.1621768542356016
 40
0.2486489160957669
 40
0.3404969668524634
 40
0.4381912511164653
 40
0.5434463660244956
 40
0.6518115192847276
 40
0.7530190937886854
 40
0.8492196919725116
 40
0.9419290312998169
 40
1.034249663570045
 40
1.129078600620202
 40
1.226697027573242
 40
1.327220425421699
 40
1.470572134938013
 40
1.595489863371214
 40
1.719934125348395
 40
1.850576620127417
 40
1.989059629987304
 40
2.134139054226921
 40
2.280698007207209
 40
2.424529739039477
 40
2.565929576985849
 40
2.708239260773537
 40
2.861717887443654
 40
3.045168540347368
 40
3.183798301138612
 40
3.314813961455456
 40
3.442083470447314
 40
3.569912708372966
 40
3.702177512509369
 40
3.842307559659531
 40
3.992872223245936
 40
4.156750662218324
 40
4.310981861107546
 40
4.445859909322592
 40
4.572393936131585
 40
4.701656719781984
 40
4.768279086008471
 40
4.835960697898417
 40
4.912788918729337
 40
5.00628520848155
 40
5.026909478751627
 40
5.047533749021191
 40
5.101808031471266
 40
5.162325165538553
 40
5.226919745995877
 40
5.294231806596747
 40
5.364544852554895
 40
5.43831905546794
 40
5.517877651324276
 40
5.607647714861588
 40
5.700449642544434
 40
5.788251142364166
 40
5.872714706039796
 40
5.955167292575307
 40
6.037192395190407
 40
6.120669181469137
 40
6.206848616686375
 40
6.296680855416798
 40
6.442558392872622
 40
6.568190371608298
 40
6.692904567360387
 40
6.824220446557165
 40
6.9631218503294
 40
7.107843738851183
 40
7.253431663907301
 40
7.395187468036724
 40
7.533140753237779
 40
7.670550457175268
 40
7.816236511769286
 40
7.987691657359249
 40
8.142277421969272
 40
8.293662615415048
 40
8.442962460879304
 40
8.591598316185356
 40
8.74367899236183
 40
8.903725323699213
 40
9.076307008890561
 40
9.265578604680616
 40
9.459203795360791
 40
9.617619810273577
 40
9.753609671361938
 40
9.874873300004115
 40
9.954520184977818
 40
10.0241641371925
 40
10.09769764405448
 40
10.18909955924975
 40
10.20974586420137
 40
10.23039218263382
 40
10.30057101881267
 40
10.37632012987548
 40
10.37632012987548
 40
10.37632012987548
 40
10.37632012987548
 10
170.1465954835851
 20
14.13795663215991
 30
0.0
 10
170.1632217851219
 20
14.11720608845309
 30
0.0
 10
170.1970784206577
 20
14.07495111711899
 30
0.0
 10
170.2599822541036
 20
14.02029811392069
 30
0.0
 10
170.3332500940393
 20
13.97299025121048
 30
0.0
 10
170.4175969238636
 20
13.93527231437932
 30
0.0
 10
170.5132240615459
 20
13.91040619731948
 30
0.0
 10
170.6171853775346
 20
13.90309559345934
 30
0.0
 10
170.7224020220405
 20
13.9114232279405
 30
0.0
 10
170.8206626371333
 20
13.94149179651525
 30
0.0
 10
170.9058986427548
 20
13.98848822971873
 30
0.0
 10
170.9779220206102
 20
14.04952991250854
 30
0.0
 10
171.0350917709097
 20
14.12412969578581
 30
0.0
 10
171.0767868747439
 20
14.21002464660172
 30
0.0
 10
171.1026952846292
 20
14.30485850432208
 30
0.0
 10
171.1118037332653
 20
14.41854979038364
 30
0.0
 10
171.0986864796487
 20
14.54332587770775
 30
0.0
 10
171.0325330334414
 20
14.6601471917189
 30
0.0
 10
170.9369370919569
 20
14.7451253957737
 30
0.0
 10
170.8249681022369
 20
14.8141668445916
 30
0.0
 10
170.6993659583269
 20
14.87204142045887
 30
0.0
 10
170.5656691620856
 20
14.92373723284337
 30
0.0
 10
170.4313122818831
 20
14.97899092397178
 30
0.0
 10
170.3051983986877
 20
15.04939770641646
 30
0.0
 10
170.1926579987535
 20
15.13785540731247
 30
0.0
 10
170.0969963064458
 20
15.24981067868469
 30
0.0
 10
170.0334157151826
 20
15.3994991010138
 30
0.0
 10
170.0200706505015
 20
15.55932794385139
 30
0.0
 10
170.0320510987448
 20
15.71048405306842
 30
0.0
 10
170.071229892884
 20
15.83809244591536
 30
0.0
 10
170.135498775091
 20
15.95080874030842
 30
0.0
 10
170.2238204999741
 20
16.04648609268683
 30
0.0
 10
170.3338091207627
 20
16.12354214985751
 30
0.0
 10
170.4632284401264
 20
16.18151396936273
 30
0.0
 10
170.6111838967793
 20
16.2173917758882
 30
0.0
 10
170.7682069455487
 20
16.22746719050561
 30
0.0
 10
170.917494046643
 20
16.21863637762587
 30
0.0
 10
171.059625361417
 20
16.1907489934035
 30
0.0
 10
171.1595922609626
 20
16.13413314701135
 30
0.0
 10
171.3125074736185
 20
16.08674602105504
 30
0.0
 10
171.2455131717168
 20
16.00197553001182
 30
0.0
 10
171.2296479120268
 20
15.93438901873481
 30
0.0
 10
171.1978750531297
 20
15.86926092793187
 30
0.0
 10
171.2150202209571
 20
15.76723453256949
 30
0.0
 10
171.1666427208231
 20
15.77493211681898
 30
0.0
 10
171.1315789440766
 20
15.76806771724804
 30
0.0
 10
171.1296697985718
 20
15.83263831158192
 30
0.0
 10
171.0985692931989
 20
15.87825639621393
 30
0.0
 10
171.0664551628455
 20
15.93561036628452
 30
0.0
 10
171.0208038475168
 20
15.98540462692555
 30
0.0
 10
170.9658508218386
 20
16.02994813718992
 30
0.0
 10
170.9010841173007
 20
16.06763988836547
 30
0.0
 10
170.8232377310597
 20
16.09283375791349
 30
0.0
 10
170.7355160553352
 20
16.09931230998107
 30
0.0
 10
170.6452903277806
 20
16.09235709285604
 30
0.0
 10
170.5594594694065
 20
16.06909190460918
 30
0.0
 10
170.4828343638596
 20
16.03131644107541
 30
0.0
 10
170.4165265636201
 20
15.98051641089572
 30
0.0
 10
170.3622560536964
 20
15.91731143407207
 30
0.0
 10
170.3224925345458
 20
15.84276455710364
 30
0.0
 10
170.2976775510588
 20
15.75917313997761
 30
0.0
 10
170.2892124262869
 20
15.65192948382282
 30
0.0
 10
170.3019697987103
 20
15.52965457267556
 30
0.0
 10
170.3681548409273
 20
15.41149724291209
 30
0.0
 10
170.4640977399832
 20
15.32606325709525
 30
0.0
 10
170.5757914963182
 20
15.25583362306719
 30
0.0
 10
170.7010863668702
 20
15.19659162305301
 30
0.0
 10
170.8349823941447
 20
15.14616708086131
 30
0.0
 10
170.9689930333149
 20
15.09322516984379
 30
0.0
 10
171.0950885316915
 20
15.02750170625172
 30
0.0
 10
171.2076216638418
 20
14.94480352537319
 30
0.0
 10
171.3031370284232
 20
14.8399600631007
 30
0.0
 10
171.3672706486963
 20
14.69937117251566
 30
0.0
 10
171.3811103725279
 20
14.54065409451589
 30
0.0
 10
171.3673954712229
 20
14.38153155217872
 30
0.0
 10
171.3244739153984
 20
14.23483828819207
 30
0.0
 10
171.2545906329066
 20
14.10119796587138
 30
0.0
 10
171.1574592213829
 20
13.98532387699288
 30
0.0
 10
171.0347806023657
 20
13.89089981770084
 30
0.0
 10
170.8874408413168
 20
13.82179270651978
 30
0.0
 10
170.7177132497125
 20
13.7795321085885
 30
0.0
 10
170.5317404979596
 20
13.76781736230404
 30
0.0
 10
170.3528955926183
 20
13.77809486683434
 30
0.0
 10
170.1881733753743
 20
13.81966573769151
 30
0.0
 10
170.0834410841056
 20
13.88797642883937
 30
0.0
 10
169.9350960790366
 20
13.93675219032105
 30
0.0
 10
169.9980378194729
 20
14.02976591290839
 30
0.0
 10
170.007227443006
 20
14.10296536248278
 30
0.0
 10
170.0303711301232
 20
14.16936294501344
 30
0.0
 10
170.0034588335317
 20
14.26974809527577
 30
0.0
 10
170.0521338956339
 20
14.26234033517376
 30
0.0
 10
170.0916530580697
 20
14.26894063620891
 30
0.0
 10
170.0996204944701
 20
14.19078703218929
 30
0.0
 10
170.1305436967923
 20
14.15600927375854
 30
0.0
 10
170.1465954835851
 20
14.13795663215991
 30
0.0
 11
170.1465954835851
 21
14.13795663215991
 31
0.0
 11
170.1982038075864
 21
14.07729869814733
 31
0.0
 11
170.2601105501335
 21
14.02271295163317
 31
0.0
 11
170.3327764009802
 21
13.9758398092838
 31
0.0
 11
170.4166468655843
 21
13.93839906276534
 31
0.0
 11
170.511221073241
 21
13.91390636311875
 31
0.0
 11
170.6161603327165
 21
13.90575829888469
 31
0.0
 11
170.7240739497552
 21
13.9156404863822
 31
0.0
 11
170.8208419941616
 21
13.94528704887479
 31
0.0
 11
170.9050776083319
 21
13.99175118948816
 31
0.0
 11
170.9756144207686
 21
14.05191413218147
 31
0.0
 11
171.031944210998
 21
14.12505819466317
 31
0.0
 11
171.0736690016003
 21
14.2102143404752
 31
0.0
 11
171.0994680808032
 21
14.3043619098961
 31
0.0
 11
171.1080824729446
 21
14.40451552098217
 31
0.0
 11
171.0878517703357
 21
14.54643250879394
 31
0.0
 11
171.0272522666731
 21
14.65566684036384
 31
0.0
 11
170.9364971286285
 21
14.74081306430091
 31
0.0
 11
170.826010188474
 21
14.81052746532514
 31
0.0
 11
170.7008523531254
 21
14.8697985416992
 31
0.0
 11
170.5662951950998
 21
14.92404253474117
 31
0.0
 11
170.4316884277007
 21
14.98201274306001
 31
0.0
 11
170.3065802017258
 21
15.05297399304229
 31
0.0
 11
170.196027609828
 21
15.14113315968692
 31
0.0
 11
170.1053381235265
 21
15.25080295132614
 31
0.0
 11
170.0447055469484
 21
15.39179720476312
 31
0.0
 11
170.0245079172553
 21
15.57413260402311
 31
0.0
 11
170.0374030471347
 21
15.71216131926639
 31
0.0
 11
170.0761016659391
 21
15.83733128451286
 31
0.0
 11
170.1393141731506
 21
15.94779262129082
 31
0.0
 11
170.2257499954545
 21
16.04196885390618
 31
0.0
 11
170.3336492808962
 21
16.11846540770648
 31
0.0
 11
170.4613526283328
 21
16.17615670109484
 31
0.0
 11
170.6075393259923
 21
16.2122006680997
 31
0.0
 11
170.770976856545
 21
16.22421385386059
 31
0.0
 11
170.9248918431289
 21
16.21434269066861
 31
0.0
 11
171.0564887242607
 21
16.18477329831494
 31
0.0
 11
171.172563634494
 21
16.13439993895249
 31
0.0
 11
171.2800792741122
 21
16.06264163167874
 31
0.0
 11
171.2516994050444
 21
16.00236624106883
 31
0.0
 11
171.2284855254283
 21
15.93879017337644
 31
0.0
 11
171.2078381040801
 21
15.86478841992266
 31
0.0
 11
171.1871840681487
 21
15.77360197897324
 31
0.0
 11
171.1665597978415
 21
15.77360197897324
 31
0.0
 11
171.1459355275343
 21
15.77360197897324
 31
0.0
 11
171.1256706495791
 21
15.82395108486343
 31
0.0
 11
171.0994658759421
 21
15.87850045116926
 31
0.0
 11
171.0650468924451
 21
15.93316116296112
 31
0.0
 11
171.0203554612937
 21
15.98349593725408
 31
0.0
 11
170.9657333359511
 21
16.02777175321526
 31
0.0
 11
170.9016722004326
 21
16.06436142334498
 31
0.0
 11
170.825968296114
 21
16.08882545979724
 31
0.0
 11
170.7365722046449
 21
16.09701100667019
 31
0.0
 11
170.6440937174207
 21
16.08926973931099
 31
0.0
 11
170.5594072091645
 21
16.06609003445563
 31
0.0
 11
170.483702448884
 21
16.02863495634006
 31
0.0
 11
170.4183754766516
 21
15.978327742811
 31
0.0
 11
170.3650487887664
 21
15.91600293379877
 31
0.0
 11
170.3254809233901
 21
15.84249947895604
 31
0.0
 11
170.3009523754711
 21
15.75988443557388
 31
0.0
 11
170.2927954104108
 21
15.67042329844349
 31
0.0
 11
170.3130095765617
 21
15.5259530814657
 31
0.0
 11
170.373625616682
 21
15.41591177072935
 31
0.0
 11
170.4643479320758
 21
15.33033670130629
 31
0.0
 11
170.5748676948813
 21
15.25941954854622
 31
0.0
 11
170.7000089937719
 21
15.19914305550576
 31
0.0
 11
170.8345826882553
 21
15.1459044791302
 31
0.0
 11
170.9691729191968
 21
15.09039489581071
 31
0.0
 11
171.0942976816297
 21
15.02377281249407
 31
0.0
 11
171.204800907977
 21
14.94118863716747
 31
0.0
 11
171.2955397598288
 21
14.83800003476269
 31
0.0
 11
171.3561557999489
 21
14.70552315979581
 31
0.0
 11
171.3763699660998
 21
14.53526378483836
 31
0.0
 11
171.3621839747998
 21
14.3813303039741
 31
0.0
 11
171.3196087009193
 21
14.23605531269094
 31
0.0
 11
171.2499752884265
 21
14.10398854189065
 31
0.0
 11
171.1544992078713
 21
13.99007218775244
 31
0.0
 11
171.0341060772624
 21
13.89715272597014
 31
0.0
 11
170.8896160201846
 21
13.82832357668177
 31
0.0
 11
170.7223519532713
 21
13.78581275203964
 31
0.0
 11
170.5336103348226
 21
13.77165864614038
 31
0.0
 11
170.3405031726387
 21
13.78581275203964
 31
0.0
 11
170.1878975900911
 21
13.82832357668177
 31
0.0
 11
170.0661897942203
 21
13.88899033013887
 31
0.0
 11
169.9660261826363
 21
13.95734322942735
 31
0.0
 11
169.9922320587039
 21
14.03255545163074
 31
0.0
 11
170.0090121537618
 21
14.10014767383611
 31
0.0
 11
170.0206196447852
 21
14.17275926235959
 31
0.0
 11
170.0313606254139
 21
14.26352788212856
 31
0.0
 11
170.0520069443315
 21
14.26352788212856
 31
0.0
 11
170.0726532632492
 21
14.26352788212856
 31
0.0
 11
170.1048916391629
 21
14.20119204881081
 31
0.0
 11
170.1465954835851
 21
14.13795663215991
 31
0.0
  0
LWPOLYLINE
  5
BD
102
{ACAD_REACTORS
330
CA
102
}
330
48
100
AcDbEntity
  8
_U_30EC_U_30A4_U_30E4_U_30FC_1
  6
Continuous
 62
     2
100
AcDbPolyline
 90
        5
 70
     1
 43
0.0
 10
192.4578138032671
 20
15.39722336795623
 10
192.4578138032671
 20
15.22875434022055
 10
191.160297169703
 20
15.22875434022055
 10
191.160297169703
 20
15.39722336795623
 10
192.4578138032671
 20
15.39722336795623
  0
MTEXT
  5
BF
330
48
100
AcDbEntity
  8
1
 62
     2
100
AcDbMText
 10
32.49999999999999
 20
282.0000000000003
 30
0.0
 40
5.0
 41
0.0
 71
     5
 72
     1
  1
図番
  7
CONVERTER_11
 73
     1
 44
0.45454545454545
  0
MTEXT
  5
C0
330
48
100
AcDbEntity
  8
1
 62
     2
100
AcDbMText
 10
28.99999999999999
 20
33.99999999999999
 30
0.0
 40
3.5
 41
0.0
 71
     5
 72
     1
  1
備考
  7
CONVERTER_11
 73
     1
 44
0.45454545454545
  0
MTEXT
  5
C1
330
48
100
AcDbEntity
  8
1
 62
     2
100
AcDbMText
 10
28.99999999999999
 20
22.74999999999997
 30
0.0
 40
3.5
 41
0.0
 71
     5
 72
     1
  1
品名
  7
CONVERTER_11
 73
     1
 44
0.72727272727273
  0
MTEXT
  5
C2
330
48
100
AcDbEntity
  8
1
 62
     2
100
AcDbMText
 10
28.99999999999999
 20
14.24999999999997
 30
0.0
 40
3.5
 41
0.0
 71
     5
 72
     1
  1
品番
  7
CONVERTER_11
 73
     1
 44
0.72727272727273
  0
MTEXT
  5
C3
330
48
100
AcDbEntity
  8
1
 62
     2
100
AcDbMText
 10
101.5
 20
24.99999999999998
 30
0.0
 40
3.0
 41
0.0
 71
     5
 72
     1
  1
承認
  7
CONVERTER_11
 73
     1
 44
0.59090909090909
  0
MTEXT
  5
C4
330
48
100
AcDbEntity
  8
1
 62
     2
100
AcDbMText
 10
175.0000000000001
 20
23.49999999999998
 30
0.0
 40
3.5
 41
0.0
 71
     5
 72
     1
  1
第三角法
  7
CONVERTER_11
 73
     1
 44
0.54545454545455
  0
MTEXT
  5
C5
330
48
100
AcDbEntity
  8
1
 62
     2
100
AcDbMText
 10
118.5
 20
24.99999999999998
 30
0.0
 40
3.0
 41
0.0
 71
     5
 72
     1
  1
検図
  7
CONVERTER_11
 73
     1
 44
0.59090909090909
  0
MTEXT
  5
C6
330
48
100
AcDbEntity
  8
1
 62
     2
100
AcDbMText
 10
152.5
 20
24.99999999999998
 30
0.0
 40
3.0
 41
0.0
 71
     5
 72
     1
  1
設計
  7
CONVERTER_11
 73
     1
 44
0.59090909090909
  0
MTEXT
  5
C7
330
48
100
AcDbEntity
  8
1
 62
     2
100
AcDbMText
 10
135.5
 20
24.99999999999998
 30
0.0
 40
3.0
 41
0.0
 71
     5
 72
     1
  1
製図
  7
CONVERTER_11
 73
     1
 44
0.59090909090909
  0
MTEXT
  5
C8
330
48
100
AcDbEntity
  8
1
 62
     2
100
AcDbMText
 10
89.5
 20
23.99999999999998
 30
0.0
 40
3.5
 41
0.0
 71
     5
 72
     1
  1
尺度
  7
CONVERTER_11
 73
     1
 44
0.54545454545455
  0
MTEXT
  5
C9
330
48
100
AcDbEntity
  8
1
 62
   250
100
AcDbMText
 10
24.99999999999999
 20
4.99999999999997
 30
0.0
 40
3.5
 41
0.0
 71
     4
 72
     1
  1
備考欄の文字列 原点位置=4
  7
CONVERTER_11
 73
     1
 44
0.54545454545455
  0
HATCH
  5
CA
330
48
100
AcDbEntity
  8
1
  6
Continuous
 62
     2
100
AcDbHatch
 10
0.0
 20
0.0
 30
0.0
210
0.0
220
0.0
230
1.0
  2
CUSTOM0
 70
     0
 71
     1
 91
        1
 92
        1
 93
        4
 72
     1
 10
192.4578138032671
 20
15.39722336795623
 11
192.4578138032671
 21
15.22875434022055
 72
     1
 10
192.4578138032671
 20
15.22875434022055
 11
191.160297169703
 21
15.22875434022055
 72
     1
 10
191.160297169703
 20
15.22875434022055
 11
191.160297169703
 21
15.39722336795623
 72
     1
 10
191.160297169703
 20
15.39722336795623
 11
192.4578138032671
 21
15.39722336795623
 97
        1
330
BD
 75
     1
 76
     2
 52
45.0
 41
0.1
 77
     0
 78
     1
 53
45.0
 43
0.0
 44
0.0
 45
-0.282842712474619
 46
0.0
 79
     0
 98
        1
 10
0.0
 20
0.0
  0
HATCH
  5
CB
330
48
100
AcDbEntity
  8
1
  6
Continuous
 62
     2
100
AcDbHatch
 10
0.0
 20
0.0
 30
0.0
210
0.0
220
0.0
230
1.0
  2
CUSTOM1
 70
     0
 71
     1
 91
        1
 92
        1
 93
        3
 72
     4
 94
        3
 73
     0
 74
     0
 95
       24
 96
       20
 40
0.0
 40
0.0
 40
0.0
 40
0.0
 40
0.2211075008753382
 40
0.4273218586245402
 40
0.5080174679238092
 40
0.5914835907869557
 40
0.8143265690191805
 40
1.054651302686471
 40
1.295452694023072
 40
1.518109231328729
 40
1.540864321905371
 40
1.595126460622632
 40
1.659890947895973
 40
1.714153085187359
 40
1.736908174961658
 40
1.764951100735407
 40
1.801562291220997
 40
1.953914424543683
 40
2.12610416737975
 40
2.12610416737975
 40
2.12610416737975
 40
2.12610416737975
 10
185.9375369556888
 20
15.58989295113014
 10
185.9112579081812
 20
15.53097628234372
 10
185.8604698894427
 20
15.41711139679251
 10
185.8131784839109
 20
15.14441958233113
 10
185.7043482802618
 20
15.24445482575456
 10
185.5514800279637
 20
15.27118593367326
 10
185.7686155181198
 20
15.4851813501763
 10
185.783848367438
 20
15.70332117782486
 10
185.8906889492001
 20
15.88451579066423
 10
185.8305380947077
 20
16.16913226311397
 10
185.9334317395402
 20
16.14114089222448
 10
185.977993346815
 20
16.13243251602297
 10
186.0380842395397
 20
16.12139654183352
 10
186.0756619587439
 20
16.10767523055558
 10
186.1252466928607
 20
16.1075607616022
 10
186.0930158919325
 20
16.07306592398622
 10
186.0171802221882
 20
16.08404104537957
 10
186.0429447159692
 20
15.89858969582449
 10
186.0055896763849
 20
15.80702313549587
 10
185.9857704961609
 20
15.75844135397702
 72
     4
 94
        3
 73
     0
 74
     0
 95
       70
 96
       66
 40
0.0
 40
0.0
 40
0.0
 40
0.0
 40
0.0241731073021188
 40
0.0846058988987013
 40
0.1631685280352715
 40
0.2417311571788903
 40
0.3021639488291614
 40
0.3263370654894688
 40
0.3533118254248028
 40
0.4228783438921241
 40
0.517999909531255
 40
0.6216398239465232
 40
0.7167613891498835
 40
0.7863279069648993
 40
0.8133026791760966
 40
0.8372943998771086
 40
0.8945054261372277
 40
0.962789554196233
 40
1.020000580349043
 40
1.043992300975169
 40
1.071934345522908
 40
1.113121768772841
 40
1.145225199332165
 40
1.2254837754127
 40
1.329819923771409
 40
1.434156071994299
 40
1.514414647795718
 40
1.546518078208326
 40
1.578974764260128
 40
1.662678849314066
 40
1.777131373668287
 40
1.901833377474678
 40
2.016285900500439
 40
2.099989982527778
 40
2.132446666570136
 40
2.158782354485858
 40
2.216720867907644
 40
2.274659381334061
 40
2.300995069255996
 40
2.333451754065968
 40
2.41715583654362
 40
2.531608358985059
 40
2.656310362283554
 40
2.770762886388658
 40
2.854466971339795
 40
2.886923657363602
 40
2.913597976833036
 40
2.982389642874841
 40
3.076451716946709
 40
3.178937260458327
 40
3.272999334739732
 40
3.341791001058957
 40
3.368465320663268
 40
3.396976080738517
 40
3.472140811845725
 40
3.578408190308414
 40
3.700226892455879
 40
3.822045594634096
 40
3.928312973256203
 40
4.003477705314601
 40
4.031988456866666
 40
4.058324144797465
 40
4.116262658236626
 40
4.174201171400424
 40
4.200536849608357
 40
4.200536849608357
 40
4.200536849608357
 40
4.200536849608357
 10
185.9857704961609
 20
15.75844135397702
 10
185.9938259544679
 20
15.75844359811684
 10
186.0220200663241
 20
15.75845146032794
 10
186.0765534803672
 20
15.75830754828368
 10
186.1482891808603
 20
15.75909120499895
 10
186.2236240137062
 20
15.75627570463808
 10
186.2713052366438
 20
15.76298403400954
 10
186.3195071245615
 20
15.75197563692429
 10
186.3062571799873
 20
15.8054640299703
 10
186.3151093964537
 20
15.86049583543089
 10
186.3108698036285
 20
15.95419908726106
 10
186.3133483481279
 20
16.04959482218529
 10
186.3090938706059
 20
16.14356821983383
 10
186.3179818665846
 20
16.1979506243801
 10
186.3046977409944
 20
16.25233997691458
 10
186.3514119277108
 20
16.23842216335355
 10
186.3943254545736
 20
16.24103877374042
 10
186.4605443456684
 20
16.23648422450751
 10
186.5013342271799
 20
16.2277816213416
 10
186.5525145690818
 20
16.23531799890193
 10
186.5253720487201
 20
16.19349970223286
 10
186.4803096055708
 20
16.2028499207259
 10
186.4942065045051
 20
16.13841207371834
 10
186.4858414431655
 20
16.07378219627396
 10
186.4903632178399
 20
15.97529141193884
 10
186.4854741311168
 20
15.87595932842567
 10
186.4950258992082
 20
15.81293115552965
 10
186.4799761455201
 20
15.74964011499785
 10
186.5449159457208
 20
15.76515072944265
 10
186.6116246399498
 20
15.7549938769781
 10
186.7241435470828
 20
15.75988800099364
 10
186.8390235448954
 20
15.75691204732781
 10
186.9519871999747
 20
15.76221664184988
 10
187.0176267597677
 20
15.75107306472086
 10
187.0816276691053
 20
15.76744532319854
 10
187.070314288919
 20
15.71761689905272
 10
187.0775339871509
 20
15.6741671521212
 10
187.0703142611269
 20
15.63071745587442
 10
187.0816277175994
 20
15.58088895196875
 10
187.0176263598971
 20
15.5972616609136
 10
186.951992124046
 20
15.58611271661586
 10
186.838997431733
 20
15.59144857206852
 10
186.7242456548644
 20
15.58834345663819
 10
186.6113183686861
 20
15.59364894682587
 10
186.5455220903586
 20
15.58257300019591
 10
186.4816097975358
 20
15.59887597847616
 10
186.4936015165128
 20
15.5442352439574
 10
186.4862104613005
 20
15.48854295047839
 10
186.4892684841984
 20
15.39649689140568
 10
186.4893422785684
 20
15.30179109873098
 10
186.486031357836
 20
15.20952782902262
 10
186.4939505989904
 20
15.15435768736136
 10
186.4815076611618
 20
15.10058169100132
 10
186.5389116551632
 20
15.11453768862777
 10
186.5994708140384
 20
15.10511457884224
 10
186.7048680855082
 20
15.10942885928702
 10
186.8204294070624
 20
15.10835504612028
 10
186.9359688877798
 20
15.10725965900992
 10
187.0414181130842
 20
15.11162525770629
 10
187.1018680471805
 20
15.10209426030667
 10
187.1592837739111
 20
15.11617289606376
 10
187.1477773876711
 20
15.0670715326568
 10
187.1537566781749
 20
15.02564658018646
 10
187.1520311050804
 20
14.97651677966692
 10
187.1521500122972
 20
14.94854428447605
 10
187.1521871691834
 20
14.93980288195947
 72
     4
 94
        3
 73
     0
 74
     0
 95
       62
 96
       58
 40
0.0
 40
0.0
 40
0.0
 40
0.0
 40
0.0598250028308769
 40
0.2024846486897616
 40
0.3727558389220746
 40
0.515415484793607
 40
0.5752404975785339
 40
0.9332326775486943
 40
1.290451762839446
 40
1.602077253145804
 40
1.699931634111994
 40
1.799359756425023
 40
2.270120149657025
 40
2.80466192846144
 40
2.882342287383153
 40
3.076543185719009
 40
3.329004354835476
 40
3.581465524568308
 40
3.775666424543594
 40
3.853346784558216
 40
3.899120679595018
 40
3.984129341792102
 40
4.029903236817479
 40
4.105797496059633
 40
4.295533144152593
 40
4.542189486611836
 40
4.788845828875784
 40
4.978581476410168
 40
5.054475735244411
 40
5.621734664339396
 40
6.130867242037388
 40
6.225249780948564
 40
6.31891303972727
 40
6.663579954558795
 40
7.047498900224642
 40
7.435230791575573
 40
7.498943906667985
 40
7.650875181210007
 40
7.832212509001574
 40
7.98414378369696
 40
8.047856898903117
 40
8.091554632732624
 40
8.172707566964279
 40
8.216405300768002
 40
8.289021782160887
 40
8.462184160757232
 40
8.668861838005398
 40
8.842024215263962
 40
8.914640695475157
 40
8.989881580861363
 40
9.155411528827276
 40
9.320941477744066
 40
9.396182352487317
 40
9.454709011143835
 40
9.583467660170827
 40
9.71222630901305
 40
9.770752957989531
 40
9.770752957989531
 40
9.770752957989531
 40
9.770752957989531
 10
187.1521871691834
 20
14.93980288195947
 10
187.1322348171624
 20
14.93980875568668
 10
187.0647037716466
 20
14.93982863806155
 10
186.9410612161789
 20
14.93949362520322
 10
186.7863180150057
 20
14.94107673750509
 10
186.6697349482481
 20
14.93686078860492
 10
186.4550942634242
 20
14.95215205331624
 10
186.8518948407228
 20
14.59198721286187
 10
186.8945656069268
 20
14.37510503397162
 10
187.3189162146611
 20
14.19325062511451
 10
187.1439821496074
 20
14.08985196568062
 10
187.0194523925081
 20
13.87831523212737
 10
186.7666277235944
 20
14.34806081001549
 10
186.4797602893627
 20
14.99511516984519
 10
186.4906335926661
 20
14.68782672154693
 10
186.488289277796
 20
14.52288616971777
 10
186.4861096126411
 20
14.28879670711691
 10
186.4980774396348
 20
14.04498072421781
 10
186.4687984740632
 20
13.8985579686098
 10
186.5114522625471
 20
13.75113490174534
 10
186.4239814005639
 20
13.76685797306217
 10
186.3768527606744
 20
13.76694303543452
 10
186.2898973207712
 20
13.75109425482905
 10
186.3313474021722
 20
13.89527771422759
 10
186.3029875004283
 20
14.03855052698453
 10
186.3145973775298
 20
14.27674947365261
 10
186.312417564827
 20
14.50517235240343
 10
186.3103111127993
 20
14.66705729375991
 10
186.3208035438321
 20
14.98153709333748
 10
186.0128963252894
 20
14.29229470872438
 10
185.7055258267455
 20
13.8147675024304
 10
185.5851367066275
 20
14.03741112637427
 10
185.4074607910723
 20
14.15011034955562
 10
185.8853326362894
 20
14.32548143465462
 10
185.9353959057208
 20
14.56091929252027
 10
186.3583799621717
 20
14.95322989344604
 10
186.127675427354
 20
14.93655307029063
 10
186.0049685859341
 20
14.94269518948768
 10
185.8325483095661
 20
14.93312822699571
 10
185.7213224694448
 20
14.95448818489663
 10
185.6025779627446
 20
14.92136265357416
 10
185.6183169706685
 20
15.0020390060688
 10
185.6178550933761
 20
15.04645414290851
 10
185.602788188993
 20
15.1296708177853
 10
185.7372380935442
 20
15.0906265198388
 10
185.8619755545745
 20
15.11739729328419
 10
186.0628755237279
 20
15.10063949044049
 10
186.1921540949352
 20
15.12204225913
 10
186.3328419928294
 20
15.08868778853417
 10
186.2980927452614
 20
15.22651875785065
 10
186.3222185666712
 20
15.34963257349478
 10
186.2967086182392
 20
15.47024055670333
 10
186.3333251146684
 20
15.60539865141492
 10
186.2211417027769
 20
15.58094545781889
 10
186.1280356457135
 20
15.5930774984202
 10
186.0191547579819
 20
15.58957630069992
 10
185.9569697640963
 20
15.589817559516
 10
185.9375369557245
 20
15.58989295124142
 97
        3
330
AE
330
AC
330
AD
 75
     1
 76
     2
 52
45.0
 41
0.1
 77
     0
 78
     1
 53
45.0
 43
0.0
 44
0.0
 45
-0.282842712474619
 46
0.0
 79
     0
 98
        1
 10
0.0
 20
0.0
  0
HATCH
  5
CC
330
48
100
AcDbEntity
  8
1
  6
Continuous
 62
     2
100
AcDbHatch
 10
0.0
 20
0.0
 30
0.0
210
0.0
220
0.0
230
1.0
  2
CUSTOM2
 70
     0
 71
     1
 91
        1
 92
        1
 93
        1
 72
     4
 94
        3
 73
     0
 74
     0
 95
      124
 96
      120
 40
0.0
 40
0.0
 40
0.0
 40
0.0
 40
0.027818722962451
 40
0.1011590162384838
 40
0.2048470170590523
 40
0.3237088716559814
 40
0.4425707262523421
 40
0.5462587270701252
 40
0.6195990203313787
 40
0.647417752258065
 40
0.6750060736117214
 40
0.735700385524473
 40
0.7963946998056464
 40
0.8239830245573756
 40
0.8540933811105134
 40
0.9373396629411246
 40
1.063094687343462
 40
1.220731268638329
 40
1.399622220915003
 40
1.589140358638045
 40
1.778658496424183
 40
1.95754944894085
 40
2.1151860308735
 40
2.240941056914832
 40
2.32418734176093
 40
2.35429770010978
 40
2.381886024672286
 40
2.442580338710875
 40
2.503274652750895
 40
2.530862977315004
 40
2.560983949278957
 40
2.640393784453331
 40
2.752662861759526
 40
2.881361560118514
 40
3.010060258455561
 40
3.122329335705737
 40
3.20173917081835
 40
3.231860142753711
 40
3.264298024030766
 40
3.352343701778639
 40
3.482095226869164
 40
3.639650650173428
 40
3.811108022565887
 40
3.982565394928396
 40
4.140120818152979
 40
4.26987234314169
 40
4.357918020802754
 40
4.390355902044383
 40
4.423256253992952
 40
4.508104530073417
 40
4.624121560637213
 40
4.750528176031941
 40
4.86654520660236
 40
4.951393482692288
 40
4.98429383464569
 40
5.011450833242603
 40
5.071196230152382
 40
5.130941627057449
 40
5.158098625649113
 40
5.190998977601775
 40
5.275847253689601
 40
5.391864284257035
 40
5.518270899648551
 40
5.634287930209534
 40
5.719136206288208
 40
5.752036558236095
 40
5.782130946283123
 40
5.862783906229294
 40
5.979550131775162
 40
6.117984316640569
 40
6.263641154588115
 40
6.40207533941432
 40
6.518841564908112
 40
6.599494524815698
 40
6.629588912848935
 40
6.65440302822654
 40
6.713575149488307
 40
6.784199939329681
 40
6.843372060493811
 40
6.868186175803057
 40
6.896246243202119
 40
6.93958623375865
 40
6.967846564565281
 40
7.043584251090216
 40
7.153234334452074
 40
7.283231855734824
 40
7.42001185603586
 40
7.550009376580212
 40
7.659659458835609
 40
7.735397144417602
 40
7.763657474851776
 40
7.796409728011405
 40
7.880876065096707
 40
7.996370852466093
 40
8.122208446418988
 40
8.237703224799581
 40
8.322169562011275
 40
8.35492181520629
 40
8.382078813308068
 40
8.441824209207367
 40
8.501569605240508
 40
8.528726603486085
 40
8.561478856696105
 40
8.645945193878156
 40
8.761439980865696
 40
8.887277580764867
 40
9.002772362001359
 40
9.08723869666158
 40
9.119990949236033
 40
9.152428830613733
 40
9.24047450863895
 40
9.370226034149903
 40
9.527781457984789
 40
9.699238830981779
 40
9.870696203978971
 40
10.0282516278144
 40
10.15800315332602
 40
10.24604883135157
 40
10.27848670378559
 40
10.27848670378559
 40
10.27848670378559
 40
10.27848670378559
 10
195.3821827564382
 20
14.01410517385754
 10
195.3914554737522
 20
14.01410498511271
 10
195.4251744536859
 20
14.01410430876711
 10
195.4934706812465
 20
14.01411807243301
 10
195.5920141711579
 20
14.01403224219542
 10
195.7062066464811
 20
14.01441755612247
 10
195.8185894417071
 20
14.01300835897542
 10
195.9214376600119
 20
14.0171911742224
 10
195.980683987485
 20
14.0082308925198
 10
196.0371265937034
 20
14.02164434526058
 10
196.0246255586956
 20
13.97087198613359
 10
196.0329549635704
 20
13.92589320939064
 10
196.024817084112
 20
13.88056752990485
 10
196.0370529214458
 20
13.82931932408462
 10
195.9747773490334
 20
13.84447955365273
 10
195.9060513026868
 20
13.83359750710739
 10
195.7782756749592
 20
13.83911304747969
 10
195.6262984511644
 20
13.83700851253696
 10
195.4502695972522
 20
13.8377100258847
 10
195.2644431934287
 20
13.83745237531289
 10
195.0786167437175
 20
13.837710051446
 10
194.9025880142167
 20
13.83700841847728
 10
194.7506104154193
 20
13.83911332229986
 10
194.6228357664553
 20
13.83359680767637
 10
194.5541077836579
 20
13.84448077125939
 10
194.4918349042882
 20
13.82931786684207
 10
194.5040616290016
 20
13.88057510805168
 10
194.4960004462595
 20
13.92582473272422
 10
194.5040675809892
 20
13.9710635795532
 10
194.4918238487082
 20
14.02234176909955
 10
194.5525017120697
 20
14.00749577363132
 10
194.6162810745735
 20
14.01756448170732
 10
194.7277314353502
 20
14.01294644211997
 10
194.8497533443822
 20
14.01413328905466
 10
194.9719538137822
 20
14.01515863900632
 10
195.082979428739
 20
14.01092475623398
 10
195.1476517413957
 20
14.02018584521736
 10
195.20911628105
 20
14.00604423049679
 10
195.1930065601335
 20
14.07235527884514
 10
195.2042980327358
 20
14.14447790121973
 10
195.1987400822558
 20
14.27513760888283
 10
195.2008035061689
 20
14.42607323708239
 10
195.2000167127293
 20
14.59335873107883
 10
195.2007845215626
 20
14.76061110332301
 10
195.1988038785627
 20
14.91163289269912
 10
195.2041306156619
 20
15.04206069552993
 10
195.1933101388423
 20
15.11465442605898
 10
195.2090326429874
 20
15.18150469436797
 10
195.143270813249
 20
15.16580512490823
 10
195.0756367830763
 20
15.17609243083995
 10
194.9615885293808
 20
15.1711378684712
 10
194.8451242674902
 20
15.17414128030474
 10
194.7306554121477
 20
15.16880303143388
 10
194.6640324657812
 20
15.18001268074823
 10
194.5990769715185
 20
15.1634913266501
 10
194.6107989758708
 20
15.21473720477058
 10
194.6032830189121
 20
15.25950333784089
 10
194.6107989878835
 20
15.30426944897958
 10
194.5990769505347
 20
15.35551536129737
 10
194.66403263392
 20
15.33899381766812
 10
194.730653333982
 20
15.3502057137394
 10
194.8451352858063
 20
15.34485436710662
 10
194.9615454436961
 20
15.34791188771114
 10
195.0757660174641
 20
15.34278499010706
 10
195.1430150439225
 20
15.35345733355595
 10
195.2083325941437
 20
15.33742082669074
 10
195.1941391448551
 20
15.39949685750051
 10
195.2036059462993
 20
15.4658676162876
 10
195.1990269004083
 20
15.58239972741963
 10
195.2007696555947
 20
15.71426685022373
 10
195.199755149539
 20
15.8561596015027
 10
195.201719134437
 20
15.98769050702577
 10
195.196466855385
 20
16.10524577282999
 10
195.2073408763472
 20
16.16947789001581
 10
195.1919536641853
 20
16.23108802545045
 10
195.2407591537799
 20
16.21702407382108
 10
195.2853995564725
 20
16.2195474207531
 10
195.3538643946742
 20
16.21512797401707
 10
195.3959106169103
 20
16.20613025544031
 10
195.4487544758775
 20
16.21411714866507
 10
195.4207035002013
 20
16.17113917611663
 10
195.3749142248592
 20
16.18259552043839
 10
195.3869539073264
 20
16.12173520005134
 10
195.3796086070639
 20
16.0576929946877
 10
195.383119582616
 20
15.94909368863908
 10
195.3819806760172
 20
15.8249431914475
 10
195.3819174780261
 20
15.69189719829875
 10
195.3832872966866
 20
15.56797381249553
 10
195.3791638801313
 20
15.45868337849335
 10
195.3877763103563
 20
15.39608580094167
 10
195.37467574544
 20
15.33740133296363
 10
195.4393884328197
 20
15.35362113810899
 10
195.5060405953154
 20
15.34270260383308
 10
195.6198779541102
 20
15.34793740173753
 10
195.7357259122095
 20
15.3448554751691
 10
195.8496924263279
 20
15.35018259812509
 10
195.9160341018098
 20
15.3390420816654
 10
195.9807188525479
 20
15.35546979593175
 10
195.9689820772721
 20
15.30425925210048
 10
195.976516806304
 20
15.25950334120999
 10
195.9689820992256
 20
15.21474739010026
 10
195.9807188140735
 20
15.16353690871039
 10
195.9160344075251
 20
15.17996427794219
 10
195.8496886430824
 20
15.16882784447269
 10
195.735745948701
 20
15.17413115893118
 10
195.6197995623054
 20
15.17114764593543
 10
195.5062756882121
 20
15.17606892268392
 10
195.4389231318802
 20
15.16585087513518
 10
195.3734285122494
 20
15.18145996138814
 10
195.3891713619217
 20
15.1146385182741
 10
195.3783275998212
 20
15.04207057815877
 10
195.3836581629791
 20
14.91162247614414
 10
195.3817136151854
 20
14.76064558185224
 10
195.3823133683213
 20
14.59322243934156
 10
195.3821506559604
 20
14.42656176118369
 10
195.3821895488135
 20
14.27360142921633
 10
195.3821816413097
 20
14.14849178985702
 10
195.3821828382745
 20
14.06507890991417
 10
195.3821827716206
 20
14.02491778281973
 10
195.3821827564382
 20
14.01410517385754
 97
        1
330
AF
 75
     1
 76
     2
 52
45.0
 41
0.1
 77
     0
 78
     1
 53
45.0
 43
0.0
 44
0.0
 45
-0.282842712474619
 46
0.0
 79
     0
 98
        1
 10
0.0
 20
0.0
  0
HATCH
  5
CD
330
48
100
AcDbEntity
  8
1
  6
Continuous
 62
     2
100
AcDbHatch
 10
0.0
 20
0.0
 30
0.0
210
0.0
220
0.0
230
1.0
  2
CUSTOM3
 70
     0
 71
     1
 91
        1
 92
        1
 93
        1
 72
     4
 94
        3
 73
     0
 74
     0
 95
      131
 96
      127
 40
0.0
 40
0.0
 40
0.0
 40
0.0
 40
0.019557702982582
 40
0.0426490537459887
 40
0.2863607575855309
 40
0.5344948436188317
 40
0.7842238845572229
 40
0.8737315789466629
 40
0.9803832810312336
 40
1.092842274517004
 40
1.199761146656736
 40
1.28978876818644
 40
1.351573580786084
 40
1.370727117561312
 40
1.416400936017713
 40
1.470914848355827
 40
1.516588666791606
 40
1.535742203552687
 40
1.63421659229304
 40
1.760283341174875
 40
1.897966686682002
 40
2.031216387368847
 40
2.049689751137841
 40
2.101115601646777
 40
2.179502577739894
 40
2.278859318314009
 40
2.393194462258665
 40
2.516516648383782
 40
2.642834515405907
 40
2.766156701983411
 40
2.880491846754524
 40
2.979848588358566
 40
3.058235565443743
 40
3.109661416668896
 40
3.128134780704073
 40
3.14678374238639
 40
3.191254343315251
 40
3.24433215731591
 40
3.288802758225813
 40
3.307451719895056
 40
3.327717853844668
 40
3.38374775358003
 40
3.468388665924422
 40
3.574487837698728
 40
3.694892515728833
 40
3.822449946851975
 40
3.950007377920365
 40
4.070412055800459
 40
4.176511227368014
 40
4.26115213950146
 40
4.317182039076654
 40
4.337448172964574
 40
4.620011002696189
 40
4.885096638397461
 40
4.945373043518269
 40
5.014107710488569
 40
5.070481727651999
 40
5.319246955636522
 40
5.584812164506037
 40
5.859000912056928
 40
6.133746937542056
 40
6.40173221296884
 40
6.420736683995431
 40
6.472845717451081
 40
6.550702743894009
 40
6.646951193874218
 40
6.754234497930542
 40
6.86519608658732
 40
6.972479390357778
 40
7.06872783977194
 40
7.146584865450949
 40
7.198693898189179
 40
7.217698368905319
 40
7.234950401630796
 40
7.276089864269842
 40
7.325191803515951
 40
7.366331266090338
 40
7.383583298769688
 40
7.402779163492065
 40
7.453386443254496
 40
7.524934666445498
 40
7.606953361405838
 40
7.688972056428989
 40
7.76052027978424
 40
7.811127559734482
 40
7.830323424546103
 40
7.847844055299731
 40
7.894799345666774
 40
7.962779392744464
 40
8.043374293560513
 40
8.128174145149421
 40
8.208769044817226
 40
8.27674909037693
 40
8.323704379669488
 40
8.341225010056222
 40
8.35849761480037
 40
8.401679126686576
 40
8.457815092185633
 40
8.513951057728038
 40
8.557132569707994
 40
8.574405174505037
 40
8.602340668616376
 40
8.643455660539972
 40
8.663225271966644
 40
8.715345156564288
 40
8.78903188962862
 40
8.87350204552035
 40
8.957972194323974
 40
9.031658925567866
 40
9.083778811234554
 40
9.103548423003017
 40
9.119550083123555
 40
9.160817522379856
 40
9.217244429110222
 40
9.278724491644708
 40
9.335151398295492
 40
9.376418837357788
 40
9.392420497300575
 40
9.401196302734794
 40
9.417494229384188
 40
9.42627002774946
 40
9.440875075477468
 40
9.475702496998672
 40
9.517270709865832
 40
9.552098131994025
 40
9.566703169884208
 40
9.566703169884208
 40
9.566703169884208
 40
9.566703169884208
 10
194.6170254148478
 20
15.67015871511025
 10
194.613434509337
 20
15.66453690702157
 10
194.6056039123624
 20
15.65227754419113
 10
194.5129968974549
 20
15.61601916040941
 10
194.4887622233247
 20
15.40148444212722
 10
194.3858709845938
 20
15.22197284509704
 10
194.1220492364305
 20
15.0361557379814
 10
194.284547156918
 20
14.95959336566079
 10
194.3607225760839
 20
14.8985669319544
 10
194.4492171072758
 20
14.83515804544759
 10
194.5389930233111
 20
14.77525634219557
 10
194.5883817636047
 20
14.72102154849209
 10
194.6745708157381
 20
14.69286240541831
 10
194.641126067423
 20
14.65713309652811
 10
194.6214671166311
 20
14.62550387991905
 10
194.5919888217882
 20
14.58475872796066
 10
194.5688989446032
 20
14.5550466348964
 10
194.5380205968358
 20
14.50211422668491
 10
194.4729193365741
 20
14.62740334938899
 10
194.3796000122416
 20
14.68213900233934
 10
194.2950636285139
 20
14.73916423939337
 10
194.1722498125743
 20
14.8967528742752
 10
194.1764450847301
 20
14.82035806766833
 10
194.1751478652677
 20
14.77361280161293
 10
194.1758126448076
 20
14.69584785812598
 10
194.1755549986957
 20
14.5990206832442
 10
194.1756431239922
 20
14.48650279078806
 10
194.1756077302282
 20
14.36524085945697
 10
194.1756511758278
 20
14.24086897858958
 10
194.1755199942406
 20
14.11967683631334
 10
194.1759477562046
 20
14.0069114891974
 10
194.174667820231
 20
13.91082913768741
 10
194.1779759851044
 20
13.83113826468697
 10
194.1715197740085
 20
13.78815175788781
 10
194.1806208705556
 20
13.7495543237204
 10
194.1447910339935
 20
13.75810887724067
 10
194.1115223815252
 20
13.75342519985444
 10
194.0604562576041
 20
13.75351298759782
 10
194.0269723972812
 20
13.75794430283818
 10
193.9907585408754
 20
13.74960793842507
 10
194.0009782568665
 20
13.79145277179281
 10
193.9936487887774
 20
13.83778560820171
 10
193.9973633136102
 20
13.92374831106011
 10
193.9959480554896
 20
14.02605142704847
 10
193.9964105554637
 20
14.14453223931509
 10
193.996277368623
 20
14.26957683153353
 10
193.9963015910045
 20
14.39475828107048
 10
193.9963354925551
 20
14.51286645379055
 10
193.9962060293131
 20
14.61628748709514
 10
193.9965507549082
 20
14.69932036153664
 10
193.995869827869
 20
14.75143368521241
 10
193.9994586600623
 20
14.8791290782136
 10
193.7826171386436
 20
14.58048716819617
 10
193.602135492195
 20
14.35263981511511
 10
193.5490322295612
 20
14.49373443289811
 10
193.5200429133149
 20
14.54325767560944
 10
193.419664806282
 20
14.64641779790099
 10
193.7405127723262
 20
14.7269503502378
 10
193.868989700543
 20
14.91066283036432
 10
194.090645432536
 20
15.11931995771756
 10
194.1770224894066
 20
15.29339211228343
 10
194.4549394229078
 20
15.56967051342509
 10
194.3346247839283
 20
15.56534559551111
 10
194.2863197351349
 20
15.56614856202549
 10
194.2102377454905
 20
15.56574582146582
 10
194.116701000975
 20
15.56590275611606
 10
194.0117594788557
 20
15.56582502576221
 10
193.9033887738717
 20
15.56595464378551
 10
193.7981454235897
 20
15.56554393490688
 10
193.7056237819412
 20
15.56682073671588
 10
193.6268130800707
 20
15.56340766534847
 10
193.5839674565379
 20
15.57023350036317
 10
193.5449499586516
 20
15.5606506420112
 10
193.5526365271863
 20
15.5942077956554
 10
193.5485464404312
 20
15.6252355032223
 10
193.5485531368813
 20
15.67236529270897
 10
193.5526239724911
 20
15.70340941646776
 10
193.5449495574583
 20
15.73701861635898
 10
193.5834819405494
 20
15.72748410420869
 10
193.624122801448
 20
15.73397435498067
 10
193.6951471850463
 20
15.73100150650251
 10
193.7729318149633
 20
15.73174761399154
 10
193.8507292246474
 20
15.73247814044523
 10
193.9217232089908
 20
15.72954235514157
 10
193.9624279791819
 20
15.73595468772948
 10
194.0009853489909
 20
15.72650524176001
 10
193.9927342754928
 20
15.76264692158782
 10
193.9982346669358
 20
15.80129837613224
 10
193.9955754206163
 20
15.86913528561836
 10
193.9965815471533
 20
15.94591641538737
 10
193.9960178018319
 20
16.02849393582755
 10
193.9970714526593
 20
16.10517329229875
 10
193.9942675863129
 20
16.17331990776697
 10
194.0000702721304
 20
16.21132399809344
 10
193.9915654551158
 20
16.24758448077644
 10
194.0255610233125
 20
16.2375572377185
 10
194.05945756831
 20
16.24073266813705
 10
194.1126669060346
 20
16.23508965640607
 10
194.1660768574482
 20
16.23434774436423
 10
194.1995914649491
 20
16.22819223482978
 10
194.2388086183038
 20
16.23346029773591
 10
194.2120263698494
 20
16.19253380793483
 10
194.1708111001723
 20
16.2037120453811
 10
194.1782641540874
 20
16.1586705619212
 10
194.1742227952184
 20
16.11412278028141
 10
194.1761714049641
 20
16.042235726217
 10
194.1752364849758
 20
15.96168630588768
 10
194.176510719003
 20
15.88173995404992
 10
194.1732043793863
 20
15.80841837083179
 10
194.1802106179962
 20
15.76688643002565
 10
194.1701440380125
 20
15.7275241856811
 10
194.2029814803921
 20
15.73468063430978
 10
194.236457729648
 20
15.73027243137941
 10
194.2915053476019
 20
15.73217943347894
 10
194.3489502595314
 20
15.73185366407285
 10
194.4023026248309
 20
15.73106308733079
 10
194.4398540896639
 20
15.73313959118071
 10
194.4623172523237
 20
15.73022338167106
 10
194.4751678073731
 20
15.73572552644051
 10
194.4858255685888
 20
15.73801118197788
 10
194.4986635650142
 20
15.74494972588049
 10
194.5145991033069
 20
15.72853046313667
 10
194.5410623920891
 20
15.71709122319448
 10
194.5726805253756
 20
15.69644687835186
 10
194.598725589215
 20
15.68116869628294
 10
194.6128517723972
 20
15.67266976323181
 10
194.6170254148478
 20
15.67015871511025
 97
        1
330
B0
 75
     1
 76
     2
 52
45.0
 41
0.1
 77
     0
 78
     1
 53
45.0
 43
0.0
 44
0.0
 45
-0.282842712474619
 46
0.0
 79
     0
 98
        1
 10
0.0
 20
0.0
  0
HATCH
  5
CE
330
48
100
AcDbEntity
  8
1
  6
Continuous
 62
     2
100
AcDbHatch
 10
0.0
 20
0.0
 30
0.0
210
0.0
220
0.0
230
1.0
  2
CUSTOM4
 70
     0
 71
     1
 91
        1
 92
        1
 93
        1
 72
     4
 94
        3
 73
     0
 74
     0
 95
       91
 96
       87
 40
0.0
 40
0.0
 40
0.0
 40
0.0
 40
0.0267532254356701
 40
0.0856103386464102
 40
0.1444674521996621
 40
0.1712206856618514
 40
0.2039416005642536
 40
0.2955601971652484
 40
0.4362601844616918
 40
0.616225284450725
 40
0.8256392189704698
 40
1.054685709844411
 40
1.293548478893531
 40
1.532411247938303
 40
1.761457738799568
 40
1.970871673298537
 40
2.150836773256732
 40
2.291536760495593
 40
2.3831553568367
 40
2.41587628410132
 40
2.442629517487963
 40
2.501486630949095
 40
2.560343744424242
 40
2.587096977826515
 40
2.617068194440942
 40
2.699247336756083
 40
2.822032643466424
 40
2.973822353257954
 40
3.143014704823396
 40
3.318007936879975
 40
3.487200288186837
 40
3.638989997548317
 40
3.761775303794873
 40
3.843954445753179
 40
3.873925662229875
 40
3.890812773500637
 40
3.907699884771842
 40
3.937960767857429
 40
3.980983618142405
 40
4.199085915228599
 40
4.439444339237391
 40
4.677588241260977
 40
5.050698317837862
 40
5.44821245476322
 40
5.855291218044774
 40
6.138575438885489
 40
6.417434507584282
 40
6.444551104393915
 40
6.504207617363215
 40
6.563864130314487
 40
6.59098072710403
 40
6.848609460381434
 40
7.109611990668433
 40
7.352910904446132
 40
7.55783022070552
 40
7.587518925913413
 40
7.652834077375829
 40
7.718149228845784
 40
7.747837934062063
 40
7.854880190301071
 40
7.976511257403609
 40
8.369487896592354
 40
8.757514959223704
 40
9.126072419331194
 40
9.460639380392285
 40
9.746695593036083
 40
9.77756994311883
 40
9.80705032093195
 40
9.830377336129073
 40
9.886003295436145
 40
9.952395569430037
 40
10.0080215287064
 40
10.03134854388231
 40
10.21356951009605
 40
10.42203479292884
 40
10.66154556731076
 40
10.9169378956432
 40
11.15832906556581
 40
11.18982674596639
 40
11.27286608520423
 40
11.3902665303337
 40
11.52484752840907
 40
11.65942852648466
 40
11.77682897161507
 40
11.85986831085707
 40
11.89136598230452
 40
11.89136598230452
 40
11.89136598230452
 40
11.89136598230452
 10
190.7027885008196
 20
14.70699600701769
 10
190.7028237765288
 20
14.71587847311982
 10
190.7029366710796
 20
14.74430237047343
 10
190.7012984568489
 20
14.794096391698
 10
190.7069750292911
 20
14.83657564478151
 10
190.6956928731706
 20
14.88730154856844
 10
190.7632296979031
 20
14.87012900740105
 10
190.83880292107
 20
14.88290227165993
 10
190.9828357056
 20
14.87629729457378
 10
191.1569419185427
 20
14.87888462206463
 10
191.3639599611003
 20
14.8780059195555
 10
191.5894688172378
 20
14.87828207920024
 10
191.8251162293406
 20
14.87818339658659
 10
192.0607640531348
 20
14.87828184412765
 10
192.2862717580626
 20
14.87800678190785
 10
192.4932934632805
 20
14.87888186270732
 10
192.6673888915288
 20
14.87630522678443
 10
192.8114492071986
 20
14.8828829044921
 10
192.8869691915292
 20
14.87016243405601
 10
192.954577603703
 20
14.88726400191684
 10
192.9430840140676
 20
14.83674785802937
 10
192.9505104581733
 20
14.79253252226498
 10
192.9428838927986
 20
14.74867966503606
 10
192.9546489459425
 20
14.69878374479325
 10
192.8930788491983
 20
14.71393227712509
 10
192.8256791738671
 20
14.70310665350671
 10
192.7013004056221
 20
14.70852031626233
 10
192.555442823657
 20
14.70649205390782
 10
192.3893576440086
 20
14.70715777578384
 10
192.2188412621724
 20
14.70689643521239
 10
192.0519790855388
 20
14.70721553391091
 10
191.9087346827105
 20
14.70635302590759
 10
191.7773313869833
 20
14.70863300482985
 10
191.7239859134654
 20
14.70407704374199
 10
191.6485188456912
 20
14.70999914992874
 10
191.6769075779231
 20
14.7009416934335
 10
191.7033652409542
 20
14.69725912268928
 10
191.6633522907702
 20
14.66654271968272
 10
191.5713663691867
 20
14.67667591174628
 10
191.543939620707
 20
14.43032502247785
 10
191.4478793967234
 20
14.27499558764375
 10
191.1917277964475
 20
13.94525417931563
 10
191.7627537732764
 20
14.0843002221045
 10
192.0173656320516
 20
14.08291779973359
 10
192.6279647048618
 20
13.99790569242082
 10
192.3340698578083
 20
14.296854175582
 10
192.0133304286521
 20
14.44330856901769
 10
192.1313543360434
 20
14.50025540818286
 10
192.1724716466261
 20
14.52420099873344
 10
192.2156812394411
 20
14.54599758811226
 10
192.317457409445
 20
14.60928721253909
 10
192.4328867625247
 20
14.35147151408771
 10
192.6329591642276
 20
14.21616041113681
 10
192.7269077387228
 20
14.03792795138879
 10
192.9558829746393
 20
13.87997821027048
 10
192.8596031846709
 20
13.82915972576296
 10
192.816795976378
 20
13.79881292523051
 10
192.771824352878
 20
13.77466130281459
 10
192.7121720925215
 20
13.72552146747565
 10
192.6789731061324
 20
13.85997475673603
 10
192.5582013350796
 20
14.01594265286578
 10
192.1970976005978
 20
13.88569928059552
 10
191.838506195554
 20
13.9022469440948
 10
191.457092045008
 20
13.89331229351864
 10
191.170345528289
 20
13.828826716724
 10
190.8592055599713
 20
13.94230668192835
 10
190.8268737818787
 20
13.83122259927762
 10
190.7896178253316
 20
13.81196313850011
 10
190.7865737632753
 20
13.85874784087296
 10
190.7679892860606
 20
13.89806853919132
 10
190.7512436616778
 20
13.95765983478232
 10
190.7383730915753
 20
14.0020196987128
 10
190.7042327806428
 20
14.091063311202
 10
190.9482714457754
 20
14.02181042943766
 10
191.1441394486671
 20
14.00030369057744
 10
191.2395426381276
 20
14.28226484478463
 10
191.2945135769599
 20
14.44363045421117
 10
191.5159619357155
 20
14.71391177589735
 10
191.3849239381217
 20
14.70548446853731
 10
191.3110026555854
 20
14.70779008496967
 10
191.1977459876244
 20
14.70671378321655
 10
191.0694251807485
 20
14.70707639076507
 10
190.9404252030415
 20
14.70697724466082
 10
190.8287840946292
 20
14.7069993271257
 10
190.7514663970025
 20
14.70699579189666
 10
190.713287653201
 20
14.70699595845078
 10
190.7027885008196
 20
14.70699600701769
 97
        1
330
B1
 75
     1
 76
     2
 52
45.0
 41
0.1
 77
     0
 78
     1
 53
45.0
 43
0.0
 44
0.0
 45
-0.282842712474619
 46
0.0
 79
     0
 98
        1
 10
0.0
 20
0.0
  0
HATCH
  5
CF
330
48
100
AcDbEntity
  8
1
  6
Continuous
 62
     2
100
AcDbHatch
 10
0.0
 20
0.0
 30
0.0
210
0.0
220
0.0
230
1.0
  2
CUSTOM5
 70
     0
 71
     1
 91
        1
 92
        1
 93
        1
 72
     4
 94
        3
 73
     0
 74
     0
 95
       35
 96
       31
 40
0.0
 40
0.0
 40
0.0
 40
0.0
 40
0.0335231036620371
 40
0.0713218571712317
 40
0.4278866681487509
 40
0.8116865841964722
 40
1.198190238000153
 40
1.561379546812779
 40
1.659983174622152
 40
1.759315573807291
 40
2.132719617231179
 40
2.525233363588884
 40
2.910815397779836
 40
3.26524436430344
 40
3.592606723582109
 40
3.964386154604034
 40
4.359942131737853
 40
4.758154118639408
 40
4.843846538699979
 40
4.93665006554329
 40
5.256616602537366
 40
5.581707404416075
 40
5.899719158308212
 40
6.198363494280777
 40
6.466301046615842
 40
6.493895311537107
 40
6.5596970201969
 40
6.63823454344239
 40
6.704036252154114
 40
6.731630508422891
 40
6.731630508422891
 40
6.731630508422891
 40
6.731630508422891
 10
191.9736010568668
 20
16.23463843719132
 10
191.9676006097788
 20
16.2248069054232
 10
191.9548344099156
 20
16.20388988579792
 10
191.7949362006554
 20
16.17127126532699
 10
192.2322025842336
 20
15.88206680336693
 10
192.4345394828262
 20
15.68041138358437
 10
192.6819564267974
 20
15.43749387603275
 10
193.1831513624605
 20
15.36047662757774
 10
193.012556219897
 20
15.21876939174654
 10
192.9383299463201
 20
15.01710366209105
 10
192.6131432248188
 20
15.3695628717472
 10
192.3277741670665
 20
15.53175212559565
 10
192.0337604077657
 20
15.7368713005304
 10
191.8084452691133
 20
16.21827488595452
 10
191.5993085055522
 20
15.75343046609218
 10
191.3207873674834
 20
15.54350952252909
 10
191.0371383177209
 20
15.37424456359983
 10
190.707863952783
 20
15.00142360907931
 10
190.6277012318224
 20
15.19708014459
 10
190.4759724909746
 20
15.32491104190596
 10
190.9083395826795
 20
15.40454031765931
 10
191.0962565329766
 20
15.60026634915474
 10
191.3468477420504
 20
15.81632996916749
 10
191.5714350470161
 20
15.98190992300059
 10
191.6259775409713
 20
16.26133964636823
 10
191.7494661029012
 20
16.24737950408075
 10
191.806027334452
 20
16.24521268867646
 10
191.8761870984944
 20
16.24046859881357
 10
191.9333414022104
 20
16.23709429350539
 10
191.9644190320838
 20
16.23519854711117
 10
191.9736010568668
 20
16.23463843719132
 97
        1
330
B2
 75
     1
 76
     2
 52
45.0
 41
0.1
 77
     0
 78
     1
 53
45.0
 43
0.0
 44
0.0
 45
-0.282842712474619
 46
0.0
 79
     0
 98
        1
 10
0.0
 20
0.0
  0
HATCH
  5
D0
330
48
100
AcDbEntity
  8
1
  6
Continuous
 62
     2
100
AcDbHatch
 10
0.0
 20
0.0
 30
0.0
210
0.0
220
0.0
230
1.0
  2
CUSTOM6
 70
     0
 71
     1
 91
        1
 92
        1
 93
        1
 72
     4
 94
        3
 73
     0
 74
     0
 95
       15
 96
       11
 40
0.0
 40
0.0
 40
0.0
 40
0.0
 40
0.2785535985096388
 40
0.5215624748198284
 40
0.607691737603992
 40
0.6938210001740642
 40
0.9405019146454632
 40
1.221691403488982
 40
1.300471877080881
 40
1.379252341684653
 40
1.379252341684653
 40
1.379252341684653
 40
1.379252341684653
 10
189.5681493631
 20
16.22930267330379
 10
189.6296017794178
 20
16.17691646592714
 10
189.7446649974114
 20
16.07882876798221
 10
190.0397348497243
 20
15.92889785897218
 10
189.9025147631857
 20
15.84343227515011
 10
189.8041227843777
 20
15.71085785201551
 10
189.713003359065
 20
16.0161698578141
 10
189.3636839480656
 20
16.07967869465371
 10
189.5119258376571
 20
16.17896509880876
 10
189.5494081874238
 20
16.2125234840238
 10
189.5681493631
 20
16.22930267330379
 97
        1
330
B3
 75
     1
 76
     2
 52
45.0
 41
0.1
 77
     0
 78
     1
 53
45.0
 43
0.0
 44
0.0
 45
-0.282842712474619
 46
0.0
 79
     0
 98
        1
 10
0.0
 20
0.0
  0
HATCH
  5
D1
330
48
100
AcDbEntity
  8
1
  6
Continuous
 62
     2
100
AcDbHatch
 10
0.0
 20
0.0
 30
0.0
210
0.0
220
0.0
230
1.0
  2
CUSTOM7
 70
     0
 71
     1
 91
        1
 92
        1
 93
        1
 72
     4
 94
        3
 73
     0
 74
     0
 95
       75
 96
       71
 40
0.0
 40
0.0
 40
0.0
 40
0.0
 40
0.0342546099129691
 40
0.1245622414432329
 40
0.25223854808975
 40
0.3985991922940627
 40
0.5449598364980768
 40
0.6726361431438745
 40
0.7629437746736836
 40
0.7971983935297866
 40
1.101723623449649
 40
1.408591244036569
 40
1.433332471690278
 40
1.487763172450077
 40
1.542193873081912
 40
1.56693510059246
 40
1.923523931821714
 40
2.271755704953542
 40
2.590579755100783
 40
2.858943305581066
 40
2.889120339309074
 40
2.918305855191
 40
2.941366645531125
 40
2.996357760973029
 40
3.061992318140595
 40
3.116983433626793
 40
3.140044223997474
 40
3.411273122936449
 40
3.732441619740974
 40
3.761068217532674
 40
3.837787499630234
 40
3.948858699125873
 40
4.080541049104248
 40
4.219093782625635
 40
4.350776132722185
 40
4.461847332405517
 40
4.538566614678251
 40
4.567193212544497
 40
4.594907573998755
 40
4.666381453557294
 40
4.764111044010848
 40
4.870592538125594
 40
4.968322128642017
 40
5.039796008286702
 40
5.067510369784133
 40
5.094263603185347
 40
5.153120716667983
 40
5.211977830150431
 40
5.238731063551436
 40
5.272290535138703
 40
5.363380529444507
 40
5.497618415781185
 40
5.660621563453427
 40
5.838007341749128
 40
6.015393119910451
 40
6.178396267038048
 40
6.312634151841999
 40
6.403724143058989
 40
6.437283612672084
 40
6.464036846260701
 40
6.522893960004316
 40
6.581751071483582
 40
6.60850430159053
 40
6.637253941280678
 40
6.711397748902529
 40
6.812778057283142
 40
6.923237199248918
 40
7.024617507623562
 40
7.098761315207215
 40
7.127510946007165
 40
7.127510946007165
 40
7.127510946007165
 40
7.127510946007165
 10
188.4418622390564
 20
14.95849128473261
 10
188.4418622819707
 20
14.94707313408717
 10
188.4418624481128
 20
14.90555257842626
 10
188.4418593081787
 20
14.82146922003769
 10
188.4418788279801
 20
14.70004497322325
 10
188.4417912187737
 20
14.55980494047445
 10
188.442111623523
 20
14.42006556794573
 10
188.4411605909741
 20
14.29745038894927
 10
188.4431978595967
 20
14.2158707443804
 10
188.4349433178746
 20
14.06271267077696
 10
188.74307979409
 20
14.22560236054715
 10
189.0350645173738
 20
14.39482938687999
 10
189.0408354448706
 20
14.25973235781908
 10
189.0455471719891
 20
14.21617221160441
 10
189.0482535411918
 20
14.17211249350542
 10
189.0672545672957
 20
14.02272590363131
 10
188.6583942247303
 20
14.08681172241258
 10
188.3793710348831
 20
13.97296341411016
 10
188.1018081587167
 20
13.87364095811135
 10
187.80998371844
 20
13.91630687596363
 10
187.7869144678658
 20
13.81321679744539
 10
187.7537474383334
 20
13.78691091244466
 10
187.748065396274
 20
13.83455309036303
 10
187.7284214559045
 20
13.87180336115066
 10
187.7095089485623
 20
13.93007387847561
 10
187.6942849867707
 20
13.97385201007802
 10
187.6477246372936
 20
14.08759421046311
 10
187.9890897312449
 20
14.05576301120043
 10
188.2679649367386
 20
14.02161435106481
 10
188.2617753034906
 20
14.16913976479649
 10
188.2630935452772
 20
14.24013150908829
 10
188.2624831689948
 20
14.34719767958659
 10
188.2625871570724
 20
14.47398529785994
 10
188.2629987964054
 20
14.60849243496047
 10
188.2613907841967
 20
14.73395549951181
 10
188.2659902567925
 20
14.84505246719114
 10
188.2564186502208
 20
14.90761886800685
 10
188.2704001783691
 20
14.96595388294998
 10
188.2147384386703
 20
14.95289710582235
 10
188.1575655197821
 20
14.96136307749495
 10
188.0616048925647
 20
14.95729976080633
 10
187.9633767522821
 20
14.95970889852471
 10
187.8672582457561
 20
14.95551600613384
 10
187.8104648525812
 20
14.9642934644116
 10
187.7550356873384
 20
14.95094936850118
 10
187.7670679427919
 20
15.00036910959254
 10
187.7592003173937
 20
15.04393988030392
 10
187.7666295563831
 20
15.08830469118522
 10
187.7551930564144
 20
15.13902297763989
 10
187.8232102370134
 20
15.1216246075774
 10
187.8968496879747
 20
15.13417450237186
 10
188.0325064058211
 20
15.12799677011094
 10
188.1884909024526
 20
15.13029203093081
 10
188.3615926358144
 20
15.12940968262527
 10
188.5346942964181
 20
15.13029207142405
 10
188.6906789811217
 20
15.12799662955547
 10
188.8263351889797
 20
15.13417486262428
 10
188.8999756705652
 20
15.12162394218332
 10
188.9679914174724
 20
15.1390237301214
 10
188.9565590885921
 20
15.08830130414551
 10
188.9639539458297
 20
15.04397060811105
 10
188.956203991227
 20
15.00028307550193
 10
188.9681203741877
 20
14.95063590098474
 10
188.9108170223616
 20
14.96461411338422
 10
188.8520145789772
 20
14.95539755673251
 10
188.7525293633199
 20
14.95952268164926
 10
188.649428009835
 20
14.95822760025885
 10
188.5537846354573
 20
14.95854077077637
 10
188.4857467971617
 20
14.95848776697142
 10
188.4514462213443
 20
14.95849051871653
 10
188.4418622390564
 20
14.95849128473261
 97
        1
330
B4
 75
     1
 76
     2
 52
45.0
 41
0.1
 77
     0
 78
     1
 53
45.0
 43
0.0
 44
0.0
 45
-0.282842712474619
 46
0.0
 79
     0
 98
        1
 10
0.0
 20
0.0
  0
HATCH
  5
D2
330
48
100
AcDbEntity
  8
1
  6
Continuous
 62
     2
100
AcDbHatch
 10
0.0
 20
0.0
 30
0.0
210
0.0
220
0.0
230
1.0
  2
CUSTOM8
 70
     0
 71
     1
 91
        1
 92
        1
 93
        1
 72
     4
 94
        3
 73
     0
 74
     0
 95
       91
 96
       87
 40
0.0
 40
0.0
 40
0.0
 40
0.0
 40
0.0345987051695718
 40
0.1258134969461085
 40
0.2547723404888703
 40
0.4026032099153556
 40
0.550434079341642
 40
0.6793929228835227
 40
0.7706077146570467
 40
0.8052064287780072
 40
1.124852390615192
 40
1.427402236308793
 40
1.706356627453431
 40
1.955541417875104
 40
2.169485938566249
 40
2.344350786664708
 40
2.480568411561839
 40
2.590440557428834
 40
2.649189927150964
 40
2.74932064330618
 40
2.912632739879887
 40
3.147745656000078
 40
3.244827496384924
 40
3.338490056946565
 40
3.583815413206993
 40
3.761423943238348
 40
3.886956104362509
 40
3.985855451886649
 40
4.091766255337477
 40
4.250186473811698
 40
4.422734315084365
 40
4.628285684838476
 40
4.872093227758319
 40
5.152549652145431
 40
5.464967135837409
 40
5.803201477852323
 40
6.160362988813798
 40
6.193449448275882
 40
6.284170385501536
 40
6.419718138764406
 40
6.587285046385684
 40
6.77406344672357
 40
6.967245678113553
 40
7.154024078817596
 40
7.321590987025953
 40
7.457138740890311
 40
7.547859678556076
 40
7.580946138182636
 40
7.608533084714688
 40
7.669224367077662
 40
7.729915649429877
 40
7.75750259594993
 40
7.790278062553384
 40
7.880146277430882
 40
8.014419963180345
 40
8.180411842397845
 40
8.365434637679314
 40
8.556801071622615
 40
8.741823866830728
 40
8.907815745916238
 40
9.042089431507392
 40
9.131957646249518
 40
9.164733112797094
 40
9.415425063140011
 40
9.667986180958478
 40
9.694169807462616
 40
9.756607686047548
 40
9.831130315322355
 40
9.893568193899762
 40
9.919751820398579
 40
9.95096796469041
 40
9.996421631210518
 40
10.22087981037441
 40
10.44341866197529
 40
10.47847970788842
 40
10.57091337438742
 40
10.7015954546122
 40
10.85140174170353
 40
11.0012080288047
 40
11.13189010907376
 40
11.22432377583007
 40
11.25938480938953
 40
11.28697175596141
 40
11.34766303835915
 40
11.40835432042065
 40
11.435941258921
 40
11.435941258921
 40
11.435941258921
 40
11.435941258921
 10
190.0818114333289
 20
15.55242795125075
 10
190.070278584494
 20
15.55242790287913
 10
190.0283409444999
 20
15.55242773704162
 10
189.9434129719025
 20
15.55243125800907
 10
189.8207688553129
 20
15.55240926435877
 10
189.6791206916993
 20
15.55250801177052
 10
189.537975369849
 20
15.55214686232418
 10
189.4141351317905
 20
15.55321883609087
 10
189.3317217825382
 20
15.55092249091266
 10
189.1727791229694
 20
15.56048569373419
 10
189.3503402353376
 20
15.19785394311367
 10
189.3379739205454
 20
14.95243127723112
 10
189.4064519473865
 20
14.66862501324834
 10
189.4693024320971
 20
14.43250999939032
 10
189.5452253431729
 20
14.23326740396127
 10
189.6303189577016
 20
14.07745347451371
 10
189.7244607592935
 20
13.9765785778139
 10
189.8282648207728
 20
13.92465852638961
 10
189.9125872030773
 20
13.97606484379616
 10
189.9351322179452
 20
14.09144544037514
 10
189.9745730975371
 20
14.21885149702377
 10
189.9202919734943
 20
14.53622328086754
 10
190.0451218072472
 20
14.38982180140899
 10
190.2019291513603
 20
14.35795300331173
 10
190.0947720007056
 20
14.12421357767625
 10
190.0808711209868
 20
13.95972776583653
 10
190.0234709467225
 20
13.83130869122482
 10
189.9335020145009
 20
13.76018802352824
 10
189.8095274657879
 20
13.74432324142251
 10
189.6634273196861
 20
13.77993797554169
 10
189.5243894320284
 20
13.90000570500274
 10
189.4102003962145
 20
14.07435682550317
 10
189.3146141301486
 20
14.29946603111237
 10
189.2318652572626
 20
14.56388246006439
 10
189.1807179256412
 20
14.88187933098541
 10
189.0770189207338
 20
15.15543728488911
 10
189.2042841208523
 20
15.56005818612865
 10
189.0357890623019
 20
15.55112367849677
 10
188.9511995787078
 20
15.5531596141836
 10
188.8189876387628
 20
15.55213937388404
 10
188.6560505094103
 20
15.55253230318427
 10
188.4733759170534
 20
15.55235696313367
 10
188.2847057373382
 20
15.55260105307466
 10
188.1014469020189
 20
15.55185657906235
 10
187.9404746832718
 20
15.55416360522423
 10
187.8029808335275
 20
15.5479980488366
 10
187.7289590372311
 20
15.5603283845821
 10
187.6613215186856
 20
15.54329323723554
 10
187.673237371927
 20
15.59524438447526
 10
187.6655677285693
 20
15.64071424966526
 10
187.6732592225115
 20
15.68614453703703
 10
187.6613141797761
 20
15.73802395984567
 10
187.7283588305867
 20
15.72119143490261
 10
187.8017375665676
 20
15.73335409092668
 10
187.9379128305272
 20
15.72727231074956
 10
188.0973811801512
 20
15.72954834315055
 10
188.2789173085836
 20
15.72881233998959
 10
188.4658034862179
 20
15.7290595419613
 10
188.6468012316836
 20
15.72886400799251
 10
188.8080802578878
 20
15.72932234714836
 10
188.9393882124887
 20
15.72812673751203
 10
189.0225051322596
 20
15.7305134731974
 10
189.1556236547815
 20
15.7223060572546
 10
189.0645893502659
 20
15.97752868952652
 10
188.9789633074419
 20
16.24164358328244
 10
189.0990589003456
 20
16.22904442969162
 10
189.1514264948543
 20
16.22694235763072
 10
189.2214497569716
 20
16.22535399889654
 10
189.2671922337817
 20
16.2160256753811
 10
189.3220812646933
 20
16.22545966915424
 10
189.2963574785681
 20
16.17733028655169
 10
189.1825397571453
 20
16.18266829744167
 10
189.3159346621136
 20
15.95449174576773
 10
189.1943658735469
 20
15.7215685659592
 10
189.3223188769412
 20
15.73087258884436
 10
189.4049048406459
 20
15.72801001754677
 10
189.5307214850824
 20
15.72923437412299
 10
189.6741469838057
 20
15.72932431888961
 10
189.8157420951728
 20
15.7274616318385
 10
189.9459127249967
 20
15.73333075937159
 10
190.0193452286191
 20
15.72070340823199
 10
190.0891112922096
 20
15.73877563110409
 10
190.0775772605396
 20
15.68612850546323
 10
190.0833184346682
 20
15.64221317686545
 10
190.081661577091
 20
15.59089982676547
 10
190.081775756167
 20
15.56158792021633
 10
190.0818114333289
 20
15.55242795125075
 97
        1
330
B5
 75
     1
 76
     2
 52
45.0
 41
0.1
 77
     0
 78
     1
 53
45.0
 43
0.0
 44
0.0
 45
-0.282842712474619
 46
0.0
 79
     0
 98
        1
 10
0.0
 20
0.0
  0
HATCH
  5
D3
330
48
100
AcDbEntity
  8
1
  6
Continuous
 62
     2
100
AcDbHatch
 10
0.0
 20
0.0
 30
0.0
210
0.0
220
0.0
230
1.0
  2
CUSTOM9
 70
     0
 71
     1
 91
        1
 92
        1
 93
        1
 72
     4
 94
        3
 73
     0
 74
     0
 95
      118
 96
      114
 40
0.0
 40
0.0
 40
0.0
 40
0.0
 40
0.1054708162973307
 40
0.2466098270051879
 40
0.3965912874591382
 40
0.5285525069753961
 40
0.6156245055641708
 40
0.6431434105796684
 40
0.7036850037985052
 40
0.7642265984502944
 40
0.791745505235308
 40
0.9287404319988709
 40
1.106572819087906
 40
1.287544879680908
 40
1.317578308030425
 40
1.399928030857062
 40
1.522968204799838
 40
1.675072986590459
 40
1.844616533180538
 40
2.019973001638601
 40
2.189516548879913
 40
2.341621331585252
 40
2.464661506320386
 40
2.547011229646952
 40
2.577044658167916
 40
2.603797890892958
 40
2.662655002908645
 40
2.721512114949428
 40
2.74826534770258
 40
2.774215307344656
 40
2.845959313406986
 40
2.954338556588185
 40
3.090194227585362
 40
3.244367517100329
 40
3.407699615844086
 40
3.571031714539235
 40
3.72520500391991
 40
3.861060674729412
 40
3.969439917716103
 40
4.041183923628777
 40
4.067133883212771
 40
4.311886746011984
 40
4.547897258335361
 40
4.764747083043813
 40
4.952749679951647
 40
5.045772974195692
 40
5.137862019644762
 40
5.330543169792795
 40
5.553448265243786
 40
5.795083855887947
 40
6.043293412177013
 40
6.285761695540972
 40
6.313902908752484
 40
6.384255941793074
 40
6.475714884766663
 40
6.567173827758753
 40
6.63752686083956
 40
6.665668074073923
 40
6.692018920327896
 40
6.74999078207096
 40
6.807962643790325
 40
6.834313490017798
 40
6.856393084245076
 40
6.9133351956497
 40
6.991194817302392
 40
7.076026942283682
 40
7.153886563725201
 40
7.210828674844755
 40
7.232908268931118
 40
7.258199334923639
 40
7.324875781592286
 40
7.419142481924946
 40
7.527204308841886
 40
7.635266135230466
 40
7.729532834168448
 40
7.79620927929277
 40
7.821500344594717
 40
7.844652988850787
 40
7.899863140541509
 40
7.96575912805359
 40
8.020969279770846
 40
8.044121924046284
 40
8.069356610160337
 40
8.109134395441082
 40
8.132238100190794
 40
8.193147867786156
 40
8.279261678876331
 40
8.377977512673544
 40
8.476693347146327
 40
8.562807160411381
 40
8.623716930826166
 40
8.64682063685312
 40
8.671988793773933
 40
8.734909185827872
 40
8.816705695188586
 40
8.898502204815186
 40
8.961422597377675
 40
8.986590754550788
 40
9.012941600732944
 40
9.070913462380023
 40
9.128885324081514
 40
9.155236170324832
 40
9.180404327928875
 40
9.243324721947976
 40
9.32512123421177
 40
9.406917746637452
 40
9.469838141977936
 40
9.49500628827071
 40
9.517811184378852
 40
9.57219209048685
 40
9.637098333281076
 40
9.691479239515274
 40
9.714284125643312
 40
9.714284125643312
 40
9.714284125643312
 40
9.714284125643312
 10
185.2874469028653
 20
15.26889163187718
 10
185.3090990569037
 20
15.2411186924281
 10
185.3597257109473
 20
15.17618054561232
 10
185.4349383202591
 20
15.06891060312894
 10
185.5248482274346
 20
14.95377438266623
 10
185.5709169676674
 20
14.85357045748318
 10
185.6655825294653
 20
14.78434006814942
 10
185.6204439320412
 20
14.73771639678269
 10
185.5947047785789
 20
14.69660308866037
 10
185.5645196708013
 20
14.66065971727935
 10
185.5193684730562
 20
14.58579782596086
 10
185.4710504458562
 20
14.80782524253598
 10
185.3968539713073
 20
14.84510677337708
 10
185.2836047324606
 20
15.11610202130597
 10
185.2885133578169
 20
15.00095328446226
 10
185.2868486556306
 20
14.92836675781624
 10
185.2876830076713
 20
14.80625588483983
 10
185.2873609540264
 20
14.65913800810457
 10
185.2875076912456
 20
14.49307063956554
 10
185.2872950092722
 20
14.32187554608599
 10
185.2879497252034
 20
14.15552828635495
 10
185.2859192461139
 20
14.00935173055691
 10
185.291346039993
 20
13.88471047474607
 10
185.2804930868708
 20
13.81718656540624
 10
185.2956739155555
 20
13.7554906141702
 10
185.2457895108134
 20
13.76727503896998
 10
185.2017150342523
 20
13.75943822779967
 10
185.1582371630201
 20
13.76760441372699
 10
185.1092346786489
 20
13.75538056738466
 10
185.1218731234825
 20
13.8096066724931
 10
185.113018296845
 20
13.86936918907555
 10
185.1175058770315
 20
13.97922029044368
 10
185.1157960135992
 20
14.11029975405675
 10
185.1163550915987
 20
14.26198011444325
 10
185.1161928768695
 20
14.42211074929951
 10
185.1162269924675
 20
14.58236865674563
 10
185.1162514960127
 20
14.73370247520436
 10
185.1161453543227
 20
14.86582156338598
 10
185.1164299141931
 20
14.9729480253319
 10
185.1158675547569
 20
15.0380861957947
 10
185.1180765083689
 20
15.16618957858674
 10
185.0319435998603
 20
14.79097610391574
 10
184.9555140818499
 20
14.63918193123391
 10
184.8660040767833
 20
14.47766206446305
 10
184.7640413217325
 20
14.20471848820164
 10
184.7187976491039
 20
14.36717346596511
 10
184.6102355941671
 20
14.45605432058117
 10
184.7995791751753
 20
14.60549794961407
 10
184.8565340545701
 20
14.79749136974922
 10
184.9717520993352
 20
15.02899622906754
 10
184.9940151630133
 20
15.21797259759062
 10
185.177190515214
 20
15.49454089325928
 10
185.0538033597553
 20
15.48698978832092
 10
184.9925684166834
 20
15.48856772366116
 10
184.9081999617065
 20
15.48882592573671
 10
184.8204235085965
 20
15.48544845751203
 10
184.7656768696123
 20
15.49394814982019
 10
184.7104703026024
 20
15.48048561049785
 10
184.7222823035536
 20
15.52931442126761
 10
184.7142496151794
 20
15.57269004896706
 10
184.7228186104679
 20
15.6150943830957
 10
184.7102943409156
 20
15.66267796552115
 10
184.7555101538735
 20
15.65267212995106
 10
184.8014815562723
 20
15.65894105174058
 10
184.877722204771
 20
15.65593561405869
 10
184.9561296131994
 20
15.65770448278538
 10
185.0323992648933
 20
15.65464793981657
 10
185.0783009459475
 20
15.66103971376174
 10
185.1231733965401
 20
15.65093822978892
 10
185.1105552275635
 20
15.70157201581895
 10
185.1191936582707
 20
15.75501261882067
 10
185.1152361595443
 20
15.84863255131676
 10
185.1162325068335
 20
15.95112606688921
 10
185.1171927413073
 20
16.0535327024816
 10
185.1133211458007
 20
16.14735929609318
 10
185.1217789814364
 20
16.20036542840349
 10
185.1093075932836
 20
16.25211435651185
 10
185.154210638985
 20
16.23850747226755
 10
185.1955083836772
 20
16.24100480320582
 10
185.259534428105
 20
16.23648060574484
 10
185.2986111148785
 20
16.22781003043306
 10
185.3476543498741
 20
16.23515102070685
 10
185.322508003059
 20
16.19602896051753
 10
185.2815901333723
 20
16.20563842455804
 10
185.2910109616604
 20
16.15540148169775
 10
185.2855647318746
 20
16.10385945639487
 10
185.2881699601803
 20
16.01959707584517
 10
185.2870102202154
 20
15.92559135583405
 10
185.2883591064231
 20
15.83196865395523
 10
185.2849970101508
 20
15.74679517552219
 10
185.2920959917769
 20
15.69716856072042
 10
185.2812569154545
 20
15.64993694969985
 10
185.3304010225246
 20
15.6620167493685
 10
185.3794877630146
 20
15.65447393363008
 10
185.4573714280642
 20
15.6568607036143
 10
185.5350365172896
 20
15.65899381905411
 10
185.5845393931356
 20
15.65193391922452
 10
185.6344594750639
 20
15.66360151936211
 10
185.6223198516882
 20
15.6154023537139
 10
185.6305838229143
 20
15.57249219801233
 10
185.6223198650785
 20
15.52958201851382
 10
185.6344594549855
 20
15.48138288754862
 10
185.5845395158748
 20
15.4930503447151
 10
185.5350350651203
 20
15.48599202435043
 10
185.4573784382973
 20
15.48811665228601
 10
185.379464386576
 20
15.49053389365758
 10
185.3304500352717
 20
15.48291848194483
 10
185.2813246108943
 20
15.4950795255759
 10
185.2915559988571
 20
15.45073013424156
 10
185.2856677678054
 20
15.4092543620291
 10
185.2878788305569
 20
15.34915394315301
 10
185.2874109346146
 20
15.30225782762888
 10
185.2874386992913
 20
15.27650146418195
 10
185.2874469028653
 20
15.26889163187718
 97
        1
330
B6
 75
     1
 76
     2
 52
45.0
 41
0.1
 77
     0
 78
     1
 53
45.0
 43
0.0
 44
0.0
 45
-0.282842712474619
 46
0.0
 79
     0
 98
        1
 10
0.0
 20
0.0
  0
HATCH
  5
D4
330
48
100
AcDbEntity
  8
1
  6
Continuous
 62
     2
100
AcDbHatch
 10
0.0
 20
0.0
 30
0.0
210
0.0
220
0.0
230
1.0
  2
CUSTOM10
 70
     0
 71
     1
 91
        1
 92
        1
 93
        1
 72
     4
 94
        3
 73
     0
 74
     0
 95
       47
 96
       43
 40
0.0
 40
0.0
 40
0.0
 40
0.0
 40
0.2207912809957201
 40
0.4459404186303011
 40
0.4902387190458663
 40
0.5327473892721908
 40
0.5742260451223808
 40
0.6155432630559667
 40
0.6568164066314868
 40
0.6982511618778366
 40
0.7407663929315443
 40
0.7851366743174072
 40
1.010288833836205
 40
1.231080507002053
 40
1.451765243652279
 40
1.676638205891568
 40
1.720461045359539
 40
1.830018144043404
 40
1.972442372353035
 40
2.114866600677403
 40
2.224423699395028
 40
2.268246538883269
 40
2.4936288012071
 40
2.715602830286501
 40
2.934211330706243
 40
3.149502369855233
 40
3.231387784850821
 40
3.318231873853914
 40
3.405143198197816
 40
3.486970301720224
 40
3.702258172493662
 40
3.920866283533881
 40
4.142839325931672
 40
4.368221903865134
 40
4.412044743359617
 40
4.521601842095627
 40
4.664026070452108
 40
4.806450298808818
 40
4.916007397546512
 40
4.959830237042834
 40
5.184703515846869
 40
5.405387250767243
 40
5.405387250767243
 40
5.405387250767243
 40
5.405387250767243
 10
182.6507427258645
 20
15.73406440953869
 10
182.6568139420002
 20
15.79758482501206
 10
182.6690762107243
 20
15.92587938689623
 10
182.5604706879414
 20
16.20166220174074
 10
182.6761985896604
 20
16.1718813343205
 10
182.7171842509016
 20
16.16765556262818
 10
182.7591205797518
 20
16.16310446389603
 10
182.800419662571
 20
16.16201982929484
 10
182.8417032115555
 20
16.16310338195224
 10
182.8836148270647
 20
16.16766112711341
 10
182.9245983549019
 20
16.17187430209725
 10
183.0404922843487
 20
16.2017761131753
 10
182.9295652727457
 20
15.92339806609889
 10
182.9574856365268
 20
15.74283140824949
 10
182.9404267346969
 20
15.50961042346469
 10
182.9414637282105
 20
15.34906622543143
 10
182.9414099399405
 20
15.22284817558718
 10
182.9414277372482
 20
15.12428963336238
 10
182.9414188581081
 20
14.99280702442959
 10
182.9414263928035
 20
14.86132844968646
 10
182.941412940513
 20
14.76276222694088
 10
182.9414531717493
 20
14.63639735624149
 10
182.9406746403818
 20
14.47482068822867
 10
182.9565958319268
 20
14.24361821892911
 10
182.9333468885408
 20
14.05874351972
 10
183.0360183444366
 20
13.78935602770054
 10
182.8820238362836
 20
13.82660112685815
 10
182.8004129802833
 20
13.82137994680531
 10
182.7188192292583
 20
13.82660620378348
 10
182.5648513666844
 20
13.78937069885385
 10
182.6674183421917
 20
14.05875129862878
 10
182.6442045316088
 20
14.24361585325412
 10
182.6600444655138
 20
14.47482218565635
 10
182.6593296313429
 20
14.636397123085
 10
182.6593664569907
 20
14.76276231210517
 10
182.6593549000271
 20
14.86132756635978
 10
182.6593575019214
 20
14.99281127417217
 10
182.659364853178
 20
15.12427548031196
 10
182.6593442541352
 20
15.22287786275322
 10
182.6594082192029
 20
15.34896149354424
 10
182.658173394759
 20
15.51210091383768
 10
182.6532040396745
 20
15.66054183777547
 10
182.6507427258645
 20
15.73406440953869
 97
        1
330
B7
 75
     1
 76
     2
 52
45.0
 41
0.1
 77
     0
 78
     1
 53
45.0
 43
0.0
 44
0.0
 45
-0.282842712474619
 46
0.0
 79
     0
 98
        1
 10
0.0
 20
0.0
  0
HATCH
  5
D5
330
48
100
AcDbEntity
  8
1
  6
Continuous
 62
     2
100
AcDbHatch
 10
0.0
 20
0.0
 30
0.0
210
0.0
220
0.0
230
1.0
  2
CUSTOM11
 70
     0
 71
     1
 91
        1
 92
        1
 93
        1
 72
     4
 94
        3
 73
     0
 74
     0
 95
      110
 96
      106
 40
0.0
 40
0.0
 40
0.0
 40
0.0
 40
0.2203406257277737
 40
0.4407808782838071
 40
0.5952494494614481
 40
0.7488431659392204
 40
0.9023581831307901
 40
1.056801968670402
 40
1.210736449099846
 40
1.363041386539781
 40
1.515315729683067
 40
1.669377239147989
 40
1.721611652756468
 40
1.77319950294285
 40
1.824933793209898
 40
1.877110426487853
 40
1.982682281206559
 40
2.07878166708731
 40
2.172809640822145
 40
2.271937807378799
 40
2.378349933379163
 40
2.494131557736466
 40
2.626681683943486
 40
2.783145050795857
 40
2.890701232940715
 40
2.993130312454614
 40
3.099869730691597
 40
3.220237816691092
 40
3.352695482737377
 40
3.481732806389632
 40
3.59349947369016
 40
3.674323013331668
 40
3.817951711952561
 40
3.946167120793615
 40
4.0614050534533
 40
4.166480796002941
 40
4.262478775059092
 40
4.350736673551048
 40
4.433071991253877
 40
4.511216293814423
 40
4.564262454117748
 40
4.61847441557137
 40
4.670128488753976
 40
4.722296879126176
 40
4.819540945314102
 40
4.931194984127902
 40
5.049996040257544
 40
5.168643755415089
 40
5.283970811762357
 40
5.392260784910211
 40
5.486512254876172
 40
5.559178233949599
 40
5.591425852853265
 40
5.626215969637643
 40
5.667155838674185
 40
5.717449290213986
 40
5.738402360944603
 40
5.784499116553574
 40
5.830595872164553
 40
5.851548942897413
 40
5.873019280661525
 40
5.924217778408069
 40
5.985325662817448
 40
6.036524160567463
 40
6.057994498333994
 40
6.236847789607246
 40
6.381409928945418
 40
6.493190424178447
 40
6.57406753423025
 40
6.691018086205315
 40
6.814881554220261
 40
6.944307823240186
 40
7.071266716065752
 40
7.193488604461568
 40
7.30904277312771
 40
7.414007203170392
 40
7.505140441886287
 40
7.531150360599439
 40
7.559221645322019
 40
7.587202218920688
 40
7.612569159498907
 40
7.66255080948078
 40
7.702878875763928
 40
7.857328205230742
 40
8.010799568088359
 40
8.165256399657338
 40
8.322232698713762
 40
8.479564855016449
 40
8.635216230290652
 40
8.79088255092557
 40
8.94830515494705
 40
9.16827183903273
 40
9.387358980987019
 40
9.608047961033249
 40
9.832914234792442
 40
9.858338694962777
 40
9.925366817229786
 40
10.02013071422737
 40
10.12876249858975
 40
10.23739428295226
 40
10.33215817995168
 40
10.39918630222371
 40
10.4246107623976
 40
10.6499201933692
 40
10.87188524531165
 40
10.87188524531165
 40
10.87188524531165
 40
10.87188524531165
 10
179.9057788376618
 20
15.73923260398187
 10
179.909286493354
 20
15.80616462073801
 10
179.9163033987662
 20
15.94005891915855
 10
179.8198027599074
 20
16.22548554971466
 10
180.0510134726109
 20
16.16284386190281
 10
180.1919290057156
 20
16.17001554055987
 10
180.3490417757588
 20
16.16235883078242
 10
180.5025913427288
 20
16.16252752283039
 10
180.6545104935082
 20
16.1618204053543
 10
180.8142214813232
 20
16.17210158351635
 10
180.9408972601118
 20
16.15496511080747
 10
181.137082112208
 20
16.22727260107143
 10
181.1034395279079
 20
16.12640699080114
 10
181.1052011317184
 20
16.07619253947667
 10
181.1027342073459
 20
16.02712335586464
 10
181.1347076966011
 20
15.94063490846999
 10
181.0010399903256
 20
15.98997438608333
 10
180.9172208688057
 20
15.98430634314165
 10
180.8173861139325
 20
15.99465516706294
 10
180.7186576720145
 20
16.00086450411084
 10
180.612153277111
 20
16.00697763816774
 10
180.4910511698059
 20
16.01588883484582
 10
180.3703381502453
 20
16.00521605912382
 10
180.1812553843439
 20
16.06468503080362
 10
180.2129028505309
 20
15.90558320077538
 10
180.1995563316836
 20
15.808391283399
 10
180.1974958426449
 20
15.696340651101
 10
180.1958188044669
 20
15.57699685629348
 10
180.1973336794233
 20
15.45032592155107
 10
180.195658247867
 20
15.32301588016114
 10
180.2058844271658
 20
15.22451566404461
 10
180.1779006596582
 20
15.0838870262563
 10
180.3508029999305
 20
15.13989551134092
 10
180.4645020202772
 20
15.12719951478495
 10
180.5840151672239
 20
15.13448377051252
 10
180.6888491425071
 20
15.13878017056752
 10
180.7843084898612
 20
15.14330568258975
 10
180.8763823507032
 20
15.15149201146196
 10
180.947655178244
 20
15.1464385063811
 10
181.0544931705685
 20
15.1853642503167
 10
181.0226603598036
 20
15.10517122005876
 10
181.0266164503928
 20
15.0556293684603
 10
181.0234502392013
 20
15.00557478039816
 10
181.0550791490584
 20
14.92128847612017
 10
180.9210133677691
 20
14.97425365495154
 10
180.82923227932
 20
14.96540080890438
 10
180.7079729189602
 20
14.97570049965152
 10
180.5914113119771
 20
14.97748911767499
 10
180.4783375745878
 20
14.97787017109691
 10
180.367924630847
 20
14.98415449472177
 10
180.2898124067841
 20
14.97189133255363
 10
180.1913625833643
 20
15.00453887616124
 10
180.2012355173562
 20
14.94769748054203
 10
180.1973923244402
 20
14.91392130557982
 10
180.1966789884269
 20
14.87119604709409
 10
180.1963369642974
 20
14.83401607262151
 10
180.1963834255344
 20
14.79487237370769
 10
180.1963649429927
 20
14.75716849497684
 10
180.1963703431804
 20
14.71944955232399
 10
180.19636972142
 20
14.68994324745147
 10
180.1963698151544
 20
14.65873577699297
 10
180.196370428792
 20
14.61414424908082
 10
180.1963671499336
 20
14.55963956508848
 10
180.1963759623479
 20
14.51505540201445
 10
180.1963359653417
 20
14.43117808585737
 10
180.1976024270255
 20
14.31737520677675
 10
180.1950274117841
 20
14.16830395933706
 10
180.206500938172
 20
14.06597203813902
 10
180.1823506222264
 20
13.93338903885833
 10
180.3332993946477
 20
13.97895732272019
 10
180.4428436671556
 20
13.96427012162347
 10
180.5733970473921
 20
13.96920435125061
 10
180.6990312209514
 20
13.97257705323358
 10
180.8188730625601
 20
13.9771149749877
 10
180.9391362611426
 20
13.99048536182001
 10
181.0222761663515
 20
13.98068712782594
 10
181.1456080421075
 20
14.0412621462332
 10
181.1244269203957
 20
13.98532460134019
 10
181.1235950270118
 20
13.95939249372343
 10
181.1218963707558
 20
13.93197256190937
 10
181.1217974888828
 20
13.89738195206382
 10
181.1203659301329
 20
13.86050408220764
 10
181.1532804192192
 20
13.76846841021807
 10
180.9551306988108
 20
13.84132015974828
 10
180.8300548294892
 20
13.81825726508602
 10
180.6673071295156
 20
13.82454021985783
 10
180.5129366450002
 20
13.82260943909923
 10
180.3566670436943
 20
13.82393762599265
 10
180.1970544465282
 20
13.82059872487859
 10
180.0540326342237
 20
13.83265795728238
 10
179.8197144881629
 20
13.76952001976919
 10
179.9173810751197
 20
14.05620527466316
 10
179.9006868780058
 20
14.24988308142658
 10
179.9146296709686
 20
14.47848242880293
 10
179.9142987846633
 20
14.63384593955045
 10
179.9143078119264
 20
14.73966336444123
 10
179.9143055876316
 20
14.80205784124211
 10
179.914306555189
 20
14.89220425248323
 10
179.9143065473262
 20
14.99621167157435
 10
179.9143053861104
 20
15.10022131375293
 10
179.9143090971502
 20
15.19036243688764
 10
179.9143011051052
 20
15.25276803097212
 10
179.9143334275019
 20
15.35868835961115
 10
179.913144078832
 20
15.51626716544737
 10
179.9082216489256
 20
15.66528219822063
 10
179.9057788376618
 20
15.73923260398187
 97
        1
330
B8
 75
     1
 76
     2
 52
45.0
 41
0.1
 77
     0
 78
     1
 53
45.0
 43
0.0
 44
0.0
 45
-0.282842712474619
 46
0.0
 79
     0
 98
        1
 10
0.0
 20
0.0
  0
HATCH
  5
D6
330
48
100
AcDbEntity
  8
1
  6
Continuous
 62
     2
100
AcDbHatch
 10
0.0
 20
0.0
 30
0.0
210
0.0
220
0.0
230
1.0
  2
CUSTOM12
 70
     0
 71
     1
 91
        1
 92
        1
 93
        1
 72
     4
 94
        3
 73
     0
 74
     0
 95
       95
 96
       91
 40
0.0
 40
0.0
 40
0.0
 40
0.0
 40
0.6550406656912168
 40
1.308087289032017
 40
1.42080373983589
 40
1.566130759770875
 40
1.75706734188855
 40
2.006513545026548
 40
2.087328263121638
 40
2.185328872295697
 40
2.294612454748447
 40
2.408936380534903
 40
2.526802767798648
 40
2.646360524615697
 40
2.762535723971679
 40
2.87005734287025
 40
2.966883448431739
 40
3.050803243518382
 40
3.115818222436684
 40
3.156030057150326
 40
3.213914225080256
 40
3.276689026450742
 40
3.342960320981348
 40
3.404230667150654
 40
3.453822809493455
 40
3.532499827188517
 40
3.634775188507249
 40
3.754909333008263
 40
3.889736761660749
 40
4.035769602175303
 40
4.187256681197694
 40
4.338733685676039
 40
4.488478734676206
 40
4.63470831783167
 40
4.771493189921357
 40
4.892686571561295
 40
5.199775528944537
 40
5.460353566929741
 40
5.667603142345602
 40
5.814722905404579
 40
5.828990806219877
 40
5.855488336304489
 40
5.869756237118792
 40
6.189796507762856
 40
6.53189046987312
 40
6.883053637017053
 40
7.230512024911603
 40
7.566966656764629
 40
7.885203559707538
 40
8.172887439719338
 40
8.418011594062733
 40
8.443926721190657
 40
8.510760470613143
 40
8.602145393795652
 40
8.70171404164709
 40
8.793098965075323
 40
8.859932715057896
 40
8.885847842603544
 40
9.242301256612759
 40
9.589275455016713
 40
9.921808543164119
 40
10.23479624298462
 40
10.29968150889181
 40
10.35323493887772
 40
10.40154625355148
 40
10.46482922477821
 40
10.55973900668402
 40
10.69239545985614
 40
10.84920353475668
 40
11.01626328594777
 40
11.18672024367439
 40
11.35372582577208
 40
11.50257442292424
 40
11.61866495023288
 40
11.71329869152871
 40
11.82511050573904
 40
11.94464880845713
 40
12.06929242642504
 40
12.19707290435173
 40
12.32562632860525
 40
12.45034565331276
 40
12.56646595170324
 40
12.67099007414632
 40
12.76077625936777
 40
12.8270323350669
 40
12.8742913278599
 40
12.89831990323326
 40
12.92234847860009
 40
13.53984767410316
 40
14.18294284359351
 40
14.18294284359351
 40
14.18294284359351
 40
14.18294284359351
 10
177.3067935648022
 20
14.70898038201721
 10
177.1752019758551
 20
14.82265058603228
 10
176.9124193802728
 20
15.04964496316152
 10
176.3997393441022
 20
15.89214462956284
 10
176.4106654595361
 20
15.53423377577017
 10
176.4041226527993
 20
15.39267392272129
 10
176.4028026631773
 20
15.19421305299278
 10
176.4018117602538
 20
15.0215029604598
 10
176.4024101751974
 20
14.87865373257577
 10
176.4038994301881
 20
14.78265005413356
 10
176.4055683588471
 20
14.67545503263139
 10
176.407193495462
 20
14.5616421151758
 10
176.4092429501685
 20
14.44441572604586
 10
176.4123165501927
 20
14.32656411232967
 10
176.4156339697044
 20
14.21228087320617
 10
176.4193605340281
 20
14.10521401867274
 10
176.4217338161424
 20
14.01007408766918
 10
176.4278718888357
 20
13.92558557205692
 10
176.4239784495945
 20
13.86923087298138
 10
176.4455230443078
 20
13.79825022472353
 10
176.3680940058617
 20
13.82902677604482
 10
176.3116353240191
 20
13.8201124251761
 10
176.2540495896807
 20
13.82896218398271
 10
176.1690163478472
 20
13.79738225225941
 10
176.2009714146382
 20
13.88095155992188
 10
176.1990705282539
 20
13.94882608968306
 10
176.21079600473
 20
14.05233256764417
 10
176.2164241052999
 20
14.17002125616692
 10
176.2237902178942
 20
14.30388609164421
 10
176.2320759701608
 20
14.44764152872629
 10
176.2398851897428
 20
14.59714022843441
 10
176.2457571222657
 20
14.74792549402075
 10
176.2503667817969
 20
14.89699943878434
 10
176.2542632117542
 20
15.0412291316302
 10
176.2570715126564
 20
15.17583905213014
 10
176.2576698755023
 20
15.36469614347351
 10
176.2616023867151
 20
15.58975494313151
 10
176.2442175378497
 20
15.86367091125705
 10
176.2850417342584
 20
16.02787112098595
 10
176.1995153256003
 20
16.22749661465093
 10
176.2660558907687
 20
16.22385458403976
 10
176.283872427323
 20
16.22413447160851
 10
176.4056801797502
 20
16.22632927398611
 10
176.5080770335462
 20
15.94675118721509
 10
176.7580021509357
 20
15.74563008536006
 10
176.987003533111
 20
15.47792614987906
 10
177.2245151213109
 20
15.22646413862381
 10
177.4486090740772
 20
14.98969974061348
 10
177.675071628301
 20
14.73218692583078
 10
177.8325687886515
 20
14.61649335056927
 10
178.0472129612673
 20
14.27997152538796
 10
178.0422645974617
 20
14.40464754091601
 10
178.0433931602545
 20
14.46327691935734
 10
178.0428877841516
 20
14.55043662371974
 10
178.0430475158112
 20
14.64416143182869
 10
178.0430054891316
 20
14.73018971297031
 10
178.0430202040371
 20
14.79153891945492
 10
178.0429706255982
 20
14.94135231520989
 10
178.045881152281
 20
15.17989612510102
 10
178.0259521041162
 20
15.54486509868697
 10
178.0750433936247
 20
15.80799631993413
 10
177.9177951509179
 20
16.21928904947746
 10
178.0762112872422
 20
16.16398282551746
 10
178.1311680478629
 20
16.16199686500173
 10
178.182788776674
 20
16.16264778248251
 10
178.2713198965366
 20
16.20369527738242
 10
178.2204898303168
 20
16.05696326622984
 10
178.2313389930285
 20
15.95019971954429
 10
178.2166036994847
 20
15.79085705414109
 10
178.2099976446204
 20
15.62853061652871
 10
178.2014961399916
 20
15.45992521892391
 10
178.1943227202196
 20
15.29814814703538
 10
178.188906321539
 20
15.15422331457929
 10
178.1871713967648
 20
15.03437493466922
 10
178.1875440672319
 20
14.92686101590512
 10
178.1873656126262
 20
14.81820024645583
 10
178.1877010863141
 20
14.69953570165528
 10
178.1890040622183
 20
14.57555163512737
 10
178.1908887351574
 20
14.44858294171101
 10
178.1925004454853
 20
14.32153861551029
 10
178.1941403137428
 20
14.19854884492174
 10
178.1962570745751
 20
14.08300931383756
 10
178.1963848422365
 20
13.98090903955835
 10
178.2006514396554
 20
13.89009848838154
 10
178.190844008529
 20
13.83213621208785
 10
178.2118474771689
 20
13.76517130132027
 10
178.1725639739897
 20
13.77291153966684
 10
177.9595307117744
 20
13.75755254145191
 10
177.7636297943188
 20
14.31403058094457
 10
177.4611197631544
 20
14.57556035348505
 10
177.3067935648022
 20
14.70898038201721
 97
        1
330
B9
 75
     1
 76
     2
 52
45.0
 41
0.1
 77
     0
 78
     1
 53
45.0
 43
0.0
 44
0.0
 45
-0.282842712474619
 46
0.0
 79
     0
 98
        1
 10
0.0
 20
0.0
  0
HATCH
  5
D7
330
48
100
AcDbEntity
  8
1
  6
Continuous
 62
     2
100
AcDbHatch
 10
0.0
 20
0.0
 30
0.0
210
0.0
220
0.0
230
1.0
  2
CUSTOM13
 70
     0
 71
     1
 91
        2
 92
        1
 93
        1
 72
     4
 94
        3
 73
     0
 74
     0
 95
       57
 96
       53
 40
0.0
 40
0.0
 40
0.0
 40
0.0
 40
0.0471632082809233
 40
0.0914861054632148
 40
0.1357762519702383
 40
0.1826527001610678
 40
0.229520328857145
 40
0.273775197221962
 40
0.3181310461542211
 40
0.3652607198398497
 40
0.4571007286314506
 40
0.5671851029165358
 40
0.6894623283868091
 40
0.8181758272545849
 40
0.951008722927378
 40
1.085852229674096
 40
1.218126164475327
 40
1.343545131142373
 40
1.454537202956789
 40
1.567187607530798
 40
1.680710966642416
 40
1.794226869736781
 40
1.90000918424758
 40
2.00408586044786
 40
2.108162674451748
 40
2.214000150155292
 40
2.49603857735213
 40
2.762350745479269
 40
2.997275353279393
 40
3.185110082137714
 40
3.246407890063941
 40
3.312607550212672
 40
3.378877742711574
 40
3.440140399651428
 40
4.100501696006445
 40
4.754913085563504
 40
5.411331693423901
 40
6.077890432568683
 40
6.110575292670962
 40
6.143260152775742
 40
6.367989363395131
 40
6.610525374951533
 40
6.8633891364673
 40
7.119380025547613
 40
7.376036605091071
 40
7.631164770966308
 40
7.876722425456419
 40
8.104953735855975
 40
8.312916685924295
 40
8.497730294941281
 40
8.651018984313838
 40
8.764738853624557
 40
8.764738853624557
 40
8.764738853624557
 40
8.764738853624557
 10
174.7922649500513
 20
13.81626739612925
 10
174.7766616726931
 20
13.81826231079076
 10
174.7463947960302
 20
13.82213201360297
 10
174.7010994202252
 20
13.82341984967264
 10
174.6559553129349
 20
13.82308683554048
 10
174.60990171234
 20
13.82314658674221
 10
174.5640496172097
 20
13.82325813649998
 10
174.5183711648166
 20
13.82277833456587
 10
174.4750811541608
 20
13.8246110961872
 10
174.4039947951514
 20
13.80049556814653
 10
174.4057477261441
 20
13.92184693977249
 10
174.3586196370568
 20
14.00726239751227
 10
174.3191478251763
 20
14.12486929345136
 10
174.2706635532644
 20
14.24232752540432
 10
174.2201017402523
 20
14.36405935761512
 10
174.1718634610475
 20
14.49075967862458
 10
174.1135232947594
 20
14.5993368778495
 10
174.0980892667261
 20
14.75620657134407
 10
173.9566586330636
 20
14.72373446548319
 10
173.8508397414904
 20
14.73512888682177
 10
173.7358569725222
 20
14.73392591514613
 10
173.6253142252141
 20
14.73506945347407
 10
173.5176583522783
 20
14.73418350037524
 10
173.4121322529243
 20
14.73416602390516
 10
173.3109192682012
 20
14.72714032472411
 10
173.1266804827754
 20
14.75135859859865
 10
173.1157393685411
 20
14.44741691121882
 10
173.008769163475
 20
14.22353177253394
 10
172.9098148604346
 20
14.03895314292495
 10
172.9225090524008
 20
13.79530204804204
 10
172.8050091716396
 20
13.82508046753195
 10
172.742205586831
 20
13.822580895096
 10
172.67858720934
 20
13.82344075102803
 10
172.3946014194074
 20
13.78098039941942
 10
173.0251638499382
 20
14.50081952444785
 10
173.108764528907
 20
15.01276539435727
 10
173.4929252789339
 20
15.5335374355004
 10
173.4777208288565
 20
16.23519626253211
 10
173.7239265722697
 20
16.22345633081254
 10
173.8256346157561
 20
16.2322500445277
 10
173.8249752035817
 20
15.98059650730343
 10
173.9428317155829
 20
15.79818020733955
 10
174.0315515260484
 20
15.55563740662861
 10
174.1322292485261
 20
15.32340030530131
 10
174.2311142712242
 20
15.08674644566904
 10
174.3299676990671
 20
14.85461739170097
 10
174.4256166390926
 20
14.63122222788781
 10
174.5159904573272
 20
14.42272549049317
 10
174.598994456819
 20
14.23308448529317
 10
174.6726088582799
 20
14.06663106068094
 10
174.7342815895545
 20
13.92917699626096
 10
174.7749458885604
 20
13.84999239430032
 10
174.7922649500513
 20
13.81626739612925
 97
        1
330
BB
 92
       16
 93
        1
 72
     4
 94
        3
 73
     0
 74
     0
 95
       25
 96
       21
 40
0.0
 40
0.0
 40
0.0
 40
0.0
 40
0.0911479969064821
 40
0.1858117896204667
 40
0.2804128399734492
 40
0.3715889190714511
 40
0.4679080494218709
 40
0.5642683809229234
 40
0.6605683222644707
 40
0.7569653015809119
 40
0.8561348172521489
 40
1.092615965104156
 40
1.374867658141742
 40
1.611348812011442
 40
1.71051832842509
 40
1.809403163726409
 40
2.045205463293911
 40
2.326646917621971
 40
2.562449217190435
 40
2.661334043833752
 40
2.661334043833752
 40
2.661334043833752
 40
2.661334043833752
 10
173.2683700567199
 20
14.88614538197289
 10
173.2987525917923
 20
14.88598079714552
 10
173.3606895889111
 20
14.88564528689919
 10
173.454135696033
 20
14.88269055451997
 10
173.5475095236357
 20
14.87977752877147
 10
173.6417760753476
 20
14.87894201643413
 10
173.7354964790966
 20
14.87996644658044
 10
173.8352040303205
 20
14.87916977470972
 10
173.9188949546312
 20
14.88921410235216
 10
174.0637996315043
 20
14.86234617674164
 10
173.93961324448
 20
15.03665530280047
 10
173.8965867286282
 20
15.19651711006089
 10
173.7808922142209
 20
15.45518458550211
 10
173.7017565431256
 20
15.59231052861856
 10
173.6431576621816
 20
15.80937033134074
 10
173.5864803939438
 20
15.59266134213425
 10
173.5052809900477
 20
15.45327012438233
 10
173.4063701281487
 20
15.20406969370191
 10
173.3253625094259
 20
15.0192583022607
 10
173.2813683325838
 20
14.91650446856113
 10
173.2683700567199
 20
14.88614538197289
 97
        1
330
BA
 75
     1
 76
     2
 52
45.0
 41
0.1
 77
     0
 78
     1
 53
45.0
 43
0.0
 44
0.0
 45
-0.282842712474619
 46
0.0
 79
     0
 98
        1
 10
0.0
 20
0.0
  0
HATCH
  5
D8
330
48
100
AcDbEntity
  8
1
  6
Continuous
 62
     2
100
AcDbHatch
 10
0.0
 20
0.0
 30
0.0
210
0.0
220
0.0
230
1.0
  2
CUSTOM14
 70
     0
 71
     1
 91
        1
 92
        1
 93
        1
 72
     4
 94
        3
 73
     0
 74
     0
 95
       99
 96
       95
 40
0.0
 40
0.0
 40
0.0
 40
0.0
 40
0.0796417172272494
 40
0.1621768542356016
 40
0.2486489160957669
 40
0.3404969668524634
 40
0.4381912511164653
 40
0.5434463660244956
 40
0.6518115192847276
 40
0.7530190937886854
 40
0.8492196919725116
 40
0.9419290312998169
 40
1.034249663570045
 40
1.129078600620202
 40
1.226697027573242
 40
1.327220425421699
 40
1.470572134938013
 40
1.595489863371214
 40
1.719934125348395
 40
1.850576620127417
 40
1.989059629987304
 40
2.134139054226921
 40
2.280698007207209
 40
2.424529739039477
 40
2.565929576985849
 40
2.708239260773537
 40
2.861717887443654
 40
3.045168540347368
 40
3.183798301138612
 40
3.314813961455456
 40
3.442083470447314
 40
3.569912708372966
 40
3.702177512509369
 40
3.842307559659531
 40
3.992872223245936
 40
4.156750662218324
 40
4.310981861107546
 40
4.445859909322592
 40
4.572393936131585
 40
4.701656719781984
 40
4.768279086008471
 40
4.835960697898417
 40
4.912788918729337
 40
5.00628520848155
 40
5.026909478751627
 40
5.047533749021191
 40
5.101808031471266
 40
5.162325165538553
 40
5.226919745995877
 40
5.294231806596747
 40
5.364544852554895
 40
5.43831905546794
 40
5.517877651324276
 40
5.607647714861588
 40
5.700449642544434
 40
5.788251142364166
 40
5.872714706039796
 40
5.955167292575307
 40
6.037192395190407
 40
6.120669181469137
 40
6.206848616686375
 40
6.296680855416798
 40
6.442558392872622
 40
6.568190371608298
 40
6.692904567360387
 40
6.824220446557165
 40
6.9631218503294
 40
7.107843738851183
 40
7.253431663907301
 40
7.395187468036724
 40
7.533140753237779
 40
7.670550457175268
 40
7.816236511769286
 40
7.987691657359249
 40
8.142277421969272
 40
8.293662615415048
 40
8.442962460879304
 40
8.591598316185356
 40
8.74367899236183
 40
8.903725323699213
 40
9.076307008890561
 40
9.265578604680616
 40
9.459203795360791
 40
9.617619810273577
 40
9.753609671361938
 40
9.874873300004115
 40
9.954520184977818
 40
10.0241641371925
 40
10.09769764405448
 40
10.18909955924975
 40
10.20974586420137
 40
10.23039218263382
 40
10.30057101881267
 40
10.37632012987548
 40
10.37632012987548
 40
10.37632012987548
 40
10.37632012987548
 10
170.1465954835851
 20
14.13795663215991
 10
170.1632217851219
 20
14.11720608845309
 10
170.1970784206577
 20
14.07495111711899
 10
170.2599822541036
 20
14.02029811392069
 10
170.3332500940393
 20
13.97299025121048
 10
170.4175969238636
 20
13.93527231437932
 10
170.5132240615459
 20
13.91040619731948
 10
170.6171853775346
 20
13.90309559345934
 10
170.7224020220405
 20
13.9114232279405
 10
170.8206626371333
 20
13.94149179651525
 10
170.9058986427548
 20
13.98848822971873
 10
170.9779220206102
 20
14.04952991250854
 10
171.0350917709097
 20
14.12412969578581
 10
171.0767868747439
 20
14.21002464660172
 10
171.1026952846292
 20
14.30485850432208
 10
171.1118037332653
 20
14.41854979038364
 10
171.0986864796487
 20
14.54332587770775
 10
171.0325330334414
 20
14.6601471917189
 10
170.9369370919569
 20
14.7451253957737
 10
170.8249681022369
 20
14.8141668445916
 10
170.6993659583269
 20
14.87204142045887
 10
170.5656691620856
 20
14.92373723284337
 10
170.4313122818831
 20
14.97899092397178
 10
170.3051983986877
 20
15.04939770641646
 10
170.1926579987535
 20
15.13785540731247
 10
170.0969963064458
 20
15.24981067868469
 10
170.0334157151826
 20
15.3994991010138
 10
170.0200706505015
 20
15.55932794385139
 10
170.0320510987448
 20
15.71048405306842
 10
170.071229892884
 20
15.83809244591536
 10
170.135498775091
 20
15.95080874030842
 10
170.2238204999741
 20
16.04648609268683
 10
170.3338091207627
 20
16.12354214985751
 10
170.4632284401264
 20
16.18151396936273
 10
170.6111838967793
 20
16.2173917758882
 10
170.7682069455487
 20
16.22746719050561
 10
170.917494046643
 20
16.21863637762587
 10
171.059625361417
 20
16.1907489934035
 10
171.1595922609626
 20
16.13413314701135
 10
171.3125074736185
 20
16.08674602105504
 10
171.2455131717168
 20
16.00197553001182
 10
171.2296479120268
 20
15.93438901873481
 10
171.1978750531297
 20
15.86926092793187
 10
171.2150202209571
 20
15.76723453256949
 10
171.1666427208231
 20
15.77493211681898
 10
171.1315789440766
 20
15.76806771724804
 10
171.1296697985718
 20
15.83263831158192
 10
171.0985692931989
 20
15.87825639621393
 10
171.0664551628455
 20
15.93561036628452
 10
171.0208038475168
 20
15.98540462692555
 10
170.9658508218386
 20
16.02994813718992
 10
170.9010841173007
 20
16.06763988836547
 10
170.8232377310597
 20
16.09283375791349
 10
170.7355160553352
 20
16.09931230998107
 10
170.6452903277806
 20
16.09235709285604
 10
170.5594594694065
 20
16.06909190460918
 10
170.4828343638596
 20
16.03131644107541
 10
170.4165265636201
 20
15.98051641089572
 10
170.3622560536964
 20
15.91731143407207
 10
170.3224925345458
 20
15.84276455710364
 10
170.2976775510588
 20
15.75917313997761
 10
170.2892124262869
 20
15.65192948382282
 10
170.3019697987103
 20
15.52965457267556
 10
170.3681548409273
 20
15.41149724291209
 10
170.4640977399832
 20
15.32606325709525
 10
170.5757914963182
 20
15.25583362306719
 10
170.7010863668702
 20
15.19659162305301
 10
170.8349823941447
 20
15.14616708086131
 10
170.9689930333149
 20
15.09322516984379
 10
171.0950885316915
 20
15.02750170625172
 10
171.2076216638418
 20
14.94480352537319
 10
171.3031370284232
 20
14.8399600631007
 10
171.3672706486963
 20
14.69937117251566
 10
171.3811103725279
 20
14.54065409451589
 10
171.3673954712229
 20
14.38153155217872
 10
171.3244739153984
 20
14.23483828819207
 10
171.2545906329066
 20
14.10119796587138
 10
171.1574592213829
 20
13.98532387699288
 10
171.0347806023657
 20
13.89089981770084
 10
170.8874408413168
 20
13.82179270651978
 10
170.7177132497125
 20
13.7795321085885
 10
170.5317404979596
 20
13.76781736230404
 10
170.3528955926183
 20
13.77809486683434
 10
170.1881733753743
 20
13.81966573769151
 10
170.0834410841056
 20
13.88797642883937
 10
169.9350960790366
 20
13.93675219032105
 10
169.9980378194729
 20
14.02976591290839
 10
170.007227443006
 20
14.10296536248278
 10
170.0303711301232
 20
14.16936294501344
 10
170.0034588335317
 20
14.26974809527577
 10
170.0521338956339
 20
14.26234033517376
 10
170.0916530580697
 20
14.26894063620891
 10
170.0996204944701
 20
14.19078703218929
 10
170.1305436967923
 20
14.15600927375854
 10
170.1465954835851
 20
14.13795663215991
 97
        1
330
BC
 75
     1
 76
     2
 52
45.0
 41
0.1
 77
     0
 78
     1
 53
45.0
 43
0.0
 44
0.0
 45
-0.282842712474619
 46
0.0
 79
     0
 98
        1
 10
0.0
 20
0.0
  0
ENDBLK
  5
4A
330
48
100
AcDbEntity
  8
0
100
AcDbBlockEnd
  0
BLOCK
  5
4D
330
4B
100
AcDbEntity
  8
0
100
AcDbBlockBegin
  2
開示A4枠
 70
     0
 10
0.0
 20
-0.00000000000003
 30
0.0
  3
開示A4枠
  1

  0
INSERT
  5
4C
330
4B
100
AcDbEntity
  8
1
100
AcDbBlockReference
  2
開示A4
 10
0.0
 20
-0.00000000000003
 30
0.0
  0
ENDBLK
  5
4E
330
4B
100
AcDbEntity
  8
0
100
AcDbBlockEnd
  0
BLOCK
  5
50
330
4F
100
AcDbEntity
  8
0
100
AcDbBlockBegin
  2
32-88
 70
     0
 10
103.0563296866998
 20
67.49568004921254
 30
0.0
  3
32-88
  1

  0
LINE
  5
D9
330
4F
100
AcDbEntity
  8
1
  6
Continuous
 62
     7
100
AcDbLine
 10
111.462225532847
 20
124.5618670995722
 30
0.0
 11
114.0531642190739
 21
124.5618670995722
 31
0.0
  0
LINE
  5
DA
330
4F
100
AcDbEntity
  8
1
  6
Continuous
 62
     7
100
AcDbLine
 10
112.3211134115051
 20
127.0618670995722
 30
0.0
 11
110.5890626039362
 21
127.0618670995722
 31
0.0
  0
LINE
  5
DB
330
4F
100
AcDbEntity
  8
1
  6
Continuous
 62
     7
100
AcDbLine
 10
110.5890626039362
 20
127.0618670995722
 30
0.0
 11
110.5890626039362
 21
125.02596871471
 31
0.0
  0
LINE
  5
DC
330
4F
100
AcDbEntity
  8
1
  6
Continuous
 62
     7
100
AcDbLine
 10
110.5890626039362
 20
125.02596871471
 30
0.0
 11
111.0531642190739
 21
124.5618670995722
 31
0.0
  0
LINE
  5
DD
330
4F
100
AcDbEntity
  8
1
  6
Continuous
 62
     7
100
AcDbLine
 10
112.3211134115051
 20
127.0618670995722
 30
0.0
 11
112.3211134115051
 21
125.02596871471
 31
0.0
  0
LINE
  5
DE
330
4F
100
AcDbEntity
  8
1
  6
Continuous
 62
     7
100
AcDbLine
 10
112.3211134115051
 20
127.0618670995722
 30
0.0
 11
115.7852150266428
 21
127.0618670995722
 31
0.0
  0
LINE
  5
DF
330
4F
100
AcDbEntity
  8
1
  6
Continuous
 62
     7
100
AcDbLine
 10
111.4182205833398
 20
124.5618670995722
 30
0.0
 11
111.0531642190739
 21
124.5618670995722
 31
0.0
  0
LINE
  5
E0
330
4F
100
AcDbEntity
  8
1
  6
Continuous
 62
     7
100
AcDbLine
 10
114.0531642190739
 20
124.5618670995722
 30
0.0
 11
116.6441029053008
 21
124.5618670995722
 31
0.0
  0
LINE
  5
E1
330
4F
100
AcDbEntity
  8
1
  6
Continuous
 62
     7
100
AcDbLine
 10
117.5172658342117
 20
127.0618670995722
 30
0.0
 11
115.7852150266428
 21
127.0618670995722
 31
0.0
  0
LINE
  5
E2
330
4F
100
AcDbEntity
  8
1
  6
Continuous
 62
     7
100
AcDbLine
 10
117.5172658342117
 20
125.02596871471
 30
0.0
 11
117.5172658342117
 21
127.0618670995722
 31
0.0
  0
LINE
  5
E3
330
4F
100
AcDbEntity
  8
1
  6
Continuous
 62
     7
100
AcDbLine
 10
117.0531642190739
 20
124.5618670995722
 30
0.0
 11
117.5172658342117
 21
125.02596871471
 31
0.0
  0
LINE
  5
E4
330
4F
100
AcDbEntity
  8
1
  6
Continuous
 62
     7
100
AcDbLine
 10
115.7852150266428
 20
125.02596871471
 30
0.0
 11
115.7852150266428
 21
127.0618670995722
 31
0.0
  0
LINE
  5
E5
330
4F
100
AcDbEntity
  8
1
  6
Continuous
 62
     7
100
AcDbLine
 10
117.0531642190739
 20
124.5618670995722
 30
0.0
 11
116.6881078548081
 21
124.5618670995722
 31
0.0
  0
ARC
  5
E6
330
4F
100
AcDbEntity
  8
1
  6
Continuous
 62
     7
100
AcDbCircle
 10
113.9976388152895
 20
127.8187450866758
 30
0.0
 40
3.257351269566262
100
AcDbArc
 50
239.0232783881109
 51
270.9767216118897
  0
ARC
  5
E7
330
4F
100
AcDbEntity
  8
1
  6
Continuous
 62
     7
100
AcDbCircle
 10
111.4550880077206
 20
125.6018757242158
 30
0.0
 40
1.040033116587089
100
AcDbArc
 50
236.3760885320339
 51
326.3760885320365
  0
ARC
  5
E8
330
4F
100
AcDbEntity
  8
1
  6
Continuous
 62
     7
100
AcDbCircle
 10
114.1086896228584
 20
127.8187450866758
 30
0.0
 40
3.257351269566344
100
AcDbArc
 50
269.0232783881085
 51
300.9767216118889
  0
ARC
  5
E9
330
4F
100
AcDbEntity
  8
1
  6
Continuous
 62
     7
100
AcDbCircle
 10
116.6512404304272
 20
125.6018757242158
 30
0.0
 40
1.040033116587077
100
AcDbArc
 50
213.6239114679666
 51
303.6239114679714
  0
ENDBLK
  5
51
330
4F
100
AcDbEntity
  8
0
100
AcDbBlockEnd
  0
BLOCK
  5
53
330
52
100
AcDbEntity
  8
0
100
AcDbBlockBegin
  2
91-1
 70
     0
 10
114.0531642190739
 20
127.0618670995722
 30
0.0
  3
91-1
  1

  0
LINE
  5
EA
330
52
100
AcDbEntity
  8
1
  6
Continuous
 62
     7
100
AcDbLine
 10
116.0531642190739
 20
130.0618670995722
 30
0.0
 11
107.0531642190739
 21
130.0618670995722
 31
0.0
  0
LINE
  5
EB
330
52
100
AcDbEntity
  8
1
  6
Continuous
 62
     7
100
AcDbLine
 10
116.0531642190739
 20
127.0618670995722
 30
0.0
 11
121.0531642190739
 21
127.0618670995722
 31
0.0
  0
LINE
  5
EC
330
52
100
AcDbEntity
  8
1
  6
Continuous
 62
     7
100
AcDbLine
 10
107.0531642190739
 20
130.0618670995722
 30
0.0
 11
107.0531642190739
 21
127.0618670995722
 31
0.0
  0
LINE
  5
ED
330
52
100
AcDbEntity
  8
1
  6
Continuous
 62
     7
100
AcDbLine
 10
121.0531642190739
 20
130.0618670995722
 30
0.0
 11
116.0531642190739
 21
130.0618670995722
 31
0.0
  0
LINE
  5
EE
330
52
100
AcDbEntity
  8
1
  6
Continuous
 62
     7
100
AcDbLine
 10
121.0531642190739
 20
127.0618670995722
 30
0.0
 11
121.0531642190739
 21
130.0618670995722
 31
0.0
  0
LINE
  5
EF
330
52
100
AcDbEntity
  8
1
  6
Continuous
 62
     7
100
AcDbLine
 10
107.0531642190739
 20
127.0618670995722
 30
0.0
 11
116.0531642190739
 21
127.0618670995722
 31
0.0
  0
ENDBLK
  5
54
330
52
100
AcDbEntity
  8
0
100
AcDbBlockEnd
  0
BLOCK
  5
56
330
55
100
AcDbEntity
  8
0
100
AcDbBlockBegin
  2
41-1-15
 70
     0
 10
88.39388364353431
 20
182.6569750132413
 30
0.0
  3
41-1-15
  1

  0
LINE
  5
F0
330
55
100
AcDbEntity
  8
1
  6
Continuous
 62
     7
100
AcDbLine
 10
107.0531642190739
 20
130.0618670995722
 30
0.0
 11
106.553164219074
 21
130.0618670995722
 31
0.0
  0
LINE
  5
F1
330
55
100
AcDbEntity
  8
1
  6
Continuous
 62
     2
100
AcDbLine
 10
115.6741642190739
 20
124.5618670995722
 30
0.0
 11
115.6741642190739
 21
123.0618670995722
 31
0.0
  0
LINE
  5
F2
330
55
100
AcDbEntity
  8
1
  6
Continuous
 62
     7
100
AcDbLine
 10
116.0531642190739
 20
124.5618670995722
 30
0.0
 11
116.0531642190739
 21
123.4408670995722
 31
0.0
  0
LINE
  5
F3
330
55
100
AcDbEntity
  8
1
  6
Continuous
 62
     7
100
AcDbLine
 10
111.553164219074
 20
133.0618670995722
 30
0.0
 11
116.5531642190739
 21
133.0618670995722
 31
0.0
  0
LINE
  5
F4
330
55
100
AcDbEntity
  8
1
  6
Continuous
 62
     7
100
AcDbLine
 10
121.5531642190739
 20
132.3118670995722
 30
0.0
 11
106.553164219074
 21
132.3118670995722
 31
0.0
  0
LINE
  5
F5
330
55
100
AcDbEntity
  8
1
  6
Continuous
 62
     7
100
AcDbLine
 10
107.303164219074
 20
133.0618670995722
 30
0.0
 11
106.553164219074
 21
132.3118670995722
 31
0.0
  0
LINE
  5
F6
330
55
100
AcDbEntity
  8
1
  6
Continuous
 62
     7
100
AcDbLine
 10
121.5531642190739
 20
132.3118670995722
 30
0.0
 11
120.8031642190739
 21
133.0618670995722
 31
0.0
  0
LINE
  5
F7
330
55
100
AcDbEntity
  8
1
  6
Continuous
 62
     7
100
AcDbLine
 10
111.553164219074
 20
133.0618670995722
 30
0.0
 11
111.553164219074
 21
147.0618670995722
 31
0.0
  0
LINE
  5
F8
330
55
100
AcDbEntity
  8
1
  6
Continuous
 62
     7
100
AcDbLine
 10
111.553164219074
 20
133.0618670995722
 30
0.0
 11
107.303164219074
 21
133.0618670995722
 31
0.0
  0
LINE
  5
F9
330
55
100
AcDbEntity
  8
1
  6
Continuous
 62
     7
100
AcDbLine
 10
106.553164219074
 20
130.0618670995722
 30
0.0
 11
106.553164219074
 21
132.3118670995722
 31
0.0
  0
LINE
  5
FA
330
55
100
AcDbEntity
  8
1
  6
Continuous
 62
     2
100
AcDbLine
 10
112.4321642190739
 20
123.0618670995722
 30
0.0
 11
112.4321642190739
 21
124.5618670995722
 31
0.0
  0
LINE
  5
FB
330
55
100
AcDbEntity
  8
1
  6
Continuous
 62
     7
100
AcDbLine
 10
114.0531642190739
 20
123.0618670995722
 30
0.0
 11
112.4321642190739
 21
123.0618670995722
 31
0.0
  0
LINE
  5
FC
330
55
100
AcDbEntity
  8
1
  6
Continuous
 62
     7
100
AcDbLine
 10
112.053164219074
 20
123.4408670995722
 30
0.0
 11
112.053164219074
 21
124.5618670995722
 31
0.0
  0
LINE
  5
FD
330
55
100
AcDbEntity
  8
1
  6
Continuous
 62
     7
100
AcDbLine
 10
112.4321642190739
 20
123.0618670995722
 30
0.0
 11
112.053164219074
 21
123.4408670995722
 31
0.0
  0
LINE
  5
FE
330
55
100
AcDbEntity
  8
1
  6
Continuous
 62
     7
100
AcDbLine
 10
114.0531642190739
 20
123.4408670995722
 30
0.0
 11
112.053164219074
 21
123.4408670995722
 31
0.0
  0
LINE
  5
FF
330
55
100
AcDbEntity
  8
1
  6
Continuous
 62
     7
100
AcDbLine
 10
111.553164219074
 20
147.0618670995722
 30
0.0
 11
116.5531642190739
 21
147.0618670995722
 31
0.0
  0
LINE
  5
100
330
55
100
AcDbEntity
  8
1
  6
Continuous
 62
     7
100
AcDbLine
 10
116.0531642190739
 20
123.4408670995722
 30
0.0
 11
114.0531642190739
 21
123.4408670995722
 31
0.0
  0
LINE
  5
101
330
55
100
AcDbEntity
  8
1
  6
Continuous
 62
     7
100
AcDbLine
 10
116.0531642190739
 20
123.4408670995722
 30
0.0
 11
115.6741642190739
 21
123.0618670995722
 31
0.0
  0
LINE
  5
102
330
55
100
AcDbEntity
  8
1
  6
Continuous
 62
     7
100
AcDbLine
 10
115.6741642190739
 20
123.0618670995722
 30
0.0
 11
114.0531642190739
 21
123.0618670995722
 31
0.0
  0
LINE
  5
103
330
55
100
AcDbEntity
  8
1
  6
Continuous
 62
     7
100
AcDbLine
 10
121.5531642190739
 20
130.0618670995722
 30
0.0
 11
121.0531642190739
 21
130.0618670995722
 31
0.0
  0
LINE
  5
104
330
55
100
AcDbEntity
  8
1
  6
Continuous
 62
     7
100
AcDbLine
 10
121.5531642190739
 20
130.0618670995722
 30
0.0
 11
121.5531642190739
 21
132.3118670995722
 31
0.0
  0
LINE
  5
105
330
55
100
AcDbEntity
  8
1
  6
Continuous
 62
     7
100
AcDbLine
 10
116.5531642190739
 20
133.0618670995722
 30
0.0
 11
120.8031642190739
 21
133.0618670995722
 31
0.0
  0
LINE
  5
106
330
55
100
AcDbEntity
  8
1
  6
Continuous
 62
     7
100
AcDbLine
 10
116.5531642190739
 20
147.0618670995722
 30
0.0
 11
116.5531642190739
 21
133.0618670995722
 31
0.0
  0
ARC
  5
107
330
55
100
AcDbEntity
  8
1
  6
Continuous
 62
     7
100
AcDbCircle
 10
114.2020554055942
 20
144.0646391332716
 30
0.0
 40
3.999999999999866
100
AcDbArc
 50
92.13320194698761
 51
131.4696170257163
  0
ARC
  5
108
330
55
100
AcDbEntity
  8
1
  6
Continuous
 62
     7
100
AcDbCircle
 10
113.9042730325537
 20
144.0646391332716
 30
0.0
 40
3.999999999999843
100
AcDbArc
 50
48.53038297428356
 51
87.8667980530136
  0
CIRCLE
  5
109
330
55
100
AcDbEntity
  8
0
  6
Continuous
 62
     7
100
AcDbCircle
 10
114.0531642190739
 20
193.5618670995722
 30
0.0
 40
2.5
  0
CIRCLE
  5
10A
330
55
100
AcDbEntity
  8
0
  6
Continuous
 62
     7
100
AcDbCircle
 10
114.0531642190739
 20
193.5618670995722
 30
0.0
 40
6.75
  0
CIRCLE
  5
10B
330
55
100
AcDbEntity
  8
0
  6
Continuous
 62
     7
100
AcDbCircle
 10
114.0531642190739
 20
193.5618670995722
 30
0.0
 40
7.5
  0
ENDBLK
  5
57
330
55
100
AcDbEntity
  8
0
100
AcDbBlockEnd
  0
BLOCK
  5
124
330
11D
100
AcDbEntity
  8
0
100
AcDbBlockBegin
  2
*D6
 70
     1
 10
0.0
 20
0.0
 30
0.0
  3
*D6
  1

  0
LINE
  5
11E
330
11D
100
AcDbEntity
  8
0
  6
Continuous
 62
     2
100
AcDbLine
 10
95.51928103351375
 20
148.0618670995722
 30
0.0
 11
95.51928103351375
 21
133.0618670995722
 31
0.0
  0
LINE
  5
11F
330
11D
100
AcDbEntity
  8
0
  6
Continuous
 62
     2
100
AcDbLine
 10
111.5531642190739
 20
133.0618670995722
 30
0.0
 11
94.51928103351375
 21
133.0618670995722
 31
0.0
  0
LINE
  5
120
330
11D
100
AcDbEntity
  8
0
  6
Continuous
 62
     2
100
AcDbLine
 10
114.0531642190739
 20
148.0618670995722
 30
0.0
 11
94.51928103351375
 21
148.0618670995722
 31
0.0
  0
SOLID
  5
121
330
11D
100
AcDbEntity
  8
0
 62
     2
100
AcDbTrace
 10
95.98006477506964
 20
144.5618670995722
 30
0.0
 11
95.05849729195786
 21
144.5618670995722
 31
0.0
 12
95.51928103351375
 22
148.0618670995722
 32
0.0
 13
95.51928103351375
 23
148.0618670995722
 33
0.0
  0
SOLID
  5
122
330
11D
100
AcDbEntity
  8
0
 62
     2
100
AcDbTrace
 10
95.05849729195786
 20
136.5618670995722
 30
0.0
 11
95.98006477506964
 21
136.5618670995722
 31
0.0
 12
95.51928103351375
 22
133.0618670995722
 32
0.0
 13
95.51928103351375
 23
133.0618670995722
 33
0.0
  0
MTEXT
  5
123
330
11D
100
AcDbEntity
  8
0
 62
     7
100
AcDbMText
 10
94.51928103351375
 20
138.4375510983401
 30
0.0
 40
3.5
 41
0.0
 71
     7
 72
     1
  1
15
  7
CONVERTER_12
 11
0.0
 21
1.0
 31
0.0
 73
     1
 44
0.60024009603842
  0
ENDBLK
  5
125
330
11D
100
AcDbEntity
  8
0
100
AcDbBlockEnd
  0
BLOCK
  5
12F
330
128
100
AcDbEntity
  8
0
100
AcDbBlockBegin
  2
*D7
 70
     1
 10
0.0
 20
0.0
 30
0.0
  3
*D7
  1

  0
LINE
  5
129
330
128
100
AcDbEntity
  8
0
  6
Continuous
 62
     2
100
AcDbLine
 10
87.57258053021154
 20
148.0618670995722
 30
0.0
 11
87.57258053021154
 21
123.0618670995722
 31
0.0
  0
LINE
  5
12A
330
128
100
AcDbEntity
  8
0
  6
Continuous
 62
     2
100
AcDbLine
 10
114.0531642190739
 20
123.0618670995722
 30
0.0
 11
86.57258053021154
 21
123.0618670995722
 31
0.0
  0
LINE
  5
12B
330
128
100
AcDbEntity
  8
0
  6
Continuous
 62
     2
100
AcDbLine
 10
114.0531642190739
 20
148.0618670995722
 30
0.0
 11
86.57258053021154
 21
148.0618670995722
 31
0.0
  0
SOLID
  5
12C
330
128
100
AcDbEntity
  8
0
 62
     2
100
AcDbTrace
 10
88.03336427176743
 20
144.5618670995722
 30
0.0
 11
87.11179678865565
 21
144.5618670995722
 31
0.0
 12
87.57258053021154
 22
148.0618670995722
 32
0.0
 13
87.57258053021154
 23
148.0618670995722
 33
0.0
  0
SOLID
  5
12D
330
128
100
AcDbEntity
  8
0
 62
     2
100
AcDbTrace
 10
87.11179678865565
 20
126.5618670995722
 30
0.0
 11
88.03336427176743
 21
126.5618670995722
 31
0.0
 12
87.57258053021154
 22
123.0618670995722
 32
0.0
 13
87.57258053021154
 23
123.0618670995722
 33
0.0
  0
MTEXT
  5
12E
330
128
100
AcDbEntity
  8
0
 62
     7
100
AcDbMText
 10
86.57258053021154
 20
133.8816160604331
 30
0.0
 40
3.5
 41
0.0
 71
     7
 72
     1
  1
25
  7
CONVERTER_12
 11
0.0
 21
1.0
 31
0.0
 73
     1
 44
0.60024009603842
  0
ENDBLK
  5
130
330
128
100
AcDbEntity
  8
0
100
AcDbBlockEnd
  0
BLOCK
  5
138
330
133
100
AcDbEntity
  8
0
100
AcDbBlockBegin
  2
*D8
 70
     1
 10
0.0
 20
0.0
 30
0.0
  3
*D8
  1

  0
LINE
  5
134
330
133
100
AcDbEntity
  8
0
  6
Continuous
 62
     2
100
AcDbLine
 10
119.6922163738615
 20
198.8782183667089
 30
0.0
 11
102.7486487948009
 21
182.9042648553411
 31
0.0
  0
SOLID
  5
135
330
133
100
AcDbEntity
  8
0
 62
     2
100
AcDbTrace
 10
110.0035352254702
 20
189.1107069507294
 30
0.0
 11
109.3713576181679
 21
189.7812575444615
 31
0.0
 12
112.2341151368844
 22
191.8469150779152
 32
0.0
 13
112.2341151368844
 23
191.8469150779152
 33
0.0
  0
SOLID
  5
136
330
133
100
AcDbEntity
  8
0
 62
     2
100
AcDbTrace
 10
118.1027932126776
 20
198.013027248415
 30
0.0
 11
118.73497081998
 21
197.3424766546829
 31
0.0
 12
115.8722133012635
 22
195.2768191212292
 32
0.0
 13
115.8722133012635
 23
195.2768191212292
 33
0.0
  0
MTEXT
  5
137
330
133
100
AcDbEntity
  8
0
 62
     7
100
AcDbMText
 10
103.0304020978629
 20
184.5442389637385
 30
0.0
 40
3.5
 41
0.0
 71
     7
 72
     1
  1
\C7;{\Fgdt;n}\C7;5
  7
CONVERTER_12
 11
0.7276196328758154
 21
0.6859808086627962
 31
0.0
 73
     1
 44
0.60024009603842
  0
ENDBLK
  5
139
330
133
100
AcDbEntity
  8
0
100
AcDbBlockEnd
  0
BLOCK
  5
142
330
13B
100
AcDbEntity
  8
0
100
AcDbBlockBegin
  2
*D9
 70
     1
 10
0.0
 20
0.0
 30
0.0
  3
*D9
  1

  0
LINE
  5
13C
330
13B
100
AcDbEntity
  8
0
  6
Continuous
 62
     2
100
AcDbLine
 10
121.5531642190739
 20
212.2067557958279
 30
0.0
 11
106.5531642190739
 21
212.2067557958279
 31
0.0
  0
LINE
  5
13D
330
13B
100
AcDbEntity
  8
0
  6
Continuous
 62
     2
100
AcDbLine
 10
106.5531642190739
 20
193.5618670995722
 30
0.0
 11
106.5531642190739
 21
213.2067557958279
 31
0.0
  0
LINE
  5
13E
330
13B
100
AcDbEntity
  8
0
  6
Continuous
 62
     2
100
AcDbLine
 10
121.5531642190739
 20
193.5618670995722
 30
0.0
 11
121.5531642190739
 21
213.2067557958279
 31
0.0
  0
SOLID
  5
13F
330
13B
100
AcDbEntity
  8
0
 62
     2
100
AcDbTrace
 10
118.0531642190739
 20
211.745972054272
 30
0.0
 11
118.0531642190739
 21
212.6675395373838
 31
0.0
 12
121.5531642190739
 22
212.2067557958279
 32
0.0
 13
121.5531642190739
 23
212.2067557958279
 33
0.0
  0
SOLID
  5
140
330
13B
100
AcDbEntity
  8
0
 62
     2
100
AcDbTrace
 10
110.0531642190739
 20
212.6675395373838
 30
0.0
 11
110.0531642190739
 21
211.745972054272
 31
0.0
 12
106.5531642190739
 22
212.2067557958279
 32
0.0
 13
106.5531642190739
 23
212.2067557958279
 33
0.0
  0
MTEXT
  5
141
330
13B
100
AcDbEntity
  8
0
 62
     7
100
AcDbMText
 10
111.2253128031499
 20
213.2067488387516
 30
0.0
 40
3.5
 41
0.0
 71
     7
 72
     1
  1
\C7;{\Fgdt;n}\C7;15
  7
CONVERTER_12
 11
0.9999999999970619
 21
2.424068405545306E-6
 31
0.0
 73
     1
 44
0.60024009603842
  0
ENDBLK
  5
143
330
13B
100
AcDbEntity
  8
0
100
AcDbBlockEnd
  0
ENDSEC
  0
SECTION
  2
ENTITIES
  0
INSERT
  5
58
330
1F
100
AcDbEntity
  8
0
100
AcDbBlockReference
  2
開示A4枠
 10
0.0
 20
-0.00000000000003
 30
0.0
  0
INSERT
  5
59
330
1F
100
AcDbEntity
  8
1
100
AcDbBlockReference
  2
32-88
 10
103.0563296866998
 20
67.49568004921254
 30
0.0
  0
INSERT
  5
5A
330
1F
100
AcDbEntity
  8
0
100
AcDbBlockReference
  2
91-1
 10
114.0531642190739
 20
127.0618670995722
 30
0.0
  0
INSERT
  5
5B
330
1F
100
AcDbEntity
  8
0
100
AcDbBlockReference
  2
41-1-15
 10
88.39388364353431
 20
182.6569750132413
 30
0.0
  0
LINE
  5
10C
330
1F
100
AcDbEntity
  8
1
  6
DASH_CENTER
 62
     2
100
AcDbLine
 10
114.0531642190739
 20
120.0618670995722
 30
0.0
 11
114.0531642190739
 21
151.0618670995722
 31
0.0
  0
LINE
  5
10D
330
1F
100
AcDbEntity
  8
1
  6
DASH_CENTER
 62
     2
100
AcDbLine
 10
114.0531642190739
 20
183.0618670995722
 30
0.0
 11
114.0531642190739
 21
204.0618670995722
 31
0.0
  0
LINE
  5
10E
330
1F
100
AcDbEntity
  8
1
  6
DASH_CENTER
 62
     2
100
AcDbLine
 10
124.5531642190739
 20
193.5618670995722
 30
0.0
 11
103.5531642190739
 21
193.5618670995722
 31
0.0
  0
MTEXT
  5
110
330
1F
100
AcDbEntity
  8
1
 62
     7
100
AcDbMText
 10
157.5
 20
12.49999999999997
 30
0.0
 40
2.5
 41
0.0
 71
     5
 72
     1
  1
2
  7
CONVERTER_12
 73
     1
 44
0.7202881152461
  0
MTEXT
  5
111
330
1F
100
AcDbEntity
  8
1
 62
     7
100
AcDbMText
 10
151.75
 20
12.49999999999997
 30
0.0
 40
2.5
 41
0.0
 71
     5
 72
     1
  1
04
  7
CONVERTER_12
 73
     1
 44
0.7202881152461
  0
MTEXT
  5
112
330
1F
100
AcDbEntity
  8
1
 62
     7
100
AcDbMText
 10
140.5
 20
12.49999999999997
 30
0.0
 40
2.5
 41
0.0
 71
     5
 72
     1
  1
2
  7
CONVERTER_12
 73
     1
 44
0.7202881152461
  0
MTEXT
  5
113
330
1F
100
AcDbEntity
  8
1
 62
     7
100
AcDbMText
 10
134.75
 20
12.49999999999997
 30
0.0
 40
2.5
 41
0.0
 71
     5
 72
     1
  1
04
  7
CONVERTER_12
 73
     1
 44
0.7202881152461
  0
MTEXT
  5
114
330
1F
100
AcDbEntity
  8
1
 62
     7
100
AcDbMText
 10
123.5
 20
12.49999999999997
 30
0.0
 40
2.5
 41
0.0
 71
     5
 72
     1
  1
2
  7
CONVERTER_12
 73
     1
 44
0.7202881152461
  0
MTEXT
  5
115
330
1F
100
AcDbEntity
  8
1
 62
     7
100
AcDbMText
 10
117.75
 20
12.49999999999997
 30
0.0
 40
2.5
 41
0.0
 71
     5
 72
     1
  1
04
  7
CONVERTER_12
 73
     1
 44
0.7202881152461
  0
MTEXT
  5
116
330
1F
100
AcDbEntity
  8
1
 62
     7
100
AcDbMText
 10
100.75
 20
12.49999999999997
 30
0.0
 40
2.5
 41
0.0
 71
     5
 72
     1
  1
04
  7
CONVERTER_12
 73
     1
 44
0.7202881152461
  0
MTEXT
  5
117
330
1F
100
AcDbEntity
  8
1
 62
     7
100
AcDbMText
 10
106.5
 20
12.49999999999997
 30
0.0
 40
2.5
 41
0.0
 71
     5
 72
     1
  1
2
  7
CONVERTER_12
 73
     1
 44
0.7202881152461
  0
MTEXT
  5
118
330
1F
100
AcDbEntity
  8
1
 62
     7
100
AcDbMText
 10
33.99999999999999
 20
33.99999999999999
 30
0.0
 40
3.5
 41
0.0
 71
     4
 72
     1
  1
3個入
  7
CONVERTER_11
 73
     1
 44
0.54545454545455
  0
MTEXT
  5
119
330
1F
100
AcDbEntity
  8
1
 62
     7
100
AcDbMText
 10
85.25
 20
16.99999999999997
 30
0.0
 40
3.5
 41
0.0
 71
     5
 72
     1
  1
1
  7
CONVERTER_12
 73
     1
 44
0.7202881152461
  0
MTEXT
  5
11A
330
1F
100
AcDbEntity
  8
1
 62
     7
100
AcDbMText
 10
57.0
 20
22.74999999999998
 30
0.0
 40
3.5
 41
0.0
 71
     5
 72
     1
  1
水栓ケレップ
  7
CONVERTER_11
 73
     1
 44
0.54545454545455
  0
MTEXT
  5
11B
330
1F
100
AcDbEntity
  8
1
 62
     7
100
AcDbMText
 10
57.0
 20
14.24999999999997
 30
0.0
 40
3.5
 41
0.0
 71
     5
 72
     1
  1
P82A-1S-15
  7
CONVERTER_12
 73
     1
 44
0.7202881152461
  0
MTEXT
  5
11C
330
1F
100
AcDbEntity
  8
1
 62
     7
100
AcDbMText
 10
93.75
 20
16.99999999999997
 30
0.0
 40
3.5
 41
0.0
 71
     5
 72
     1
  1
1
  7
CONVERTER_12
 73
     1
 44
0.7202881152461
  0
DIMENSION
  5
127
330
1F
100
AcDbEntity
  8
0
100
AcDbDimension
  2
*D6
 10
95.51928103351375
 20
148.0618670995722
 30
0.0
 11
92.76928103351375
 21
140.5375510983401
 31
0.0
 70
    32
  1
<>
 71
     5
 42
-1.0
 53
90.0
  3
ME10_DIM_10
100
AcDbAlignedDimension
 13
111.553164219074
 23
133.0618670995722
 33
0.0
 14
114.0531642190739
 24
148.0618670995722
 34
0.0
 50
90.0
100
AcDbRotatedDimension
  0
DIMENSION
  5
132
330
1F
100
AcDbEntity
  8
0
100
AcDbDimension
  2
*D7
 10
87.57258053021154
 20
148.0618670995722
 30
0.0
 11
84.82258053021154
 21
136.5066160604331
 31
0.0
 70
    32
  1
<>
 71
     5
 42
-1.0
 53
90.0
  3
ME10_DIM_11
100
AcDbAlignedDimension
 13
114.0531642190739
 23
123.0618670995722
 33
0.0
 14
114.0531642190739
 24
148.0618670995722
 34
0.0
 50
90.0
100
AcDbRotatedDimension
  0
INSERT
  5
13A
330
1F
100
AcDbEntity
  8
0
100
AcDbBlockReference
  2
*D8
 10
0.0
 20
0.0
 30
0.0
  0
INSERT
  5
144
330
1F
100
AcDbEntity
  8
0
100
AcDbBlockReference
  2
*D9
 10
0.0
 20
0.0
 30
0.0
  0
ENDSEC
  0
SECTION
  2
OBJECTS
  0
DICTIONARY
  5
C
330
0
100
AcDbDictionary
281
     1
  3
ACAD_GROUP
350
D
  3
ACAD_LAYOUT
350
1A
  3
ACAD_MATERIAL
350
3B
  3
ACAD_MLEADERSTYLE
350
147
  3
ACAD_MLINESTYLE
350
17
  3
ACAD_PLOTSETTINGS
350
19
  3
ACAD_PLOTSTYLENAME
350
E
  3
ACAD_VISUALSTYLE
350
2A
  3
AcDbVariableDictionary
350
145
  0
DICTIONARY
  5
D
102
{ACAD_REACTORS
330
C
102
}
330
C
100
AcDbDictionary
281
     1
  0
DICTIONARY
  5
1A
102
{ACAD_REACTORS
330
C
102
}
330
C
100
AcDbDictionary
281
     1
  3
Layout1
350
1E
  3
Layout2
350
26
  3
Model
350
22
  0
DICTIONARY
  5
3B
102
{ACAD_REACTORS
330
C
102
}
330
C
100
AcDbDictionary
281
     1
  3
ByBlock
350
3D
  3
ByLayer
350
3C
  3
Global
350
3E
  0
DICTIONARY
  5
147
102
{ACAD_REACTORS
330
C
102
}
330
C
100
AcDbDictionary
281
     1
  0
DICTIONARY
  5
17
102
{ACAD_REACTORS
330
C
102
}
330
C
100
AcDbDictionary
281
     1
  3
Standard
350
18
  0
DICTIONARY
  5
19
102
{ACAD_REACTORS
330
C
102
}
330
C
100
AcDbDictionary
281
     1
  0
ACDBDICTIONARYWDFLT
  5
E
102
{ACAD_REACTORS
330
C
102
}
330
C
100
AcDbDictionary
281
     1
  3
Normal
350
F
100
AcDbDictionaryWithDefault
340
F
  0
DICTIONARY
  5
2A
102
{ACAD_REACTORS
330
C
102
}
330
C
100
AcDbDictionary
281
     1
  3
2dWireframe
350
2F
  3
3D Hidden
350
31
  3
3dWireframe
350
30
  3
Basic
350
32
  3
Brighten
350
36
  3
ColorChange
350
3A
  3
Conceptual
350
34
  3
Dim
350
35
  3
Facepattern
350
39
  3
Flat
350
2B
  3
FlatWithEdges
350
2C
  3
Gouraud
350
2D
  3
GouraudWithEdges
350
2E
  3
Linepattern
350
38
  3
Realistic
350
33
  3
Thicken
350
37
  0
DICTIONARY
  5
145
102
{ACAD_REACTORS
330
C
102
}
330
C
100
AcDbDictionary
281
     1
  3
DIMASSOC
350
148
  3
HIDETEXT
350
149
  0
LAYOUT
  5
1E
102
{ACAD_REACTORS
330
1A
102
}
330
1A
100
AcDbPlotSettings
  1

  2
none_device
  4

  6

 40
0.0
 41
0.0
 42
0.0
 43
0.0
 44
0.0
 45
0.0
 46
0.0
 47
0.0
 48
0.0
 49
0.0
140
0.0
141
0.0
142
1.0
143
1.0
 70
   688
 72
     0
 73
     0
 74
     5
  7

 75
    16
147
1.0
148
0.0
149
0.0
100
AcDbLayout
  1
Layout1
 70
     1
 71
     1
 10
0.0
 20
0.0
 11
12.0
 21
9.0
 12
0.0
 22
0.0
 32
0.0
 14
1.00000000000000E+20
 24
1.00000000000000E+20
 34
1.00000000000000E+20
 15
-1.00000000000000E+20
 25
-1.00000000000000E+20
 35
-1.00000000000000E+20
146
0.0
 13
0.0
 23
0.0
 33
0.0
 16
1.0
 26
0.0
 36
0.0
 17
0.0
 27
1.0
 37
0.0
 76
     0
330
1B
  0
LAYOUT
  5
26
102
{ACAD_REACTORS
330
1A
102
}
330
1A
100
AcDbPlotSettings
  1

  2
none_device
  4

  6

 40
0.0
 41
0.0
 42
0.0
 43
0.0
 44
0.0
 45
0.0
 46
0.0
 47
0.0
 48
0.0
 49
0.0
140
0.0
141
0.0
142
1.0
143
1.0
 70
   688
 72
     0
 73
     0
 74
     5
  7

 75
    16
147
1.0
148
0.0
149
0.0
100
AcDbLayout
  1
Layout2
 70
     1
 71
     2
 10
0.0
 20
0.0
 11
0.0
 21
0.0
 12
0.0
 22
0.0
 32
0.0
 14
0.0
 24
0.0
 34
0.0
 15
0.0
 25
0.0
 35
0.0
146
0.0
 13
0.0
 23
0.0
 33
0.0
 16
1.0
 26
0.0
 36
0.0
 17
0.0
 27
1.0
 37
0.0
 76
     0
330
23
  0
LAYOUT
  5
22
102
{ACAD_REACTORS
330
1A
102
}
330
1A
100
AcDbPlotSettings
  1

  2
none_device
  4

  6

 40
0.0
 41
0.0
 42
0.0
 43
0.0
 44
0.0
 45
0.0
 46
0.0
 47
0.0
 48
0.0
 49
0.0
140
0.0
141
0.0
142
1.0
143
1.0
 70
  1712
 72
     0
 73
     0
 74
     0
  7

 75
     0
147
1.0
148
0.0
149
0.0
100
AcDbLayout
  1
Model
 70
     1
 71
     0
 10
0.0
 20
0.0
 11
12.0
 21
9.0
 12
0.0
 22
0.0
 32
0.0
 14
0.0
 24
-0.00000000000003
 34
0.0
 15
210.0000000000001
 25
297.0
 35
0.0
146
0.0
 13
0.0
 23
0.0
 33
0.0
 16
1.0
 26
0.0
 36
0.0
 17
0.0
 27
1.0
 37
0.0
 76
     0
330
1F
331
29
  0
MATERIAL
  5
3D
102
{ACAD_REACTORS
330
3B
102
}
102
{ACAD_XDICTIONARY
360
16C
102
}
330
3B
100
AcDbMaterial
  1
ByBlock
  0
MATERIAL
  5
3C
102
{ACAD_REACTORS
330
3B
102
}
102
{ACAD_XDICTIONARY
360
16A
102
}
330
3B
100
AcDbMaterial
  1
ByLayer
  0
MATERIAL
  5
3E
102
{ACAD_REACTORS
330
3B
102
}
102
{ACAD_XDICTIONARY
360
16E
102
}
330
3B
100
AcDbMaterial
  1
Global
  0
MLINESTYLE
  5
18
102
{ACAD_REACTORS
330
17
102
}
330
17
100
AcDbMlineStyle
  2
Standard
 70
     0
  3

 62
   256
 51
90.0
 52
90.0
 71
     2
 49
0.5
 62
   256
  6
BYLAYER
 49
-0.5
 62
   256
  6
BYLAYER
  0
ACDBPLACEHOLDER
  5
F
102
{ACAD_REACTORS
330
E
102
}
330
E
  0
VISUALSTYLE
  5
2F
102
{ACAD_REACTORS
330
2A
102
}
102
{ACAD_XDICTIONARY
360
152
102
}
330
2A
100
AcDbVisualStyle
  2
2dWireframe
 70
     4
 71
     0
 72
     2
 73
     0
 90
        0
 40
-0.6
 41
-30.0
 62
     5
 63
     7
 74
     1
 91
        4
 64
     7
 65
   257
 75
     1
175
     1
 42
1.0
 92
        0
 66
   257
 43
1.0
 76
     1
 77
     6
 78
     2
 67
     7
 79
     5
170
     0
171
     0
290
     0
174
     0
 93
        1
 44
0.0
173
     0
291
     0
 45
0.0
1001
ACAD
1000
AcDbSavedByObjectVersion
1070
     0
  0
VISUALSTYLE
  5
31
102
{ACAD_REACTORS
330
2A
102
}
102
{ACAD_XDICTIONARY
360
156
102
}
330
2A
100
AcDbVisualStyle
  2
3D Hidden
 70
     6
 71
     1
 72
     2
 73
     2
 90
        0
 40
-0.6
 41
-30.0
 62
     5
 63
     7
 74
     2
 91
        2
 64
     7
 65
   257
 75
     2
175
     1
 42
40.0
 92
        0
 66
   257
 43
1.0
 76
     1
 77
     6
 78
     2
 67
     7
 79
     3
170
     0
171
     0
290
     0
174
     0
 93
        1
 44
0.0
173
     0
291
     0
 45
0.0
1001
ACAD
1000
AcDbSavedByObjectVersion
1070
     0
  0
VISUALSTYLE
  5
30
102
{ACAD_REACTORS
330
2A
102
}
102
{ACAD_XDICTIONARY
360
154
102
}
330
2A
100
AcDbVisualStyle
  2
3dWireframe
 70
     5
 71
     0
 72
     2
 73
     0
 90
        0
 40
-0.6
 41
-30.0
 62
     5
 63
     7
 74
     1
 91
        4
 64
     7
 65
   257
 75
     1
175
     1
 42
1.0
 92
        0
 66
   257
 43
1.0
 76
     1
 77
     6
 78
     2
 67
     7
 79
     5
170
     0
171
     0
290
     0
174
     0
 93
        1
 44
0.0
173
     0
291
     0
 45
0.0
1001
ACAD
1000
AcDbSavedByObjectVersion
1070
     0
  0
VISUALSTYLE
  5
32
102
{ACAD_REACTORS
330
2A
102
}
102
{ACAD_XDICTIONARY
360
158
102
}
330
2A
100
AcDbVisualStyle
  2
Basic
 70
     7
 71
     1
 72
     0
 73
     1
 90
        0
 40
-0.6
 41
-30.0
 62
     5
 63
     7
 74
     0
 91
        4
 64
     7
 65
   257
 75
     1
175
     1
 42
1.0
 92
        8
 66
     7
 43
1.0
 76
     1
 77
     6
 78
     2
 67
     7
 79
     5
170
     0
171
     0
290
     0
174
     0
 93
        1
 44
0.0
173
     0
291
     1
 45
0.0
1001
ACAD
1000
AcDbSavedByObjectVersion
1070
     0
  0
VISUALSTYLE
  5
36
102
{ACAD_REACTORS
330
2A
102
}
102
{ACAD_XDICTIONARY
360
160
102
}
330
2A
100
AcDbVisualStyle
  2
Brighten
 70
    12
 71
     2
 72
     2
 73
     0
 90
        0
 40
-0.6
 41
-30.0
 62
     5
 63
     7
 74
     1
 91
        4
 64
     7
 65
   257
 75
     1
175
     1
 42
1.0
 92
        8
 66
     7
 43
1.0
 76
     1
 77
     6
 78
     2
 67
     7
 79
     5
170
     0
171
     0
290
     0
174
     0
 93
        1
 44
50.0
173
     0
291
     1
 45
0.0
1001
ACAD
1000
AcDbSavedByObjectVersion
1070
     0
  0
VISUALSTYLE
  5
3A
102
{ACAD_REACTORS
330
2A
102
}
102
{ACAD_XDICTIONARY
360
168
102
}
330
2A
100
AcDbVisualStyle
  2
ColorChange
 70
    16
 71
     2
 72
     2
 73
     3
 90
        0
 40
-0.6
 41
-30.0
 62
     5
 63
     8
 74
     1
 91
        4
 64
     7
 65
   257
 75
     1
175
     1
 42
1.0
 92
        8
 66
     8
 43
1.0
 76
     1
 77
     6
 78
     2
 67
     7
 79
     5
170
     0
171
     0
290
     0
174
     0
 93
        1
 44
0.0
173
     0
291
     1
 45
0.0
1001
ACAD
1000
AcDbSavedByObjectVersion
1070
     0
  0
VISUALSTYLE
  5
34
102
{ACAD_REACTORS
330
2A
102
}
102
{ACAD_XDICTIONARY
360
15C
102
}
330
2A
100
AcDbVisualStyle
  2
Conceptual
 70
     9
 71
     3
 72
     2
 73
     0
 90
        0
 40
-0.6
 41
-30.0
 62
     5
 63
     7
 74
     2
 91
        2
 64
     7
 65
   257
 75
     1
175
     1
 42
40.0
 92
        8
 66
     7
 43
1.0
 76
     1
 77
     6
 78
     2
 67
     7
 79
     3
170
     0
171
     0
290
     0
174
     0
 93
        1
 44
0.0
173
     0
291
     0
 45
0.0
1001
ACAD
1000
AcDbSavedByObjectVersion
1070
     0
  0
VISUALSTYLE
  5
35
102
{ACAD_REACTORS
330
2A
102
}
102
{ACAD_XDICTIONARY
360
15E
102
}
330
2A
100
AcDbVisualStyle
  2
Dim
 70
    11
 71
     2
 72
     2
 73
     0
 90
        0
 40
-0.6
 41
-30.0
 62
     5
 63
     7
 74
     1
 91
        4
 64
     7
 65
   257
 75
     1
175
     1
 42
1.0
 92
        8
 66
     7
 43
1.0
 76
     1
 77
     6
 78
     2
 67
     7
 79
     5
170
     0
171
     0
290
     0
174
     0
 93
        1
 44
-50.0
173
     0
291
     1
 45
0.0
1001
ACAD
1000
AcDbSavedByObjectVersion
1070
     0
  0
VISUALSTYLE
  5
39
102
{ACAD_REACTORS
330
2A
102
}
102
{ACAD_XDICTIONARY
360
166
102
}
330
2A
100
AcDbVisualStyle
  2
Facepattern
 70
    15
 71
     2
 72
     2
 73
     0
 90
        0
 40
-0.6
 41
-30.0
 62
     5
 63
     7
 74
     1
 91
        4
 64
     7
 65
   257
 75
     1
175
     1
 42
1.0
 92
        8
 66
     7
 43
1.0
 76
     1
 77
     6
 78
     2
 67
     7
 79
     5
170
     0
171
     0
290
     0
174
     0
 93
        1
 44
0.0
173
     0
291
     1
 45
0.0
1001
ACAD
1000
AcDbSavedByObjectVersion
1070
     0
  0
VISUALSTYLE
  5
2B
102
{ACAD_REACTORS
330
2A
102
}
102
{ACAD_XDICTIONARY
360
14A
102
}
330
2A
100
AcDbVisualStyle
  2
Flat
 70
     0
 71
     2
 72
     1
 73
     1
 90
        2
 40
-0.6
 41
30.0
 62
     5
 63
     7
 74
     0
 91
        4
 64
     7
 65
   257
 75
     1
175
     1
 42
1.0
 92
        8
 66
     7
 43
1.0
 76
     1
 77
     6
 78
     2
 67
     7
 79
     5
170
     0
171
     0
290
     0
174
     0
 93
       13
 44
0.0
173
     0
291
     1
 45
0.0
1001
ACAD
1000
AcDbSavedByObjectVersion
1070
     0
  0
VISUALSTYLE
  5
2C
102
{ACAD_REACTORS
330
2A
102
}
102
{ACAD_XDICTIONARY
360
14C
102
}
330
2A
100
AcDbVisualStyle
  2
FlatWithEdges
 70
     1
 71
     2
 72
     1
 73
     1
 90
        2
 40
-0.6
 41
30.0
 62
     5
 63
     7
 74
     1
 91
        4
 64
     7
 65
   257
 75
     1
175
     1
 42
1.0
 92
        0
 66
   257
 43
1.0
 76
     1
 77
     6
 78
     2
 67
     7
 79
     5
170
     0
171
     0
290
     0
174
     0
 93
       13
 44
0.0
173
     0
291
     1
 45
0.0
1001
ACAD
1000
AcDbSavedByObjectVersion
1070
     0
  0
VISUALSTYLE
  5
2D
102
{ACAD_REACTORS
330
2A
102
}
102
{ACAD_XDICTIONARY
360
14E
102
}
330
2A
100
AcDbVisualStyle
  2
Gouraud
 70
     2
 71
     2
 72
     2
 73
     1
 90
        2
 40
-0.6
 41
30.0
 62
     5
 63
     7
 74
     0
 91
        4
 64
     7
 65
   257
 75
     1
175
     1
 42
1.0
 92
        0
 66
     7
 43
1.0
 76
     1
 77
     6
 78
     2
 67
     7
 79
     5
170
     0
171
     0
290
     0
174
     0
 93
       13
 44
0.0
173
     0
291
     1
 45
0.0
1001
ACAD
1000
AcDbSavedByObjectVersion
1070
     0
  0
VISUALSTYLE
  5
2E
102
{ACAD_REACTORS
330
2A
102
}
102
{ACAD_XDICTIONARY
360
150
102
}
330
2A
100
AcDbVisualStyle
  2
GouraudWithEdges
 70
     3
 71
     2
 72
     2
 73
     1
 90
        2
 40
-0.6
 41
30.0
 62
     5
 63
     7
 74
     1
 91
        4
 64
     7
 65
   257
 75
     1
175
     1
 42
1.0
 92
        0
 66
   257
 43
1.0
 76
     1
 77
     6
 78
     2
 67
     7
 79
     5
170
     0
171
     0
290
     0
174
     0
 93
       13
 44
0.0
173
     0
291
     1
 45
0.0
1001
ACAD
1000
AcDbSavedByObjectVersion
1070
     0
  0
VISUALSTYLE
  5
38
102
{ACAD_REACTORS
330
2A
102
}
102
{ACAD_XDICTIONARY
360
164
102
}
330
2A
100
AcDbVisualStyle
  2
Linepattern
 70
    14
 71
     2
 72
     2
 73
     0
 90
        0
 40
-0.6
 41
-30.0
 62
     5
 63
     7
 74
     1
 91
        4
 64
     7
 65
   257
 75
     7
175
     7
 42
1.0
 92
        8
 66
     7
 43
1.0
 76
     1
 77
     6
 78
     2
 67
     7
 79
     5
170
     0
171
     0
290
     0
174
     0
 93
        1
 44
0.0
173
     0
291
     1
 45
0.0
1001
ACAD
1000
AcDbSavedByObjectVersion
1070
     0
  0
VISUALSTYLE
  5
33
102
{ACAD_REACTORS
330
2A
102
}
102
{ACAD_XDICTIONARY
360
15A
102
}
330
2A
100
AcDbVisualStyle
  2
Realistic
 70
     8
 71
     2
 72
     2
 73
     0
 90
        0
 40
-0.6
 41
-30.0
 62
     5
 63
     7
 74
     1
 91
        0
 64
     7
 65
   257
 75
     1
175
     1
 42
1.0
 92
        8
 66
     8
 43
1.0
 76
     1
 77
     6
 78
     2
 67
     7
 79
     5
170
     0
171
     0
290
     0
174
     0
 93
       13
 44
0.0
173
     0
291
     0
 45
0.0
1001
ACAD
1000
AcDbSavedByObjectVersion
1070
     0
  0
VISUALSTYLE
  5
37
102
{ACAD_REACTORS
330
2A
102
}
102
{ACAD_XDICTIONARY
360
162
102
}
330
2A
100
AcDbVisualStyle
  2
Thicken
 70
    13
 71
     2
 72
     2
 73
     0
 90
        0
 40
-0.6
 41
-30.0
 62
     5
 63
     7
 74
     1
 91
        4
 64
     7
 65
   257
 75
     1
175
     1
 42
1.0
 92
       12
 66
     7
 43
1.0
 76
     1
 77
     6
 78
     2
 67
     7
 79
     5
170
     0
171
     0
290
     0
174
     0
 93
        1
 44
0.0
173
     0
291
     1
 45
0.0
1001
ACAD
1000
AcDbSavedByObjectVersion
1070
     0
  0
DICTIONARYVAR
  5
148
102
{ACAD_REACTORS
330
145
102
}
330
145
100
DictionaryVariables
280
     0
  1
2
  0
DICTIONARYVAR
  5
149
102
{ACAD_REACTORS
330
145
102
}
330
145
100
DictionaryVariables
280
     0
  1
1
  0
DICTIONARY
  5
16C
330
3D
100
AcDbDictionary
280
     1
281
     1
  3
ACAD_XREC_ROUNDTRIP
360
16D
  0
DICTIONARY
  5
16A
330
3C
100
AcDbDictionary
280
     1
281
     1
  3
ACAD_XREC_ROUNDTRIP
360
16B
  0
DICTIONARY
  5
16E
330
3E
100
AcDbDictionary
280
     1
281
     1
  3
ACAD_XREC_ROUNDTRIP
360
16F
  0
DICTIONARY
  5
152
330
2F
100
AcDbDictionary
280
     1
281
     1
  3
ACAD_XREC_ROUNDTRIP
360
153
  0
DICTIONARY
  5
156
330
31
100
AcDbDictionary
280
     1
281
     1
  3
ACAD_XREC_ROUNDTRIP
360
157
  0
DICTIONARY
  5
154
330
30
100
AcDbDictionary
280
     1
281
     1
  3
ACAD_XREC_ROUNDTRIP
360
155
  0
DICTIONARY
  5
158
330
32
100
AcDbDictionary
280
     1
281
     1
  3
ACAD_XREC_ROUNDTRIP
360
159
  0
DICTIONARY
  5
160
330
36
100
AcDbDictionary
280
     1
281
     1
  3
ACAD_XREC_ROUNDTRIP
360
161
  0
DICTIONARY
  5
168
330
3A
100
AcDbDictionary
280
     1
281
     1
  3
ACAD_XREC_ROUNDTRIP
360
169
  0
DICTIONARY
  5
15C
330
34
100
AcDbDictionary
280
     1
281
     1
  3
ACAD_XREC_ROUNDTRIP
360
15D
  0
DICTIONARY
  5
15E
330
35
100
AcDbDictionary
280
     1
281
     1
  3
ACAD_XREC_ROUNDTRIP
360
15F
  0
DICTIONARY
  5
166
330
39
100
AcDbDictionary
280
     1
281
     1
  3
ACAD_XREC_ROUNDTRIP
360
167
  0
DICTIONARY
  5
14A
330
2B
100
AcDbDictionary
280
     1
281
     1
  3
ACAD_XREC_ROUNDTRIP
360
14B
  0
DICTIONARY
  5
14C
330
2C
100
AcDbDictionary
280
     1
281
     1
  3
ACAD_XREC_ROUNDTRIP
360
14D
  0
DICTIONARY
  5
14E
330
2D
100
AcDbDictionary
280
     1
281
     1
  3
ACAD_XREC_ROUNDTRIP
360
14F
  0
DICTIONARY
  5
150
330
2E
100
AcDbDictionary
280
     1
281
     1
  3
ACAD_XREC_ROUNDTRIP
360
151
  0
DICTIONARY
  5
164
330
38
100
AcDbDictionary
280
     1
281
     1
  3
ACAD_XREC_ROUNDTRIP
360
165
  0
DICTIONARY
  5
15A
330
33
100
AcDbDictionary
280
     1
281
     1
  3
ACAD_XREC_ROUNDTRIP
360
15B
  0
DICTIONARY
  5
162
330
37
100
AcDbDictionary
280
     1
281
     1
  3
ACAD_XREC_ROUNDTRIP
360
163
  0
XRECORD
  5
16D
102
{ACAD_REACTORS
330
16C
102
}
330
16C
100
AcDbXrecord
280
     1
102
MATERIAL
148
0.0
149
0.0
149
0.0
 93
        0
 94
      127
282
     0
 72
     1
 77
     1
171
     1
175
     1
179
     1
273
     0
  0
XRECORD
  5
16B
102
{ACAD_REACTORS
330
16A
102
}
330
16A
100
AcDbXrecord
280
     1
102
MATERIAL
148
0.0
149
0.0
149
0.0
 93
        0
 94
      127
282
     0
 72
     1
 77
     1
171
     1
175
     1
179
     1
273
     0
  0
XRECORD
  5
16F
102
{ACAD_REACTORS
330
16E
102
}
330
16E
100
AcDbXrecord
280
     1
102
MATERIAL
148
0.0
149
0.0
149
0.0
 93
        0
 94
      127
282
     0
 72
     1
 77
     1
171
     1
175
     1
179
     1
273
     0
  0
XRECORD
  5
153
102
{ACAD_REACTORS
330
152
102
}
330
152
100
AcDbXrecord
280
     1
102
RTVSPropertyOp0
 70
     1
102
RTVSPropertyOp1
 70
     1
102
RTVSPropertyOp2
 70
     1
102
RTVSPropertyOp3
 70
     1
102
RTVSPropertyOp4
 70
     1
102
RTVSPropertyOp5
 70
     1
102
RTVSPropertyOp6
 70
     1
102
RTVSPropertyOp7
 70
     1
102
RTVSPropertyOp8
 70
     1
102
RTVSPropertyOp9
 70
     1
102
RTVSPropertyOp10
 70
     1
102
RTVSPropertyOp11
 70
     1
102
RTVSPropertyOp12
 70
     1
102
RTVSPropertyOp13
 70
     1
102
RTVSPropertyOp14
 70
     1
102
RTVSPropertyOp15
 70
     1
102
RTVSPropertyOp16
 70
     1
102
RTVSPropertyOp17
 70
     1
102
RTVSPropertyOp18
 70
     1
102
RTVSPropertyOp19
 70
     1
102
RTVSPropertyOp20
 70
     1
102
RTVSPropertyOp21
 70
     1
102
RTVSPropertyOp22
 70
     1
102
RTVSPropertyOp23
 70
     1
102
RTVSPropertyOp24
 70
     1
102
RTVSPropertyOp25
 70
     1
102
RTVSPropertyOp26
 70
     1
102
RTVSPropertyOp27
 70
     1
102
RTVSPropertyOp28
 70
     1
102
RTVSPropertyOp29
 70
     1
102
RTVSPropertyOp30
 70
     1
102
RTVSPropertyOp31
 70
     1
102
RTVSPropertyOp32
 70
     1
  0
XRECORD
  5
157
102
{ACAD_REACTORS
330
156
102
}
330
156
100
AcDbXrecord
280
     1
102
RTVSPropertyOp0
 70
     1
102
RTVSPropertyOp1
 70
     1
102
RTVSPropertyOp2
 70
     1
102
RTVSPropertyOp3
 70
     1
102
RTVSPropertyOp4
 70
     1
102
RTVSPropertyOp5
 70
     1
102
RTVSPropertyOp6
 70
     1
102
RTVSPropertyOp7
 70
     1
102
RTVSPropertyOp8
 70
     1
102
RTVSPropertyOp9
 70
     1
102
RTVSPropertyOp10
 70
     1
102
RTVSPropertyOp11
 70
     1
102
RTVSPropertyOp12
 70
     1
102
RTVSPropertyOp13
 70
     1
102
RTVSPropertyOp14
 70
     1
102
RTVSPropertyOp15
 70
     1
102
RTVSPropertyOp16
 70
     1
102
RTVSPropertyOp17
 70
     1
102
RTVSPropertyOp18
 70
     1
102
RTVSPropertyOp19
 70
     1
102
RTVSPropertyOp20
 70
     1
102
RTVSPropertyOp21
 70
     1
102
RTVSPropertyOp22
 70
     1
102
RTVSPropertyOp23
 70
     1
102
RTVSPropertyOp24
 70
     1
102
RTVSPropertyOp25
 70
     1
102
RTVSPropertyOp26
 70
     1
102
RTVSPropertyOp27
 70
     1
102
RTVSPropertyOp28
 70
     1
102
RTVSPropertyOp29
 70
     1
102
RTVSPropertyOp30
 70
     1
102
RTVSPropertyOp31
 70
     1
102
RTVSPropertyOp32
 70
     1
  0
XRECORD
  5
155
102
{ACAD_REACTORS
330
154
102
}
330
154
100
AcDbXrecord
280
     1
102
RTVSPropertyOp0
 70
     1
102
RTVSPropertyOp1
 70
     1
102
RTVSPropertyOp2
 70
     1
102
RTVSPropertyOp3
 70
     1
102
RTVSPropertyOp4
 70
     1
102
RTVSPropertyOp5
 70
     1
102
RTVSPropertyOp6
 70
     1
102
RTVSPropertyOp7
 70
     1
102
RTVSPropertyOp8
 70
     1
102
RTVSPropertyOp9
 70
     1
102
RTVSPropertyOp10
 70
     1
102
RTVSPropertyOp11
 70
     1
102
RTVSPropertyOp12
 70
     1
102
RTVSPropertyOp13
 70
     1
102
RTVSPropertyOp14
 70
     1
102
RTVSPropertyOp15
 70
     1
102
RTVSPropertyOp16
 70
     1
102
RTVSPropertyOp17
 70
     1
102
RTVSPropertyOp18
 70
     1
102
RTVSPropertyOp19
 70
     1
102
RTVSPropertyOp20
 70
     1
102
RTVSPropertyOp21
 70
     1
102
RTVSPropertyOp22
 70
     1
102
RTVSPropertyOp23
 70
     1
102
RTVSPropertyOp24
 70
     1
102
RTVSPropertyOp25
 70
     1
102
RTVSPropertyOp26
 70
     1
102
RTVSPropertyOp27
 70
     1
102
RTVSPropertyOp28
 70
     1
102
RTVSPropertyOp29
 70
     1
102
RTVSPropertyOp30
 70
     1
102
RTVSPropertyOp31
 70
     1
102
RTVSPropertyOp32
 70
     1
  0
XRECORD
  5
159
102
{ACAD_REACTORS
330
158
102
}
330
158
100
AcDbXrecord
280
     1
102
RTVSPropertyOp0
 70
     1
102
RTVSPropertyOp1
 70
     1
102
RTVSPropertyOp2
 70
     1
102
RTVSPropertyOp3
 70
     1
102
RTVSPropertyOp4
 70
     1
102
RTVSPropertyOp5
 70
     1
102
RTVSPropertyOp6
 70
     1
102
RTVSPropertyOp7
 70
     1
102
RTVSPropertyOp8
 70
     1
102
RTVSPropertyOp9
 70
     1
102
RTVSPropertyOp10
 70
     1
102
RTVSPropertyOp11
 70
     1
102
RTVSPropertyOp12
 70
     1
102
RTVSPropertyOp13
 70
     1
102
RTVSPropertyOp14
 70
     1
102
RTVSPropertyOp15
 70
     1
102
RTVSPropertyOp16
 70
     1
102
RTVSPropertyOp17
 70
     1
102
RTVSPropertyOp18
 70
     1
102
RTVSPropertyOp19
 70
     1
102
RTVSPropertyOp20
 70
     1
102
RTVSPropertyOp21
 70
     1
102
RTVSPropertyOp22
 70
     1
102
RTVSPropertyOp23
 70
     1
102
RTVSPropertyOp24
 70
     1
102
RTVSPropertyOp25
 70
     1
102
RTVSPropertyOp26
 70
     1
102
RTVSPropertyOp27
 70
     1
102
RTVSPropertyOp28
 70
     1
102
RTVSPropertyOp29
 70
     1
102
RTVSPropertyOp30
 70
     1
102
RTVSPropertyOp31
 70
     1
102
RTVSPropertyOp32
 70
     1
  0
XRECORD
  5
161
102
{ACAD_REACTORS
330
160
102
}
330
160
100
AcDbXrecord
280
     1
102
RTVSPropertyOp0
 70
     1
102
RTVSPropertyOp1
 70
     1
102
RTVSPropertyOp2
 70
     1
102
RTVSPropertyOp3
 70
     1
102
RTVSPropertyOp4
 70
     1
102
RTVSPropertyOp5
 70
     1
102
RTVSPropertyOp6
 70
     1
102
RTVSPropertyOp7
 70
     1
102
RTVSPropertyOp8
 70
     1
102
RTVSPropertyOp9
 70
     1
102
RTVSPropertyOp10
 70
     1
102
RTVSPropertyOp11
 70
     1
102
RTVSPropertyOp12
 70
     1
102
RTVSPropertyOp13
 70
     1
102
RTVSPropertyOp14
 70
     1
102
RTVSPropertyOp15
 70
     1
102
RTVSPropertyOp16
 70
     1
102
RTVSPropertyOp17
 70
     1
102
RTVSPropertyOp18
 70
     1
102
RTVSPropertyOp19
 70
     1
102
RTVSPropertyOp20
 70
     1
102
RTVSPropertyOp21
 70
     1
102
RTVSPropertyOp22
 70
     1
102
RTVSPropertyOp23
 70
     1
102
RTVSPropertyOp24
 70
     1
102
RTVSPropertyOp25
 70
     1
102
RTVSPropertyOp26
 70
     1
102
RTVSPropertyOp27
 70
     1
102
RTVSPropertyOp28
 70
     1
102
RTVSPropertyOp29
 70
     1
102
RTVSPropertyOp30
 70
     1
102
RTVSPropertyOp31
 70
     1
102
RTVSPropertyOp32
 70
     1
  0
XRECORD
  5
169
102
{ACAD_REACTORS
330
168
102
}
330
168
100
AcDbXrecord
280
     1
102
RTVSPropertyOp0
 70
     1
102
RTVSPropertyOp1
 70
     1
102
RTVSPropertyOp2
 70
     1
102
RTVSPropertyOp3
 70
     1
102
RTVSPropertyOp4
 70
     1
102
RTVSPropertyOp5
 70
     1
102
RTVSPropertyOp6
 70
     1
102
RTVSPropertyOp7
 70
     1
102
RTVSPropertyOp8
 70
     1
102
RTVSPropertyOp9
 70
     1
102
RTVSPropertyOp10
 70
     1
102
RTVSPropertyOp11
 70
     1
102
RTVSPropertyOp12
 70
     1
102
RTVSPropertyOp13
 70
     1
102
RTVSPropertyOp14
 70
     1
102
RTVSPropertyOp15
 70
     1
102
RTVSPropertyOp16
 70
     1
102
RTVSPropertyOp17
 70
     1
102
RTVSPropertyOp18
 70
     1
102
RTVSPropertyOp19
 70
     1
102
RTVSPropertyOp20
 70
     1
102
RTVSPropertyOp21
 70
     1
102
RTVSPropertyOp22
 70
     1
102
RTVSPropertyOp23
 70
     1
102
RTVSPropertyOp24
 70
     1
102
RTVSPropertyOp25
 70
     1
102
RTVSPropertyOp26
 70
     1
102
RTVSPropertyOp27
 70
     1
102
RTVSPropertyOp28
 70
     1
102
RTVSPropertyOp29
 70
     1
102
RTVSPropertyOp30
 70
     1
102
RTVSPropertyOp31
 70
     1
102
RTVSPropertyOp32
 70
     1
  0
XRECORD
  5
15D
102
{ACAD_REACTORS
330
15C
102
}
330
15C
100
AcDbXrecord
280
     1
102
RTVSPropertyOp0
 70
     1
102
RTVSPropertyOp1
 70
     1
102
RTVSPropertyOp2
 70
     1
102
RTVSPropertyOp3
 70
     1
102
RTVSPropertyOp4
 70
     1
102
RTVSPropertyOp5
 70
     1
102
RTVSPropertyOp6
 70
     1
102
RTVSPropertyOp7
 70
     1
102
RTVSPropertyOp8
 70
     1
102
RTVSPropertyOp9
 70
     1
102
RTVSPropertyOp10
 70
     1
102
RTVSPropertyOp11
 70
     1
102
RTVSPropertyOp12
 70
     1
102
RTVSPropertyOp13
 70
     1
102
RTVSPropertyOp14
 70
     1
102
RTVSPropertyOp15
 70
     1
102
RTVSPropertyOp16
 70
     1
102
RTVSPropertyOp17
 70
     1
102
RTVSPropertyOp18
 70
     1
102
RTVSPropertyOp19
 70
     1
102
RTVSPropertyOp20
 70
     1
102
RTVSPropertyOp21
 70
     1
102
RTVSPropertyOp22
 70
     1
102
RTVSPropertyOp23
 70
     1
102
RTVSPropertyOp24
 70
     1
102
RTVSPropertyOp25
 70
     1
102
RTVSPropertyOp26
 70
     1
102
RTVSPropertyOp27
 70
     1
102
RTVSPropertyOp28
 70
     1
102
RTVSPropertyOp29
 70
     1
102
RTVSPropertyOp30
 70
     1
102
RTVSPropertyOp31
 70
     1
102
RTVSPropertyOp32
 70
     1
  0
XRECORD
  5
15F
102
{ACAD_REACTORS
330
15E
102
}
330
15E
100
AcDbXrecord
280
     1
102
RTVSPropertyOp0
 70
     1
102
RTVSPropertyOp1
 70
     1
102
RTVSPropertyOp2
 70
     1
102
RTVSPropertyOp3
 70
     1
102
RTVSPropertyOp4
 70
     1
102
RTVSPropertyOp5
 70
     1
102
RTVSPropertyOp6
 70
     1
102
RTVSPropertyOp7
 70
     1
102
RTVSPropertyOp8
 70
     1
102
RTVSPropertyOp9
 70
     1
102
RTVSPropertyOp10
 70
     1
102
RTVSPropertyOp11
 70
     1
102
RTVSPropertyOp12
 70
     1
102
RTVSPropertyOp13
 70
     1
102
RTVSPropertyOp14
 70
     1
102
RTVSPropertyOp15
 70
     1
102
RTVSPropertyOp16
 70
     1
102
RTVSPropertyOp17
 70
     1
102
RTVSPropertyOp18
 70
     1
102
RTVSPropertyOp19
 70
     1
102
RTVSPropertyOp20
 70
     1
102
RTVSPropertyOp21
 70
     1
102
RTVSPropertyOp22
 70
     1
102
RTVSPropertyOp23
 70
     1
102
RTVSPropertyOp24
 70
     1
102
RTVSPropertyOp25
 70
     1
102
RTVSPropertyOp26
 70
     1
102
RTVSPropertyOp27
 70
     1
102
RTVSPropertyOp28
 70
     1
102
RTVSPropertyOp29
 70
     1
102
RTVSPropertyOp30
 70
     1
102
RTVSPropertyOp31
 70
     1
102
RTVSPropertyOp32
 70
     1
  0
XRECORD
  5
167
102
{ACAD_REACTORS
330
166
102
}
330
166
100
AcDbXrecord
280
     1
102
RTVSPropertyOp0
 70
     1
102
RTVSPropertyOp1
 70
     1
102
RTVSPropertyOp2
 70
     1
102
RTVSPropertyOp3
 70
     1
102
RTVSPropertyOp4
 70
     1
102
RTVSPropertyOp5
 70
     1
102
RTVSPropertyOp6
 70
     1
102
RTVSPropertyOp7
 70
     1
102
RTVSPropertyOp8
 70
     1
102
RTVSPropertyOp9
 70
     1
102
RTVSPropertyOp10
 70
     1
102
RTVSPropertyOp11
 70
     1
102
RTVSPropertyOp12
 70
     1
102
RTVSPropertyOp13
 70
     1
102
RTVSPropertyOp14
 70
     1
102
RTVSPropertyOp15
 70
     1
102
RTVSPropertyOp16
 70
     1
102
RTVSPropertyOp17
 70
     1
102
RTVSPropertyOp18
 70
     1
102
RTVSPropertyOp19
 70
     1
102
RTVSPropertyOp20
 70
     1
102
RTVSPropertyOp21
 70
     1
102
RTVSPropertyOp22
 70
     1
102
RTVSPropertyOp23
 70
     1
102
RTVSPropertyOp24
 70
     1
102
RTVSPropertyOp25
 70
     1
102
RTVSPropertyOp26
 70
     1
102
RTVSPropertyOp27
 70
     1
102
RTVSPropertyOp28
 70
     1
102
RTVSPropertyOp29
 70
     1
102
RTVSPropertyOp30
 70
     1
102
RTVSPropertyOp31
 70
     1
102
RTVSPropertyOp32
 70
     1
  0
XRECORD
  5
14B
102
{ACAD_REACTORS
330
14A
102
}
330
14A
100
AcDbXrecord
280
     1
102
RTVSPropertyOp0
 70
     1
102
RTVSPropertyOp1
 70
     1
102
RTVSPropertyOp2
 70
     1
102
RTVSPropertyOp3
 70
     1
102
RTVSPropertyOp4
 70
     1
102
RTVSPropertyOp5
 70
     1
102
RTVSPropertyOp6
 70
     1
102
RTVSPropertyOp7
 70
     1
102
RTVSPropertyOp8
 70
     1
102
RTVSPropertyOp9
 70
     1
102
RTVSPropertyOp10
 70
     1
102
RTVSPropertyOp11
 70
     1
102
RTVSPropertyOp12
 70
     1
102
RTVSPropertyOp13
 70
     1
102
RTVSPropertyOp14
 70
     1
102
RTVSPropertyOp15
 70
     1
102
RTVSPropertyOp16
 70
     1
102
RTVSPropertyOp17
 70
     1
102
RTVSPropertyOp18
 70
     1
102
RTVSPropertyOp19
 70
     1
102
RTVSPropertyOp20
 70
     1
102
RTVSPropertyOp21
 70
     1
102
RTVSPropertyOp22
 70
     1
102
RTVSPropertyOp23
 70
     1
102
RTVSPropertyOp24
 70
     1
102
RTVSPropertyOp25
 70
     1
102
RTVSPropertyOp26
 70
     1
102
RTVSPropertyOp27
 70
     1
102
RTVSPropertyOp28
 70
     1
102
RTVSPropertyOp29
 70
     1
102
RTVSPropertyOp30
 70
     1
102
RTVSPropertyOp31
 70
     1
102
RTVSPropertyOp32
 70
     1
  0
XRECORD
  5
14D
102
{ACAD_REACTORS
330
14C
102
}
330
14C
100
AcDbXrecord
280
     1
102
RTVSPropertyOp0
 70
     1
102
RTVSPropertyOp1
 70
     1
102
RTVSPropertyOp2
 70
     1
102
RTVSPropertyOp3
 70
     1
102
RTVSPropertyOp4
 70
     1
102
RTVSPropertyOp5
 70
     1
102
RTVSPropertyOp6
 70
     1
102
RTVSPropertyOp7
 70
     1
102
RTVSPropertyOp8
 70
     1
102
RTVSPropertyOp9
 70
     1
102
RTVSPropertyOp10
 70
     1
102
RTVSPropertyOp11
 70
     1
102
RTVSPropertyOp12
 70
     1
102
RTVSPropertyOp13
 70
     1
102
RTVSPropertyOp14
 70
     1
102
RTVSPropertyOp15
 70
     1
102
RTVSPropertyOp16
 70
     1
102
RTVSPropertyOp17
 70
     1
102
RTVSPropertyOp18
 70
     1
102
RTVSPropertyOp19
 70
     1
102
RTVSPropertyOp20
 70
     1
102
RTVSPropertyOp21
 70
     1
102
RTVSPropertyOp22
 70
     1
102
RTVSPropertyOp23
 70
     1
102
RTVSPropertyOp24
 70
     1
102
RTVSPropertyOp25
 70
     1
102
RTVSPropertyOp26
 70
     1
102
RTVSPropertyOp27
 70
     1
102
RTVSPropertyOp28
 70
     1
102
RTVSPropertyOp29
 70
     1
102
RTVSPropertyOp30
 70
     1
102
RTVSPropertyOp31
 70
     1
102
RTVSPropertyOp32
 70
     1
  0
XRECORD
  5
14F
102
{ACAD_REACTORS
330
14E
102
}
330
14E
100
AcDbXrecord
280
     1
102
RTVSPropertyOp0
 70
     1
102
RTVSPropertyOp1
 70
     1
102
RTVSPropertyOp2
 70
     1
102
RTVSPropertyOp3
 70
     1
102
RTVSPropertyOp4
 70
     1
102
RTVSPropertyOp5
 70
     1
102
RTVSPropertyOp6
 70
     1
102
RTVSPropertyOp7
 70
     1
102
RTVSPropertyOp8
 70
     1
102
RTVSPropertyOp9
 70
     1
102
RTVSPropertyOp10
 70
     1
102
RTVSPropertyOp11
 70
     1
102
RTVSPropertyOp12
 70
     1
102
RTVSPropertyOp13
 70
     1
102
RTVSPropertyOp14
 70
     1
102
RTVSPropertyOp15
 70
     1
102
RTVSPropertyOp16
 70
     1
102
RTVSPropertyOp17
 70
     1
102
RTVSPropertyOp18
 70
     1
102
RTVSPropertyOp19
 70
     1
102
RTVSPropertyOp20
 70
     1
102
RTVSPropertyOp21
 70
     1
102
RTVSPropertyOp22
 70
     1
102
RTVSPropertyOp23
 70
     1
102
RTVSPropertyOp24
 70
     1
102
RTVSPropertyOp25
 70
     1
102
RTVSPropertyOp26
 70
     1
102
RTVSPropertyOp27
 70
     1
102
RTVSPropertyOp28
 70
     1
102
RTVSPropertyOp29
 70
     1
102
RTVSPropertyOp30
 70
     1
102
RTVSPropertyOp31
 70
     1
102
RTVSPropertyOp32
 70
     1
  0
XRECORD
  5
151
102
{ACAD_REACTORS
330
150
102
}
330
150
100
AcDbXrecord
280
     1
102
RTVSPropertyOp0
 70
     1
102
RTVSPropertyOp1
 70
     1
102
RTVSPropertyOp2
 70
     1
102
RTVSPropertyOp3
 70
     1
102
RTVSPropertyOp4
 70
     1
102
RTVSPropertyOp5
 70
     1
102
RTVSPropertyOp6
 70
     1
102
RTVSPropertyOp7
 70
     1
102
RTVSPropertyOp8
 70
     1
102
RTVSPropertyOp9
 70
     1
102
RTVSPropertyOp10
 70
     1
102
RTVSPropertyOp11
 70
     1
102
RTVSPropertyOp12
 70
     1
102
RTVSPropertyOp13
 70
     1
102
RTVSPropertyOp14
 70
     1
102
RTVSPropertyOp15
 70
     1
102
RTVSPropertyOp16
 70
     1
102
RTVSPropertyOp17
 70
     1
102
RTVSPropertyOp18
 70
     1
102
RTVSPropertyOp19
 70
     1
102
RTVSPropertyOp20
 70
     1
102
RTVSPropertyOp21
 70
     1
102
RTVSPropertyOp22
 70
     1
102
RTVSPropertyOp23
 70
     1
102
RTVSPropertyOp24
 70
     1
102
RTVSPropertyOp25
 70
     1
102
RTVSPropertyOp26
 70
     1
102
RTVSPropertyOp27
 70
     1
102
RTVSPropertyOp28
 70
     1
102
RTVSPropertyOp29
 70
     1
102
RTVSPropertyOp30
 70
     1
102
RTVSPropertyOp31
 70
     1
102
RTVSPropertyOp32
 70
     1
  0
XRECORD
  5
165
102
{ACAD_REACTORS
330
164
102
}
330
164
100
AcDbXrecord
280
     1
102
RTVSPropertyOp0
 70
     1
102
RTVSPropertyOp1
 70
     1
102
RTVSPropertyOp2
 70
     1
102
RTVSPropertyOp3
 70
     1
102
RTVSPropertyOp4
 70
     1
102
RTVSPropertyOp5
 70
     1
102
RTVSPropertyOp6
 70
     1
102
RTVSPropertyOp7
 70
     1
102
RTVSPropertyOp8
 70
     1
102
RTVSPropertyOp9
 70
     1
102
RTVSPropertyOp10
 70
     1
102
RTVSPropertyOp11
 70
     1
102
RTVSPropertyOp12
 70
     1
102
RTVSPropertyOp13
 70
     1
102
RTVSPropertyOp14
 70
     1
102
RTVSPropertyOp15
 70
     1
102
RTVSPropertyOp16
 70
     1
102
RTVSPropertyOp17
 70
     1
102
RTVSPropertyOp18
 70
     1
102
RTVSPropertyOp19
 70
     1
102
RTVSPropertyOp20
 70
     1
102
RTVSPropertyOp21
 70
     1
102
RTVSPropertyOp22
 70
     1
102
RTVSPropertyOp23
 70
     1
102
RTVSPropertyOp24
 70
     1
102
RTVSPropertyOp25
 70
     1
102
RTVSPropertyOp26
 70
     1
102
RTVSPropertyOp27
 70
     1
102
RTVSPropertyOp28
 70
     1
102
RTVSPropertyOp29
 70
     1
102
RTVSPropertyOp30
 70
     1
102
RTVSPropertyOp31
 70
     1
102
RTVSPropertyOp32
 70
     1
  0
XRECORD
  5
15B
102
{ACAD_REACTORS
330
15A
102
}
330
15A
100
AcDbXrecord
280
     1
102
RTVSPropertyOp0
 70
     1
102
RTVSPropertyOp1
 70
     1
102
RTVSPropertyOp2
 70
     1
102
RTVSPropertyOp3
 70
     1
102
RTVSPropertyOp4
 70
     1
102
RTVSPropertyOp5
 70
     1
102
RTVSPropertyOp6
 70
     1
102
RTVSPropertyOp7
 70
     1
102
RTVSPropertyOp8
 70
     1
102
RTVSPropertyOp9
 70
     1
102
RTVSPropertyOp10
 70
     1
102
RTVSPropertyOp11
 70
     1
102
RTVSPropertyOp12
 70
     1
102
RTVSPropertyOp13
 70
     1
102
RTVSPropertyOp14
 70
     1
102
RTVSPropertyOp15
 70
     1
102
RTVSPropertyOp16
 70
     1
102
RTVSPropertyOp17
 70
     1
102
RTVSPropertyOp18
 70
     1
102
RTVSPropertyOp19
 70
     1
102
RTVSPropertyOp20
 70
     1
102
RTVSPropertyOp21
 70
     1
102
RTVSPropertyOp22
 70
     1
102
RTVSPropertyOp23
 70
     1
102
RTVSPropertyOp24
 70
     1
102
RTVSPropertyOp25
 70
     1
102
RTVSPropertyOp26
 70
     1
102
RTVSPropertyOp27
 70
     1
102
RTVSPropertyOp28
 70
     1
102
RTVSPropertyOp29
 70
     1
102
RTVSPropertyOp30
 70
     1
102
RTVSPropertyOp31
 70
     1
102
RTVSPropertyOp32
 70
     1
  0
XRECORD
  5
163
102
{ACAD_REACTORS
330
162
102
}
330
162
100
AcDbXrecord
280
     1
102
RTVSPropertyOp0
 70
     1
102
RTVSPropertyOp1
 70
     1
102
RTVSPropertyOp2
 70
     1
102
RTVSPropertyOp3
 70
     1
102
RTVSPropertyOp4
 70
     1
102
RTVSPropertyOp5
 70
     1
102
RTVSPropertyOp6
 70
     1
102
RTVSPropertyOp7
 70
     1
102
RTVSPropertyOp8
 70
     1
102
RTVSPropertyOp9
 70
     1
102
RTVSPropertyOp10
 70
     1
102
RTVSPropertyOp11
 70
     1
102
RTVSPropertyOp12
 70
     1
102
RTVSPropertyOp13
 70
     1
102
RTVSPropertyOp14
 70
     1
102
RTVSPropertyOp15
 70
     1
102
RTVSPropertyOp16
 70
     1
102
RTVSPropertyOp17
 70
     1
102
RTVSPropertyOp18
 70
     1
102
RTVSPropertyOp19
 70
     1
102
RTVSPropertyOp20
 70
     1
102
RTVSPropertyOp21
 70
     1
102
RTVSPropertyOp22
 70
     1
102
RTVSPropertyOp23
 70
     1
102
RTVSPropertyOp24
 70
     1
102
RTVSPropertyOp25
 70
     1
102
RTVSPropertyOp26
 70
     1
102
RTVSPropertyOp27
 70
     1
102
RTVSPropertyOp28
 70
     1
102
RTVSPropertyOp29
 70
     1
102
RTVSPropertyOp30
 70
     1
102
RTVSPropertyOp31
 70
     1
102
RTVSPropertyOp32
 70
     1
  0
ENDSEC
  0
EOF
