  0
SECTION
  2
HEADER
  9
$ACADVER
  1
AC1015
  9
$ACADMAINTVER
 70
     6
  9
$DWGCODEPAGE
  3
ANSI_932
  9
$INSBASE
 10
0.0
 20
0.0
 30
0.0
  9
$EXTMIN
 10
0.0
 20
-0.00000000000003
 30
0.0
  9
$EXTMAX
 10
210.0000000000001
 20
297.0
 30
0.0
  9
$LIMMIN
 10
0.0
 20
0.0
  9
$LIMMAX
 10
12.0
 20
9.0
  9
$ORTHOMODE
 70
     0
  9
$REGENMODE
 70
     1
  9
$FILLMODE
 70
     1
  9
$QTEXTMODE
 70
     0
  9
$MIRRTEXT
 70
     1
  9
$LTSCALE
 40
1.0
  9
$ATTMODE
 70
     1
  9
$TEXTSIZE
 40
0.2
  9
$TRACEWID
 40
0.05
  9
$TEXTSTYLE
  7
Standard
  9
$CLAYER
  8
0
  9
$CELTYPE
  6
ByLayer
  9
$CECOLOR
 62
   256
  9
$CELTSCALE
 40
1.0
  9
$DISPSILH
 70
     0
  9
$DIMSCALE
 40
1.0
  9
$DIMASZ
 40
0.18
  9
$DIMEXO
 40
0.0625
  9
$DIMDLI
 40
0.38
  9
$DIMRND
 40
0.0
  9
$DIMDLE
 40
0.0
  9
$DIMEXE
 40
0.18
  9
$DIMTP
 40
0.0
  9
$DIMTM
 40
0.0
  9
$DIMTXT
 40
0.18
  9
$DIMCEN
 40
0.09
  9
$DIMTSZ
 40
0.0
  9
$DIMTOL
 70
     0
  9
$DIMLIM
 70
     0
  9
$DIMTIH
 70
     1
  9
$DIMTOH
 70
     1
  9
$DIMSE1
 70
     0
  9
$DIMSE2
 70
     0
  9
$DIMTAD
 70
     0
  9
$DIMZIN
 70
     0
  9
$DIMBLK
  1

  9
$DIMASO
 70
     1
  9
$DIMSHO
 70
     1
  9
$DIMPOST
  1

  9
$DIMAPOST
  1

  9
$DIMALT
 70
     0
  9
$DIMALTD
 70
     2
  9
$DIMALTF
 40
25.4
  9
$DIMLFAC
 40
1.0
  9
$DIMTOFL
 70
     0
  9
$DIMTVP
 40
0.0
  9
$DIMTIX
 70
     0
  9
$DIMSOXD
 70
     0
  9
$DIMSAH
 70
     0
  9
$DIMBLK1
  1

  9
$DIMBLK2
  1

  9
$DIMSTYLE
  2
Standard
  9
$DIMCLRD
 70
     0
  9
$DIMCLRE
 70
     0
  9
$DIMCLRT
 70
     0
  9
$DIMTFAC
 40
1.0
  9
$DIMGAP
 40
0.09
  9
$DIMJUST
 70
     0
  9
$DIMSD1
 70
     0
  9
$DIMSD2
 70
     0
  9
$DIMTOLJ
 70
     1
  9
$DIMTZIN
 70
     0
  9
$DIMALTZ
 70
     0
  9
$DIMALTTZ
 70
     0
  9
$DIMUPT
 70
     0
  9
$DIMDEC
 70
     4
  9
$DIMTDEC
 70
     4
  9
$DIMALTU
 70
     2
  9
$DIMALTTD
 70
     2
  9
$DIMTXSTY
  7
Standard
  9
$DIMAUNIT
 70
     0
  9
$DIMADEC
 70
     0
  9
$DIMALTRND
 40
0.0
  9
$DIMAZIN
 70
     0
  9
$DIMDSEP
 70
    46
  9
$DIMATFIT
 70
     3
  9
$DIMFRAC
 70
     0
  9
$DIMLDRBLK
  1

  9
$DIMLUNIT
 70
     2
  9
$DIMLWD
 70
    -2
  9
$DIMLWE
 70
    -2
  9
$DIMTMOVE
 70
     0
  9
$LUNITS
 70
     2
  9
$LUPREC
 70
     4
  9
$SKETCHINC
 40
0.1
  9
$FILLETRAD
 40
0.5
  9
$AUNITS
 70
     0
  9
$AUPREC
 70
     0
  9
$MENU
  1
.
  9
$ELEVATION
 40
0.0
  9
$PELEVATION
 40
0.0
  9
$THICKNESS
 40
0.0
  9
$LIMCHECK
 70
     0
  9
$CHAMFERA
 40
0.5
  9
$CHAMFERB
 40
0.5
  9
$CHAMFERC
 40
1.0
  9
$CHAMFERD
 40
0.0
  9
$SKPOLY
 70
     0
  9
$TDCREATE
 40
2459789.633241377
  9
$TDUCREATE
 40
2459789.258241377
  9
$TDUPDATE
 40
2459789.633243183
  9
$TDUUPDATE
 40
2459789.258243183
  9
$TDINDWG
 40
0.0000000116
  9
$TDUSRTIMER
 40
0.0000000116
  9
$USRTIMER
 70
     1
  9
$ANGBASE
 50
0.0
  9
$ANGDIR
 70
     0
  9
$PDMODE
 70
     0
  9
$PDSIZE
 40
0.0
  9
$PLINEWID
 40
0.0
  9
$SPLFRAME
 70
     0
  9
$SPLINETYPE
 70
     6
  9
$SPLINESEGS
 70
     8
  9
$HANDSEED
  5
16F
  9
$SURFTAB1
 70
     6
  9
$SURFTAB2
 70
     6
  9
$SURFTYPE
 70
     6
  9
$SURFU
 70
     6
  9
$SURFV
 70
     6
  9
$UCSBASE
  2

  9
$UCSNAME
  2

  9
$UCSORG
 10
0.0
 20
0.0
 30
0.0
  9
$UCSXDIR
 10
1.0
 20
0.0
 30
0.0
  9
$UCSYDIR
 10
0.0
 20
1.0
 30
0.0
  9
$UCSORTHOREF
  2

  9
$UCSORTHOVIEW
 70
     0
  9
$UCSORGTOP
 10
0.0
 20
0.0
 30
0.0
  9
$UCSORGBOTTOM
 10
0.0
 20
0.0
 30
0.0
  9
$UCSORGLEFT
 10
0.0
 20
0.0
 30
0.0
  9
$UCSORGRIGHT
 10
0.0
 20
0.0
 30
0.0
  9
$UCSORGFRONT
 10
0.0
 20
0.0
 30
0.0
  9
$UCSORGBACK
 10
0.0
 20
0.0
 30
0.0
  9
$PUCSBASE
  2

  9
$PUCSNAME
  2

  9
$PUCSORG
 10
0.0
 20
0.0
 30
0.0
  9
$PUCSXDIR
 10
1.0
 20
0.0
 30
0.0
  9
$PUCSYDIR
 10
0.0
 20
1.0
 30
0.0
  9
$PUCSORTHOREF
  2

  9
$PUCSORTHOVIEW
 70
     0
  9
$PUCSORGTOP
 10
0.0
 20
0.0
 30
0.0
  9
$PUCSORGBOTTOM
 10
0.0
 20
0.0
 30
0.0
  9
$PUCSORGLEFT
 10
0.0
 20
0.0
 30
0.0
  9
$PUCSORGRIGHT
 10
0.0
 20
0.0
 30
0.0
  9
$PUCSORGFRONT
 10
0.0
 20
0.0
 30
0.0
  9
$PUCSORGBACK
 10
0.0
 20
0.0
 30
0.0
  9
$USERI1
 70
     0
  9
$USERI2
 70
     0
  9
$USERI3
 70
     0
  9
$USERI4
 70
     0
  9
$USERI5
 70
     0
  9
$USERR1
 40
18.1
  9
$USERR2
 40
0.0
  9
$USERR3
 40
0.0
  9
$USERR4
 40
0.0
  9
$USERR5
 40
0.0
  9
$WORLDVIEW
 70
     1
  9
$SHADEDGE
 70
     3
  9
$SHADEDIF
 70
    70
  9
$TILEMODE
 70
     1
  9
$MAXACTVP
 70
    64
  9
$PINSBASE
 10
0.0
 20
0.0
 30
0.0
  9
$PLIMCHECK
 70
     0
  9
$PEXTMIN
 10
1.00000000000000E+20
 20
1.00000000000000E+20
 30
1.00000000000000E+20
  9
$PEXTMAX
 10
-1.00000000000000E+20
 20
-1.00000000000000E+20
 30
-1.00000000000000E+20
  9
$PLIMMIN
 10
0.0
 20
0.0
  9
$PLIMMAX
 10
12.0
 20
9.0
  9
$UNITMODE
 70
     0
  9
$VISRETAIN
 70
     1
  9
$PLINEGEN
 70
     0
  9
$PSLTSCALE
 70
     1
  9
$TREEDEPTH
 70
  3020
  9
$CMLSTYLE
  2
Standard
  9
$CMLJUST
 70
     0
  9
$CMLSCALE
 40
1.0
  9
$PROXYGRAPHICS
 70
     1
  9
$MEASUREMENT
 70
     1
  9
$CELWEIGHT
370
    -1
  9
$ENDCAPS
280
     0
  9
$JOINSTYLE
280
     0
  9
$LWDISPLAY
290
     0
  9
$INSUNITS
 70
     4
  9
$HYPERLINKBASE
  1

  9
$STYLESHEET
  1

  9
$XEDIT
290
     1
  9
$CEPSNTYPE
380
     0
  9
$PSTYLEMODE
290
     1
  9
$FINGERPRINTGUID
  2
{29773D81-61B5-45EA-B9EA-398D7C1D7F9C}
  9
$VERSIONGUID
  2
{FAEB1C32-E019-11D5-929B-00C0DF256EC4}
  9
$EXTNAMES
290
     1
  9
$PSVPSCALE
 40
0.0
  9
$OLESTARTUP
290
     0
  0
ENDSEC
  0
SECTION
  2
CLASSES
  0
CLASS
  1
ACDBDICTIONARYWDFLT
  2
AcDbDictionaryWithDefault
  3
ObjectDBX Classes
 90
        0
280
     0
281
     0
  0
CLASS
  1
VISUALSTYLE
  2
AcDbVisualStyle
  3
ObjectDBX Classes
 90
     4095
280
     0
281
     0
  0
CLASS
  1
MATERIAL
  2
AcDbMaterial
  3
ObjectDBX Classes
 90
     1153
280
     0
281
     0
  0
CLASS
  1
DICTIONARYVAR
  2
AcDbDictionaryVar
  3
ObjectDBX Classes
 90
        0
280
     0
281
     0
  0
CLASS
  1
ACDBPLACEHOLDER
  2
AcDbPlaceHolder
  3
ObjectDBX Classes
 90
        0
280
     0
281
     0
  0
CLASS
  1
LAYOUT
  2
AcDbLayout
  3
ObjectDBX Classes
 90
        0
280
     0
281
     0
  0
ENDSEC
  0
SECTION
  2
TABLES
  0
TABLE
  2
VPORT
  5
8
330
0
100
AcDbSymbolTable
 70
     1
  0
VPORT
  5
29
330
8
100
AcDbSymbolTableRecord
100
AcDbViewportTableRecord
  2
*Active
 70
     0
 10
0.0
 20
0.0
 11
1.0
 21
1.0
 12
105.0000000000001
 22
148.5
 13
0.0
 23
0.0
 14
0.5
 24
0.5
 15
0.5
 25
0.5
 16
0.0
 26
0.0
 36
1.0
 17
0.0
 27
0.0
 37
0.0
 40
326.7
 41
1.60267857142857
 42
50.0
 43
0.0
 44
0.0
 50
0.0
 51
0.0
 71
     0
 72
   100
 73
     1
 74
     3
 75
     0
 76
     0
 77
     0
 78
     0
281
     0
 65
     1
110
0.0
120
0.0
130
0.0
111
1.0
121
0.0
131
0.0
112
0.0
122
1.0
132
0.0
 79
     0
146
0.0
  0
ENDTAB
  0
TABLE
  2
LTYPE
  5
5
330
0
100
AcDbSymbolTable
 70
     8
  0
LTYPE
  5
14
330
5
100
AcDbSymbolTableRecord
100
AcDbLinetypeTableRecord
  2
ByBlock
 70
     0
  3

 72
    65
 73
     0
 40
0.0
  0
LTYPE
  5
15
330
5
100
AcDbSymbolTableRecord
100
AcDbLinetypeTableRecord
  2
ByLayer
 70
     0
  3

 72
    65
 73
     0
 40
0.0
  0
LTYPE
  5
16
330
5
100
AcDbSymbolTableRecord
100
AcDbLinetypeTableRecord
  2
Continuous
 70
     0
  3
Solid line
 72
    65
 73
     0
 40
0.0
  0
LTYPE
  5
3F
330
5
100
AcDbSymbolTableRecord
100
AcDbLinetypeTableRecord
  2
DASHED
 70
     0
  3
Dashed
 72
    65
 73
     2
 40
15.0
 49
7.0
 74
     0
 49
-8.0
 74
     0
  0
LTYPE
  5
40
330
5
100
AcDbSymbolTableRecord
100
AcDbLinetypeTableRecord
  2
DOTTED
 70
     0
  3
Dotted
 72
    65
 73
     2
 40
1.0
 49
0.0
 74
     0
 49
-1.0
 74
     0
  0
LTYPE
  5
41
330
5
100
AcDbSymbolTableRecord
100
AcDbLinetypeTableRecord
  2
DOT_CENTER
 70
     0
  3
Dot_Center
 72
    65
 73
     4
 40
14.0
 49
12.0
 74
     0
 49
-1.0
 74
     0
 49
0.0
 74
     0
 49
-1.0
 74
     0
  0
LTYPE
  5
42
330
5
100
AcDbSymbolTableRecord
100
AcDbLinetypeTableRecord
  2
LONG_DASHED
 70
     0
  3
Long_Dashed
 72
    65
 73
     2
 40
15.0
 49
10.0
 74
     0
 49
-5.0
 74
     0
  0
LTYPE
  5
43
330
5
100
AcDbSymbolTableRecord
100
AcDbLinetypeTableRecord
  2
DASH_CENTER
 70
     0
  3
Dash_Center
 72
    65
 73
     4
 40
14.0
 49
11.0
 74
     0
 49
-1.0
 74
     0
 49
1.0
 74
     0
 49
-1.0
 74
     0
  0
LTYPE
  5
44
330
5
100
AcDbSymbolTableRecord
100
AcDbLinetypeTableRecord
  2
PHANTOM
 70
     0
  3
Phantom
 72
    65
 73
     6
 40
13.0
 49
10.0
 74
     0
 49
-1.0
 74
     0
 49
0.0
 74
     0
 49
-1.0
 74
     0
 49
0.0
 74
     0
 49
-1.0
 74
     0
  0
LTYPE
  5
45
330
5
100
AcDbSymbolTableRecord
100
AcDbLinetypeTableRecord
  2
CENTER_DASH_DASH
 70
     0
  3
Center_Dash_Dash
 72
    65
 73
     6
 40
14.0
 49
9.0
 74
     0
 49
-1.0
 74
     0
 49
1.0
 74
     0
 49
-1.0
 74
     0
 49
1.0
 74
     0
 49
-1.0
 74
     0
  0
ENDTAB
  0
TABLE
  2
LAYER
  5
2
330
0
100
AcDbSymbolTable
 70
     3
  0
LAYER
  5
10
330
2
100
AcDbSymbolTableRecord
100
AcDbLayerTableRecord
  2
0
 70
     0
 62
     7
  6
Continuous
370
    -3
390
F
  0
LAYER
  5
46
330
2
100
AcDbSymbolTableRecord
100
AcDbLayerTableRecord
  2
1
 70
     0
 62
     7
  6
Continuous
370
    -3
390
F
  0
LAYER
  5
47
330
2
100
AcDbSymbolTableRecord
100
AcDbLayerTableRecord
  2
_U_30EC_U_30A4_U_30E4_U_30FC_1
 70
     0
 62
     7
  6
Continuous
370
    -3
390
F
  0
ENDTAB
  0
TABLE
  2
STYLE
  5
3
330
0
100
AcDbSymbolTable
 70
     3
  0
STYLE
  5
11
330
3
100
AcDbSymbolTableRecord
100
AcDbTextStyleTableRecord
  2
Standard
 70
     0
 40
0.0
 41
1.0
 50
0.0
 71
     0
 42
0.2
  3
txt
  4

  0
STYLE
  5
BE
330
3
100
AcDbSymbolTableRecord
100
AcDbTextStyleTableRecord
  2
CONVERTER_11
 70
     0
 40
0.0
 41
0.89
 50
0.0
 71
     0
 42
0.2
  3
MS Mincho.ttf
  4

1001
ACAD
1000
MS Mincho
1071
    32785
  0
STYLE
  5
10F
330
3
100
AcDbSymbolTableRecord
100
AcDbTextStyleTableRecord
  2
CONVERTER_12
 70
     0
 40
0.0
 41
0.9
 50
0.0
 71
     0
 42
0.2
  3
txt.shx
  4

  0
ENDTAB
  0
TABLE
  2
VIEW
  5
6
330
0
100
AcDbSymbolTable
 70
     0
  0
ENDTAB
  0
TABLE
  2
UCS
  5
7
330
0
100
AcDbSymbolTable
 70
     0
  0
ENDTAB
  0
TABLE
  2
APPID
  5
9
330
0
100
AcDbSymbolTable
 70
     1
  0
APPID
  5
12
330
9
100
AcDbSymbolTableRecord
100
AcDbRegAppTableRecord
  2
ACAD
 70
     0
  0
ENDTAB
  0
TABLE
  2
DIMSTYLE
  5
A
330
0
100
AcDbSymbolTable
 70
     3
100
AcDbDimStyleTable
  0
DIMSTYLE
105
27
330
A
100
AcDbSymbolTableRecord
100
AcDbDimStyleTableRecord
  2
Standard
 70
     0
178
     0
340
11
  0
DIMSTYLE
105
125
102
{ACAD_REACTORS
330
126
102
}
330
A
100
AcDbSymbolTableRecord
100
AcDbDimStyleTableRecord
  2
ME10_DIM_10
 70
     0
 41
3.5
 42
0.0
 44
1.0
 73
     0
 74
     0
 77
     1
 78
     8
140
3.5
147
1.0
172
     1
173
     1
174
     1
175
     1
176
     2
177
     2
271
     2
178
     7
271
     2
340
10F
  0
DIMSTYLE
105
130
102
{ACAD_REACTORS
330
131
102
}
330
A
100
AcDbSymbolTableRecord
100
AcDbDimStyleTableRecord
  2
ME10_DIM_11
 70
     0
 41
3.5
 42
0.0
 44
1.0
 73
     0
 74
     0
 77
     1
 78
     8
140
3.5
147
1.0
172
     1
173
     1
174
     1
175
     1
176
     2
177
     2
271
     2
178
     7
271
     2
340
10F
  0
ENDTAB
  0
TABLE
  2
BLOCK_RECORD
  5
1
330
0
100
AcDbSymbolTable
 70
    10
  0
BLOCK_RECORD
  5
1F
330
1
100
AcDbSymbolTableRecord
100
AcDbBlockTableRecord
  2
*Model_Space
340
22
  0
BLOCK_RECORD
  5
1B
330
1
100
AcDbSymbolTableRecord
100
AcDbBlockTableRecord
  2
*Paper_Space
340
1E
  0
BLOCK_RECORD
  5
23
330
1
100
AcDbSymbolTableRecord
100
AcDbBlockTableRecord
  2
*Paper_Space0
340
26
  0
BLOCK_RECORD
  5
48
330
1
100
AcDbSymbolTableRecord
100
AcDbBlockTableRecord
  2
開示A4
340
0
102
{BLKREFS
331
4C
102
}
  0
BLOCK_RECORD
  5
4B
330
1
100
AcDbSymbolTableRecord
100
AcDbBlockTableRecord
  2
開示A4枠
340
0
102
{BLKREFS
331
58
102
}
  0
BLOCK_RECORD
  5
4F
330
1
100
AcDbSymbolTableRecord
100
AcDbBlockTableRecord
  2
41-1-15
340
0
102
{BLKREFS
331
59
102
}
  0
BLOCK_RECORD
  5
52
330
1
100
AcDbSymbolTableRecord
100
AcDbBlockTableRecord
  2
91-1
340
0
102
{BLKREFS
331
5A
102
}
  0
BLOCK_RECORD
  5
55
330
1
100
AcDbSymbolTableRecord
100
AcDbBlockTableRecord
  2
32-88
340
0
102
{BLKREFS
331
5B
102
}
  0
BLOCK_RECORD
  5
11C
330
1
100
AcDbSymbolTableRecord
100
AcDbBlockTableRecord
  2
*D6
340
0
  0
BLOCK_RECORD
  5
127
330
1
100
AcDbSymbolTableRecord
100
AcDbBlockTableRecord
  2
*D7
340
0
  0
BLOCK_RECORD
  5
132
330
1
100
AcDbSymbolTableRecord
100
AcDbBlockTableRecord
  2
*D8
340
0
102
{BLKREFS
331
139
102
}
  0
BLOCK_RECORD
  5
13A
330
1
100
AcDbSymbolTableRecord
100
AcDbBlockTableRecord
  2
*D9
340
0
102
{BLKREFS
331
143
102
}
  0
ENDTAB
  0
ENDSEC
  0
SECTION
  2
BLOCKS
  0
BLOCK
  5
20
330
1F
100
AcDbEntity
  8
0
100
AcDbBlockBegin
  2
*Model_Space
 70
     0
 10
0.0
 20
0.0
 30
0.0
  3
*Model_Space
  1

  0
ENDBLK
  5
21
330
1F
100
AcDbEntity
  8
0
100
AcDbBlockEnd
  0
BLOCK
  5
1C
330
1B
100
AcDbEntity
 67
     1
  8
0
100
AcDbBlockBegin
  2
*Paper_Space
 70
     0
 10
0.0
 20
0.0
 30
0.0
  3
*Paper_Space
  1

  0
ENDBLK
  5
1D
330
1B
100
AcDbEntity
 67
     1
  8
0
100
AcDbBlockEnd
  0
BLOCK
  5
24
330
23
100
AcDbEntity
  8
0
100
AcDbBlockBegin
  2
*Paper_Space0
 70
     0
 10
0.0
 20
0.0
 30
0.0
  3
*Paper_Space0
  1

  0
ENDBLK
  5
25
330
23
100
AcDbEntity
  8
0
100
AcDbBlockEnd
  0
BLOCK
  5
49
330
48
100
AcDbEntity
  8
0
100
AcDbBlockBegin
  2
開示A4
 70
     0
 10
0.0
 20
-0.00000000000003
 30
0.0
  3
開示A4
  1

  0
POINT
  5
5C
330
48
100
AcDbEntity
  8
1
 62
     4
100
AcDbPoint
 10
183.0000000000001
 20
14.99999999999998
 30
0.0
  0
POINT
  5
5D
330
48
100
AcDbEntity
  8
1
 62
     4
100
AcDbPoint
 10
93.75
 20
16.99999999999997
 30
0.0
  0
POINT
  5
5E
330
48
100
AcDbEntity
  8
1
 62
     4
100
AcDbPoint
 10
85.25
 20
16.99999999999997
 30
0.0
  0
POINT
  5
5F
330
48
100
AcDbEntity
  8
1
 62
     4
100
AcDbPoint
 10
106.5
 20
18.99999999999998
 30
0.0
  0
POINT
  5
60
330
48
100
AcDbEntity
  8
1
 62
     4
100
AcDbPoint
 10
106.5
 20
12.49999999999997
 30
0.0
  0
POINT
  5
61
330
48
100
AcDbEntity
  8
1
 62
     4
100
AcDbPoint
 10
112.25
 20
12.49999999999997
 30
0.0
  0
POINT
  5
62
330
48
100
AcDbEntity
  8
1
 62
     4
100
AcDbPoint
 10
100.75
 20
12.49999999999997
 30
0.0
  0
POINT
  5
63
330
48
100
AcDbEntity
  8
1
 62
     4
100
AcDbPoint
 10
123.5
 20
18.99999999999998
 30
0.0
  0
POINT
  5
64
330
48
100
AcDbEntity
  8
1
 62
     4
100
AcDbPoint
 10
123.5
 20
12.49999999999997
 30
0.0
  0
POINT
  5
65
330
48
100
AcDbEntity
  8
1
 62
     4
100
AcDbPoint
 10
129.25
 20
12.49999999999997
 30
0.0
  0
POINT
  5
66
330
48
100
AcDbEntity
  8
1
 62
     4
100
AcDbPoint
 10
117.75
 20
12.49999999999997
 30
0.0
  0
POINT
  5
67
330
48
100
AcDbEntity
  8
1
 62
     4
100
AcDbPoint
 10
140.5
 20
18.99999999999998
 30
0.0
  0
POINT
  5
68
330
48
100
AcDbEntity
  8
1
 62
     4
100
AcDbPoint
 10
140.5
 20
12.49999999999997
 30
0.0
  0
POINT
  5
69
330
48
100
AcDbEntity
  8
1
 62
     4
100
AcDbPoint
 10
146.25
 20
12.49999999999997
 30
0.0
  0
POINT
  5
6A
330
48
100
AcDbEntity
  8
1
 62
     4
100
AcDbPoint
 10
134.75
 20
12.49999999999997
 30
0.0
  0
POINT
  5
6B
330
48
100
AcDbEntity
  8
1
 62
     4
100
AcDbPoint
 10
151.75
 20
12.49999999999997
 30
0.0
  0
POINT
  5
6C
330
48
100
AcDbEntity
  8
1
 62
     4
100
AcDbPoint
 10
163.25
 20
12.49999999999997
 30
0.0
  0
POINT
  5
6D
330
48
100
AcDbEntity
  8
1
 62
     4
100
AcDbPoint
 10
157.5
 20
12.49999999999997
 30
0.0
  0
POINT
  5
6E
330
48
100
AcDbEntity
  8
1
 62
     4
100
AcDbPoint
 10
57.0
 20
14.24999999999997
 30
0.0
  0
POINT
  5
6F
330
48
100
AcDbEntity
  8
1
 62
     4
100
AcDbPoint
 10
57.0
 20
22.74999999999998
 30
0.0
  0
POINT
  5
70
330
48
100
AcDbEntity
  8
1
 62
     4
100
AcDbPoint
 10
47.5
 20
282.0000000000003
 30
0.0
  0
POINT
  5
71
330
48
100
AcDbEntity
  8
1
 62
     4
100
AcDbPoint
 10
157.5
 20
18.99999999999998
 30
0.0
  0
POINT
  5
72
330
48
100
AcDbEntity
  8
1
 62
     4
100
AcDbPoint
 10
57.0
 20
16.24999999999997
 30
0.0
  0
POINT
  5
73
330
48
100
AcDbEntity
  8
1
 62
     4
100
AcDbPoint
 10
57.0
 20
24.74999999999998
 30
0.0
  0
POINT
  5
74
330
48
100
AcDbEntity
  8
1
 62
     4
100
AcDbPoint
 10
57.0
 20
20.74999999999998
 30
0.0
  0
POINT
  5
75
330
48
100
AcDbEntity
  8
1
 62
     4
100
AcDbPoint
 10
57.0
 20
12.24999999999997
 30
0.0
  0
POINT
  5
76
330
48
100
AcDbEntity
  8
1
 62
     4
100
AcDbPoint
 10
33.99999999999999
 20
33.99999999999999
 30
0.0
  0
LINE
  5
7B
330
48
100
AcDbEntity
  8
1
  6
Continuous
 62
     7
100
AcDbLine
 10
105.0
 20
9.99999999999997
 30
0.0
 11
200.0000000000001
 21
9.99999999999997
 31
0.0
  0
LINE
  5
7C
330
48
100
AcDbEntity
  8
1
  6
Continuous
 62
     2
100
AcDbLine
 10
105.0
 20
9.99999999999997
 30
0.0
 11
105.0
 21
4.99999999999997
 31
0.0
  0
LINE
  5
7D
330
48
100
AcDbEntity
  8
1
  6
Continuous
 62
     7
100
AcDbLine
 10
200.0000000000001
 20
148.5
 30
0.0
 11
200.0000000000001
 21
287.0000000000003
 31
0.0
  0
LINE
  5
7E
330
48
100
AcDbEntity
  8
1
  6
Continuous
 62
     2
100
AcDbLine
 10
200.0000000000001
 20
148.5
 30
0.0
 11
205.0000000000001
 21
148.5
 31
0.0
  0
LINE
  5
7F
330
48
100
AcDbEntity
  8
1
  6
Continuous
 62
     7
100
AcDbLine
 10
24.99999999999999
 20
148.5
 30
0.0
 11
24.99999999999999
 21
287.0000000000003
 31
0.0
  0
LINE
  5
80
330
48
100
AcDbEntity
  8
1
  6
Continuous
 62
     2
100
AcDbLine
 10
24.99999999999999
 20
148.5
 30
0.0
 11
19.99999999999999
 21
148.5
 31
0.0
  0
LINE
  5
81
330
48
100
AcDbEntity
  8
1
  6
Continuous
 62
     7
100
AcDbLine
 10
105.0
 20
287.0000000000003
 30
0.0
 11
24.99999999999999
 21
287.0000000000003
 31
0.0
  0
LINE
  5
82
330
48
100
AcDbEntity
  8
1
  6
Continuous
 62
     2
100
AcDbLine
 10
105.0
 20
287.0000000000003
 30
0.0
 11
105.0
 21
292.0000000000003
 31
0.0
  0
LINE
  5
83
330
48
100
AcDbEntity
  8
1
  6
Continuous
 62
     2
100
AcDbLine
 10
166.0
 20
19.99999999999998
 30
0.0
 11
200.0000000000001
 21
19.99999999999998
 31
0.0
  0
LINE
  5
84
330
48
100
AcDbEntity
  8
1
  6
Continuous
 62
     2
100
AcDbLine
 10
98.0
 20
26.99999999999998
 30
0.0
 11
98.0
 21
9.99999999999997
 31
0.0
  0
LINE
  5
85
330
48
100
AcDbEntity
  8
1
  6
Continuous
 62
     2
100
AcDbLine
 10
115.0
 20
26.99999999999998
 30
0.0
 11
115.0
 21
9.99999999999996
 31
0.0
  0
LINE
  5
86
330
48
100
AcDbEntity
  8
1
  6
Continuous
 62
     2
100
AcDbLine
 10
149.0
 20
26.99999999999998
 30
0.0
 11
149.0
 21
9.99999999999997
 31
0.0
  0
LINE
  5
87
330
48
100
AcDbEntity
  8
1
  6
Continuous
 62
     2
100
AcDbLine
 10
132.0
 20
26.99999999999998
 30
0.0
 11
132.0
 21
9.99999999999996
 31
0.0
  0
LINE
  5
88
330
48
100
AcDbEntity
  8
1
  6
Continuous
 62
     2
100
AcDbLine
 10
166.0
 20
26.99999999999998
 30
0.0
 11
166.0
 21
9.99999999999997
 31
0.0
  0
LINE
  5
89
330
48
100
AcDbEntity
  8
1
  6
Continuous
 62
     2
100
AcDbLine
 10
55.0
 20
277.0000000000003
 30
0.0
 11
24.99999999999999
 21
277.0000000000003
 31
0.0
  0
LINE
  5
8A
330
48
100
AcDbEntity
  8
1
  6
Continuous
 62
     7
100
AcDbLine
 10
24.99999999999999
 20
9.99999999999997
 30
0.0
 11
24.99999999999999
 21
148.5
 31
0.0
  0
LINE
  5
8B
330
48
100
AcDbEntity
  8
1
  6
Continuous
 62
     2
100
AcDbLine
 10
39.99999999999999
 20
287.0000000000003
 30
0.0
 11
39.99999999999999
 21
277.0000000000003
 31
0.0
  0
LINE
  5
8C
330
48
100
AcDbEntity
  8
1
  6
Continuous
 62
     2
100
AcDbLine
 10
55.0
 20
287.0000000000003
 30
0.0
 11
55.0
 21
277.0000000000003
 31
0.0
  0
LINE
  5
8D
330
48
100
AcDbEntity
  8
1
  6
Continuous
 62
     2
100
AcDbLine
 10
32.99999999999999
 20
40.99999999999999
 30
0.0
 11
32.99999999999999
 21
26.99999999999997
 31
0.0
  0
LINE
  5
8E
330
48
100
AcDbEntity
  8
1
  6
Continuous
 62
     7
100
AcDbLine
 10
200.0000000000001
 20
26.99999999999998
 30
0.0
 11
24.99999999999999
 21
26.99999999999998
 31
0.0
  0
LINE
  5
8F
330
48
100
AcDbEntity
  8
1
  6
Continuous
 62
     7
100
AcDbLine
 10
24.99999999999999
 20
40.99999999999997
 30
0.0
 11
200.0000000000001
 21
40.99999999999997
 31
0.0
  0
LINE
  5
90
330
48
100
AcDbEntity
  8
1
  6
PHANTOM
 62
     4
100
AcDbLine
 10
0.0
 20
-0.00000000000003
 30
0.0
 11
210.0000000000001
 21
-0.00000000000003
 31
0.0
  0
LINE
  5
91
330
48
100
AcDbEntity
  8
1
  6
PHANTOM
 62
     4
100
AcDbLine
 10
210.0000000000001
 20
-0.00000000000003
 30
0.0
 11
210.0000000000001
 21
297.0
 31
0.0
  0
LINE
  5
92
330
48
100
AcDbEntity
  8
1
  6
PHANTOM
 62
     4
100
AcDbLine
 10
210.0000000000001
 20
297.0
 30
0.0
 11
0.0
 21
297.0
 31
0.0
  0
LINE
  5
93
330
48
100
AcDbEntity
  8
1
  6
PHANTOM
 62
     4
100
AcDbLine
 10
0.0
 20
297.0
 30
0.0
 11
0.0
 21
-0.00000000000003
 31
0.0
  0
LINE
  5
94
330
48
100
AcDbEntity
  8
1
  6
Continuous
 62
     7
100
AcDbLine
 10
24.99999999999999
 20
9.99999999999997
 30
0.0
 11
105.0
 21
9.99999999999997
 31
0.0
  0
LINE
  5
95
330
48
100
AcDbEntity
  8
1
  6
Continuous
 62
     7
100
AcDbLine
 10
200.0000000000001
 20
9.99999999999997
 30
0.0
 11
200.0000000000001
 21
148.5
 31
0.0
  0
LINE
  5
96
330
48
100
AcDbEntity
  8
1
  6
Continuous
 62
     7
100
AcDbLine
 10
200.0000000000001
 20
287.0000000000003
 30
0.0
 11
105.0
 21
287.0000000000003
 31
0.0
  0
LINE
  5
97
330
48
100
AcDbEntity
  8
1
  6
Continuous
 62
     2
100
AcDbLine
 10
24.99999999999999
 20
18.49999999999998
 30
0.0
 11
81.0
 21
18.49999999999998
 31
0.0
  0
LINE
  5
98
330
48
100
AcDbEntity
  8
1
  6
Continuous
 62
     2
100
AcDbLine
 10
32.99999999999999
 20
26.99999999999997
 30
0.0
 11
32.99999999999999
 21
9.99999999999997
 31
0.0
  0
LINE
  5
99
330
48
100
AcDbEntity
  8
1
  6
Continuous
 62
     7
100
AcDbLine
 10
191.0000000000001
 20
24.69999999999999
 30
0.0
 11
191.0000000000001
 21
22.29999999999998
 31
0.0
  0
LINE
  5
9A
330
48
100
AcDbEntity
  8
1
  6
Continuous
 62
     7
100
AcDbLine
 10
191.0000000000001
 20
24.69999999999999
 30
0.0
 11
196.0000000000001
 21
25.49999999999998
 31
0.0
  0
LINE
  5
9B
330
48
100
AcDbEntity
  8
1
  6
Continuous
 62
     7
100
AcDbLine
 10
196.0000000000001
 20
25.49999999999998
 30
0.0
 11
196.0000000000001
 21
21.49999999999998
 31
0.0
  0
LINE
  5
9C
330
48
100
AcDbEntity
  8
1
  6
Continuous
 62
     7
100
AcDbLine
 10
196.0000000000001
 20
21.49999999999998
 30
0.0
 11
191.0000000000001
 21
22.29999999999998
 31
0.0
  0
LINE
  5
9D
330
48
100
AcDbEntity
  8
1
  6
DOT_CENTER
 62
     2
100
AcDbLine
 10
184.0000000000001
 20
23.49999999999998
 30
0.0
 11
197.0000000000001
 21
23.49999999999998
 31
0.0
  0
LINE
  5
9E
330
48
100
AcDbEntity
  8
1
  6
DOT_CENTER
 62
     2
100
AcDbLine
 10
187.0000000000001
 20
26.49999999999998
 30
0.0
 11
187.0000000000001
 21
20.49999999999998
 31
0.0
  0
LINE
  5
9F
330
48
100
AcDbEntity
  8
1
  6
Continuous
 62
     2
100
AcDbLine
 10
81.0
 20
26.99999999999998
 30
0.0
 11
81.0
 21
9.99999999999997
 31
0.0
  0
CIRCLE
  5
A0
330
48
100
AcDbEntity
  8
1
  6
Continuous
 62
     7
100
AcDbCircle
 10
103.5
 20
12.49999999999997
 30
0.0
 40
0.2999999999999972
  0
CIRCLE
  5
A1
330
48
100
AcDbEntity
  8
1
  6
Continuous
 62
     7
100
AcDbCircle
 10
109.5
 20
12.49999999999997
 30
0.0
 40
0.2999999999999972
  0
CIRCLE
  5
A2
330
48
100
AcDbEntity
  8
1
  6
Continuous
 62
     7
100
AcDbCircle
 10
120.5
 20
12.49999999999997
 30
0.0
 40
0.2999999999999972
  0
CIRCLE
  5
A3
330
48
100
AcDbEntity
  8
1
  6
Continuous
 62
     7
100
AcDbCircle
 10
126.5
 20
12.49999999999997
 30
0.0
 40
0.2999999999999972
  0
CIRCLE
  5
A4
330
48
100
AcDbEntity
  8
1
  6
Continuous
 62
     7
100
AcDbCircle
 10
137.5
 20
12.49999999999997
 30
0.0
 40
0.3000000000000114
  0
CIRCLE
  5
A5
330
48
100
AcDbEntity
  8
1
  6
Continuous
 62
     7
100
AcDbCircle
 10
143.5
 20
12.49999999999997
 30
0.0
 40
0.3000000000000114
  0
CIRCLE
  5
A6
330
48
100
AcDbEntity
  8
1
  6
Continuous
 62
     7
100
AcDbCircle
 10
160.5
 20
12.49999999999997
 30
0.0
 40
0.3000000000000114
  0
CIRCLE
  5
A7
330
48
100
AcDbEntity
  8
1
  6
Continuous
 62
     7
100
AcDbCircle
 10
154.5
 20
12.49999999999997
 30
0.0
 40
0.3000000000000114
  0
CIRCLE
  5
A8
330
48
100
AcDbEntity
  8
1
  6
Continuous
 62
     7
100
AcDbCircle
 10
187.0000000000001
 20
23.49999999999998
 30
0.0
 40
1.200000000000074
  0
CIRCLE
  5
A9
330
48
100
AcDbEntity
  8
1
  6
Continuous
 62
     7
100
AcDbCircle
 10
187.0000000000001
 20
23.49999999999998
 30
0.0
 40
2.0
  0
CIRCLE
  5
AA
330
48
100
AcDbEntity
  8
1
  6
DOT_CENTER
 62
     7
100
AcDbCircle
 10
89.5
 20
15.99999999999997
 30
0.0
 40
0.1000000000000227
  0
CIRCLE
  5
AB
330
48
100
AcDbEntity
  8
1
  6
DOT_CENTER
 62
     7
100
AcDbCircle
 10
89.5
 20
17.99999999999997
 30
0.0
 40
0.1000000000000227
  0
SPLINE
  5
AC
102
{ACAD_REACTORS
330
CB
102
}
330
48
100
AcDbEntity
  8
_U_30EC_U_30A4_U_30E4_U_30FC_1
  6
Continuous
 62
     2
100
AcDbSpline
210
0.0
220
0.0
230
1.0
 70
     8
 71
     3
 72
    24
 73
    20
 74
    18
 42
0.000000001
 43
0.0000000001
 44
0.00000001
 40
0.0
 40
0.0
 40
0.0
 40
0.0
 40
0.2211075008753675
 40
0.4273218586245323
 40
0.5080174679238261
 40
0.5914835907870247
 40
0.8143265690192496
 40
1.054651302686541
 40
1.295452694023141
 40
1.518109231328798
 40
1.540864321905441
 40
1.595126460622701
 40
1.659890947896042
 40
1.714153085187428
 40
1.736908174961727
 40
1.764951100735458
 40
1.801562291221076
 40
1.95391442454375
 40
2.126104167379832
 40
2.126104167379832
 40
2.126104167379832
 40
2.126104167379832
 10
185.9375369556889
 20
15.58989295113014
 30
0.0
 10
185.9112579081812
 20
15.53097628234372
 30
0.0
 10
185.8604698894426
 20
15.41711139679254
 30
0.0
 10
185.8131784839112
 20
15.14441958233114
 30
0.0
 10
185.7043482802619
 20
15.24445482575457
 30
0.0
 10
185.5514800279637
 20
15.27118593367322
 30
0.0
 10
185.7686155181199
 20
15.48518135017631
 30
0.0
 10
185.783848367438
 20
15.70332117782485
 30
0.0
 10
185.8906889492
 20
15.88451579066423
 30
0.0
 10
185.8305380947077
 20
16.16913226311397
 30
0.0
 10
185.9334317395402
 20
16.14114089222448
 30
0.0
 10
185.977993346815
 20
16.13243251602297
 30
0.0
 10
186.0380842395397
 20
16.12139654183352
 30
0.0
 10
186.075661958744
 20
16.10767523055558
 30
0.0
 10
186.1252466928606
 20
16.10756076160219
 30
0.0
 10
186.0930158919325
 20
16.07306592398621
 30
0.0
 10
186.0171802221881
 20
16.0840410453796
 30
0.0
 10
186.0429447159693
 20
15.89858969582447
 30
0.0
 10
186.005589676385
 20
15.80702313549586
 30
0.0
 10
185.9857704961609
 20
15.75844135397702
 30
0.0
 11
185.9375369556889
 21
15.58989295113014
 31
0.0
 11
185.8616471328552
 21
15.38221708318557
 31
0.0
 11
185.7717402238433
 21
15.19663392356191
 31
0.0
 11
185.7011493923111
 21
15.23573272563548
 31
0.0
 11
185.6245525192651
 21
15.26889163187718
 31
0.0
 11
185.7214026947455
 21
15.46958801203535
 31
0.0
 11
185.799464146747
 21
15.69688163177021
 31
0.0
 11
185.858971692972
 21
15.93021436608688
 31
0.0
 11
185.9001601511226
 21
16.14902808999051
 31
0.0
 11
185.9224183822215
 21
16.14429889221392
 31
0.0
 11
185.975495702534
 21
16.13302157443897
 31
0.0
 11
186.0388460525845
 21
16.11956154999789
 31
0.0
 11
186.0919233728971
 21
16.10828423222294
 31
0.0
 11
186.1141816039959
 21
16.10355503444635
 31
0.0
 11
186.0964097157461
 21
16.08186250841007
 31
0.0
 11
186.0606122998071
 21
16.07418628445364
 31
0.0
 11
186.028195330148
 21
15.9253228817131
 31
0.0
 11
185.9857704961609
 21
15.75844135397702
 31
0.0
  0
SPLINE
  5
AD
102
{ACAD_REACTORS
330
CB
102
}
330
48
100
AcDbEntity
  8
_U_30EC_U_30A4_U_30E4_U_30FC_1
  6
Continuous
 62
     2
100
AcDbSpline
210
0.0
220
0.0
230
1.0
 70
     8
 71
     3
 72
    70
 73
    66
 74
    64
 42
0.000000001
 43
0.0000000001
 44
0.00000001
 40
0.0
 40
0.0
 40
0.0
 40
0.0
 40
0.0241731073021472
 40
0.0846058988987013
 40
0.1631685280353284
 40
0.2417311571789756
 40
0.3021639488292751
 40
0.3263370654895541
 40
0.3533118254248881
 40
0.4228783438922094
 40
0.5179999095313402
 40
0.6216398239466084
 40
0.7167613891499688
 40
0.7863279069649846
 40
0.8133026791761818
 40
0.8372943998771656
 40
0.8945054261372847
 40
0.9627895541962617
 40
1.020000580349071
 40
1.043992300975169
 40
1.071934345522894
 40
1.113121768772853
 40
1.145225199332178
 40
1.225483775412713
 40
1.329819923771421
 40
1.434156071994311
 40
1.514414647795731
 40
1.546518078208339
 40
1.57897476426014
 40
1.662678849314078
 40
1.777131373668299
 40
1.90183337747469
 40
2.016285900500451
 40
2.09998998252779
 40
2.132446666570149
 40
2.158782354485871
 40
2.216720867907656
 40
2.274659381334074
 40
2.300995069256008
 40
2.33345175406598
 40
2.417155836543632
 40
2.531608358985072
 40
2.656310362283567
 40
2.770762886388671
 40
2.854466971339808
 40
2.886923657363614
 40
2.913597976833048
 40
2.982389642874854
 40
3.076451716946722
 40
3.178937260458339
 40
3.272999334739744
 40
3.341791001058969
 40
3.36846532066328
 40
3.396976080738501
 40
3.472140811845709
 40
3.578408190308398
 40
3.700226892455806
 40
3.822045594634023
 40
3.928312973256102
 40
4.003477705314499
 40
4.031988456866565
 40
4.058324144797363
 40
4.116262658236525
 40
4.174201171400322
 40
4.200536849608256
 40
4.200536849608256
 40
4.200536849608256
 40
4.200536849608256
 10
185.9857704961609
 20
15.75844135397702
 30
0.0
 10
185.9938259544679
 20
15.75844359811683
 30
0.0
 10
186.0220200663241
 20
15.75845146032794
 30
0.0
 10
186.0765534803672
 20
15.75830754828368
 30
0.0
 10
186.1482891808604
 20
15.75909120499895
 30
0.0
 10
186.2236240137062
 20
15.75627570463808
 30
0.0
 10
186.2713052366438
 20
15.76298403400954
 30
0.0
 10
186.3195071245616
 20
15.7519756369243
 30
0.0
 10
186.3062571799873
 20
15.8054640299703
 30
0.0
 10
186.3151093964538
 20
15.86049583543088
 30
0.0
 10
186.3108698036285
 20
15.95419908726106
 30
0.0
 10
186.313348348128
 20
16.04959482218529
 30
0.0
 10
186.309093870606
 20
16.14356821983384
 30
0.0
 10
186.3179818665846
 20
16.19795062438008
 30
0.0
 10
186.3046977409946
 20
16.25233997691457
 30
0.0
 10
186.3514119277108
 20
16.23842216335355
 30
0.0
 10
186.3943254545737
 20
16.24103877374041
 30
0.0
 10
186.4605443456685
 20
16.23648422450751
 30
0.0
 10
186.5013342271798
 20
16.2277816213416
 30
0.0
 10
186.5525145690818
 20
16.23531799890193
 30
0.0
 10
186.5253720487201
 20
16.19349970223284
 30
0.0
 10
186.4803096055708
 20
16.20284992072591
 30
0.0
 10
186.4942065045051
 20
16.13841207371834
 30
0.0
 10
186.4858414431655
 20
16.07378219627396
 30
0.0
 10
186.4903632178399
 20
15.97529141193884
 30
0.0
 10
186.4854741311168
 20
15.87595932842567
 30
0.0
 10
186.4950258992082
 20
15.81293115552965
 30
0.0
 10
186.4799761455201
 20
15.74964011499785
 30
0.0
 10
186.5449159457208
 20
15.76515072944265
 30
0.0
 10
186.6116246399498
 20
15.7549938769781
 30
0.0
 10
186.7241435470828
 20
15.75988800099364
 30
0.0
 10
186.8390235448954
 20
15.75691204732781
 30
0.0
 10
186.9519871999746
 20
15.76221664184988
 30
0.0
 10
187.0176267597678
 20
15.75107306472086
 30
0.0
 10
187.0816276691053
 20
15.76744532319854
 30
0.0
 10
187.070314288919
 20
15.71761689905272
 30
0.0
 10
187.0775339871509
 20
15.6741671521212
 30
0.0
 10
187.0703142611269
 20
15.63071745587442
 30
0.0
 10
187.0816277175994
 20
15.58088895196875
 30
0.0
 10
187.0176263598971
 20
15.5972616609136
 30
0.0
 10
186.951992124046
 20
15.58611271661586
 30
0.0
 10
186.838997431733
 20
15.59144857206852
 30
0.0
 10
186.7242456548644
 20
15.58834345663819
 30
0.0
 10
186.6113183686861
 20
15.59364894682587
 30
0.0
 10
186.5455220903586
 20
15.58257300019591
 30
0.0
 10
186.4816097975358
 20
15.59887597847616
 30
0.0
 10
186.4936015165128
 20
15.5442352439574
 30
0.0
 10
186.4862104613005
 20
15.48854295047839
 30
0.0
 10
186.4892684841984
 20
15.39649689140568
 30
0.0
 10
186.4893422785685
 20
15.30179109873098
 30
0.0
 10
186.486031357836
 20
15.20952782902262
 30
0.0
 10
186.4939505989905
 20
15.15435768736137
 30
0.0
 10
186.4815076611618
 20
15.10058169100132
 30
0.0
 10
186.5389116551633
 20
15.11453768862777
 30
0.0
 10
186.5994708140383
 20
15.10511457884224
 30
0.0
 10
186.7048680855081
 20
15.10942885928702
 30
0.0
 10
186.8204294070623
 20
15.10835504612028
 30
0.0
 10
186.9359688877797
 20
15.10725965900992
 30
0.0
 10
187.0414181130841
 20
15.11162525770629
 30
0.0
 10
187.1018680471804
 20
15.10209426030668
 30
0.0
 10
187.159283773911
 20
15.11617289606376
 30
0.0
 10
187.1477773876709
 20
15.0670715326568
 30
0.0
 10
187.1537566781749
 20
15.02564658018646
 30
0.0
 10
187.1520311050801
 20
14.97651677966692
 30
0.0
 10
187.1521500122971
 20
14.94854428447605
 30
0.0
 10
187.1521871691833
 20
14.93980288195947
 30
0.0
 11
185.9857704961609
 21
15.75844135397702
 31
0.0
 11
186.0099436128282
 21
15.75844135397702
 31
0.0
 11
186.0703764044962
 21
15.75844135397702
 31
0.0
 11
186.1489390336648
 21
15.75844135397702
 31
0.0
 11
186.2275016628334
 21
15.75844135397702
 31
0.0
 11
186.2879344545015
 21
15.75844135397702
 31
0.0
 11
186.3121075711687
 21
15.75844135397702
 31
0.0
 11
186.3121075711687
 21
15.7854161262006
 31
0.0
 11
186.3121075711687
 21
15.85498264404035
 31
0.0
 11
186.3121075711687
 21
15.95010420924982
 31
0.0
 11
186.3121075711687
 21
16.05374412358253
 31
0.0
 11
186.3121075711687
 21
16.14886568879199
 31
0.0
 11
186.3121075711687
 21
16.21843220663175
 31
0.0
 11
186.3121075711687
 21
16.24540697885533
 31
0.0
 11
186.3360407604892
 21
16.24373213107797
 31
0.0
 11
186.3931122119458
 21
16.23973826330119
 31
0.0
 11
186.461229750781
 21
16.23497138885793
 31
0.0
 11
186.5183012022376
 21
16.23097752108115
 31
0.0
 11
186.5422343915581
 21
16.22930267330379
 31
0.0
 11
186.527497273123
 21
16.20556293372637
 31
0.0
 11
186.4886640249977
 21
16.19183767331309
 31
0.0
 11
186.4886640249977
 21
16.15973424225115
 31
0.0
 11
186.4886640249977
 21
16.07947566459633
 31
0.0
 11
186.4886640249977
 21
15.97513951364505
 31
0.0
 11
186.4886640249977
 21
15.87080336269378
 31
0.0
 11
186.4886640249977
 21
15.79054478503895
 31
0.0
 11
186.4886640249977
 21
15.75844135397702
 31
0.0
 11
186.5211207110825
 21
15.75844135397702
 31
0.0
 11
186.6048247962486
 21
15.75844135397702
 31
0.0
 11
186.7192773208635
 21
15.75844135397702
 31
0.0
 11
186.8439793252946
 21
15.75844135397702
 31
0.0
 11
186.9584318499095
 21
15.75844135397702
 31
0.0
 11
187.0421359350756
 21
15.75844135397702
 31
0.0
 11
187.0745926211604
 21
15.75844135397702
 31
0.0
 11
187.0745926211604
 21
15.73210566604958
 31
0.0
 11
187.0745926211604
 21
15.67416715260922
 31
0.0
 11
187.0745926211604
 21
15.61622863916886
 31
0.0
 11
187.0745926211604
 21
15.58989295124142
 31
0.0
 11
187.0421359350756
 21
15.58989295124142
 31
0.0
 11
186.9584318499095
 21
15.58989295124142
 31
0.0
 11
186.8439793252946
 21
15.58989295124142
 31
0.0
 11
186.7192773208635
 21
15.58989295124142
 31
0.0
 11
186.6048247962486
 21
15.58989295124142
 31
0.0
 11
186.5211207110825
 21
15.58989295124142
 31
0.0
 11
186.4886640249977
 21
15.58989295124142
 31
0.0
 11
186.4886640249977
 21
15.5632186315202
 31
0.0
 11
186.4886640249977
 21
15.49442696487073
 31
0.0
 11
186.4886640249977
 21
15.40036489006431
 31
0.0
 11
186.4886640249977
 21
15.29787934587224
 31
0.0
 11
186.4886640249977
 21
15.20381727106583
 31
0.0
 11
186.4886640249977
 21
15.13502560441636
 31
0.0
 11
186.4886640249977
 21
15.10835128469514
 31
0.0
 11
186.5171747850994
 21
15.10835128469514
 31
0.0
 11
186.5923395162767
 21
15.10835128469514
 31
0.0
 11
186.6986068948377
 21
15.10835128469514
 31
0.0
 11
186.8204255970905
 21
15.10835128469514
 31
0.0
 11
186.9422442993433
 21
15.10835128469514
 31
0.0
 11
187.0485116779043
 21
15.10835128469514
 31
0.0
 11
187.1236764090816
 21
15.10835128469514
 31
0.0
 11
187.1521871691833
 21
15.10835128469514
 31
0.0
 11
187.1521871691833
 21
15.08201559676769
 31
0.0
 11
187.1521871691833
 21
15.0240770833273
 31
0.0
 11
187.1521871691833
 21
14.96613856988692
 31
0.0
 11
187.1521871691833
 21
14.93980288195947
 31
0.0
  0
SPLINE
  5
AE
102
{ACAD_REACTORS
330
CB
102
}
330
48
100
AcDbEntity
  8
_U_30EC_U_30A4_U_30E4_U_30FC_1
  6
Continuous
 62
     2
100
AcDbSpline
210
0.0
220
0.0
230
1.0
 70
     8
 71
     3
 72
    62
 73
    58
 74
    56
 42
0.000000001
 43
0.0000000001
 44
0.00000001
 40
0.0
 40
0.0
 40
0.0
 40
0.0
 40
0.0598250028308485
 40
0.2024846486897047
 40
0.3727558389220178
 40
0.5154154847934933
 40
0.5752404975784202
 40
0.9332326775485806
 40
1.290451762839332
 40
1.60207725314569
 40
1.69993163411188
 40
1.799359756424909
 40
2.270120149656911
 40
2.804661928461327
 40
2.88234228738304
 40
3.076543185718895
 40
3.329004354835362
 40
3.581465524568195
 40
3.775666424543481
 40
3.853346784558102
 40
3.899120679594876
 40
3.984129341791903
 40
4.02990323681728
 40
4.105797496059434
 40
4.295533144152394
 40
4.542189486611637
 40
4.788845828875585
 40
4.978581476409969
 40
5.054475735244212
 40
5.621734664339197
 40
6.130867242037249
 40
6.225249780948426
 40
6.318913039727131
 40
6.663579954558679
 40
7.047498900224526
 40
7.435230791575441
 40
7.498943906667853
 40
7.650875181209847
 40
7.832212509001358
 40
7.984143783696743
 40
8.047856898902872
 40
8.091554632732379
 40
8.172707566964034
 40
8.216405300767757
 40
8.289021782160642
 40
8.462184160757015
 40
8.668861838005096
 40
8.842024215263688
 40
8.914640695474883
 40
8.98988158086109
 40
9.155411528827003
 40
9.320941477743792
 40
9.396182352487044
 40
9.45470901114359
 40
9.583467660170525
 40
9.712226309012804
 40
9.770752957989258
 40
9.770752957989258
 40
9.770752957989258
 40
9.770752957989258
 10
187.1521871691833
 20
14.93980288195947
 30
0.0
 10
187.1322348171623
 20
14.93980875568669
 30
0.0
 10
187.0647037716465
 20
14.93982863806155
 30
0.0
 10
186.9410612161788
 20
14.93949362520322
 30
0.0
 10
186.7863180150057
 20
14.94107673750509
 30
0.0
 10
186.669734948248
 20
14.93686078860492
 30
0.0
 10
186.4550942634241
 20
14.95215205331623
 30
0.0
 10
186.8518948407228
 20
14.59198721286187
 30
0.0
 10
186.8945656069268
 20
14.37510503397162
 30
0.0
 10
187.3189162146611
 20
14.19325062511451
 30
0.0
 10
187.1439821496074
 20
14.08985196568062
 30
0.0
 10
187.0194523925081
 20
13.87831523212737
 30
0.0
 10
186.7666277235944
 20
14.34806081001549
 30
0.0
 10
186.4797602893627
 20
14.99511516984519
 30
0.0
 10
186.4906335926661
 20
14.68782672154693
 30
0.0
 10
186.488289277796
 20
14.52288616971777
 30
0.0
 10
186.4861096126411
 20
14.28879670711691
 30
0.0
 10
186.4980774396348
 20
14.04498072421781
 30
0.0
 10
186.4687984740631
 20
13.89855796860981
 30
0.0
 10
186.511452262547
 20
13.75113490174534
 30
0.0
 10
186.423981400564
 20
13.76685797306217
 30
0.0
 10
186.3768527606744
 20
13.76694303543452
 30
0.0
 10
186.2898973207713
 20
13.75109425482905
 30
0.0
 10
186.3313474021722
 20
13.89527771422759
 30
0.0
 10
186.3029875004285
 20
14.03855052698452
 30
0.0
 10
186.3145973775299
 20
14.27674947365261
 30
0.0
 10
186.3124175648272
 20
14.50517235240343
 30
0.0
 10
186.3103111127994
 20
14.66705729375991
 30
0.0
 10
186.3208035438323
 20
14.98153709333748
 30
0.0
 10
186.0128963252895
 20
14.29229470872433
 30
0.0
 10
185.7055258267454
 20
13.81476750243039
 30
0.0
 10
185.5851367066276
 20
14.03741112637427
 30
0.0
 10
185.4074607910722
 20
14.15011034955563
 30
0.0
 10
185.8853326362895
 20
14.32548143465461
 30
0.0
 10
185.9353959057208
 20
14.56091929252027
 30
0.0
 10
186.3583799621717
 20
14.95322989344603
 30
0.0
 10
186.127675427354
 20
14.93655307029063
 30
0.0
 10
186.004968585934
 20
14.94269518948767
 30
0.0
 10
185.8325483095661
 20
14.93312822699571
 30
0.0
 10
185.7213224694449
 20
14.95448818489663
 30
0.0
 10
185.6025779627448
 20
14.92136265357417
 30
0.0
 10
185.6183169706686
 20
15.0020390060688
 30
0.0
 10
185.6178550933762
 20
15.04645414290851
 30
0.0
 10
185.6027881889931
 20
15.12967081778529
 30
0.0
 10
185.7372380935444
 20
15.09062651983881
 30
0.0
 10
185.8619755545746
 20
15.11739729328418
 30
0.0
 10
186.062875523728
 20
15.10063949044049
 30
0.0
 10
186.1921540949352
 20
15.12204225913001
 30
0.0
 10
186.3328419928295
 20
15.08868778853417
 30
0.0
 10
186.2980927452615
 20
15.22651875785065
 30
0.0
 10
186.3222185666713
 20
15.34963257349478
 30
0.0
 10
186.2967086182392
 20
15.47024055670333
 30
0.0
 10
186.3333251146684
 20
15.60539865141493
 30
0.0
 10
186.2211417027769
 20
15.58094545781888
 30
0.0
 10
186.1280356457136
 20
15.59307749842021
 30
0.0
 10
186.0191547579819
 20
15.58957630069991
 30
0.0
 10
185.9569697640964
 20
15.58981755951601
 30
0.0
 10
185.9375369557246
 20
15.58989295124142
 30
0.0
 11
187.1521871691833
 21
14.93980288195947
 31
0.0
 11
187.0923621563982
 21
14.93980288195947
 31
0.0
 11
186.949702510526
 21
14.93980288195947
 31
0.0
 11
186.7794313202914
 21
14.93980288195947
 31
0.0
 11
186.6367716744192
 21
14.93980288195947
 31
0.0
 11
186.5769466616341
 21
14.93980288195947
 31
0.0
 11
186.7679960754843
 21
14.63705127966888
 31
0.0
 11
186.994127278563
 21
14.36051890576681
 31
0.0
 11
187.2244526173371
 21
14.15061253493454
 31
0.0
 11
187.1521596330705
 21
14.08466403668714
 31
0.0
 11
187.0879364402642
 21
14.00876059052557
 31
0.0
 11
186.7732818215558
 21
14.3589145834936
 31
0.0
 11
186.4886640249977
 21
14.811382951436
 31
0.0
 11
186.4886640249977
 21
14.73370259137312
 31
0.0
 11
186.4886640249977
 21
14.53950169121591
 31
0.0
 11
186.4886640249977
 21
14.28704052101154
 31
0.0
 11
186.4886640249977
 21
14.03457935080718
 31
0.0
 11
186.4886640249977
 21
13.84037845064997
 31
0.0
 11
186.4886640249977
 21
13.76269809058709
 31
0.0
 11
186.4428901295606
 21
13.76269809058709
 31
0.0
 11
186.3578814666058
 21
13.76269809058709
 31
0.0
 11
186.3121075711687
 21
13.76269809058709
 31
0.0
 11
186.3121075711687
 21
13.83859234982737
 31
0.0
 11
186.3121075711687
 21
14.02832799792808
 31
0.0
 11
186.3121075711687
 21
14.274984340459
 31
0.0
 11
186.3121075711687
 21
14.52164068298993
 31
0.0
 11
186.3121075711687
 21
14.71137633109064
 31
0.0
 11
186.3121075711687
 21
14.78727059033092
 31
0.0
 11
185.9987626399267
 21
14.3144094619769
 31
0.0
 11
185.6352328662148
 21
13.95795177109379
 31
0.0
 11
185.5773927461628
 21
14.03253450545019
 31
0.0
 11
185.5094852305342
 21
14.09704322939241
 31
0.0
 11
185.7750721898319
 21
14.31672219795887
 31
0.0
 11
186.0233764972061
 21
14.60953395971694
 31
0.0
 11
186.226498280526
 21
14.93980288195947
 31
0.0
 11
186.1627851652721
 21
14.93980288195947
 31
0.0
 11
186.0108538904359
 21
14.93980288195947
 31
0.0
 11
185.8295165624055
 21
14.93980288195947
 31
0.0
 11
185.6775852875693
 21
14.93980288195947
 31
0.0
 11
185.6138721723154
 21
14.93980288195947
 31
0.0
 11
185.6138721723154
 21
14.98350061600205
 31
0.0
 11
185.6138721723154
 21
15.06465355065256
 31
0.0
 11
185.6138721723154
 21
15.10835128469514
 31
0.0
 11
185.6864886537961
 21
15.10835128469514
 31
0.0
 11
185.8596510327118
 21
15.10835128469514
 31
0.0
 11
186.0663287107723
 21
15.10835128469514
 31
0.0
 11
186.239491089688
 21
15.10835128469514
 31
0.0
 11
186.3121075711687
 21
15.10835128469514
 31
0.0
 11
186.3121075711687
 21
15.18359217009299
 31
0.0
 11
186.3121075711687
 21
15.34912211796828
 31
0.0
 11
186.3121075711687
 21
15.51465206584357
 31
0.0
 11
186.3121075711687
 21
15.58989295124142
 31
0.0
 11
186.2535809125055
 21
15.58989295124142
 31
0.0
 11
186.1248222634467
 21
15.58989295124142
 31
0.0
 11
185.9960636143877
 21
15.58989295124142
 31
0.0
 11
185.9375369557246
 21
15.58989295124142
 31
0.0
  0
SPLINE
  5
AF
102
{ACAD_REACTORS
330
CC
102
}
330
48
100
AcDbEntity
  8
_U_30EC_U_30A4_U_30E4_U_30FC_1
  6
Continuous
 62
     2
100
AcDbSpline
210
0.0
220
0.0
230
1.0
 70
    11
 71
     3
 72
   124
 73
   120
 74
   118
 42
0.000000001
 43
0.0000000001
 44
0.00000001
 40
0.0
 40
0.0
 40
0.0
 40
0.0
 40
0.027818722962451
 40
0.1011590162384269
 40
0.2048470170590523
 40
0.3237088716559245
 40
0.4425707262522284
 40
0.5462587270700116
 40
0.6195990203312934
 40
0.6474177522579513
 40
0.6750060736116077
 40
0.7357003855243593
 40
0.7963946998055327
 40
0.8239830245572619
 40
0.8540933811103997
 40
0.9373396629410109
 40
1.063094687343349
 40
1.220731268638187
 40
1.399622220914861
 40
1.589140358637846
 40
1.778658496424012
 40
1.957549448940679
 40
2.115186030873329
 40
2.240941056914605
 40
2.324187341760703
 40
2.354297700109552
 40
2.381886024672059
 40
2.442580338710648
 40
2.503274652750668
 40
2.530862977314777
 40
2.56098394927873
 40
2.640393784453075
 40
2.752662861759299
 40
2.881361560118315
 40
3.010060258455362
 40
3.122329335705509
 40
3.201739170818123
 40
3.231860142753484
 40
3.264298024030539
 40
3.352343701778412
 40
3.482095226868936
 40
3.639650650173201
 40
3.81110802256566
 40
3.982565394928169
 40
4.140120818152751
 40
4.269872343141462
 40
4.357918020802527
 40
4.390355902044155
 40
4.423256253992725
 40
4.508104530073189
 40
4.624121560636957
 40
4.750528176031685
 40
4.866545206602132
 40
4.951393482692061
 40
4.984293834645462
 40
5.011450833242376
 40
5.071196230152155
 40
5.130941627057221
 40
5.158098625648885
 40
5.190998977601548
 40
5.275847253689345
 40
5.391864284256807
 40
5.518270899648296
 40
5.634287930209307
 40
5.71913620628798
 40
5.752036558235868
 40
5.782130946282895
 40
5.862783906229066
 40
5.979550131774935
 40
6.117984316640341
 40
6.263641154587888
 40
6.402075339414092
 40
6.518841564907885
 40
6.59949452481547
 40
6.629588912848708
 40
6.654403028226284
 40
6.713575149488051
 40
6.784199939329368
 40
6.84337206049347
 40
6.868186175802716
 40
6.896246243201762
 40
6.939586233758213
 40
6.967846564564844
 40
7.043584251089779
 40
7.153234334451637
 40
7.283231855734387
 40
7.420011856035423
 40
7.550009376579775
 40
7.659659458835172
 40
7.735397144417165
 40
7.763657474851339
 40
7.796409728010996
 40
7.88087606509627
 40
7.996370852465656
 40
8.12220844641855
 40
8.237703224799144
 40
8.322169562010838
 40
8.354921815205852
 40
8.382078813307631
 40
8.44182420920693
 40
8.501569605240071
 40
8.528726603485648
 40
8.561478856695697
 40
8.645945193877747
 40
8.761439980865259
 40
8.887277580764401
 40
9.002772362000922
 40
9.087238696661142
 40
9.119990949235596
 40
9.152428830613296
 40
9.240474508638513
 40
9.370226034149466
 40
9.527781457984352
 40
9.699238830981342
 40
9.870696203978534
 40
10.02825162781396
 40
10.15800315332558
 40
10.24604883135113
 40
10.27848670378516
 40
10.27848670378516
 40
10.27848670378516
 40
10.27848670378516
 10
195.3821827564383
 20
14.01410517385754
 30
0.0
 10
195.3914554737523
 20
14.01410498511271
 30
0.0
 10
195.425174453686
 20
14.01410430876711
 30
0.0
 10
195.4934706812465
 20
14.01411807243302
 30
0.0
 10
195.592014171158
 20
14.01403224219542
 30
0.0
 10
195.7062066464812
 20
14.01441755612247
 30
0.0
 10
195.8185894417071
 20
14.01300835897542
 30
0.0
 10
195.9214376600119
 20
14.0171911742224
 30
0.0
 10
195.9806839874849
 20
14.00823089251979
 30
0.0
 10
196.0371265937034
 20
14.02164434526057
 30
0.0
 10
196.0246255586956
 20
13.97087198613358
 30
0.0
 10
196.0329549635704
 20
13.92589320939064
 30
0.0
 10
196.024817084112
 20
13.88056752990485
 30
0.0
 10
196.0370529214458
 20
13.82931932408462
 30
0.0
 10
195.9747773490334
 20
13.84447955365273
 30
0.0
 10
195.9060513026869
 20
13.8335975071074
 30
0.0
 10
195.7782756749592
 20
13.8391130474797
 30
0.0
 10
195.6262984511643
 20
13.83700851253696
 30
0.0
 10
195.4502695972523
 20
13.8377100258847
 30
0.0
 10
195.2644431934287
 20
13.83745237531289
 30
0.0
 10
195.0786167437175
 20
13.837710051446
 30
0.0
 10
194.9025880142169
 20
13.83700841847728
 30
0.0
 10
194.7506104154194
 20
13.83911332229985
 30
0.0
 10
194.6228357664554
 20
13.83359680767638
 30
0.0
 10
194.554107783658
 20
13.84448077125939
 30
0.0
 10
194.4918349042883
 20
13.82931786684206
 30
0.0
 10
194.5040616290017
 20
13.88057510805168
 30
0.0
 10
194.4960004462597
 20
13.92582473272422
 30
0.0
 10
194.5040675809892
 20
13.9710635795532
 30
0.0
 10
194.4918238487083
 20
14.02234176909955
 30
0.0
 10
194.5525017120697
 20
14.00749577363131
 30
0.0
 10
194.6162810745736
 20
14.01756448170732
 30
0.0
 10
194.7277314353502
 20
14.01294644211996
 30
0.0
 10
194.8497533443824
 20
14.01413328905466
 30
0.0
 10
194.9719538137823
 20
14.01515863900632
 30
0.0
 10
195.0829794287392
 20
14.01092475623398
 30
0.0
 10
195.1476517413959
 20
14.02018584521736
 30
0.0
 10
195.2091162810501
 20
14.00604423049679
 30
0.0
 10
195.1930065601337
 20
14.07235527884514
 30
0.0
 10
195.2042980327358
 20
14.14447790121973
 30
0.0
 10
195.1987400822561
 20
14.27513760888283
 30
0.0
 10
195.2008035061691
 20
14.42607323708239
 30
0.0
 10
195.2000167127295
 20
14.59335873107883
 30
0.0
 10
195.2007845215628
 20
14.76061110332301
 30
0.0
 10
195.1988038785628
 20
14.91163289269912
 30
0.0
 10
195.2041306156621
 20
15.04206069552993
 30
0.0
 10
195.1933101388424
 20
15.11465442605898
 30
0.0
 10
195.2090326429876
 20
15.18150469436797
 30
0.0
 10
195.143270813249
 20
15.16580512490823
 30
0.0
 10
195.0756367830764
 20
15.17609243083994
 30
0.0
 10
194.9615885293811
 20
15.17113786847121
 30
0.0
 10
194.8451242674903
 20
15.17414128030474
 30
0.0
 10
194.7306554121478
 20
15.16880303143387
 30
0.0
 10
194.6640324657813
 20
15.18001268074823
 30
0.0
 10
194.5990769715186
 20
15.1634913266501
 30
0.0
 10
194.610798975871
 20
15.21473720477058
 30
0.0
 10
194.6032830189121
 20
15.25950333784089
 30
0.0
 10
194.6107989878836
 20
15.30426944897958
 30
0.0
 10
194.5990769505348
 20
15.35551536129737
 30
0.0
 10
194.6640326339201
 20
15.33899381766812
 30
0.0
 10
194.7306533339822
 20
15.3502057137394
 30
0.0
 10
194.8451352858064
 20
15.34485436710662
 30
0.0
 10
194.9615454436963
 20
15.34791188771114
 30
0.0
 10
195.0757660174642
 20
15.34278499010705
 30
0.0
 10
195.1430150439227
 20
15.35345733355595
 30
0.0
 10
195.2083325941438
 20
15.33742082669074
 30
0.0
 10
195.1941391448553
 20
15.39949685750051
 30
0.0
 10
195.2036059462994
 20
15.4658676162876
 30
0.0
 10
195.1990269004085
 20
15.58239972741963
 30
0.0
 10
195.2007696555948
 20
15.71426685022373
 30
0.0
 10
195.1997551495391
 20
15.8561596015027
 30
0.0
 10
195.2017191344372
 20
15.98769050702577
 30
0.0
 10
195.1964668553851
 20
16.10524577282999
 30
0.0
 10
195.2073408763474
 20
16.16947789001581
 30
0.0
 10
195.1919536641853
 20
16.23108802545044
 30
0.0
 10
195.24075915378
 20
16.21702407382108
 30
0.0
 10
195.2853995564726
 20
16.21954742075311
 30
0.0
 10
195.3538643946742
 20
16.21512797401707
 30
0.0
 10
195.3959106169102
 20
16.20613025544031
 30
0.0
 10
195.4487544758775
 20
16.21411714866508
 30
0.0
 10
195.4207035002014
 20
16.17113917611667
 30
0.0
 10
195.3749142248594
 20
16.18259552043837
 30
0.0
 10
195.3869539073264
 20
16.12173520005133
 30
0.0
 10
195.379608607064
 20
16.0576929946877
 30
0.0
 10
195.3831195826162
 20
15.94909368863908
 30
0.0
 10
195.3819806760173
 20
15.8249431914475
 30
0.0
 10
195.3819174780263
 20
15.69189719829875
 30
0.0
 10
195.3832872966868
 20
15.56797381249553
 30
0.0
 10
195.3791638801313
 20
15.45868337849335
 30
0.0
 10
195.3877763103564
 20
15.39608580094167
 30
0.0
 10
195.3746757454402
 20
15.33740133296362
 30
0.0
 10
195.4393884328198
 20
15.35362113810899
 30
0.0
 10
195.5060405953156
 20
15.34270260383309
 30
0.0
 10
195.6198779541102
 20
15.34793740173753
 30
0.0
 10
195.7357259122097
 20
15.34485547516911
 30
0.0
 10
195.8496924263279
 20
15.35018259812508
 30
0.0
 10
195.91603410181
 20
15.3390420816654
 30
0.0
 10
195.9807188525479
 20
15.35546979593175
 30
0.0
 10
195.9689820772723
 20
15.30425925210048
 30
0.0
 10
195.9765168063041
 20
15.25950334120999
 30
0.0
 10
195.9689820992257
 20
15.21474739010025
 30
0.0
 10
195.9807188140736
 20
15.16353690871039
 30
0.0
 10
195.9160344075252
 20
15.17996427794218
 30
0.0
 10
195.8496886430824
 20
15.16882784447268
 30
0.0
 10
195.7357459487012
 20
15.17413115893119
 30
0.0
 10
195.6197995623054
 20
15.17114764593543
 30
0.0
 10
195.5062756882122
 20
15.17606892268392
 30
0.0
 10
195.4389231318804
 20
15.16585087513518
 30
0.0
 10
195.3734285122495
 20
15.18145996138814
 30
0.0
 10
195.3891713619218
 20
15.1146385182741
 30
0.0
 10
195.3783275998213
 20
15.04207057815877
 30
0.0
 10
195.3836581629792
 20
14.91162247614414
 30
0.0
 10
195.3817136151855
 20
14.76064558185224
 30
0.0
 10
195.3823133683214
 20
14.59322243934156
 30
0.0
 10
195.3821506559604
 20
14.42656176118369
 30
0.0
 10
195.3821895488136
 20
14.27360142921633
 30
0.0
 10
195.3821816413097
 20
14.14849178985702
 30
0.0
 10
195.3821828382746
 20
14.06507890991417
 30
0.0
 10
195.3821827716207
 20
14.02491778281973
 30
0.0
 10
195.3821827564383
 20
14.01410517385754
 30
0.0
 11
195.3821827564383
 21
14.01410517385754
 31
0.0
 11
195.4100014883675
 21
14.01410517385754
 31
0.0
 11
195.4833417816353
 21
14.01410517385754
 31
0.0
 11
195.5870297824623
 21
14.01410517385754
 31
0.0
 11
195.7058916370687
 21
14.01410517385754
 31
0.0
 11
195.8247534916752
 21
14.01410517385754
 31
0.0
 11
195.9284414925021
 21
14.01410517385754
 31
0.0
 11
196.0017817857699
 21
14.01410517385754
 31
0.0
 11
196.0296005176991
 21
14.01410517385754
 31
0.0
 11
196.0296005176991
 21
13.98651684921167
 31
0.0
 11
196.0296005176991
 21
13.92582253499074
 31
0.0
 11
196.0296005176991
 21
13.86512822076982
 31
0.0
 11
196.0296005176991
 21
13.83753989612394
 31
0.0
 11
195.9994901593494
 21
13.83753989612394
 31
0.0
 11
195.9162438745005
 21
13.83753989612394
 31
0.0
 11
195.7904888484522
 21
13.83753989612394
 31
0.0
 11
195.6328522665042
 21
13.83753989612394
 31
0.0
 11
195.4539613139565
 21
13.83753989612394
 31
0.0
 11
195.2644431761089
 21
13.83753989612394
 31
0.0
 11
195.0749250382613
 21
13.83753989612394
 31
0.0
 11
194.8960340857136
 21
13.83753989612394
 31
0.0
 11
194.7383975037656
 21
13.83753989612394
 31
0.0
 11
194.6126424777173
 21
13.83753989612394
 31
0.0
 11
194.5293961928683
 21
13.83753989612394
 31
0.0
 11
194.4992858345187
 21
13.83753989612394
 31
0.0
 11
194.4992858345187
 21
13.86512822076982
 31
0.0
 11
194.4992858345187
 21
13.92582253499074
 31
0.0
 11
194.4992858345187
 21
13.98651684921166
 31
0.0
 11
194.4992858345187
 21
14.01410517385754
 31
0.0
 11
194.5294068064947
 21
14.01410517385754
 31
0.0
 11
194.608816641704
 21
14.01410517385754
 31
0.0
 11
194.721085719069
 21
14.01410517385754
 31
0.0
 11
194.8497844175118
 21
14.01410517385754
 31
0.0
 11
194.9784831159545
 21
14.01410517385754
 31
0.0
 11
195.0907521933195
 21
14.01410517385754
 31
0.0
 11
195.1701620285289
 21
14.01410517385754
 31
0.0
 11
195.2002830005048
 21
14.01410517385754
 31
0.0
 11
195.2002830005048
 21
14.04654305523832
 31
0.0
 11
195.2002830005048
 21
14.13458873327187
 31
0.0
 11
195.2002830005048
 21
14.264340258795
 31
0.0
 11
195.2002830005048
 21
14.42189568264451
 31
0.0
 11
195.2002830005048
 21
14.59335305565722
 31
0.0
 11
195.2002830005048
 21
14.76481042866992
 31
0.0
 11
195.2002830005048
 21
14.92236585251943
 31
0.0
 11
195.2002830005048
 21
15.05211737804256
 31
0.0
 11
195.2002830005048
 21
15.14016305607611
 31
0.0
 11
195.2002830005048
 21
15.17260093745689
 31
0.0
 11
195.1673826485529
 21
15.17260093745689
 31
0.0
 11
195.0825343724663
 21
15.17260093745689
 31
0.0
 11
194.9665173418989
 21
15.17260093745689
 31
0.0
 11
194.8401107265045
 21
15.17260093745689
 31
0.0
 11
194.7240936959371
 21
15.17260093745689
 31
0.0
 11
194.6392454198505
 21
15.17260093745689
 31
0.0
 11
194.6063450678985
 21
15.17260093745689
 31
0.0
 11
194.6063450678985
 21
15.19975793614801
 31
0.0
 11
194.6063450678985
 21
15.25950333326848
 31
0.0
 11
194.6063450678985
 21
15.31924873038895
 31
0.0
 11
194.6063450678985
 21
15.34640572908007
 31
0.0
 11
194.6392454198505
 21
15.34640572908007
 31
0.0
 11
194.7240936959371
 21
15.34640572908007
 31
0.0
 11
194.8401107265045
 21
15.34640572908007
 31
0.0
 11
194.9665173418988
 21
15.34640572908007
 31
0.0
 11
195.0825343724662
 21
15.34640572908007
 31
0.0
 11
195.1673826485529
 21
15.34640572908007
 31
0.0
 11
195.2002830005048
 21
15.34640572908007
 31
0.0
 11
195.2002830005048
 21
15.37650011731367
 31
0.0
 11
195.2002830005048
 21
15.4571530777797
 31
0.0
 11
195.2002830005048
 21
15.57391930412606
 31
0.0
 11
195.2002830005048
 21
15.7123534900006
 31
0.0
 11
195.2002830005048
 21
15.85801032905121
 31
0.0
 11
195.2002830005048
 21
15.99644451492575
 31
0.0
 11
195.2002830005048
 21
16.11321074127211
 31
0.0
 11
195.2002830005048
 21
16.19386370173815
 31
0.0
 11
195.2002830005048
 21
16.22395808997174
 31
0.0
 11
195.2250405288618
 21
16.22228324219439
 31
0.0
 11
195.2840777118669
 21
16.21828937441762
 31
0.0
 11
195.3545414464214
 21
16.21352249997438
 31
0.0
 11
195.4135786294265
 21
16.20952863219761
 31
0.0
 11
195.4383361577835
 21
16.20785378442026
 31
0.0
 11
195.4233067224031
 21
16.18415814206507
 31
0.0
 11
195.3821827564383
 21
16.17047697887401
 31
0.0
 11
195.3821827564383
 21
16.14221664794829
 31
0.0
 11
195.3821827564383
 21
16.06647896106737
 31
0.0
 11
195.3821827564383
 21
15.95682887707558
 31
0.0
 11
195.3821827564383
 21
15.82683135481728
 31
0.0
 11
195.3821827564383
 21
15.6900513531368
 31
0.0
 11
195.3821827564383
 21
15.5600538308785
 31
0.0
 11
195.3821827564383
 21
15.45040374688671
 31
0.0
 11
195.3821827564383
 21
15.37466606000579
 31
0.0
 11
195.3821827564383
 21
15.34640572908007
 31
0.0
 11
195.4149350096115
 21
15.34640572908007
 31
0.0
 11
195.4994013467422
 21
15.34640572908007
 31
0.0
 11
195.6148961342476
 21
15.34640572908007
 31
0.0
 11
195.7407337385445
 21
15.34640572908007
 31
0.0
 11
195.8562285260498
 21
15.34640572908007
 31
0.0
 11
195.9406948631806
 21
15.34640572908007
 31
0.0
 11
195.9734471163538
 21
15.34640572908007
 31
0.0
 11
195.9734471163538
 21
15.31924873038895
 31
0.0
 11
195.9734471163538
 21
15.25950333326848
 31
0.0
 11
195.9734471163538
 21
15.19975793614801
 31
0.0
 11
195.9734471163538
 21
15.17260093745689
 31
0.0
 11
195.9406948631806
 21
15.17260093745689
 31
0.0
 11
195.8562285260498
 21
15.17260093745689
 31
0.0
 11
195.7407337385445
 21
15.17260093745689
 31
0.0
 11
195.6148961342476
 21
15.17260093745689
 31
0.0
 11
195.4994013467422
 21
15.17260093745689
 31
0.0
 11
195.4149350096114
 21
15.17260093745689
 31
0.0
 11
195.3821827564383
 21
15.17260093745689
 31
0.0
 11
195.3821827564383
 21
15.14016305607611
 31
0.0
 11
195.3821827564383
 21
15.05211737804256
 31
0.0
 11
195.3821827564383
 21
14.92236585251943
 31
0.0
 11
195.3821827564383
 21
14.76481042866992
 31
0.0
 11
195.3821827564383
 21
14.59335305565722
 31
0.0
 11
195.3821827564383
 21
14.42189568264451
 31
0.0
 11
195.3821827564383
 21
14.264340258795
 31
0.0
 11
195.3821827564383
 21
14.13458873327187
 31
0.0
 11
195.3821827564383
 21
14.04654305523832
 31
0.0
 11
195.3821827564383
 21
14.01410517385754
 31
0.0
  0
SPLINE
  5
B0
102
{ACAD_REACTORS
330
CD
102
}
330
48
100
AcDbEntity
  8
_U_30EC_U_30A4_U_30E4_U_30FC_1
  6
Continuous
 62
     2
100
AcDbSpline
210
0.0
220
0.0
230
1.0
 70
    11
 71
     3
 72
   131
 73
   127
 74
   125
 42
0.000000001
 43
0.0000000001
 44
0.00000001
 40
0.0
 40
0.0
 40
0.0
 40
0.0
 40
0.019557702982582
 40
0.0426490537459887
 40
0.2863607575855059
 40
0.5344948436188217
 40
0.7842238845572298
 40
0.8737315789466698
 40
0.9803832810312637
 40
1.092842274517011
 40
1.199761146656766
 40
1.289788768186493
 40
1.351573580786183
 40
1.370727117561427
 40
1.416400936017845
 40
1.470914848355976
 40
1.516588666791771
 40
1.535742203552852
 40
1.634216592293204
 40
1.76028334117504
 40
1.897966686682167
 40
2.031216387369012
 40
2.049689751138005
 40
2.101115601646942
 40
2.179502577740059
 40
2.278859318314173
 40
2.393194462258829
 40
2.516516648383946
 40
2.642834515406072
 40
2.766156701983575
 40
2.880491846754688
 40
2.979848588358731
 40
3.058235565443908
 40
3.109661416669061
 40
3.128134780704238
 40
3.146783742386555
 40
3.191254343315415
 40
3.244332157316074
 40
3.288802758225978
 40
3.307451719895221
 40
3.327717853844832
 40
3.383747753580195
 40
3.468388665924587
 40
3.574487837698892
 40
3.694892515728998
 40
3.82244994685214
 40
3.950007377920529
 40
4.070412055800624
 40
4.176511227368179
 40
4.261152139501625
 40
4.317182039076819
 40
4.33744817296474
 40
4.620011002696354
 40
4.885096638397535
 40
4.945373043518368
 40
5.014107710488681
 40
5.07048172765206
 40
5.319246955636536
 40
5.58481216450603
 40
5.859000912056902
 40
6.13374693754203
 40
6.401732212968814
 40
6.420736683995405
 40
6.472845717451055
 40
6.550702743893983
 40
6.646951193874192
 40
6.754234497930516
 40
6.865196086587294
 40
6.972479390357752
 40
7.068727839771914
 40
7.146584865450923
 40
7.198693898189153
 40
7.217698368905293
 40
7.23495040163077
 40
7.276089864269816
 40
7.325191803515925
 40
7.366331266090312
 40
7.383583298769662
 40
7.402779163492039
 40
7.453386443254471
 40
7.524934666445472
 40
7.606953361405812
 40
7.688972056428963
 40
7.760520279784214
 40
7.811127559734456
 40
7.830323424546077
 40
7.847844055299706
 40
7.894799345666748
 40
7.962779392744438
 40
8.043374293560486
 40
8.128174145149394
 40
8.208769044817199
 40
8.276749090376903
 40
8.323704379669461
 40
8.341225010056196
 40
8.358497614800344
 40
8.401679126686549
 40
8.457815092185607
 40
8.513951057728011
 40
8.557132569707967
 40
8.57440517450501
 40
8.60234066861635
 40
8.643455660539946
 40
8.663225271966617
 40
8.715345156564261
 40
8.789031889628593
 40
8.873502045520324
 40
8.957972194323947
 40
9.03165892556784
 40
9.083778811234527
 40
9.10354842300299
 40
9.119550083123528
 40
9.160817522379801
 40
9.217244429110139
 40
9.278724491644653
 40
9.33515139829538
 40
9.376418837357647
 40
9.392420497300435
 40
9.401196302734654
 40
9.417494229384156
 40
9.426270027749428
 40
9.440875075477436
 40
9.47570249699864
 40
9.5172707098658
 40
9.552098131993993
 40
9.566703169884176
 40
9.566703169884176
 40
9.566703169884176
 40
9.566703169884176
 10
194.6170254148478
 20
15.67015871511025
 30
0.0
 10
194.613434509337
 20
15.66453690702157
 30
0.0
 10
194.6056039123625
 20
15.65227754419113
 30
0.0
 10
194.5129968974549
 20
15.61601916040942
 30
0.0
 10
194.4887622233248
 20
15.40148444212719
 30
0.0
 10
194.3858709845939
 20
15.22197284509704
 30
0.0
 10
194.1220492364305
 20
15.03615573798142
 30
0.0
 10
194.2845471569181
 20
14.95959336566077
 30
0.0
 10
194.3607225760839
 20
14.89856693195441
 30
0.0
 10
194.4492171072758
 20
14.83515804544757
 30
0.0
 10
194.5389930233111
 20
14.77525634219558
 30
0.0
 10
194.5883817636047
 20
14.72102154849207
 30
0.0
 10
194.6745708157383
 20
14.69286240541832
 30
0.0
 10
194.641126067423
 20
14.65713309652811
 30
0.0
 10
194.6214671166311
 20
14.62550387991905
 30
0.0
 10
194.5919888217883
 20
14.58475872796066
 30
0.0
 10
194.5688989446032
 20
14.5550466348964
 30
0.0
 10
194.5380205968358
 20
14.50211422668491
 30
0.0
 10
194.4729193365741
 20
14.62740334938899
 30
0.0
 10
194.3796000122416
 20
14.68213900233933
 30
0.0
 10
194.2950636285139
 20
14.73916423939337
 30
0.0
 10
194.1722498125743
 20
14.8967528742752
 30
0.0
 10
194.1764450847301
 20
14.82035806766833
 30
0.0
 10
194.1751478652677
 20
14.77361280161293
 30
0.0
 10
194.1758126448076
 20
14.69584785812598
 30
0.0
 10
194.1755549986957
 20
14.5990206832442
 30
0.0
 10
194.1756431239922
 20
14.48650279078806
 30
0.0
 10
194.1756077302282
 20
14.36524085945697
 30
0.0
 10
194.1756511758278
 20
14.24086897858958
 30
0.0
 10
194.1755199942406
 20
14.11967683631334
 30
0.0
 10
194.1759477562046
 20
14.0069114891974
 30
0.0
 10
194.174667820231
 20
13.91082913768741
 30
0.0
 10
194.1779759851044
 20
13.83113826468697
 30
0.0
 10
194.1715197740085
 20
13.78815175788781
 30
0.0
 10
194.1806208705556
 20
13.7495543237204
 30
0.0
 10
194.1447910339935
 20
13.75810887724067
 30
0.0
 10
194.1115223815252
 20
13.75342519985444
 30
0.0
 10
194.0604562576041
 20
13.75351298759782
 30
0.0
 10
194.0269723972812
 20
13.75794430283818
 30
0.0
 10
193.9907585408754
 20
13.74960793842507
 30
0.0
 10
194.0009782568665
 20
13.79145277179281
 30
0.0
 10
193.9936487887774
 20
13.83778560820171
 30
0.0
 10
193.9973633136102
 20
13.92374831106011
 30
0.0
 10
193.9959480554896
 20
14.02605142704847
 30
0.0
 10
193.9964105554637
 20
14.14453223931509
 30
0.0
 10
193.996277368623
 20
14.26957683153353
 30
0.0
 10
193.9963015910045
 20
14.39475828107048
 30
0.0
 10
193.9963354925551
 20
14.51286645379055
 30
0.0
 10
193.9962060293132
 20
14.61628748709514
 30
0.0
 10
193.9965507549081
 20
14.69932036153664
 30
0.0
 10
193.995869827869
 20
14.75143368521241
 30
0.0
 10
193.9994586600622
 20
14.87912907821359
 30
0.0
 10
193.7826171386436
 20
14.58048716819623
 30
0.0
 10
193.6021354921952
 20
14.35263981511516
 30
0.0
 10
193.5490322295612
 20
14.4937344328981
 30
0.0
 10
193.5200429133149
 20
14.5432576756094
 30
0.0
 10
193.4196648062822
 20
14.64641779790106
 30
0.0
 10
193.7405127723262
 20
14.72695035023778
 30
0.0
 10
193.868989700543
 20
14.91066283036433
 30
0.0
 10
194.090645432536
 20
15.11931995771756
 30
0.0
 10
194.1770224894067
 20
15.29339211228344
 30
0.0
 10
194.4549394229078
 20
15.56967051342509
 30
0.0
 10
194.3346247839283
 20
15.56534559551111
 30
0.0
 10
194.2863197351349
 20
15.56614856202549
 30
0.0
 10
194.2102377454905
 20
15.56574582146582
 30
0.0
 10
194.116701000975
 20
15.56590275611606
 30
0.0
 10
194.0117594788557
 20
15.56582502576221
 30
0.0
 10
193.9033887738717
 20
15.56595464378551
 30
0.0
 10
193.7981454235897
 20
15.56554393490688
 30
0.0
 10
193.7056237819412
 20
15.56682073671588
 30
0.0
 10
193.6268130800707
 20
15.56340766534847
 30
0.0
 10
193.5839674565379
 20
15.57023350036317
 30
0.0
 10
193.5449499586516
 20
15.5606506420112
 30
0.0
 10
193.5526365271863
 20
15.5942077956554
 30
0.0
 10
193.5485464404312
 20
15.6252355032223
 30
0.0
 10
193.5485531368813
 20
15.67236529270897
 30
0.0
 10
193.5526239724911
 20
15.70340941646776
 30
0.0
 10
193.5449495574583
 20
15.73701861635898
 30
0.0
 10
193.5834819405494
 20
15.72748410420869
 30
0.0
 10
193.624122801448
 20
15.73397435498067
 30
0.0
 10
193.6951471850463
 20
15.73100150650251
 30
0.0
 10
193.7729318149633
 20
15.73174761399154
 30
0.0
 10
193.8507292246474
 20
15.73247814044523
 30
0.0
 10
193.9217232089908
 20
15.72954235514157
 30
0.0
 10
193.9624279791819
 20
15.73595468772948
 30
0.0
 10
194.0009853489909
 20
15.72650524176001
 30
0.0
 10
193.9927342754928
 20
15.76264692158782
 30
0.0
 10
193.9982346669358
 20
15.80129837613224
 30
0.0
 10
193.9955754206163
 20
15.86913528561837
 30
0.0
 10
193.9965815471533
 20
15.94591641538737
 30
0.0
 10
193.9960178018319
 20
16.02849393582754
 30
0.0
 10
193.9970714526594
 20
16.10517329229876
 30
0.0
 10
193.9942675863129
 20
16.17331990776697
 30
0.0
 10
194.0000702721304
 20
16.21132399809344
 30
0.0
 10
193.9915654551158
 20
16.24758448077644
 30
0.0
 10
194.0255610233125
 20
16.2375572377185
 30
0.0
 10
194.05945756831
 20
16.24073266813705
 30
0.0
 10
194.1126669060346
 20
16.23508965640607
 30
0.0
 10
194.1660768574482
 20
16.23434774436423
 30
0.0
 10
194.1995914649491
 20
16.22819223482978
 30
0.0
 10
194.2388086183038
 20
16.23346029773591
 30
0.0
 10
194.2120263698494
 20
16.19253380793483
 30
0.0
 10
194.1708111001723
 20
16.2037120453811
 30
0.0
 10
194.1782641540874
 20
16.1586705619212
 30
0.0
 10
194.1742227952184
 20
16.11412278028141
 30
0.0
 10
194.1761714049641
 20
16.042235726217
 30
0.0
 10
194.1752364849758
 20
15.96168630588768
 30
0.0
 10
194.176510719003
 20
15.88173995404992
 30
0.0
 10
194.1732043793863
 20
15.80841837083179
 30
0.0
 10
194.1802106179962
 20
15.76688643002565
 30
0.0
 10
194.1701440380126
 20
15.7275241856811
 30
0.0
 10
194.2029814803921
 20
15.73468063430978
 30
0.0
 10
194.236457729648
 20
15.73027243137941
 30
0.0
 10
194.2915053476018
 20
15.73217943347895
 30
0.0
 10
194.3489502595314
 20
15.73185366407285
 30
0.0
 10
194.4023026248308
 20
15.73106308733079
 30
0.0
 10
194.4398540896638
 20
15.73313959118071
 30
0.0
 10
194.4623172523235
 20
15.73022338167106
 30
0.0
 10
194.475167807373
 20
15.73572552644054
 30
0.0
 10
194.4858255685888
 20
15.73801118197786
 30
0.0
 10
194.4986635650143
 20
15.7449497258805
 30
0.0
 10
194.5145991033069
 20
15.72853046313666
 30
0.0
 10
194.5410623920891
 20
15.71709122319448
 30
0.0
 10
194.5726805253756
 20
15.69644687835186
 30
0.0
 10
194.598725589215
 20
15.68116869628294
 30
0.0
 10
194.6128517723972
 20
15.67266976323181
 30
0.0
 10
194.6170254148478
 20
15.67015871511025
 30
0.0
 11
194.6170254148478
 21
15.67015871511025
 31
0.0
 11
194.6049990002243
 21
15.65473571164185
 31
0.0
 11
194.5848961795566
 21
15.64337406233915
 31
0.0
 11
194.4778986355814
 21
15.42440620231156
 31
0.0
 11
194.3477039934324
 21
15.21317201512158
 31
0.0
 11
194.1996540366071
 21
15.01206059027476
 31
0.0
 11
194.2734958253735
 21
14.96147384935376
 31
0.0
 11
194.3605664311801
 21
14.89988411653737
 31
0.0
 11
194.4518003750405
 21
14.83413160594423
 31
0.0
 11
194.5381321779688
 21
14.77105653169303
 31
0.0
 11
194.6104963609788
 21
14.7174991079024
 31
0.0
 11
194.6598274450844
 21
14.68029954869103
 31
0.0
 11
194.6486940702214
 21
14.66471410869493
 31
0.0
 11
194.6221452532404
 21
14.62754882870422
 31
0.0
 11
194.5904579555534
 21
14.5831902687153
 31
0.0
 11
194.5639091385724
 21
14.54602498872459
 31
0.0
 11
194.5527757637094
 21
14.53043954872849
 31
0.0
 11
194.4807013362948
 21
14.59754008690615
 31
0.0
 11
194.3852856985382
 21
14.67993354174666
 31
0.0
 11
194.279326415217
 21
14.76785017366913
 31
0.0
 11
194.175621051109
 21
14.85152024309264
 31
0.0
 11
194.175621051109
 21
14.8330468790086
 31
0.0
 11
194.175621051109
 21
14.78162102763952
 31
0.0
 11
194.175621051109
 21
14.70323405030996
 31
0.0
 11
194.175621051109
 21
14.60387730834446
 31
0.0
 11
194.175621051109
 21
14.48954216306757
 31
0.0
 11
194.175621051109
 21
14.36621997580386
 31
0.0
 11
194.175621051109
 21
14.23990210787787
 31
0.0
 11
194.175621051109
 21
14.11657992061416
 31
0.0
 11
194.175621051109
 21
14.00224477533727
 31
0.0
 11
194.175621051109
 21
13.90288803337177
 31
0.0
 11
194.175621051109
 21
13.82450105604221
 31
0.0
 11
194.175621051109
 21
13.77307520467313
 31
0.0
 11
194.175621051109
 21
13.75460184058909
 31
0.0
 11
194.1569720893626
 21
13.75460184058909
 31
0.0
 11
194.1125014882749
 21
13.75460184058909
 31
0.0
 11
194.0594236740736
 21
13.75460184058909
 31
0.0
 11
194.0149530729859
 21
13.75460184058909
 31
0.0
 11
193.9963041112395
 21
13.75460184058909
 31
0.0
 11
193.9963041112395
 21
13.77486797460216
 31
0.0
 11
193.9963041112395
 21
13.83089787452064
 31
0.0
 11
193.9963041112395
 21
13.91553878716345
 31
0.0
 11
193.9963041112395
 21
14.0216379593495
 31
0.0
 11
193.9963041112395
 21
14.14204263789773
 31
0.0
 11
193.9963041112395
 21
14.26960006962703
 31
0.0
 11
193.9963041112395
 21
14.39715750135633
 31
0.0
 11
193.9963041112395
 21
14.51756217990456
 31
0.0
 11
193.9963041112395
 21
14.62366135209061
 31
0.0
 11
193.9963041112395
 21
14.70830226473342
 31
0.0
 11
193.9963041112395
 21
14.7643321646519
 31
0.0
 11
193.9963041112395
 21
14.78459829866497
 31
0.0
 11
193.7883272849481
 21
14.59331998274054
 31
0.0
 11
193.5763486358426
 21
14.43414885430808
 31
0.0
 11
193.5495629014483
 21
14.48814671952093
 31
0.0
 11
193.5138765415025
 21
14.54689140572024
 31
0.0
 11
193.4799697494125
 21
14.59192871537974
 31
0.0
 11
193.6830287742319
 21
14.73563387201051
 31
0.0
 11
193.8818531958261
 21
14.91168423529986
 31
0.0
 11
194.0677041444179
 21
15.11327514524948
 31
0.0
 11
194.2318427502303
 21
15.33360194186106
 31
0.0
 11
194.3655301434864
 21
15.56585996513632
 31
0.0
 11
194.3465256724482
 21
15.56585996513632
 31
0.0
 11
194.2944166389562
 21
15.56585996513632
 31
0.0
 11
194.2165596124447
 21
15.56585996513632
 31
0.0
 11
194.1203111623478
 21
15.56585996513632
 31
0.0
 11
194.0130278580997
 21
15.56585996513632
 31
0.0
 11
193.9020662691345
 21
15.56585996513632
 31
0.0
 11
193.7947829648864
 21
15.56585996513632
 31
0.0
 11
193.6985345147895
 21
15.56585996513632
 31
0.0
 11
193.620677488278
 21
15.56585996513632
 31
0.0
 11
193.568568454786
 21
15.56585996513632
 31
0.0
 11
193.5495639837478
 21
15.56585996513632
 31
0.0
 11
193.5495639837478
 21
15.58311199790979
 31
0.0
 11
193.5495639837478
 21
15.62425146067729
 31
0.0
 11
193.5495639837478
 21
15.67335340010946
 31
0.0
 11
193.5495639837478
 21
15.71449286287696
 31
0.0
 11
193.5495639837478
 21
15.73174489565042
 31
0.0
 11
193.5687598486009
 21
15.73174489565042
 31
0.0
 11
193.6193671286684
 21
15.73174489565042
 31
0.0
 11
193.690915352212
 21
15.73174489565042
 31
0.0
 11
193.7729340474937
 21
15.73174489565042
 31
0.0
 11
193.8549527427753
 21
15.73174489565042
 31
0.0
 11
193.9265009663189
 21
15.73174489565042
 31
0.0
 11
193.9771082463864
 21
15.73174489565042
 31
0.0
 11
193.9963041112395
 21
15.73174489565042
 31
0.0
 11
193.9963041112395
 21
15.74926552655215
 31
0.0
 11
193.9963041112395
 21
15.79622081736879
 31
0.0
 11
193.9963041112395
 21
15.8642008652675
 31
0.0
 11
193.9963041112395
 21
15.94479576741546
 31
0.0
 11
193.9963041112395
 21
16.02959562097984
 31
0.0
 11
193.9963041112395
 21
16.1101905231278
 31
0.0
 11
193.9963041112395
 21
16.17817057102651
 31
0.0
 11
193.9963041112395
 21
16.22512586184315
 31
0.0
 11
193.9963041112395
 21
16.24264649274488
 31
0.0
 11
194.0135484112111
 21
16.24165806167517
 31
0.0
 11
194.0566591611401
 21
16.23918698400089
 31
0.0
 11
194.1127031360477
 21
16.23597458302433
 31
0.0
 11
194.1687471109553
 21
16.23276218204778
 31
0.0
 11
194.2118578608843
 21
16.2302911043735
 31
0.0
 11
194.2291021608559
 21
16.22930267330379
 31
0.0
 11
194.2143774674852
 21
16.20556293372637
 31
0.0
 11
194.175621051109
 21
16.19183767331309
 31
0.0
 11
194.175621051109
 21
16.17206806177289
 31
0.0
 11
194.175621051109
 21
16.11994817680329
 31
0.0
 11
194.175621051109
 21
16.04626144288076
 31
0.0
 11
194.175621051109
 21
15.96179128448176
 31
0.0
 11
194.175621051109
 21
15.87732112608275
 31
0.0
 11
194.175621051109
 21
15.80363439216021
 31
0.0
 11
194.175621051109
 21
15.75151450719061
 31
0.0
 11
194.175621051109
 21
15.73174489565042
 31
0.0
 11
194.1916227112935
 21
15.73174489565042
 31
0.0
 11
194.2328901507169
 21
15.73174489565042
 31
0.0
 11
194.2893170576836
 21
15.73174489565042
 31
0.0
 11
194.3507971204981
 21
15.73174489565042
 31
0.0
 11
194.4072240274647
 21
15.73174489565042
 31
0.0
 11
194.4484914668881
 21
15.73174489565042
 31
0.0
 11
194.4644931270727
 21
15.73174489565042
 31
0.0
 11
194.4728206422923
 21
15.73451387455918
 31
0.0
 11
194.4882860277003
 21
15.73965626396115
 31
0.0
 11
194.4966135429199
 21
15.74242524286991
 31
0.0
 11
194.5091363776004
 21
15.73490952398291
 31
0.0
 11
194.5389985218385
 21
15.71698742509851
 31
0.0
 11
194.5746404359292
 21
15.69559653288165
 31
0.0
 11
194.6045025801673
 21
15.67767443399726
 31
0.0
 11
194.6170254148478
 21
15.67015871511025
 31
0.0
  0
SPLINE
  5
B1
102
{ACAD_REACTORS
330
CE
102
}
330
48
100
AcDbEntity
  8
_U_30EC_U_30A4_U_30E4_U_30FC_1
  6
Continuous
 62
     2
100
AcDbSpline
210
0.0
220
0.0
230
1.0
 70
    11
 71
     3
 72
    91
 73
    87
 74
    85
 42
0.000000001
 43
0.0000000001
 44
0.00000001
 40
0.0
 40
0.0
 40
0.0
 40
0.0
 40
0.0267532254356701
 40
0.0856103386464102
 40
0.1444674521996621
 40
0.1712206856618514
 40
0.2039416005642536
 40
0.2955601971652484
 40
0.4362601844616918
 40
0.616225284450725
 40
0.8256392189704698
 40
1.054685709844411
 40
1.293548478893474
 40
1.532411247938218
 40
1.761457738799483
 40
1.970871673298451
 40
2.150836773256647
 40
2.29153676049548
 40
2.383155356836586
 40
2.415876284101206
 40
2.442629517487849
 40
2.501486630948981
 40
2.560343744424128
 40
2.587096977826401
 40
2.6170681944408
 40
2.699247336755941
 40
2.822032643466254
 40
2.973822353257755
 40
3.143014704823197
 40
3.318007936879748
 40
3.487200288186581
 40
3.638989997548062
 40
3.761775303794532
 40
3.843954445752867
 40
3.873925662229563
 40
3.890812773500216
 40
3.907699884771341
 40
3.937960767856948
 40
3.980983618141896
 40
4.199085915228078
 40
4.439444339236858
 40
4.677588241260471
 40
5.050698317837329
 40
5.448212454762658
 40
5.855291218044268
 40
6.138575438884984
 40
6.417434507583777
 40
6.444551104393409
 40
6.504207617362709
 40
6.563864130313982
 40
6.590980727103525
 40
6.848609460380929
 40
7.109611990667887
 40
7.352910904445586
 40
7.557830220705007
 40
7.5875189259129
 40
7.652834077375316
 40
7.718149228845272
 40
7.74783793406155
 40
7.854880190300559
 40
7.976511257403097
 40
8.369487896591869
 40
8.75751495922319
 40
9.126072419330681
 40
9.460639380391772
 40
9.746695593035456
 40
9.777569943118232
 40
9.807050320931404
 40
9.830377336128528
 40
9.8860032954356
 40
9.952395569429491
 40
10.00802152870585
 40
10.03134854388177
 40
10.2135695100955
 40
10.42203479292821
 40
10.66154556731017
 40
10.9169378956426
 40
11.15832906556522
 40
11.18982674596577
 40
11.27286608520364
 40
11.39026653033308
 40
11.52484752840842
 40
11.65942852648398
 40
11.7768289716144
 40
11.85986831085636
 40
11.89136598230382
 40
11.89136598230382
 40
11.89136598230382
 40
11.89136598230382
 10
190.7027885008197
 20
14.70699600701769
 30
0.0
 10
190.7028237765289
 20
14.71587847311982
 30
0.0
 10
190.7029366710797
 20
14.74430237047343
 30
0.0
 10
190.7012984568489
 20
14.794096391698
 30
0.0
 10
190.7069750292912
 20
14.83657564478151
 30
0.0
 10
190.6956928731707
 20
14.88730154856844
 30
0.0
 10
190.7632296979033
 20
14.87012900740105
 30
0.0
 10
190.8388029210701
 20
14.88290227165993
 30
0.0
 10
190.9828357056001
 20
14.87629729457378
 30
0.0
 10
191.1569419185428
 20
14.87888462206463
 30
0.0
 10
191.3639599611004
 20
14.8780059195555
 30
0.0
 10
191.5894688172378
 20
14.87828207920023
 30
0.0
 10
191.8251162293406
 20
14.8781833965866
 30
0.0
 10
192.0607640531349
 20
14.87828184412764
 30
0.0
 10
192.2862717580626
 20
14.87800678190786
 30
0.0
 10
192.4932934632805
 20
14.87888186270732
 30
0.0
 10
192.6673888915288
 20
14.87630522678444
 30
0.0
 10
192.8114492071986
 20
14.8828829044921
 30
0.0
 10
192.8869691915292
 20
14.87016243405601
 30
0.0
 10
192.954577603703
 20
14.88726400191684
 30
0.0
 10
192.9430840140676
 20
14.83674785802937
 30
0.0
 10
192.9505104581733
 20
14.79253252226498
 30
0.0
 10
192.9428838927986
 20
14.74867966503607
 30
0.0
 10
192.9546489459425
 20
14.69878374479326
 30
0.0
 10
192.8930788491983
 20
14.71393227712508
 30
0.0
 10
192.8256791738672
 20
14.70310665350671
 30
0.0
 10
192.7013004056221
 20
14.70852031626232
 30
0.0
 10
192.5554428236571
 20
14.70649205390782
 30
0.0
 10
192.3893576440086
 20
14.70715777578384
 30
0.0
 10
192.2188412621725
 20
14.70689643521239
 30
0.0
 10
192.051979085539
 20
14.70721553391092
 30
0.0
 10
191.9087346827106
 20
14.70635302590759
 30
0.0
 10
191.7773313869835
 20
14.70863300482986
 30
0.0
 10
191.7239859134658
 20
14.70407704374198
 30
0.0
 10
191.6485188456913
 20
14.70999914992875
 30
0.0
 10
191.6769075779233
 20
14.7009416934335
 30
0.0
 10
191.7033652409542
 20
14.69725912268925
 30
0.0
 10
191.6633522907701
 20
14.66654271968273
 30
0.0
 10
191.5713663691869
 20
14.67667591174625
 30
0.0
 10
191.5439396207069
 20
14.43032502247786
 30
0.0
 10
191.4478793967235
 20
14.27499558764372
 30
0.0
 10
191.1917277964474
 20
13.94525417931565
 30
0.0
 10
191.7627537732763
 20
14.08430022210448
 30
0.0
 10
192.0173656320516
 20
14.08291779973359
 30
0.0
 10
192.6279647048618
 20
13.9979056924208
 30
0.0
 10
192.3340698578083
 20
14.29685417558201
 30
0.0
 10
192.0133304286521
 20
14.44330856901769
 30
0.0
 10
192.1313543360434
 20
14.50025540818286
 30
0.0
 10
192.1724716466261
 20
14.52420099873344
 30
0.0
 10
192.215681239441
 20
14.54599758811226
 30
0.0
 10
192.317457409445
 20
14.60928721253909
 30
0.0
 10
192.4328867625247
 20
14.35147151408774
 30
0.0
 10
192.6329591642276
 20
14.2161604111368
 30
0.0
 10
192.7269077387228
 20
14.03792795138876
 30
0.0
 10
192.9558829746393
 20
13.8799782102705
 30
0.0
 10
192.8596031846709
 20
13.82915972576296
 30
0.0
 10
192.816795976378
 20
13.79881292523051
 30
0.0
 10
192.771824352878
 20
13.77466130281459
 30
0.0
 10
192.7121720925215
 20
13.72552146747565
 30
0.0
 10
192.6789731061324
 20
13.85997475673603
 30
0.0
 10
192.5582013350796
 20
14.01594265286579
 30
0.0
 10
192.1970976005979
 20
13.88569928059552
 30
0.0
 10
191.8385061955541
 20
13.90224694409481
 30
0.0
 10
191.457092045008
 20
13.89331229351862
 30
0.0
 10
191.170345528289
 20
13.82882671672404
 30
0.0
 10
190.8592055599715
 20
13.94230668192823
 30
0.0
 10
190.8268737818788
 20
13.83122259927762
 30
0.0
 10
190.7896178253317
 20
13.8119631385001
 30
0.0
 10
190.7865737632753
 20
13.85874784087295
 30
0.0
 10
190.7679892860606
 20
13.89806853919132
 30
0.0
 10
190.7512436616777
 20
13.95765983478232
 30
0.0
 10
190.7383730915753
 20
14.0020196987128
 30
0.0
 10
190.7042327806428
 20
14.09106331120201
 30
0.0
 10
190.9482714457754
 20
14.02181042943767
 30
0.0
 10
191.144139448667
 20
14.00030369057747
 30
0.0
 10
191.2395426381277
 20
14.2822648447846
 30
0.0
 10
191.2945135769597
 20
14.44363045421119
 30
0.0
 10
191.5159619357156
 20
14.71391177589735
 30
0.0
 10
191.3849239381217
 20
14.70548446853731
 30
0.0
 10
191.3110026555855
 20
14.70779008496967
 30
0.0
 10
191.1977459876244
 20
14.70671378321654
 30
0.0
 10
191.0694251807485
 20
14.70707639076507
 30
0.0
 10
190.9404252030416
 20
14.70697724466082
 30
0.0
 10
190.8287840946292
 20
14.70699932712568
 30
0.0
 10
190.7514663970028
 20
14.70699579189668
 30
0.0
 10
190.7132876532011
 20
14.70699595845078
 30
0.0
 10
190.7027885008197
 20
14.70699600701769
 30
0.0
 11
190.7027885008197
 21
14.70699600701769
 31
0.0
 11
190.7027885008197
 21
14.73374924051794
 31
0.0
 11
190.7027885008197
 21
14.7926063542185
 31
0.0
 11
190.7027885008197
 21
14.85146346791906
 31
0.0
 11
190.7027885008197
 21
14.87821670141932
 31
0.0
 11
190.735509428099
 21
14.87821670141932
 31
0.0
 11
190.827128024481
 21
14.87821670141932
 31
0.0
 11
190.967828011782
 21
14.87821670141932
 31
0.0
 11
191.1477931118181
 21
14.87821670141932
 31
0.0
 11
191.3572070464055
 21
14.87821670141932
 31
0.0
 11
191.5862535373605
 21
14.87821670141932
 31
0.0
 11
191.8251163064993
 21
14.87821670141932
 31
0.0
 11
192.0639790756381
 21
14.87821670141932
 31
0.0
 11
192.2930255665931
 21
14.87821670141932
 31
0.0
 11
192.5024395011806
 21
14.87821670141932
 31
0.0
 11
192.6824046012167
 21
14.87821670141932
 31
0.0
 11
192.8231045885176
 21
14.87821670141932
 31
0.0
 11
192.9147231848996
 21
14.87821670141932
 31
0.0
 11
192.9474441121789
 21
14.87821670141932
 31
0.0
 11
192.9474441121789
 21
14.85146346791906
 31
0.0
 11
192.9474441121789
 21
14.7926063542185
 31
0.0
 11
192.9474441121789
 21
14.73374924051794
 31
0.0
 11
192.9474441121789
 21
14.70699600701769
 31
0.0
 11
192.9174728954758
 21
14.70699600701769
 31
0.0
 11
192.8352937529027
 21
14.70699600701769
 31
0.0
 11
192.712508445764
 21
14.70699600701769
 31
0.0
 11
192.5607187353642
 21
14.70699600701769
 31
0.0
 11
192.3915263830078
 21
14.70699600701769
 31
0.0
 11
192.2165331499992
 21
14.70699600701769
 31
0.0
 11
192.0473407976427
 21
14.70699600701769
 31
0.0
 11
191.8955510872429
 21
14.70699600701769
 31
0.0
 11
191.7727657801043
 21
14.70699600701769
 31
0.0
 11
191.6905866375311
 21
14.70699600701769
 31
0.0
 11
191.660615420828
 21
14.70699600701769
 31
0.0
 11
191.6766359412526
 21
14.70165583340791
 31
0.0
 11
191.6926564616771
 21
14.69631565979812
 31
0.0
 11
191.670615568142
 21
14.67558114591439
 31
0.0
 11
191.6284861855364
 21
14.66685871536107
 31
0.0
 11
191.5365235541377
 21
14.46909247312654
 31
0.0
 11
191.4279078521764
 21
14.25467511978506
 31
0.0
 11
191.3127500824808
 21
14.04622559051617
 31
0.0
 11
191.6857366675021
 21
14.05582441253026
 31
0.0
 11
192.083070003615
 21
14.06781232404991
 31
0.0
 11
192.4899342191146
 21
14.08102711828529
 31
0.0
 11
192.2983119496979
 21
14.28966761302478
 31
0.0
 11
192.0966752013699
 21
14.48229420151829
 31
0.0
 11
192.120494779475
 21
14.49525327269561
 31
0.0
 11
192.1728978513062
 21
14.52376322928573
 31
0.0
 11
192.2253009231373
 21
14.55227318587584
 31
0.0
 11
192.2491205012424
 21
14.56523225705317
 31
0.0
 11
192.4387101558626
 21
14.39079508370265
 31
0.0
 11
192.6200310940435
 21
14.20305846374088
 31
0.0
 11
192.7777729231147
 21
14.01782380992433
 31
0.0
 11
192.8966252504059
 21
13.85089253500946
 31
0.0
 11
192.8715408217924
 21
13.83501202286066
 31
0.0
 11
192.8163550788427
 21
13.8000748961333
 31
0.0
 11
192.7611693358929
 21
13.76513776940594
 31
0.0
 11
192.7360849072794
 21
13.74925725725714
 31
0.0
 11
192.6775518151612
 21
13.83887824681807
 31
0.0
 11
192.6050015078457
 21
13.93650288221029
 31
0.0
 11
192.2125412924095
 21
13.91636286943756
 31
0.0
 11
191.824947406956
 21
13.89803302999771
 31
0.0
 11
191.4567378976213
 21
13.88202178722393
 31
0.0
 11
191.1224308105412
 21
13.86883756444945
 31
0.0
 11
190.8365441918518
 21
13.85898878500747
 31
0.0
 11
190.821186232174
 21
13.83220523466692
 31
0.0
 11
190.7937434290545
 21
13.82143559057244
 31
0.0
 11
190.7867927192319
 21
13.84370299445576
 31
0.0
 11
190.7702179496548
 21
13.89680218833137
 31
0.0
 11
190.7504351601596
 21
13.96017864553774
 31
0.0
 11
190.7338603905825
 21
14.01327783941335
 31
0.0
 11
190.7269096807598
 21
14.03554524329667
 31
0.0
 11
190.9091199859153
 21
14.03751638912949
 31
0.0
 11
191.1174975848587
 21
14.0435621182947
 31
0.0
 11
191.2303203127216
 21
14.25483550301552
 31
0.0
 11
191.3407936722035
 21
14.48509813155876
 31
0.0
 11
191.4358254265628
 21
14.70699600701769
 31
0.0
 11
191.4043277461598
 21
14.70699600701769
 31
0.0
 11
191.3212884069154
 21
14.70699600701769
 31
0.0
 11
191.2038879617769
 21
14.70699600701769
 31
0.0
 11
191.0693069636912
 21
14.70699600701769
 31
0.0
 11
190.9347259656056
 21
14.70699600701769
 31
0.0
 11
190.8173255204671
 21
14.70699600701769
 31
0.0
 11
190.7342861812227
 21
14.70699600701769
 31
0.0
 11
190.7027885008197
 21
14.70699600701769
 31
0.0
  0
SPLINE
  5
B2
102
{ACAD_REACTORS
330
CF
102
}
330
48
100
AcDbEntity
  8
_U_30EC_U_30A4_U_30E4_U_30FC_1
  6
Continuous
 62
     2
100
AcDbSpline
210
0.0
220
0.0
230
1.0
 70
    11
 71
     3
 72
    35
 73
    31
 74
    29
 42
0.000000001
 43
0.0000000001
 44
0.00000001
 40
0.0
 40
0.0
 40
0.0
 40
0.0
 40
0.0335231036620728
 40
0.0713218571712147
 40
0.4278866681487152
 40
0.8116865841963721
 40
1.198190238000029
 40
1.561379546812706
 40
1.659983174622043
 40
1.759315573807212
 40
2.1327196172311
 40
2.525233363588805
 40
2.910815397779757
 40
3.265244364303361
 40
3.59260672358203
 40
3.964386154603955
 40
4.359942131737773
 40
4.758154118639328
 40
4.843846538699884
 40
4.936650065543213
 40
5.256616602537289
 40
5.581707404415998
 40
5.899719158308135
 40
6.1983634942807
 40
6.466301046615765
 40
6.493895311537086
 40
6.559697020196822
 40
6.638234543442397
 40
6.70403625215412
 40
6.731630508422898
 40
6.731630508422898
 40
6.731630508422898
 40
6.731630508422898
 10
191.9736010568669
 20
16.23463843719132
 30
0.0
 10
191.9676006097789
 20
16.2248069054232
 30
0.0
 10
191.9548344099157
 20
16.20388988579795
 30
0.0
 10
191.7949362006554
 20
16.17127126532685
 30
0.0
 10
192.2322025842336
 20
15.88206680336701
 30
0.0
 10
192.4345394828261
 20
15.68041138358434
 30
0.0
 10
192.6819564267973
 20
15.4374938760327
 30
0.0
 10
193.1831513624606
 20
15.36047662757781
 30
0.0
 10
193.012556219897
 20
15.2187693917465
 30
0.0
 10
192.93832994632
 20
15.01710366209109
 30
0.0
 10
192.6131432248188
 20
15.36956287174718
 30
0.0
 10
192.3277741670664
 20
15.53175212559566
 30
0.0
 10
192.0337604077657
 20
15.7368713005304
 30
0.0
 10
191.8084452691133
 20
16.21827488595452
 30
0.0
 10
191.5993085055521
 20
15.75343046609218
 30
0.0
 10
191.3207873674835
 20
15.54350952252908
 30
0.0
 10
191.0371383177209
 20
15.37424456359984
 30
0.0
 10
190.707863952783
 20
15.00142360907928
 30
0.0
 10
190.6277012318225
 20
15.19708014459002
 30
0.0
 10
190.4759724909744
 20
15.32491104190593
 30
0.0
 10
190.9083395826796
 20
15.40454031765933
 30
0.0
 10
191.0962565329766
 20
15.60026634915473
 30
0.0
 10
191.3468477420505
 20
15.81632996916749
 30
0.0
 10
191.571435047016
 20
15.9819099230006
 30
0.0
 10
191.6259775409715
 20
16.26133964636823
 30
0.0
 10
191.7494661029012
 20
16.24737950408076
 30
0.0
 10
191.8060273344521
 20
16.24521268867645
 30
0.0
 10
191.8761870984945
 20
16.24046859881358
 30
0.0
 10
191.9333414022106
 20
16.2370942935054
 30
0.0
 10
191.9644190320839
 20
16.23519854711117
 30
0.0
 10
191.9736010568669
 20
16.23463843719132
 30
0.0
 11
191.9736010568669
 21
16.23463843719132
 31
0.0
 11
191.9525319069884
 21
16.20856374969782
 31
0.0
 11
191.9174464559425
 21
16.19450114553466
 31
0.0
 11
192.1512374769094
 21
15.92527961131379
 31
0.0
 11
192.4414585957566
 21
15.67413407969257
 31
0.0
 11
192.7612797483683
 21
15.45710987618781
 31
0.0
 11
193.0838708706289
 21
15.29025232631635
 31
0.0
 11
193.0213299868077
 21
15.21402035584925
 31
0.0
 11
192.9688035818975
 21
15.12971197913421
 31
0.0
 11
192.6436279095814
 21
15.31326404831577
 31
0.0
 11
192.3237227768436
 21
15.54070139743426
 31
0.0
 11
192.0354200158607
 21
15.79673855123307
 31
0.0
 11
191.8050514588094
 21
16.06609003445563
 31
0.0
 11
191.5995531719516
 21
15.81126348721033
 31
0.0
 11
191.3288301341536
 21
15.55645182277753
 31
0.0
 11
191.0119538423247
 21
15.31969466354854
 31
0.0
 11
190.6679957933741
 21
15.11903163191465
 31
0.0
 11
190.6218855341339
 21
15.19126067703551
 31
0.0
 11
190.5636970460349
 21
15.26355586798965
 31
0.0
 11
190.8433040489016
 21
15.41911456961742
 31
0.0
 11
191.1093004621155
 21
15.60601009790402
 31
0.0
 11
191.3499997459747
 21
15.81384496285206
 31
0.0
 11
191.5537153607775
 21
16.03222167446413
 31
0.0
 11
191.7087607668219
 21
16.25074274274284
 31
0.0
 11
191.7363041569866
 21
16.24906789496548
 31
0.0
 11
191.8019845489177
 21
16.24507402718871
 31
0.0
 11
191.8803772747711
 21
16.24030715274546
 31
0.0
 11
191.9460576667022
 21
16.23631328496868
 31
0.0
 11
191.9736010568669
 21
16.23463843719132
 31
0.0
  0
SPLINE
  5
B3
102
{ACAD_REACTORS
330
D0
102
}
330
48
100
AcDbEntity
  8
_U_30EC_U_30A4_U_30E4_U_30FC_1
  6
Continuous
 62
     2
100
AcDbSpline
210
0.0
220
0.0
230
1.0
 70
    11
 71
     3
 72
    15
 73
    11
 74
     9
 42
0.000000001
 43
0.0000000001
 44
0.00000001
 40
0.0
 40
0.0
 40
0.0
 40
0.0
 40
0.2785535985096388
 40
0.5215624748198284
 40
0.607691737603992
 40
0.6938210001740642
 40
0.9405019146454229
 40
1.221691403489075
 40
1.300471877081018
 40
1.379252341684834
 40
1.379252341684834
 40
1.379252341684834
 40
1.379252341684834
 10
189.5681493631
 20
16.22930267330379
 30
0.0
 10
189.6296017794178
 20
16.17691646592714
 30
0.0
 10
189.7446649974114
 20
16.07882876798221
 30
0.0
 10
190.0397348497243
 20
15.92889785897218
 30
0.0
 10
189.9025147631856
 20
15.84343227515011
 30
0.0
 10
189.8041227843779
 20
15.71085785201553
 30
0.0
 10
189.7130033590649
 20
16.01616985781419
 30
0.0
 10
189.3636839480656
 20
16.07967869465372
 30
0.0
 10
189.511925837657
 20
16.17896509880876
 30
0.0
 10
189.5494081874237
 20
16.2125234840238
 30
0.0
 10
189.5681493631
 20
16.22930267330379
 30
0.0
 11
189.5681493631
 21
16.22930267330379
 31
0.0
 11
189.7919222440597
 21
16.0634177427897
 31
0.0
 11
189.9695046306383
 21
15.89753281227561
 31
0.0
 11
189.9066308127979
 21
15.83866743034589
 31
0.0
 11
189.8437569949575
 21
15.77980204841617
 31
0.0
 11
189.6688535117725
 21
15.95375677059488
 31
0.0
 11
189.447825685614
 21
16.12757920110699
 31
0.0
 11
189.507987524357
 21
16.17844093720539
 31
0.0
 11
189.5681493631
 21
16.22930267330379
 31
0.0
  0
SPLINE
  5
B4
102
{ACAD_REACTORS
330
D1
102
}
330
48
100
AcDbEntity
  8
_U_30EC_U_30A4_U_30E4_U_30FC_1
  6
Continuous
 62
     2
100
AcDbSpline
210
0.0
220
0.0
230
1.0
 70
    11
 71
     3
 72
    75
 73
    71
 74
    69
 42
0.000000001
 43
0.0000000001
 44
0.00000001
 40
0.0
 40
0.0
 40
0.0
 40
0.0
 40
0.0342546099129691
 40
0.1245622414432329
 40
0.25223854808975
 40
0.3985991922940627
 40
0.5449598364980768
 40
0.6726361431438745
 40
0.7629437746736836
 40
0.7971983935297866
 40
1.101723623449649
 40
1.408591244036569
 40
1.433332471690278
 40
1.487763172450077
 40
1.542193873081912
 40
1.56693510059246
 40
1.923523931821714
 40
2.271755704953542
 40
2.590579755100783
 40
2.858943305581066
 40
2.889120339309098
 40
2.918305855190976
 40
2.941366645531101
 40
2.996357760973014
 40
3.061992318140599
 40
3.116983433626798
 40
3.140044223997488
 40
3.411273122936575
 40
3.732441619741183
 40
3.761068217532883
 40
3.837787499630443
 40
3.948858699126082
 40
4.080541049104457
 40
4.219093782625843
 40
4.350776132722394
 40
4.461847332405726
 40
4.53856661467846
 40
4.567193212544706
 40
4.594907573998964
 40
4.666381453557503
 40
4.764111044011085
 40
4.870592538125888
 40
4.968322128642282
 40
5.039796008286996
 40
5.067510369784427
 40
5.094263603185641
 40
5.153120716668277
 40
5.211977830150725
 40
5.23873106355173
 40
5.272290535138997
 40
5.363380529444801
 40
5.497618415781479
 40
5.660621563453721
 40
5.838007341749422
 40
6.015393119910745
 40
6.178396267038342
 40
6.312634151842293
 40
6.403724143059283
 40
6.437283612672378
 40
6.464036846260995
 40
6.52289396000461
 40
6.581751071483876
 40
6.608504301590824
 40
6.637253941280972
 40
6.711397748902823
 40
6.812778057283436
 40
6.923237199249212
 40
7.024617507623856
 40
7.098761315207509
 40
7.127510946007459
 40
7.127510946007459
 40
7.127510946007459
 40
7.127510946007459
 10
188.4418622390564
 20
14.95849128473261
 30
0.0
 10
188.4418622819707
 20
14.94707313408717
 30
0.0
 10
188.4418624481128
 20
14.90555257842626
 30
0.0
 10
188.4418593081787
 20
14.82146922003769
 30
0.0
 10
188.4418788279801
 20
14.70004497322325
 30
0.0
 10
188.4417912187737
 20
14.55980494047445
 30
0.0
 10
188.442111623523
 20
14.42006556794573
 30
0.0
 10
188.4411605909741
 20
14.29745038894927
 30
0.0
 10
188.4431978595967
 20
14.2158707443804
 30
0.0
 10
188.4349433178746
 20
14.06271267077696
 30
0.0
 10
188.74307979409
 20
14.22560236054715
 30
0.0
 10
189.0350645173738
 20
14.39482938687999
 30
0.0
 10
189.0408354448706
 20
14.25973235781908
 30
0.0
 10
189.0455471719891
 20
14.21617221160441
 30
0.0
 10
189.0482535411918
 20
14.17211249350542
 30
0.0
 10
189.0672545672957
 20
14.02272590363131
 30
0.0
 10
188.6583942247303
 20
14.08681172241258
 30
0.0
 10
188.3793710348832
 20
13.97296341411014
 30
0.0
 10
188.1018081587166
 20
13.87364095811141
 30
0.0
 10
187.8099837184402
 20
13.91630687596352
 30
0.0
 10
187.7869144678657
 20
13.81321679744542
 30
0.0
 10
187.7537474383334
 20
13.78691091244467
 30
0.0
 10
187.7480653962739
 20
13.83455309036304
 30
0.0
 10
187.7284214559044
 20
13.87180336115067
 30
0.0
 10
187.7095089485622
 20
13.9300738784756
 30
0.0
 10
187.6942849867707
 20
13.97385201007803
 30
0.0
 10
187.6477246372933
 20
14.08759421046311
 30
0.0
 10
187.9890897312451
 20
14.05576301120047
 30
0.0
 10
188.2679649367383
 20
14.02161435106475
 30
0.0
 10
188.2617753034907
 20
14.1691397647965
 30
0.0
 10
188.2630935452773
 20
14.24013150908829
 30
0.0
 10
188.2624831689948
 20
14.34719767958659
 30
0.0
 10
188.2625871570725
 20
14.47398529785994
 30
0.0
 10
188.2629987964055
 20
14.60849243496047
 30
0.0
 10
188.2613907841969
 20
14.73395549951181
 30
0.0
 10
188.2659902567925
 20
14.84505246719114
 30
0.0
 10
188.256418650221
 20
14.90761886800685
 30
0.0
 10
188.2704001783692
 20
14.96595388294998
 30
0.0
 10
188.2147384386704
 20
14.95289710582235
 30
0.0
 10
188.1575655197822
 20
14.96136307749495
 30
0.0
 10
188.0616048925647
 20
14.95729976080633
 30
0.0
 10
187.9633767522822
 20
14.95970889852471
 30
0.0
 10
187.8672582457561
 20
14.95551600613385
 30
0.0
 10
187.8104648525812
 20
14.9642934644116
 30
0.0
 10
187.7550356873385
 20
14.95094936850118
 30
0.0
 10
187.7670679427919
 20
15.00036910959254
 30
0.0
 10
187.7592003173938
 20
15.04393988030392
 30
0.0
 10
187.766629556383
 20
15.08830469118522
 30
0.0
 10
187.7551930564144
 20
15.13902297763989
 30
0.0
 10
187.8232102370134
 20
15.1216246075774
 30
0.0
 10
187.8968496879747
 20
15.13417450237186
 30
0.0
 10
188.0325064058211
 20
15.12799677011094
 30
0.0
 10
188.1884909024526
 20
15.13029203093081
 30
0.0
 10
188.3615926358144
 20
15.12940968262527
 30
0.0
 10
188.5346942964181
 20
15.13029207142405
 30
0.0
 10
188.6906789811217
 20
15.12799662955547
 30
0.0
 10
188.8263351889797
 20
15.13417486262428
 30
0.0
 10
188.8999756705652
 20
15.12162394218332
 30
0.0
 10
188.9679914174724
 20
15.1390237301214
 30
0.0
 10
188.9565590885921
 20
15.08830130414551
 30
0.0
 10
188.9639539458297
 20
15.04397060811105
 30
0.0
 10
188.956203991227
 20
15.00028307550193
 30
0.0
 10
188.9681203741877
 20
14.95063590098474
 30
0.0
 10
188.9108170223616
 20
14.96461411338422
 30
0.0
 10
188.8520145789772
 20
14.95539755673251
 30
0.0
 10
188.7525293633199
 20
14.95952268164926
 30
0.0
 10
188.649428009835
 20
14.95822760025885
 30
0.0
 10
188.5537846354573
 20
14.95854077077637
 30
0.0
 10
188.4857467971617
 20
14.95848776697142
 30
0.0
 10
188.4514462213443
 20
14.95849051871653
 30
0.0
 10
188.4418622390564
 20
14.95849128473261
 30
0.0
 11
188.4418622390564
 21
14.95849128473261
 31
0.0
 11
188.4418622390564
 21
14.92423666587182
 31
0.0
 11
188.4418622390564
 21
14.83392903432972
 31
0.0
 11
188.4418622390564
 21
14.70625272766676
 31
0.0
 11
188.4418622390564
 21
14.55989208344337
 31
0.0
 11
188.4418622390564
 21
14.41353143921998
 31
0.0
 11
188.4418622390564
 21
14.28585513255702
 31
0.0
 11
188.4418622390564
 21
14.19554750101493
 31
0.0
 11
188.4418622390564
 21
14.16129288215413
 31
0.0
 11
188.7391932644567
 21
14.22709475713766
 31
0.0
 11
189.0384623627244
 21
14.29496038212069
 31
0.0
 11
189.0405487124976
 21
14.27030727882824
 31
0.0
 11
189.0451386819986
 21
14.21607045158487
 31
0.0
 11
189.0497286514996
 21
14.16183362434148
 31
0.0
 11
189.0518150012728
 21
14.13718052104904
 31
0.0
 11
188.705639688924
 21
14.05163370140895
 31
0.0
 11
188.3669653138838
 21
13.97060877629899
 31
0.0
 11
188.0563731516688
 21
13.89862764024927
 31
0.0
 11
187.7944444777955
 21
13.8402121877899
 31
0.0
 11
187.7817515029292
 21
13.81283442738011
 31
0.0
 11
187.7569794787514
 21
13.79740260446732
 31
0.0
 11
187.7491867589502
 21
13.81910683390634
 31
0.0
 11
187.7306041194242
 21
13.87086307333783
 31
0.0
 11
187.7084248399899
 21
13.93263664943349
 31
0.0
 11
187.6898422004639
 21
13.98439288886498
 31
0.0
 11
187.6820494806627
 21
14.006097118304
 31
0.0
 11
187.9482776335932
 21
14.05794001759663
 31
0.0
 11
188.2626334936289
 21
14.12373968771907
 31
0.0
 11
188.2626334936289
 21
14.15236628569622
 31
0.0
 11
188.2626334936289
 21
14.22908556827496
 31
0.0
 11
188.2626334936289
 21
14.34015676842628
 31
0.0
 11
188.2626334936289
 21
14.47183911912115
 31
0.0
 11
188.2626334936289
 21
14.61039185333053
 31
0.0
 11
188.2626334936289
 21
14.7420742040254
 31
0.0
 11
188.2626334936289
 21
14.85314540417671
 31
0.0
 11
188.2626334936289
 21
14.92986468675547
 31
0.0
 11
188.2626334936289
 21
14.95849128473261
 31
0.0
 11
188.2349191321108
 21
14.95849128473261
 31
0.0
 11
188.1634452524063
 21
14.95849128473261
 31
0.0
 11
188.0657156617901
 21
14.95849128473261
 31
0.0
 11
187.9592341675364
 21
14.95849128473261
 31
0.0
 11
187.8615045769201
 21
14.95849128473261
 31
0.0
 11
187.7900306972156
 21
14.95849128473261
 31
0.0
 11
187.7623163356976
 21
14.95849128473261
 31
0.0
 11
187.7623163356976
 21
14.98524451823286
 31
0.0
 11
187.7623163356976
 21
15.04410163193341
 31
0.0
 11
187.7623163356976
 21
15.10295874563396
 31
0.0
 11
187.7623163356976
 21
15.12971197913421
 31
0.0
 11
187.7958758072876
 21
15.12971197913421
 31
0.0
 11
187.8869658016031
 21
15.12971197913421
 31
0.0
 11
188.021203687963
 21
15.12971197913421
 31
0.0
 11
188.1842068356856
 21
15.12971197913421
 31
0.0
 11
188.3615926140897
 21
15.12971197913421
 31
0.0
 11
188.5389783924938
 21
15.12971197913421
 31
0.0
 11
188.7019815402164
 21
15.12971197913421
 31
0.0
 11
188.8362194265763
 21
15.12971197913421
 31
0.0
 11
188.9273094208918
 21
15.12971197913421
 31
0.0
 11
188.9608688924818
 21
15.12971197913421
 31
0.0
 11
188.9608688924818
 21
15.10295874563396
 31
0.0
 11
188.9608688924818
 21
15.04410163193341
 31
0.0
 11
188.9608688924818
 21
14.98524451823286
 31
0.0
 11
188.9608688924818
 21
14.95849128473261
 31
0.0
 11
188.9321192527877
 21
14.95849128473261
 31
0.0
 11
188.8579754451555
 21
14.95849128473261
 31
0.0
 11
188.7565951367604
 21
14.95849128473261
 31
0.0
 11
188.6461359947778
 21
14.95849128473261
 31
0.0
 11
188.5447556863827
 21
14.95849128473261
 31
0.0
 11
188.4706118787505
 21
14.95849128473261
 31
0.0
 11
188.4418622390564
 21
14.95849128473261
 31
0.0
  0
SPLINE
  5
B5
102
{ACAD_REACTORS
330
D2
102
}
330
48
100
AcDbEntity
  8
_U_30EC_U_30A4_U_30E4_U_30FC_1
  6
Continuous
 62
     2
100
AcDbSpline
210
0.0
220
0.0
230
1.0
 70
    11
 71
     3
 72
    91
 73
    87
 74
    85
 42
0.000000001
 43
0.0000000001
 44
0.00000001
 40
0.0
 40
0.0
 40
0.0
 40
0.0
 40
0.0345987051695718
 40
0.1258134969461085
 40
0.2547723404888703
 40
0.4026032099153556
 40
0.550434079341642
 40
0.6793929228835227
 40
0.7706077146570467
 40
0.8052064287780072
 40
1.124852390615192
 40
1.427402236308793
 40
1.706356627453431
 40
1.955541417875104
 40
2.169485938566249
 40
2.344350786664708
 40
2.480568411561839
 40
2.590440557428834
 40
2.649189927150989
 40
2.749320643306215
 40
2.912632739879913
 40
3.147745656000099
 40
3.244827496385035
 40
3.338490056946651
 40
3.583815413207072
 40
3.761423943238428
 40
3.886956104362588
 40
3.985855451886773
 40
4.091766255337602
 40
4.250186473811822
 40
4.422734315084489
 40
4.6282856848386
 40
4.872093227758444
 40
5.152549652145555
 40
5.464967135837534
 40
5.803201477852447
 40
6.160362988813922
 40
6.193449448276006
 40
6.28417038550166
 40
6.41971813876453
 40
6.587285046385809
 40
6.774063446723694
 40
6.967245678113677
 40
7.15402407881772
 40
7.321590987026077
 40
7.457138740890436
 40
7.5478596785562
 40
7.58094613818276
 40
7.608533084714812
 40
7.669224367077787
 40
7.729915649430001
 40
7.757502595950054
 40
7.790278062553508
 40
7.880146277431006
 40
8.014419963180469
 40
8.18041184239797
 40
8.365434637679439
 40
8.55680107162274
 40
8.741823866830853
 40
8.907815745916363
 40
9.042089431507517
 40
9.131957646249642
 40
9.164733112797219
 40
9.415425063140136
 40
9.667986180958602
 40
9.69416980746274
 40
9.756607686047673
 40
9.83113031532248
 40
9.893568193899887
 40
9.919751820398703
 40
9.950967964690511
 40
9.996421631210673
 40
10.22087981037456
 40
10.44341866197544
 40
10.47847970788857
 40
10.57091337438757
 40
10.70159545461235
 40
10.85140174170368
 40
11.00120802880486
 40
11.13189010907391
 40
11.22432377583022
 40
11.25938480938968
 40
11.28697175596156
 40
11.3476630383593
 40
11.40835432042081
 40
11.43594125892115
 40
11.43594125892115
 40
11.43594125892115
 40
11.43594125892115
 10
190.0818114333289
 20
15.55242795125075
 30
0.0
 10
190.070278584494
 20
15.55242790287913
 30
0.0
 10
190.0283409444999
 20
15.55242773704162
 30
0.0
 10
189.9434129719025
 20
15.55243125800907
 30
0.0
 10
189.8207688553129
 20
15.55240926435877
 30
0.0
 10
189.6791206916993
 20
15.55250801177052
 30
0.0
 10
189.537975369849
 20
15.55214686232418
 30
0.0
 10
189.4141351317905
 20
15.55321883609087
 30
0.0
 10
189.3317217825382
 20
15.55092249091266
 30
0.0
 10
189.1727791229694
 20
15.56048569373419
 30
0.0
 10
189.3503402353376
 20
15.19785394311367
 30
0.0
 10
189.3379739205454
 20
14.95243127723112
 30
0.0
 10
189.4064519473865
 20
14.66862501324834
 30
0.0
 10
189.4693024320971
 20
14.43250999939032
 30
0.0
 10
189.5452253431729
 20
14.23326740396127
 30
0.0
 10
189.6303189577016
 20
14.07745347451372
 30
0.0
 10
189.7244607592936
 20
13.9765785778139
 30
0.0
 10
189.8282648207727
 20
13.92465852638962
 30
0.0
 10
189.9125872030774
 20
13.97606484379615
 30
0.0
 10
189.9351322179452
 20
14.09144544037512
 30
0.0
 10
189.9745730975371
 20
14.2188514970238
 30
0.0
 10
189.9202919734941
 20
14.53622328086751
 30
0.0
 10
190.0451218072473
 20
14.38982180140902
 30
0.0
 10
190.2019291513602
 20
14.3579530033117
 30
0.0
 10
190.0947720007057
 20
14.12421357767625
 30
0.0
 10
190.0808711209868
 20
13.95972776583654
 30
0.0
 10
190.0234709467226
 20
13.83130869122479
 30
0.0
 10
189.933502014501
 20
13.76018802352825
 30
0.0
 10
189.8095274657878
 20
13.7443232414225
 30
0.0
 10
189.663427319686
 20
13.77993797554169
 30
0.0
 10
189.5243894320284
 20
13.90000570500274
 30
0.0
 10
189.4102003962145
 20
14.07435682550317
 30
0.0
 10
189.3146141301486
 20
14.29946603111237
 30
0.0
 10
189.2318652572626
 20
14.56388246006439
 30
0.0
 10
189.1807179256412
 20
14.88187933098541
 30
0.0
 10
189.0770189207338
 20
15.15543728488911
 30
0.0
 10
189.2042841208523
 20
15.56005818612865
 30
0.0
 10
189.0357890623019
 20
15.55112367849677
 30
0.0
 10
188.9511995787078
 20
15.5531596141836
 30
0.0
 10
188.8189876387628
 20
15.55213937388404
 30
0.0
 10
188.6560505094103
 20
15.55253230318427
 30
0.0
 10
188.4733759170534
 20
15.55235696313367
 30
0.0
 10
188.2847057373382
 20
15.55260105307466
 30
0.0
 10
188.1014469020189
 20
15.55185657906235
 30
0.0
 10
187.9404746832718
 20
15.55416360522423
 30
0.0
 10
187.8029808335275
 20
15.5479980488366
 30
0.0
 10
187.7289590372311
 20
15.5603283845821
 30
0.0
 10
187.6613215186856
 20
15.54329323723554
 30
0.0
 10
187.673237371927
 20
15.59524438447526
 30
0.0
 10
187.6655677285693
 20
15.64071424966526
 30
0.0
 10
187.6732592225115
 20
15.68614453703703
 30
0.0
 10
187.6613141797761
 20
15.73802395984567
 30
0.0
 10
187.7283588305867
 20
15.72119143490261
 30
0.0
 10
187.8017375665676
 20
15.73335409092668
 30
0.0
 10
187.9379128305272
 20
15.72727231074956
 30
0.0
 10
188.0973811801512
 20
15.72954834315055
 30
0.0
 10
188.2789173085836
 20
15.72881233998959
 30
0.0
 10
188.4658034862179
 20
15.7290595419613
 30
0.0
 10
188.6468012316836
 20
15.72886400799251
 30
0.0
 10
188.8080802578878
 20
15.72932234714836
 30
0.0
 10
188.9393882124887
 20
15.72812673751203
 30
0.0
 10
189.0225051322596
 20
15.7305134731974
 30
0.0
 10
189.1556236547815
 20
15.7223060572546
 30
0.0
 10
189.0645893502659
 20
15.97752868952652
 30
0.0
 10
188.9789633074419
 20
16.24164358328244
 30
0.0
 10
189.0990589003456
 20
16.22904442969162
 30
0.0
 10
189.1514264948543
 20
16.22694235763072
 30
0.0
 10
189.2214497569716
 20
16.22535399889654
 30
0.0
 10
189.2671922337818
 20
16.2160256753811
 30
0.0
 10
189.3220812646933
 20
16.22545966915424
 30
0.0
 10
189.2963574785681
 20
16.17733028655166
 30
0.0
 10
189.1825397571452
 20
16.18266829744174
 30
0.0
 10
189.3159346621136
 20
15.95449174576772
 30
0.0
 10
189.194365873547
 20
15.72156856595919
 30
0.0
 10
189.3223188769412
 20
15.73087258884436
 30
0.0
 10
189.404904840646
 20
15.72801001754677
 30
0.0
 10
189.5307214850824
 20
15.72923437412299
 30
0.0
 10
189.6741469838057
 20
15.72932431888962
 30
0.0
 10
189.8157420951728
 20
15.7274616318385
 30
0.0
 10
189.9459127249967
 20
15.73333075937159
 30
0.0
 10
190.0193452286191
 20
15.72070340823199
 30
0.0
 10
190.0891112922096
 20
15.73877563110409
 30
0.0
 10
190.0775772605396
 20
15.68612850546323
 30
0.0
 10
190.0833184346682
 20
15.64221317686545
 30
0.0
 10
190.081661577091
 20
15.59089982676547
 30
0.0
 10
190.081775756167
 20
15.56158792021633
 30
0.0
 10
190.0818114333289
 20
15.55242795125075
 30
0.0
 11
190.0818114333289
 21
15.55242795125075
 31
0.0
 11
190.0472127192051
 21
15.55242795125075
 31
0.0
 11
189.9559979274241
 21
15.55242795125075
 31
0.0
 11
189.8270390838717
 21
15.55242795125075
 31
0.0
 11
189.6792082144336
 21
15.55242795125075
 31
0.0
 11
189.5313773449955
 21
15.55242795125075
 31
0.0
 11
189.4024185014431
 21
15.55242795125075
 31
0.0
 11
189.3112037096621
 21
15.55242795125075
 31
0.0
 11
189.2766049955383
 21
15.55242795125075
 31
0.0
 11
189.3083140497694
 21
15.23435864930119
 31
0.0
 11
189.3527866656866
 21
14.93509522788078
 31
0.0
 11
189.4092389118321
 21
14.66191269512574
 31
0.0
 11
189.4768868567479
 21
14.42208605917225
 31
0.0
 11
189.5549465689762
 21
14.22289032815652
 31
0.0
 11
189.6426341170592
 21
14.07160051021475
 31
0.0
 11
189.7391655695389
 21
13.97549161348314
 31
0.0
 11
189.8437569949575
 21
13.94183864609789
 31
0.0
 11
189.8943077302786
 21
13.97177376978832
 31
0.0
 11
189.9310588991552
 21
14.06491619815045
 31
0.0
 11
189.9562640977528
 21
14.22627151712052
 31
0.0
 11
189.9721769222367
 21
14.46084531263479
 31
0.0
 11
190.0494082682583
 21
14.40202182306615
 31
0.0
 11
190.1327184184385
 21
14.35921885432687
 31
0.0
 11
190.1066365811217
 21
14.11528388661007
 31
0.0
 11
190.0673317805106
 21
13.94207902887559
 31
0.0
 11
190.0105702596765
 21
13.83011272445914
 31
0.0
 11
189.9321182616911
 21
13.76989341669642
 31
0.0
 11
189.8277420296257
 21
13.75192954892314
 31
0.0
 11
189.6738595065098
 21
13.78957440012358
 31
0.0
 11
189.5388902376748
 21
13.897073488774
 31
0.0
 11
189.4221739916163
 21
14.06627361744806
 31
0.0
 11
189.32305053683
 21
14.2890215887194
 31
0.0
 11
189.2408596418113
 21
14.55716420516169
 31
0.0
 11
189.1749410750559
 21
14.86254826934858
 31
0.0
 11
189.1246346050594
 21
15.19702058385371
 31
0.0
 11
189.0892800003172
 21
15.55242795125075
 31
0.0
 11
189.0561935405844
 21
15.55242795125075
 31
0.0
 11
188.9654726026075
 21
15.55242795125075
 31
0.0
 11
188.8299248482186
 21
15.55242795125075
 31
0.0
 11
188.6623579392495
 21
15.55242795125075
 31
0.0
 11
188.4755795375324
 21
15.55242795125075
 31
0.0
 11
188.2823973048993
 21
15.55242795125075
 31
0.0
 11
188.0956189031822
 21
15.55242795125075
 31
0.0
 11
187.9280519942131
 21
15.55242795125075
 31
0.0
 11
187.7925042398242
 21
15.55242795125075
 31
0.0
 11
187.7017833018473
 21
15.55242795125075
 31
0.0
 11
187.6686968421145
 21
15.55242795125075
 31
0.0
 11
187.6686968421145
 21
15.58001489785844
 31
0.0
 11
187.6686968421145
 21
15.64070618039535
 31
0.0
 11
187.6686968421145
 21
15.70139746293226
 31
0.0
 11
187.6686968421145
 21
15.72898440953995
 31
0.0
 11
187.7014723087631
 21
15.72898440953995
 31
0.0
 11
187.7913405237673
 21
15.72898440953995
 31
0.0
 11
187.9256142097148
 21
15.72898440953995
 31
0.0
 11
188.0916060891932
 21
15.72898440953995
 31
0.0
 11
188.2766288847901
 21
15.72898440953995
 31
0.0
 11
188.4679953190932
 21
15.72898440953995
 31
0.0
 11
188.6530181146902
 21
15.72898440953995
 31
0.0
 11
188.8190099941685
 21
15.72898440953995
 31
0.0
 11
188.953283680116
 21
15.72898440953995
 31
0.0
 11
189.0431518951202
 21
15.72898440953995
 31
0.0
 11
189.0759273617688
 21
15.72898440953995
 31
0.0
 11
189.0659183950103
 21
15.97947647544955
 31
0.0
 11
189.0599112510664
 21
16.23196614552528
 31
0.0
 11
189.086057587066
 21
16.23056921608119
 31
0.0
 11
189.148406542142
 21
16.22723807663758
 31
0.0
 11
189.22282303691
 21
16.22326220052746
 31
0.0
 11
189.2851719919859
 21
16.21993106108386
 31
0.0
 11
189.3113183279855
 21
16.21853413163976
 31
0.0
 11
189.298293111304
 21
16.19016528616077
 31
0.0
 11
189.2551649266405
 21
16.17581274276162
 31
0.0
 11
189.2574991961821
 21
15.95136670115105
 31
0.0
 11
189.2658452735902
 21
15.72898440953995
 31
0.0
 11
189.3009063195165
 21
15.72898440953995
 31
0.0
 11
189.3933399860494
 21
15.72898440953995
 31
0.0
 11
189.52402206632
 21
15.72898440953995
 31
0.0
 11
189.6738283534596
 21
15.72898440953995
 31
0.0
 11
189.8236346405991
 21
15.72898440953995
 31
0.0
 11
189.9543167208697
 21
15.72898440953995
 31
0.0
 11
190.0467503874027
 21
15.72898440953995
 31
0.0
 11
190.0818114333289
 21
15.72898440953995
 31
0.0
 11
190.0818114333289
 21
15.70139746293226
 31
0.0
 11
190.0818114333289
 21
15.64070618039535
 31
0.0
 11
190.0818114333289
 21
15.58001489785844
 31
0.0
 11
190.0818114333289
 21
15.55242795125075
 31
0.0
  0
SPLINE
  5
B6
102
{ACAD_REACTORS
330
D3
102
}
330
48
100
AcDbEntity
  8
_U_30EC_U_30A4_U_30E4_U_30FC_1
  6
Continuous
 62
     2
100
AcDbSpline
210
0.0
220
0.0
230
1.0
 70
    11
 71
     3
 72
   118
 73
   114
 74
   112
 42
0.000000001
 43
0.0000000001
 44
0.00000001
 40
0.0
 40
0.0
 40
0.0
 40
0.0
 40
0.1054708162973653
 40
0.2466098270052393
 40
0.3965912874591895
 40
0.52855250697548
 40
0.6156245055642866
 40
0.6431434105798011
 40
0.7036850037986546
 40
0.7642265984504607
 40
0.7917455052354911
 40
0.928740431999027
 40
1.106572819088092
 40
1.287544879681139
 40
1.317578308030656
 40
1.399928030857293
 40
1.522968204800069
 40
1.67507298659069
 40
1.844616533180769
 40
2.019973001638832
 40
2.189516548880144
 40
2.341621331585483
 40
2.464661506320617
 40
2.547011229647183
 40
2.577044658168147
 40
2.60379789089316
 40
2.662655002908819
 40
2.721512114949574
 40
2.748265347702725
 40
2.774215307344802
 40
2.845959313407132
 40
2.954338556588331
 40
3.090194227585508
 40
3.244367517100475
 40
3.407699615844232
 40
3.57103171453938
 40
3.725205003920056
 40
3.861060674729558
 40
3.969439917716249
 40
4.041183923628923
 40
4.067133883212916
 40
4.311886746012112
 40
4.547897258335489
 40
4.764747083043941
 40
4.952749679951745
 40
5.045772974195843
 40
5.137862019644913
 40
5.330543169792946
 40
5.553448265243937
 40
5.795083855888098
 40
6.043293412177164
 40
6.285761695541123
 40
6.313902908752635
 40
6.384255941793225
 40
6.475714884766814
 40
6.567173827758904
 40
6.637526860839711
 40
6.665668074074074
 40
6.692018920328047
 40
6.749990782071111
 40
6.807962643790476
 40
6.834313490017949
 40
6.856393084245227
 40
6.913335195649851
 40
6.991194817302543
 40
7.076026942283833
 40
7.153886563725352
 40
7.210828674844906
 40
7.232908268931269
 40
7.25819933492379
 40
7.324875781592437
 40
7.419142481925097
 40
7.527204308842037
 40
7.635266135230617
 40
7.729532834168599
 40
7.796209279292921
 40
7.821500344594868
 40
7.844652988850938
 40
7.899863140541688
 40
7.965759128053826
 40
8.02096927977108
 40
8.044121924046546
 40
8.069356610160646
 40
8.109134395441497
 40
8.13223810019121
 40
8.193147867786571
 40
8.279261678876747
 40
8.37797751267396
 40
8.476693347146742
 40
8.562807160411797
 40
8.623716930826582
 40
8.646820636853535
 40
8.671988793774377
 40
8.734909185828288
 40
8.816705695189059
 40
8.898502204815658
 40
8.961422597378148
 40
8.986590754551289
 40
9.012941600733445
 40
9.070913462380524
 40
9.128885324082015
 40
9.155236170325333
 40
9.180404327929375
 40
9.243324721948477
 40
9.325121234212327
 40
9.40691774663801
 40
9.469838141978522
 40
9.495006288271297
 40
9.517811184379438
 40
9.572192090487436
 40
9.637098333281662
 40
9.69147923951586
 40
9.714284125643898
 40
9.714284125643898
 40
9.714284125643898
 40
9.714284125643898
 10
185.2874469028652
 20
15.26889163187718
 30
0.0
 10
185.3090990569037
 20
15.2411186924281
 30
0.0
 10
185.3597257109472
 20
15.17618054561234
 30
0.0
 10
185.4349383202592
 20
15.06891060312896
 30
0.0
 10
185.5248482274345
 20
14.95377438266621
 30
0.0
 10
185.5709169676674
 20
14.85357045748318
 30
0.0
 10
185.6655825294655
 20
14.78434006814941
 30
0.0
 10
185.6204439320413
 20
14.73771639678269
 30
0.0
 10
185.5947047785791
 20
14.69660308866038
 30
0.0
 10
185.5645196708012
 20
14.66065971727934
 30
0.0
 10
185.5193684730563
 20
14.5857978259609
 30
0.0
 10
185.4710504458562
 20
14.80782524253599
 30
0.0
 10
185.3968539713073
 20
14.84510677337709
 30
0.0
 10
185.2836047324606
 20
15.11610202130598
 30
0.0
 10
185.2885133578168
 20
15.00095328446226
 30
0.0
 10
185.2868486556305
 20
14.92836675781624
 30
0.0
 10
185.2876830076713
 20
14.80625588483983
 30
0.0
 10
185.2873609540263
 20
14.65913800810458
 30
0.0
 10
185.2875076912455
 20
14.49307063956553
 30
0.0
 10
185.2872950092722
 20
14.32187554608599
 30
0.0
 10
185.2879497252033
 20
14.15552828635495
 30
0.0
 10
185.2859192461139
 20
14.00935173055691
 30
0.0
 10
185.2913460399929
 20
13.88471047474607
 30
0.0
 10
185.2804930868707
 20
13.81718656540624
 30
0.0
 10
185.2956739155554
 20
13.75549061417021
 30
0.0
 10
185.2457895108133
 20
13.76727503896998
 30
0.0
 10
185.2017150342522
 20
13.75943822779967
 30
0.0
 10
185.1582371630201
 20
13.76760441372699
 30
0.0
 10
185.1092346786489
 20
13.75538056738466
 30
0.0
 10
185.1218731234825
 20
13.8096066724931
 30
0.0
 10
185.113018296845
 20
13.86936918907555
 30
0.0
 10
185.1175058770315
 20
13.97922029044367
 30
0.0
 10
185.1157960135992
 20
14.11029975405675
 30
0.0
 10
185.1163550915987
 20
14.26198011444325
 30
0.0
 10
185.1161928768695
 20
14.42211074929951
 30
0.0
 10
185.1162269924675
 20
14.58236865674563
 30
0.0
 10
185.1162514960127
 20
14.73370247520436
 30
0.0
 10
185.1161453543227
 20
14.86582156338598
 30
0.0
 10
185.1164299141931
 20
14.9729480253319
 30
0.0
 10
185.1158675547568
 20
15.0380861957947
 30
0.0
 10
185.118076508369
 20
15.16618957858673
 30
0.0
 10
185.0319435998603
 20
14.79097610391572
 30
0.0
 10
184.95551408185
 20
14.63918193123391
 30
0.0
 10
184.8660040767833
 20
14.47766206446305
 30
0.0
 10
184.7640413217326
 20
14.20471848820168
 30
0.0
 10
184.7187976491039
 20
14.36717346596508
 30
0.0
 10
184.6102355941671
 20
14.45605432058118
 30
0.0
 10
184.7995791751753
 20
14.60549794961407
 30
0.0
 10
184.8565340545701
 20
14.79749136974922
 30
0.0
 10
184.9717520993352
 20
15.02899622906754
 30
0.0
 10
184.9940151630133
 20
15.21797259759062
 30
0.0
 10
185.177190515214
 20
15.49454089325928
 30
0.0
 10
185.0538033597553
 20
15.48698978832092
 30
0.0
 10
184.9925684166834
 20
15.48856772366116
 30
0.0
 10
184.9081999617065
 20
15.48882592573671
 30
0.0
 10
184.8204235085965
 20
15.48544845751203
 30
0.0
 10
184.7656768696123
 20
15.49394814982019
 30
0.0
 10
184.7104703026024
 20
15.48048561049785
 30
0.0
 10
184.7222823035536
 20
15.52931442126761
 30
0.0
 10
184.7142496151794
 20
15.57269004896706
 30
0.0
 10
184.7228186104679
 20
15.6150943830957
 30
0.0
 10
184.7102943409156
 20
15.66267796552115
 30
0.0
 10
184.7555101538735
 20
15.65267212995106
 30
0.0
 10
184.8014815562723
 20
15.65894105174058
 30
0.0
 10
184.877722204771
 20
15.65593561405869
 30
0.0
 10
184.9561296131994
 20
15.65770448278538
 30
0.0
 10
185.0323992648933
 20
15.65464793981657
 30
0.0
 10
185.0783009459475
 20
15.66103971376174
 30
0.0
 10
185.1231733965401
 20
15.65093822978892
 30
0.0
 10
185.1105552275635
 20
15.70157201581895
 30
0.0
 10
185.1191936582707
 20
15.75501261882067
 30
0.0
 10
185.1152361595443
 20
15.84863255131676
 30
0.0
 10
185.1162325068335
 20
15.95112606688921
 30
0.0
 10
185.1171927413073
 20
16.0535327024816
 30
0.0
 10
185.1133211458007
 20
16.14735929609319
 30
0.0
 10
185.1217789814364
 20
16.20036542840349
 30
0.0
 10
185.1093075932836
 20
16.25211435651185
 30
0.0
 10
185.154210638985
 20
16.23850747226754
 30
0.0
 10
185.1955083836772
 20
16.24100480320583
 30
0.0
 10
185.259534428105
 20
16.23648060574484
 30
0.0
 10
185.2986111148786
 20
16.22781003043307
 30
0.0
 10
185.3476543498742
 20
16.23515102070684
 30
0.0
 10
185.322508003059
 20
16.19602896051751
 30
0.0
 10
185.2815901333722
 20
16.20563842455808
 30
0.0
 10
185.2910109616603
 20
16.15540148169775
 30
0.0
 10
185.2855647318746
 20
16.10385945639487
 30
0.0
 10
185.2881699601803
 20
16.01959707584517
 30
0.0
 10
185.2870102202153
 20
15.92559135583405
 30
0.0
 10
185.2883591064231
 20
15.83196865395523
 30
0.0
 10
185.2849970101507
 20
15.74679517552219
 30
0.0
 10
185.2920959917769
 20
15.69716856072042
 30
0.0
 10
185.2812569154544
 20
15.64993694969984
 30
0.0
 10
185.3304010225245
 20
15.6620167493685
 30
0.0
 10
185.3794877630146
 20
15.65447393363008
 30
0.0
 10
185.4573714280641
 20
15.6568607036143
 30
0.0
 10
185.5350365172895
 20
15.65899381905411
 30
0.0
 10
185.5845393931355
 20
15.65193391922451
 30
0.0
 10
185.6344594750639
 20
15.66360151936212
 30
0.0
 10
185.6223198516882
 20
15.6154023537139
 30
0.0
 10
185.6305838229144
 20
15.57249219801232
 30
0.0
 10
185.6223198650785
 20
15.52958201851382
 30
0.0
 10
185.6344594549855
 20
15.48138288754862
 30
0.0
 10
185.5845395158747
 20
15.49305034471509
 30
0.0
 10
185.5350350651203
 20
15.48599202435043
 30
0.0
 10
185.4573784382972
 20
15.48811665228601
 30
0.0
 10
185.379464386576
 20
15.49053389365758
 30
0.0
 10
185.3304500352715
 20
15.48291848194483
 30
0.0
 10
185.2813246108942
 20
15.4950795255759
 30
0.0
 10
185.291555998857
 20
15.45073013424156
 30
0.0
 10
185.2856677678053
 20
15.4092543620291
 30
0.0
 10
185.2878788305568
 20
15.34915394315301
 30
0.0
 10
185.2874109346145
 20
15.30225782762888
 30
0.0
 10
185.2874386992913
 20
15.27650146418195
 30
0.0
 10
185.2874469028652
 20
15.26889163187718
 30
0.0
 11
185.2874469028652
 21
15.26889163187718
 31
0.0
 11
185.3516977534484
 21
15.18524999634254
 31
0.0
 11
185.4348258835499
 21
15.07118889748218
 31
0.0
 11
185.5216831568896
 21
14.9489176719572
 31
0.0
 11
185.5971214371872
 21
14.84064565642873
 31
0.0
 11
185.6459925881626
 21
14.76858218755787
 31
0.0
 11
185.6296821285093
 21
14.74641782124396
 31
0.0
 11
185.593799117272
 21
14.69765621535336
 31
0.0
 11
185.5579161060347
 21
14.64889460946277
 31
0.0
 11
185.5416056463814
 21
14.62673024314886
 31
0.0
 11
185.4763067109446
 21
14.7471613902381
 31
0.0
 11
185.3848434243234
 21
14.89966983670204
 31
0.0
 11
185.2874469028652
 21
15.05219788193139
 31
0.0
 11
185.2874469028652
 21
15.0221644532825
 31
0.0
 11
185.2874469028652
 21
14.9398147295678
 31
0.0
 11
185.2874469028652
 21
14.81677455413525
 31
0.0
 11
185.2874469028652
 21
14.6646697703328
 31
0.0
 11
185.2874469028652
 21
14.49512622150842
 31
0.0
 11
185.2874469028652
 21
14.31976975101006
 31
0.0
 11
185.2874469028652
 21
14.15022620218568
 31
0.0
 11
185.2874469028652
 21
13.99812141838323
 31
0.0
 11
185.2874469028652
 21
13.87508124295068
 31
0.0
 11
185.2874469028652
 21
13.79273151923598
 31
0.0
 11
185.2874469028652
 21
13.76269809058709
 31
0.0
 11
185.2606936700408
 21
13.76269809058709
 31
0.0
 11
185.2018365578272
 21
13.76269809058709
 31
0.0
 11
185.1429794456135
 21
13.76269809058709
 31
0.0
 11
185.1162262127891
 21
13.76269809058709
 31
0.0
 11
185.1162262127891
 21
13.78864805031247
 31
0.0
 11
185.1162262127891
 21
13.86039205661205
 31
0.0
 11
185.1162262127891
 21
13.96877130017099
 31
0.0
 11
185.1162262127891
 21
14.10462697167444
 31
0.0
 11
185.1162262127891
 21
14.25880026180758
 31
0.0
 11
185.1162262127891
 21
14.42213236125555
 31
0.0
 11
185.1162262127891
 21
14.58546446070353
 31
0.0
 11
185.1162262127891
 21
14.73963775083667
 31
0.0
 11
185.1162262127891
 21
14.87549342234012
 31
0.0
 11
185.1162262127891
 21
14.98387266589906
 31
0.0
 11
185.1162262127891
 21
15.05561667219864
 31
0.0
 11
185.1162262127891
 21
15.08156663192402
 31
0.0
 11
185.0379865861722
 21
14.84965603302369
 31
0.0
 11
184.9497110789304
 21
14.63077616328675
 31
0.0
 11
184.8544106930045
 21
14.43598991333544
 31
0.0
 11
184.7550964303356
 21
14.27636017379199
 31
0.0
 11
184.7109198342406
 21
14.35822446196596
 31
0.0
 11
184.6588057383481
 21
14.43414885430808
 31
0.0
 11
184.76273025903
 21
14.59640087926754
 31
0.0
 11
184.8629319864735
 21
14.79551465421778
 31
0.0
 11
184.9550446607902
 21
15.01890447916193
 31
0.0
 11
185.0347020220912
 21
15.25398465410317
 31
0.0
 11
185.0975378104881
 21
15.48816947904463
 31
0.0
 11
185.0693965972143
 21
15.48816947904463
 31
0.0
 11
184.9990435640298
 21
15.48816947904463
 31
0.0
 11
184.9075846208899
 21
15.48816947904463
 31
0.0
 11
184.81612567775
 21
15.48816947904463
 31
0.0
 11
184.7457726445654
 21
15.48816947904463
 31
0.0
 11
184.7176314312916
 21
15.48816947904463
 31
0.0
 11
184.7176314312916
 21
15.5145203253922
 31
0.0
 11
184.7176314312916
 21
15.57249218735686
 31
0.0
 11
184.7176314312916
 21
15.63046404932152
 31
0.0
 11
184.7176314312916
 21
15.65681489566909
 31
0.0
 11
184.739711025602
 21
15.65681489566909
 31
0.0
 11
184.7966531372444
 21
15.65681489566909
 31
0.0
 11
184.8745127592862
 21
15.65681489566909
 31
0.0
 11
184.9593448847945
 21
15.65681489566909
 31
0.0
 11
185.0372045068362
 21
15.65681489566909
 31
0.0
 11
185.0941466184787
 21
15.65681489566909
 31
0.0
 11
185.1162262127891
 21
15.65681489566909
 31
0.0
 11
185.1162262127891
 21
15.6821059617435
 31
0.0
 11
185.1162262127891
 21
15.74878240866694
 31
0.0
 11
185.1162262127891
 21
15.84304910948974
 31
0.0
 11
185.1162262127891
 21
15.95111093726221
 31
0.0
 11
185.1162262127891
 21
16.05917276503468
 31
0.0
 11
185.1162262127891
 21
16.15343946585748
 31
0.0
 11
185.1162262127891
 21
16.22011591278092
 31
0.0
 11
185.1162262127891
 21
16.24540697885533
 31
0.0
 11
185.1393181988666
 21
16.24373213107797
 31
0.0
 11
185.1943837041285
 21
16.23973826330118
 31
0.0
 11
185.2601070491184
 21
16.23497138885793
 31
0.0
 11
185.3151725543802
 21
16.23097752108115
 31
0.0
 11
185.3382645404578
 21
16.22930267330379
 31
0.0
 11
185.3249012644362
 21
16.20789677921188
 31
0.0
 11
185.2874469028652
 21
16.19450114553466
 31
0.0
 11
185.2874469028652
 21
16.17139743948575
 31
0.0
 11
185.2874469028652
 21
16.11048766899317
 31
0.0
 11
185.2874469028652
 21
16.02437385553813
 31
0.0
 11
185.2874469028652
 21
15.92565802060187
 31
0.0
 11
185.2874469028652
 21
15.82694218566562
 31
0.0
 11
185.2874469028652
 21
15.74082837221058
 31
0.0
 11
185.2874469028652
 21
15.679918601718
 31
0.0
 11
185.2874469028652
 21
15.65681489566909
 31
0.0
 11
185.3126150604808
 21
15.65681489566909
 31
0.0
 11
185.3755354545198
 21
15.65681489566909
 31
0.0
 11
185.4573319667706
 21
15.65681489566909
 31
0.0
 11
185.5391284790213
 21
15.65681489566909
 31
0.0
 11
185.6020488730603
 21
15.65681489566909
 31
0.0
 11
185.6272170306759
 21
15.65681489566909
 31
0.0
 11
185.6272170306759
 21
15.63046404932152
 31
0.0
 11
185.6272170306759
 21
15.57249218735686
 31
0.0
 11
185.6272170306759
 21
15.5145203253922
 31
0.0
 11
185.6272170306759
 21
15.48816947904463
 31
0.0
 11
185.6020488730603
 21
15.48816947904463
 31
0.0
 11
185.5391284790213
 21
15.48816947904463
 31
0.0
 11
185.4573319667705
 21
15.48816947904463
 31
0.0
 11
185.3755354545198
 21
15.48816947904463
 31
0.0
 11
185.3126150604808
 21
15.48816947904463
 31
0.0
 11
185.2874469028652
 21
15.48816947904463
 31
0.0
 11
185.2874469028652
 21
15.46536458293922
 31
0.0
 11
185.2874469028652
 21
15.41098367684169
 31
0.0
 11
185.2874469028652
 21
15.34607743408012
 31
0.0
 11
185.2874469028652
 21
15.29169652798259
 31
0.0
 11
185.2874469028652
 21
15.26889163187718
 31
0.0
  0
SPLINE
  5
B7
102
{ACAD_REACTORS
330
D4
102
}
330
48
100
AcDbEntity
  8
_U_30EC_U_30A4_U_30E4_U_30FC_1
  6
Continuous
 62
     2
100
AcDbSpline
210
0.0
220
0.0
230
1.0
 70
    11
 71
     3
 72
    47
 73
    43
 74
    41
 42
0.000000001
 43
0.0000000001
 44
0.00000001
 40
0.0
 40
0.0
 40
0.0
 40
0.0
 40
0.2207912809957236
 40
0.4459404186303058
 40
0.4902387190458992
 40
0.5327473892721954
 40
0.5742260451224986
 40
0.6155432630558573
 40
0.6568164066314626
 40
0.698251161877954
 40
0.740766392931549
 40
0.7851366743175243
 40
1.010288833836327
 40
1.231080507002176
 40
1.451765243652401
 40
1.67663820589169
 40
1.720461045359661
 40
1.830018144043527
 40
1.972442372353157
 40
2.114866600677525
 40
2.22442369939515
 40
2.268246538883391
 40
2.493628801207222
 40
2.715602830286623
 40
2.934211330706364
 40
3.14950236985536
 40
3.231387784851062
 40
3.318231873854267
 40
3.405143198198141
 40
3.486970301720464
 40
3.702258172493903
 40
3.920866283534126
 40
4.142839325931916
 40
4.368221903865377
 40
4.412044743359861
 40
4.521601842095871
 40
4.664026070452351
 40
4.806450298809061
 40
4.916007397546755
 40
4.959830237043077
 40
5.184703515847112
 40
5.405387250767482
 40
5.405387250767482
 40
5.405387250767482
 40
5.405387250767482
 10
182.6507427258646
 20
15.73406440953869
 30
0.0
 10
182.6568139420004
 20
15.79758482501207
 30
0.0
 10
182.6690762107243
 20
15.92587938689623
 30
0.0
 10
182.5604706879413
 20
16.20166220174074
 30
0.0
 10
182.6761985896605
 20
16.1718813343205
 30
0.0
 10
182.7171842509016
 20
16.16765556262817
 30
0.0
 10
182.7591205797518
 20
16.16310446389605
 30
0.0
 10
182.800419662571
 20
16.16201982929483
 30
0.0
 10
182.8417032115555
 20
16.16310338195225
 30
0.0
 10
182.8836148270647
 20
16.16766112711339
 30
0.0
 10
182.9245983549019
 20
16.17187430209727
 30
0.0
 10
183.040492284349
 20
16.20177611317531
 30
0.0
 10
182.9295652727455
 20
15.9233980660989
 30
0.0
 10
182.9574856365268
 20
15.74283140824948
 30
0.0
 10
182.9404267346969
 20
15.50961042346468
 30
0.0
 10
182.9414637282105
 20
15.34906622543143
 30
0.0
 10
182.9414099399405
 20
15.22284817558718
 30
0.0
 10
182.9414277372483
 20
15.12428963336239
 30
0.0
 10
182.941418858108
 20
14.99280702442959
 30
0.0
 10
182.9414263928035
 20
14.86132844968647
 30
0.0
 10
182.9414129405129
 20
14.76276222694088
 30
0.0
 10
182.9414531717494
 20
14.63639735624149
 30
0.0
 10
182.9406746403817
 20
14.47482068822867
 30
0.0
 10
182.9565958319268
 20
14.24361821892912
 30
0.0
 10
182.9333468885407
 20
14.05874351971998
 30
0.0
 10
183.0360183444368
 20
13.78935602770052
 30
0.0
 10
182.8820238362836
 20
13.82660112685816
 30
0.0
 10
182.8004129802832
 20
13.8213799468053
 30
0.0
 10
182.7188192292583
 20
13.82660620378348
 30
0.0
 10
182.5648513666844
 20
13.78937069885387
 30
0.0
 10
182.6674183421917
 20
14.05875129862879
 30
0.0
 10
182.644204531609
 20
14.24361585325411
 30
0.0
 10
182.6600444655138
 20
14.47482218565635
 30
0.0
 10
182.6593296313428
 20
14.636397123085
 30
0.0
 10
182.6593664569907
 20
14.76276231210517
 30
0.0
 10
182.6593549000271
 20
14.86132756635978
 30
0.0
 10
182.6593575019214
 20
14.99281127417217
 30
0.0
 10
182.659364853178
 20
15.12427548031196
 30
0.0
 10
182.6593442541352
 20
15.22287786275323
 30
0.0
 10
182.6594082192029
 20
15.34896149354424
 30
0.0
 10
182.658173394759
 20
15.51210091383768
 30
0.0
 10
182.6532040396746
 20
15.66054183777547
 30
0.0
 10
182.6507427258646
 20
15.73406440953869
 30
0.0
 11
182.6507427258646
 21
15.73406440953869
 31
0.0
 11
182.6417328200379
 21
15.95467178795574
 31
0.0
 11
182.6318769706147
 21
16.17960510387176
 31
0.0
 11
182.6756985840802
 21
16.17312391463726
 31
0.0
 11
182.7178400934216
 21
16.16754892331921
 31
0.0
 11
182.7591371409791
 21
16.16367167505628
 31
0.0
 11
182.8004341885364
 21
16.16238072887605
 31
0.0
 11
182.841687138873
 21
16.16367167505628
 31
0.0
 11
182.8829400892097
 21
16.16754892331921
 31
0.0
 11
182.9250882131342
 21
16.17312391463725
 31
0.0
 11
182.9689825870146
 21
16.17960510387176
 31
0.0
 11
182.9590577693891
 21
15.95467178795574
 31
0.0
 11
182.9500384208311
 21
15.73406440953869
 31
0.0
 11
182.9435638463436
 21
15.51347467001052
 31
0.0
 11
182.9414218238287
 21
15.28861190965004
 31
0.0
 11
182.9414218238287
 21
15.24478907015482
 31
0.0
 11
182.9414218238287
 21
15.13523197141679
 31
0.0
 11
182.9414218238287
 21
14.99280774305734
 31
0.0
 11
182.9414218238287
 21
14.85038351469789
 31
0.0
 11
182.9414218238287
 21
14.74082641595986
 31
0.0
 11
182.9414218238287
 21
14.69700357646464
 31
0.0
 11
182.9435638463436
 21
14.47163149318763
 31
0.0
 11
182.9500384208311
 21
14.24975190990977
 31
0.0
 11
182.9590577693892
 21
14.03132954885327
 31
0.0
 11
182.9689825870146
 21
13.81626739612925
 31
0.0
 11
182.8872616168771
 21
13.82145433189183
 31
0.0
 11
182.8004341885364
 21
13.82315538223859
 31
0.0
 11
182.7135395119339
 21
13.82145433189183
 31
0.0
 11
182.6318769706147
 21
13.81626739612925
 31
0.0
 11
182.6417328200379
 21
14.03132954885327
 31
0.0
 11
182.6507427258646
 21
14.24975190990977
 31
0.0
 11
182.6571833838798
 21
14.47163149318763
 31
0.0
 11
182.6593583588024
 21
14.69700357646464
 31
0.0
 11
182.6593583588024
 21
14.74082641595986
 31
0.0
 11
182.6593583588024
 21
14.85038351469789
 31
0.0
 11
182.6593583588024
 21
14.99280774305734
 31
0.0
 11
182.6593583588024
 21
15.13523197141679
 31
0.0
 11
182.6593583588024
 21
15.24478907015483
 31
0.0
 11
182.6593583588024
 21
15.28861190965004
 31
0.0
 11
182.6571833838798
 21
15.51347467001051
 31
0.0
 11
182.6507427258646
 21
15.73406440953869
 31
0.0
  0
SPLINE
  5
B8
102
{ACAD_REACTORS
330
D5
102
}
330
48
100
AcDbEntity
  8
_U_30EC_U_30A4_U_30E4_U_30FC_1
  6
Continuous
 62
     2
100
AcDbSpline
210
0.0
220
0.0
230
1.0
 70
    11
 71
     3
 72
   110
 73
   106
 74
   104
 42
0.000000001
 43
0.0000000001
 44
0.00000001
 40
0.0
 40
0.0
 40
0.0
 40
0.0
 40
0.2203406257277691
 40
0.4407808782838024
 40
0.595249449461415
 40
0.7488431659392156
 40
0.9023581831308423
 40
1.056801968670398
 40
1.210736449099813
 40
1.363041386539776
 40
1.515315729683062
 40
1.669377239147871
 40
1.721611652756333
 40
1.773199502942715
 40
1.824933793209763
 40
1.877110426487701
 40
1.98268228120635
 40
2.078781667087159
 40
2.172809640821852
 40
2.271937807378534
 40
2.378349933378927
 40
2.494131557736115
 40
2.626681683943221
 40
2.783145050795591
 40
2.890701232940447
 40
2.993130312454355
 40
3.099869730691331
 40
3.220237816690827
 40
3.352695482737113
 40
3.481732806389368
 40
3.593499473689894
 40
3.674323013331402
 40
3.817951711952409
 40
3.946167120793577
 40
4.061405053453205
 40
4.166480796002789
 40
4.26247877505894
 40
4.350736673550896
 40
4.433071991253725
 40
4.511216293814384
 40
4.564262454117727
 40
4.618474415571349
 40
4.670128488753955
 40
4.722296879126172
 40
4.819540945314098
 40
4.931194984127898
 40
5.049996040257597
 40
5.168643755415284
 40
5.283970811762439
 40
5.392260784910321
 40
5.486512254876282
 40
5.559178233949823
 40
5.591425852853488
 40
5.62621596963786
 40
5.667155838674406
 40
5.717449290214207
 40
5.738402360944823
 40
5.784499116553794
 40
5.830595872164773
 40
5.851548942897633
 40
5.873019280661746
 40
5.924217778408289
 40
5.985325662817669
 40
6.036524160567684
 40
6.057994498334214
 40
6.236847789607467
 40
6.38140992894564
 40
6.493190424178667
 40
6.57406753423047
 40
6.691018086205536
 40
6.814881554220482
 40
6.944307823240349
 40
7.071266716065972
 40
7.19348860446176
 40
7.309042773128044
 40
7.41400720317067
 40
7.50514044188651
 40
7.531150360599673
 40
7.559221645322246
 40
7.587202218920916
 40
7.612569159499134
 40
7.662550809481007
 40
7.702878875764156
 40
7.85732820523097
 40
8.010799568088586
 40
8.165256399657565
 40
8.32223269871399
 40
8.479564855016676
 40
8.635216230290993
 40
8.790882550925797
 40
8.948305154947278
 40
9.168271839032958
 40
9.387358980987242
 40
9.608047961033476
 40
9.83291423479267
 40
9.858338694963004
 40
9.925366817230014
 40
10.0201307142276
 40
10.12876249858998
 40
10.23739428295249
 40
10.3321581799519
 40
10.39918630222394
 40
10.42461076239783
 40
10.64992019336943
 40
10.87188524531188
 40
10.87188524531188
 40
10.87188524531188
 40
10.87188524531188
 10
179.9057788376617
 20
15.73923260398187
 30
0.0
 10
179.9092864933541
 20
15.80616462073801
 30
0.0
 10
179.9163033987662
 20
15.94005891915855
 30
0.0
 10
179.8198027599074
 20
16.22548554971464
 30
0.0
 10
180.0510134726109
 20
16.16284386190281
 30
0.0
 10
180.1919290057156
 20
16.17001554055986
 30
0.0
 10
180.3490417757589
 20
16.16235883078242
 30
0.0
 10
180.5025913427287
 20
16.16252752283038
 30
0.0
 10
180.6545104935082
 20
16.1618204053543
 30
0.0
 10
180.8142214813231
 20
16.17210158351635
 30
0.0
 10
180.9408972601119
 20
16.15496511080747
 30
0.0
 10
181.1370821122078
 20
16.22727260107141
 30
0.0
 10
181.1034395279079
 20
16.12640699080113
 30
0.0
 10
181.1052011317184
 20
16.07619253947667
 30
0.0
 10
181.1027342073459
 20
16.02712335586465
 30
0.0
 10
181.1347076966009
 20
15.94063490847
 30
0.0
 10
181.0010399903256
 20
15.98997438608334
 30
0.0
 10
180.9172208688057
 20
15.98430634314165
 30
0.0
 10
180.8173861139323
 20
15.99465516706294
 30
0.0
 10
180.7186576720146
 20
16.00086450411084
 30
0.0
 10
180.612153277111
 20
16.00697763816774
 30
0.0
 10
180.4910511698059
 20
16.01588883484582
 30
0.0
 10
180.3703381502453
 20
16.00521605912381
 30
0.0
 10
180.1812553843438
 20
16.06468503080362
 30
0.0
 10
180.2129028505311
 20
15.90558320077537
 30
0.0
 10
180.1995563316833
 20
15.80839128339901
 30
0.0
 10
180.197495842645
 20
15.696340651101
 30
0.0
 10
180.1958188044669
 20
15.57699685629348
 30
0.0
 10
180.1973336794233
 20
15.45032592155107
 30
0.0
 10
180.1956582478672
 20
15.32301588016115
 30
0.0
 10
180.2058844271658
 20
15.22451566404461
 30
0.0
 10
180.177900659658
 20
15.08388702625626
 30
0.0
 10
180.3508029999306
 20
15.13989551134095
 30
0.0
 10
180.4645020202771
 20
15.12719951478494
 30
0.0
 10
180.584015167224
 20
15.13448377051252
 30
0.0
 10
180.6888491425072
 20
15.13878017056752
 30
0.0
 10
180.7843084898612
 20
15.14330568258975
 30
0.0
 10
180.8763823507032
 20
15.15149201146195
 30
0.0
 10
180.947655178244
 20
15.14643850638111
 30
0.0
 10
181.0544931705687
 20
15.18536425031672
 30
0.0
 10
181.0226603598036
 20
15.10517122005878
 30
0.0
 10
181.0266164503928
 20
15.0556293684603
 30
0.0
 10
181.0234502392013
 20
15.00557478039816
 30
0.0
 10
181.0550791490587
 20
14.92128847612018
 30
0.0
 10
180.9210133677692
 20
14.97425365495153
 30
0.0
 10
180.8292322793201
 20
14.96540080890438
 30
0.0
 10
180.7079729189603
 20
14.97570049965152
 30
0.0
 10
180.5914113119771
 20
14.97748911767499
 30
0.0
 10
180.4783375745878
 20
14.97787017109691
 30
0.0
 10
180.367924630847
 20
14.98415449472177
 30
0.0
 10
180.289812406784
 20
14.97189133255362
 30
0.0
 10
180.1913625833643
 20
15.00453887616128
 30
0.0
 10
180.201235517356
 20
14.94769748054203
 30
0.0
 10
180.1973923244405
 20
14.91392130557981
 30
0.0
 10
180.1966789884267
 20
14.87119604709409
 30
0.0
 10
180.1963369642974
 20
14.83401607262152
 30
0.0
 10
180.1963834255344
 20
14.79487237370769
 30
0.0
 10
180.1963649429927
 20
14.75716849497684
 30
0.0
 10
180.1963703431804
 20
14.71944955232399
 30
0.0
 10
180.19636972142
 20
14.68994324745147
 30
0.0
 10
180.1963698151544
 20
14.65873577699297
 30
0.0
 10
180.196370428792
 20
14.61414424908082
 30
0.0
 10
180.1963671499336
 20
14.55963956508848
 30
0.0
 10
180.1963759623479
 20
14.51505540201445
 30
0.0
 10
180.1963359653418
 20
14.43117808585737
 30
0.0
 10
180.1976024270254
 20
14.31737520677675
 30
0.0
 10
180.1950274117843
 20
14.16830395933706
 30
0.0
 10
180.2065009381719
 20
14.06597203813903
 30
0.0
 10
180.1823506222264
 20
13.93338903885832
 30
0.0
 10
180.3332993946477
 20
13.97895732272019
 30
0.0
 10
180.4428436671556
 20
13.96427012162348
 30
0.0
 10
180.573397047392
 20
13.96920435125061
 30
0.0
 10
180.6990312209513
 20
13.97257705323357
 30
0.0
 10
180.81887306256
 20
13.97711497498771
 30
0.0
 10
180.9391362611426
 20
13.99048536182
 30
0.0
 10
181.0222761663515
 20
13.98068712782595
 30
0.0
 10
181.1456080421077
 20
14.04126214623317
 30
0.0
 10
181.1244269203956
 20
13.9853246013402
 30
0.0
 10
181.1235950270118
 20
13.95939249372342
 30
0.0
 10
181.1218963707558
 20
13.93197256190937
 30
0.0
 10
181.1217974888828
 20
13.89738195206382
 30
0.0
 10
181.1203659301329
 20
13.86050408220764
 30
0.0
 10
181.1532804192192
 20
13.76846841021807
 30
0.0
 10
180.9551306988108
 20
13.84132015974828
 30
0.0
 10
180.8300548294892
 20
13.81825726508602
 30
0.0
 10
180.6673071295156
 20
13.82454021985783
 30
0.0
 10
180.5129366450002
 20
13.82260943909923
 30
0.0
 10
180.3566670436942
 20
13.82393762599264
 30
0.0
 10
180.1970544465282
 20
13.82059872487859
 30
0.0
 10
180.0540326342236
 20
13.83265795728237
 30
0.0
 10
179.8197144881629
 20
13.76952001976918
 30
0.0
 10
179.9173810751197
 20
14.05620527466317
 30
0.0
 10
179.9006868780057
 20
14.24988308142659
 30
0.0
 10
179.9146296709686
 20
14.47848242880293
 30
0.0
 10
179.9142987846633
 20
14.63384593955045
 30
0.0
 10
179.9143078119264
 20
14.73966336444123
 30
0.0
 10
179.9143055876316
 20
14.80205784124211
 30
0.0
 10
179.914306555189
 20
14.89220425248323
 30
0.0
 10
179.9143065473262
 20
14.99621167157435
 30
0.0
 10
179.9143053861104
 20
15.10022131375293
 30
0.0
 10
179.9143090971502
 20
15.19036243688764
 30
0.0
 10
179.9143011051052
 20
15.25276803097212
 30
0.0
 10
179.9143334275019
 20
15.35868835961115
 30
0.0
 10
179.913144078832
 20
15.51626716544738
 30
0.0
 10
179.9082216489256
 20
15.66528219822062
 30
0.0
 10
179.9057788376617
 20
15.73923260398187
 30
0.0
 11
179.9057788376617
 21
15.73923260398187
 31
0.0
 11
179.896691822374
 21
15.95938578101015
 31
0.0
 11
179.8868249573134
 21
16.17960510387176
 31
0.0
 11
180.04115751414
 21
16.17312391463726
 31
0.0
 11
180.1946500189046
 21
16.16754892331921
 31
0.0
 11
180.3481160653367
 21
16.16367167505628
 31
0.0
 11
180.502554455494
 21
16.16238072887605
 31
0.0
 11
180.6564835227473
 21
16.16367167505628
 31
0.0
 11
180.8087391004601
 21
16.16754892331921
 31
0.0
 11
180.9609113551074
 21
16.17312391463725
 31
0.0
 11
181.1148364762482
 21
16.17960510387176
 31
0.0
 11
181.1070811703124
 21
16.12794961777355
 31
0.0
 11
181.1044991623592
 21
16.07642642334201
 31
0.0
 11
181.1070811703124
 21
16.02475660564657
 31
0.0
 11
181.1148364762482
 21
15.97315954836783
 31
0.0
 11
181.0094874054411
 21
15.98001446156055
 31
0.0
 11
180.913637570006
 21
15.98693552058654
 31
0.0
 11
180.8198593171903
 21
15.99378381919595
 31
0.0
 11
180.7209679915881
 21
16.00063211780537
 31
0.0
 11
180.6147532199924
 21
16.00710999974821
 31
0.0
 11
180.4991060528038
 21
16.01268829835791
 31
0.0
 11
180.3666126447258
 21
16.01656554662085
 31
0.0
 11
180.2101546018424
 21
16.01785649280109
 31
0.0
 11
180.2062663293721
 21
15.91037061609184
 31
0.0
 11
180.20153800484
 21
15.80805072896461
 31
0.0
 11
180.1976607566749
 21
15.70138175329684
 31
0.0
 11
180.1963698105271
 21
15.58102059013247
 31
0.0
 11
180.1967799146836
 21
15.44856355891562
 31
0.0
 11
180.1980896021503
 21
15.31953288186452
 31
0.0
 11
180.1994074577049
 21
15.20777398432306
 31
0.0
 11
180.1998191153659
 21
15.12695149302382
 31
0.0
 11
180.3434452935874
 21
15.12780256941247
 31
0.0
 11
180.4716343930759
 21
15.13039989580074
 31
0.0
 11
180.5868078221796
 21
15.13425509545251
 31
0.0
 11
180.691775631222
 21
15.13901649302073
 31
0.0
 11
180.7876346289422
 21
15.14418027774173
 31
0.0
 11
180.8757413374194
 21
15.14934406246264
 31
0.0
 11
180.9578881438497
 21
15.15491243919737
 31
0.0
 11
181.0357692335572
 21
15.16132086801522
 31
0.0
 11
181.0280180445186
 21
15.10884407115334
 31
0.0
 11
181.0254328449316
 21
15.05469378470855
 31
0.0
 11
181.0280180445186
 21
15.00310444444364
 31
0.0
 11
181.0357692335572
 21
14.95151510417879
 31
0.0
 11
180.9389813454015
 21
14.96092324653754
 31
0.0
 11
180.8275950722016
 21
14.96865128473009
 31
0.0
 11
180.7089261429373
 21
14.97425273438143
 31
0.0
 11
180.5903167449212
 21
14.97726788195008
 31
0.0
 11
180.4750025117521
 21
14.97898767361635
 31
0.0
 11
180.3667261950699
 21
14.98070746528255
 31
0.0
 11
180.2724839317708
 21
14.98202486979614
 31
0.0
 11
180.1998191153659
 21
14.98243607639326
 31
0.0
 11
180.1994074577049
 21
14.95019108508188
 31
0.0
 11
180.1980896021503
 21
14.91542593752115
 31
0.0
 11
180.1967799146836
 21
14.87450702260082
 31
0.0
 11
180.1963698105271
 21
14.8242152430995
 31
0.0
 11
180.1963698105271
 21
14.8032621723582
 31
0.0
 11
180.1963698105271
 21
14.75716541672734
 31
0.0
 11
180.1963698105271
 21
14.71106866109648
 31
0.0
 11
180.1963698105271
 21
14.69011559035518
 31
0.0
 11
180.1963698105271
 21
14.66864525258278
 31
0.0
 11
180.1963698105271
 21
14.61744675481781
 31
0.0
 11
180.1963698105271
 21
14.55633887038865
 31
0.0
 11
180.1963698105271
 21
14.50514037262368
 31
0.0
 11
180.1963698105271
 21
14.48367003485127
 31
0.0
 11
180.1967799146836
 21
14.30481721371544
 31
0.0
 11
180.1980896021503
 21
14.16026100715439
 31
0.0
 11
180.2002868589709
 21
14.04850210961286
 31
0.0
 11
180.2032586986986
 21
13.96767961831363
 31
0.0
 11
180.3202092517448
 21
13.96767961831363
 31
0.0
 11
180.4440727208747
 21
13.96767961831363
 31
0.0
 11
180.5734925526422
 21
13.96897056449387
 31
0.0
 11
180.7003922282244
 21
13.97284781275679
 31
0.0
 11
180.8224658067973
 21
13.97886708358862
 31
0.0
 11
180.9377587499463
 21
13.98663260441999
 31
0.0
 11
181.0421754573518
 21
13.99734161483399
 31
0.0
 11
181.1320599255449
 21
14.01237656274689
 31
0.0
 11
181.1264254031191
 21
13.98698427976713
 31
0.0
 11
181.1234433285424
 21
13.959071840538
 31
0.0
 11
181.12213398812
 21
13.93112191867
 31
0.0
 11
181.1217235369194
 21
13.90575829888469
 31
0.0
 11
181.1243087365064
 21
13.85584355063323
 31
0.0
 11
181.1320599255449
 21
13.81626739612925
 31
0.0
 11
180.9776977178345
 21
13.82145433189183
 31
0.0
 11
180.8242357818766
 21
13.82315538223859
 31
0.0
 11
180.6697789496484
 21
13.82315538223859
 31
0.0
 11
180.5128026496768
 21
13.82315538223859
 31
0.0
 11
180.3554704921536
 21
13.82315538223859
 31
0.0
 11
180.1998191153659
 21
13.82315538223859
 31
0.0
 11
180.0441620874241
 21
13.82145433189183
 31
0.0
 11
179.8868249573134
 21
13.81626739612925
 31
0.0
 11
179.896691822374
 21
14.03601267385207
 31
0.0
 11
179.9057788376617
 21
14.2549112849085
 31
0.0
 11
179.9121721518401
 21
14.47550763902
 31
0.0
 11
179.914306345501
 21
14.70036378479712
 31
0.0
 11
179.914306345501
 21
14.72578824496871
 31
0.0
 11
179.914306345501
 21
14.79281636723928
 31
0.0
 11
179.914306345501
 21
14.8875802642425
 31
0.0
 11
179.914306345501
 21
14.99621204861204
 31
0.0
 11
179.914306345501
 21
15.10484383298159
 31
0.0
 11
179.914306345501
 21
15.19960772998481
 31
0.0
 11
179.914306345501
 21
15.26663585225538
 31
0.0
 11
179.914306345501
 21
15.29206031242697
 31
0.0
 11
179.9121721518401
 21
15.51735963528732
 31
0.0
 11
179.9057788376617
 21
15.73923260398187
 31
0.0
  0
SPLINE
  5
B9
102
{ACAD_REACTORS
330
D6
102
}
330
48
100
AcDbEntity
  8
_U_30EC_U_30A4_U_30E4_U_30FC_1
  6
Continuous
 62
     2
100
AcDbSpline
210
0.0
220
0.0
230
1.0
 70
    11
 71
     3
 72
    95
 73
    91
 74
    89
 42
0.000000001
 43
0.0000000001
 44
0.00000001
 40
0.0
 40
0.0
 40
0.0
 40
0.0
 40
0.6550406656911973
 40
1.308087289032095
 40
1.420803739835963
 40
1.566130759770949
 40
1.757067341888624
 40
2.006513545026622
 40
2.087328263121712
 40
2.185328872295771
 40
2.294612454748521
 40
2.408936380534977
 40
2.526802767798722
 40
2.646360524615768
 40
2.762535723971751
 40
2.870057342870325
 40
2.966883448431813
 40
3.050803243518456
 40
3.11581822243676
 40
3.156030057150399
 40
3.213914225080245
 40
3.276689026450702
 40
3.342960320981422
 40
3.404230667150728
 40
3.453822809493533
 40
3.532499827188592
 40
3.634775188507329
 40
3.754909333008339
 40
3.889736761660825
 40
4.035769602175378
 40
4.18725668119777
 40
4.338733685676115
 40
4.48847873467628
 40
4.634708317831748
 40
4.771493189921434
 40
4.892686571561372
 40
5.199775528944613
 40
5.460353566929817
 40
5.667603142345678
 40
5.814722905404654
 40
5.828990806219952
 40
5.855488336304649
 40
5.869756237118981
 40
6.189796507762968
 40
6.531890469873232
 40
6.883053637017165
 40
7.230512024911715
 40
7.566966656764779
 40
7.885203559707649
 40
8.17288743971945
 40
8.418011594062925
 40
8.443926721190849
 40
8.510760470613334
 40
8.602145393795844
 40
8.701714041647282
 40
8.793098965075515
 40
8.859932715058088
 40
8.885847842603736
 40
9.24230125661295
 40
9.589275455016905
 40
9.92180854316431
 40
10.23479624298482
 40
10.29968150889212
 40
10.353234938878
 40
10.40154625355176
 40
10.46482922477849
 40
10.5597390066843
 40
10.69239545985642
 40
10.84920353475696
 40
11.01626328594804
 40
11.18672024367467
 40
11.35372582577235
 40
11.50257442292451
 40
11.61866495023316
 40
11.71329869152899
 40
11.82511050573932
 40
11.9446488084574
 40
12.06929242642531
 40
12.19707290435201
 40
12.32562632860553
 40
12.45034565331304
 40
12.56646595170352
 40
12.67099007414659
 40
12.76077625936805
 40
12.82703233506718
 40
12.87429132786017
 40
12.89831990323354
 40
12.92234847860037
 40
13.5398476741034
 40
14.18294284359379
 40
14.18294284359379
 40
14.18294284359379
 40
14.18294284359379
 10
177.3067935648022
 20
14.70898038201721
 30
0.0
 10
177.1752019758552
 20
14.82265058603229
 30
0.0
 10
176.912419380273
 20
15.04964496316157
 30
0.0
 10
176.3997393441018
 20
15.89214462956289
 30
0.0
 10
176.4106654595362
 20
15.53423377577017
 30
0.0
 10
176.4041226527993
 20
15.3926739227213
 30
0.0
 10
176.4028026631773
 20
15.19421305299278
 30
0.0
 10
176.4018117602537
 20
15.0215029604598
 30
0.0
 10
176.4024101751975
 20
14.87865373257577
 30
0.0
 10
176.4038994301881
 20
14.78265005413356
 30
0.0
 10
176.4055683588472
 20
14.67545503263139
 30
0.0
 10
176.4071934954619
 20
14.56164211517579
 30
0.0
 10
176.4092429501686
 20
14.44441572604586
 30
0.0
 10
176.4123165501924
 20
14.32656411232966
 30
0.0
 10
176.4156339697045
 20
14.21228087320618
 30
0.0
 10
176.419360534028
 20
14.10521401867273
 30
0.0
 10
176.4217338161425
 20
14.01007408766919
 30
0.0
 10
176.4278718888356
 20
13.92558557205691
 30
0.0
 10
176.4239784495946
 20
13.86923087298139
 30
0.0
 10
176.4455230443078
 20
13.79825022472355
 30
0.0
 10
176.3680940058618
 20
13.82902677604482
 30
0.0
 10
176.3116353240191
 20
13.8201124251761
 30
0.0
 10
176.2540495896807
 20
13.82896218398272
 30
0.0
 10
176.1690163478473
 20
13.79738225225941
 30
0.0
 10
176.2009714146382
 20
13.88095155992187
 30
0.0
 10
176.1990705282538
 20
13.94882608968307
 30
0.0
 10
176.2107960047301
 20
14.05233256764416
 30
0.0
 10
176.2164241052999
 20
14.17002125616693
 30
0.0
 10
176.2237902178942
 20
14.3038860916442
 30
0.0
 10
176.2320759701609
 20
14.4476415287263
 30
0.0
 10
176.2398851897427
 20
14.59714022843441
 30
0.0
 10
176.2457571222658
 20
14.74792549402076
 30
0.0
 10
176.2503667817967
 20
14.89699943878435
 30
0.0
 10
176.2542632117544
 20
15.04122913163019
 30
0.0
 10
176.2570715126564
 20
15.17583905213014
 30
0.0
 10
176.2576698755023
 20
15.36469614347351
 30
0.0
 10
176.261602386715
 20
15.58975494313151
 30
0.0
 10
176.2442175378498
 20
15.86367091125706
 30
0.0
 10
176.2850417342582
 20
16.02787112098593
 30
0.0
 10
176.1995153256004
 20
16.22749661465096
 30
0.0
 10
176.2660558907687
 20
16.22385458403975
 30
0.0
 10
176.283872427323
 20
16.22413447160851
 30
0.0
 10
176.4056801797502
 20
16.2263292739861
 30
0.0
 10
176.5080770335462
 20
15.94675118721505
 30
0.0
 10
176.7580021509357
 20
15.74563008536007
 30
0.0
 10
176.987003533111
 20
15.47792614987906
 30
0.0
 10
177.224515121311
 20
15.2264641386238
 30
0.0
 10
177.4486090740772
 20
14.98969974061352
 30
0.0
 10
177.675071628301
 20
14.73218692583077
 30
0.0
 10
177.8325687886516
 20
14.61649335056923
 30
0.0
 10
178.0472129612673
 20
14.27997152538793
 30
0.0
 10
178.0422645974619
 20
14.40464754091601
 30
0.0
 10
178.0433931602546
 20
14.46327691935734
 30
0.0
 10
178.0428877841517
 20
14.55043662371974
 30
0.0
 10
178.0430475158114
 20
14.64416143182869
 30
0.0
 10
178.0430054891317
 20
14.73018971297031
 30
0.0
 10
178.0430202040372
 20
14.79153891945492
 30
0.0
 10
178.0429706255982
 20
14.94135231520989
 30
0.0
 10
178.0458811522811
 20
15.17989612510102
 30
0.0
 10
178.0259521041161
 20
15.54486509868696
 30
0.0
 10
178.0750433936248
 20
15.80799631993416
 30
0.0
 10
177.9177951509179
 20
16.21928904947746
 30
0.0
 10
178.0762112872422
 20
16.16398282551747
 30
0.0
 10
178.1311680478629
 20
16.16199686500173
 30
0.0
 10
178.182788776674
 20
16.16264778248251
 30
0.0
 10
178.2713198965366
 20
16.20369527738242
 30
0.0
 10
178.2204898303168
 20
16.05696326622984
 30
0.0
 10
178.2313389930285
 20
15.95019971954429
 30
0.0
 10
178.2166036994847
 20
15.7908570541411
 30
0.0
 10
178.2099976446206
 20
15.6285306165287
 30
0.0
 10
178.2014961399915
 20
15.45992521892392
 30
0.0
 10
178.1943227202199
 20
15.29814814703539
 30
0.0
 10
178.1889063215388
 20
15.15422331457929
 30
0.0
 10
178.1871713967648
 20
15.03437493466922
 30
0.0
 10
178.1875440672318
 20
14.92686101590512
 30
0.0
 10
178.1873656126263
 20
14.81820024645583
 30
0.0
 10
178.1877010863141
 20
14.69953570165527
 30
0.0
 10
178.1890040622183
 20
14.57555163512738
 30
0.0
 10
178.1908887351574
 20
14.44858294171101
 30
0.0
 10
178.1925004454852
 20
14.32153861551029
 30
0.0
 10
178.194140313743
 20
14.19854884492174
 30
0.0
 10
178.1962570745751
 20
14.08300931383756
 30
0.0
 10
178.1963848422365
 20
13.98090903955835
 30
0.0
 10
178.2006514396554
 20
13.89009848838154
 30
0.0
 10
178.190844008529
 20
13.83213621208785
 30
0.0
 10
178.2118474771689
 20
13.76517130132027
 30
0.0
 10
178.1725639739897
 20
13.77291153966684
 30
0.0
 10
177.9595307117745
 20
13.75755254145194
 30
0.0
 10
177.7636297943187
 20
14.3140305809446
 30
0.0
 10
177.4611197631544
 20
14.57556035348506
 30
0.0
 10
177.3067935648022
 20
14.70898038201721
 30
0.0
 11
177.3067935648022
 21
14.70898038201721
 31
0.0
 11
176.8595529338511
 21
15.18757635411975
 31
0.0
 11
176.4124049070642
 21
15.66352649288967
 31
0.0
 11
176.4089664262494
 21
15.55086249986229
 31
0.0
 11
176.4055610183501
 21
15.40557538184308
 31
0.0
 11
176.4029636920275
 21
15.21465645827965
 31
0.0
 11
176.4021126156603
 21
14.96521170139754
 31
0.0
 11
176.402523923029
 21
14.88439802954277
 31
0.0
 11
176.4038420329816
 21
14.7864062847756
 31
0.0
 11
176.4055192267718
 21
14.67713557299737
 31
0.0
 11
176.4072367127519
 21
14.56282454872036
 31
0.0
 11
176.4094007838772
 21
14.44497802965263
 31
0.0
 11
176.4124049070642
 21
14.32545802100196
 31
0.0
 11
176.4158359733139
 21
14.20933349846153
 31
0.0
 11
176.4192928929999
 21
14.10186746550226
 31
0.0
 11
176.4227085253088
 21
14.00510162351261
 31
0.0
 11
176.4261896983792
 21
13.92125406276969
 31
0.0
 11
176.4296006184312
 21
13.85632862007757
 31
0.0
 11
176.4330776843148
 21
13.81626739612925
 31
0.0
 11
176.3754263821572
 21
13.82145433189183
 31
0.0
 11
176.3126746318309
 21
13.82315538223859
 31
0.0
 11
176.2464251717157
 21
13.82145433189183
 31
0.0
 11
176.1853747739675
 21
13.81626739612925
 31
0.0
 11
176.1926772737812
 21
13.86531894125587
 31
0.0
 11
176.2008793569054
 21
13.94356725720853
 31
0.0
 11
176.2090098822349
 21
14.04551893253026
 31
0.0
 11
176.2163406441397
 21
14.16542920159751
 31
0.0
 11
176.2236358280422
 21
14.30005912343887
 31
0.0
 11
176.2318444255595
 21
14.44586107652742
 31
0.0
 11
176.2395504149466
 21
14.5971520313507
 31
0.0
 11
176.2455763002093
 21
14.74850913200731
 31
0.0
 11
176.2503046247416
 21
14.89817951391433
 31
0.0
 11
176.2541928972121
 21
15.04435739582219
 31
0.0
 11
176.2567527408966
 21
15.18111831592693
 31
0.0
 11
176.2576324804575
 21
15.30230850686887
 31
0.0
 11
176.257192610677
 21
15.60939715262541
 31
0.0
 11
176.2559126888347
 21
15.86997204839364
 31
0.0
 11
176.2528658717893
 21
16.07719922716123
 31
0.0
 11
176.2473049112763
 21
16.22421385386059
 31
0.0
 11
176.2615728121469
 21
16.22421385386059
 31
0.0
 11
176.2880703423352
 21
16.22421385386059
 31
0.0
 11
176.3023382432058
 21
16.22421385386059
 31
0.0
 11
176.5194743650277
 21
15.9891017966277
 31
0.0
 11
176.751274412308
 21
15.73751281231559
 31
0.0
 11
176.9894816018839
 21
15.47949555543567
 31
0.0
 11
177.2260074557522
 21
15.22497079855486
 31
0.0
 11
177.4555698717706
 21
14.97899759549135
 31
0.0
 11
177.6731797360104
 21
14.74678934034104
 31
0.0
 11
177.8713724913708
 21
14.53826680567097
 31
0.0
 11
178.0430143099086
 21
14.36326697932586
 31
0.0
 11
178.0430143099086
 21
14.3891821068704
 31
0.0
 11
178.0430143099086
 21
14.45601585685368
 31
0.0
 11
178.0430143099086
 21
14.54740078030022
 31
0.0
 11
178.0430143099086
 21
14.6469694282345
 31
0.0
 11
178.0430143099086
 21
14.73835435168104
 31
0.0
 11
178.0430143099086
 21
14.80518810166432
 31
0.0
 11
178.0430143099086
 21
14.83110322920886
 31
0.0
 11
178.0417233637609
 21
15.18755430550864
 31
0.0
 11
178.0378461155958
 21
15.53450684014412
 31
0.0
 11
178.0296197790002
 21
15.86693815950549
 31
0.0
 11
178.0154535467227
 21
16.17960510387176
 31
0.0
 11
178.0790351249619
 21
16.16666367158332
 31
0.0
 11
178.1324170159612
 21
16.16238072887605
 31
0.0
 11
178.1805381084833
 21
16.16666367158332
 31
0.0
 11
178.2424836798197
 21
16.17960510387176
 31
0.0
 11
178.2351216487574
 21
16.08498128445097
 31
0.0
 11
178.2269790968819
 21
15.95257496503961
 31
0.0
 11
178.2183705364004
 21
15.79600336785653
 31
0.0
 11
178.2097547223216
 21
15.62916593734267
 31
0.0
 11
178.201618785029
 21
15.45890325509358
 31
0.0
 11
178.1942501393835
 21
15.29206031242697
 31
0.0
 11
178.1891406931522
 21
15.14329943572806
 31
0.0
 11
178.1874503478904
 21
15.02722121527098
 31
0.0
 11
178.1874503478904
 21
14.93258747397516
 31
0.0
 11
178.1874503478904
 21
14.82077565976704
 31
0.0
 11
178.1878461204497
 21
14.70123801222746
 31
0.0
 11
178.1890819450707
 21
14.57660052093916
 31
0.0
 11
178.1908392193317
 21
14.44883212687388
 31
0.0
 11
178.1925303477609
 21
14.32028982655876
 31
0.0
 11
178.1942876220214
 21
14.19558288214552
 31
0.0
 11
178.1959787504505
 21
14.07947489606346
 31
0.0
 11
178.1972884379172
 21
13.97495896727014
 31
0.0
 11
178.1976985420735
 21
13.88517371555651
 31
0.0
 11
178.1976985420735
 21
13.81891763918414
 31
0.0
 11
178.1976985420735
 21
13.77165864614038
 31
0.0
 11
178.1736699662976
 21
13.77165864614038
 31
0.0
 11
178.1496413905218
 21
13.77165864614038
 31
0.0
 11
177.7410729200423
 21
14.23466735262187
 31
0.0
 11
177.3067935648022
 21
14.70898038201721
 31
0.0
  0
SPLINE
  5
BA
102
{ACAD_REACTORS
330
D7
102
}
330
48
100
AcDbEntity
  8
_U_30EC_U_30A4_U_30E4_U_30FC_1
  6
Continuous
 62
     2
100
AcDbSpline
210
0.0
220
0.0
230
1.0
 70
    11
 71
     3
 72
    25
 73
    21
 74
    19
 42
0.000000001
 43
0.0000000001
 44
0.00000001
 40
0.0
 40
0.0
 40
0.0
 40
0.0
 40
0.0911479969064821
 40
0.1858117896204667
 40
0.2804128399734492
 40
0.3715889190714511
 40
0.4679080494218709
 40
0.5642683809229234
 40
0.6605683222644991
 40
0.7569653015810255
 40
0.8561348172522738
 40
1.092615965104292
 40
1.374867658141878
 40
1.611348812011601
 40
1.710518328425249
 40
1.809403163726568
 40
2.04520546329407
 40
2.32664691762213
 40
2.562449217190593
 40
2.661334043833911
 40
2.661334043833911
 40
2.661334043833911
 40
2.661334043833911
 10
173.2683700567199
 20
14.88614538197289
 30
0.0
 10
173.2987525917923
 20
14.88598079714552
 30
0.0
 10
173.3606895889111
 20
14.88564528689919
 30
0.0
 10
173.454135696033
 20
14.88269055451997
 30
0.0
 10
173.5475095236357
 20
14.87977752877147
 30
0.0
 10
173.6417760753476
 20
14.87894201643413
 30
0.0
 10
173.7354964790967
 20
14.87996644658044
 30
0.0
 10
173.8352040303204
 20
14.87916977470971
 30
0.0
 10
173.9188949546312
 20
14.88921410235216
 30
0.0
 10
174.0637996315045
 20
14.86234617674162
 30
0.0
 10
173.93961324448
 20
15.03665530280045
 30
0.0
 10
173.8965867286282
 20
15.19651711006088
 30
0.0
 10
173.780892214221
 20
15.45518458550213
 30
0.0
 10
173.7017565431256
 20
15.59231052861855
 30
0.0
 10
173.6431576621816
 20
15.80937033134074
 30
0.0
 10
173.5864803939437
 20
15.59266134213425
 30
0.0
 10
173.5052809900478
 20
15.45327012438233
 30
0.0
 10
173.4063701281487
 20
15.20406969370191
 30
0.0
 10
173.3253625094259
 20
15.0192583022607
 30
0.0
 10
173.2813683325838
 20
14.91650446856113
 30
0.0
 10
173.2683700567199
 20
14.88614538197289
 30
0.0
 11
173.2683700567199
 21
14.88614538197289
 31
0.0
 11
173.359513773782
 21
14.88526123266757
 31
0.0
 11
173.4541428297581
 21
14.88269697919596
 31
0.0
 11
173.5487082179706
 21
14.88009965280774
 31
0.0
 11
173.6398803250196
 21
14.87924857641907
 31
0.0
 11
173.7361985777706
 21
14.87965978301619
 31
0.0
 11
173.8325499034376
 21
14.8809771875297
 31
0.0
 11
173.9288262638286
 21
14.8831081857931
 31
0.0
 11
174.0251753846343
 21
14.88614538197289
 31
0.0
 11
173.9854633323141
 21
14.97701642195017
 31
0.0
 11
173.8907653613968
 21
15.19370890189599
 31
0.0
 11
173.7777387509471
 21
15.45234186183132
 31
0.0
 11
173.6830407800297
 21
15.66903434177714
 31
0.0
 11
173.6433287277095
 21
15.75990538175442
 31
0.0
 11
173.6043330259266
 21
15.66903434177714
 31
0.0
 11
173.5113432755212
 21
15.45234186183132
 31
0.0
 11
173.4003555089082
 21
15.19370890189599
 31
0.0
 11
173.3073657585028
 21
14.97701642195017
 31
0.0
 11
173.2683700567199
 21
14.88614538197289
 31
0.0
  0
SPLINE
  5
BB
102
{ACAD_REACTORS
330
D7
102
}
330
48
100
AcDbEntity
  8
_U_30EC_U_30A4_U_30E4_U_30FC_1
  6
Continuous
 62
     2
100
AcDbSpline
210
0.0
220
0.0
230
1.0
 70
    11
 71
     3
 72
    57
 73
    53
 74
    51
 42
0.000000001
 43
0.0000000001
 44
0.00000001
 40
0.0
 40
0.0
 40
0.0
 40
0.0
 40
0.0471632082809233
 40
0.0914861054632148
 40
0.1357762519701815
 40
0.1826527001610678
 40
0.2295203288571734
 40
0.2737751972220757
 40
0.3181310461542212
 40
0.3652607198398498
 40
0.4571007286314507
 40
0.5671851029165358
 40
0.6894623283868091
 40
0.8181758272545849
 40
0.9510087229273674
 40
1.085852229674053
 40
1.218126164475305
 40
1.343545131142372
 40
1.454537202956731
 40
1.567187607530797
 40
1.680710966642416
 40
1.79422686973678
 40
1.90000918424758
 40
2.00408586044786
 40
2.108162674451747
 40
2.214000150155292
 40
2.49603857735213
 40
2.762350745479269
 40
2.997275353279393
 40
3.185110082137714
 40
3.246407890063941
 40
3.312607550212671
 40
3.378877742711573
 40
3.440140399651427
 40
4.100501696006445
 40
4.754913085563504
 40
5.411331693423901
 40
6.077890432568683
 40
6.110575292670962
 40
6.143260152775742
 40
6.367989363395131
 40
6.610525374951533
 40
6.8633891364673
 40
7.119380025547613
 40
7.376036605091093
 40
7.631164770966308
 40
7.876722425456419
 40
8.10495373585593
 40
8.312916685924295
 40
8.497730294941281
 40
8.651018984313838
 40
8.764738853624557
 40
8.764738853624557
 40
8.764738853624557
 40
8.764738853624557
 10
174.7922649500513
 20
13.81626739612925
 30
0.0
 10
174.7766616726931
 20
13.81826231079076
 30
0.0
 10
174.7463947960302
 20
13.82213201360297
 30
0.0
 10
174.7010994202252
 20
13.82341984967265
 30
0.0
 10
174.6559553129349
 20
13.82308683554047
 30
0.0
 10
174.60990171234
 20
13.82314658674221
 30
0.0
 10
174.5640496172096
 20
13.82325813649997
 30
0.0
 10
174.5183711648165
 20
13.82277833456588
 30
0.0
 10
174.4750811541608
 20
13.82461109618718
 30
0.0
 10
174.4039947951514
 20
13.80049556814653
 30
0.0
 10
174.4057477261441
 20
13.92184693977249
 30
0.0
 10
174.3586196370568
 20
14.00726239751227
 30
0.0
 10
174.3191478251762
 20
14.12486929345136
 30
0.0
 10
174.2706635532645
 20
14.24232752540433
 30
0.0
 10
174.2201017402523
 20
14.3640593576151
 30
0.0
 10
174.1718634610476
 20
14.49075967862462
 30
0.0
 10
174.1135232947595
 20
14.5993368778495
 30
0.0
 10
174.0980892667261
 20
14.75620657134405
 30
0.0
 10
173.9566586330636
 20
14.72373446548319
 30
0.0
 10
173.8508397414904
 20
14.73512888682176
 30
0.0
 10
173.7358569725222
 20
14.73392591514613
 30
0.0
 10
173.6253142252141
 20
14.73506945347407
 30
0.0
 10
173.5176583522783
 20
14.73418350037524
 30
0.0
 10
173.4121322529243
 20
14.73416602390516
 30
0.0
 10
173.3109192682012
 20
14.72714032472411
 30
0.0
 10
173.1266804827754
 20
14.75135859859865
 30
0.0
 10
173.1157393685411
 20
14.44741691121882
 30
0.0
 10
173.008769163475
 20
14.22353177253394
 30
0.0
 10
172.9098148604346
 20
14.03895314292495
 30
0.0
 10
172.9225090524008
 20
13.79530204804204
 30
0.0
 10
172.8050091716396
 20
13.82508046753195
 30
0.0
 10
172.742205586831
 20
13.822580895096
 30
0.0
 10
172.67858720934
 20
13.82344075102803
 30
0.0
 10
172.3946014194076
 20
13.78098039941944
 30
0.0
 10
173.025163849938
 20
14.50081952444783
 30
0.0
 10
173.1087645289072
 20
15.01276539435727
 30
0.0
 10
173.4929252789339
 20
15.5335374355004
 30
0.0
 10
173.4777208288565
 20
16.23519626253211
 30
0.0
 10
173.7239265722697
 20
16.22345633081254
 30
0.0
 10
173.8256346157561
 20
16.2322500445277
 30
0.0
 10
173.8249752035817
 20
15.98059650730343
 30
0.0
 10
173.9428317155829
 20
15.79818020733955
 30
0.0
 10
174.0315515260484
 20
15.55563740662861
 30
0.0
 10
174.1322292485261
 20
15.32340030530129
 30
0.0
 10
174.2311142712243
 20
15.08674644566907
 30
0.0
 10
174.3299676990671
 20
14.85461739170094
 30
0.0
 10
174.4256166390926
 20
14.63122222788785
 30
0.0
 10
174.5159904573271
 20
14.42272549049311
 30
0.0
 10
174.598994456819
 20
14.2330844852932
 30
0.0
 10
174.6726088582799
 20
14.06663106068094
 30
0.0
 10
174.7342815895546
 20
13.92917699626096
 30
0.0
 10
174.7749458885604
 20
13.84999239430032
 30
0.0
 10
174.7922649500513
 20
13.81626739612925
 30
0.0
 11
174.7922649500513
 21
13.81626739612925
 31
0.0
 11
174.7453878317448
 21
13.82145433189183
 31
0.0
 11
174.7010975896125
 21
13.82315538223859
 31
0.0
 11
174.656807443173
 21
13.82315538223859
 31
0.0
 11
174.6099309947159
 21
13.82315538223859
 31
0.0
 11
174.5630633657034
 21
13.82315538223859
 31
0.0
 11
174.5188084970408
 21
13.82315538223859
 31
0.0
 11
174.4744852776855
 21
13.82145433189183
 31
0.0
 11
174.4276419021443
 21
13.81626739612925
 31
0.0
 11
174.3992532136325
 21
13.90360966173242
 31
0.0
 11
174.3622721815897
 21
14.00729656274816
 31
0.0
 11
174.3188386236701
 21
14.12159987001124
 31
0.0
 11
174.2711055866936
 21
14.24113531268966
 31
0.0
 11
174.2208160133237
 21
14.36408057307562
 31
0.0
 11
174.1696467003932
 21
14.48883822929444
 31
0.0
 11
174.1197531801326
 21
14.61134141502769
 31
0.0
 11
174.0733119111841
 21
14.72784517367914
 31
0.0
 11
173.9623611907589
 21
14.73087465284503
 31
0.0
 11
173.8497309225089
 21
14.73300454867787
 31
0.0
 11
173.7362152069449
 21
14.73432195319138
 31
0.0
 11
173.62270004768
 21
14.73473315978851
 31
0.0
 11
173.5169185312816
 21
14.73432195319138
 31
0.0
 11
173.4128501919225
 21
14.73300454867787
 31
0.0
 11
173.3087951724045
 21
14.73087465284503
 31
0.0
 11
173.2030010615596
 21
14.72784517367914
 31
0.0
 11
173.0980914750139
 21
14.46604437513347
 31
0.0
 11
173.0034868690331
 21
14.21710232658457
 31
0.0
 11
172.9252231210298
 21
13.99559756969554
 31
0.0
 11
172.8693431224555
 21
13.81626739612925
 31
0.0
 11
172.8082651639442
 21
13.82145433189183
 31
0.0
 11
172.742087361813
 21
13.82315538223859
 31
0.0
 11
172.6758390041282
 21
13.82145433189183
 31
0.0
 11
172.6147963233938
 21
13.81626739612925
 31
0.0
 11
172.889968495193
 21
14.4165650869514
 31
0.0
 11
173.158294573417
 21
15.01343642360773
 31
0.0
 11
173.4240277350405
 21
15.61366245644378
 31
0.0
 11
173.6914740737033
 21
16.22421385386059
 31
0.0
 11
173.7241589339806
 21
16.22421385386059
 31
0.0
 11
173.7568437942579
 21
16.22421385386059
 31
0.0
 11
173.8428300681057
 21
16.01658539037081
 31
0.0
 11
173.9357285813609
 21
15.79254614563514
 31
0.0
 11
174.0328714521464
 21
15.55908663180466
 31
0.0
 11
174.1317936458032
 21
15.32298128464143
 31
0.0
 11
174.2315341249927
 21
15.08649780379781
 31
0.0
 11
174.3313071129354
 21
14.85168781253708
 31
0.0
 11
174.4280608257449
 21
14.62599492196847
 31
0.0
 11
174.5188084970408
 21
14.41658052097917
 31
0.0
 11
174.6022150834546
 21
14.22607611130458
 31
0.0
 11
174.6770293263377
 21
14.05708232662464
 31
0.0
 11
174.7410729186603
 21
13.91781337700665
 31
0.0
 11
174.7922649500513
 21
13.81626739612925
 31
0.0
  0
SPLINE
  5
BC
102
{ACAD_REACTORS
330
D8
102
}
330
48
100
AcDbEntity
  8
_U_30EC_U_30A4_U_30E4_U_30FC_1
  6
Continuous
 62
     2
100
AcDbSpline
210
0.0
220
0.0
230
1.0
 70
    11
 71
     3
 72
    99
 73
    95
 74
    93
 42
0.000000001
 43
0.0000000001
 44
0.00000001
 40
0.0
 40
0.0
 40
0.0
 40
0.0
 40
0.0796417172272494
 40
0.1621768542356016
 40
0.2486489160957669
 40
0.3404969668524634
 40
0.4381912511164653
 40
0.5434463660244956
 40
0.6518115192847276
 40
0.7530190937886854
 40
0.8492196919725116
 40
0.9419290312998169
 40
1.034249663570045
 40
1.129078600620202
 40
1.226697027573242
 40
1.327220425421699
 40
1.470572134938013
 40
1.595489863371214
 40
1.719934125348395
 40
1.850576620127417
 40
1.989059629987304
 40
2.134139054226921
 40
2.280698007207209
 40
2.424529739039477
 40
2.565929576985849
 40
2.708239260773537
 40
2.861717887443654
 40
3.045168540347368
 40
3.183798301138612
 40
3.314813961455456
 40
3.442083470447314
 40
3.569912708372966
 40
3.702177512509369
 40
3.842307559659531
 40
3.992872223245936
 40
4.156750662218324
 40
4.310981861107546
 40
4.445859909322592
 40
4.572393936131585
 40
4.701656719781984
 40
4.768279086008471
 40
4.835960697898417
 40
4.912788918729337
 40
5.00628520848155
 40
5.026909478751627
 40
5.047533749021191
 40
5.101808031471266
 40
5.162325165538553
 40
5.226919745995877
 40
5.294231806596747
 40
5.364544852554895
 40
5.43831905546794
 40
5.517877651324276
 40
5.607647714861588
 40
5.700449642544434
 40
5.788251142364166
 40
5.872714706039796
 40
5.955167292575307
 40
6.037192395190407
 40
6.120669181469137
 40
6.206848616686375
 40
6.296680855416798
 40
6.442558392872622
 40
6.568190371608298
 40
6.692904567360387
 40
6.824220446557165
 40
6.9631218503294
 40
7.107843738851183
 40
7.253431663907301
 40
7.395187468036724
 40
7.533140753237779
 40
7.670550457175268
 40
7.816236511769286
 40
7.987691657359249
 40
8.142277421969272
 40
8.293662615415048
 40
8.442962460879304
 40
8.591598316185356
 40
8.74367899236183
 40
8.903725323699213
 40
9.076307008890561
 40
9.265578604680616
 40
9.459203795360791
 40
9.617619810273577
 40
9.753609671361938
 40
9.874873300004115
 40
9.954520184977818
 40
10.0241641371925
 40
10.09769764405448
 40
10.18909955924975
 40
10.20974586420137
 40
10.23039218263382
 40
10.30057101881267
 40
10.37632012987548
 40
10.37632012987548
 40
10.37632012987548
 40
10.37632012987548
 10
170.1465954835851
 20
14.13795663215991
 30
0.0
 10
170.1632217851219
 20
14.11720608845309
 30
0.0
 10
170.1970784206577
 20
14.07495111711899
 30
0.0
 10
170.2599822541036
 20
14.02029811392069
 30
0.0
 10
170.3332500940393
 20
13.97299025121048
 30
0.0
 10
170.4175969238636
 20
13.93527231437932
 30
0.0
 10
170.5132240615459
 20
13.91040619731948
 30
0.0
 10
170.6171853775346
 20
13.90309559345934
 30
0.0
 10
170.7224020220405
 20
13.9114232279405
 30
0.0
 10
170.8206626371333
 20
13.94149179651525
 30
0.0
 10
170.9058986427548
 20
13.98848822971873
 30
0.0
 10
170.9779220206102
 20
14.04952991250854
 30
0.0
 10
171.0350917709097
 20
14.12412969578581
 30
0.0
 10
171.0767868747439
 20
14.21002464660172
 30
0.0
 10
171.1026952846292
 20
14.30485850432208
 30
0.0
 10
171.1118037332653
 20
14.41854979038364
 30
0.0
 10
171.0986864796487
 20
14.54332587770775
 30
0.0
 10
171.0325330334414
 20
14.6601471917189
 30
0.0
 10
170.9369370919569
 20
14.7451253957737
 30
0.0
 10
170.8249681022369
 20
14.8141668445916
 30
0.0
 10
170.6993659583269
 20
14.87204142045887
 30
0.0
 10
170.5656691620856
 20
14.92373723284337
 30
0.0
 10
170.4313122818831
 20
14.97899092397178
 30
0.0
 10
170.3051983986877
 20
15.04939770641646
 30
0.0
 10
170.1926579987535
 20
15.13785540731247
 30
0.0
 10
170.0969963064458
 20
15.24981067868469
 30
0.0
 10
170.0334157151826
 20
15.3994991010138
 30
0.0
 10
170.0200706505015
 20
15.55932794385139
 30
0.0
 10
170.0320510987448
 20
15.71048405306842
 30
0.0
 10
170.071229892884
 20
15.83809244591536
 30
0.0
 10
170.135498775091
 20
15.95080874030842
 30
0.0
 10
170.2238204999741
 20
16.04648609268683
 30
0.0
 10
170.3338091207627
 20
16.12354214985751
 30
0.0
 10
170.4632284401264
 20
16.18151396936273
 30
0.0
 10
170.6111838967793
 20
16.2173917758882
 30
0.0
 10
170.7682069455487
 20
16.22746719050561
 30
0.0
 10
170.917494046643
 20
16.21863637762587
 30
0.0
 10
171.059625361417
 20
16.1907489934035
 30
0.0
 10
171.1595922609626
 20
16.13413314701135
 30
0.0
 10
171.3125074736185
 20
16.08674602105504
 30
0.0
 10
171.2455131717168
 20
16.00197553001182
 30
0.0
 10
171.2296479120268
 20
15.93438901873481
 30
0.0
 10
171.1978750531297
 20
15.86926092793187
 30
0.0
 10
171.2150202209571
 20
15.76723453256949
 30
0.0
 10
171.1666427208231
 20
15.77493211681898
 30
0.0
 10
171.1315789440766
 20
15.76806771724804
 30
0.0
 10
171.1296697985718
 20
15.83263831158192
 30
0.0
 10
171.0985692931989
 20
15.87825639621393
 30
0.0
 10
171.0664551628455
 20
15.93561036628452
 30
0.0
 10
171.0208038475168
 20
15.98540462692555
 30
0.0
 10
170.9658508218386
 20
16.02994813718992
 30
0.0
 10
170.9010841173007
 20
16.06763988836547
 30
0.0
 10
170.8232377310597
 20
16.09283375791349
 30
0.0
 10
170.7355160553352
 20
16.09931230998107
 30
0.0
 10
170.6452903277806
 20
16.09235709285604
 30
0.0
 10
170.5594594694065
 20
16.06909190460918
 30
0.0
 10
170.4828343638596
 20
16.03131644107541
 30
0.0
 10
170.4165265636201
 20
15.98051641089572
 30
0.0
 10
170.3622560536964
 20
15.91731143407207
 30
0.0
 10
170.3224925345458
 20
15.84276455710364
 30
0.0
 10
170.2976775510588
 20
15.75917313997761
 30
0.0
 10
170.2892124262869
 20
15.65192948382282
 30
0.0
 10
170.3019697987103
 20
15.52965457267556
 30
0.0
 10
170.3681548409273
 20
15.41149724291209
 30
0.0
 10
170.4640977399832
 20
15.32606325709525
 30
0.0
 10
170.5757914963182
 20
15.25583362306719
 30
0.0
 10
170.7010863668702
 20
15.19659162305301
 30
0.0
 10
170.8349823941447
 20
15.14616708086131
 30
0.0
 10
170.9689930333149
 20
15.09322516984379
 30
0.0
 10
171.0950885316915
 20
15.02750170625172
 30
0.0
 10
171.2076216638418
 20
14.94480352537319
 30
0.0
 10
171.3031370284232
 20
14.8399600631007
 30
0.0
 10
171.3672706486963
 20
14.69937117251566
 30
0.0
 10
171.3811103725279
 20
14.54065409451589
 30
0.0
 10
171.3673954712229
 20
14.38153155217872
 30
0.0
 10
171.3244739153984
 20
14.23483828819207
 30
0.0
 10
171.2545906329066
 20
14.10119796587138
 30
0.0
 10
171.1574592213829
 20
13.98532387699288
 30
0.0
 10
171.0347806023657
 20
13.89089981770084
 30
0.0
 10
170.8874408413168
 20
13.82179270651978
 30
0.0
 10
170.7177132497125
 20
13.7795321085885
 30
0.0
 10
170.5317404979596
 20
13.76781736230404
 30
0.0
 10
170.3528955926183
 20
13.77809486683434
 30
0.0
 10
170.1881733753743
 20
13.81966573769151
 30
0.0
 10
170.0834410841056
 20
13.88797642883937
 30
0.0
 10
169.9350960790366
 20
13.93675219032105
 30
0.0
 10
169.9980378194729
 20
14.02976591290839
 30
0.0
 10
170.007227443006
 20
14.10296536248278
 30
0.0
 10
170.0303711301232
 20
14.16936294501344
 30
0.0
 10
170.0034588335317
 20
14.26974809527577
 30
0.0
 10
170.0521338956339
 20
14.26234033517376
 30
0.0
 10
170.0916530580697
 20
14.26894063620891
 30
0.0
 10
170.0996204944701
 20
14.19078703218929
 30
0.0
 10
170.1305436967923
 20
14.15600927375854
 30
0.0
 10
170.1465954835851
 20
14.13795663215991
 30
0.0
 11
170.1465954835851
 21
14.13795663215991
 31
0.0
 11
170.1982038075864
 21
14.07729869814733
 31
0.0
 11
170.2601105501335
 21
14.02271295163317
 31
0.0
 11
170.3327764009802
 21
13.9758398092838
 31
0.0
 11
170.4166468655843
 21
13.93839906276534
 31
0.0
 11
170.511221073241
 21
13.91390636311875
 31
0.0
 11
170.6161603327165
 21
13.90575829888469
 31
0.0
 11
170.7240739497552
 21
13.9156404863822
 31
0.0
 11
170.8208419941616
 21
13.94528704887479
 31
0.0
 11
170.9050776083319
 21
13.99175118948816
 31
0.0
 11
170.9756144207686
 21
14.05191413218147
 31
0.0
 11
171.031944210998
 21
14.12505819466317
 31
0.0
 11
171.0736690016003
 21
14.2102143404752
 31
0.0
 11
171.0994680808032
 21
14.3043619098961
 31
0.0
 11
171.1080824729446
 21
14.40451552098217
 31
0.0
 11
171.0878517703357
 21
14.54643250879394
 31
0.0
 11
171.0272522666731
 21
14.65566684036384
 31
0.0
 11
170.9364971286285
 21
14.74081306430091
 31
0.0
 11
170.826010188474
 21
14.81052746532514
 31
0.0
 11
170.7008523531254
 21
14.8697985416992
 31
0.0
 11
170.5662951950998
 21
14.92404253474117
 31
0.0
 11
170.4316884277007
 21
14.98201274306001
 31
0.0
 11
170.3065802017258
 21
15.05297399304229
 31
0.0
 11
170.196027609828
 21
15.14113315968692
 31
0.0
 11
170.1053381235265
 21
15.25080295132614
 31
0.0
 11
170.0447055469484
 21
15.39179720476312
 31
0.0
 11
170.0245079172553
 21
15.57413260402311
 31
0.0
 11
170.0374030471347
 21
15.71216131926639
 31
0.0
 11
170.0761016659391
 21
15.83733128451286
 31
0.0
 11
170.1393141731506
 21
15.94779262129082
 31
0.0
 11
170.2257499954545
 21
16.04196885390618
 31
0.0
 11
170.3336492808962
 21
16.11846540770648
 31
0.0
 11
170.4613526283328
 21
16.17615670109484
 31
0.0
 11
170.6075393259923
 21
16.2122006680997
 31
0.0
 11
170.770976856545
 21
16.22421385386059
 31
0.0
 11
170.9248918431289
 21
16.21434269066861
 31
0.0
 11
171.0564887242607
 21
16.18477329831494
 31
0.0
 11
171.172563634494
 21
16.13439993895249
 31
0.0
 11
171.2800792741122
 21
16.06264163167874
 31
0.0
 11
171.2516994050444
 21
16.00236624106883
 31
0.0
 11
171.2284855254283
 21
15.93879017337644
 31
0.0
 11
171.2078381040801
 21
15.86478841992266
 31
0.0
 11
171.1871840681487
 21
15.77360197897324
 31
0.0
 11
171.1665597978415
 21
15.77360197897324
 31
0.0
 11
171.1459355275343
 21
15.77360197897324
 31
0.0
 11
171.1256706495791
 21
15.82395108486343
 31
0.0
 11
171.0994658759421
 21
15.87850045116926
 31
0.0
 11
171.0650468924451
 21
15.93316116296112
 31
0.0
 11
171.0203554612937
 21
15.98349593725408
 31
0.0
 11
170.9657333359511
 21
16.02777175321526
 31
0.0
 11
170.9016722004326
 21
16.06436142334498
 31
0.0
 11
170.825968296114
 21
16.08882545979724
 31
0.0
 11
170.7365722046449
 21
16.09701100667019
 31
0.0
 11
170.6440937174207
 21
16.08926973931099
 31
0.0
 11
170.5594072091645
 21
16.06609003445563
 31
0.0
 11
170.483702448884
 21
16.02863495634006
 31
0.0
 11
170.4183754766516
 21
15.978327742811
 31
0.0
 11
170.3650487887664
 21
15.91600293379877
 31
0.0
 11
170.3254809233901
 21
15.84249947895604
 31
0.0
 11
170.3009523754711
 21
15.75988443557388
 31
0.0
 11
170.2927954104108
 21
15.67042329844349
 31
0.0
 11
170.3130095765617
 21
15.5259530814657
 31
0.0
 11
170.373625616682
 21
15.41591177072935
 31
0.0
 11
170.4643479320758
 21
15.33033670130629
 31
0.0
 11
170.5748676948813
 21
15.25941954854622
 31
0.0
 11
170.7000089937719
 21
15.19914305550576
 31
0.0
 11
170.8345826882553
 21
15.1459044791302
 31
0.0
 11
170.9691729191968
 21
15.09039489581071
 31
0.0
 11
171.0942976816297
 21
15.02377281249407
 31
0.0
 11
171.204800907977
 21
14.94118863716747
 31
0.0
 11
171.2955397598288
 21
14.83800003476269
 31
0.0
 11
171.3561557999489
 21
14.70552315979581
 31
0.0
 11
171.3763699660998
 21
14.53526378483836
 31
0.0
 11
171.3621839747998
 21
14.3813303039741
 31
0.0
 11
171.3196087009193
 21
14.23605531269094
 31
0.0
 11
171.2499752884265
 21
14.10398854189065
 31
0.0
 11
171.1544992078713
 21
13.99007218775244
 31
0.0
 11
171.0341060772624
 21
13.89715272597014
 31
0.0
 11
170.8896160201846
 21
13.82832357668177
 31
0.0
 11
170.7223519532713
 21
13.78581275203964
 31
0.0
 11
170.5336103348226
 21
13.77165864614038
 31
0.0
 11
170.3405031726387
 21
13.78581275203964
 31
0.0
 11
170.1878975900911
 21
13.82832357668177
 31
0.0
 11
170.0661897942203
 21
13.88899033013887
 31
0.0
 11
169.9660261826363
 21
13.95734322942735
 31
0.0
 11
169.9922320587039
 21
14.03255545163074
 31
0.0
 11
170.0090121537618
 21
14.10014767383611
 31
0.0
 11
170.0206196447852
 21
14.17275926235959
 31
0.0
 11
170.0313606254139
 21
14.26352788212856
 31
0.0
 11
170.0520069443315
 21
14.26352788212856
 31
0.0
 11
170.0726532632492
 21
14.26352788212856
 31
0.0
 11
170.1048916391629
 21
14.20119204881081
 31
0.0
 11
170.1465954835851
 21
14.13795663215991
 31
0.0
  0
LWPOLYLINE
  5
BD
102
{ACAD_REACTORS
330
CA
102
}
330
48
100
AcDbEntity
  8
_U_30EC_U_30A4_U_30E4_U_30FC_1
  6
Continuous
 62
     2
100
AcDbPolyline
 90
        5
 70
     1
 43
0.0
 10
192.4578138032671
 20
15.39722336795623
 10
192.4578138032671
 20
15.22875434022055
 10
191.1602971697031
 20
15.22875434022055
 10
191.1602971697031
 20
15.39722336795623
 10
192.4578138032671
 20
15.39722336795623
  0
MTEXT
  5
BF
330
48
100
AcDbEntity
  8
1
 62
     2
100
AcDbMText
 10
32.49999999999999
 20
282.0000000000003
 30
0.0
 40
5.0
 41
0.0
 71
     5
 72
     1
  1
図番
  7
CONVERTER_11
 73
     1
 44
0.45454545454545
  0
MTEXT
  5
C0
330
48
100
AcDbEntity
  8
1
 62
     2
100
AcDbMText
 10
28.99999999999999
 20
33.99999999999999
 30
0.0
 40
3.5
 41
0.0
 71
     5
 72
     1
  1
備考
  7
CONVERTER_11
 73
     1
 44
0.45454545454545
  0
MTEXT
  5
C1
330
48
100
AcDbEntity
  8
1
 62
     2
100
AcDbMText
 10
28.99999999999999
 20
22.74999999999997
 30
0.0
 40
3.5
 41
0.0
 71
     5
 72
     1
  1
品名
  7
CONVERTER_11
 73
     1
 44
0.72727272727273
  0
MTEXT
  5
C2
330
48
100
AcDbEntity
  8
1
 62
     2
100
AcDbMText
 10
28.99999999999999
 20
14.24999999999997
 30
0.0
 40
3.5
 41
0.0
 71
     5
 72
     1
  1
品番
  7
CONVERTER_11
 73
     1
 44
0.72727272727273
  0
MTEXT
  5
C3
330
48
100
AcDbEntity
  8
1
 62
     2
100
AcDbMText
 10
101.5
 20
24.99999999999998
 30
0.0
 40
3.0
 41
0.0
 71
     5
 72
     1
  1
承認
  7
CONVERTER_11
 73
     1
 44
0.59090909090909
  0
MTEXT
  5
C4
330
48
100
AcDbEntity
  8
1
 62
     2
100
AcDbMText
 10
175.0000000000001
 20
23.49999999999998
 30
0.0
 40
3.5
 41
0.0
 71
     5
 72
     1
  1
第三角法
  7
CONVERTER_11
 73
     1
 44
0.54545454545455
  0
MTEXT
  5
C5
330
48
100
AcDbEntity
  8
1
 62
     2
100
AcDbMText
 10
118.5
 20
24.99999999999998
 30
0.0
 40
3.0
 41
0.0
 71
     5
 72
     1
  1
検図
  7
CONVERTER_11
 73
     1
 44
0.59090909090909
  0
MTEXT
  5
C6
330
48
100
AcDbEntity
  8
1
 62
     2
100
AcDbMText
 10
152.5
 20
24.99999999999998
 30
0.0
 40
3.0
 41
0.0
 71
     5
 72
     1
  1
設計
  7
CONVERTER_11
 73
     1
 44
0.59090909090909
  0
MTEXT
  5
C7
330
48
100
AcDbEntity
  8
1
 62
     2
100
AcDbMText
 10
135.5
 20
24.99999999999998
 30
0.0
 40
3.0
 41
0.0
 71
     5
 72
     1
  1
製図
  7
CONVERTER_11
 73
     1
 44
0.59090909090909
  0
MTEXT
  5
C8
330
48
100
AcDbEntity
  8
1
 62
     2
100
AcDbMText
 10
89.5
 20
23.99999999999998
 30
0.0
 40
3.5
 41
0.0
 71
     5
 72
     1
  1
尺度
  7
CONVERTER_11
 73
     1
 44
0.54545454545455
  0
MTEXT
  5
C9
330
48
100
AcDbEntity
  8
1
 62
   250
100
AcDbMText
 10
24.99999999999999
 20
4.99999999999997
 30
0.0
 40
3.5
 41
0.0
 71
     4
 72
     1
  1
備考欄の文字列 原点位置=4
  7
CONVERTER_11
 73
     1
 44
0.54545454545455
  0
HATCH
  5
CA
330
48
100
AcDbEntity
  8
1
  6
Continuous
 62
     2
100
AcDbHatch
 10
0.0
 20
0.0
 30
0.0
210
0.0
220
0.0
230
1.0
  2
CUSTOM0
 70
     0
 71
     1
 91
        1
 92
        1
 93
        4
 72
     1
 10
192.4578138032671
 20
15.39722336795623
 11
192.4578138032671
 21
15.22875434022055
 72
     1
 10
192.4578138032671
 20
15.22875434022055
 11
191.1602971697031
 21
15.22875434022055
 72
     1
 10
191.1602971697031
 20
15.22875434022055
 11
191.1602971697031
 21
15.39722336795623
 72
     1
 10
191.1602971697031
 20
15.39722336795623
 11
192.4578138032671
 21
15.39722336795623
 97
        1
330
BD
 75
     1
 76
     2
 52
45.0
 41
0.1
 77
     0
 78
     1
 53
45.0
 43
0.0
 44
0.0
 45
-0.282842712474619
 46
0.0
 79
     0
 98
        1
 10
0.0
 20
0.0
  0
HATCH
  5
CB
330
48
100
AcDbEntity
  8
1
  6
Continuous
 62
     2
100
AcDbHatch
 10
0.0
 20
0.0
 30
0.0
210
0.0
220
0.0
230
1.0
  2
CUSTOM1
 70
     0
 71
     1
 91
        1
 92
        1
 93
        3
 72
     4
 94
        3
 73
     0
 74
     0
 95
       24
 96
       20
 40
0.0
 40
0.0
 40
0.0
 40
0.0
 40
0.2211075008753675
 40
0.4273218586245323
 40
0.5080174679238261
 40
0.5914835907870247
 40
0.8143265690192496
 40
1.054651302686541
 40
1.295452694023141
 40
1.518109231328798
 40
1.540864321905441
 40
1.595126460622701
 40
1.659890947896042
 40
1.714153085187428
 40
1.736908174961727
 40
1.764951100735458
 40
1.801562291221076
 40
1.95391442454375
 40
2.126104167379832
 40
2.126104167379832
 40
2.126104167379832
 40
2.126104167379832
 10
185.9375369556889
 20
15.58989295113014
 10
185.9112579081812
 20
15.53097628234372
 10
185.8604698894426
 20
15.41711139679254
 10
185.8131784839112
 20
15.14441958233114
 10
185.7043482802619
 20
15.24445482575457
 10
185.5514800279637
 20
15.27118593367322
 10
185.7686155181199
 20
15.48518135017631
 10
185.783848367438
 20
15.70332117782485
 10
185.8906889492
 20
15.88451579066423
 10
185.8305380947077
 20
16.16913226311397
 10
185.9334317395402
 20
16.14114089222448
 10
185.977993346815
 20
16.13243251602297
 10
186.0380842395397
 20
16.12139654183352
 10
186.075661958744
 20
16.10767523055558
 10
186.1252466928606
 20
16.10756076160219
 10
186.0930158919325
 20
16.07306592398621
 10
186.0171802221881
 20
16.0840410453796
 10
186.0429447159693
 20
15.89858969582447
 10
186.005589676385
 20
15.80702313549586
 10
185.9857704961609
 20
15.75844135397702
 72
     4
 94
        3
 73
     0
 74
     0
 95
       70
 96
       66
 40
0.0
 40
0.0
 40
0.0
 40
0.0
 40
0.0241731073021472
 40
0.0846058988987013
 40
0.1631685280353284
 40
0.2417311571789756
 40
0.3021639488292751
 40
0.3263370654895541
 40
0.3533118254248881
 40
0.4228783438922094
 40
0.5179999095313402
 40
0.6216398239466084
 40
0.7167613891499688
 40
0.7863279069649846
 40
0.8133026791761818
 40
0.8372943998771656
 40
0.8945054261372847
 40
0.9627895541962617
 40
1.020000580349071
 40
1.043992300975169
 40
1.071934345522894
 40
1.113121768772853
 40
1.145225199332178
 40
1.225483775412713
 40
1.329819923771421
 40
1.434156071994311
 40
1.514414647795731
 40
1.546518078208339
 40
1.57897476426014
 40
1.662678849314078
 40
1.777131373668299
 40
1.90183337747469
 40
2.016285900500451
 40
2.09998998252779
 40
2.132446666570149
 40
2.158782354485871
 40
2.216720867907656
 40
2.274659381334074
 40
2.300995069256008
 40
2.33345175406598
 40
2.417155836543632
 40
2.531608358985072
 40
2.656310362283567
 40
2.770762886388671
 40
2.854466971339808
 40
2.886923657363614
 40
2.913597976833048
 40
2.982389642874854
 40
3.076451716946722
 40
3.178937260458339
 40
3.272999334739744
 40
3.341791001058969
 40
3.36846532066328
 40
3.396976080738501
 40
3.472140811845709
 40
3.578408190308398
 40
3.700226892455806
 40
3.822045594634023
 40
3.928312973256102
 40
4.003477705314499
 40
4.031988456866565
 40
4.058324144797363
 40
4.116262658236525
 40
4.174201171400322
 40
4.200536849608256
 40
4.200536849608256
 40
4.200536849608256
 40
4.200536849608256
 10
185.9857704961609
 20
15.75844135397702
 10
185.9938259544679
 20
15.75844359811683
 10
186.0220200663241
 20
15.75845146032794
 10
186.0765534803672
 20
15.75830754828368
 10
186.1482891808604
 20
15.75909120499895
 10
186.2236240137062
 20
15.75627570463808
 10
186.2713052366438
 20
15.76298403400954
 10
186.3195071245616
 20
15.7519756369243
 10
186.3062571799873
 20
15.8054640299703
 10
186.3151093964538
 20
15.86049583543088
 10
186.3108698036285
 20
15.95419908726106
 10
186.313348348128
 20
16.04959482218529
 10
186.309093870606
 20
16.14356821983384
 10
186.3179818665846
 20
16.19795062438008
 10
186.3046977409946
 20
16.25233997691457
 10
186.3514119277108
 20
16.23842216335355
 10
186.3943254545737
 20
16.24103877374041
 10
186.4605443456685
 20
16.23648422450751
 10
186.5013342271798
 20
16.2277816213416
 10
186.5525145690818
 20
16.23531799890193
 10
186.5253720487201
 20
16.19349970223284
 10
186.4803096055708
 20
16.20284992072591
 10
186.4942065045051
 20
16.13841207371834
 10
186.4858414431655
 20
16.07378219627396
 10
186.4903632178399
 20
15.97529141193884
 10
186.4854741311168
 20
15.87595932842567
 10
186.4950258992082
 20
15.81293115552965
 10
186.4799761455201
 20
15.74964011499785
 10
186.5449159457208
 20
15.76515072944265
 10
186.6116246399498
 20
15.7549938769781
 10
186.7241435470828
 20
15.75988800099364
 10
186.8390235448954
 20
15.75691204732781
 10
186.9519871999746
 20
15.76221664184988
 10
187.0176267597678
 20
15.75107306472086
 10
187.0816276691053
 20
15.76744532319854
 10
187.070314288919
 20
15.71761689905272
 10
187.0775339871509
 20
15.6741671521212
 10
187.0703142611269
 20
15.63071745587442
 10
187.0816277175994
 20
15.58088895196875
 10
187.0176263598971
 20
15.5972616609136
 10
186.951992124046
 20
15.58611271661586
 10
186.838997431733
 20
15.59144857206852
 10
186.7242456548644
 20
15.58834345663819
 10
186.6113183686861
 20
15.59364894682587
 10
186.5455220903586
 20
15.58257300019591
 10
186.4816097975358
 20
15.59887597847616
 10
186.4936015165128
 20
15.5442352439574
 10
186.4862104613005
 20
15.48854295047839
 10
186.4892684841984
 20
15.39649689140568
 10
186.4893422785685
 20
15.30179109873098
 10
186.486031357836
 20
15.20952782902262
 10
186.4939505989905
 20
15.15435768736137
 10
186.4815076611618
 20
15.10058169100132
 10
186.5389116551633
 20
15.11453768862777
 10
186.5994708140383
 20
15.10511457884224
 10
186.7048680855081
 20
15.10942885928702
 10
186.8204294070623
 20
15.10835504612028
 10
186.9359688877797
 20
15.10725965900992
 10
187.0414181130841
 20
15.11162525770629
 10
187.1018680471804
 20
15.10209426030668
 10
187.159283773911
 20
15.11617289606376
 10
187.1477773876709
 20
15.0670715326568
 10
187.1537566781749
 20
15.02564658018646
 10
187.1520311050801
 20
14.97651677966692
 10
187.1521500122971
 20
14.94854428447605
 10
187.1521871691833
 20
14.93980288195947
 72
     4
 94
        3
 73
     0
 74
     0
 95
       62
 96
       58
 40
0.0
 40
0.0
 40
0.0
 40
0.0
 40
0.0598250028308485
 40
0.2024846486897047
 40
0.3727558389220178
 40
0.5154154847934933
 40
0.5752404975784202
 40
0.9332326775485806
 40
1.290451762839332
 40
1.60207725314569
 40
1.69993163411188
 40
1.799359756424909
 40
2.270120149656911
 40
2.804661928461327
 40
2.88234228738304
 40
3.076543185718895
 40
3.329004354835362
 40
3.581465524568195
 40
3.775666424543481
 40
3.853346784558102
 40
3.899120679594876
 40
3.984129341791903
 40
4.02990323681728
 40
4.105797496059434
 40
4.295533144152394
 40
4.542189486611637
 40
4.788845828875585
 40
4.978581476409969
 40
5.054475735244212
 40
5.621734664339197
 40
6.130867242037249
 40
6.225249780948426
 40
6.318913039727131
 40
6.663579954558679
 40
7.047498900224526
 40
7.435230791575441
 40
7.498943906667853
 40
7.650875181209847
 40
7.832212509001358
 40
7.984143783696743
 40
8.047856898902872
 40
8.091554632732379
 40
8.172707566964034
 40
8.216405300767757
 40
8.289021782160642
 40
8.462184160757015
 40
8.668861838005096
 40
8.842024215263688
 40
8.914640695474883
 40
8.98988158086109
 40
9.155411528827003
 40
9.320941477743792
 40
9.396182352487044
 40
9.45470901114359
 40
9.583467660170525
 40
9.712226309012804
 40
9.770752957989258
 40
9.770752957989258
 40
9.770752957989258
 40
9.770752957989258
 10
187.1521871691833
 20
14.93980288195947
 10
187.1322348171623
 20
14.93980875568669
 10
187.0647037716465
 20
14.93982863806155
 10
186.9410612161788
 20
14.93949362520322
 10
186.7863180150057
 20
14.94107673750509
 10
186.669734948248
 20
14.93686078860492
 10
186.4550942634241
 20
14.95215205331623
 10
186.8518948407228
 20
14.59198721286187
 10
186.8945656069268
 20
14.37510503397162
 10
187.3189162146611
 20
14.19325062511451
 10
187.1439821496074
 20
14.08985196568062
 10
187.0194523925081
 20
13.87831523212737
 10
186.7666277235944
 20
14.34806081001549
 10
186.4797602893627
 20
14.99511516984519
 10
186.4906335926661
 20
14.68782672154693
 10
186.488289277796
 20
14.52288616971777
 10
186.4861096126411
 20
14.28879670711691
 10
186.4980774396348
 20
14.04498072421781
 10
186.4687984740631
 20
13.89855796860981
 10
186.511452262547
 20
13.75113490174534
 10
186.423981400564
 20
13.76685797306217
 10
186.3768527606744
 20
13.76694303543452
 10
186.2898973207713
 20
13.75109425482905
 10
186.3313474021722
 20
13.89527771422759
 10
186.3029875004285
 20
14.03855052698452
 10
186.3145973775299
 20
14.27674947365261
 10
186.3124175648272
 20
14.50517235240343
 10
186.3103111127994
 20
14.66705729375991
 10
186.3208035438323
 20
14.98153709333748
 10
186.0128963252895
 20
14.29229470872433
 10
185.7055258267454
 20
13.81476750243039
 10
185.5851367066276
 20
14.03741112637427
 10
185.4074607910722
 20
14.15011034955563
 10
185.8853326362895
 20
14.32548143465461
 10
185.9353959057208
 20
14.56091929252027
 10
186.3583799621717
 20
14.95322989344603
 10
186.127675427354
 20
14.93655307029063
 10
186.004968585934
 20
14.94269518948767
 10
185.8325483095661
 20
14.93312822699571
 10
185.7213224694449
 20
14.95448818489663
 10
185.6025779627448
 20
14.92136265357417
 10
185.6183169706686
 20
15.0020390060688
 10
185.6178550933762
 20
15.04645414290851
 10
185.6027881889931
 20
15.12967081778529
 10
185.7372380935444
 20
15.09062651983881
 10
185.8619755545746
 20
15.11739729328418
 10
186.062875523728
 20
15.10063949044049
 10
186.1921540949352
 20
15.12204225913001
 10
186.3328419928295
 20
15.08868778853417
 10
186.2980927452615
 20
15.22651875785065
 10
186.3222185666713
 20
15.34963257349478
 10
186.2967086182392
 20
15.47024055670333
 10
186.3333251146684
 20
15.60539865141493
 10
186.2211417027769
 20
15.58094545781888
 10
186.1280356457136
 20
15.59307749842021
 10
186.0191547579819
 20
15.58957630069991
 10
185.9569697640964
 20
15.58981755951601
 10
185.9375369557246
 20
15.58989295124142
 97
        3
330
AE
330
AC
330
AD
 75
     1
 76
     2
 52
45.0
 41
0.1
 77
     0
 78
     1
 53
45.0
 43
0.0
 44
0.0
 45
-0.282842712474619
 46
0.0
 79
     0
 98
        1
 10
0.0
 20
0.0
  0
HATCH
  5
CC
330
48
100
AcDbEntity
  8
1
  6
Continuous
 62
     2
100
AcDbHatch
 10
0.0
 20
0.0
 30
0.0
210
0.0
220
0.0
230
1.0
  2
CUSTOM2
 70
     0
 71
     1
 91
        1
 92
        1
 93
        1
 72
     4
 94
        3
 73
     0
 74
     0
 95
      124
 96
      120
 40
0.0
 40
0.0
 40
0.0
 40
0.0
 40
0.027818722962451
 40
0.1011590162384269
 40
0.2048470170590523
 40
0.3237088716559245
 40
0.4425707262522284
 40
0.5462587270700116
 40
0.6195990203312934
 40
0.6474177522579513
 40
0.6750060736116077
 40
0.7357003855243593
 40
0.7963946998055327
 40
0.8239830245572619
 40
0.8540933811103997
 40
0.9373396629410109
 40
1.063094687343349
 40
1.220731268638187
 40
1.399622220914861
 40
1.589140358637846
 40
1.778658496424012
 40
1.957549448940679
 40
2.115186030873329
 40
2.240941056914605
 40
2.324187341760703
 40
2.354297700109552
 40
2.381886024672059
 40
2.442580338710648
 40
2.503274652750668
 40
2.530862977314777
 40
2.56098394927873
 40
2.640393784453075
 40
2.752662861759299
 40
2.881361560118315
 40
3.010060258455362
 40
3.122329335705509
 40
3.201739170818123
 40
3.231860142753484
 40
3.264298024030539
 40
3.352343701778412
 40
3.482095226868936
 40
3.639650650173201
 40
3.81110802256566
 40
3.982565394928169
 40
4.140120818152751
 40
4.269872343141462
 40
4.357918020802527
 40
4.390355902044155
 40
4.423256253992725
 40
4.508104530073189
 40
4.624121560636957
 40
4.750528176031685
 40
4.866545206602132
 40
4.951393482692061
 40
4.984293834645462
 40
5.011450833242376
 40
5.071196230152155
 40
5.130941627057221
 40
5.158098625648885
 40
5.190998977601548
 40
5.275847253689345
 40
5.391864284256807
 40
5.518270899648296
 40
5.634287930209307
 40
5.71913620628798
 40
5.752036558235868
 40
5.782130946282895
 40
5.862783906229066
 40
5.979550131774935
 40
6.117984316640341
 40
6.263641154587888
 40
6.402075339414092
 40
6.518841564907885
 40
6.59949452481547
 40
6.629588912848708
 40
6.654403028226284
 40
6.713575149488051
 40
6.784199939329368
 40
6.84337206049347
 40
6.868186175802716
 40
6.896246243201762
 40
6.939586233758213
 40
6.967846564564844
 40
7.043584251089779
 40
7.153234334451637
 40
7.283231855734387
 40
7.420011856035423
 40
7.550009376579775
 40
7.659659458835172
 40
7.735397144417165
 40
7.763657474851339
 40
7.796409728010996
 40
7.88087606509627
 40
7.996370852465656
 40
8.12220844641855
 40
8.237703224799144
 40
8.322169562010838
 40
8.354921815205852
 40
8.382078813307631
 40
8.44182420920693
 40
8.501569605240071
 40
8.528726603485648
 40
8.561478856695697
 40
8.645945193877747
 40
8.761439980865259
 40
8.887277580764401
 40
9.002772362000922
 40
9.087238696661142
 40
9.119990949235596
 40
9.152428830613296
 40
9.240474508638513
 40
9.370226034149466
 40
9.527781457984352
 40
9.699238830981342
 40
9.870696203978534
 40
10.02825162781396
 40
10.15800315332558
 40
10.24604883135113
 40
10.27848670378516
 40
10.27848670378516
 40
10.27848670378516
 40
10.27848670378516
 10
195.3821827564383
 20
14.01410517385754
 10
195.3914554737523
 20
14.01410498511271
 10
195.425174453686
 20
14.01410430876711
 10
195.4934706812465
 20
14.01411807243302
 10
195.592014171158
 20
14.01403224219542
 10
195.7062066464812
 20
14.01441755612247
 10
195.8185894417071
 20
14.01300835897542
 10
195.9214376600119
 20
14.0171911742224
 10
195.9806839874849
 20
14.00823089251979
 10
196.0371265937034
 20
14.02164434526057
 10
196.0246255586956
 20
13.97087198613358
 10
196.0329549635704
 20
13.92589320939064
 10
196.024817084112
 20
13.88056752990485
 10
196.0370529214458
 20
13.82931932408462
 10
195.9747773490334
 20
13.84447955365273
 10
195.9060513026869
 20
13.8335975071074
 10
195.7782756749592
 20
13.8391130474797
 10
195.6262984511643
 20
13.83700851253696
 10
195.4502695972523
 20
13.8377100258847
 10
195.2644431934287
 20
13.83745237531289
 10
195.0786167437175
 20
13.837710051446
 10
194.9025880142169
 20
13.83700841847728
 10
194.7506104154194
 20
13.83911332229985
 10
194.6228357664554
 20
13.83359680767638
 10
194.554107783658
 20
13.84448077125939
 10
194.4918349042883
 20
13.82931786684206
 10
194.5040616290017
 20
13.88057510805168
 10
194.4960004462597
 20
13.92582473272422
 10
194.5040675809892
 20
13.9710635795532
 10
194.4918238487083
 20
14.02234176909955
 10
194.5525017120697
 20
14.00749577363131
 10
194.6162810745736
 20
14.01756448170732
 10
194.7277314353502
 20
14.01294644211996
 10
194.8497533443824
 20
14.01413328905466
 10
194.9719538137823
 20
14.01515863900632
 10
195.0829794287392
 20
14.01092475623398
 10
195.1476517413959
 20
14.02018584521736
 10
195.2091162810501
 20
14.00604423049679
 10
195.1930065601337
 20
14.07235527884514
 10
195.2042980327358
 20
14.14447790121973
 10
195.1987400822561
 20
14.27513760888283
 10
195.2008035061691
 20
14.42607323708239
 10
195.2000167127295
 20
14.59335873107883
 10
195.2007845215628
 20
14.76061110332301
 10
195.1988038785628
 20
14.91163289269912
 10
195.2041306156621
 20
15.04206069552993
 10
195.1933101388424
 20
15.11465442605898
 10
195.2090326429876
 20
15.18150469436797
 10
195.143270813249
 20
15.16580512490823
 10
195.0756367830764
 20
15.17609243083994
 10
194.9615885293811
 20
15.17113786847121
 10
194.8451242674903
 20
15.17414128030474
 10
194.7306554121478
 20
15.16880303143387
 10
194.6640324657813
 20
15.18001268074823
 10
194.5990769715186
 20
15.1634913266501
 10
194.610798975871
 20
15.21473720477058
 10
194.6032830189121
 20
15.25950333784089
 10
194.6107989878836
 20
15.30426944897958
 10
194.5990769505348
 20
15.35551536129737
 10
194.6640326339201
 20
15.33899381766812
 10
194.7306533339822
 20
15.3502057137394
 10
194.8451352858064
 20
15.34485436710662
 10
194.9615454436963
 20
15.34791188771114
 10
195.0757660174642
 20
15.34278499010705
 10
195.1430150439227
 20
15.35345733355595
 10
195.2083325941438
 20
15.33742082669074
 10
195.1941391448553
 20
15.39949685750051
 10
195.2036059462994
 20
15.4658676162876
 10
195.1990269004085
 20
15.58239972741963
 10
195.2007696555948
 20
15.71426685022373
 10
195.1997551495391
 20
15.8561596015027
 10
195.2017191344372
 20
15.98769050702577
 10
195.1964668553851
 20
16.10524577282999
 10
195.2073408763474
 20
16.16947789001581
 10
195.1919536641853
 20
16.23108802545044
 10
195.24075915378
 20
16.21702407382108
 10
195.2853995564726
 20
16.21954742075311
 10
195.3538643946742
 20
16.21512797401707
 10
195.3959106169102
 20
16.20613025544031
 10
195.4487544758775
 20
16.21411714866508
 10
195.4207035002014
 20
16.17113917611667
 10
195.3749142248594
 20
16.18259552043837
 10
195.3869539073264
 20
16.12173520005133
 10
195.379608607064
 20
16.0576929946877
 10
195.3831195826162
 20
15.94909368863908
 10
195.3819806760173
 20
15.8249431914475
 10
195.3819174780263
 20
15.69189719829875
 10
195.3832872966868
 20
15.56797381249553
 10
195.3791638801313
 20
15.45868337849335
 10
195.3877763103564
 20
15.39608580094167
 10
195.3746757454402
 20
15.33740133296362
 10
195.4393884328198
 20
15.35362113810899
 10
195.5060405953156
 20
15.34270260383309
 10
195.6198779541102
 20
15.34793740173753
 10
195.7357259122097
 20
15.34485547516911
 10
195.8496924263279
 20
15.35018259812508
 10
195.91603410181
 20
15.3390420816654
 10
195.9807188525479
 20
15.35546979593175
 10
195.9689820772723
 20
15.30425925210048
 10
195.9765168063041
 20
15.25950334120999
 10
195.9689820992257
 20
15.21474739010025
 10
195.9807188140736
 20
15.16353690871039
 10
195.9160344075252
 20
15.17996427794218
 10
195.8496886430824
 20
15.16882784447268
 10
195.7357459487012
 20
15.17413115893119
 10
195.6197995623054
 20
15.17114764593543
 10
195.5062756882122
 20
15.17606892268392
 10
195.4389231318804
 20
15.16585087513518
 10
195.3734285122495
 20
15.18145996138814
 10
195.3891713619218
 20
15.1146385182741
 10
195.3783275998213
 20
15.04207057815877
 10
195.3836581629792
 20
14.91162247614414
 10
195.3817136151855
 20
14.76064558185224
 10
195.3823133683214
 20
14.59322243934156
 10
195.3821506559604
 20
14.42656176118369
 10
195.3821895488136
 20
14.27360142921633
 10
195.3821816413097
 20
14.14849178985702
 10
195.3821828382746
 20
14.06507890991417
 10
195.3821827716207
 20
14.02491778281973
 10
195.3821827564383
 20
14.01410517385754
 97
        1
330
AF
 75
     1
 76
     2
 52
45.0
 41
0.1
 77
     0
 78
     1
 53
45.0
 43
0.0
 44
0.0
 45
-0.282842712474619
 46
0.0
 79
     0
 98
        1
 10
0.0
 20
0.0
  0
HATCH
  5
CD
330
48
100
AcDbEntity
  8
1
  6
Continuous
 62
     2
100
AcDbHatch
 10
0.0
 20
0.0
 30
0.0
210
0.0
220
0.0
230
1.0
  2
CUSTOM3
 70
     0
 71
     1
 91
        1
 92
        1
 93
        1
 72
     4
 94
        3
 73
     0
 74
     0
 95
      131
 96
      127
 40
0.0
 40
0.0
 40
0.0
 40
0.0
 40
0.019557702982582
 40
0.0426490537459887
 40
0.2863607575855059
 40
0.5344948436188217
 40
0.7842238845572298
 40
0.8737315789466698
 40
0.9803832810312637
 40
1.092842274517011
 40
1.199761146656766
 40
1.289788768186493
 40
1.351573580786183
 40
1.370727117561427
 40
1.416400936017845
 40
1.470914848355976
 40
1.516588666791771
 40
1.535742203552852
 40
1.634216592293204
 40
1.76028334117504
 40
1.897966686682167
 40
2.031216387369012
 40
2.049689751138005
 40
2.101115601646942
 40
2.179502577740059
 40
2.278859318314173
 40
2.393194462258829
 40
2.516516648383946
 40
2.642834515406072
 40
2.766156701983575
 40
2.880491846754688
 40
2.979848588358731
 40
3.058235565443908
 40
3.109661416669061
 40
3.128134780704238
 40
3.146783742386555
 40
3.191254343315415
 40
3.244332157316074
 40
3.288802758225978
 40
3.307451719895221
 40
3.327717853844832
 40
3.383747753580195
 40
3.468388665924587
 40
3.574487837698892
 40
3.694892515728998
 40
3.82244994685214
 40
3.950007377920529
 40
4.070412055800624
 40
4.176511227368179
 40
4.261152139501625
 40
4.317182039076819
 40
4.33744817296474
 40
4.620011002696354
 40
4.885096638397535
 40
4.945373043518368
 40
5.014107710488681
 40
5.07048172765206
 40
5.319246955636536
 40
5.58481216450603
 40
5.859000912056902
 40
6.13374693754203
 40
6.401732212968814
 40
6.420736683995405
 40
6.472845717451055
 40
6.550702743893983
 40
6.646951193874192
 40
6.754234497930516
 40
6.865196086587294
 40
6.972479390357752
 40
7.068727839771914
 40
7.146584865450923
 40
7.198693898189153
 40
7.217698368905293
 40
7.23495040163077
 40
7.276089864269816
 40
7.325191803515925
 40
7.366331266090312
 40
7.383583298769662
 40
7.402779163492039
 40
7.453386443254471
 40
7.524934666445472
 40
7.606953361405812
 40
7.688972056428963
 40
7.760520279784214
 40
7.811127559734456
 40
7.830323424546077
 40
7.847844055299706
 40
7.894799345666748
 40
7.962779392744438
 40
8.043374293560486
 40
8.128174145149394
 40
8.208769044817199
 40
8.276749090376903
 40
8.323704379669461
 40
8.341225010056196
 40
8.358497614800344
 40
8.401679126686549
 40
8.457815092185607
 40
8.513951057728011
 40
8.557132569707967
 40
8.57440517450501
 40
8.60234066861635
 40
8.643455660539946
 40
8.663225271966617
 40
8.715345156564261
 40
8.789031889628593
 40
8.873502045520324
 40
8.957972194323947
 40
9.03165892556784
 40
9.083778811234527
 40
9.10354842300299
 40
9.119550083123528
 40
9.160817522379801
 40
9.217244429110139
 40
9.278724491644653
 40
9.33515139829538
 40
9.376418837357647
 40
9.392420497300435
 40
9.401196302734654
 40
9.417494229384156
 40
9.426270027749428
 40
9.440875075477436
 40
9.47570249699864
 40
9.5172707098658
 40
9.552098131993993
 40
9.566703169884176
 40
9.566703169884176
 40
9.566703169884176
 40
9.566703169884176
 10
194.6170254148478
 20
15.67015871511025
 10
194.613434509337
 20
15.66453690702157
 10
194.6056039123625
 20
15.65227754419113
 10
194.5129968974549
 20
15.61601916040942
 10
194.4887622233248
 20
15.40148444212719
 10
194.3858709845939
 20
15.22197284509704
 10
194.1220492364305
 20
15.03615573798142
 10
194.2845471569181
 20
14.95959336566077
 10
194.3607225760839
 20
14.89856693195441
 10
194.4492171072758
 20
14.83515804544757
 10
194.5389930233111
 20
14.77525634219558
 10
194.5883817636047
 20
14.72102154849207
 10
194.6745708157383
 20
14.69286240541832
 10
194.641126067423
 20
14.65713309652811
 10
194.6214671166311
 20
14.62550387991905
 10
194.5919888217883
 20
14.58475872796066
 10
194.5688989446032
 20
14.5550466348964
 10
194.5380205968358
 20
14.50211422668491
 10
194.4729193365741
 20
14.62740334938899
 10
194.3796000122416
 20
14.68213900233933
 10
194.2950636285139
 20
14.73916423939337
 10
194.1722498125743
 20
14.8967528742752
 10
194.1764450847301
 20
14.82035806766833
 10
194.1751478652677
 20
14.77361280161293
 10
194.1758126448076
 20
14.69584785812598
 10
194.1755549986957
 20
14.5990206832442
 10
194.1756431239922
 20
14.48650279078806
 10
194.1756077302282
 20
14.36524085945697
 10
194.1756511758278
 20
14.24086897858958
 10
194.1755199942406
 20
14.11967683631334
 10
194.1759477562046
 20
14.0069114891974
 10
194.174667820231
 20
13.91082913768741
 10
194.1779759851044
 20
13.83113826468697
 10
194.1715197740085
 20
13.78815175788781
 10
194.1806208705556
 20
13.7495543237204
 10
194.1447910339935
 20
13.75810887724067
 10
194.1115223815252
 20
13.75342519985444
 10
194.0604562576041
 20
13.75351298759782
 10
194.0269723972812
 20
13.75794430283818
 10
193.9907585408754
 20
13.74960793842507
 10
194.0009782568665
 20
13.79145277179281
 10
193.9936487887774
 20
13.83778560820171
 10
193.9973633136102
 20
13.92374831106011
 10
193.9959480554896
 20
14.02605142704847
 10
193.9964105554637
 20
14.14453223931509
 10
193.996277368623
 20
14.26957683153353
 10
193.9963015910045
 20
14.39475828107048
 10
193.9963354925551
 20
14.51286645379055
 10
193.9962060293132
 20
14.61628748709514
 10
193.9965507549081
 20
14.69932036153664
 10
193.995869827869
 20
14.75143368521241
 10
193.9994586600622
 20
14.87912907821359
 10
193.7826171386436
 20
14.58048716819623
 10
193.6021354921952
 20
14.35263981511516
 10
193.5490322295612
 20
14.4937344328981
 10
193.5200429133149
 20
14.5432576756094
 10
193.4196648062822
 20
14.64641779790106
 10
193.7405127723262
 20
14.72695035023778
 10
193.868989700543
 20
14.91066283036433
 10
194.090645432536
 20
15.11931995771756
 10
194.1770224894067
 20
15.29339211228344
 10
194.4549394229078
 20
15.56967051342509
 10
194.3346247839283
 20
15.56534559551111
 10
194.2863197351349
 20
15.56614856202549
 10
194.2102377454905
 20
15.56574582146582
 10
194.116701000975
 20
15.56590275611606
 10
194.0117594788557
 20
15.56582502576221
 10
193.9033887738717
 20
15.56595464378551
 10
193.7981454235897
 20
15.56554393490688
 10
193.7056237819412
 20
15.56682073671588
 10
193.6268130800707
 20
15.56340766534847
 10
193.5839674565379
 20
15.57023350036317
 10
193.5449499586516
 20
15.5606506420112
 10
193.5526365271863
 20
15.5942077956554
 10
193.5485464404312
 20
15.6252355032223
 10
193.5485531368813
 20
15.67236529270897
 10
193.5526239724911
 20
15.70340941646776
 10
193.5449495574583
 20
15.73701861635898
 10
193.5834819405494
 20
15.72748410420869
 10
193.624122801448
 20
15.73397435498067
 10
193.6951471850463
 20
15.73100150650251
 10
193.7729318149633
 20
15.73174761399154
 10
193.8507292246474
 20
15.73247814044523
 10
193.9217232089908
 20
15.72954235514157
 10
193.9624279791819
 20
15.73595468772948
 10
194.0009853489909
 20
15.72650524176001
 10
193.9927342754928
 20
15.76264692158782
 10
193.9982346669358
 20
15.80129837613224
 10
193.9955754206163
 20
15.86913528561837
 10
193.9965815471533
 20
15.94591641538737
 10
193.9960178018319
 20
16.02849393582754
 10
193.9970714526594
 20
16.10517329229876
 10
193.9942675863129
 20
16.17331990776697
 10
194.0000702721304
 20
16.21132399809344
 10
193.9915654551158
 20
16.24758448077644
 10
194.0255610233125
 20
16.2375572377185
 10
194.05945756831
 20
16.24073266813705
 10
194.1126669060346
 20
16.23508965640607
 10
194.1660768574482
 20
16.23434774436423
 10
194.1995914649491
 20
16.22819223482978
 10
194.2388086183038
 20
16.23346029773591
 10
194.2120263698494
 20
16.19253380793483
 10
194.1708111001723
 20
16.2037120453811
 10
194.1782641540874
 20
16.1586705619212
 10
194.1742227952184
 20
16.11412278028141
 10
194.1761714049641
 20
16.042235726217
 10
194.1752364849758
 20
15.96168630588768
 10
194.176510719003
 20
15.88173995404992
 10
194.1732043793863
 20
15.80841837083179
 10
194.1802106179962
 20
15.76688643002565
 10
194.1701440380126
 20
15.7275241856811
 10
194.2029814803921
 20
15.73468063430978
 10
194.236457729648
 20
15.73027243137941
 10
194.2915053476018
 20
15.73217943347895
 10
194.3489502595314
 20
15.73185366407285
 10
194.4023026248308
 20
15.73106308733079
 10
194.4398540896638
 20
15.73313959118071
 10
194.4623172523235
 20
15.73022338167106
 10
194.475167807373
 20
15.73572552644054
 10
194.4858255685888
 20
15.73801118197786
 10
194.4986635650143
 20
15.7449497258805
 10
194.5145991033069
 20
15.72853046313666
 10
194.5410623920891
 20
15.71709122319448
 10
194.5726805253756
 20
15.69644687835186
 10
194.598725589215
 20
15.68116869628294
 10
194.6128517723972
 20
15.67266976323181
 10
194.6170254148478
 20
15.67015871511025
 97
        1
330
B0
 75
     1
 76
     2
 52
45.0
 41
0.1
 77
     0
 78
     1
 53
45.0
 43
0.0
 44
0.0
 45
-0.282842712474619
 46
0.0
 79
     0
 98
        1
 10
0.0
 20
0.0
  0
HATCH
  5
CE
330
48
100
AcDbEntity
  8
1
  6
Continuous
 62
     2
100
AcDbHatch
 10
0.0
 20
0.0
 30
0.0
210
0.0
220
0.0
230
1.0
  2
CUSTOM4
 70
     0
 71
     1
 91
        1
 92
        1
 93
        1
 72
     4
 94
        3
 73
     0
 74
     0
 95
       91
 96
       87
 40
0.0
 40
0.0
 40
0.0
 40
0.0
 40
0.0267532254356701
 40
0.0856103386464102
 40
0.1444674521996621
 40
0.1712206856618514
 40
0.2039416005642536
 40
0.2955601971652484
 40
0.4362601844616918
 40
0.616225284450725
 40
0.8256392189704698
 40
1.054685709844411
 40
1.293548478893474
 40
1.532411247938218
 40
1.761457738799483
 40
1.970871673298451
 40
2.150836773256647
 40
2.29153676049548
 40
2.383155356836586
 40
2.415876284101206
 40
2.442629517487849
 40
2.501486630948981
 40
2.560343744424128
 40
2.587096977826401
 40
2.6170681944408
 40
2.699247336755941
 40
2.822032643466254
 40
2.973822353257755
 40
3.143014704823197
 40
3.318007936879748
 40
3.487200288186581
 40
3.638989997548062
 40
3.761775303794532
 40
3.843954445752867
 40
3.873925662229563
 40
3.890812773500216
 40
3.907699884771341
 40
3.937960767856948
 40
3.980983618141896
 40
4.199085915228078
 40
4.439444339236858
 40
4.677588241260471
 40
5.050698317837329
 40
5.448212454762658
 40
5.855291218044268
 40
6.138575438884984
 40
6.417434507583777
 40
6.444551104393409
 40
6.504207617362709
 40
6.563864130313982
 40
6.590980727103525
 40
6.848609460380929
 40
7.109611990667887
 40
7.352910904445586
 40
7.557830220705007
 40
7.5875189259129
 40
7.652834077375316
 40
7.718149228845272
 40
7.74783793406155
 40
7.854880190300559
 40
7.976511257403097
 40
8.369487896591869
 40
8.75751495922319
 40
9.126072419330681
 40
9.460639380391772
 40
9.746695593035456
 40
9.777569943118232
 40
9.807050320931404
 40
9.830377336128528
 40
9.8860032954356
 40
9.952395569429491
 40
10.00802152870585
 40
10.03134854388177
 40
10.2135695100955
 40
10.42203479292821
 40
10.66154556731017
 40
10.9169378956426
 40
11.15832906556522
 40
11.18982674596577
 40
11.27286608520364
 40
11.39026653033308
 40
11.52484752840842
 40
11.65942852648398
 40
11.7768289716144
 40
11.85986831085636
 40
11.89136598230382
 40
11.89136598230382
 40
11.89136598230382
 40
11.89136598230382
 10
190.7027885008197
 20
14.70699600701769
 10
190.7028237765289
 20
14.71587847311982
 10
190.7029366710797
 20
14.74430237047343
 10
190.7012984568489
 20
14.794096391698
 10
190.7069750292912
 20
14.83657564478151
 10
190.6956928731707
 20
14.88730154856844
 10
190.7632296979033
 20
14.87012900740105
 10
190.8388029210701
 20
14.88290227165993
 10
190.9828357056001
 20
14.87629729457378
 10
191.1569419185428
 20
14.87888462206463
 10
191.3639599611004
 20
14.8780059195555
 10
191.5894688172378
 20
14.87828207920023
 10
191.8251162293406
 20
14.8781833965866
 10
192.0607640531349
 20
14.87828184412764
 10
192.2862717580626
 20
14.87800678190786
 10
192.4932934632805
 20
14.87888186270732
 10
192.6673888915288
 20
14.87630522678444
 10
192.8114492071986
 20
14.8828829044921
 10
192.8869691915292
 20
14.87016243405601
 10
192.954577603703
 20
14.88726400191684
 10
192.9430840140676
 20
14.83674785802937
 10
192.9505104581733
 20
14.79253252226498
 10
192.9428838927986
 20
14.74867966503607
 10
192.9546489459425
 20
14.69878374479326
 10
192.8930788491983
 20
14.71393227712508
 10
192.8256791738672
 20
14.70310665350671
 10
192.7013004056221
 20
14.70852031626232
 10
192.5554428236571
 20
14.70649205390782
 10
192.3893576440086
 20
14.70715777578384
 10
192.2188412621725
 20
14.70689643521239
 10
192.051979085539
 20
14.70721553391092
 10
191.9087346827106
 20
14.70635302590759
 10
191.7773313869835
 20
14.70863300482986
 10
191.7239859134658
 20
14.70407704374198
 10
191.6485188456913
 20
14.70999914992875
 10
191.6769075779233
 20
14.7009416934335
 10
191.7033652409542
 20
14.69725912268925
 10
191.6633522907701
 20
14.66654271968273
 10
191.5713663691869
 20
14.67667591174625
 10
191.5439396207069
 20
14.43032502247786
 10
191.4478793967235
 20
14.27499558764372
 10
191.1917277964474
 20
13.94525417931565
 10
191.7627537732763
 20
14.08430022210448
 10
192.0173656320516
 20
14.08291779973359
 10
192.6279647048618
 20
13.9979056924208
 10
192.3340698578083
 20
14.29685417558201
 10
192.0133304286521
 20
14.44330856901769
 10
192.1313543360434
 20
14.50025540818286
 10
192.1724716466261
 20
14.52420099873344
 10
192.215681239441
 20
14.54599758811226
 10
192.317457409445
 20
14.60928721253909
 10
192.4328867625247
 20
14.35147151408774
 10
192.6329591642276
 20
14.2161604111368
 10
192.7269077387228
 20
14.03792795138876
 10
192.9558829746393
 20
13.8799782102705
 10
192.8596031846709
 20
13.82915972576296
 10
192.816795976378
 20
13.79881292523051
 10
192.771824352878
 20
13.77466130281459
 10
192.7121720925215
 20
13.72552146747565
 10
192.6789731061324
 20
13.85997475673603
 10
192.5582013350796
 20
14.01594265286579
 10
192.1970976005979
 20
13.88569928059552
 10
191.8385061955541
 20
13.90224694409481
 10
191.457092045008
 20
13.89331229351862
 10
191.170345528289
 20
13.82882671672404
 10
190.8592055599715
 20
13.94230668192823
 10
190.8268737818788
 20
13.83122259927762
 10
190.7896178253317
 20
13.8119631385001
 10
190.7865737632753
 20
13.85874784087295
 10
190.7679892860606
 20
13.89806853919132
 10
190.7512436616777
 20
13.95765983478232
 10
190.7383730915753
 20
14.0020196987128
 10
190.7042327806428
 20
14.09106331120201
 10
190.9482714457754
 20
14.02181042943767
 10
191.144139448667
 20
14.00030369057747
 10
191.2395426381277
 20
14.2822648447846
 10
191.2945135769597
 20
14.44363045421119
 10
191.5159619357156
 20
14.71391177589735
 10
191.3849239381217
 20
14.70548446853731
 10
191.3110026555855
 20
14.70779008496967
 10
191.1977459876244
 20
14.70671378321654
 10
191.0694251807485
 20
14.70707639076507
 10
190.9404252030416
 20
14.70697724466082
 10
190.8287840946292
 20
14.70699932712568
 10
190.7514663970028
 20
14.70699579189668
 10
190.7132876532011
 20
14.70699595845078
 10
190.7027885008197
 20
14.70699600701769
 97
        1
330
B1
 75
     1
 76
     2
 52
45.0
 41
0.1
 77
     0
 78
     1
 53
45.0
 43
0.0
 44
0.0
 45
-0.282842712474619
 46
0.0
 79
     0
 98
        1
 10
0.0
 20
0.0
  0
HATCH
  5
CF
330
48
100
AcDbEntity
  8
1
  6
Continuous
 62
     2
100
AcDbHatch
 10
0.0
 20
0.0
 30
0.0
210
0.0
220
0.0
230
1.0
  2
CUSTOM5
 70
     0
 71
     1
 91
        1
 92
        1
 93
        1
 72
     4
 94
        3
 73
     0
 74
     0
 95
       35
 96
       31
 40
0.0
 40
0.0
 40
0.0
 40
0.0
 40
0.0335231036620728
 40
0.0713218571712147
 40
0.4278866681487152
 40
0.8116865841963721
 40
1.198190238000029
 40
1.561379546812706
 40
1.659983174622043
 40
1.759315573807212
 40
2.1327196172311
 40
2.525233363588805
 40
2.910815397779757
 40
3.265244364303361
 40
3.59260672358203
 40
3.964386154603955
 40
4.359942131737773
 40
4.758154118639328
 40
4.843846538699884
 40
4.936650065543213
 40
5.256616602537289
 40
5.581707404415998
 40
5.899719158308135
 40
6.1983634942807
 40
6.466301046615765
 40
6.493895311537086
 40
6.559697020196822
 40
6.638234543442397
 40
6.70403625215412
 40
6.731630508422898
 40
6.731630508422898
 40
6.731630508422898
 40
6.731630508422898
 10
191.9736010568669
 20
16.23463843719132
 10
191.9676006097789
 20
16.2248069054232
 10
191.9548344099157
 20
16.20388988579795
 10
191.7949362006554
 20
16.17127126532685
 10
192.2322025842336
 20
15.88206680336701
 10
192.4345394828261
 20
15.68041138358434
 10
192.6819564267973
 20
15.4374938760327
 10
193.1831513624606
 20
15.36047662757781
 10
193.012556219897
 20
15.2187693917465
 10
192.93832994632
 20
15.01710366209109
 10
192.6131432248188
 20
15.36956287174718
 10
192.3277741670664
 20
15.53175212559566
 10
192.0337604077657
 20
15.7368713005304
 10
191.8084452691133
 20
16.21827488595452
 10
191.5993085055521
 20
15.75343046609218
 10
191.3207873674835
 20
15.54350952252908
 10
191.0371383177209
 20
15.37424456359984
 10
190.707863952783
 20
15.00142360907928
 10
190.6277012318225
 20
15.19708014459002
 10
190.4759724909744
 20
15.32491104190593
 10
190.9083395826796
 20
15.40454031765933
 10
191.0962565329766
 20
15.60026634915473
 10
191.3468477420505
 20
15.81632996916749
 10
191.571435047016
 20
15.9819099230006
 10
191.6259775409715
 20
16.26133964636823
 10
191.7494661029012
 20
16.24737950408076
 10
191.8060273344521
 20
16.24521268867645
 10
191.8761870984945
 20
16.24046859881358
 10
191.9333414022106
 20
16.2370942935054
 10
191.9644190320839
 20
16.23519854711117
 10
191.9736010568669
 20
16.23463843719132
 97
        1
330
B2
 75
     1
 76
     2
 52
45.0
 41
0.1
 77
     0
 78
     1
 53
45.0
 43
0.0
 44
0.0
 45
-0.282842712474619
 46
0.0
 79
     0
 98
        1
 10
0.0
 20
0.0
  0
HATCH
  5
D0
330
48
100
AcDbEntity
  8
1
  6
Continuous
 62
     2
100
AcDbHatch
 10
0.0
 20
0.0
 30
0.0
210
0.0
220
0.0
230
1.0
  2
CUSTOM6
 70
     0
 71
     1
 91
        1
 92
        1
 93
        1
 72
     4
 94
        3
 73
     0
 74
     0
 95
       15
 96
       11
 40
0.0
 40
0.0
 40
0.0
 40
0.0
 40
0.2785535985096388
 40
0.5215624748198284
 40
0.607691737603992
 40
0.6938210001740642
 40
0.9405019146454229
 40
1.221691403489075
 40
1.300471877081018
 40
1.379252341684834
 40
1.379252341684834
 40
1.379252341684834
 40
1.379252341684834
 10
189.5681493631
 20
16.22930267330379
 10
189.6296017794178
 20
16.17691646592714
 10
189.7446649974114
 20
16.07882876798221
 10
190.0397348497243
 20
15.92889785897218
 10
189.9025147631856
 20
15.84343227515011
 10
189.8041227843779
 20
15.71085785201553
 10
189.7130033590649
 20
16.01616985781419
 10
189.3636839480656
 20
16.07967869465372
 10
189.511925837657
 20
16.17896509880876
 10
189.5494081874237
 20
16.2125234840238
 10
189.5681493631
 20
16.22930267330379
 97
        1
330
B3
 75
     1
 76
     2
 52
45.0
 41
0.1
 77
     0
 78
     1
 53
45.0
 43
0.0
 44
0.0
 45
-0.282842712474619
 46
0.0
 79
     0
 98
        1
 10
0.0
 20
0.0
  0
HATCH
  5
D1
330
48
100
AcDbEntity
  8
1
  6
Continuous
 62
     2
100
AcDbHatch
 10
0.0
 20
0.0
 30
0.0
210
0.0
220
0.0
230
1.0
  2
CUSTOM7
 70
     0
 71
     1
 91
        1
 92
        1
 93
        1
 72
     4
 94
        3
 73
     0
 74
     0
 95
       75
 96
       71
 40
0.0
 40
0.0
 40
0.0
 40
0.0
 40
0.0342546099129691
 40
0.1245622414432329
 40
0.25223854808975
 40
0.3985991922940627
 40
0.5449598364980768
 40
0.6726361431438745
 40
0.7629437746736836
 40
0.7971983935297866
 40
1.101723623449649
 40
1.408591244036569
 40
1.433332471690278
 40
1.487763172450077
 40
1.542193873081912
 40
1.56693510059246
 40
1.923523931821714
 40
2.271755704953542
 40
2.590579755100783
 40
2.858943305581066
 40
2.889120339309098
 40
2.918305855190976
 40
2.941366645531101
 40
2.996357760973014
 40
3.061992318140599
 40
3.116983433626798
 40
3.140044223997488
 40
3.411273122936575
 40
3.732441619741183
 40
3.761068217532883
 40
3.837787499630443
 40
3.948858699126082
 40
4.080541049104457
 40
4.219093782625843
 40
4.350776132722394
 40
4.461847332405726
 40
4.53856661467846
 40
4.567193212544706
 40
4.594907573998964
 40
4.666381453557503
 40
4.764111044011085
 40
4.870592538125888
 40
4.968322128642282
 40
5.039796008286996
 40
5.067510369784427
 40
5.094263603185641
 40
5.153120716668277
 40
5.211977830150725
 40
5.23873106355173
 40
5.272290535138997
 40
5.363380529444801
 40
5.497618415781479
 40
5.660621563453721
 40
5.838007341749422
 40
6.015393119910745
 40
6.178396267038342
 40
6.312634151842293
 40
6.403724143059283
 40
6.437283612672378
 40
6.464036846260995
 40
6.52289396000461
 40
6.581751071483876
 40
6.608504301590824
 40
6.637253941280972
 40
6.711397748902823
 40
6.812778057283436
 40
6.923237199249212
 40
7.024617507623856
 40
7.098761315207509
 40
7.127510946007459
 40
7.127510946007459
 40
7.127510946007459
 40
7.127510946007459
 10
188.4418622390564
 20
14.95849128473261
 10
188.4418622819707
 20
14.94707313408717
 10
188.4418624481128
 20
14.90555257842626
 10
188.4418593081787
 20
14.82146922003769
 10
188.4418788279801
 20
14.70004497322325
 10
188.4417912187737
 20
14.55980494047445
 10
188.442111623523
 20
14.42006556794573
 10
188.4411605909741
 20
14.29745038894927
 10
188.4431978595967
 20
14.2158707443804
 10
188.4349433178746
 20
14.06271267077696
 10
188.74307979409
 20
14.22560236054715
 10
189.0350645173738
 20
14.39482938687999
 10
189.0408354448706
 20
14.25973235781908
 10
189.0455471719891
 20
14.21617221160441
 10
189.0482535411918
 20
14.17211249350542
 10
189.0672545672957
 20
14.02272590363131
 10
188.6583942247303
 20
14.08681172241258
 10
188.3793710348832
 20
13.97296341411014
 10
188.1018081587166
 20
13.87364095811141
 10
187.8099837184402
 20
13.91630687596352
 10
187.7869144678657
 20
13.81321679744542
 10
187.7537474383334
 20
13.78691091244467
 10
187.7480653962739
 20
13.83455309036304
 10
187.7284214559044
 20
13.87180336115067
 10
187.7095089485622
 20
13.9300738784756
 10
187.6942849867707
 20
13.97385201007803
 10
187.6477246372933
 20
14.08759421046311
 10
187.9890897312451
 20
14.05576301120047
 10
188.2679649367383
 20
14.02161435106475
 10
188.2617753034907
 20
14.1691397647965
 10
188.2630935452773
 20
14.24013150908829
 10
188.2624831689948
 20
14.34719767958659
 10
188.2625871570725
 20
14.47398529785994
 10
188.2629987964055
 20
14.60849243496047
 10
188.2613907841969
 20
14.73395549951181
 10
188.2659902567925
 20
14.84505246719114
 10
188.256418650221
 20
14.90761886800685
 10
188.2704001783692
 20
14.96595388294998
 10
188.2147384386704
 20
14.95289710582235
 10
188.1575655197822
 20
14.96136307749495
 10
188.0616048925647
 20
14.95729976080633
 10
187.9633767522822
 20
14.95970889852471
 10
187.8672582457561
 20
14.95551600613385
 10
187.8104648525812
 20
14.9642934644116
 10
187.7550356873385
 20
14.95094936850118
 10
187.7670679427919
 20
15.00036910959254
 10
187.7592003173938
 20
15.04393988030392
 10
187.766629556383
 20
15.08830469118522
 10
187.7551930564144
 20
15.13902297763989
 10
187.8232102370134
 20
15.1216246075774
 10
187.8968496879747
 20
15.13417450237186
 10
188.0325064058211
 20
15.12799677011094
 10
188.1884909024526
 20
15.13029203093081
 10
188.3615926358144
 20
15.12940968262527
 10
188.5346942964181
 20
15.13029207142405
 10
188.6906789811217
 20
15.12799662955547
 10
188.8263351889797
 20
15.13417486262428
 10
188.8999756705652
 20
15.12162394218332
 10
188.9679914174724
 20
15.1390237301214
 10
188.9565590885921
 20
15.08830130414551
 10
188.9639539458297
 20
15.04397060811105
 10
188.956203991227
 20
15.00028307550193
 10
188.9681203741877
 20
14.95063590098474
 10
188.9108170223616
 20
14.96461411338422
 10
188.8520145789772
 20
14.95539755673251
 10
188.7525293633199
 20
14.95952268164926
 10
188.649428009835
 20
14.95822760025885
 10
188.5537846354573
 20
14.95854077077637
 10
188.4857467971617
 20
14.95848776697142
 10
188.4514462213443
 20
14.95849051871653
 10
188.4418622390564
 20
14.95849128473261
 97
        1
330
B4
 75
     1
 76
     2
 52
45.0
 41
0.1
 77
     0
 78
     1
 53
45.0
 43
0.0
 44
0.0
 45
-0.282842712474619
 46
0.0
 79
     0
 98
        1
 10
0.0
 20
0.0
  0
HATCH
  5
D2
330
48
100
AcDbEntity
  8
1
  6
Continuous
 62
     2
100
AcDbHatch
 10
0.0
 20
0.0
 30
0.0
210
0.0
220
0.0
230
1.0
  2
CUSTOM8
 70
     0
 71
     1
 91
        1
 92
        1
 93
        1
 72
     4
 94
        3
 73
     0
 74
     0
 95
       91
 96
       87
 40
0.0
 40
0.0
 40
0.0
 40
0.0
 40
0.0345987051695718
 40
0.1258134969461085
 40
0.2547723404888703
 40
0.4026032099153556
 40
0.550434079341642
 40
0.6793929228835227
 40
0.7706077146570467
 40
0.8052064287780072
 40
1.124852390615192
 40
1.427402236308793
 40
1.706356627453431
 40
1.955541417875104
 40
2.169485938566249
 40
2.344350786664708
 40
2.480568411561839
 40
2.590440557428834
 40
2.649189927150989
 40
2.749320643306215
 40
2.912632739879913
 40
3.147745656000099
 40
3.244827496385035
 40
3.338490056946651
 40
3.583815413207072
 40
3.761423943238428
 40
3.886956104362588
 40
3.985855451886773
 40
4.091766255337602
 40
4.250186473811822
 40
4.422734315084489
 40
4.6282856848386
 40
4.872093227758444
 40
5.152549652145555
 40
5.464967135837534
 40
5.803201477852447
 40
6.160362988813922
 40
6.193449448276006
 40
6.28417038550166
 40
6.41971813876453
 40
6.587285046385809
 40
6.774063446723694
 40
6.967245678113677
 40
7.15402407881772
 40
7.321590987026077
 40
7.457138740890436
 40
7.5478596785562
 40
7.58094613818276
 40
7.608533084714812
 40
7.669224367077787
 40
7.729915649430001
 40
7.757502595950054
 40
7.790278062553508
 40
7.880146277431006
 40
8.014419963180469
 40
8.18041184239797
 40
8.365434637679439
 40
8.55680107162274
 40
8.741823866830853
 40
8.907815745916363
 40
9.042089431507517
 40
9.131957646249642
 40
9.164733112797219
 40
9.415425063140136
 40
9.667986180958602
 40
9.69416980746274
 40
9.756607686047673
 40
9.83113031532248
 40
9.893568193899887
 40
9.919751820398703
 40
9.950967964690511
 40
9.996421631210673
 40
10.22087981037456
 40
10.44341866197544
 40
10.47847970788857
 40
10.57091337438757
 40
10.70159545461235
 40
10.85140174170368
 40
11.00120802880486
 40
11.13189010907391
 40
11.22432377583022
 40
11.25938480938968
 40
11.28697175596156
 40
11.3476630383593
 40
11.40835432042081
 40
11.43594125892115
 40
11.43594125892115
 40
11.43594125892115
 40
11.43594125892115
 10
190.0818114333289
 20
15.55242795125075
 10
190.070278584494
 20
15.55242790287913
 10
190.0283409444999
 20
15.55242773704162
 10
189.9434129719025
 20
15.55243125800907
 10
189.8207688553129
 20
15.55240926435877
 10
189.6791206916993
 20
15.55250801177052
 10
189.537975369849
 20
15.55214686232418
 10
189.4141351317905
 20
15.55321883609087
 10
189.3317217825382
 20
15.55092249091266
 10
189.1727791229694
 20
15.56048569373419
 10
189.3503402353376
 20
15.19785394311367
 10
189.3379739205454
 20
14.95243127723112
 10
189.4064519473865
 20
14.66862501324834
 10
189.4693024320971
 20
14.43250999939032
 10
189.5452253431729
 20
14.23326740396127
 10
189.6303189577016
 20
14.07745347451372
 10
189.7244607592936
 20
13.9765785778139
 10
189.8282648207727
 20
13.92465852638962
 10
189.9125872030774
 20
13.97606484379615
 10
189.9351322179452
 20
14.09144544037512
 10
189.9745730975371
 20
14.2188514970238
 10
189.9202919734941
 20
14.53622328086751
 10
190.0451218072473
 20
14.38982180140902
 10
190.2019291513602
 20
14.3579530033117
 10
190.0947720007057
 20
14.12421357767625
 10
190.0808711209868
 20
13.95972776583654
 10
190.0234709467226
 20
13.83130869122479
 10
189.933502014501
 20
13.76018802352825
 10
189.8095274657878
 20
13.7443232414225
 10
189.663427319686
 20
13.77993797554169
 10
189.5243894320284
 20
13.90000570500274
 10
189.4102003962145
 20
14.07435682550317
 10
189.3146141301486
 20
14.29946603111237
 10
189.2318652572626
 20
14.56388246006439
 10
189.1807179256412
 20
14.88187933098541
 10
189.0770189207338
 20
15.15543728488911
 10
189.2042841208523
 20
15.56005818612865
 10
189.0357890623019
 20
15.55112367849677
 10
188.9511995787078
 20
15.5531596141836
 10
188.8189876387628
 20
15.55213937388404
 10
188.6560505094103
 20
15.55253230318427
 10
188.4733759170534
 20
15.55235696313367
 10
188.2847057373382
 20
15.55260105307466
 10
188.1014469020189
 20
15.55185657906235
 10
187.9404746832718
 20
15.55416360522423
 10
187.8029808335275
 20
15.5479980488366
 10
187.7289590372311
 20
15.5603283845821
 10
187.6613215186856
 20
15.54329323723554
 10
187.673237371927
 20
15.59524438447526
 10
187.6655677285693
 20
15.64071424966526
 10
187.6732592225115
 20
15.68614453703703
 10
187.6613141797761
 20
15.73802395984567
 10
187.7283588305867
 20
15.72119143490261
 10
187.8017375665676
 20
15.73335409092668
 10
187.9379128305272
 20
15.72727231074956
 10
188.0973811801512
 20
15.72954834315055
 10
188.2789173085836
 20
15.72881233998959
 10
188.4658034862179
 20
15.7290595419613
 10
188.6468012316836
 20
15.72886400799251
 10
188.8080802578878
 20
15.72932234714836
 10
188.9393882124887
 20
15.72812673751203
 10
189.0225051322596
 20
15.7305134731974
 10
189.1556236547815
 20
15.7223060572546
 10
189.0645893502659
 20
15.97752868952652
 10
188.9789633074419
 20
16.24164358328244
 10
189.0990589003456
 20
16.22904442969162
 10
189.1514264948543
 20
16.22694235763072
 10
189.2214497569716
 20
16.22535399889654
 10
189.2671922337818
 20
16.2160256753811
 10
189.3220812646933
 20
16.22545966915424
 10
189.2963574785681
 20
16.17733028655166
 10
189.1825397571452
 20
16.18266829744174
 10
189.3159346621136
 20
15.95449174576772
 10
189.194365873547
 20
15.72156856595919
 10
189.3223188769412
 20
15.73087258884436
 10
189.404904840646
 20
15.72801001754677
 10
189.5307214850824
 20
15.72923437412299
 10
189.6741469838057
 20
15.72932431888962
 10
189.8157420951728
 20
15.7274616318385
 10
189.9459127249967
 20
15.73333075937159
 10
190.0193452286191
 20
15.72070340823199
 10
190.0891112922096
 20
15.73877563110409
 10
190.0775772605396
 20
15.68612850546323
 10
190.0833184346682
 20
15.64221317686545
 10
190.081661577091
 20
15.59089982676547
 10
190.081775756167
 20
15.56158792021633
 10
190.0818114333289
 20
15.55242795125075
 97
        1
330
B5
 75
     1
 76
     2
 52
45.0
 41
0.1
 77
     0
 78
     1
 53
45.0
 43
0.0
 44
0.0
 45
-0.282842712474619
 46
0.0
 79
     0
 98
        1
 10
0.0
 20
0.0
  0
HATCH
  5
D3
330
48
100
AcDbEntity
  8
1
  6
Continuous
 62
     2
100
AcDbHatch
 10
0.0
 20
0.0
 30
0.0
210
0.0
220
0.0
230
1.0
  2
CUSTOM9
 70
     0
 71
     1
 91
        1
 92
        1
 93
        1
 72
     4
 94
        3
 73
     0
 74
     0
 95
      118
 96
      114
 40
0.0
 40
0.0
 40
0.0
 40
0.0
 40
0.1054708162973653
 40
0.2466098270052393
 40
0.3965912874591895
 40
0.52855250697548
 40
0.6156245055642866
 40
0.6431434105798011
 40
0.7036850037986546
 40
0.7642265984504607
 40
0.7917455052354911
 40
0.928740431999027
 40
1.106572819088092
 40
1.287544879681139
 40
1.317578308030656
 40
1.399928030857293
 40
1.522968204800069
 40
1.67507298659069
 40
1.844616533180769
 40
2.019973001638832
 40
2.189516548880144
 40
2.341621331585483
 40
2.464661506320617
 40
2.547011229647183
 40
2.577044658168147
 40
2.60379789089316
 40
2.662655002908819
 40
2.721512114949574
 40
2.748265347702725
 40
2.774215307344802
 40
2.845959313407132
 40
2.954338556588331
 40
3.090194227585508
 40
3.244367517100475
 40
3.407699615844232
 40
3.57103171453938
 40
3.725205003920056
 40
3.861060674729558
 40
3.969439917716249
 40
4.041183923628923
 40
4.067133883212916
 40
4.311886746012112
 40
4.547897258335489
 40
4.764747083043941
 40
4.952749679951745
 40
5.045772974195843
 40
5.137862019644913
 40
5.330543169792946
 40
5.553448265243937
 40
5.795083855888098
 40
6.043293412177164
 40
6.285761695541123
 40
6.313902908752635
 40
6.384255941793225
 40
6.475714884766814
 40
6.567173827758904
 40
6.637526860839711
 40
6.665668074074074
 40
6.692018920328047
 40
6.749990782071111
 40
6.807962643790476
 40
6.834313490017949
 40
6.856393084245227
 40
6.913335195649851
 40
6.991194817302543
 40
7.076026942283833
 40
7.153886563725352
 40
7.210828674844906
 40
7.232908268931269
 40
7.25819933492379
 40
7.324875781592437
 40
7.419142481925097
 40
7.527204308842037
 40
7.635266135230617
 40
7.729532834168599
 40
7.796209279292921
 40
7.821500344594868
 40
7.844652988850938
 40
7.899863140541688
 40
7.965759128053826
 40
8.02096927977108
 40
8.044121924046546
 40
8.069356610160646
 40
8.109134395441497
 40
8.13223810019121
 40
8.193147867786571
 40
8.279261678876747
 40
8.37797751267396
 40
8.476693347146742
 40
8.562807160411797
 40
8.623716930826582
 40
8.646820636853535
 40
8.671988793774377
 40
8.734909185828288
 40
8.816705695189059
 40
8.898502204815658
 40
8.961422597378148
 40
8.986590754551289
 40
9.012941600733445
 40
9.070913462380524
 40
9.128885324082015
 40
9.155236170325333
 40
9.180404327929375
 40
9.243324721948477
 40
9.325121234212327
 40
9.40691774663801
 40
9.469838141978522
 40
9.495006288271297
 40
9.517811184379438
 40
9.572192090487436
 40
9.637098333281662
 40
9.69147923951586
 40
9.714284125643898
 40
9.714284125643898
 40
9.714284125643898
 40
9.714284125643898
 10
185.2874469028652
 20
15.26889163187718
 10
185.3090990569037
 20
15.2411186924281
 10
185.3597257109472
 20
15.17618054561234
 10
185.4349383202592
 20
15.06891060312896
 10
185.5248482274345
 20
14.95377438266621
 10
185.5709169676674
 20
14.85357045748318
 10
185.6655825294655
 20
14.78434006814941
 10
185.6204439320413
 20
14.73771639678269
 10
185.5947047785791
 20
14.69660308866038
 10
185.5645196708012
 20
14.66065971727934
 10
185.5193684730563
 20
14.5857978259609
 10
185.4710504458562
 20
14.80782524253599
 10
185.3968539713073
 20
14.84510677337709
 10
185.2836047324606
 20
15.11610202130598
 10
185.2885133578168
 20
15.00095328446226
 10
185.2868486556305
 20
14.92836675781624
 10
185.2876830076713
 20
14.80625588483983
 10
185.2873609540263
 20
14.65913800810458
 10
185.2875076912455
 20
14.49307063956553
 10
185.2872950092722
 20
14.32187554608599
 10
185.2879497252033
 20
14.15552828635495
 10
185.2859192461139
 20
14.00935173055691
 10
185.2913460399929
 20
13.88471047474607
 10
185.2804930868707
 20
13.81718656540624
 10
185.2956739155554
 20
13.75549061417021
 10
185.2457895108133
 20
13.76727503896998
 10
185.2017150342522
 20
13.75943822779967
 10
185.1582371630201
 20
13.76760441372699
 10
185.1092346786489
 20
13.75538056738466
 10
185.1218731234825
 20
13.8096066724931
 10
185.113018296845
 20
13.86936918907555
 10
185.1175058770315
 20
13.97922029044367
 10
185.1157960135992
 20
14.11029975405675
 10
185.1163550915987
 20
14.26198011444325
 10
185.1161928768695
 20
14.42211074929951
 10
185.1162269924675
 20
14.58236865674563
 10
185.1162514960127
 20
14.73370247520436
 10
185.1161453543227
 20
14.86582156338598
 10
185.1164299141931
 20
14.9729480253319
 10
185.1158675547568
 20
15.0380861957947
 10
185.118076508369
 20
15.16618957858673
 10
185.0319435998603
 20
14.79097610391572
 10
184.95551408185
 20
14.63918193123391
 10
184.8660040767833
 20
14.47766206446305
 10
184.7640413217326
 20
14.20471848820168
 10
184.7187976491039
 20
14.36717346596508
 10
184.6102355941671
 20
14.45605432058118
 10
184.7995791751753
 20
14.60549794961407
 10
184.8565340545701
 20
14.79749136974922
 10
184.9717520993352
 20
15.02899622906754
 10
184.9940151630133
 20
15.21797259759062
 10
185.177190515214
 20
15.49454089325928
 10
185.0538033597553
 20
15.48698978832092
 10
184.9925684166834
 20
15.48856772366116
 10
184.9081999617065
 20
15.48882592573671
 10
184.8204235085965
 20
15.48544845751203
 10
184.7656768696123
 20
15.49394814982019
 10
184.7104703026024
 20
15.48048561049785
 10
184.7222823035536
 20
15.52931442126761
 10
184.7142496151794
 20
15.57269004896706
 10
184.7228186104679
 20
15.6150943830957
 10
184.7102943409156
 20
15.66267796552115
 10
184.7555101538735
 20
15.65267212995106
 10
184.8014815562723
 20
15.65894105174058
 10
184.877722204771
 20
15.65593561405869
 10
184.9561296131994
 20
15.65770448278538
 10
185.0323992648933
 20
15.65464793981657
 10
185.0783009459475
 20
15.66103971376174
 10
185.1231733965401
 20
15.65093822978892
 10
185.1105552275635
 20
15.70157201581895
 10
185.1191936582707
 20
15.75501261882067
 10
185.1152361595443
 20
15.84863255131676
 10
185.1162325068335
 20
15.95112606688921
 10
185.1171927413073
 20
16.0535327024816
 10
185.1133211458007
 20
16.14735929609319
 10
185.1217789814364
 20
16.20036542840349
 10
185.1093075932836
 20
16.25211435651185
 10
185.154210638985
 20
16.23850747226754
 10
185.1955083836772
 20
16.24100480320583
 10
185.259534428105
 20
16.23648060574484
 10
185.2986111148786
 20
16.22781003043307
 10
185.3476543498742
 20
16.23515102070684
 10
185.322508003059
 20
16.19602896051751
 10
185.2815901333722
 20
16.20563842455808
 10
185.2910109616603
 20
16.15540148169775
 10
185.2855647318746
 20
16.10385945639487
 10
185.2881699601803
 20
16.01959707584517
 10
185.2870102202153
 20
15.92559135583405
 10
185.2883591064231
 20
15.83196865395523
 10
185.2849970101507
 20
15.74679517552219
 10
185.2920959917769
 20
15.69716856072042
 10
185.2812569154544
 20
15.64993694969984
 10
185.3304010225245
 20
15.6620167493685
 10
185.3794877630146
 20
15.65447393363008
 10
185.4573714280641
 20
15.6568607036143
 10
185.5350365172895
 20
15.65899381905411
 10
185.5845393931355
 20
15.65193391922451
 10
185.6344594750639
 20
15.66360151936212
 10
185.6223198516882
 20
15.6154023537139
 10
185.6305838229144
 20
15.57249219801232
 10
185.6223198650785
 20
15.52958201851382
 10
185.6344594549855
 20
15.48138288754862
 10
185.5845395158747
 20
15.49305034471509
 10
185.5350350651203
 20
15.48599202435043
 10
185.4573784382972
 20
15.48811665228601
 10
185.379464386576
 20
15.49053389365758
 10
185.3304500352715
 20
15.48291848194483
 10
185.2813246108942
 20
15.4950795255759
 10
185.291555998857
 20
15.45073013424156
 10
185.2856677678053
 20
15.4092543620291
 10
185.2878788305568
 20
15.34915394315301
 10
185.2874109346145
 20
15.30225782762888
 10
185.2874386992913
 20
15.27650146418195
 10
185.2874469028652
 20
15.26889163187718
 97
        1
330
B6
 75
     1
 76
     2
 52
45.0
 41
0.1
 77
     0
 78
     1
 53
45.0
 43
0.0
 44
0.0
 45
-0.282842712474619
 46
0.0
 79
     0
 98
        1
 10
0.0
 20
0.0
  0
HATCH
  5
D4
330
48
100
AcDbEntity
  8
1
  6
Continuous
 62
     2
100
AcDbHatch
 10
0.0
 20
0.0
 30
0.0
210
0.0
220
0.0
230
1.0
  2
CUSTOM10
 70
     0
 71
     1
 91
        1
 92
        1
 93
        1
 72
     4
 94
        3
 73
     0
 74
     0
 95
       47
 96
       43
 40
0.0
 40
0.0
 40
0.0
 40
0.0
 40
0.2207912809957236
 40
0.4459404186303058
 40
0.4902387190458992
 40
0.5327473892721954
 40
0.5742260451224986
 40
0.6155432630558573
 40
0.6568164066314626
 40
0.698251161877954
 40
0.740766392931549
 40
0.7851366743175243
 40
1.010288833836327
 40
1.231080507002176
 40
1.451765243652401
 40
1.67663820589169
 40
1.720461045359661
 40
1.830018144043527
 40
1.972442372353157
 40
2.114866600677525
 40
2.22442369939515
 40
2.268246538883391
 40
2.493628801207222
 40
2.715602830286623
 40
2.934211330706364
 40
3.14950236985536
 40
3.231387784851062
 40
3.318231873854267
 40
3.405143198198141
 40
3.486970301720464
 40
3.702258172493903
 40
3.920866283534126
 40
4.142839325931916
 40
4.368221903865377
 40
4.412044743359861
 40
4.521601842095871
 40
4.664026070452351
 40
4.806450298809061
 40
4.916007397546755
 40
4.959830237043077
 40
5.184703515847112
 40
5.405387250767482
 40
5.405387250767482
 40
5.405387250767482
 40
5.405387250767482
 10
182.6507427258646
 20
15.73406440953869
 10
182.6568139420004
 20
15.79758482501207
 10
182.6690762107243
 20
15.92587938689623
 10
182.5604706879413
 20
16.20166220174074
 10
182.6761985896605
 20
16.1718813343205
 10
182.7171842509016
 20
16.16765556262817
 10
182.7591205797518
 20
16.16310446389605
 10
182.800419662571
 20
16.16201982929483
 10
182.8417032115555
 20
16.16310338195225
 10
182.8836148270647
 20
16.16766112711339
 10
182.9245983549019
 20
16.17187430209727
 10
183.040492284349
 20
16.20177611317531
 10
182.9295652727455
 20
15.9233980660989
 10
182.9574856365268
 20
15.74283140824948
 10
182.9404267346969
 20
15.50961042346468
 10
182.9414637282105
 20
15.34906622543143
 10
182.9414099399405
 20
15.22284817558718
 10
182.9414277372483
 20
15.12428963336239
 10
182.941418858108
 20
14.99280702442959
 10
182.9414263928035
 20
14.86132844968647
 10
182.9414129405129
 20
14.76276222694088
 10
182.9414531717494
 20
14.63639735624149
 10
182.9406746403817
 20
14.47482068822867
 10
182.9565958319268
 20
14.24361821892912
 10
182.9333468885407
 20
14.05874351971998
 10
183.0360183444368
 20
13.78935602770052
 10
182.8820238362836
 20
13.82660112685816
 10
182.8004129802832
 20
13.8213799468053
 10
182.7188192292583
 20
13.82660620378348
 10
182.5648513666844
 20
13.78937069885387
 10
182.6674183421917
 20
14.05875129862879
 10
182.644204531609
 20
14.24361585325411
 10
182.6600444655138
 20
14.47482218565635
 10
182.6593296313428
 20
14.636397123085
 10
182.6593664569907
 20
14.76276231210517
 10
182.6593549000271
 20
14.86132756635978
 10
182.6593575019214
 20
14.99281127417217
 10
182.659364853178
 20
15.12427548031196
 10
182.6593442541352
 20
15.22287786275323
 10
182.6594082192029
 20
15.34896149354424
 10
182.658173394759
 20
15.51210091383768
 10
182.6532040396746
 20
15.66054183777547
 10
182.6507427258646
 20
15.73406440953869
 97
        1
330
B7
 75
     1
 76
     2
 52
45.0
 41
0.1
 77
     0
 78
     1
 53
45.0
 43
0.0
 44
0.0
 45
-0.282842712474619
 46
0.0
 79
     0
 98
        1
 10
0.0
 20
0.0
  0
HATCH
  5
D5
330
48
100
AcDbEntity
  8
1
  6
Continuous
 62
     2
100
AcDbHatch
 10
0.0
 20
0.0
 30
0.0
210
0.0
220
0.0
230
1.0
  2
CUSTOM11
 70
     0
 71
     1
 91
        1
 92
        1
 93
        1
 72
     4
 94
        3
 73
     0
 74
     0
 95
      110
 96
      106
 40
0.0
 40
0.0
 40
0.0
 40
0.0
 40
0.2203406257277691
 40
0.4407808782838024
 40
0.595249449461415
 40
0.7488431659392156
 40
0.9023581831308423
 40
1.056801968670398
 40
1.210736449099813
 40
1.363041386539776
 40
1.515315729683062
 40
1.669377239147871
 40
1.721611652756333
 40
1.773199502942715
 40
1.824933793209763
 40
1.877110426487701
 40
1.98268228120635
 40
2.078781667087159
 40
2.172809640821852
 40
2.271937807378534
 40
2.378349933378927
 40
2.494131557736115
 40
2.626681683943221
 40
2.783145050795591
 40
2.890701232940447
 40
2.993130312454355
 40
3.099869730691331
 40
3.220237816690827
 40
3.352695482737113
 40
3.481732806389368
 40
3.593499473689894
 40
3.674323013331402
 40
3.817951711952409
 40
3.946167120793577
 40
4.061405053453205
 40
4.166480796002789
 40
4.26247877505894
 40
4.350736673550896
 40
4.433071991253725
 40
4.511216293814384
 40
4.564262454117727
 40
4.618474415571349
 40
4.670128488753955
 40
4.722296879126172
 40
4.819540945314098
 40
4.931194984127898
 40
5.049996040257597
 40
5.168643755415284
 40
5.283970811762439
 40
5.392260784910321
 40
5.486512254876282
 40
5.559178233949823
 40
5.591425852853488
 40
5.62621596963786
 40
5.667155838674406
 40
5.717449290214207
 40
5.738402360944823
 40
5.784499116553794
 40
5.830595872164773
 40
5.851548942897633
 40
5.873019280661746
 40
5.924217778408289
 40
5.985325662817669
 40
6.036524160567684
 40
6.057994498334214
 40
6.236847789607467
 40
6.38140992894564
 40
6.493190424178667
 40
6.57406753423047
 40
6.691018086205536
 40
6.814881554220482
 40
6.944307823240349
 40
7.071266716065972
 40
7.19348860446176
 40
7.309042773128044
 40
7.41400720317067
 40
7.50514044188651
 40
7.531150360599673
 40
7.559221645322246
 40
7.587202218920916
 40
7.612569159499134
 40
7.662550809481007
 40
7.702878875764156
 40
7.85732820523097
 40
8.010799568088586
 40
8.165256399657565
 40
8.32223269871399
 40
8.479564855016676
 40
8.635216230290993
 40
8.790882550925797
 40
8.948305154947278
 40
9.168271839032958
 40
9.387358980987242
 40
9.608047961033476
 40
9.83291423479267
 40
9.858338694963004
 40
9.925366817230014
 40
10.0201307142276
 40
10.12876249858998
 40
10.23739428295249
 40
10.3321581799519
 40
10.39918630222394
 40
10.42461076239783
 40
10.64992019336943
 40
10.87188524531188
 40
10.87188524531188
 40
10.87188524531188
 40
10.87188524531188
 10
179.9057788376617
 20
15.73923260398187
 10
179.9092864933541
 20
15.80616462073801
 10
179.9163033987662
 20
15.94005891915855
 10
179.8198027599074
 20
16.22548554971464
 10
180.0510134726109
 20
16.16284386190281
 10
180.1919290057156
 20
16.17001554055986
 10
180.3490417757589
 20
16.16235883078242
 10
180.5025913427287
 20
16.16252752283038
 10
180.6545104935082
 20
16.1618204053543
 10
180.8142214813231
 20
16.17210158351635
 10
180.9408972601119
 20
16.15496511080747
 10
181.1370821122078
 20
16.22727260107141
 10
181.1034395279079
 20
16.12640699080113
 10
181.1052011317184
 20
16.07619253947667
 10
181.1027342073459
 20
16.02712335586465
 10
181.1347076966009
 20
15.94063490847
 10
181.0010399903256
 20
15.98997438608334
 10
180.9172208688057
 20
15.98430634314165
 10
180.8173861139323
 20
15.99465516706294
 10
180.7186576720146
 20
16.00086450411084
 10
180.612153277111
 20
16.00697763816774
 10
180.4910511698059
 20
16.01588883484582
 10
180.3703381502453
 20
16.00521605912381
 10
180.1812553843438
 20
16.06468503080362
 10
180.2129028505311
 20
15.90558320077537
 10
180.1995563316833
 20
15.80839128339901
 10
180.197495842645
 20
15.696340651101
 10
180.1958188044669
 20
15.57699685629348
 10
180.1973336794233
 20
15.45032592155107
 10
180.1956582478672
 20
15.32301588016115
 10
180.2058844271658
 20
15.22451566404461
 10
180.177900659658
 20
15.08388702625626
 10
180.3508029999306
 20
15.13989551134095
 10
180.4645020202771
 20
15.12719951478494
 10
180.584015167224
 20
15.13448377051252
 10
180.6888491425072
 20
15.13878017056752
 10
180.7843084898612
 20
15.14330568258975
 10
180.8763823507032
 20
15.15149201146195
 10
180.947655178244
 20
15.14643850638111
 10
181.0544931705687
 20
15.18536425031672
 10
181.0226603598036
 20
15.10517122005878
 10
181.0266164503928
 20
15.0556293684603
 10
181.0234502392013
 20
15.00557478039816
 10
181.0550791490587
 20
14.92128847612018
 10
180.9210133677692
 20
14.97425365495153
 10
180.8292322793201
 20
14.96540080890438
 10
180.7079729189603
 20
14.97570049965152
 10
180.5914113119771
 20
14.97748911767499
 10
180.4783375745878
 20
14.97787017109691
 10
180.367924630847
 20
14.98415449472177
 10
180.289812406784
 20
14.97189133255362
 10
180.1913625833643
 20
15.00453887616128
 10
180.201235517356
 20
14.94769748054203
 10
180.1973923244405
 20
14.91392130557981
 10
180.1966789884267
 20
14.87119604709409
 10
180.1963369642974
 20
14.83401607262152
 10
180.1963834255344
 20
14.79487237370769
 10
180.1963649429927
 20
14.75716849497684
 10
180.1963703431804
 20
14.71944955232399
 10
180.19636972142
 20
14.68994324745147
 10
180.1963698151544
 20
14.65873577699297
 10
180.196370428792
 20
14.61414424908082
 10
180.1963671499336
 20
14.55963956508848
 10
180.1963759623479
 20
14.51505540201445
 10
180.1963359653418
 20
14.43117808585737
 10
180.1976024270254
 20
14.31737520677675
 10
180.1950274117843
 20
14.16830395933706
 10
180.2065009381719
 20
14.06597203813903
 10
180.1823506222264
 20
13.93338903885832
 10
180.3332993946477
 20
13.97895732272019
 10
180.4428436671556
 20
13.96427012162348
 10
180.573397047392
 20
13.96920435125061
 10
180.6990312209513
 20
13.97257705323357
 10
180.81887306256
 20
13.97711497498771
 10
180.9391362611426
 20
13.99048536182
 10
181.0222761663515
 20
13.98068712782595
 10
181.1456080421077
 20
14.04126214623317
 10
181.1244269203956
 20
13.9853246013402
 10
181.1235950270118
 20
13.95939249372342
 10
181.1218963707558
 20
13.93197256190937
 10
181.1217974888828
 20
13.89738195206382
 10
181.1203659301329
 20
13.86050408220764
 10
181.1532804192192
 20
13.76846841021807
 10
180.9551306988108
 20
13.84132015974828
 10
180.8300548294892
 20
13.81825726508602
 10
180.6673071295156
 20
13.82454021985783
 10
180.5129366450002
 20
13.82260943909923
 10
180.3566670436942
 20
13.82393762599264
 10
180.1970544465282
 20
13.82059872487859
 10
180.0540326342236
 20
13.83265795728237
 10
179.8197144881629
 20
13.76952001976918
 10
179.9173810751197
 20
14.05620527466317
 10
179.9006868780057
 20
14.24988308142659
 10
179.9146296709686
 20
14.47848242880293
 10
179.9142987846633
 20
14.63384593955045
 10
179.9143078119264
 20
14.73966336444123
 10
179.9143055876316
 20
14.80205784124211
 10
179.914306555189
 20
14.89220425248323
 10
179.9143065473262
 20
14.99621167157435
 10
179.9143053861104
 20
15.10022131375293
 10
179.9143090971502
 20
15.19036243688764
 10
179.9143011051052
 20
15.25276803097212
 10
179.9143334275019
 20
15.35868835961115
 10
179.913144078832
 20
15.51626716544738
 10
179.9082216489256
 20
15.66528219822062
 10
179.9057788376617
 20
15.73923260398187
 97
        1
330
B8
 75
     1
 76
     2
 52
45.0
 41
0.1
 77
     0
 78
     1
 53
45.0
 43
0.0
 44
0.0
 45
-0.282842712474619
 46
0.0
 79
     0
 98
        1
 10
0.0
 20
0.0
  0
HATCH
  5
D6
330
48
100
AcDbEntity
  8
1
  6
Continuous
 62
     2
100
AcDbHatch
 10
0.0
 20
0.0
 30
0.0
210
0.0
220
0.0
230
1.0
  2
CUSTOM12
 70
     0
 71
     1
 91
        1
 92
        1
 93
        1
 72
     4
 94
        3
 73
     0
 74
     0
 95
       95
 96
       91
 40
0.0
 40
0.0
 40
0.0
 40
0.0
 40
0.6550406656911973
 40
1.308087289032095
 40
1.420803739835963
 40
1.566130759770949
 40
1.757067341888624
 40
2.006513545026622
 40
2.087328263121712
 40
2.185328872295771
 40
2.294612454748521
 40
2.408936380534977
 40
2.526802767798722
 40
2.646360524615768
 40
2.762535723971751
 40
2.870057342870325
 40
2.966883448431813
 40
3.050803243518456
 40
3.11581822243676
 40
3.156030057150399
 40
3.213914225080245
 40
3.276689026450702
 40
3.342960320981422
 40
3.404230667150728
 40
3.453822809493533
 40
3.532499827188592
 40
3.634775188507329
 40
3.754909333008339
 40
3.889736761660825
 40
4.035769602175378
 40
4.18725668119777
 40
4.338733685676115
 40
4.48847873467628
 40
4.634708317831748
 40
4.771493189921434
 40
4.892686571561372
 40
5.199775528944613
 40
5.460353566929817
 40
5.667603142345678
 40
5.814722905404654
 40
5.828990806219952
 40
5.855488336304649
 40
5.869756237118981
 40
6.189796507762968
 40
6.531890469873232
 40
6.883053637017165
 40
7.230512024911715
 40
7.566966656764779
 40
7.885203559707649
 40
8.17288743971945
 40
8.418011594062925
 40
8.443926721190849
 40
8.510760470613334
 40
8.602145393795844
 40
8.701714041647282
 40
8.793098965075515
 40
8.859932715058088
 40
8.885847842603736
 40
9.24230125661295
 40
9.589275455016905
 40
9.92180854316431
 40
10.23479624298482
 40
10.29968150889212
 40
10.353234938878
 40
10.40154625355176
 40
10.46482922477849
 40
10.5597390066843
 40
10.69239545985642
 40
10.84920353475696
 40
11.01626328594804
 40
11.18672024367467
 40
11.35372582577235
 40
11.50257442292451
 40
11.61866495023316
 40
11.71329869152899
 40
11.82511050573932
 40
11.9446488084574
 40
12.06929242642531
 40
12.19707290435201
 40
12.32562632860553
 40
12.45034565331304
 40
12.56646595170352
 40
12.67099007414659
 40
12.76077625936805
 40
12.82703233506718
 40
12.87429132786017
 40
12.89831990323354
 40
12.92234847860037
 40
13.5398476741034
 40
14.18294284359379
 40
14.18294284359379
 40
14.18294284359379
 40
14.18294284359379
 10
177.3067935648022
 20
14.70898038201721
 10
177.1752019758552
 20
14.82265058603229
 10
176.912419380273
 20
15.04964496316157
 10
176.3997393441018
 20
15.89214462956289
 10
176.4106654595362
 20
15.53423377577017
 10
176.4041226527993
 20
15.3926739227213
 10
176.4028026631773
 20
15.19421305299278
 10
176.4018117602537
 20
15.0215029604598
 10
176.4024101751975
 20
14.87865373257577
 10
176.4038994301881
 20
14.78265005413356
 10
176.4055683588472
 20
14.67545503263139
 10
176.4071934954619
 20
14.56164211517579
 10
176.4092429501686
 20
14.44441572604586
 10
176.4123165501924
 20
14.32656411232966
 10
176.4156339697045
 20
14.21228087320618
 10
176.419360534028
 20
14.10521401867273
 10
176.4217338161425
 20
14.01007408766919
 10
176.4278718888356
 20
13.92558557205691
 10
176.4239784495946
 20
13.86923087298139
 10
176.4455230443078
 20
13.79825022472355
 10
176.3680940058618
 20
13.82902677604482
 10
176.3116353240191
 20
13.8201124251761
 10
176.2540495896807
 20
13.82896218398272
 10
176.1690163478473
 20
13.79738225225941
 10
176.2009714146382
 20
13.88095155992187
 10
176.1990705282538
 20
13.94882608968307
 10
176.2107960047301
 20
14.05233256764416
 10
176.2164241052999
 20
14.17002125616693
 10
176.2237902178942
 20
14.3038860916442
 10
176.2320759701609
 20
14.4476415287263
 10
176.2398851897427
 20
14.59714022843441
 10
176.2457571222658
 20
14.74792549402076
 10
176.2503667817967
 20
14.89699943878435
 10
176.2542632117544
 20
15.04122913163019
 10
176.2570715126564
 20
15.17583905213014
 10
176.2576698755023
 20
15.36469614347351
 10
176.261602386715
 20
15.58975494313151
 10
176.2442175378498
 20
15.86367091125706
 10
176.2850417342582
 20
16.02787112098593
 10
176.1995153256004
 20
16.22749661465096
 10
176.2660558907687
 20
16.22385458403975
 10
176.283872427323
 20
16.22413447160851
 10
176.4056801797502
 20
16.2263292739861
 10
176.5080770335462
 20
15.94675118721505
 10
176.7580021509357
 20
15.74563008536007
 10
176.987003533111
 20
15.47792614987906
 10
177.224515121311
 20
15.2264641386238
 10
177.4486090740772
 20
14.98969974061352
 10
177.675071628301
 20
14.73218692583077
 10
177.8325687886516
 20
14.61649335056923
 10
178.0472129612673
 20
14.27997152538793
 10
178.0422645974619
 20
14.40464754091601
 10
178.0433931602546
 20
14.46327691935734
 10
178.0428877841517
 20
14.55043662371974
 10
178.0430475158114
 20
14.64416143182869
 10
178.0430054891317
 20
14.73018971297031
 10
178.0430202040372
 20
14.79153891945492
 10
178.0429706255982
 20
14.94135231520989
 10
178.0458811522811
 20
15.17989612510102
 10
178.0259521041161
 20
15.54486509868696
 10
178.0750433936248
 20
15.80799631993416
 10
177.9177951509179
 20
16.21928904947746
 10
178.0762112872422
 20
16.16398282551747
 10
178.1311680478629
 20
16.16199686500173
 10
178.182788776674
 20
16.16264778248251
 10
178.2713198965366
 20
16.20369527738242
 10
178.2204898303168
 20
16.05696326622984
 10
178.2313389930285
 20
15.95019971954429
 10
178.2166036994847
 20
15.7908570541411
 10
178.2099976446206
 20
15.6285306165287
 10
178.2014961399915
 20
15.45992521892392
 10
178.1943227202199
 20
15.29814814703539
 10
178.1889063215388
 20
15.15422331457929
 10
178.1871713967648
 20
15.03437493466922
 10
178.1875440672318
 20
14.92686101590512
 10
178.1873656126263
 20
14.81820024645583
 10
178.1877010863141
 20
14.69953570165527
 10
178.1890040622183
 20
14.57555163512738
 10
178.1908887351574
 20
14.44858294171101
 10
178.1925004454852
 20
14.32153861551029
 10
178.194140313743
 20
14.19854884492174
 10
178.1962570745751
 20
14.08300931383756
 10
178.1963848422365
 20
13.98090903955835
 10
178.2006514396554
 20
13.89009848838154
 10
178.190844008529
 20
13.83213621208785
 10
178.2118474771689
 20
13.76517130132027
 10
178.1725639739897
 20
13.77291153966684
 10
177.9595307117745
 20
13.75755254145194
 10
177.7636297943187
 20
14.3140305809446
 10
177.4611197631544
 20
14.57556035348506
 10
177.3067935648022
 20
14.70898038201721
 97
        1
330
B9
 75
     1
 76
     2
 52
45.0
 41
0.1
 77
     0
 78
     1
 53
45.0
 43
0.0
 44
0.0
 45
-0.282842712474619
 46
0.0
 79
     0
 98
        1
 10
0.0
 20
0.0
  0
HATCH
  5
D7
330
48
100
AcDbEntity
  8
1
  6
Continuous
 62
     2
100
AcDbHatch
 10
0.0
 20
0.0
 30
0.0
210
0.0
220
0.0
230
1.0
  2
CUSTOM13
 70
     0
 71
     1
 91
        2
 92
        1
 93
        1
 72
     4
 94
        3
 73
     0
 74
     0
 95
       57
 96
       53
 40
0.0
 40
0.0
 40
0.0
 40
0.0
 40
0.0471632082809233
 40
0.0914861054632148
 40
0.1357762519701815
 40
0.1826527001610678
 40
0.2295203288571734
 40
0.2737751972220757
 40
0.3181310461542212
 40
0.3652607198398498
 40
0.4571007286314507
 40
0.5671851029165358
 40
0.6894623283868091
 40
0.8181758272545849
 40
0.9510087229273674
 40
1.085852229674053
 40
1.218126164475305
 40
1.343545131142372
 40
1.454537202956731
 40
1.567187607530797
 40
1.680710966642416
 40
1.79422686973678
 40
1.90000918424758
 40
2.00408586044786
 40
2.108162674451747
 40
2.214000150155292
 40
2.49603857735213
 40
2.762350745479269
 40
2.997275353279393
 40
3.185110082137714
 40
3.246407890063941
 40
3.312607550212671
 40
3.378877742711573
 40
3.440140399651427
 40
4.100501696006445
 40
4.754913085563504
 40
5.411331693423901
 40
6.077890432568683
 40
6.110575292670962
 40
6.143260152775742
 40
6.367989363395131
 40
6.610525374951533
 40
6.8633891364673
 40
7.119380025547613
 40
7.376036605091093
 40
7.631164770966308
 40
7.876722425456419
 40
8.10495373585593
 40
8.312916685924295
 40
8.497730294941281
 40
8.651018984313838
 40
8.764738853624557
 40
8.764738853624557
 40
8.764738853624557
 40
8.764738853624557
 10
174.7922649500513
 20
13.81626739612925
 10
174.7766616726931
 20
13.81826231079076
 10
174.7463947960302
 20
13.82213201360297
 10
174.7010994202252
 20
13.82341984967265
 10
174.6559553129349
 20
13.82308683554047
 10
174.60990171234
 20
13.82314658674221
 10
174.5640496172096
 20
13.82325813649997
 10
174.5183711648165
 20
13.82277833456588
 10
174.4750811541608
 20
13.82461109618718
 10
174.4039947951514
 20
13.80049556814653
 10
174.4057477261441
 20
13.92184693977249
 10
174.3586196370568
 20
14.00726239751227
 10
174.3191478251762
 20
14.12486929345136
 10
174.2706635532645
 20
14.24232752540433
 10
174.2201017402523
 20
14.3640593576151
 10
174.1718634610476
 20
14.49075967862462
 10
174.1135232947595
 20
14.5993368778495
 10
174.0980892667261
 20
14.75620657134405
 10
173.9566586330636
 20
14.72373446548319
 10
173.8508397414904
 20
14.73512888682176
 10
173.7358569725222
 20
14.73392591514613
 10
173.6253142252141
 20
14.73506945347407
 10
173.5176583522783
 20
14.73418350037524
 10
173.4121322529243
 20
14.73416602390516
 10
173.3109192682012
 20
14.72714032472411
 10
173.1266804827754
 20
14.75135859859865
 10
173.1157393685411
 20
14.44741691121882
 10
173.008769163475
 20
14.22353177253394
 10
172.9098148604346
 20
14.03895314292495
 10
172.9225090524008
 20
13.79530204804204
 10
172.8050091716396
 20
13.82508046753195
 10
172.742205586831
 20
13.822580895096
 10
172.67858720934
 20
13.82344075102803
 10
172.3946014194076
 20
13.78098039941944
 10
173.025163849938
 20
14.50081952444783
 10
173.1087645289072
 20
15.01276539435727
 10
173.4929252789339
 20
15.5335374355004
 10
173.4777208288565
 20
16.23519626253211
 10
173.7239265722697
 20
16.22345633081254
 10
173.8256346157561
 20
16.2322500445277
 10
173.8249752035817
 20
15.98059650730343
 10
173.9428317155829
 20
15.79818020733955
 10
174.0315515260484
 20
15.55563740662861
 10
174.1322292485261
 20
15.32340030530129
 10
174.2311142712243
 20
15.08674644566907
 10
174.3299676990671
 20
14.85461739170094
 10
174.4256166390926
 20
14.63122222788785
 10
174.5159904573271
 20
14.42272549049311
 10
174.598994456819
 20
14.2330844852932
 10
174.6726088582799
 20
14.06663106068094
 10
174.7342815895546
 20
13.92917699626096
 10
174.7749458885604
 20
13.84999239430032
 10
174.7922649500513
 20
13.81626739612925
 97
        1
330
BB
 92
       16
 93
        1
 72
     4
 94
        3
 73
     0
 74
     0
 95
       25
 96
       21
 40
0.0
 40
0.0
 40
0.0
 40
0.0
 40
0.0911479969064821
 40
0.1858117896204667
 40
0.2804128399734492
 40
0.3715889190714511
 40
0.4679080494218709
 40
0.5642683809229234
 40
0.6605683222644991
 40
0.7569653015810255
 40
0.8561348172522738
 40
1.092615965104292
 40
1.374867658141878
 40
1.611348812011601
 40
1.710518328425249
 40
1.809403163726568
 40
2.04520546329407
 40
2.32664691762213
 40
2.562449217190593
 40
2.661334043833911
 40
2.661334043833911
 40
2.661334043833911
 40
2.661334043833911
 10
173.2683700567199
 20
14.88614538197289
 10
173.2987525917923
 20
14.88598079714552
 10
173.3606895889111
 20
14.88564528689919
 10
173.454135696033
 20
14.88269055451997
 10
173.5475095236357
 20
14.87977752877147
 10
173.6417760753476
 20
14.87894201643413
 10
173.7354964790967
 20
14.87996644658044
 10
173.8352040303204
 20
14.87916977470971
 10
173.9188949546312
 20
14.88921410235216
 10
174.0637996315045
 20
14.86234617674162
 10
173.93961324448
 20
15.03665530280045
 10
173.8965867286282
 20
15.19651711006088
 10
173.780892214221
 20
15.45518458550213
 10
173.7017565431256
 20
15.59231052861855
 10
173.6431576621816
 20
15.80937033134074
 10
173.5864803939437
 20
15.59266134213425
 10
173.5052809900478
 20
15.45327012438233
 10
173.4063701281487
 20
15.20406969370191
 10
173.3253625094259
 20
15.0192583022607
 10
173.2813683325838
 20
14.91650446856113
 10
173.2683700567199
 20
14.88614538197289
 97
        1
330
BA
 75
     1
 76
     2
 52
45.0
 41
0.1
 77
     0
 78
     1
 53
45.0
 43
0.0
 44
0.0
 45
-0.282842712474619
 46
0.0
 79
     0
 98
        1
 10
0.0
 20
0.0
  0
HATCH
  5
D8
330
48
100
AcDbEntity
  8
1
  6
Continuous
 62
     2
100
AcDbHatch
 10
0.0
 20
0.0
 30
0.0
210
0.0
220
0.0
230
1.0
  2
CUSTOM14
 70
     0
 71
     1
 91
        1
 92
        1
 93
        1
 72
     4
 94
        3
 73
     0
 74
     0
 95
       99
 96
       95
 40
0.0
 40
0.0
 40
0.0
 40
0.0
 40
0.0796417172272494
 40
0.1621768542356016
 40
0.2486489160957669
 40
0.3404969668524634
 40
0.4381912511164653
 40
0.5434463660244956
 40
0.6518115192847276
 40
0.7530190937886854
 40
0.8492196919725116
 40
0.9419290312998169
 40
1.034249663570045
 40
1.129078600620202
 40
1.226697027573242
 40
1.327220425421699
 40
1.470572134938013
 40
1.595489863371214
 40
1.719934125348395
 40
1.850576620127417
 40
1.989059629987304
 40
2.134139054226921
 40
2.280698007207209
 40
2.424529739039477
 40
2.565929576985849
 40
2.708239260773537
 40
2.861717887443654
 40
3.045168540347368
 40
3.183798301138612
 40
3.314813961455456
 40
3.442083470447314
 40
3.569912708372966
 40
3.702177512509369
 40
3.842307559659531
 40
3.992872223245936
 40
4.156750662218324
 40
4.310981861107546
 40
4.445859909322592
 40
4.572393936131585
 40
4.701656719781984
 40
4.768279086008471
 40
4.835960697898417
 40
4.912788918729337
 40
5.00628520848155
 40
5.026909478751627
 40
5.047533749021191
 40
5.101808031471266
 40
5.162325165538553
 40
5.226919745995877
 40
5.294231806596747
 40
5.364544852554895
 40
5.43831905546794
 40
5.517877651324276
 40
5.607647714861588
 40
5.700449642544434
 40
5.788251142364166
 40
5.872714706039796
 40
5.955167292575307
 40
6.037192395190407
 40
6.120669181469137
 40
6.206848616686375
 40
6.296680855416798
 40
6.442558392872622
 40
6.568190371608298
 40
6.692904567360387
 40
6.824220446557165
 40
6.9631218503294
 40
7.107843738851183
 40
7.253431663907301
 40
7.395187468036724
 40
7.533140753237779
 40
7.670550457175268
 40
7.816236511769286
 40
7.987691657359249
 40
8.142277421969272
 40
8.293662615415048
 40
8.442962460879304
 40
8.591598316185356
 40
8.74367899236183
 40
8.903725323699213
 40
9.076307008890561
 40
9.265578604680616
 40
9.459203795360791
 40
9.617619810273577
 40
9.753609671361938
 40
9.874873300004115
 40
9.954520184977818
 40
10.0241641371925
 40
10.09769764405448
 40
10.18909955924975
 40
10.20974586420137
 40
10.23039218263382
 40
10.30057101881267
 40
10.37632012987548
 40
10.37632012987548
 40
10.37632012987548
 40
10.37632012987548
 10
170.1465954835851
 20
14.13795663215991
 10
170.1632217851219
 20
14.11720608845309
 10
170.1970784206577
 20
14.07495111711899
 10
170.2599822541036
 20
14.02029811392069
 10
170.3332500940393
 20
13.97299025121048
 10
170.4175969238636
 20
13.93527231437932
 10
170.5132240615459
 20
13.91040619731948
 10
170.6171853775346
 20
13.90309559345934
 10
170.7224020220405
 20
13.9114232279405
 10
170.8206626371333
 20
13.94149179651525
 10
170.9058986427548
 20
13.98848822971873
 10
170.9779220206102
 20
14.04952991250854
 10
171.0350917709097
 20
14.12412969578581
 10
171.0767868747439
 20
14.21002464660172
 10
171.1026952846292
 20
14.30485850432208
 10
171.1118037332653
 20
14.41854979038364
 10
171.0986864796487
 20
14.54332587770775
 10
171.0325330334414
 20
14.6601471917189
 10
170.9369370919569
 20
14.7451253957737
 10
170.8249681022369
 20
14.8141668445916
 10
170.6993659583269
 20
14.87204142045887
 10
170.5656691620856
 20
14.92373723284337
 10
170.4313122818831
 20
14.97899092397178
 10
170.3051983986877
 20
15.04939770641646
 10
170.1926579987535
 20
15.13785540731247
 10
170.0969963064458
 20
15.24981067868469
 10
170.0334157151826
 20
15.3994991010138
 10
170.0200706505015
 20
15.55932794385139
 10
170.0320510987448
 20
15.71048405306842
 10
170.071229892884
 20
15.83809244591536
 10
170.135498775091
 20
15.95080874030842
 10
170.2238204999741
 20
16.04648609268683
 10
170.3338091207627
 20
16.12354214985751
 10
170.4632284401264
 20
16.18151396936273
 10
170.6111838967793
 20
16.2173917758882
 10
170.7682069455487
 20
16.22746719050561
 10
170.917494046643
 20
16.21863637762587
 10
171.059625361417
 20
16.1907489934035
 10
171.1595922609626
 20
16.13413314701135
 10
171.3125074736185
 20
16.08674602105504
 10
171.2455131717168
 20
16.00197553001182
 10
171.2296479120268
 20
15.93438901873481
 10
171.1978750531297
 20
15.86926092793187
 10
171.2150202209571
 20
15.76723453256949
 10
171.1666427208231
 20
15.77493211681898
 10
171.1315789440766
 20
15.76806771724804
 10
171.1296697985718
 20
15.83263831158192
 10
171.0985692931989
 20
15.87825639621393
 10
171.0664551628455
 20
15.93561036628452
 10
171.0208038475168
 20
15.98540462692555
 10
170.9658508218386
 20
16.02994813718992
 10
170.9010841173007
 20
16.06763988836547
 10
170.8232377310597
 20
16.09283375791349
 10
170.7355160553352
 20
16.09931230998107
 10
170.6452903277806
 20
16.09235709285604
 10
170.5594594694065
 20
16.06909190460918
 10
170.4828343638596
 20
16.03131644107541
 10
170.4165265636201
 20
15.98051641089572
 10
170.3622560536964
 20
15.91731143407207
 10
170.3224925345458
 20
15.84276455710364
 10
170.2976775510588
 20
15.75917313997761
 10
170.2892124262869
 20
15.65192948382282
 10
170.3019697987103
 20
15.52965457267556
 10
170.3681548409273
 20
15.41149724291209
 10
170.4640977399832
 20
15.32606325709525
 10
170.5757914963182
 20
15.25583362306719
 10
170.7010863668702
 20
15.19659162305301
 10
170.8349823941447
 20
15.14616708086131
 10
170.9689930333149
 20
15.09322516984379
 10
171.0950885316915
 20
15.02750170625172
 10
171.2076216638418
 20
14.94480352537319
 10
171.3031370284232
 20
14.8399600631007
 10
171.3672706486963
 20
14.69937117251566
 10
171.3811103725279
 20
14.54065409451589
 10
171.3673954712229
 20
14.38153155217872
 10
171.3244739153984
 20
14.23483828819207
 10
171.2545906329066
 20
14.10119796587138
 10
171.1574592213829
 20
13.98532387699288
 10
171.0347806023657
 20
13.89089981770084
 10
170.8874408413168
 20
13.82179270651978
 10
170.7177132497125
 20
13.7795321085885
 10
170.5317404979596
 20
13.76781736230404
 10
170.3528955926183
 20
13.77809486683434
 10
170.1881733753743
 20
13.81966573769151
 10
170.0834410841056
 20
13.88797642883937
 10
169.9350960790366
 20
13.93675219032105
 10
169.9980378194729
 20
14.02976591290839
 10
170.007227443006
 20
14.10296536248278
 10
170.0303711301232
 20
14.16936294501344
 10
170.0034588335317
 20
14.26974809527577
 10
170.0521338956339
 20
14.26234033517376
 10
170.0916530580697
 20
14.26894063620891
 10
170.0996204944701
 20
14.19078703218929
 10
170.1305436967923
 20
14.15600927375854
 10
170.1465954835851
 20
14.13795663215991
 97
        1
330
BC
 75
     1
 76
     2
 52
45.0
 41
0.1
 77
     0
 78
     1
 53
45.0
 43
0.0
 44
0.0
 45
-0.282842712474619
 46
0.0
 79
     0
 98
        1
 10
0.0
 20
0.0
  0
ENDBLK
  5
4A
330
48
100
AcDbEntity
  8
0
100
AcDbBlockEnd
  0
BLOCK
  5
4D
330
4B
100
AcDbEntity
  8
0
100
AcDbBlockBegin
  2
開示A4枠
 70
     0
 10
0.0
 20
-0.00000000000003
 30
0.0
  3
開示A4枠
  1

  0
INSERT
  5
4C
330
4B
100
AcDbEntity
  8
1
100
AcDbBlockReference
  2
開示A4
 10
0.0
 20
-0.00000000000003
 30
0.0
  0
ENDBLK
  5
4E
330
4B
100
AcDbEntity
  8
0
100
AcDbBlockEnd
  0
BLOCK
  5
50
330
4F
100
AcDbEntity
  8
0
100
AcDbBlockBegin
  2
41-1-15
 70
     0
 10
88.39388364353431
 20
182.6569750132413
 30
0.0
  3
41-1-15
  1

  0
LINE
  5
D9
330
4F
100
AcDbEntity
  8
1
  6
Continuous
 62
     7
100
AcDbLine
 10
116.5531642190739
 20
147.0618670995722
 30
0.0
 11
116.5531642190739
 21
133.0618670995722
 31
0.0
  0
LINE
  5
DA
330
4F
100
AcDbEntity
  8
1
  6
Continuous
 62
     7
100
AcDbLine
 10
116.5531642190739
 20
133.0618670995722
 30
0.0
 11
120.8031642190739
 21
133.0618670995722
 31
0.0
  0
LINE
  5
DB
330
4F
100
AcDbEntity
  8
1
  6
Continuous
 62
     7
100
AcDbLine
 10
121.5531642190739
 20
130.0618670995722
 30
0.0
 11
121.5531642190739
 21
132.3118670995722
 31
0.0
  0
LINE
  5
DC
330
4F
100
AcDbEntity
  8
1
  6
Continuous
 62
     7
100
AcDbLine
 10
121.5531642190739
 20
130.0618670995722
 30
0.0
 11
121.0531642190739
 21
130.0618670995722
 31
0.0
  0
LINE
  5
DD
330
4F
100
AcDbEntity
  8
1
  6
Continuous
 62
     7
100
AcDbLine
 10
115.6741642190739
 20
123.0618670995722
 30
0.0
 11
114.0531642190739
 21
123.0618670995722
 31
0.0
  0
LINE
  5
DE
330
4F
100
AcDbEntity
  8
1
  6
Continuous
 62
     7
100
AcDbLine
 10
116.0531642190739
 20
123.4408670995722
 30
0.0
 11
115.6741642190739
 21
123.0618670995722
 31
0.0
  0
LINE
  5
DF
330
4F
100
AcDbEntity
  8
1
  6
Continuous
 62
     7
100
AcDbLine
 10
116.0531642190739
 20
123.4408670995722
 30
0.0
 11
114.0531642190739
 21
123.4408670995722
 31
0.0
  0
LINE
  5
E0
330
4F
100
AcDbEntity
  8
1
  6
Continuous
 62
     7
100
AcDbLine
 10
111.553164219074
 20
147.0618670995722
 30
0.0
 11
116.5531642190739
 21
147.0618670995722
 31
0.0
  0
LINE
  5
E1
330
4F
100
AcDbEntity
  8
1
  6
Continuous
 62
     7
100
AcDbLine
 10
114.0531642190739
 20
123.4408670995722
 30
0.0
 11
112.053164219074
 21
123.4408670995722
 31
0.0
  0
LINE
  5
E2
330
4F
100
AcDbEntity
  8
1
  6
Continuous
 62
     7
100
AcDbLine
 10
112.4321642190739
 20
123.0618670995722
 30
0.0
 11
112.053164219074
 21
123.4408670995722
 31
0.0
  0
LINE
  5
E3
330
4F
100
AcDbEntity
  8
1
  6
Continuous
 62
     7
100
AcDbLine
 10
112.053164219074
 20
123.4408670995722
 30
0.0
 11
112.053164219074
 21
124.5618670995722
 31
0.0
  0
LINE
  5
E4
330
4F
100
AcDbEntity
  8
1
  6
Continuous
 62
     7
100
AcDbLine
 10
114.0531642190739
 20
123.0618670995722
 30
0.0
 11
112.4321642190739
 21
123.0618670995722
 31
0.0
  0
LINE
  5
E5
330
4F
100
AcDbEntity
  8
1
  6
Continuous
 62
     2
100
AcDbLine
 10
112.4321642190739
 20
123.0618670995722
 30
0.0
 11
112.4321642190739
 21
124.5618670995722
 31
0.0
  0
LINE
  5
E6
330
4F
100
AcDbEntity
  8
1
  6
Continuous
 62
     7
100
AcDbLine
 10
106.553164219074
 20
130.0618670995722
 30
0.0
 11
106.553164219074
 21
132.3118670995722
 31
0.0
  0
LINE
  5
E7
330
4F
100
AcDbEntity
  8
1
  6
Continuous
 62
     7
100
AcDbLine
 10
111.553164219074
 20
133.0618670995722
 30
0.0
 11
107.303164219074
 21
133.0618670995722
 31
0.0
  0
LINE
  5
E8
330
4F
100
AcDbEntity
  8
1
  6
Continuous
 62
     7
100
AcDbLine
 10
111.553164219074
 20
133.0618670995722
 30
0.0
 11
111.553164219074
 21
147.0618670995722
 31
0.0
  0
LINE
  5
E9
330
4F
100
AcDbEntity
  8
1
  6
Continuous
 62
     7
100
AcDbLine
 10
121.5531642190739
 20
132.3118670995722
 30
0.0
 11
120.8031642190739
 21
133.0618670995722
 31
0.0
  0
LINE
  5
EA
330
4F
100
AcDbEntity
  8
1
  6
Continuous
 62
     7
100
AcDbLine
 10
107.303164219074
 20
133.0618670995722
 30
0.0
 11
106.553164219074
 21
132.3118670995722
 31
0.0
  0
LINE
  5
EB
330
4F
100
AcDbEntity
  8
1
  6
Continuous
 62
     7
100
AcDbLine
 10
121.5531642190739
 20
132.3118670995722
 30
0.0
 11
106.553164219074
 21
132.3118670995722
 31
0.0
  0
LINE
  5
EC
330
4F
100
AcDbEntity
  8
1
  6
Continuous
 62
     7
100
AcDbLine
 10
111.553164219074
 20
133.0618670995722
 30
0.0
 11
116.5531642190739
 21
133.0618670995722
 31
0.0
  0
LINE
  5
ED
330
4F
100
AcDbEntity
  8
1
  6
Continuous
 62
     7
100
AcDbLine
 10
116.0531642190739
 20
124.5618670995722
 30
0.0
 11
116.0531642190739
 21
123.4408670995722
 31
0.0
  0
LINE
  5
EE
330
4F
100
AcDbEntity
  8
1
  6
Continuous
 62
     2
100
AcDbLine
 10
115.6741642190739
 20
124.5618670995722
 30
0.0
 11
115.6741642190739
 21
123.0618670995722
 31
0.0
  0
LINE
  5
EF
330
4F
100
AcDbEntity
  8
1
  6
Continuous
 62
     7
100
AcDbLine
 10
107.0531642190739
 20
130.0618670995722
 30
0.0
 11
106.553164219074
 21
130.0618670995722
 31
0.0
  0
ARC
  5
F0
330
4F
100
AcDbEntity
  8
1
  6
Continuous
 62
     7
100
AcDbCircle
 10
113.9042730325537
 20
144.0646391332716
 30
0.0
 40
3.999999999999843
100
AcDbArc
 50
48.53038297428356
 51
87.8667980530136
  0
ARC
  5
F1
330
4F
100
AcDbEntity
  8
1
  6
Continuous
 62
     7
100
AcDbCircle
 10
114.2020554055942
 20
144.0646391332716
 30
0.0
 40
3.999999999999866
100
AcDbArc
 50
92.13320194698761
 51
131.4696170257163
  0
CIRCLE
  5
F2
330
4F
100
AcDbEntity
  8
0
  6
Continuous
 62
     7
100
AcDbCircle
 10
114.0531642190739
 20
193.5618670995722
 30
0.0
 40
7.5
  0
CIRCLE
  5
F3
330
4F
100
AcDbEntity
  8
0
  6
Continuous
 62
     7
100
AcDbCircle
 10
114.0531642190739
 20
193.5618670995722
 30
0.0
 40
6.75
  0
CIRCLE
  5
F4
330
4F
100
AcDbEntity
  8
0
  6
Continuous
 62
     7
100
AcDbCircle
 10
114.0531642190739
 20
193.5618670995722
 30
0.0
 40
2.5
  0
ENDBLK
  5
51
330
4F
100
AcDbEntity
  8
0
100
AcDbBlockEnd
  0
BLOCK
  5
53
330
52
100
AcDbEntity
  8
0
100
AcDbBlockBegin
  2
91-1
 70
     0
 10
114.0531642190739
 20
127.0618670995722
 30
0.0
  3
91-1
  1

  0
LINE
  5
F5
330
52
100
AcDbEntity
  8
1
  6
Continuous
 62
     7
100
AcDbLine
 10
107.0531642190739
 20
127.0618670995722
 30
0.0
 11
116.0531642190739
 21
127.0618670995722
 31
0.0
  0
LINE
  5
F6
330
52
100
AcDbEntity
  8
1
  6
Continuous
 62
     7
100
AcDbLine
 10
121.0531642190739
 20
127.0618670995722
 30
0.0
 11
121.0531642190739
 21
130.0618670995722
 31
0.0
  0
LINE
  5
F7
330
52
100
AcDbEntity
  8
1
  6
Continuous
 62
     7
100
AcDbLine
 10
121.0531642190739
 20
130.0618670995722
 30
0.0
 11
116.0531642190739
 21
130.0618670995722
 31
0.0
  0
LINE
  5
F8
330
52
100
AcDbEntity
  8
1
  6
Continuous
 62
     7
100
AcDbLine
 10
107.0531642190739
 20
130.0618670995722
 30
0.0
 11
107.0531642190739
 21
127.0618670995722
 31
0.0
  0
LINE
  5
F9
330
52
100
AcDbEntity
  8
1
  6
Continuous
 62
     7
100
AcDbLine
 10
116.0531642190739
 20
127.0618670995722
 30
0.0
 11
121.0531642190739
 21
127.0618670995722
 31
0.0
  0
LINE
  5
FA
330
52
100
AcDbEntity
  8
1
  6
Continuous
 62
     7
100
AcDbLine
 10
116.0531642190739
 20
130.0618670995722
 30
0.0
 11
107.0531642190739
 21
130.0618670995722
 31
0.0
  0
ENDBLK
  5
54
330
52
100
AcDbEntity
  8
0
100
AcDbBlockEnd
  0
BLOCK
  5
56
330
55
100
AcDbEntity
  8
0
100
AcDbBlockBegin
  2
32-88
 70
     0
 10
103.0563296866998
 20
67.49568004921254
 30
0.0
  3
32-88
  1

  0
LINE
  5
FB
330
55
100
AcDbEntity
  8
1
  6
Continuous
 62
     7
100
AcDbLine
 10
117.0531642190739
 20
124.5618670995722
 30
0.0
 11
116.6881078548081
 21
124.5618670995722
 31
0.0
  0
LINE
  5
FC
330
55
100
AcDbEntity
  8
1
  6
Continuous
 62
     7
100
AcDbLine
 10
115.7852150266428
 20
125.02596871471
 30
0.0
 11
115.7852150266428
 21
127.0618670995722
 31
0.0
  0
LINE
  5
FD
330
55
100
AcDbEntity
  8
1
  6
Continuous
 62
     7
100
AcDbLine
 10
117.0531642190739
 20
124.5618670995722
 30
0.0
 11
117.5172658342117
 21
125.02596871471
 31
0.0
  0
LINE
  5
FE
330
55
100
AcDbEntity
  8
1
  6
Continuous
 62
     7
100
AcDbLine
 10
117.5172658342117
 20
125.02596871471
 30
0.0
 11
117.5172658342117
 21
127.0618670995722
 31
0.0
  0
LINE
  5
FF
330
55
100
AcDbEntity
  8
1
  6
Continuous
 62
     7
100
AcDbLine
 10
117.5172658342117
 20
127.0618670995722
 30
0.0
 11
115.7852150266428
 21
127.0618670995722
 31
0.0
  0
LINE
  5
100
330
55
100
AcDbEntity
  8
1
  6
Continuous
 62
     7
100
AcDbLine
 10
114.0531642190739
 20
124.5618670995722
 30
0.0
 11
116.6441029053008
 21
124.5618670995722
 31
0.0
  0
LINE
  5
101
330
55
100
AcDbEntity
  8
1
  6
Continuous
 62
     7
100
AcDbLine
 10
111.4182205833398
 20
124.5618670995722
 30
0.0
 11
111.0531642190739
 21
124.5618670995722
 31
0.0
  0
LINE
  5
102
330
55
100
AcDbEntity
  8
1
  6
Continuous
 62
     7
100
AcDbLine
 10
112.3211134115051
 20
127.0618670995722
 30
0.0
 11
115.7852150266428
 21
127.0618670995722
 31
0.0
  0
LINE
  5
103
330
55
100
AcDbEntity
  8
1
  6
Continuous
 62
     7
100
AcDbLine
 10
112.3211134115051
 20
127.0618670995722
 30
0.0
 11
112.3211134115051
 21
125.02596871471
 31
0.0
  0
LINE
  5
104
330
55
100
AcDbEntity
  8
1
  6
Continuous
 62
     7
100
AcDbLine
 10
110.5890626039362
 20
125.02596871471
 30
0.0
 11
111.0531642190739
 21
124.5618670995722
 31
0.0
  0
LINE
  5
105
330
55
100
AcDbEntity
  8
1
  6
Continuous
 62
     7
100
AcDbLine
 10
110.5890626039362
 20
127.0618670995722
 30
0.0
 11
110.5890626039362
 21
125.02596871471
 31
0.0
  0
LINE
  5
106
330
55
100
AcDbEntity
  8
1
  6
Continuous
 62
     7
100
AcDbLine
 10
112.3211134115051
 20
127.0618670995722
 30
0.0
 11
110.5890626039362
 21
127.0618670995722
 31
0.0
  0
LINE
  5
107
330
55
100
AcDbEntity
  8
1
  6
Continuous
 62
     7
100
AcDbLine
 10
111.462225532847
 20
124.5618670995722
 30
0.0
 11
114.0531642190739
 21
124.5618670995722
 31
0.0
  0
ARC
  5
108
330
55
100
AcDbEntity
  8
1
  6
Continuous
 62
     7
100
AcDbCircle
 10
116.6512404304272
 20
125.6018757242158
 30
0.0
 40
1.040033116587077
100
AcDbArc
 50
213.6239114679666
 51
303.6239114679714
  0
ARC
  5
109
330
55
100
AcDbEntity
  8
1
  6
Continuous
 62
     7
100
AcDbCircle
 10
114.1086896228584
 20
127.8187450866758
 30
0.0
 40
3.257351269566344
100
AcDbArc
 50
269.0232783881085
 51
300.9767216118889
  0
ARC
  5
10A
330
55
100
AcDbEntity
  8
1
  6
Continuous
 62
     7
100
AcDbCircle
 10
111.4550880077206
 20
125.6018757242158
 30
0.0
 40
1.040033116587089
100
AcDbArc
 50
236.3760885320339
 51
326.3760885320365
  0
ARC
  5
10B
330
55
100
AcDbEntity
  8
1
  6
Continuous
 62
     7
100
AcDbCircle
 10
113.9976388152895
 20
127.8187450866758
 30
0.0
 40
3.257351269566262
100
AcDbArc
 50
239.0232783881109
 51
270.9767216118897
  0
ENDBLK
  5
57
330
55
100
AcDbEntity
  8
0
100
AcDbBlockEnd
  0
BLOCK
  5
123
330
11C
100
AcDbEntity
  8
0
100
AcDbBlockBegin
  2
*D6
 70
     1
 10
0.0
 20
0.0
 30
0.0
  3
*D6
  1

  0
LINE
  5
11D
330
11C
100
AcDbEntity
  8
0
  6
Continuous
 62
     2
100
AcDbLine
 10
87.57258053021154
 20
148.0618670995722
 30
0.0
 11
87.57258053021154
 21
123.0618670995722
 31
0.0
  0
LINE
  5
11E
330
11C
100
AcDbEntity
  8
0
  6
Continuous
 62
     2
100
AcDbLine
 10
114.0531642190739
 20
123.0618670995722
 30
0.0
 11
86.57258053021154
 21
123.0618670995722
 31
0.0
  0
LINE
  5
11F
330
11C
100
AcDbEntity
  8
0
  6
Continuous
 62
     2
100
AcDbLine
 10
114.0531642190739
 20
148.0618670995722
 30
0.0
 11
86.57258053021154
 21
148.0618670995722
 31
0.0
  0
SOLID
  5
120
330
11C
100
AcDbEntity
  8
0
 62
     2
100
AcDbTrace
 10
88.03336427176743
 20
144.5618670995722
 30
0.0
 11
87.11179678865565
 21
144.5618670995722
 31
0.0
 12
87.57258053021154
 22
148.0618670995722
 32
0.0
 13
87.57258053021154
 23
148.0618670995722
 33
0.0
  0
SOLID
  5
121
330
11C
100
AcDbEntity
  8
0
 62
     2
100
AcDbTrace
 10
87.11179678865565
 20
126.5618670995722
 30
0.0
 11
88.03336427176743
 21
126.5618670995722
 31
0.0
 12
87.57258053021154
 22
123.0618670995722
 32
0.0
 13
87.57258053021154
 23
123.0618670995722
 33
0.0
  0
MTEXT
  5
122
330
11C
100
AcDbEntity
  8
0
 62
     7
100
AcDbMText
 10
86.57258053021154
 20
133.8816160604331
 30
0.0
 40
3.5
 41
0.0
 71
     7
 72
     1
  1
25
  7
CONVERTER_12
 11
0.0
 21
1.0
 31
0.0
 73
     1
 44
0.60024009603842
  0
ENDBLK
  5
124
330
11C
100
AcDbEntity
  8
0
100
AcDbBlockEnd
  0
BLOCK
  5
12E
330
127
100
AcDbEntity
  8
0
100
AcDbBlockBegin
  2
*D7
 70
     1
 10
0.0
 20
0.0
 30
0.0
  3
*D7
  1

  0
LINE
  5
128
330
127
100
AcDbEntity
  8
0
  6
Continuous
 62
     2
100
AcDbLine
 10
95.51928103351375
 20
148.0618670995722
 30
0.0
 11
95.51928103351375
 21
133.0618670995722
 31
0.0
  0
LINE
  5
129
330
127
100
AcDbEntity
  8
0
  6
Continuous
 62
     2
100
AcDbLine
 10
111.5531642190739
 20
133.0618670995722
 30
0.0
 11
94.51928103351375
 21
133.0618670995722
 31
0.0
  0
LINE
  5
12A
330
127
100
AcDbEntity
  8
0
  6
Continuous
 62
     2
100
AcDbLine
 10
114.0531642190739
 20
148.0618670995722
 30
0.0
 11
94.51928103351375
 21
148.0618670995722
 31
0.0
  0
SOLID
  5
12B
330
127
100
AcDbEntity
  8
0
 62
     2
100
AcDbTrace
 10
95.98006477506964
 20
144.5618670995722
 30
0.0
 11
95.05849729195786
 21
144.5618670995722
 31
0.0
 12
95.51928103351375
 22
148.0618670995722
 32
0.0
 13
95.51928103351375
 23
148.0618670995722
 33
0.0
  0
SOLID
  5
12C
330
127
100
AcDbEntity
  8
0
 62
     2
100
AcDbTrace
 10
95.05849729195786
 20
136.5618670995722
 30
0.0
 11
95.98006477506964
 21
136.5618670995722
 31
0.0
 12
95.51928103351375
 22
133.0618670995722
 32
0.0
 13
95.51928103351375
 23
133.0618670995722
 33
0.0
  0
MTEXT
  5
12D
330
127
100
AcDbEntity
  8
0
 62
     7
100
AcDbMText
 10
94.51928103351375
 20
138.4375510983401
 30
0.0
 40
3.5
 41
0.0
 71
     7
 72
     1
  1
15
  7
CONVERTER_12
 11
0.0
 21
1.0
 31
0.0
 73
     1
 44
0.60024009603842
  0
ENDBLK
  5
12F
330
127
100
AcDbEntity
  8
0
100
AcDbBlockEnd
  0
BLOCK
  5
137
330
132
100
AcDbEntity
  8
0
100
AcDbBlockBegin
  2
*D8
 70
     1
 10
0.0
 20
0.0
 30
0.0
  3
*D8
  1

  0
LINE
  5
133
330
132
100
AcDbEntity
  8
0
  6
Continuous
 62
     2
100
AcDbLine
 10
119.6922163738615
 20
198.8782183667089
 30
0.0
 11
102.7486487948009
 21
182.9042648553411
 31
0.0
  0
SOLID
  5
134
330
132
100
AcDbEntity
  8
0
 62
     2
100
AcDbTrace
 10
110.0035352254702
 20
189.1107069507294
 30
0.0
 11
109.3713576181679
 21
189.7812575444615
 31
0.0
 12
112.2341151368844
 22
191.8469150779152
 32
0.0
 13
112.2341151368844
 23
191.8469150779152
 33
0.0
  0
SOLID
  5
135
330
132
100
AcDbEntity
  8
0
 62
     2
100
AcDbTrace
 10
118.1027932126776
 20
198.013027248415
 30
0.0
 11
118.73497081998
 21
197.3424766546829
 31
0.0
 12
115.8722133012635
 22
195.2768191212292
 32
0.0
 13
115.8722133012635
 23
195.2768191212292
 33
0.0
  0
MTEXT
  5
136
330
132
100
AcDbEntity
  8
0
 62
     7
100
AcDbMText
 10
103.0304020978629
 20
184.5442389637385
 30
0.0
 40
3.5
 41
0.0
 71
     7
 72
     1
  1
\C7;{\Fgdt;n}\C7;5
  7
CONVERTER_12
 11
0.7276196328758154
 21
0.6859808086627962
 31
0.0
 73
     1
 44
0.60024009603842
  0
ENDBLK
  5
138
330
132
100
AcDbEntity
  8
0
100
AcDbBlockEnd
  0
BLOCK
  5
141
330
13A
100
AcDbEntity
  8
0
100
AcDbBlockBegin
  2
*D9
 70
     1
 10
0.0
 20
0.0
 30
0.0
  3
*D9
  1

  0
LINE
  5
13B
330
13A
100
AcDbEntity
  8
0
  6
Continuous
 62
     2
100
AcDbLine
 10
121.5531642190739
 20
212.2067557958279
 30
0.0
 11
106.5531642190739
 21
212.2067557958279
 31
0.0
  0
LINE
  5
13C
330
13A
100
AcDbEntity
  8
0
  6
Continuous
 62
     2
100
AcDbLine
 10
106.5531642190739
 20
193.5618670995722
 30
0.0
 11
106.5531642190739
 21
213.2067557958279
 31
0.0
  0
LINE
  5
13D
330
13A
100
AcDbEntity
  8
0
  6
Continuous
 62
     2
100
AcDbLine
 10
121.5531642190739
 20
193.5618670995722
 30
0.0
 11
121.5531642190739
 21
213.2067557958279
 31
0.0
  0
SOLID
  5
13E
330
13A
100
AcDbEntity
  8
0
 62
     2
100
AcDbTrace
 10
118.0531642190739
 20
211.745972054272
 30
0.0
 11
118.0531642190739
 21
212.6675395373838
 31
0.0
 12
121.5531642190739
 22
212.2067557958279
 32
0.0
 13
121.5531642190739
 23
212.2067557958279
 33
0.0
  0
SOLID
  5
13F
330
13A
100
AcDbEntity
  8
0
 62
     2
100
AcDbTrace
 10
110.0531642190739
 20
212.6675395373838
 30
0.0
 11
110.0531642190739
 21
211.745972054272
 31
0.0
 12
106.5531642190739
 22
212.2067557958279
 32
0.0
 13
106.5531642190739
 23
212.2067557958279
 33
0.0
  0
MTEXT
  5
140
330
13A
100
AcDbEntity
  8
0
 62
     7
100
AcDbMText
 10
111.2253128031499
 20
213.2067488387516
 30
0.0
 40
3.5
 41
0.0
 71
     7
 72
     1
  1
\C7;{\Fgdt;n}\C7;15
  7
CONVERTER_12
 11
0.9999999999970619
 21
2.424068405545306E-6
 31
0.0
 73
     1
 44
0.60024009603842
  0
ENDBLK
  5
142
330
13A
100
AcDbEntity
  8
0
100
AcDbBlockEnd
  0
ENDSEC
  0
SECTION
  2
ENTITIES
  0
INSERT
  5
58
330
1F
100
AcDbEntity
  8
0
100
AcDbBlockReference
  2
開示A4枠
 10
0.0
 20
-0.00000000000003
 30
0.0
  0
INSERT
  5
59
330
1F
100
AcDbEntity
  8
0
100
AcDbBlockReference
  2
41-1-15
 10
88.39388364353431
 20
182.6569750132413
 30
0.0
  0
INSERT
  5
5A
330
1F
100
AcDbEntity
  8
0
100
AcDbBlockReference
  2
91-1
 10
114.0531642190739
 20
127.0618670995722
 30
0.0
  0
INSERT
  5
5B
330
1F
100
AcDbEntity
  8
1
100
AcDbBlockReference
  2
32-88
 10
103.0563296866998
 20
67.49568004921254
 30
0.0
  0
LINE
  5
10C
330
1F
100
AcDbEntity
  8
1
  6
DASH_CENTER
 62
     2
100
AcDbLine
 10
124.5531642190739
 20
193.5618670995722
 30
0.0
 11
103.5531642190739
 21
193.5618670995722
 31
0.0
  0
LINE
  5
10D
330
1F
100
AcDbEntity
  8
1
  6
DASH_CENTER
 62
     2
100
AcDbLine
 10
114.0531642190739
 20
183.0618670995722
 30
0.0
 11
114.0531642190739
 21
204.0618670995722
 31
0.0
  0
LINE
  5
10E
330
1F
100
AcDbEntity
  8
1
  6
DASH_CENTER
 62
     2
100
AcDbLine
 10
114.0531642190739
 20
120.0618670995722
 30
0.0
 11
114.0531642190739
 21
151.0618670995722
 31
0.0
  0
MTEXT
  5
110
330
1F
100
AcDbEntity
  8
1
 62
     7
100
AcDbMText
 10
157.5
 20
12.49999999999997
 30
0.0
 40
2.5
 41
0.0
 71
     5
 72
     1
  1
2
  7
CONVERTER_12
 73
     1
 44
0.7202881152461
  0
MTEXT
  5
111
330
1F
100
AcDbEntity
  8
1
 62
     7
100
AcDbMText
 10
151.75
 20
12.49999999999997
 30
0.0
 40
2.5
 41
0.0
 71
     5
 72
     1
  1
04
  7
CONVERTER_12
 73
     1
 44
0.7202881152461
  0
MTEXT
  5
112
330
1F
100
AcDbEntity
  8
1
 62
     7
100
AcDbMText
 10
140.5
 20
12.49999999999997
 30
0.0
 40
2.5
 41
0.0
 71
     5
 72
     1
  1
2
  7
CONVERTER_12
 73
     1
 44
0.7202881152461
  0
MTEXT
  5
113
330
1F
100
AcDbEntity
  8
1
 62
     7
100
AcDbMText
 10
134.75
 20
12.49999999999997
 30
0.0
 40
2.5
 41
0.0
 71
     5
 72
     1
  1
04
  7
CONVERTER_12
 73
     1
 44
0.7202881152461
  0
MTEXT
  5
114
330
1F
100
AcDbEntity
  8
1
 62
     7
100
AcDbMText
 10
123.5
 20
12.49999999999997
 30
0.0
 40
2.5
 41
0.0
 71
     5
 72
     1
  1
2
  7
CONVERTER_12
 73
     1
 44
0.7202881152461
  0
MTEXT
  5
115
330
1F
100
AcDbEntity
  8
1
 62
     7
100
AcDbMText
 10
117.75
 20
12.49999999999997
 30
0.0
 40
2.5
 41
0.0
 71
     5
 72
     1
  1
04
  7
CONVERTER_12
 73
     1
 44
0.7202881152461
  0
MTEXT
  5
116
330
1F
100
AcDbEntity
  8
1
 62
     7
100
AcDbMText
 10
100.75
 20
12.49999999999997
 30
0.0
 40
2.5
 41
0.0
 71
     5
 72
     1
  1
04
  7
CONVERTER_12
 73
     1
 44
0.7202881152461
  0
MTEXT
  5
117
330
1F
100
AcDbEntity
  8
1
 62
     7
100
AcDbMText
 10
106.5
 20
12.49999999999997
 30
0.0
 40
2.5
 41
0.0
 71
     5
 72
     1
  1
2
  7
CONVERTER_12
 73
     1
 44
0.7202881152461
  0
MTEXT
  5
118
330
1F
100
AcDbEntity
  8
1
 62
     7
100
AcDbMText
 10
85.25
 20
16.99999999999997
 30
0.0
 40
3.5
 41
0.0
 71
     5
 72
     1
  1
1
  7
CONVERTER_12
 73
     1
 44
0.7202881152461
  0
MTEXT
  5
119
330
1F
100
AcDbEntity
  8
1
 62
     7
100
AcDbMText
 10
57.0
 20
22.74999999999998
 30
0.0
 40
3.5
 41
0.0
 71
     5
 72
     1
  1
水栓ケレップ
  7
CONVERTER_11
 73
     1
 44
0.54545454545455
  0
MTEXT
  5
11A
330
1F
100
AcDbEntity
  8
1
 62
     7
100
AcDbMText
 10
57.0
 20
14.24999999999997
 30
0.0
 40
3.5
 41
0.0
 71
     5
 72
     1
  1
P82A-2S-15
  7
CONVERTER_12
 73
     1
 44
0.7202881152461
  0
MTEXT
  5
11B
330
1F
100
AcDbEntity
  8
1
 62
     7
100
AcDbMText
 10
93.75
 20
16.99999999999997
 30
0.0
 40
3.5
 41
0.0
 71
     5
 72
     1
  1
1
  7
CONVERTER_12
 73
     1
 44
0.7202881152461
  0
DIMENSION
  5
126
330
1F
100
AcDbEntity
  8
0
100
AcDbDimension
  2
*D6
 10
87.57258053021154
 20
148.0618670995722
 30
0.0
 11
84.82258053021154
 21
136.5066160604331
 31
0.0
 70
    32
  1
<>
 71
     5
 42
-1.0
 53
90.0
  3
ME10_DIM_10
100
AcDbAlignedDimension
 13
114.0531642190739
 23
123.0618670995722
 33
0.0
 14
114.0531642190739
 24
148.0618670995722
 34
0.0
 50
90.0
100
AcDbRotatedDimension
  0
DIMENSION
  5
131
330
1F
100
AcDbEntity
  8
0
100
AcDbDimension
  2
*D7
 10
95.51928103351375
 20
148.0618670995722
 30
0.0
 11
92.76928103351375
 21
140.5375510983401
 31
0.0
 70
    32
  1
<>
 71
     5
 42
-1.0
 53
90.0
  3
ME10_DIM_11
100
AcDbAlignedDimension
 13
111.553164219074
 23
133.0618670995722
 33
0.0
 14
114.0531642190739
 24
148.0618670995722
 34
0.0
 50
90.0
100
AcDbRotatedDimension
  0
INSERT
  5
139
330
1F
100
AcDbEntity
  8
0
100
AcDbBlockReference
  2
*D8
 10
0.0
 20
0.0
 30
0.0
  0
INSERT
  5
143
330
1F
100
AcDbEntity
  8
0
100
AcDbBlockReference
  2
*D9
 10
0.0
 20
0.0
 30
0.0
  0
ENDSEC
  0
SECTION
  2
OBJECTS
  0
DICTIONARY
  5
C
330
0
100
AcDbDictionary
281
     1
  3
ACAD_GROUP
350
D
  3
ACAD_LAYOUT
350
1A
  3
ACAD_MATERIAL
350
3B
  3
ACAD_MLEADERSTYLE
350
146
  3
ACAD_MLINESTYLE
350
17
  3
ACAD_PLOTSETTINGS
350
19
  3
ACAD_PLOTSTYLENAME
350
E
  3
ACAD_VISUALSTYLE
350
2A
  3
AcDbVariableDictionary
350
144
  0
DICTIONARY
  5
D
102
{ACAD_REACTORS
330
C
102
}
330
C
100
AcDbDictionary
281
     1
  0
DICTIONARY
  5
1A
102
{ACAD_REACTORS
330
C
102
}
330
C
100
AcDbDictionary
281
     1
  3
Layout1
350
1E
  3
Layout2
350
26
  3
Model
350
22
  0
DICTIONARY
  5
3B
102
{ACAD_REACTORS
330
C
102
}
330
C
100
AcDbDictionary
281
     1
  3
ByBlock
350
3D
  3
ByLayer
350
3C
  3
Global
350
3E
  0
DICTIONARY
  5
146
102
{ACAD_REACTORS
330
C
102
}
330
C
100
AcDbDictionary
281
     1
  0
DICTIONARY
  5
17
102
{ACAD_REACTORS
330
C
102
}
330
C
100
AcDbDictionary
281
     1
  3
Standard
350
18
  0
DICTIONARY
  5
19
102
{ACAD_REACTORS
330
C
102
}
330
C
100
AcDbDictionary
281
     1
  0
ACDBDICTIONARYWDFLT
  5
E
102
{ACAD_REACTORS
330
C
102
}
330
C
100
AcDbDictionary
281
     1
  3
Normal
350
F
100
AcDbDictionaryWithDefault
340
F
  0
DICTIONARY
  5
2A
102
{ACAD_REACTORS
330
C
102
}
330
C
100
AcDbDictionary
281
     1
  3
2dWireframe
350
2F
  3
3D Hidden
350
31
  3
3dWireframe
350
30
  3
Basic
350
32
  3
Brighten
350
36
  3
ColorChange
350
3A
  3
Conceptual
350
34
  3
Dim
350
35
  3
Facepattern
350
39
  3
Flat
350
2B
  3
FlatWithEdges
350
2C
  3
Gouraud
350
2D
  3
GouraudWithEdges
350
2E
  3
Linepattern
350
38
  3
Realistic
350
33
  3
Thicken
350
37
  0
DICTIONARY
  5
144
102
{ACAD_REACTORS
330
C
102
}
330
C
100
AcDbDictionary
281
     1
  3
DIMASSOC
350
147
  3
HIDETEXT
350
148
  0
LAYOUT
  5
1E
102
{ACAD_REACTORS
330
1A
102
}
330
1A
100
AcDbPlotSettings
  1

  2
none_device
  4

  6

 40
0.0
 41
0.0
 42
0.0
 43
0.0
 44
0.0
 45
0.0
 46
0.0
 47
0.0
 48
0.0
 49
0.0
140
0.0
141
0.0
142
1.0
143
1.0
 70
   688
 72
     0
 73
     0
 74
     5
  7

 75
    16
147
1.0
148
0.0
149
0.0
100
AcDbLayout
  1
Layout1
 70
     1
 71
     1
 10
0.0
 20
0.0
 11
12.0
 21
9.0
 12
0.0
 22
0.0
 32
0.0
 14
1.00000000000000E+20
 24
1.00000000000000E+20
 34
1.00000000000000E+20
 15
-1.00000000000000E+20
 25
-1.00000000000000E+20
 35
-1.00000000000000E+20
146
0.0
 13
0.0
 23
0.0
 33
0.0
 16
1.0
 26
0.0
 36
0.0
 17
0.0
 27
1.0
 37
0.0
 76
     0
330
1B
  0
LAYOUT
  5
26
102
{ACAD_REACTORS
330
1A
102
}
330
1A
100
AcDbPlotSettings
  1

  2
none_device
  4

  6

 40
0.0
 41
0.0
 42
0.0
 43
0.0
 44
0.0
 45
0.0
 46
0.0
 47
0.0
 48
0.0
 49
0.0
140
0.0
141
0.0
142
1.0
143
1.0
 70
   688
 72
     0
 73
     0
 74
     5
  7

 75
    16
147
1.0
148
0.0
149
0.0
100
AcDbLayout
  1
Layout2
 70
     1
 71
     2
 10
0.0
 20
0.0
 11
0.0
 21
0.0
 12
0.0
 22
0.0
 32
0.0
 14
0.0
 24
0.0
 34
0.0
 15
0.0
 25
0.0
 35
0.0
146
0.0
 13
0.0
 23
0.0
 33
0.0
 16
1.0
 26
0.0
 36
0.0
 17
0.0
 27
1.0
 37
0.0
 76
     0
330
23
  0
LAYOUT
  5
22
102
{ACAD_REACTORS
330
1A
102
}
330
1A
100
AcDbPlotSettings
  1

  2
none_device
  4

  6

 40
0.0
 41
0.0
 42
0.0
 43
0.0
 44
0.0
 45
0.0
 46
0.0
 47
0.0
 48
0.0
 49
0.0
140
0.0
141
0.0
142
1.0
143
1.0
 70
  1712
 72
     0
 73
     0
 74
     0
  7

 75
     0
147
1.0
148
0.0
149
0.0
100
AcDbLayout
  1
Model
 70
     1
 71
     0
 10
0.0
 20
0.0
 11
12.0
 21
9.0
 12
0.0
 22
0.0
 32
0.0
 14
0.0
 24
-0.00000000000003
 34
0.0
 15
210.0000000000001
 25
297.0
 35
0.0
146
0.0
 13
0.0
 23
0.0
 33
0.0
 16
1.0
 26
0.0
 36
0.0
 17
0.0
 27
1.0
 37
0.0
 76
     0
330
1F
331
29
  0
MATERIAL
  5
3D
102
{ACAD_REACTORS
330
3B
102
}
102
{ACAD_XDICTIONARY
360
16B
102
}
330
3B
100
AcDbMaterial
  1
ByBlock
  0
MATERIAL
  5
3C
102
{ACAD_REACTORS
330
3B
102
}
102
{ACAD_XDICTIONARY
360
169
102
}
330
3B
100
AcDbMaterial
  1
ByLayer
  0
MATERIAL
  5
3E
102
{ACAD_REACTORS
330
3B
102
}
102
{ACAD_XDICTIONARY
360
16D
102
}
330
3B
100
AcDbMaterial
  1
Global
  0
MLINESTYLE
  5
18
102
{ACAD_REACTORS
330
17
102
}
330
17
100
AcDbMlineStyle
  2
Standard
 70
     0
  3

 62
   256
 51
90.0
 52
90.0
 71
     2
 49
0.5
 62
   256
  6
BYLAYER
 49
-0.5
 62
   256
  6
BYLAYER
  0
ACDBPLACEHOLDER
  5
F
102
{ACAD_REACTORS
330
E
102
}
330
E
  0
VISUALSTYLE
  5
2F
102
{ACAD_REACTORS
330
2A
102
}
102
{ACAD_XDICTIONARY
360
151
102
}
330
2A
100
AcDbVisualStyle
  2
2dWireframe
 70
     4
 71
     0
 72
     2
 73
     0
 90
        0
 40
-0.6
 41
-30.0
 62
     5
 63
     7
 74
     1
 91
        4
 64
     7
 65
   257
 75
     1
175
     1
 42
1.0
 92
        0
 66
   257
 43
1.0
 76
     1
 77
     6
 78
     2
 67
     7
 79
     5
170
     0
171
     0
290
     0
174
     0
 93
        1
 44
0.0
173
     0
291
     0
 45
0.0
1001
ACAD
1000
AcDbSavedByObjectVersion
1070
     0
  0
VISUALSTYLE
  5
31
102
{ACAD_REACTORS
330
2A
102
}
102
{ACAD_XDICTIONARY
360
155
102
}
330
2A
100
AcDbVisualStyle
  2
3D Hidden
 70
     6
 71
     1
 72
     2
 73
     2
 90
        0
 40
-0.6
 41
-30.0
 62
     5
 63
     7
 74
     2
 91
        2
 64
     7
 65
   257
 75
     2
175
     1
 42
40.0
 92
        0
 66
   257
 43
1.0
 76
     1
 77
     6
 78
     2
 67
     7
 79
     3
170
     0
171
     0
290
     0
174
     0
 93
        1
 44
0.0
173
     0
291
     0
 45
0.0
1001
ACAD
1000
AcDbSavedByObjectVersion
1070
     0
  0
VISUALSTYLE
  5
30
102
{ACAD_REACTORS
330
2A
102
}
102
{ACAD_XDICTIONARY
360
153
102
}
330
2A
100
AcDbVisualStyle
  2
3dWireframe
 70
     5
 71
     0
 72
     2
 73
     0
 90
        0
 40
-0.6
 41
-30.0
 62
     5
 63
     7
 74
     1
 91
        4
 64
     7
 65
   257
 75
     1
175
     1
 42
1.0
 92
        0
 66
   257
 43
1.0
 76
     1
 77
     6
 78
     2
 67
     7
 79
     5
170
     0
171
     0
290
     0
174
     0
 93
        1
 44
0.0
173
     0
291
     0
 45
0.0
1001
ACAD
1000
AcDbSavedByObjectVersion
1070
     0
  0
VISUALSTYLE
  5
32
102
{ACAD_REACTORS
330
2A
102
}
102
{ACAD_XDICTIONARY
360
157
102
}
330
2A
100
AcDbVisualStyle
  2
Basic
 70
     7
 71
     1
 72
     0
 73
     1
 90
        0
 40
-0.6
 41
-30.0
 62
     5
 63
     7
 74
     0
 91
        4
 64
     7
 65
   257
 75
     1
175
     1
 42
1.0
 92
        8
 66
     7
 43
1.0
 76
     1
 77
     6
 78
     2
 67
     7
 79
     5
170
     0
171
     0
290
     0
174
     0
 93
        1
 44
0.0
173
     0
291
     1
 45
0.0
1001
ACAD
1000
AcDbSavedByObjectVersion
1070
     0
  0
VISUALSTYLE
  5
36
102
{ACAD_REACTORS
330
2A
102
}
102
{ACAD_XDICTIONARY
360
15F
102
}
330
2A
100
AcDbVisualStyle
  2
Brighten
 70
    12
 71
     2
 72
     2
 73
     0
 90
        0
 40
-0.6
 41
-30.0
 62
     5
 63
     7
 74
     1
 91
        4
 64
     7
 65
   257
 75
     1
175
     1
 42
1.0
 92
        8
 66
     7
 43
1.0
 76
     1
 77
     6
 78
     2
 67
     7
 79
     5
170
     0
171
     0
290
     0
174
     0
 93
        1
 44
50.0
173
     0
291
     1
 45
0.0
1001
ACAD
1000
AcDbSavedByObjectVersion
1070
     0
  0
VISUALSTYLE
  5
3A
102
{ACAD_REACTORS
330
2A
102
}
102
{ACAD_XDICTIONARY
360
167
102
}
330
2A
100
AcDbVisualStyle
  2
ColorChange
 70
    16
 71
     2
 72
     2
 73
     3
 90
        0
 40
-0.6
 41
-30.0
 62
     5
 63
     8
 74
     1
 91
        4
 64
     7
 65
   257
 75
     1
175
     1
 42
1.0
 92
        8
 66
     8
 43
1.0
 76
     1
 77
     6
 78
     2
 67
     7
 79
     5
170
     0
171
     0
290
     0
174
     0
 93
        1
 44
0.0
173
     0
291
     1
 45
0.0
1001
ACAD
1000
AcDbSavedByObjectVersion
1070
     0
  0
VISUALSTYLE
  5
34
102
{ACAD_REACTORS
330
2A
102
}
102
{ACAD_XDICTIONARY
360
15B
102
}
330
2A
100
AcDbVisualStyle
  2
Conceptual
 70
     9
 71
     3
 72
     2
 73
     0
 90
        0
 40
-0.6
 41
-30.0
 62
     5
 63
     7
 74
     2
 91
        2
 64
     7
 65
   257
 75
     1
175
     1
 42
40.0
 92
        8
 66
     7
 43
1.0
 76
     1
 77
     6
 78
     2
 67
     7
 79
     3
170
     0
171
     0
290
     0
174
     0
 93
        1
 44
0.0
173
     0
291
     0
 45
0.0
1001
ACAD
1000
AcDbSavedByObjectVersion
1070
     0
  0
VISUALSTYLE
  5
35
102
{ACAD_REACTORS
330
2A
102
}
102
{ACAD_XDICTIONARY
360
15D
102
}
330
2A
100
AcDbVisualStyle
  2
Dim
 70
    11
 71
     2
 72
     2
 73
     0
 90
        0
 40
-0.6
 41
-30.0
 62
     5
 63
     7
 74
     1
 91
        4
 64
     7
 65
   257
 75
     1
175
     1
 42
1.0
 92
        8
 66
     7
 43
1.0
 76
     1
 77
     6
 78
     2
 67
     7
 79
     5
170
     0
171
     0
290
     0
174
     0
 93
        1
 44
-50.0
173
     0
291
     1
 45
0.0
1001
ACAD
1000
AcDbSavedByObjectVersion
1070
     0
  0
VISUALSTYLE
  5
39
102
{ACAD_REACTORS
330
2A
102
}
102
{ACAD_XDICTIONARY
360
165
102
}
330
2A
100
AcDbVisualStyle
  2
Facepattern
 70
    15
 71
     2
 72
     2
 73
     0
 90
        0
 40
-0.6
 41
-30.0
 62
     5
 63
     7
 74
     1
 91
        4
 64
     7
 65
   257
 75
     1
175
     1
 42
1.0
 92
        8
 66
     7
 43
1.0
 76
     1
 77
     6
 78
     2
 67
     7
 79
     5
170
     0
171
     0
290
     0
174
     0
 93
        1
 44
0.0
173
     0
291
     1
 45
0.0
1001
ACAD
1000
AcDbSavedByObjectVersion
1070
     0
  0
VISUALSTYLE
  5
2B
102
{ACAD_REACTORS
330
2A
102
}
102
{ACAD_XDICTIONARY
360
149
102
}
330
2A
100
AcDbVisualStyle
  2
Flat
 70
     0
 71
     2
 72
     1
 73
     1
 90
        2
 40
-0.6
 41
30.0
 62
     5
 63
     7
 74
     0
 91
        4
 64
     7
 65
   257
 75
     1
175
     1
 42
1.0
 92
        8
 66
     7
 43
1.0
 76
     1
 77
     6
 78
     2
 67
     7
 79
     5
170
     0
171
     0
290
     0
174
     0
 93
       13
 44
0.0
173
     0
291
     1
 45
0.0
1001
ACAD
1000
AcDbSavedByObjectVersion
1070
     0
  0
VISUALSTYLE
  5
2C
102
{ACAD_REACTORS
330
2A
102
}
102
{ACAD_XDICTIONARY
360
14B
102
}
330
2A
100
AcDbVisualStyle
  2
FlatWithEdges
 70
     1
 71
     2
 72
     1
 73
     1
 90
        2
 40
-0.6
 41
30.0
 62
     5
 63
     7
 74
     1
 91
        4
 64
     7
 65
   257
 75
     1
175
     1
 42
1.0
 92
        0
 66
   257
 43
1.0
 76
     1
 77
     6
 78
     2
 67
     7
 79
     5
170
     0
171
     0
290
     0
174
     0
 93
       13
 44
0.0
173
     0
291
     1
 45
0.0
1001
ACAD
1000
AcDbSavedByObjectVersion
1070
     0
  0
VISUALSTYLE
  5
2D
102
{ACAD_REACTORS
330
2A
102
}
102
{ACAD_XDICTIONARY
360
14D
102
}
330
2A
100
AcDbVisualStyle
  2
Gouraud
 70
     2
 71
     2
 72
     2
 73
     1
 90
        2
 40
-0.6
 41
30.0
 62
     5
 63
     7
 74
     0
 91
        4
 64
     7
 65
   257
 75
     1
175
     1
 42
1.0
 92
        0
 66
     7
 43
1.0
 76
     1
 77
     6
 78
     2
 67
     7
 79
     5
170
     0
171
     0
290
     0
174
     0
 93
       13
 44
0.0
173
     0
291
     1
 45
0.0
1001
ACAD
1000
AcDbSavedByObjectVersion
1070
     0
  0
VISUALSTYLE
  5
2E
102
{ACAD_REACTORS
330
2A
102
}
102
{ACAD_XDICTIONARY
360
14F
102
}
330
2A
100
AcDbVisualStyle
  2
GouraudWithEdges
 70
     3
 71
     2
 72
     2
 73
     1
 90
        2
 40
-0.6
 41
30.0
 62
     5
 63
     7
 74
     1
 91
        4
 64
     7
 65
   257
 75
     1
175
     1
 42
1.0
 92
        0
 66
   257
 43
1.0
 76
     1
 77
     6
 78
     2
 67
     7
 79
     5
170
     0
171
     0
290
     0
174
     0
 93
       13
 44
0.0
173
     0
291
     1
 45
0.0
1001
ACAD
1000
AcDbSavedByObjectVersion
1070
     0
  0
VISUALSTYLE
  5
38
102
{ACAD_REACTORS
330
2A
102
}
102
{ACAD_XDICTIONARY
360
163
102
}
330
2A
100
AcDbVisualStyle
  2
Linepattern
 70
    14
 71
     2
 72
     2
 73
     0
 90
        0
 40
-0.6
 41
-30.0
 62
     5
 63
     7
 74
     1
 91
        4
 64
     7
 65
   257
 75
     7
175
     7
 42
1.0
 92
        8
 66
     7
 43
1.0
 76
     1
 77
     6
 78
     2
 67
     7
 79
     5
170
     0
171
     0
290
     0
174
     0
 93
        1
 44
0.0
173
     0
291
     1
 45
0.0
1001
ACAD
1000
AcDbSavedByObjectVersion
1070
     0
  0
VISUALSTYLE
  5
33
102
{ACAD_REACTORS
330
2A
102
}
102
{ACAD_XDICTIONARY
360
159
102
}
330
2A
100
AcDbVisualStyle
  2
Realistic
 70
     8
 71
     2
 72
     2
 73
     0
 90
        0
 40
-0.6
 41
-30.0
 62
     5
 63
     7
 74
     1
 91
        0
 64
     7
 65
   257
 75
     1
175
     1
 42
1.0
 92
        8
 66
     8
 43
1.0
 76
     1
 77
     6
 78
     2
 67
     7
 79
     5
170
     0
171
     0
290
     0
174
     0
 93
       13
 44
0.0
173
     0
291
     0
 45
0.0
1001
ACAD
1000
AcDbSavedByObjectVersion
1070
     0
  0
VISUALSTYLE
  5
37
102
{ACAD_REACTORS
330
2A
102
}
102
{ACAD_XDICTIONARY
360
161
102
}
330
2A
100
AcDbVisualStyle
  2
Thicken
 70
    13
 71
     2
 72
     2
 73
     0
 90
        0
 40
-0.6
 41
-30.0
 62
     5
 63
     7
 74
     1
 91
        4
 64
     7
 65
   257
 75
     1
175
     1
 42
1.0
 92
       12
 66
     7
 43
1.0
 76
     1
 77
     6
 78
     2
 67
     7
 79
     5
170
     0
171
     0
290
     0
174
     0
 93
        1
 44
0.0
173
     0
291
     1
 45
0.0
1001
ACAD
1000
AcDbSavedByObjectVersion
1070
     0
  0
DICTIONARYVAR
  5
147
102
{ACAD_REACTORS
330
144
102
}
330
144
100
DictionaryVariables
280
     0
  1
2
  0
DICTIONARYVAR
  5
148
102
{ACAD_REACTORS
330
144
102
}
330
144
100
DictionaryVariables
280
     0
  1
1
  0
DICTIONARY
  5
16B
330
3D
100
AcDbDictionary
280
     1
281
     1
  3
ACAD_XREC_ROUNDTRIP
360
16C
  0
DICTIONARY
  5
169
330
3C
100
AcDbDictionary
280
     1
281
     1
  3
ACAD_XREC_ROUNDTRIP
360
16A
  0
DICTIONARY
  5
16D
330
3E
100
AcDbDictionary
280
     1
281
     1
  3
ACAD_XREC_ROUNDTRIP
360
16E
  0
DICTIONARY
  5
151
330
2F
100
AcDbDictionary
280
     1
281
     1
  3
ACAD_XREC_ROUNDTRIP
360
152
  0
DICTIONARY
  5
155
330
31
100
AcDbDictionary
280
     1
281
     1
  3
ACAD_XREC_ROUNDTRIP
360
156
  0
DICTIONARY
  5
153
330
30
100
AcDbDictionary
280
     1
281
     1
  3
ACAD_XREC_ROUNDTRIP
360
154
  0
DICTIONARY
  5
157
330
32
100
AcDbDictionary
280
     1
281
     1
  3
ACAD_XREC_ROUNDTRIP
360
158
  0
DICTIONARY
  5
15F
330
36
100
AcDbDictionary
280
     1
281
     1
  3
ACAD_XREC_ROUNDTRIP
360
160
  0
DICTIONARY
  5
167
330
3A
100
AcDbDictionary
280
     1
281
     1
  3
ACAD_XREC_ROUNDTRIP
360
168
  0
DICTIONARY
  5
15B
330
34
100
AcDbDictionary
280
     1
281
     1
  3
ACAD_XREC_ROUNDTRIP
360
15C
  0
DICTIONARY
  5
15D
330
35
100
AcDbDictionary
280
     1
281
     1
  3
ACAD_XREC_ROUNDTRIP
360
15E
  0
DICTIONARY
  5
165
330
39
100
AcDbDictionary
280
     1
281
     1
  3
ACAD_XREC_ROUNDTRIP
360
166
  0
DICTIONARY
  5
149
330
2B
100
AcDbDictionary
280
     1
281
     1
  3
ACAD_XREC_ROUNDTRIP
360
14A
  0
DICTIONARY
  5
14B
330
2C
100
AcDbDictionary
280
     1
281
     1
  3
ACAD_XREC_ROUNDTRIP
360
14C
  0
DICTIONARY
  5
14D
330
2D
100
AcDbDictionary
280
     1
281
     1
  3
ACAD_XREC_ROUNDTRIP
360
14E
  0
DICTIONARY
  5
14F
330
2E
100
AcDbDictionary
280
     1
281
     1
  3
ACAD_XREC_ROUNDTRIP
360
150
  0
DICTIONARY
  5
163
330
38
100
AcDbDictionary
280
     1
281
     1
  3
ACAD_XREC_ROUNDTRIP
360
164
  0
DICTIONARY
  5
159
330
33
100
AcDbDictionary
280
     1
281
     1
  3
ACAD_XREC_ROUNDTRIP
360
15A
  0
DICTIONARY
  5
161
330
37
100
AcDbDictionary
280
     1
281
     1
  3
ACAD_XREC_ROUNDTRIP
360
162
  0
XRECORD
  5
16C
102
{ACAD_REACTORS
330
16B
102
}
330
16B
100
AcDbXrecord
280
     1
102
MATERIAL
148
0.0
149
0.0
149
0.0
 93
        0
 94
      127
282
     0
 72
     1
 77
     1
171
     1
175
     1
179
     1
273
     0
  0
XRECORD
  5
16A
102
{ACAD_REACTORS
330
169
102
}
330
169
100
AcDbXrecord
280
     1
102
MATERIAL
148
0.0
149
0.0
149
0.0
 93
        0
 94
      127
282
     0
 72
     1
 77
     1
171
     1
175
     1
179
     1
273
     0
  0
XRECORD
  5
16E
102
{ACAD_REACTORS
330
16D
102
}
330
16D
100
AcDbXrecord
280
     1
102
MATERIAL
148
0.0
149
0.0
149
0.0
 93
        0
 94
      127
282
     0
 72
     1
 77
     1
171
     1
175
     1
179
     1
273
     0
  0
XRECORD
  5
152
102
{ACAD_REACTORS
330
151
102
}
330
151
100
AcDbXrecord
280
     1
102
RTVSPropertyOp0
 70
     1
102
RTVSPropertyOp1
 70
     1
102
RTVSPropertyOp2
 70
     1
102
RTVSPropertyOp3
 70
     1
102
RTVSPropertyOp4
 70
     1
102
RTVSPropertyOp5
 70
     1
102
RTVSPropertyOp6
 70
     1
102
RTVSPropertyOp7
 70
     1
102
RTVSPropertyOp8
 70
     1
102
RTVSPropertyOp9
 70
     1
102
RTVSPropertyOp10
 70
     1
102
RTVSPropertyOp11
 70
     1
102
RTVSPropertyOp12
 70
     1
102
RTVSPropertyOp13
 70
     1
102
RTVSPropertyOp14
 70
     1
102
RTVSPropertyOp15
 70
     1
102
RTVSPropertyOp16
 70
     1
102
RTVSPropertyOp17
 70
     1
102
RTVSPropertyOp18
 70
     1
102
RTVSPropertyOp19
 70
     1
102
RTVSPropertyOp20
 70
     1
102
RTVSPropertyOp21
 70
     1
102
RTVSPropertyOp22
 70
     1
102
RTVSPropertyOp23
 70
     1
102
RTVSPropertyOp24
 70
     1
102
RTVSPropertyOp25
 70
     1
102
RTVSPropertyOp26
 70
     1
102
RTVSPropertyOp27
 70
     1
102
RTVSPropertyOp28
 70
     1
102
RTVSPropertyOp29
 70
     1
102
RTVSPropertyOp30
 70
     1
102
RTVSPropertyOp31
 70
     1
102
RTVSPropertyOp32
 70
     1
  0
XRECORD
  5
156
102
{ACAD_REACTORS
330
155
102
}
330
155
100
AcDbXrecord
280
     1
102
RTVSPropertyOp0
 70
     1
102
RTVSPropertyOp1
 70
     1
102
RTVSPropertyOp2
 70
     1
102
RTVSPropertyOp3
 70
     1
102
RTVSPropertyOp4
 70
     1
102
RTVSPropertyOp5
 70
     1
102
RTVSPropertyOp6
 70
     1
102
RTVSPropertyOp7
 70
     1
102
RTVSPropertyOp8
 70
     1
102
RTVSPropertyOp9
 70
     1
102
RTVSPropertyOp10
 70
     1
102
RTVSPropertyOp11
 70
     1
102
RTVSPropertyOp12
 70
     1
102
RTVSPropertyOp13
 70
     1
102
RTVSPropertyOp14
 70
     1
102
RTVSPropertyOp15
 70
     1
102
RTVSPropertyOp16
 70
     1
102
RTVSPropertyOp17
 70
     1
102
RTVSPropertyOp18
 70
     1
102
RTVSPropertyOp19
 70
     1
102
RTVSPropertyOp20
 70
     1
102
RTVSPropertyOp21
 70
     1
102
RTVSPropertyOp22
 70
     1
102
RTVSPropertyOp23
 70
     1
102
RTVSPropertyOp24
 70
     1
102
RTVSPropertyOp25
 70
     1
102
RTVSPropertyOp26
 70
     1
102
RTVSPropertyOp27
 70
     1
102
RTVSPropertyOp28
 70
     1
102
RTVSPropertyOp29
 70
     1
102
RTVSPropertyOp30
 70
     1
102
RTVSPropertyOp31
 70
     1
102
RTVSPropertyOp32
 70
     1
  0
XRECORD
  5
154
102
{ACAD_REACTORS
330
153
102
}
330
153
100
AcDbXrecord
280
     1
102
RTVSPropertyOp0
 70
     1
102
RTVSPropertyOp1
 70
     1
102
RTVSPropertyOp2
 70
     1
102
RTVSPropertyOp3
 70
     1
102
RTVSPropertyOp4
 70
     1
102
RTVSPropertyOp5
 70
     1
102
RTVSPropertyOp6
 70
     1
102
RTVSPropertyOp7
 70
     1
102
RTVSPropertyOp8
 70
     1
102
RTVSPropertyOp9
 70
     1
102
RTVSPropertyOp10
 70
     1
102
RTVSPropertyOp11
 70
     1
102
RTVSPropertyOp12
 70
     1
102
RTVSPropertyOp13
 70
     1
102
RTVSPropertyOp14
 70
     1
102
RTVSPropertyOp15
 70
     1
102
RTVSPropertyOp16
 70
     1
102
RTVSPropertyOp17
 70
     1
102
RTVSPropertyOp18
 70
     1
102
RTVSPropertyOp19
 70
     1
102
RTVSPropertyOp20
 70
     1
102
RTVSPropertyOp21
 70
     1
102
RTVSPropertyOp22
 70
     1
102
RTVSPropertyOp23
 70
     1
102
RTVSPropertyOp24
 70
     1
102
RTVSPropertyOp25
 70
     1
102
RTVSPropertyOp26
 70
     1
102
RTVSPropertyOp27
 70
     1
102
RTVSPropertyOp28
 70
     1
102
RTVSPropertyOp29
 70
     1
102
RTVSPropertyOp30
 70
     1
102
RTVSPropertyOp31
 70
     1
102
RTVSPropertyOp32
 70
     1
  0
XRECORD
  5
158
102
{ACAD_REACTORS
330
157
102
}
330
157
100
AcDbXrecord
280
     1
102
RTVSPropertyOp0
 70
     1
102
RTVSPropertyOp1
 70
     1
102
RTVSPropertyOp2
 70
     1
102
RTVSPropertyOp3
 70
     1
102
RTVSPropertyOp4
 70
     1
102
RTVSPropertyOp5
 70
     1
102
RTVSPropertyOp6
 70
     1
102
RTVSPropertyOp7
 70
     1
102
RTVSPropertyOp8
 70
     1
102
RTVSPropertyOp9
 70
     1
102
RTVSPropertyOp10
 70
     1
102
RTVSPropertyOp11
 70
     1
102
RTVSPropertyOp12
 70
     1
102
RTVSPropertyOp13
 70
     1
102
RTVSPropertyOp14
 70
     1
102
RTVSPropertyOp15
 70
     1
102
RTVSPropertyOp16
 70
     1
102
RTVSPropertyOp17
 70
     1
102
RTVSPropertyOp18
 70
     1
102
RTVSPropertyOp19
 70
     1
102
RTVSPropertyOp20
 70
     1
102
RTVSPropertyOp21
 70
     1
102
RTVSPropertyOp22
 70
     1
102
RTVSPropertyOp23
 70
     1
102
RTVSPropertyOp24
 70
     1
102
RTVSPropertyOp25
 70
     1
102
RTVSPropertyOp26
 70
     1
102
RTVSPropertyOp27
 70
     1
102
RTVSPropertyOp28
 70
     1
102
RTVSPropertyOp29
 70
     1
102
RTVSPropertyOp30
 70
     1
102
RTVSPropertyOp31
 70
     1
102
RTVSPropertyOp32
 70
     1
  0
XRECORD
  5
160
102
{ACAD_REACTORS
330
15F
102
}
330
15F
100
AcDbXrecord
280
     1
102
RTVSPropertyOp0
 70
     1
102
RTVSPropertyOp1
 70
     1
102
RTVSPropertyOp2
 70
     1
102
RTVSPropertyOp3
 70
     1
102
RTVSPropertyOp4
 70
     1
102
RTVSPropertyOp5
 70
     1
102
RTVSPropertyOp6
 70
     1
102
RTVSPropertyOp7
 70
     1
102
RTVSPropertyOp8
 70
     1
102
RTVSPropertyOp9
 70
     1
102
RTVSPropertyOp10
 70
     1
102
RTVSPropertyOp11
 70
     1
102
RTVSPropertyOp12
 70
     1
102
RTVSPropertyOp13
 70
     1
102
RTVSPropertyOp14
 70
     1
102
RTVSPropertyOp15
 70
     1
102
RTVSPropertyOp16
 70
     1
102
RTVSPropertyOp17
 70
     1
102
RTVSPropertyOp18
 70
     1
102
RTVSPropertyOp19
 70
     1
102
RTVSPropertyOp20
 70
     1
102
RTVSPropertyOp21
 70
     1
102
RTVSPropertyOp22
 70
     1
102
RTVSPropertyOp23
 70
     1
102
RTVSPropertyOp24
 70
     1
102
RTVSPropertyOp25
 70
     1
102
RTVSPropertyOp26
 70
     1
102
RTVSPropertyOp27
 70
     1
102
RTVSPropertyOp28
 70
     1
102
RTVSPropertyOp29
 70
     1
102
RTVSPropertyOp30
 70
     1
102
RTVSPropertyOp31
 70
     1
102
RTVSPropertyOp32
 70
     1
  0
XRECORD
  5
168
102
{ACAD_REACTORS
330
167
102
}
330
167
100
AcDbXrecord
280
     1
102
RTVSPropertyOp0
 70
     1
102
RTVSPropertyOp1
 70
     1
102
RTVSPropertyOp2
 70
     1
102
RTVSPropertyOp3
 70
     1
102
RTVSPropertyOp4
 70
     1
102
RTVSPropertyOp5
 70
     1
102
RTVSPropertyOp6
 70
     1
102
RTVSPropertyOp7
 70
     1
102
RTVSPropertyOp8
 70
     1
102
RTVSPropertyOp9
 70
     1
102
RTVSPropertyOp10
 70
     1
102
RTVSPropertyOp11
 70
     1
102
RTVSPropertyOp12
 70
     1
102
RTVSPropertyOp13
 70
     1
102
RTVSPropertyOp14
 70
     1
102
RTVSPropertyOp15
 70
     1
102
RTVSPropertyOp16
 70
     1
102
RTVSPropertyOp17
 70
     1
102
RTVSPropertyOp18
 70
     1
102
RTVSPropertyOp19
 70
     1
102
RTVSPropertyOp20
 70
     1
102
RTVSPropertyOp21
 70
     1
102
RTVSPropertyOp22
 70
     1
102
RTVSPropertyOp23
 70
     1
102
RTVSPropertyOp24
 70
     1
102
RTVSPropertyOp25
 70
     1
102
RTVSPropertyOp26
 70
     1
102
RTVSPropertyOp27
 70
     1
102
RTVSPropertyOp28
 70
     1
102
RTVSPropertyOp29
 70
     1
102
RTVSPropertyOp30
 70
     1
102
RTVSPropertyOp31
 70
     1
102
RTVSPropertyOp32
 70
     1
  0
XRECORD
  5
15C
102
{ACAD_REACTORS
330
15B
102
}
330
15B
100
AcDbXrecord
280
     1
102
RTVSPropertyOp0
 70
     1
102
RTVSPropertyOp1
 70
     1
102
RTVSPropertyOp2
 70
     1
102
RTVSPropertyOp3
 70
     1
102
RTVSPropertyOp4
 70
     1
102
RTVSPropertyOp5
 70
     1
102
RTVSPropertyOp6
 70
     1
102
RTVSPropertyOp7
 70
     1
102
RTVSPropertyOp8
 70
     1
102
RTVSPropertyOp9
 70
     1
102
RTVSPropertyOp10
 70
     1
102
RTVSPropertyOp11
 70
     1
102
RTVSPropertyOp12
 70
     1
102
RTVSPropertyOp13
 70
     1
102
RTVSPropertyOp14
 70
     1
102
RTVSPropertyOp15
 70
     1
102
RTVSPropertyOp16
 70
     1
102
RTVSPropertyOp17
 70
     1
102
RTVSPropertyOp18
 70
     1
102
RTVSPropertyOp19
 70
     1
102
RTVSPropertyOp20
 70
     1
102
RTVSPropertyOp21
 70
     1
102
RTVSPropertyOp22
 70
     1
102
RTVSPropertyOp23
 70
     1
102
RTVSPropertyOp24
 70
     1
102
RTVSPropertyOp25
 70
     1
102
RTVSPropertyOp26
 70
     1
102
RTVSPropertyOp27
 70
     1
102
RTVSPropertyOp28
 70
     1
102
RTVSPropertyOp29
 70
     1
102
RTVSPropertyOp30
 70
     1
102
RTVSPropertyOp31
 70
     1
102
RTVSPropertyOp32
 70
     1
  0
XRECORD
  5
15E
102
{ACAD_REACTORS
330
15D
102
}
330
15D
100
AcDbXrecord
280
     1
102
RTVSPropertyOp0
 70
     1
102
RTVSPropertyOp1
 70
     1
102
RTVSPropertyOp2
 70
     1
102
RTVSPropertyOp3
 70
     1
102
RTVSPropertyOp4
 70
     1
102
RTVSPropertyOp5
 70
     1
102
RTVSPropertyOp6
 70
     1
102
RTVSPropertyOp7
 70
     1
102
RTVSPropertyOp8
 70
     1
102
RTVSPropertyOp9
 70
     1
102
RTVSPropertyOp10
 70
     1
102
RTVSPropertyOp11
 70
     1
102
RTVSPropertyOp12
 70
     1
102
RTVSPropertyOp13
 70
     1
102
RTVSPropertyOp14
 70
     1
102
RTVSPropertyOp15
 70
     1
102
RTVSPropertyOp16
 70
     1
102
RTVSPropertyOp17
 70
     1
102
RTVSPropertyOp18
 70
     1
102
RTVSPropertyOp19
 70
     1
102
RTVSPropertyOp20
 70
     1
102
RTVSPropertyOp21
 70
     1
102
RTVSPropertyOp22
 70
     1
102
RTVSPropertyOp23
 70
     1
102
RTVSPropertyOp24
 70
     1
102
RTVSPropertyOp25
 70
     1
102
RTVSPropertyOp26
 70
     1
102
RTVSPropertyOp27
 70
     1
102
RTVSPropertyOp28
 70
     1
102
RTVSPropertyOp29
 70
     1
102
RTVSPropertyOp30
 70
     1
102
RTVSPropertyOp31
 70
     1
102
RTVSPropertyOp32
 70
     1
  0
XRECORD
  5
166
102
{ACAD_REACTORS
330
165
102
}
330
165
100
AcDbXrecord
280
     1
102
RTVSPropertyOp0
 70
     1
102
RTVSPropertyOp1
 70
     1
102
RTVSPropertyOp2
 70
     1
102
RTVSPropertyOp3
 70
     1
102
RTVSPropertyOp4
 70
     1
102
RTVSPropertyOp5
 70
     1
102
RTVSPropertyOp6
 70
     1
102
RTVSPropertyOp7
 70
     1
102
RTVSPropertyOp8
 70
     1
102
RTVSPropertyOp9
 70
     1
102
RTVSPropertyOp10
 70
     1
102
RTVSPropertyOp11
 70
     1
102
RTVSPropertyOp12
 70
     1
102
RTVSPropertyOp13
 70
     1
102
RTVSPropertyOp14
 70
     1
102
RTVSPropertyOp15
 70
     1
102
RTVSPropertyOp16
 70
     1
102
RTVSPropertyOp17
 70
     1
102
RTVSPropertyOp18
 70
     1
102
RTVSPropertyOp19
 70
     1
102
RTVSPropertyOp20
 70
     1
102
RTVSPropertyOp21
 70
     1
102
RTVSPropertyOp22
 70
     1
102
RTVSPropertyOp23
 70
     1
102
RTVSPropertyOp24
 70
     1
102
RTVSPropertyOp25
 70
     1
102
RTVSPropertyOp26
 70
     1
102
RTVSPropertyOp27
 70
     1
102
RTVSPropertyOp28
 70
     1
102
RTVSPropertyOp29
 70
     1
102
RTVSPropertyOp30
 70
     1
102
RTVSPropertyOp31
 70
     1
102
RTVSPropertyOp32
 70
     1
  0
XRECORD
  5
14A
102
{ACAD_REACTORS
330
149
102
}
330
149
100
AcDbXrecord
280
     1
102
RTVSPropertyOp0
 70
     1
102
RTVSPropertyOp1
 70
     1
102
RTVSPropertyOp2
 70
     1
102
RTVSPropertyOp3
 70
     1
102
RTVSPropertyOp4
 70
     1
102
RTVSPropertyOp5
 70
     1
102
RTVSPropertyOp6
 70
     1
102
RTVSPropertyOp7
 70
     1
102
RTVSPropertyOp8
 70
     1
102
RTVSPropertyOp9
 70
     1
102
RTVSPropertyOp10
 70
     1
102
RTVSPropertyOp11
 70
     1
102
RTVSPropertyOp12
 70
     1
102
RTVSPropertyOp13
 70
     1
102
RTVSPropertyOp14
 70
     1
102
RTVSPropertyOp15
 70
     1
102
RTVSPropertyOp16
 70
     1
102
RTVSPropertyOp17
 70
     1
102
RTVSPropertyOp18
 70
     1
102
RTVSPropertyOp19
 70
     1
102
RTVSPropertyOp20
 70
     1
102
RTVSPropertyOp21
 70
     1
102
RTVSPropertyOp22
 70
     1
102
RTVSPropertyOp23
 70
     1
102
RTVSPropertyOp24
 70
     1
102
RTVSPropertyOp25
 70
     1
102
RTVSPropertyOp26
 70
     1
102
RTVSPropertyOp27
 70
     1
102
RTVSPropertyOp28
 70
     1
102
RTVSPropertyOp29
 70
     1
102
RTVSPropertyOp30
 70
     1
102
RTVSPropertyOp31
 70
     1
102
RTVSPropertyOp32
 70
     1
  0
XRECORD
  5
14C
102
{ACAD_REACTORS
330
14B
102
}
330
14B
100
AcDbXrecord
280
     1
102
RTVSPropertyOp0
 70
     1
102
RTVSPropertyOp1
 70
     1
102
RTVSPropertyOp2
 70
     1
102
RTVSPropertyOp3
 70
     1
102
RTVSPropertyOp4
 70
     1
102
RTVSPropertyOp5
 70
     1
102
RTVSPropertyOp6
 70
     1
102
RTVSPropertyOp7
 70
     1
102
RTVSPropertyOp8
 70
     1
102
RTVSPropertyOp9
 70
     1
102
RTVSPropertyOp10
 70
     1
102
RTVSPropertyOp11
 70
     1
102
RTVSPropertyOp12
 70
     1
102
RTVSPropertyOp13
 70
     1
102
RTVSPropertyOp14
 70
     1
102
RTVSPropertyOp15
 70
     1
102
RTVSPropertyOp16
 70
     1
102
RTVSPropertyOp17
 70
     1
102
RTVSPropertyOp18
 70
     1
102
RTVSPropertyOp19
 70
     1
102
RTVSPropertyOp20
 70
     1
102
RTVSPropertyOp21
 70
     1
102
RTVSPropertyOp22
 70
     1
102
RTVSPropertyOp23
 70
     1
102
RTVSPropertyOp24
 70
     1
102
RTVSPropertyOp25
 70
     1
102
RTVSPropertyOp26
 70
     1
102
RTVSPropertyOp27
 70
     1
102
RTVSPropertyOp28
 70
     1
102
RTVSPropertyOp29
 70
     1
102
RTVSPropertyOp30
 70
     1
102
RTVSPropertyOp31
 70
     1
102
RTVSPropertyOp32
 70
     1
  0
XRECORD
  5
14E
102
{ACAD_REACTORS
330
14D
102
}
330
14D
100
AcDbXrecord
280
     1
102
RTVSPropertyOp0
 70
     1
102
RTVSPropertyOp1
 70
     1
102
RTVSPropertyOp2
 70
     1
102
RTVSPropertyOp3
 70
     1
102
RTVSPropertyOp4
 70
     1
102
RTVSPropertyOp5
 70
     1
102
RTVSPropertyOp6
 70
     1
102
RTVSPropertyOp7
 70
     1
102
RTVSPropertyOp8
 70
     1
102
RTVSPropertyOp9
 70
     1
102
RTVSPropertyOp10
 70
     1
102
RTVSPropertyOp11
 70
     1
102
RTVSPropertyOp12
 70
     1
102
RTVSPropertyOp13
 70
     1
102
RTVSPropertyOp14
 70
     1
102
RTVSPropertyOp15
 70
     1
102
RTVSPropertyOp16
 70
     1
102
RTVSPropertyOp17
 70
     1
102
RTVSPropertyOp18
 70
     1
102
RTVSPropertyOp19
 70
     1
102
RTVSPropertyOp20
 70
     1
102
RTVSPropertyOp21
 70
     1
102
RTVSPropertyOp22
 70
     1
102
RTVSPropertyOp23
 70
     1
102
RTVSPropertyOp24
 70
     1
102
RTVSPropertyOp25
 70
     1
102
RTVSPropertyOp26
 70
     1
102
RTVSPropertyOp27
 70
     1
102
RTVSPropertyOp28
 70
     1
102
RTVSPropertyOp29
 70
     1
102
RTVSPropertyOp30
 70
     1
102
RTVSPropertyOp31
 70
     1
102
RTVSPropertyOp32
 70
     1
  0
XRECORD
  5
150
102
{ACAD_REACTORS
330
14F
102
}
330
14F
100
AcDbXrecord
280
     1
102
RTVSPropertyOp0
 70
     1
102
RTVSPropertyOp1
 70
     1
102
RTVSPropertyOp2
 70
     1
102
RTVSPropertyOp3
 70
     1
102
RTVSPropertyOp4
 70
     1
102
RTVSPropertyOp5
 70
     1
102
RTVSPropertyOp6
 70
     1
102
RTVSPropertyOp7
 70
     1
102
RTVSPropertyOp8
 70
     1
102
RTVSPropertyOp9
 70
     1
102
RTVSPropertyOp10
 70
     1
102
RTVSPropertyOp11
 70
     1
102
RTVSPropertyOp12
 70
     1
102
RTVSPropertyOp13
 70
     1
102
RTVSPropertyOp14
 70
     1
102
RTVSPropertyOp15
 70
     1
102
RTVSPropertyOp16
 70
     1
102
RTVSPropertyOp17
 70
     1
102
RTVSPropertyOp18
 70
     1
102
RTVSPropertyOp19
 70
     1
102
RTVSPropertyOp20
 70
     1
102
RTVSPropertyOp21
 70
     1
102
RTVSPropertyOp22
 70
     1
102
RTVSPropertyOp23
 70
     1
102
RTVSPropertyOp24
 70
     1
102
RTVSPropertyOp25
 70
     1
102
RTVSPropertyOp26
 70
     1
102
RTVSPropertyOp27
 70
     1
102
RTVSPropertyOp28
 70
     1
102
RTVSPropertyOp29
 70
     1
102
RTVSPropertyOp30
 70
     1
102
RTVSPropertyOp31
 70
     1
102
RTVSPropertyOp32
 70
     1
  0
XRECORD
  5
164
102
{ACAD_REACTORS
330
163
102
}
330
163
100
AcDbXrecord
280
     1
102
RTVSPropertyOp0
 70
     1
102
RTVSPropertyOp1
 70
     1
102
RTVSPropertyOp2
 70
     1
102
RTVSPropertyOp3
 70
     1
102
RTVSPropertyOp4
 70
     1
102
RTVSPropertyOp5
 70
     1
102
RTVSPropertyOp6
 70
     1
102
RTVSPropertyOp7
 70
     1
102
RTVSPropertyOp8
 70
     1
102
RTVSPropertyOp9
 70
     1
102
RTVSPropertyOp10
 70
     1
102
RTVSPropertyOp11
 70
     1
102
RTVSPropertyOp12
 70
     1
102
RTVSPropertyOp13
 70
     1
102
RTVSPropertyOp14
 70
     1
102
RTVSPropertyOp15
 70
     1
102
RTVSPropertyOp16
 70
     1
102
RTVSPropertyOp17
 70
     1
102
RTVSPropertyOp18
 70
     1
102
RTVSPropertyOp19
 70
     1
102
RTVSPropertyOp20
 70
     1
102
RTVSPropertyOp21
 70
     1
102
RTVSPropertyOp22
 70
     1
102
RTVSPropertyOp23
 70
     1
102
RTVSPropertyOp24
 70
     1
102
RTVSPropertyOp25
 70
     1
102
RTVSPropertyOp26
 70
     1
102
RTVSPropertyOp27
 70
     1
102
RTVSPropertyOp28
 70
     1
102
RTVSPropertyOp29
 70
     1
102
RTVSPropertyOp30
 70
     1
102
RTVSPropertyOp31
 70
     1
102
RTVSPropertyOp32
 70
     1
  0
XRECORD
  5
15A
102
{ACAD_REACTORS
330
159
102
}
330
159
100
AcDbXrecord
280
     1
102
RTVSPropertyOp0
 70
     1
102
RTVSPropertyOp1
 70
     1
102
RTVSPropertyOp2
 70
     1
102
RTVSPropertyOp3
 70
     1
102
RTVSPropertyOp4
 70
     1
102
RTVSPropertyOp5
 70
     1
102
RTVSPropertyOp6
 70
     1
102
RTVSPropertyOp7
 70
     1
102
RTVSPropertyOp8
 70
     1
102
RTVSPropertyOp9
 70
     1
102
RTVSPropertyOp10
 70
     1
102
RTVSPropertyOp11
 70
     1
102
RTVSPropertyOp12
 70
     1
102
RTVSPropertyOp13
 70
     1
102
RTVSPropertyOp14
 70
     1
102
RTVSPropertyOp15
 70
     1
102
RTVSPropertyOp16
 70
     1
102
RTVSPropertyOp17
 70
     1
102
RTVSPropertyOp18
 70
     1
102
RTVSPropertyOp19
 70
     1
102
RTVSPropertyOp20
 70
     1
102
RTVSPropertyOp21
 70
     1
102
RTVSPropertyOp22
 70
     1
102
RTVSPropertyOp23
 70
     1
102
RTVSPropertyOp24
 70
     1
102
RTVSPropertyOp25
 70
     1
102
RTVSPropertyOp26
 70
     1
102
RTVSPropertyOp27
 70
     1
102
RTVSPropertyOp28
 70
     1
102
RTVSPropertyOp29
 70
     1
102
RTVSPropertyOp30
 70
     1
102
RTVSPropertyOp31
 70
     1
102
RTVSPropertyOp32
 70
     1
  0
XRECORD
  5
162
102
{ACAD_REACTORS
330
161
102
}
330
161
100
AcDbXrecord
280
     1
102
RTVSPropertyOp0
 70
     1
102
RTVSPropertyOp1
 70
     1
102
RTVSPropertyOp2
 70
     1
102
RTVSPropertyOp3
 70
     1
102
RTVSPropertyOp4
 70
     1
102
RTVSPropertyOp5
 70
     1
102
RTVSPropertyOp6
 70
     1
102
RTVSPropertyOp7
 70
     1
102
RTVSPropertyOp8
 70
     1
102
RTVSPropertyOp9
 70
     1
102
RTVSPropertyOp10
 70
     1
102
RTVSPropertyOp11
 70
     1
102
RTVSPropertyOp12
 70
     1
102
RTVSPropertyOp13
 70
     1
102
RTVSPropertyOp14
 70
     1
102
RTVSPropertyOp15
 70
     1
102
RTVSPropertyOp16
 70
     1
102
RTVSPropertyOp17
 70
     1
102
RTVSPropertyOp18
 70
     1
102
RTVSPropertyOp19
 70
     1
102
RTVSPropertyOp20
 70
     1
102
RTVSPropertyOp21
 70
     1
102
RTVSPropertyOp22
 70
     1
102
RTVSPropertyOp23
 70
     1
102
RTVSPropertyOp24
 70
     1
102
RTVSPropertyOp25
 70
     1
102
RTVSPropertyOp26
 70
     1
102
RTVSPropertyOp27
 70
     1
102
RTVSPropertyOp28
 70
     1
102
RTVSPropertyOp29
 70
     1
102
RTVSPropertyOp30
 70
     1
102
RTVSPropertyOp31
 70
     1
102
RTVSPropertyOp32
 70
     1
  0
ENDSEC
  0
EOF
